  0
SECTION
  2
HEADER
  9
$ACADVER
  1
AC1015
  9
$ACADMAINTVER
 70
    20
  9
$DWGCODEPAGE
  3
ANSI_932
  9
$INSBASE
 10
0.0
 20
0.0
 30
0.0
  9
$EXTMIN
 10
-0.1602050617329951
 20
-0.22504996767384
 30
-0.0015258207003583
  9
$EXTMAX
 10
5250.160229508953
 20
7375.225084310193
 30
0.0000000349246037
  9
$LIMMIN
 10
0.0
 20
0.0
  9
$LIMMAX
 10
297.0
 20
210.0
  9
$ORTHOMODE
 70
     1
  9
$REGENMODE
 70
     1
  9
$FILLMODE
 70
     0
  9
$QTEXTMODE
 70
     0
  9
$MIRRTEXT
 70
     1
  9
$LTSCALE
 40
100.0
  9
$ATTMODE
 70
     1
  9
$TEXTSIZE
 40
180.0
  9
$TRACEWID
 40
0.05
  9
$TEXTSTYLE
  7
STANDARD
  9
$CLAYER
  8
3
  9
$CELTYPE
  6
ByLayer
  9
$CECOLOR
 62
   256
  9
$CELTSCALE
 40
1.0
  9
$DISPSILH
 70
     0
  9
$DIMSCALE
 40
25.0
  9
$DIMASZ
 40
2.0
  9
$DIMEXO
 40
1.0
  9
$DIMDLI
 40
10.0
  9
$DIMRND
 40
0.0
  9
$DIMDLE
 40
0.0
  9
$DIMEXE
 40
1.0
  9
$DIMTP
 40
1.0
  9
$DIMTM
 40
1.0
  9
$DIMTXT
 40
3.0
  9
$DIMCEN
 40
0.0
  9
$DIMTSZ
 40
0.0
  9
$DIMTOL
 70
     0
  9
$DIMLIM
 70
     0
  9
$DIMTIH
 70
     0
  9
$DIMTOH
 70
     0
  9
$DIMSE1
 70
     0
  9
$DIMSE2
 70
     0
  9
$DIMTAD
 70
     1
  9
$DIMZIN
 70
     8
  9
$DIMBLK
  1

  9
$DIMASO
 70
     1
  9
$DIMSHO
 70
     1
  9
$DIMPOST
  1

  9
$DIMAPOST
  1

  9
$DIMALT
 70
     0
  9
$DIMALTD
 70
     2
  9
$DIMALTF
 40
0.039
  9
$DIMLFAC
 40
1.0
  9
$DIMTOFL
 70
     1
  9
$DIMTVP
 40
0.0
  9
$DIMTIX
 70
     0
  9
$DIMSOXD
 70
     0
  9
$DIMSAH
 70
     1
  9
$DIMBLK1
  1
OPEN
  9
$DIMBLK2
  1
OPEN
  9
$DIMSTYLE
  2
IGA
  9
$DIMCLRD
 70
     0
  9
$DIMCLRE
 70
     0
  9
$DIMCLRT
 70
     0
  9
$DIMTFAC
 40
10.0
  9
$DIMGAP
 40
1.0
  9
$DIMJUST
 70
     0
  9
$DIMSD1
 70
     0
  9
$DIMSD2
 70
     0
  9
$DIMTOLJ
 70
     1
  9
$DIMTZIN
 70
     0
  9
$DIMALTZ
 70
     0
  9
$DIMALTTZ
 70
     0
  9
$DIMUPT
 70
     0
  9
$DIMDEC
 70
     4
  9
$DIMTDEC
 70
     4
  9
$DIMALTU
 70
     2
  9
$DIMALTTD
 70
     2
  9
$DIMTXSTY
  7
STANDARD
  9
$DIMAUNIT
 70
     0
  9
$DIMADEC
 70
     0
  9
$DIMALTRND
 40
0.0
  9
$DIMAZIN
 70
     0
  9
$DIMDSEP
 70
    46
  9
$DIMATFIT
 70
     3
  9
$DIMFRAC
 70
     0
  9
$DIMLDRBLK
  1
OPEN
  9
$DIMLUNIT
 70
     2
  9
$DIMLWD
 70
    -2
  9
$DIMLWE
 70
    -2
  9
$DIMTMOVE
 70
     0
  9
$LUNITS
 70
     2
  9
$LUPREC
 70
     3
  9
$SKETCHINC
 40
0.1
  9
$FILLETRAD
 40
50.0
  9
$AUNITS
 70
     0
  9
$AUPREC
 70
     0
  9
$MENU
  1
acad
  9
$ELEVATION
 40
0.0
  9
$PELEVATION
 40
0.0
  9
$THICKNESS
 40
0.0
  9
$LIMCHECK
 70
     0
  9
$CHAMFERA
 40
0.5
  9
$CHAMFERB
 40
0.5
  9
$CHAMFERC
 40
0.0
  9
$CHAMFERD
 40
0.0
  9
$SKPOLY
 70
     0
  9
$TDCREATE
 40
2451387.612503704
  9
$TDUCREATE
 40
2451387.237503704
  9
$TDUPDATE
 40
2460263.704670648
  9
$TDUUPDATE
 40
2460263.329670648
  9
$TDINDWG
 40
0.0661019097
  9
$TDUSRTIMER
 40
0.0661017245
  9
$USRTIMER
 70
     1
  9
$ANGBASE
 50
0.0
  9
$ANGDIR
 70
     0
  9
$PDMODE
 70
     0
  9
$PDSIZE
 40
0.0
  9
$PLINEWID
 40
0.0
  9
$SPLFRAME
 70
     0
  9
$SPLINETYPE
 70
     6
  9
$SPLINESEGS
 70
     8
  9
$HANDSEED
  5
837E
  9
$SURFTAB1
 70
     6
  9
$SURFTAB2
 70
     6
  9
$SURFTYPE
 70
     6
  9
$SURFU
 70
     6
  9
$SURFV
 70
     6
  9
$UCSBASE
  2

  9
$UCSNAME
  2

  9
$UCSORG
 10
0.0
 20
0.0
 30
0.0
  9
$UCSXDIR
 10
1.0
 20
0.0
 30
0.0
  9
$UCSYDIR
 10
0.0
 20
1.0
 30
0.0
  9
$UCSORTHOREF
  2

  9
$UCSORTHOVIEW
 70
     0
  9
$UCSORGTOP
 10
0.0
 20
0.0
 30
0.0
  9
$UCSORGBOTTOM
 10
0.0
 20
0.0
 30
0.0
  9
$UCSORGLEFT
 10
0.0
 20
0.0
 30
0.0
  9
$UCSORGRIGHT
 10
0.0
 20
0.0
 30
0.0
  9
$UCSORGFRONT
 10
0.0
 20
0.0
 30
0.0
  9
$UCSORGBACK
 10
0.0
 20
0.0
 30
0.0
  9
$PUCSBASE
  2

  9
$PUCSNAME
  2

  9
$PUCSORG
 10
0.0
 20
0.0
 30
0.0
  9
$PUCSXDIR
 10
1.0
 20
0.0
 30
0.0
  9
$PUCSYDIR
 10
0.0
 20
1.0
 30
0.0
  9
$PUCSORTHOREF
  2

  9
$PUCSORTHOVIEW
 70
     0
  9
$PUCSORGTOP
 10
0.0
 20
0.0
 30
0.0
  9
$PUCSORGBOTTOM
 10
0.0
 20
0.0
 30
0.0
  9
$PUCSORGLEFT
 10
0.0
 20
0.0
 30
0.0
  9
$PUCSORGRIGHT
 10
0.0
 20
0.0
 30
0.0
  9
$PUCSORGFRONT
 10
0.0
 20
0.0
 30
0.0
  9
$PUCSORGBACK
 10
0.0
 20
0.0
 30
0.0
  9
$USERI1
 70
     0
  9
$USERI2
 70
     0
  9
$USERI3
 70
     0
  9
$USERI4
 70
     0
  9
$USERI5
 70
     0
  9
$USERR1
 40
0.0
  9
$USERR2
 40
0.0
  9
$USERR3
 40
0.0
  9
$USERR4
 40
0.0
  9
$USERR5
 40
0.0
  9
$WORLDVIEW
 70
     1
  9
$SHADEDGE
 70
     3
  9
$SHADEDIF
 70
    70
  9
$TILEMODE
 70
     1
  9
$MAXACTVP
 70
    16
  9
$PINSBASE
 10
0.0
 20
0.0
 30
0.0
  9
$PLIMCHECK
 70
     0
  9
$PEXTMIN
 10
1.000000000000000E+20
 20
1.000000000000000E+20
 30
1.000000000000000E+20
  9
$PEXTMAX
 10
-1.000000000000000E+20
 20
-1.000000000000000E+20
 30
-1.000000000000000E+20
  9
$PLIMMIN
 10
0.0
 20
0.0
  9
$PLIMMAX
 10
12.0
 20
9.0
  9
$UNITMODE
 70
     0
  9
$VISRETAIN
 70
     0
  9
$PLINEGEN
 70
     0
  9
$PSLTSCALE
 70
     1
  9
$TREEDEPTH
 70
  3020
  9
$CMLSTYLE
  2
Standard
  9
$CMLJUST
 70
     0
  9
$CMLSCALE
 40
1.0
  9
$PROXYGRAPHICS
 70
     1
  9
$MEASUREMENT
 70
     0
  9
$CELWEIGHT
370
    -1
  9
$ENDCAPS
280
     0
  9
$JOINSTYLE
280
     0
  9
$LWDISPLAY
290
     0
  9
$INSUNITS
 70
     0
  9
$HYPERLINKBASE
  1

  9
$STYLESHEET
  1

  9
$XEDIT
290
     1
  9
$CEPSNTYPE
380
     0
  9
$PSTYLEMODE
290
     1
  9
$FINGERPRINTGUID
  2
{ECDF5E0A-576C-45AE-BBD0-87D2A6E516CB}
  9
$VERSIONGUID
  2
{6BB90696-78C5-4D91-8EC8-7818368B37E3}
  9
$EXTNAMES
290
     1
  9
$PSVPSCALE
 40
0.0
  9
$OLESTARTUP
290
     0
  0
ENDSEC
  0
SECTION
  2
CLASSES
  0
CLASS
  1
ACDBDICTIONARYWDFLT
  2
AcDbDictionaryWithDefault
  3
ObjectDBX Classes
 90
        0
280
     0
281
     0
  0
CLASS
  1
MATERIAL
  2
AcDbMaterial
  3
ObjectDBX Classes
 90
     1153
280
     0
281
     0
  0
CLASS
  1
VISUALSTYLE
  2
AcDbVisualStyle
  3
ObjectDBX Classes
 90
     4095
280
     0
281
     0
  0
CLASS
  1
SCALE
  2
AcDbScale
  3
ObjectDBX Classes
 90
     1153
280
     0
281
     0
  0
CLASS
  1
TABLESTYLE
  2
AcDbTableStyle
  3
ObjectDBX Classes
 90
     4095
280
     0
281
     0
  0
CLASS
  1
MLEADERSTYLE
  2
AcDbMLeaderStyle
  3
ACDB_MLEADERSTYLE_CLASS
 90
     4095
280
     0
281
     0
  0
CLASS
  1
ACDBSECTIONVIEWSTYLE
  2
AcDbSectionViewStyle
  3
ObjectDBX Classes
 90
     1025
280
     0
281
     0
  0
CLASS
  1
ACDBDETAILVIEWSTYLE
  2
AcDbDetailViewStyle
  3
ObjectDBX Classes
 90
     1025
280
     0
281
     0
  0
CLASS
  1
SORTENTSTABLE
  2
AcDbSortentsTable
  3
ObjectDBX Classes
 90
        0
280
     0
281
     0
  0
CLASS
  1
DICTIONARYVAR
  2
AcDbDictionaryVar
  3
ObjectDBX Classes
 90
        0
280
     0
281
     0
  0
CLASS
  1
CELLSTYLEMAP
  2
AcDbCellStyleMap
  3
ObjectDBX Classes
 90
     1152
280
     0
281
     0
  0
CLASS
  1
ACDBPLACEHOLDER
  2
AcDbPlaceHolder
  3
ObjectDBX Classes
 90
        0
280
     0
281
     0
  0
CLASS
  1
LAYOUT
  2
AcDbLayout
  3
ObjectDBX Classes
 90
        0
280
     0
281
     0
  0
ENDSEC
  0
SECTION
  2
TABLES
  0
TABLE
  2
VPORT
  5
813A
330
0
100
AcDbSymbolTable
 70
     1
  0
VPORT
  5
81A6
330
813A
100
AcDbSymbolTableRecord
100
AcDbViewportTableRecord
  2
*ACTIVE
 70
     0
 10
0.0
 20
0.0
 11
1.0
 21
1.0
 12
2625.00001222361
 22
3687.500017171259
 13
0.0
 23
0.0
 14
10.0
 24
10.0
 15
10.0
 25
10.0
 16
0.0
 26
0.0
 36
1.0
 17
0.0
 27
0.0
 37
0.0
 40
7425.389305900607
 41
2.050213675213675
 42
50.0
 43
0.0
 44
0.0
 50
0.0
 51
0.0
 71
     0
 72
   100
 73
     1
 74
     0
 75
     0
 76
     0
 77
     0
 78
     0
281
     0
 65
     1
110
0.0
120
0.0
130
0.0
111
1.0
121
0.0
131
0.0
112
0.0
122
1.0
132
0.0
 79
     0
146
0.0
1001
ACAD_NAV_VCDISPLAY
1070
     3
  0
ENDTAB
  0
TABLE
  2
LTYPE
  5
8137
330
0
100
AcDbSymbolTable
 70
     3
  0
LTYPE
  5
818C
330
8137
100
AcDbSymbolTableRecord
100
AcDbLinetypeTableRecord
  2
ByBlock
 70
     0
  3

 72
    65
 73
     0
 40
0.0
  0
LTYPE
  5
818D
330
8137
100
AcDbSymbolTableRecord
100
AcDbLinetypeTableRecord
  2
ByLayer
 70
     0
  3

 72
    65
 73
     0
 40
0.0
  0
LTYPE
  5
818E
330
8137
100
AcDbSymbolTableRecord
100
AcDbLinetypeTableRecord
  2
CONTINUOUS
 70
     0
  3
Solid line
 72
    65
 73
     0
 40
0.0
  0
LTYPE
  5
81A7
330
8137
100
AcDbSymbolTableRecord
100
AcDbLinetypeTableRecord
  2
CENTER
 70
     0
  3
____ _ ____ _ ____ _ ____ _ ____ _ ____ _ ____ 
 72
    65
 73
     4
 40
2.0
 49
1.25
 74
     0
 49
-0.25
 74
     0
 49
0.25
 74
     0
 49
-0.25
 74
     0
  0
ENDTAB
  0
TABLE
  2
LAYER
  5
8134
102
{ACAD_XDICTIONARY
360
81ED
102
}
330
0
100
AcDbSymbolTable
 70
     6
  0
LAYER
  5
8186
102
{ACAD_XDICTIONARY
360
8219
102
}
330
8134
100
AcDbSymbolTableRecord
100
AcDbLayerTableRecord
  2
0
 70
     0
 62
     7
  6
CONTINUOUS
370
    -3
390
8141
  0
LAYER
  5
81A5
102
{ACAD_XDICTIONARY
360
821B
102
}
330
8134
100
AcDbSymbolTableRecord
100
AcDbLayerTableRecord
  2
3
 70
     0
 62
     2
  6
CONTINUOUS
370
    -3
390
8141
  0
LAYER
  5
81A8
102
{ACAD_XDICTIONARY
360
821D
102
}
330
8134
100
AcDbSymbolTableRecord
100
AcDbLayerTableRecord
  2
2
 70
     0
 62
     3
  6
CENTER
370
    -3
390
8141
  0
LAYER
  5
81A9
102
{ACAD_XDICTIONARY
360
821F
102
}
330
8134
100
AcDbSymbolTableRecord
100
AcDbLayerTableRecord
  2
1
 70
     0
 62
     4
  6
CONTINUOUS
370
    -3
390
8141
  0
LAYER
  5
81AA
102
{ACAD_XDICTIONARY
360
8221
102
}
330
8134
100
AcDbSymbolTableRecord
100
AcDbLayerTableRecord
  2
4
 70
     0
 62
     7
  6
CONTINUOUS
370
    -3
390
8141
  0
LAYER
  5
81AB
330
8134
100
AcDbSymbolTableRecord
100
AcDbLayerTableRecord
  2
DEFPOINTS
 70
     0
 62
     7
  6
CONTINUOUS
290
     0
370
    -3
390
8141
  0
ENDTAB
  0
TABLE
  2
STYLE
  5
8135
330
0
100
AcDbSymbolTable
 70
     2
  0
STYLE
  5
8187
330
8135
100
AcDbSymbolTableRecord
100
AcDbTextStyleTableRecord
  2
STANDARD
 70
     0
 40
0.0
 41
1.0
 50
0.0
 71
     0
 42
180.0
  3
simplex.shx
  4
extfont.shx
  0
STYLE
  5
818B
330
8135
100
AcDbSymbolTableRecord
100
AcDbTextStyleTableRecord
  2
Annotative
 70
     0
 40
0.0
 41
1.0
 50
0.0
 71
     0
 42
0.2
  3
txt
  4

1001
AcadAnnotative
1000
AnnotativeData
1002
{
1070
     1
1070
     1
1002
}
  0
ENDTAB
  0
TABLE
  2
VIEW
  5
8138
330
0
100
AcDbSymbolTable
 70
     0
  0
ENDTAB
  0
TABLE
  2
UCS
  5
8139
330
0
100
AcDbSymbolTable
 70
     0
  0
ENDTAB
  0
TABLE
  2
APPID
  5
813B
330
0
100
AcDbSymbolTable
 70
     7
  0
APPID
  5
8188
330
813B
100
AcDbSymbolTableRecord
100
AcDbRegAppTableRecord
  2
ACAD
 70
     0
  0
APPID
  5
818F
330
813B
100
AcDbSymbolTableRecord
100
AcDbRegAppTableRecord
  2
AcadAnnotative
 70
     0
  0
APPID
  5
81EC
330
813B
100
AcDbSymbolTableRecord
100
AcDbRegAppTableRecord
  2
ACAD_NAV_VCDISPLAY
 70
     0
  0
APPID
  5
8289
330
813B
100
AcDbSymbolTableRecord
100
AcDbRegAppTableRecord
  2
ACAD_DSTYLE_DIMJAG
 70
     0
  0
APPID
  5
828A
330
813B
100
AcDbSymbolTableRecord
100
AcDbRegAppTableRecord
  2
ACAD_DSTYLE_DIMTALN
 70
     0
  0
APPID
  5
82BC
330
813B
100
AcDbSymbolTableRecord
100
AcDbRegAppTableRecord
  2
ACAD_EXEMPT_FROM_CAD_STANDARDS
 70
     0
  0
APPID
  5
8375
330
813B
100
AcDbSymbolTableRecord
100
AcDbRegAppTableRecord
  2
ACAD_MLEADERVER
 70
     0
  0
ENDTAB
  0
TABLE
  2
DIMSTYLE
  5
813C
330
0
100
AcDbSymbolTable
 70
     5
100
AcDbDimStyleTable
 71
     1
340
81AC
  0
DIMSTYLE
105
8189
102
{ACAD_REACTORS
330
7C8C
330
7C8D
330
7CE9
330
7CED
330
7CEF
330
7CF0
330
7CF1
330
7CF2
330
7D19
330
7D1C
330
805C
330
8069
330
8076
330
8083
330
8092
330
809F
102
}
330
813C
100
AcDbSymbolTableRecord
100
AcDbDimStyleTableRecord
  2
Standard
 70
     0
340
8187
  0
DIMSTYLE
105
818A
330
813C
100
AcDbSymbolTableRecord
100
AcDbDimStyleTableRecord
  2
Annotative
 70
     0
340
8187
1001
AcadAnnotative
1000
AnnotativeData
1002
{
1070
     1
1070
     1
1002
}
  0
DIMSTYLE
105
81AC
102
{ACAD_REACTORS
330
826E
330
827B
330
82AF
330
82C3
330
82D9
330
82E6
102
}
330
813C
100
AcDbSymbolTableRecord
100
AcDbDimStyleTableRecord
  2
IGA
 70
     0
 40
2.0
 41
2.0
 42
0.5
 43
10.0
 44
1.0
 47
1.0
 48
1.0
 73
     0
 74
     0
 77
     1
 78
     8
140
3.0
141
0.0
143
0.03937
146
10.0
147
1.0
173
     1
271
     3
272
     3
279
     2
284
     8
285
     8
286
     8
340
8187
  0
DIMSTYLE
105
81AD
330
813C
100
AcDbSymbolTableRecord
100
AcDbDimStyleTableRecord
  2
MATSU
 70
     0
 41
2.0
 42
1.0
 43
10.0
 44
1.0
 73
     0
 74
     0
 77
     1
 78
     8
140
3.0
141
0.0
143
0.03937
147
0.5
172
     1
173
     1
176
   256
177
   256
178
   256
271
     3
272
     3
279
     2
284
     8
285
     8
286
     8
340
8187
  0
ENDTAB
  0
TABLE
  2
BLOCK_RECORD
  5
8133
330
0
100
AcDbSymbolTable
 70
    37
  0
BLOCK_RECORD
  5
81A1
330
8133
100
AcDbSymbolTableRecord
100
AcDbBlockTableRecord
  2
*Model_Space
340
81A4
  0
BLOCK_RECORD
  5
819D
330
8133
100
AcDbSymbolTableRecord
100
AcDbBlockTableRecord
  2
*Paper_Space
340
81A0
  0
BLOCK_RECORD
  5
81B1
330
8133
100
AcDbSymbolTableRecord
100
AcDbBlockTableRecord
  2
$MODEL_SPACE
340
0
  0
BLOCK_RECORD
  5
81B3
330
8133
100
AcDbSymbolTableRecord
100
AcDbBlockTableRecord
  2
$PAPER_SPACE
340
0
  0
BLOCK_RECORD
  5
81B5
330
8133
100
AcDbSymbolTableRecord
100
AcDbBlockTableRecord
  2
_OPEN
340
0
102
{BLKREFS
331
82F6
331
82F7
331
7E5E
331
7E5F
331
7E69
331
7E6A
331
7EAB
331
7EAC
331
802B
331
802C
331
8041
331
8042
331
7ECC
331
7ECD
331
7ED7
331
7ED8
331
7EE2
331
7EE3
331
7EED
331
7EEE
331
7EF8
331
7EF9
331
7F03
331
7F04
331
7F0E
331
7F0F
331
810F
331
8110
331
811B
331
82A0
331
82A1
331
82A9
331
82AA
331
82B6
331
82B7
331
82D3
331
82D4
331
82E0
331
82E1
331
8122
331
8123
331
8098
331
8099
331
7F51
331
7F52
331
8055
331
8056
331
8062
331
8063
331
806F
331
8070
331
807C
331
807D
102
}
  0
BLOCK_RECORD
  5
81B7
330
8133
100
AcDbSymbolTableRecord
100
AcDbBlockTableRecord
  2
YA_N
340
0
102
{BLKREFS
331
7C36
331
7C55
331
7C93
331
7CCB
102
}
  0
BLOCK_RECORD
  5
81B9
330
8133
100
AcDbSymbolTableRecord
100
AcDbBlockTableRecord
  2
*D4
340
0
  0
BLOCK_RECORD
  5
81BB
330
8133
100
AcDbSymbolTableRecord
100
AcDbBlockTableRecord
  2
*D5
340
0
  0
BLOCK_RECORD
  5
81BD
330
8133
100
AcDbSymbolTableRecord
100
AcDbBlockTableRecord
  2
*D6
340
0
  0
BLOCK_RECORD
  5
81BF
330
8133
100
AcDbSymbolTableRecord
100
AcDbBlockTableRecord
  2
*D7
340
0
  0
BLOCK_RECORD
  5
81C1
330
8133
100
AcDbSymbolTableRecord
100
AcDbBlockTableRecord
  2
*U8
340
0
102
{BLKREFS
331
802D
102
}
  0
BLOCK_RECORD
  5
81C2
330
8133
100
AcDbSymbolTableRecord
100
AcDbBlockTableRecord
  2
*D9
340
0
  0
BLOCK_RECORD
  5
81C4
330
8133
100
AcDbSymbolTableRecord
100
AcDbBlockTableRecord
  2
*D10
340
0
  0
BLOCK_RECORD
  5
81C6
330
8133
100
AcDbSymbolTableRecord
100
AcDbBlockTableRecord
  2
*D11
340
0
  0
BLOCK_RECORD
  5
81C8
330
8133
100
AcDbSymbolTableRecord
100
AcDbBlockTableRecord
  2
*D12
340
0
  0
BLOCK_RECORD
  5
81CA
330
8133
100
AcDbSymbolTableRecord
100
AcDbBlockTableRecord
  2
*D13
340
0
  0
BLOCK_RECORD
  5
81CC
330
8133
100
AcDbSymbolTableRecord
100
AcDbBlockTableRecord
  2
*D14
340
0
  0
BLOCK_RECORD
  5
81CE
330
8133
100
AcDbSymbolTableRecord
100
AcDbBlockTableRecord
  2
*D15
340
0
  0
BLOCK_RECORD
  5
81D0
330
8133
100
AcDbSymbolTableRecord
100
AcDbBlockTableRecord
  2
*D16
340
0
  0
BLOCK_RECORD
  5
81D2
330
8133
100
AcDbSymbolTableRecord
100
AcDbBlockTableRecord
  2
*D17
340
0
  0
BLOCK_RECORD
  5
81D4
330
8133
100
AcDbSymbolTableRecord
100
AcDbBlockTableRecord
  2
*D18
340
0
  0
BLOCK_RECORD
  5
81D6
330
8133
100
AcDbSymbolTableRecord
100
AcDbBlockTableRecord
  2
_DOT
340
0
102
{BLKREFS
331
811A
102
}
  0
BLOCK_RECORD
  5
81D7
330
8133
100
AcDbSymbolTableRecord
100
AcDbBlockTableRecord
  2
*D20
340
0
  0
BLOCK_RECORD
  5
81D9
330
8133
100
AcDbSymbolTableRecord
100
AcDbBlockTableRecord
  2
*D21
340
0
  0
BLOCK_RECORD
  5
81DC
330
8133
100
AcDbSymbolTableRecord
100
AcDbBlockTableRecord
  2
*D22
340
0
  0
BLOCK_RECORD
  5
81DE
330
8133
100
AcDbSymbolTableRecord
100
AcDbBlockTableRecord
  2
*D23
340
0
  0
BLOCK_RECORD
  5
81E0
330
8133
100
AcDbSymbolTableRecord
100
AcDbBlockTableRecord
  2
*D24
340
0
  0
BLOCK_RECORD
  5
81E2
330
8133
100
AcDbSymbolTableRecord
100
AcDbBlockTableRecord
  2
*D25
340
0
  0
BLOCK_RECORD
  5
81E4
330
8133
100
AcDbSymbolTableRecord
100
AcDbBlockTableRecord
  2
_NONE
340
0
  0
BLOCK_RECORD
  5
81E6
330
8133
100
AcDbSymbolTableRecord
100
AcDbBlockTableRecord
  2
*D27
340
0
  0
BLOCK_RECORD
  5
81E8
330
8133
100
AcDbSymbolTableRecord
100
AcDbBlockTableRecord
  2
*D28
340
0
  0
BLOCK_RECORD
  5
826F
330
8133
100
AcDbSymbolTableRecord
100
AcDbBlockTableRecord
  2
*D30
340
0
  0
BLOCK_RECORD
  5
827C
330
8133
100
AcDbSymbolTableRecord
100
AcDbBlockTableRecord
  2
*D31
340
0
  0
BLOCK_RECORD
  5
82B0
330
8133
100
AcDbSymbolTableRecord
100
AcDbBlockTableRecord
  2
*D32
340
0
  0
BLOCK_RECORD
  5
82C4
330
8133
100
AcDbSymbolTableRecord
100
AcDbBlockTableRecord
  2
*D34
340
0
  0
BLOCK_RECORD
  5
82DA
330
8133
100
AcDbSymbolTableRecord
100
AcDbBlockTableRecord
  2
*D35
340
0
  0
BLOCK_RECORD
  5
82E7
330
8133
100
AcDbSymbolTableRecord
100
AcDbBlockTableRecord
  2
*D36
340
0
  0
ENDTAB
  0
ENDSEC
  0
SECTION
  2
BLOCKS
  0
BLOCK
  5
81A2
330
81A1
100
AcDbEntity
  8
0
100
AcDbBlockBegin
  2
*Model_Space
 70
     0
 10
0.0
 20
0.0
 30
0.0
  3
*Model_Space
  1

  0
ENDBLK
  5
81A3
330
81A1
100
AcDbEntity
  8
0
100
AcDbBlockEnd
  0
BLOCK
  5
819E
330
819D
100
AcDbEntity
 67
     1
  8
0
100
AcDbBlockBegin
  2
*Paper_Space
 70
     0
 10
0.0
 20
0.0
 30
0.0
  3
*Paper_Space
  1

  0
ENDBLK
  5
819F
330
819D
100
AcDbEntity
 67
     1
  8
0
100
AcDbBlockEnd
  0
BLOCK
  5
81B2
330
81B1
100
AcDbEntity
  8
0
100
AcDbBlockBegin
  2
$MODEL_SPACE
 70
     0
 10
0.0
 20
0.0
 30
0.0
  3
$MODEL_SPACE
  1

  0
ENDBLK
  5
1B
330
81B1
100
AcDbEntity
  8
0
100
AcDbBlockEnd
  0
BLOCK
  5
81B4
330
81B3
100
AcDbEntity
  8
0
100
AcDbBlockBegin
  2
$PAPER_SPACE
 70
     0
 10
0.0
 20
0.0
 30
0.0
  3
$PAPER_SPACE
  1

  0
ENDBLK
  5
18
330
81B3
100
AcDbEntity
  8
0
100
AcDbBlockEnd
  0
BLOCK
  5
81B6
330
81B5
100
AcDbEntity
  8
0
100
AcDbBlockBegin
  2
_OPEN
 70
     0
 10
0.0
 20
0.0
 30
0.0
  3
_OPEN
  1

  0
LINE
  5
79FD
330
81B5
100
AcDbEntity
  8
0
  6
ByBlock
 62
     0
100
AcDbLine
 10
-1.0
 20
0.1666666666666666
 30
0.0
 11
0.0
 21
0.0
 31
0.0
  0
LINE
  5
79FE
330
81B5
100
AcDbEntity
  8
0
  6
ByBlock
 62
     0
100
AcDbLine
 10
0.0
 20
0.0
 30
0.0
 11
-1.0
 21
-0.1666666666666666
 31
0.0
  0
LINE
  5
79FF
330
81B5
100
AcDbEntity
  8
0
  6
ByBlock
 62
     0
100
AcDbLine
 10
0.0
 20
0.0
 30
0.0
 11
-1.0
 21
0.0
 31
0.0
  0
ENDBLK
  5
7A01
330
81B5
100
AcDbEntity
  8
0
100
AcDbBlockEnd
  0
BLOCK
  5
81B8
330
81B7
100
AcDbEntity
  8
0
100
AcDbBlockBegin
  2
YA_N
 70
     0
 10
0.0
 20
0.0
 30
0.0
  3
YA_N
  1

  0
ENDBLK
  5
7A0C
330
81B7
100
AcDbEntity
  8
0
100
AcDbBlockEnd
  0
BLOCK
  5
81BA
330
81B9
100
AcDbEntity
  8
0
100
AcDbBlockBegin
  2
*D4
 70
     1
 10
0.0
 20
0.0
 30
0.0
  3
*D4
  1

  0
LINE
  5
7E5B
330
81B9
100
AcDbEntity
  8
0
  6
ByBlock
100
AcDbLine
 10
1439.711976298494
 20
1033.593478221398
 30
0.0
 11
1439.711976298494
 21
1182.600862000624
 31
0.0
  0
LINE
  5
7E5C
330
81B9
100
AcDbEntity
  8
0
  6
ByBlock
100
AcDbLine
 10
709.7119762984948
 20
1033.593478221399
 30
0.0
 11
709.7119762984948
 21
1182.600862000624
 31
0.0
  0
LINE
  5
7E5D
330
81B9
100
AcDbEntity
  8
0
  6
ByBlock
100
AcDbLine
 10
1389.711976298494
 20
1157.600862000624
 30
0.0
 11
759.7119762984947
 21
1157.600862000624
 31
0.0
  0
INSERT
  5
7E5E
330
81B9
100
AcDbEntity
  8
0
  6
ByBlock
100
AcDbBlockReference
  2
_OPEN
 10
1439.711976298494
 20
1157.600862000624
 30
0.0
 41
50.0
 42
50.0
 43
50.0
  0
INSERT
  5
7E5F
330
81B9
100
AcDbEntity
  8
0
  6
ByBlock
100
AcDbBlockReference
  2
_OPEN
 10
709.7119762984948
 20
1157.600862000624
 30
0.0
 41
50.0
 42
50.0
 43
50.0
 50
180.0
  0
TEXT
  5
7E60
330
81B9
100
AcDbEntity
  8
3
100
AcDbText
 10
978.2834048699234
 20
1170.100862000625
 30
0.0
 40
75.0
  1
730
100
AcDbText
  0
POINT
  5
7E61
330
81B9
100
AcDbEntity
  8
DEFPOINTS
  6
ByBlock
 62
     0
100
AcDbPoint
 10
1439.711976298494
 20
1008.593478221398
 30
0.0
  0
POINT
  5
7E62
330
81B9
100
AcDbEntity
  8
DEFPOINTS
  6
ByBlock
 62
     0
100
AcDbPoint
 10
709.7119762984948
 20
1008.593478221399
 30
0.0
  0
POINT
  5
7E63
330
81B9
100
AcDbEntity
  8
DEFPOINTS
  6
ByBlock
 62
     0
100
AcDbPoint
 10
709.7119762984948
 20
1157.600862000624
 30
0.0
  0
ENDBLK
  5
7E64
330
81B9
100
AcDbEntity
  8
0
100
AcDbBlockEnd
  0
BLOCK
  5
81BC
330
81BB
100
AcDbEntity
  8
0
100
AcDbBlockBegin
  2
*D5
 70
     1
 10
0.0
 20
0.0
 30
0.0
  3
*D5
  1

  0
LINE
  5
7E66
330
81BB
100
AcDbEntity
  8
0
  6
ByBlock
100
AcDbLine
 10
1439.711976298494
 20
1033.593478221398
 30
0.0
 11
1439.711976298494
 21
1335.40963547429
 31
0.0
  0
LINE
  5
7E67
330
81BB
100
AcDbEntity
  8
0
  6
ByBlock
100
AcDbLine
 10
680.7119762984948
 20
1155.859317026828
 30
0.0
 11
680.7119762984948
 21
1335.40963547429
 31
0.0
  0
LINE
  5
7E68
330
81BB
100
AcDbEntity
  8
0
  6
ByBlock
100
AcDbLine
 10
1389.711976298494
 20
1310.40963547429
 30
0.0
 11
730.7119762984947
 21
1310.40963547429
 31
0.0
  0
INSERT
  5
7E69
330
81BB
100
AcDbEntity
  8
0
  6
ByBlock
100
AcDbBlockReference
  2
_OPEN
 10
1439.711976298494
 20
1310.40963547429
 30
0.0
 41
50.0
 42
50.0
 43
50.0
  0
INSERT
  5
7E6A
330
81BB
100
AcDbEntity
  8
0
  6
ByBlock
100
AcDbBlockReference
  2
_OPEN
 10
680.7119762984948
 20
1310.40963547429
 30
0.0
 41
50.0
 42
50.0
 43
50.0
 50
180.0
  0
TEXT
  5
7E6B
330
81BB
100
AcDbEntity
  8
3
100
AcDbText
 10
965.5691191556377
 20
1322.90963547429
 30
0.0
 40
75.0
  1
759
100
AcDbText
  0
POINT
  5
7E6C
330
81BB
100
AcDbEntity
  8
DEFPOINTS
  6
ByBlock
 62
     0
100
AcDbPoint
 10
1439.711976298494
 20
1008.593478221398
 30
0.0
  0
POINT
  5
7E6D
330
81BB
100
AcDbEntity
  8
DEFPOINTS
  6
ByBlock
 62
     0
100
AcDbPoint
 10
680.7119762984948
 20
1130.859317026828
 30
0.0
  0
POINT
  5
7E6E
330
81BB
100
AcDbEntity
  8
DEFPOINTS
  6
ByBlock
 62
     0
100
AcDbPoint
 10
680.7119762984948
 20
1310.40963547429
 30
0.0
  0
ENDBLK
  5
7E6F
330
81BB
100
AcDbEntity
  8
0
100
AcDbBlockEnd
  0
BLOCK
  5
81BE
330
81BD
100
AcDbEntity
  8
0
100
AcDbBlockBegin
  2
*D6
 70
     1
 10
0.0
 20
0.0
 30
0.0
  3
*D6
  1

  0
LINE
  5
7EA8
330
81BD
100
AcDbEntity
  8
0
  6
ByBlock
100
AcDbLine
 10
3394.272073930469
 20
1033.802367882948
 30
0.0
 11
3394.272073930469
 21
1219.111446642817
 31
0.0
  0
LINE
  5
7EA9
330
81BD
100
AcDbEntity
  8
0
  6
ByBlock
100
AcDbLine
 10
4294.27207393047
 20
1033.80235414594
 30
0.0
 11
4294.27207393047
 21
1219.111446642817
 31
0.0
  0
LINE
  5
7EAA
330
81BD
100
AcDbEntity
  8
0
  6
ByBlock
100
AcDbLine
 10
3444.272073930469
 20
1194.111446642817
 30
0.0
 11
4244.27207393047
 21
1194.111446642817
 31
0.0
  0
INSERT
  5
7EAB
330
81BD
100
AcDbEntity
  8
0
  6
ByBlock
100
AcDbBlockReference
  2
_OPEN
 10
3394.272073930469
 20
1194.111446642817
 30
0.0
 41
50.0
 42
50.0
 43
50.0
 50
180.0
  0
INSERT
  5
7EAC
330
81BD
100
AcDbEntity
  8
0
  6
ByBlock
100
AcDbBlockReference
  2
_OPEN
 10
4294.27207393047
 20
1194.111446642817
 30
0.0
 41
50.0
 42
50.0
 43
50.0
  0
TEXT
  5
7EAD
330
81BD
100
AcDbEntity
  8
3
100
AcDbText
 10
3747.843502501898
 20
1206.611446642817
 30
0.0
 40
75.0
  1
900
100
AcDbText
  0
POINT
  5
7EAE
330
81BD
100
AcDbEntity
  8
DEFPOINTS
  6
ByBlock
 62
     0
100
AcDbPoint
 10
3394.272073930469
 20
1008.802367882948
 30
0.0
  0
POINT
  5
7EAF
330
81BD
100
AcDbEntity
  8
DEFPOINTS
  6
ByBlock
 62
     0
100
AcDbPoint
 10
4294.27207393047
 20
1008.80235414594
 30
0.0
  0
POINT
  5
7EB0
330
81BD
100
AcDbEntity
  8
DEFPOINTS
  6
ByBlock
 62
     0
100
AcDbPoint
 10
4294.27207393047
 20
1194.111446642817
 30
0.0
  0
ENDBLK
  5
7EB1
330
81BD
100
AcDbEntity
  8
0
100
AcDbBlockEnd
  0
BLOCK
  5
81C0
330
81BF
100
AcDbEntity
  8
0
100
AcDbBlockBegin
  2
*D7
 70
     1
 10
0.0
 20
0.0
 30
0.0
  3
*D7
  1

  0
LINE
  5
8028
330
81BF
100
AcDbEntity
  8
0
  6
ByBlock
100
AcDbLine
 10
3011.305087276285
 20
2839.560251978061
 30
0.0
 11
3011.305087276285
 21
3395.331887006776
 31
0.0
  0
LINE
  5
8029
330
81BF
100
AcDbEntity
  8
0
  6
ByBlock
100
AcDbLine
 10
3766.305087276281
 20
3380.036453909694
 30
0.0
 11
3766.305087276281
 21
3395.331887006776
 31
0.0
  0
LINE
  5
802A
330
81BF
100
AcDbEntity
  8
0
  6
ByBlock
100
AcDbLine
 10
3061.305087276285
 20
3370.331887006776
 30
0.0
 11
3716.305087276281
 21
3370.331887006776
 31
0.0
  0
INSERT
  5
802B
330
81BF
100
AcDbEntity
  8
0
  6
ByBlock
100
AcDbBlockReference
  2
_OPEN
 10
3011.305087276285
 20
3370.331887006776
 30
0.0
 41
50.0
 42
50.0
 43
50.0
 50
180.0
  0
INSERT
  5
802C
330
81BF
100
AcDbEntity
  8
0
  6
ByBlock
100
AcDbBlockReference
  2
_OPEN
 10
3766.305087276281
 20
3370.331887006776
 30
0.0
 41
50.0
 42
50.0
 43
50.0
  0
INSERT
  5
802D
330
81BF
100
AcDbEntity
  8
3
100
AcDbBlockReference
  2
*U8
 10
0.0
 20
0.0
 30
0.0
  0
POINT
  5
802E
330
81BF
100
AcDbEntity
  8
DEFPOINTS
  6
ByBlock
 62
     0
100
AcDbPoint
 10
3011.305087276285
 20
2814.560251978061
 30
0.0
  0
POINT
  5
802F
330
81BF
100
AcDbEntity
  8
DEFPOINTS
  6
ByBlock
 62
     0
100
AcDbPoint
 10
3766.305087276281
 20
3355.036453909693
 30
0.0
  0
POINT
  5
8030
330
81BF
100
AcDbEntity
  8
DEFPOINTS
  6
ByBlock
 62
     0
100
AcDbPoint
 10
3766.305087276281
 20
3370.331887006776
 30
0.0
  0
ENDBLK
  5
8031
330
81BF
100
AcDbEntity
  8
0
100
AcDbBlockEnd
  0
BLOCK
  5
81EA
330
81C1
100
AcDbEntity
  8
0
100
AcDbBlockBegin
  2
*U8
 70
     1
 10
0.0
 20
0.0
 30
0.0
  3
*U8
  1

  0
TEXT
  5
812C
330
81C1
100
AcDbEntity
  8
3
100
AcDbText
 10
3281.662230133426
 20
3507.831887006776
 30
0.0
 40
75.0
  1
MAX
100
AcDbText
  0
TEXT
  5
812D
330
81C1
100
AcDbEntity
  8
3
100
AcDbText
 10
3292.376515847712
 20
3382.831887006776
 30
0.0
 40
75.0
  1
780
100
AcDbText
  0
ENDBLK
  5
812F
330
81C1
100
AcDbEntity
  8
0
100
AcDbBlockEnd
  0
BLOCK
  5
81C3
330
81C2
100
AcDbEntity
  8
0
100
AcDbBlockBegin
  2
*D9
 70
     1
 10
0.0
 20
0.0
 30
0.0
  3
*D9
  1

  0
LINE
  5
803E
330
81C2
100
AcDbEntity
  8
0
  6
ByBlock
100
AcDbLine
 10
3766.305087276281
 20
3342.859360400224
 30
0.0
 11
3766.305087276281
 21
3395.331887006776
 31
0.0
  0
LINE
  5
803F
330
81C2
100
AcDbEntity
  8
0
  6
ByBlock
100
AcDbLine
 10
4318.805087276281
 20
2534.360251978061
 30
0.0
 11
4318.805087276281
 21
3395.331887006776
 31
0.0
  0
LINE
  5
8040
330
81C2
100
AcDbEntity
  8
0
  6
ByBlock
100
AcDbLine
 10
3816.305087276282
 20
3370.331887006776
 30
0.0
 11
4268.805087276281
 21
3370.331887006776
 31
0.0
  0
INSERT
  5
8041
330
81C2
100
AcDbEntity
  8
0
  6
ByBlock
100
AcDbBlockReference
  2
_OPEN
 10
3766.305087276281
 20
3370.331887006776
 30
0.0
 41
50.0
 42
50.0
 43
50.0
 50
180.0
  0
INSERT
  5
8042
330
81C2
100
AcDbEntity
  8
0
  6
ByBlock
100
AcDbBlockReference
  2
_OPEN
 10
4318.805087276281
 20
3370.331887006776
 30
0.0
 41
50.0
 42
50.0
 43
50.0
  0
TEXT
  5
8043
330
81C2
100
AcDbEntity
  8
3
100
AcDbText
 10
3897.912230133426
 20
3414.974744149634
 30
0.0
 40
75.0
  1
(560)
100
AcDbText
  0
POINT
  5
8044
330
81C2
100
AcDbEntity
  8
DEFPOINTS
  6
ByBlock
 62
     0
100
AcDbPoint
 10
3766.305087276281
 20
3317.859360400222
 30
0.0
  0
POINT
  5
8045
330
81C2
100
AcDbEntity
  8
DEFPOINTS
  6
ByBlock
 62
     0
100
AcDbPoint
 10
4318.805087276281
 20
2509.360251978061
 30
0.0
  0
POINT
  5
8046
330
81C2
100
AcDbEntity
  8
DEFPOINTS
  6
ByBlock
 62
     0
100
AcDbPoint
 10
4318.805087276281
 20
3370.331887006776
 30
0.0
  0
ENDBLK
  5
8047
330
81C2
100
AcDbEntity
  8
0
100
AcDbBlockEnd
  0
BLOCK
  5
81C5
330
81C4
100
AcDbEntity
  8
0
100
AcDbBlockBegin
  2
*D10
 70
     1
 10
0.0
 20
0.0
 30
0.0
  3
*D10
  1

  0
LINE
  5
7EC9
330
81C4
100
AcDbEntity
  8
0
  6
ByBlock
100
AcDbLine
 10
4321.57207393047
 20
133.5934782213989
 30
0.0
 11
4597.054208885889
 21
133.5934782213989
 31
0.0
  0
LINE
  5
7ECA
330
81C4
100
AcDbEntity
  8
0
  6
ByBlock
100
AcDbLine
 10
4321.57207393047
 20
883.5934782213987
 30
0.0
 11
4597.054208885889
 21
883.5934782213987
 31
0.0
  0
LINE
  5
7ECB
330
81C4
100
AcDbEntity
  8
0
  6
ByBlock
100
AcDbLine
 10
4572.054208885889
 20
183.5934782213989
 30
0.0
 11
4572.054208885889
 21
833.5934782213987
 31
0.0
  0
INSERT
  5
7ECC
330
81C4
100
AcDbEntity
  8
0
  6
ByBlock
100
AcDbBlockReference
  2
_OPEN
 10
4572.054208885889
 20
133.5934782213989
 30
0.0
 41
50.0
 42
50.0
 43
50.0
 50
270.0
  0
INSERT
  5
7ECD
330
81C4
100
AcDbEntity
  8
0
  6
ByBlock
100
AcDbBlockReference
  2
_OPEN
 10
4572.054208885889
 20
883.5934782213987
 30
0.0
 41
50.0
 42
50.0
 43
50.0
 50
90.0
  0
TEXT
  5
7ECE
330
81C4
100
AcDbEntity
  8
3
100
AcDbText
 10
4559.554208885889
 20
374.6649067928275
 30
0.0
 40
75.0
  1
\U+03C6750
 50
90.0
100
AcDbText
  0
POINT
  5
7ECF
330
81C4
100
AcDbEntity
  8
DEFPOINTS
  6
ByBlock
 62
     0
100
AcDbPoint
 10
4296.57207393047
 20
133.5934782213989
 30
0.0
  0
POINT
  5
7ED0
330
81C4
100
AcDbEntity
  8
DEFPOINTS
  6
ByBlock
 62
     0
100
AcDbPoint
 10
4296.57207393047
 20
883.5934782213987
 30
0.0
  0
POINT
  5
7ED1
330
81C4
100
AcDbEntity
  8
DEFPOINTS
  6
ByBlock
 62
     0
100
AcDbPoint
 10
4572.054208885889
 20
883.5934782213987
 30
0.0
  0
ENDBLK
  5
7ED2
330
81C4
100
AcDbEntity
  8
0
100
AcDbBlockEnd
  0
BLOCK
  5
81C7
330
81C6
100
AcDbEntity
  8
0
100
AcDbBlockBegin
  2
*D11
 70
     1
 10
0.0
 20
0.0
 30
0.0
  3
*D11
  1

  0
LINE
  5
7ED4
330
81C6
100
AcDbEntity
  8
0
  6
ByBlock
100
AcDbLine
 10
1830.711976298495
 20
2748.533310535339
 30
0.0
 11
1830.711976298495
 21
2485.350850711191
 31
0.0
  0
LINE
  5
7ED5
330
81C6
100
AcDbEntity
  8
0
  6
ByBlock
100
AcDbLine
 10
230.7119762984948
 20
2748.533310535338
 30
0.0
 11
230.7119762984948
 21
2485.350850711191
 31
0.0
  0
LINE
  5
7ED6
330
81C6
100
AcDbEntity
  8
0
  6
ByBlock
100
AcDbLine
 10
1780.711976298495
 20
2510.350850711191
 30
0.0
 11
280.7119762984948
 21
2510.350850711191
 31
0.0
  0
INSERT
  5
7ED7
330
81C6
100
AcDbEntity
  8
0
  6
ByBlock
100
AcDbBlockReference
  2
_OPEN
 10
1830.711976298495
 20
2510.350850711191
 30
0.0
 41
50.0
 42
50.0
 43
50.0
  0
INSERT
  5
7ED8
330
81C6
100
AcDbEntity
  8
0
  6
ByBlock
100
AcDbBlockReference
  2
_OPEN
 10
230.7119762984948
 20
2510.350850711191
 30
0.0
 41
50.0
 42
50.0
 43
50.0
 50
180.0
  0
TEXT
  5
7ED9
330
81C6
100
AcDbEntity
  8
3
100
AcDbText
 10
905.7119762984948
 20
2522.850850711191
 30
0.0
 40
75.0
  1
1600
100
AcDbText
  0
POINT
  5
7EDA
330
81C6
100
AcDbEntity
  8
DEFPOINTS
  6
ByBlock
 62
     0
100
AcDbPoint
 10
1830.711976298495
 20
2773.533310535339
 30
0.0
  0
POINT
  5
7EDB
330
81C6
100
AcDbEntity
  8
DEFPOINTS
  6
ByBlock
 62
     0
100
AcDbPoint
 10
230.7119762984948
 20
2773.533310535337
 30
0.0
  0
POINT
  5
7EDC
330
81C6
100
AcDbEntity
  8
DEFPOINTS
  6
ByBlock
 62
     0
100
AcDbPoint
 10
230.7119762984948
 20
2510.350850711191
 30
0.0
  0
ENDBLK
  5
7EDD
330
81C6
100
AcDbEntity
  8
0
100
AcDbBlockEnd
  0
BLOCK
  5
81C9
330
81C8
100
AcDbEntity
  8
0
100
AcDbBlockBegin
  2
*D12
 70
     1
 10
0.0
 20
0.0
 30
0.0
  3
*D12
  1

  0
LINE
  5
7EDF
330
81C8
100
AcDbEntity
  8
0
  6
ByBlock
100
AcDbLine
 10
1855.711976298495
 20
2773.533310535339
 30
0.0
 11
2156.582481133584
 21
2773.533310535339
 31
0.0
  0
LINE
  5
7EE0
330
81C8
100
AcDbEntity
  8
0
  6
ByBlock
100
AcDbLine
 10
1855.711976298495
 20
3443.53331053534
 30
0.0
 11
2156.582481133584
 21
3443.53331053534
 31
0.0
  0
LINE
  5
7EE1
330
81C8
100
AcDbEntity
  8
0
  6
ByBlock
100
AcDbLine
 10
2131.582481133584
 20
2823.533310535339
 30
0.0
 11
2131.582481133584
 21
3393.53331053534
 31
0.0
  0
INSERT
  5
7EE2
330
81C8
100
AcDbEntity
  8
0
  6
ByBlock
100
AcDbBlockReference
  2
_OPEN
 10
2131.582481133584
 20
2773.533310535339
 30
0.0
 41
50.0
 42
50.0
 43
50.0
 50
270.0
  0
INSERT
  5
7EE3
330
81C8
100
AcDbEntity
  8
0
  6
ByBlock
100
AcDbBlockReference
  2
_OPEN
 10
2131.582481133584
 20
3443.53331053534
 30
0.0
 41
50.0
 42
50.0
 43
50.0
 50
90.0
  0
TEXT
  5
7EE4
330
81C8
100
AcDbEntity
  8
3
100
AcDbText
 10
2119.082481133584
 20
3012.104739106767
 30
0.0
 40
75.0
  1
670
 50
90.0
100
AcDbText
  0
POINT
  5
7EE5
330
81C8
100
AcDbEntity
  8
DEFPOINTS
  6
ByBlock
 62
     0
100
AcDbPoint
 10
1830.711976298495
 20
2773.533310535339
 30
0.0
  0
POINT
  5
7EE6
330
81C8
100
AcDbEntity
  8
DEFPOINTS
  6
ByBlock
 62
     0
100
AcDbPoint
 10
1830.711976298495
 20
3443.53331053534
 30
0.0
  0
POINT
  5
7EE7
330
81C8
100
AcDbEntity
  8
DEFPOINTS
  6
ByBlock
 62
     0
100
AcDbPoint
 10
2131.582481133584
 20
3443.53331053534
 30
0.0
  0
ENDBLK
  5
7EE8
330
81C8
100
AcDbEntity
  8
0
100
AcDbBlockEnd
  0
BLOCK
  5
81CB
330
81CA
100
AcDbEntity
  8
0
100
AcDbBlockBegin
  2
*D13
 70
     1
 10
0.0
 20
0.0
 30
0.0
  3
*D13
  1

  0
LINE
  5
7EEA
330
81CA
100
AcDbEntity
  8
0
  6
ByBlock
100
AcDbLine
 10
1130.711976298494
 20
3953.533310535338
 30
0.0
 11
1130.711976298494
 21
4255.16536493951
 31
0.0
  0
LINE
  5
7EEB
330
81CA
100
AcDbEntity
  8
0
  6
ByBlock
100
AcDbLine
 10
230.7119762984948
 20
3953.533310535338
 30
0.0
 11
230.7119762984948
 21
4255.16536493951
 31
0.0
  0
LINE
  5
7EEC
330
81CA
100
AcDbEntity
  8
0
  6
ByBlock
100
AcDbLine
 10
1080.711976298494
 20
4230.165364939511
 30
0.0
 11
280.7119762984948
 21
4230.165364939511
 31
0.0
  0
INSERT
  5
7EED
330
81CA
100
AcDbEntity
  8
0
  6
ByBlock
100
AcDbBlockReference
  2
_OPEN
 10
1130.711976298494
 20
4230.165364939511
 30
0.0
 41
50.0
 42
50.0
 43
50.0
  0
INSERT
  5
7EEE
330
81CA
100
AcDbEntity
  8
0
  6
ByBlock
100
AcDbBlockReference
  2
_OPEN
 10
230.7119762984948
 20
4230.165364939511
 30
0.0
 41
50.0
 42
50.0
 43
50.0
 50
180.0
  0
TEXT
  5
7EEF
330
81CA
100
AcDbEntity
  8
3
100
AcDbText
 10
584.2834048699232
 20
4242.665364939511
 30
0.0
 40
75.0
  1
900
100
AcDbText
  0
POINT
  5
7EF0
330
81CA
100
AcDbEntity
  8
DEFPOINTS
  6
ByBlock
 62
     0
100
AcDbPoint
 10
1130.711976298494
 20
3928.533310535339
 30
0.0
  0
POINT
  5
7EF1
330
81CA
100
AcDbEntity
  8
DEFPOINTS
  6
ByBlock
 62
     0
100
AcDbPoint
 10
230.7119762984948
 20
3928.533310535338
 30
0.0
  0
POINT
  5
7EF2
330
81CA
100
AcDbEntity
  8
DEFPOINTS
  6
ByBlock
 62
     0
100
AcDbPoint
 10
230.7119762984948
 20
4230.165364939511
 30
0.0
  0
ENDBLK
  5
7EF3
330
81CA
100
AcDbEntity
  8
0
100
AcDbBlockEnd
  0
BLOCK
  5
81CD
330
81CC
100
AcDbEntity
  8
0
100
AcDbBlockBegin
  2
*D14
 70
     1
 10
0.0
 20
0.0
 30
0.0
  3
*D14
  1

  0
LINE
  5
7EF5
330
81CC
100
AcDbEntity
  8
0
  6
ByBlock
100
AcDbLine
 10
1830.711976298495
 20
3468.53331053534
 30
0.0
 11
1830.711976298495
 21
4255.16536493951
 31
0.0
  0
LINE
  5
7EF6
330
81CC
100
AcDbEntity
  8
0
  6
ByBlock
100
AcDbLine
 10
1130.711976298494
 20
3953.533310535338
 30
0.0
 11
1130.711976298494
 21
4255.16536493951
 31
0.0
  0
LINE
  5
7EF7
330
81CC
100
AcDbEntity
  8
0
  6
ByBlock
100
AcDbLine
 10
1780.711976298495
 20
4230.165364939511
 30
0.0
 11
1180.711976298494
 21
4230.165364939511
 31
0.0
  0
INSERT
  5
7EF8
330
81CC
100
AcDbEntity
  8
0
  6
ByBlock
100
AcDbBlockReference
  2
_OPEN
 10
1830.711976298495
 20
4230.165364939511
 30
0.0
 41
50.0
 42
50.0
 43
50.0
  0
INSERT
  5
7EF9
330
81CC
100
AcDbEntity
  8
0
  6
ByBlock
100
AcDbBlockReference
  2
_OPEN
 10
1130.711976298494
 20
4230.165364939511
 30
0.0
 41
50.0
 42
50.0
 43
50.0
 50
180.0
  0
TEXT
  5
7EFA
330
81CC
100
AcDbEntity
  8
3
100
AcDbText
 10
1384.283404869923
 20
4242.665364939511
 30
0.0
 40
75.0
  1
700
100
AcDbText
  0
POINT
  5
7EFB
330
81CC
100
AcDbEntity
  8
DEFPOINTS
  6
ByBlock
 62
     0
100
AcDbPoint
 10
1830.711976298495
 20
3443.53331053534
 30
0.0
  0
POINT
  5
7EFC
330
81CC
100
AcDbEntity
  8
DEFPOINTS
  6
ByBlock
 62
     0
100
AcDbPoint
 10
1130.711976298494
 20
3928.533310535339
 30
0.0
  0
POINT
  5
7EFD
330
81CC
100
AcDbEntity
  8
DEFPOINTS
  6
ByBlock
 62
     0
100
AcDbPoint
 10
1130.711976298494
 20
4230.165364939511
 30
0.0
  0
ENDBLK
  5
7EFE
330
81CC
100
AcDbEntity
  8
0
100
AcDbBlockEnd
  0
BLOCK
  5
81CF
330
81CE
100
AcDbEntity
  8
0
100
AcDbBlockBegin
  2
*D15
 70
     1
 10
0.0
 20
0.0
 30
0.0
  3
*D15
  1

  0
LINE
  5
7F00
330
81CE
100
AcDbEntity
  8
0
  6
ByBlock
100
AcDbLine
 10
205.7119762984948
 20
2773.533310535337
 30
0.0
 11
-95.68523184276271
 21
2773.533310535337
 31
0.0
  0
LINE
  5
7F01
330
81CE
100
AcDbEntity
  8
0
  6
ByBlock
100
AcDbLine
 10
205.7119762984948
 20
3928.533310535338
 30
0.0
 11
-95.68523184276271
 21
3928.533310535338
 31
0.0
  0
LINE
  5
7F02
330
81CE
100
AcDbEntity
  8
0
  6
ByBlock
100
AcDbLine
 10
-70.68523184276273
 20
2823.533310535337
 30
0.0
 11
-70.68523184276273
 21
3878.533310535337
 31
0.0
  0
INSERT
  5
7F03
330
81CE
100
AcDbEntity
  8
0
  6
ByBlock
100
AcDbBlockReference
  2
_OPEN
 10
-70.68523184276273
 20
2773.533310535337
 30
0.0
 41
50.0
 42
50.0
 43
50.0
 50
270.0
  0
INSERT
  5
7F04
330
81CE
100
AcDbEntity
  8
0
  6
ByBlock
100
AcDbBlockReference
  2
_OPEN
 10
-70.68523184276273
 20
3928.533310535338
 30
0.0
 41
50.0
 42
50.0
 43
50.0
 50
90.0
  0
TEXT
  5
7F05
330
81CE
100
AcDbEntity
  8
3
100
AcDbText
 10
-83.18523184276273
 20
3233.176167678195
 30
0.0
 40
75.0
  1
1155
 50
90.0
100
AcDbText
  0
POINT
  5
7F06
330
81CE
100
AcDbEntity
  8
DEFPOINTS
  6
ByBlock
 62
     0
100
AcDbPoint
 10
230.7119762984948
 20
2773.533310535337
 30
0.0
  0
POINT
  5
7F07
330
81CE
100
AcDbEntity
  8
DEFPOINTS
  6
ByBlock
 62
     0
100
AcDbPoint
 10
230.7119762984948
 20
3928.533310535338
 30
0.0
  0
POINT
  5
7F08
330
81CE
100
AcDbEntity
  8
DEFPOINTS
  6
ByBlock
 62
     0
100
AcDbPoint
 10
-70.68523184276273
 20
3928.533310535338
 30
0.0
  0
ENDBLK
  5
7F09
330
81CE
100
AcDbEntity
  8
0
100
AcDbBlockEnd
  0
BLOCK
  5
81D1
330
81D0
100
AcDbEntity
  8
0
100
AcDbBlockBegin
  2
*D16
 70
     1
 10
0.0
 20
0.0
 30
0.0
  3
*D16
  1

  0
LINE
  5
7F0B
330
81D0
100
AcDbEntity
  8
0
  6
ByBlock
100
AcDbLine
 10
642.7119762984948
 20
1008.593478221399
 30
0.0
 11
-72.37300687087918
 21
1008.593478221399
 31
0.0
  0
LINE
  5
7F0C
330
81D0
100
AcDbEntity
  8
0
  6
ByBlock
100
AcDbLine
 10
33.44613749306518
 20
508.5934782213988
 30
0.0
 11
-72.37300687087918
 21
508.5934782213988
 31
0.0
  0
LINE
  5
7F0D
330
81D0
100
AcDbEntity
  8
0
  6
ByBlock
100
AcDbLine
 10
-47.37300687087918
 20
958.5934782213996
 30
0.0
 11
-47.37300687087918
 21
558.5934782213988
 31
0.0
  0
INSERT
  5
7F0E
330
81D0
100
AcDbEntity
  8
0
  6
ByBlock
100
AcDbBlockReference
  2
_OPEN
 10
-47.37300687087918
 20
1008.593478221399
 30
0.0
 41
50.0
 42
50.0
 43
50.0
 50
90.0
  0
INSERT
  5
7F0F
330
81D0
100
AcDbEntity
  8
0
  6
ByBlock
100
AcDbBlockReference
  2
_OPEN
 10
-47.37300687087918
 20
508.5934782213988
 30
0.0
 41
50.0
 42
50.0
 43
50.0
 50
270.0
  0
TEXT
  5
7F10
330
81D0
100
AcDbEntity
  8
3
100
AcDbText
 10
-59.87300687087918
 20
662.1649067928277
 30
0.0
 40
75.0
  1
500
 50
90.0
100
AcDbText
  0
POINT
  5
7F11
330
81D0
100
AcDbEntity
  8
DEFPOINTS
  6
ByBlock
 62
     0
100
AcDbPoint
 10
667.7119762984948
 20
1008.593478221399
 30
0.0
  0
POINT
  5
7F12
330
81D0
100
AcDbEntity
  8
DEFPOINTS
  6
ByBlock
 62
     0
100
AcDbPoint
 10
58.44613749306518
 20
508.5934782213988
 30
0.0
  0
POINT
  5
7F13
330
81D0
100
AcDbEntity
  8
DEFPOINTS
  6
ByBlock
 62
     0
100
AcDbPoint
 10
-47.37300687087918
 20
508.5934782213988
 30
0.0
  0
ENDBLK
  5
7F14
330
81D0
100
AcDbEntity
  8
0
100
AcDbBlockEnd
  0
BLOCK
  5
81D3
330
81D2
100
AcDbEntity
  8
0
100
AcDbBlockBegin
  2
*D17
 70
     1
 10
0.0
 20
0.0
 30
0.0
  3
*D17
  1

  0
LINE
  5
810D
330
81D2
100
AcDbEntity
  8
3
100
AcDbLine
 10
1078.22368732464
 20
1894.56025197806
 30
0.0
 11
800.1387041552657
 21
1894.56025197806
 31
0.0
  0
LINE
  5
810E
330
81D2
100
AcDbEntity
  8
3
100
AcDbLine
 10
825.1387041552661
 20
2484.560251978061
 30
0.0
 11
825.1387041552657
 21
1944.56025197806
 31
0.0
  0
INSERT
  5
810F
330
81D2
100
AcDbEntity
  8
3
100
AcDbBlockReference
  2
_OPEN
 10
825.1387041552661
 20
2534.560251978061
 30
0.0
 41
50.0
 42
50.0
 43
50.0
 50
90.0
  0
INSERT
  5
8110
330
81D2
100
AcDbEntity
  8
3
100
AcDbBlockReference
  2
_OPEN
 10
825.1387041552657
 20
1894.56025197806
 30
0.0
 41
50.0
 42
50.0
 43
50.0
 50
270.0
  0
TEXT
  5
8130
330
81D2
100
AcDbEntity
  8
3
100
AcDbText
 10
625.139
 20
2081.81
 30
0.0
 40
75.0
  1
640
100
AcDbText
  0
POINT
  5
8112
330
81D2
100
AcDbEntity
  8
DEFPOINTS
 62
     0
100
AcDbPoint
 10
930.9578485192103
 20
2534.560251978061
 30
0.0
  0
POINT
  5
8113
330
81D2
100
AcDbEntity
  8
DEFPOINTS
 62
     0
100
AcDbPoint
 10
1103.22368732464
 20
1894.56025197806
 30
0.0
  0
POINT
  5
8114
330
81D2
100
AcDbEntity
  8
DEFPOINTS
 62
     0
100
AcDbPoint
 10
825.1387041552657
 20
1894.56025197806
 30
0.0
  0
ENDBLK
  5
7F1E
330
81D2
100
AcDbEntity
  8
0
100
AcDbBlockEnd
  0
BLOCK
  5
81D5
330
81D4
100
AcDbEntity
  8
0
100
AcDbBlockBegin
  2
*D18
 70
     1
 10
0.0
 20
0.0
 30
0.0
  3
*D18
  1

  0
LINE
  5
8115
330
81D4
100
AcDbEntity
  8
3
 62
     0
100
AcDbLine
 10
1090.72368732464
 20
1867.56025197806
 30
0.0
 11
800.1387041552661
 21
1867.56025197806
 31
0.0
  0
LINE
  5
8116
330
81D4
100
AcDbEntity
  8
3
 62
     0
100
AcDbLine
 10
1090.72368732464
 20
1767.56025197806
 30
0.0
 11
800.1387041552657
 21
1767.56025197806
 31
0.0
  0
LINE
  5
8117
330
81D4
100
AcDbEntity
  8
3
 62
     0
100
AcDbLine
 10
825.1387041552661
 20
1917.56025197806
 30
0.0
 11
825.1387041552661
 21
1967.56025197806
 31
0.0
  0
LINE
  5
8118
330
81D4
100
AcDbEntity
  8
3
 62
     0
100
AcDbLine
 10
825.1387041552657
 20
1717.56025197806
 30
0.0
 11
825.1387041552657
 21
1438.988823406632
 31
0.0
  0
LINE
  5
8119
330
81D4
100
AcDbEntity
  8
3
 62
     0
100
AcDbLine
 10
825.1387041552661
 20
1867.56025197806
 30
0.0
 11
825.1387041552657
 21
1767.56025197806
 31
0.0
  0
INSERT
  5
811A
330
81D4
100
AcDbEntity
  8
3
 62
     0
100
AcDbBlockReference
  2
_DOT
 10
825.1387041552661
 20
1867.56025197806
 30
0.0
 41
50.0
 42
50.0
 43
50.0
 50
270.0
  0
INSERT
  5
811B
330
81D4
100
AcDbEntity
  8
3
 62
     0
100
AcDbBlockReference
  2
_OPEN
 10
825.1387041552657
 20
1767.56025197806
 30
0.0
 41
50.0
 42
50.0
 43
50.0
 50
90.0
  0
TEXT
  5
8131
330
81D4
100
AcDbEntity
  8
3
 62
     0
100
AcDbText
 10
612.639
 20
1420.52
 30
0.0
 40
75.0
  1
100
100
AcDbText
  0
POINT
  5
811D
330
81D4
100
AcDbEntity
  8
DEFPOINTS
 62
     0
100
AcDbPoint
 10
1103.22368732464
 20
1867.56025197806
 30
0.0
  0
POINT
  5
811E
330
81D4
100
AcDbEntity
  8
DEFPOINTS
 62
     0
100
AcDbPoint
 10
1103.22368732464
 20
1767.56025197806
 30
0.0
  0
POINT
  5
811F
330
81D4
100
AcDbEntity
  8
DEFPOINTS
 62
     0
100
AcDbPoint
 10
825.1387041552657
 20
1767.56025197806
 30
0.0
  0
ENDBLK
  5
8013
330
81D4
100
AcDbEntity
  8
0
100
AcDbBlockEnd
  0
BLOCK
  5
81DB
330
81D6
100
AcDbEntity
  8
0
100
AcDbBlockBegin
  2
_DOT
 70
     0
 10
0.0
 20
0.0
 30
0.0
  3
_DOT
  1

  0
LWPOLYLINE
  5
8016
330
81D6
100
AcDbEntity
  8
0
  6
ByBlock
 62
     0
100
AcDbPolyline
 90
        2
 70
     1
 43
0.25
 10
-0.125
 20
0.0
 42
1.0
 10
0.125
 20
0.0
 42
1.0
  0
LINE
  5
801A
330
81D6
100
AcDbEntity
  8
0
  6
ByBlock
 62
     0
100
AcDbLine
 10
-0.25
 20
0.0
 30
0.0
 11
-1.0
 21
0.0
 31
0.0
  0
ENDBLK
  5
7FDF
330
81D6
100
AcDbEntity
  8
0
100
AcDbBlockEnd
  0
BLOCK
  5
81D8
330
81D7
100
AcDbEntity
  8
0
100
AcDbBlockBegin
  2
*D20
 70
     1
 10
0.0
 20
0.0
 30
0.0
  3
*D20
  1

  0
LINE
  5
8120
330
81D7
100
AcDbEntity
  8
3
100
AcDbLine
 10
1047.22368732464
 20
2506.56025197806
 30
0.0
 11
1047.22368732464
 21
3361.376409230953
 31
0.0
  0
LINE
  5
8121
330
81D7
100
AcDbEntity
  8
3
100
AcDbLine
 10
1503.22368732464
 20
3336.376409230953
 30
0.0
 11
1097.22368732464
 21
3336.376409230953
 31
0.0
  0
INSERT
  5
8122
330
81D7
100
AcDbEntity
  8
3
100
AcDbBlockReference
  2
_OPEN
 10
1553.22368732464
 20
3336.376409230953
 30
0.0
 41
50.0
 42
50.0
 43
50.0
  0
INSERT
  5
8123
330
81D7
100
AcDbEntity
  8
3
100
AcDbBlockReference
  2
_OPEN
 10
1047.22368732464
 20
3336.376409230953
 30
0.0
 41
50.0
 42
50.0
 43
50.0
 50
180.0
  0
TEXT
  5
8132
330
81D7
100
AcDbEntity
  8
3
100
AcDbText
 10
1150.22
 20
3253.630000000001
 30
0.0
 40
75.0
  1
506
100
AcDbText
  0
POINT
  5
8125
330
81D7
100
AcDbEntity
  8
DEFPOINTS
 62
     0
100
AcDbPoint
 10
1553.22368732464
 20
3156.82609078349
 30
0.0
  0
POINT
  5
8126
330
81D7
100
AcDbEntity
  8
DEFPOINTS
 62
     0
100
AcDbPoint
 10
1047.22368732464
 20
2481.560251978061
 30
0.0
  0
POINT
  5
8127
330
81D7
100
AcDbEntity
  8
DEFPOINTS
 62
     0
100
AcDbPoint
 10
1047.22368732464
 20
3336.376409230953
 30
0.0
  0
ENDBLK
  5
7F41
330
81D7
100
AcDbEntity
  8
0
100
AcDbBlockEnd
  0
BLOCK
  5
81DA
330
81D9
100
AcDbEntity
  8
0
100
AcDbBlockBegin
  2
*D21
 70
     1
 10
0.0
 20
0.0
 30
0.0
  3
*D21
  1

  0
LINE
  5
7F4E
330
81D9
100
AcDbEntity
  8
0
  6
ByBlock
100
AcDbLine
 10
174.7119762984948
 20
480.5934782213987
 30
0.0
 11
174.7119762984948
 21
1467.082603555343
 31
0.0
  0
LINE
  5
7F4F
330
81D9
100
AcDbEntity
  8
0
  6
ByBlock
100
AcDbLine
 10
1830.711976298495
 20
-6.406521778601017
 30
0.0
 11
1830.711976298495
 21
1467.082603555343
 31
0.0
  0
LINE
  5
7F50
330
81D9
100
AcDbEntity
  8
0
  6
ByBlock
100
AcDbLine
 10
224.7119762984948
 20
1442.082603555343
 30
0.0
 11
1780.711976298495
 21
1442.082603555343
 31
0.0
  0
INSERT
  5
7F51
330
81D9
100
AcDbEntity
  8
0
  6
ByBlock
100
AcDbBlockReference
  2
_OPEN
 10
174.7119762984948
 20
1442.082603555343
 30
0.0
 41
50.0
 42
50.0
 43
50.0
 50
180.0
  0
INSERT
  5
7F52
330
81D9
100
AcDbEntity
  8
0
  6
ByBlock
100
AcDbBlockReference
  2
_OPEN
 10
1830.711976298495
 20
1442.082603555343
 30
0.0
 41
50.0
 42
50.0
 43
50.0
  0
TEXT
  5
7F53
330
81D9
100
AcDbEntity
  8
3
100
AcDbText
 10
879.4976905842089
 20
1454.582603555343
 30
0.0
 40
75.0
  1
1656
100
AcDbText
  0
POINT
  5
7F54
330
81D9
100
AcDbEntity
  8
DEFPOINTS
  6
ByBlock
 62
     0
100
AcDbPoint
 10
174.7119762984948
 20
455.5934782213987
 30
0.0
  0
POINT
  5
7F55
330
81D9
100
AcDbEntity
  8
DEFPOINTS
  6
ByBlock
 62
     0
100
AcDbPoint
 10
1830.711976298495
 20
-31.40652177860101
 30
0.0
  0
POINT
  5
7F56
330
81D9
100
AcDbEntity
  8
DEFPOINTS
  6
ByBlock
 62
     0
100
AcDbPoint
 10
1830.711976298495
 20
1442.082603555343
 30
0.0
  0
ENDBLK
  5
7F57
330
81D9
100
AcDbEntity
  8
0
100
AcDbBlockEnd
  0
BLOCK
  5
81DD
330
81DC
100
AcDbEntity
  8
0
100
AcDbBlockBegin
  2
*D22
 70
     1
 10
0.0
 20
0.0
 30
0.0
  3
*D22
  1

  0
LINE
  5
8052
330
81DC
100
AcDbEntity
  8
0
  6
ByBlock
 62
     0
100
AcDbLine
 10
1103.22368732464
 20
1742.56025197806
 30
0.0
 11
1103.22368732464
 21
1584.209078611294
 31
0.0
  0
LINE
  5
8053
330
81DC
100
AcDbEntity
  8
0
  6
ByBlock
 62
     0
100
AcDbLine
 10
1553.22368732464
 20
1742.56025197806
 30
0.0
 11
1553.22368732464
 21
1584.209078611294
 31
0.0
  0
LINE
  5
8054
330
81DC
100
AcDbEntity
  8
0
  6
ByBlock
 62
     0
100
AcDbLine
 10
1153.22368732464
 20
1609.209078611294
 30
0.0
 11
1503.22368732464
 21
1609.209078611294
 31
0.0
  0
INSERT
  5
8055
330
81DC
100
AcDbEntity
  8
0
  6
ByBlock
 62
     0
100
AcDbBlockReference
  2
_OPEN
 10
1103.22368732464
 20
1609.209078611294
 30
0.0
 41
50.0
 42
50.0
 43
50.0
 50
180.0
  0
INSERT
  5
8056
330
81DC
100
AcDbEntity
  8
0
  6
ByBlock
 62
     0
100
AcDbBlockReference
  2
_OPEN
 10
1553.22368732464
 20
1609.209078611294
 30
0.0
 41
50.0
 42
50.0
 43
50.0
  0
TEXT
  5
8057
330
81DC
100
AcDbEntity
  8
3
 62
     0
100
AcDbText
 10
1231.795115896068
 20
1634.209078611294
 30
0.0
 40
75.0
  1
450
100
AcDbText
  0
POINT
  5
8058
330
81DC
100
AcDbEntity
  8
DEFPOINTS
  6
ByBlock
 62
     0
100
AcDbPoint
 10
1103.22368732464
 20
1767.56025197806
 30
0.0
  0
POINT
  5
8059
330
81DC
100
AcDbEntity
  8
DEFPOINTS
  6
ByBlock
 62
     0
100
AcDbPoint
 10
1553.22368732464
 20
1767.56025197806
 30
0.0
  0
POINT
  5
805A
330
81DC
100
AcDbEntity
  8
DEFPOINTS
  6
ByBlock
 62
     0
100
AcDbPoint
 10
1553.22368732464
 20
1609.209078611294
 30
0.0
  0
ENDBLK
  5
805B
330
81DC
100
AcDbEntity
  8
0
100
AcDbBlockEnd
  0
BLOCK
  5
81DF
330
81DE
100
AcDbEntity
  8
0
100
AcDbBlockBegin
  2
*D23
 70
     1
 10
0.0
 20
0.0
 30
0.0
  3
*D23
  1

  0
LINE
  5
805F
330
81DE
100
AcDbEntity
  8
0
  6
ByBlock
 62
     0
100
AcDbLine
 10
1553.22368732464
 20
1742.56025197806
 30
0.0
 11
1553.22368732464
 21
1584.209078611294
 31
0.0
  0
LINE
  5
8060
330
81DE
100
AcDbEntity
  8
0
  6
ByBlock
 62
     0
100
AcDbLine
 10
2703.22368732464
 20
1742.56025197806
 30
0.0
 11
2703.22368732464
 21
1584.209078611294
 31
0.0
  0
LINE
  5
8061
330
81DE
100
AcDbEntity
  8
0
  6
ByBlock
 62
     0
100
AcDbLine
 10
1603.22368732464
 20
1609.209078611294
 30
0.0
 11
2653.22368732464
 21
1609.209078611294
 31
0.0
  0
INSERT
  5
8062
330
81DE
100
AcDbEntity
  8
0
  6
ByBlock
 62
     0
100
AcDbBlockReference
  2
_OPEN
 10
1553.22368732464
 20
1609.209078611294
 30
0.0
 41
50.0
 42
50.0
 43
50.0
 50
180.0
  0
INSERT
  5
8063
330
81DE
100
AcDbEntity
  8
0
  6
ByBlock
 62
     0
100
AcDbBlockReference
  2
_OPEN
 10
2703.22368732464
 20
1609.209078611294
 30
0.0
 41
50.0
 42
50.0
 43
50.0
  0
TEXT
  5
8064
330
81DE
100
AcDbEntity
  8
3
 62
     0
100
AcDbText
 10
2010.366544467497
 20
1634.209078611294
 30
0.0
 40
75.0
  1
1150
100
AcDbText
  0
POINT
  5
8065
330
81DE
100
AcDbEntity
  8
DEFPOINTS
  6
ByBlock
 62
     0
100
AcDbPoint
 10
1553.22368732464
 20
1767.56025197806
 30
0.0
  0
POINT
  5
8066
330
81DE
100
AcDbEntity
  8
DEFPOINTS
  6
ByBlock
 62
     0
100
AcDbPoint
 10
2703.22368732464
 20
1767.56025197806
 30
0.0
  0
POINT
  5
8067
330
81DE
100
AcDbEntity
  8
DEFPOINTS
  6
ByBlock
 62
     0
100
AcDbPoint
 10
2703.22368732464
 20
1609.209078611294
 30
0.0
  0
ENDBLK
  5
8068
330
81DE
100
AcDbEntity
  8
0
100
AcDbBlockEnd
  0
BLOCK
  5
81E1
330
81E0
100
AcDbEntity
  8
0
100
AcDbBlockBegin
  2
*D24
 70
     1
 10
0.0
 20
0.0
 30
0.0
  3
*D24
  1

  0
LINE
  5
806C
330
81E0
100
AcDbEntity
  8
0
  6
ByBlock
 62
     0
100
AcDbLine
 10
3114.305087276282
 20
1742.56025197806
 30
0.0
 11
3114.305087276282
 21
1584.209078611294
 31
0.0
  0
LINE
  5
806D
330
81E0
100
AcDbEntity
  8
0
  6
ByBlock
 62
     0
100
AcDbLine
 10
3766.305087276281
 20
1742.56025197806
 30
0.0
 11
3766.305087276281
 21
1584.209078611294
 31
0.0
  0
LINE
  5
806E
330
81E0
100
AcDbEntity
  8
0
  6
ByBlock
 62
     0
100
AcDbLine
 10
3164.305087276281
 20
1609.209078611294
 30
0.0
 11
3716.305087276281
 21
1609.209078611294
 31
0.0
  0
INSERT
  5
806F
330
81E0
100
AcDbEntity
  8
0
  6
ByBlock
 62
     0
100
AcDbBlockReference
  2
_OPEN
 10
3114.305087276282
 20
1609.209078611294
 30
0.0
 41
50.0
 42
50.0
 43
50.0
 50
180.0
  0
INSERT
  5
8070
330
81E0
100
AcDbEntity
  8
0
  6
ByBlock
 62
     0
100
AcDbBlockReference
  2
_OPEN
 10
3766.305087276281
 20
1609.209078611294
 30
0.0
 41
50.0
 42
50.0
 43
50.0
  0
TEXT
  5
8071
330
81E0
100
AcDbEntity
  8
3
 62
     0
100
AcDbText
 10
3343.876515847709
 20
1634.209078611294
 30
0.0
 40
75.0
  1
652
100
AcDbText
  0
POINT
  5
8072
330
81E0
100
AcDbEntity
  8
DEFPOINTS
  6
ByBlock
 62
     0
100
AcDbPoint
 10
3114.305087276282
 20
1767.56025197806
 30
0.0
  0
POINT
  5
8073
330
81E0
100
AcDbEntity
  8
DEFPOINTS
  6
ByBlock
 62
     0
100
AcDbPoint
 10
3766.305087276281
 20
1767.56025197806
 30
0.0
  0
POINT
  5
8074
330
81E0
100
AcDbEntity
  8
DEFPOINTS
  6
ByBlock
 62
     0
100
AcDbPoint
 10
3766.305087276281
 20
1609.209078611294
 30
0.0
  0
ENDBLK
  5
8075
330
81E0
100
AcDbEntity
  8
0
100
AcDbBlockEnd
  0
BLOCK
  5
81E3
330
81E2
100
AcDbEntity
  8
0
100
AcDbBlockBegin
  2
*D25
 70
     1
 10
0.0
 20
0.0
 30
0.0
  3
*D25
  1

  0
LINE
  5
8079
330
81E2
100
AcDbEntity
  8
0
  6
ByBlock
 62
     0
100
AcDbLine
 10
3766.305087276281
 20
1742.56025197806
 30
0.0
 11
3766.305087276281
 21
1584.209078611294
 31
0.0
  0
LINE
  5
807A
330
81E2
100
AcDbEntity
  8
0
  6
ByBlock
 62
     0
100
AcDbLine
 10
4269.305087276282
 20
1742.56025197806
 30
0.0
 11
4269.305087276282
 21
1584.209078611294
 31
0.0
  0
LINE
  5
807B
330
81E2
100
AcDbEntity
  8
0
  6
ByBlock
 62
     0
100
AcDbLine
 10
3816.305087276282
 20
1609.209078611294
 30
0.0
 11
4219.305087276281
 21
1609.209078611294
 31
0.0
  0
INSERT
  5
807C
330
81E2
100
AcDbEntity
  8
0
  6
ByBlock
 62
     0
100
AcDbBlockReference
  2
_OPEN
 10
3766.305087276281
 20
1609.209078611294
 30
0.0
 41
50.0
 42
50.0
 43
50.0
 50
180.0
  0
INSERT
  5
807D
330
81E2
100
AcDbEntity
  8
0
  6
ByBlock
 62
     0
100
AcDbBlockReference
  2
_OPEN
 10
4269.305087276282
 20
1609.209078611294
 30
0.0
 41
50.0
 42
50.0
 43
50.0
  0
TEXT
  5
807E
330
81E2
100
AcDbEntity
  8
3
 62
     0
100
AcDbText
 10
3921.37651584771
 20
1634.209078611294
 30
0.0
 40
75.0
  1
503
100
AcDbText
  0
POINT
  5
807F
330
81E2
100
AcDbEntity
  8
DEFPOINTS
  6
ByBlock
 62
     0
100
AcDbPoint
 10
3766.305087276281
 20
1767.56025197806
 30
0.0
  0
POINT
  5
8080
330
81E2
100
AcDbEntity
  8
DEFPOINTS
  6
ByBlock
 62
     0
100
AcDbPoint
 10
4269.305087276282
 20
1767.56025197806
 30
0.0
  0
POINT
  5
8081
330
81E2
100
AcDbEntity
  8
DEFPOINTS
  6
ByBlock
 62
     0
100
AcDbPoint
 10
4269.305087276282
 20
1609.209078611294
 30
0.0
  0
ENDBLK
  5
8082
330
81E2
100
AcDbEntity
  8
0
100
AcDbBlockEnd
  0
BLOCK
  5
81E5
330
81E4
100
AcDbEntity
  8
0
100
AcDbBlockBegin
  2
_NONE
 70
     0
 10
0.0
 20
0.0
 30
0.0
  3
_NONE
  1

  0
CIRCLE
  5
8086
330
81E4
100
AcDbEntity
  8
0
  6
ByBlock
 62
     0
100
AcDbCircle
 10
0.0
 20
0.0
 30
0.0
 40
0.25
  0
ENDBLK
  5
8087
330
81E4
100
AcDbEntity
  8
0
100
AcDbBlockEnd
  0
BLOCK
  5
81E7
330
81E6
100
AcDbEntity
  8
0
100
AcDbBlockBegin
  2
*D27
 70
     1
 10
0.0
 20
0.0
 30
0.0
  3
*D27
  1

  0
LINE
  5
808A
330
81E6
100
AcDbEntity
  8
0
  6
ByBlock
 62
     0
100
AcDbLine
 10
825.9065249622581
 20
1867.56025197806
 30
0.0
 11
825.9065249622581
 21
1867.56025197806
 31
0.0
  0
LINE
  5
808B
330
81E6
100
AcDbEntity
  8
0
  6
ByBlock
 62
     0
100
AcDbLine
 10
825.9065249622581
 20
1894.56025197806
 30
0.0
 11
825.9065249622581
 21
1994.56025197806
 31
0.0
  0
TEXT
  5
808C
330
81E6
100
AcDbEntity
  8
3
 62
     0
100
AcDbText
 10
731.2636678194008
 20
1772.131680549489
 30
0.0
 40
75.0
  1
(27)
 50
90.0
100
AcDbText
  0
LINE
  5
808D
330
81E6
100
AcDbEntity
  8
0
  6
ByBlock
 62
     0
100
AcDbLine
 10
825.9065249622581
 20
1867.56025197806
 30
0.0
 11
825.9065249622581
 21
1894.56025197806
 31
0.0
  0
POINT
  5
808E
330
81E6
100
AcDbEntity
  8
DEFPOINTS
  6
ByBlock
 62
     0
100
AcDbPoint
 10
1103.22368732464
 20
1867.56025197806
 30
0.0
  0
POINT
  5
808F
330
81E6
100
AcDbEntity
  8
DEFPOINTS
  6
ByBlock
 62
     0
100
AcDbPoint
 10
1103.22368732464
 20
1894.56025197806
 30
0.0
  0
POINT
  5
8090
330
81E6
100
AcDbEntity
  8
DEFPOINTS
  6
ByBlock
 62
     0
100
AcDbPoint
 10
825.9065249622581
 20
1894.56025197806
 30
0.0
  0
ENDBLK
  5
8091
330
81E6
100
AcDbEntity
  8
0
100
AcDbBlockEnd
  0
BLOCK
  5
81E9
330
81E8
100
AcDbEntity
  8
0
100
AcDbBlockBegin
  2
*D28
 70
     1
 10
0.0
 20
0.0
 30
0.0
  3
*D28
  1

  0
LINE
  5
8095
330
81E8
100
AcDbEntity
  8
0
  6
ByBlock
 62
     0
100
AcDbLine
 10
1078.22368732464
 20
1767.56025197806
 30
0.0
 11
587.8864723850856
 21
1767.56025197806
 31
0.0
  0
LINE
  5
8096
330
81E8
100
AcDbEntity
  8
0
  6
ByBlock
 62
     0
100
AcDbLine
 10
1515.22368732464
 20
3034.560251978061
 30
0.0
 11
587.8864723850856
 21
3034.560251978061
 31
0.0
  0
LINE
  5
8097
330
81E8
100
AcDbEntity
  8
0
  6
ByBlock
 62
     0
100
AcDbLine
 10
612.8864723850856
 20
1817.56025197806
 30
0.0
 11
612.8864723850856
 21
2984.560251978061
 31
0.0
  0
INSERT
  5
8098
330
81E8
100
AcDbEntity
  8
0
  6
ByBlock
 62
     0
100
AcDbBlockReference
  2
_OPEN
 10
612.8864723850856
 20
1767.56025197806
 30
0.0
 41
50.0
 42
50.0
 43
50.0
 50
270.0
  0
INSERT
  5
8099
330
81E8
100
AcDbEntity
  8
0
  6
ByBlock
 62
     0
100
AcDbBlockReference
  2
_OPEN
 10
612.8864723850856
 20
3034.560251978061
 30
0.0
 41
50.0
 42
50.0
 43
50.0
 50
90.0
  0
TEXT
  5
809A
330
81E8
100
AcDbEntity
  8
3
 62
     0
100
AcDbText
 10
555.7436152422284
 20
2227.845966263775
 30
0.0
 40
75.0
  1
(1267)
 50
90.0
100
AcDbText
  0
POINT
  5
809B
330
81E8
100
AcDbEntity
  8
DEFPOINTS
  6
ByBlock
 62
     0
100
AcDbPoint
 10
1103.22368732464
 20
1767.56025197806
 30
0.0
  0
POINT
  5
809C
330
81E8
100
AcDbEntity
  8
DEFPOINTS
  6
ByBlock
 62
     0
100
AcDbPoint
 10
1540.22368732464
 20
3034.560251978061
 30
0.0
  0
POINT
  5
809D
330
81E8
100
AcDbEntity
  8
DEFPOINTS
  6
ByBlock
 62
     0
100
AcDbPoint
 10
612.8864723850856
 20
3034.560251978061
 30
0.0
  0
ENDBLK
  5
809E
330
81E8
100
AcDbEntity
  8
0
100
AcDbBlockEnd
  0
BLOCK
  5
8270
330
826F
100
AcDbEntity
  8
0
100
AcDbBlockBegin
  2
*D30
 70
     1
 10
0.0
 20
0.0
 30
0.0
  3
*D30
  1

  0
LINE
  5
829D
330
826F
100
AcDbEntity
  8
3
 62
     0
370
    -2
100
AcDbLine
 10
2926.305087276285
 20
2839.560251978061
 30
0.0
 11
2926.305087276285
 21
3481.760293225471
 31
0.0
  0
LINE
  5
829E
330
826F
100
AcDbEntity
  8
3
 62
     0
370
    -2
100
AcDbLine
 10
3766.305087276282
 20
3332.578220399478
 30
0.0
 11
3766.305087276282
 21
3481.760293225471
 31
0.0
  0
LINE
  5
829F
330
826F
100
AcDbEntity
  8
3
 62
     0
370
    -2
100
AcDbLine
 10
2976.305087276285
 20
3456.760293225471
 30
0.0
 11
3716.305087276282
 21
3456.760293225471
 31
0.0
  0
INSERT
  5
82A0
330
826F
100
AcDbEntity
  8
3
 62
     0
370
    -2
100
AcDbBlockReference
  2
_OPEN
 10
2926.305087276285
 20
3456.760293225471
 30
0.0
 41
50.0
 42
50.0
 43
50.0
 50
180.0
  0
INSERT
  5
82A1
330
826F
100
AcDbEntity
  8
3
 62
     0
370
    -2
100
AcDbBlockReference
  2
_OPEN
 10
3766.305087276282
 20
3456.760293225471
 30
0.0
 41
50.0
 42
50.0
 43
50.0
  0
MTEXT
  5
82A2
330
826F
100
AcDbEntity
  8
3
 62
     0
100
AcDbMText
 10
3346.305087276284
 20
3538.903150368328
 30
0.0
 40
75.0
 41
0.0
 71
     5
 72
     1
  1
\A1;(840)
 73
     1
 44
1.0
1001
ACAD
1000
MTEXTBEGIN
1070
    73
1070
     1
1070
    44
1040
1.0
1070
    74
1070
     0
1000
MTEXTEND
  0
POINT
  5
82A3
330
826F
100
AcDbEntity
  8
DEFPOINTS
 62
     0
100
AcDbPoint
 10
2926.305087276285
 20
2814.560251978061
 30
0.0
  0
POINT
  5
82A4
330
826F
100
AcDbEntity
  8
DEFPOINTS
 62
     0
100
AcDbPoint
 10
3766.305087276282
 20
3307.578220399479
 30
0.0
  0
POINT
  5
82A5
330
826F
100
AcDbEntity
  8
DEFPOINTS
 62
     0
100
AcDbPoint
 10
3766.305087276282
 20
3456.760293225471
 30
0.0
  0
ENDBLK
  5
8271
330
826F
100
AcDbEntity
  8
0
100
AcDbBlockEnd
  0
BLOCK
  5
827D
330
827C
100
AcDbEntity
  8
0
100
AcDbBlockBegin
  2
*D31
 70
     1
 10
0.0
 20
0.0
 30
0.0
  3
*D31
  1

  0
LINE
  5
82A6
330
827C
100
AcDbEntity
  8
3
 62
     0
370
    -2
100
AcDbLine
 10
3766.305087276282
 20
3332.578220399478
 30
0.0
 11
3766.305087276282
 21
3481.760293225471
 31
0.0
  0
LINE
  5
82A7
330
827C
100
AcDbEntity
  8
3
 62
     0
370
    -2
100
AcDbLine
 10
4326.305087276281
 20
2534.360251978061
 30
0.0
 11
4326.305087276281
 21
3481.760293225471
 31
0.0
  0
LINE
  5
82A8
330
827C
100
AcDbEntity
  8
3
 62
     0
370
    -2
100
AcDbLine
 10
3816.305087276282
 20
3456.760293225471
 30
0.0
 11
4276.305087276282
 21
3456.760293225471
 31
0.0
  0
INSERT
  5
82A9
330
827C
100
AcDbEntity
  8
3
 62
     0
370
    -2
100
AcDbBlockReference
  2
_OPEN
 10
3766.305087276282
 20
3456.760293225471
 30
0.0
 41
50.0
 42
50.0
 43
50.0
 50
180.0
  0
INSERT
  5
82AA
330
827C
100
AcDbEntity
  8
3
 62
     0
370
    -2
100
AcDbBlockReference
  2
_OPEN
 10
4326.305087276281
 20
3456.760293225471
 30
0.0
 41
50.0
 42
50.0
 43
50.0
  0
MTEXT
  5
82AB
330
827C
100
AcDbEntity
  8
3
 62
     0
100
AcDbMText
 10
4046.305087276281
 20
3538.903150368328
 30
0.0
 40
75.0
 41
0.0
 71
     5
 72
     1
  1
\A1;(560)
 73
     1
 44
1.0
1001
ACAD
1000
MTEXTBEGIN
1070
    73
1070
     1
1070
    44
1040
1.0
1070
    74
1070
     0
1000
MTEXTEND
  0
POINT
  5
82AC
330
827C
100
AcDbEntity
  8
DEFPOINTS
 62
     0
100
AcDbPoint
 10
3766.305087276282
 20
3307.578220399479
 30
0.0
  0
POINT
  5
82AD
330
827C
100
AcDbEntity
  8
DEFPOINTS
 62
     0
100
AcDbPoint
 10
4326.305087276281
 20
2509.360251978061
 30
0.0
  0
POINT
  5
82AE
330
827C
100
AcDbEntity
  8
DEFPOINTS
 62
     0
100
AcDbPoint
 10
4326.305087276281
 20
3456.760293225471
 30
0.0
  0
ENDBLK
  5
827E
330
827C
100
AcDbEntity
  8
0
100
AcDbBlockEnd
  0
BLOCK
  5
82B1
330
82B0
100
AcDbEntity
  8
0
100
AcDbBlockBegin
  2
*D32
 70
     1
 10
0.0
 20
0.0
 30
0.0
  3
*D32
  1

  0
LINE
  5
82B3
330
82B0
100
AcDbEntity
  8
3
 62
     0
370
    -2
100
AcDbLine
 10
1103.22368732464
 20
4193.999187184334
 30
0.0
 11
1103.22368732464
 21
3826.464459246872
 31
0.0
  0
LINE
  5
82B4
330
82B0
100
AcDbEntity
  8
3
 62
     0
370
    -2
100
AcDbLine
 10
2703.22368732464
 20
4193.999187184336
 30
0.0
 11
2703.22368732464
 21
3826.464459246872
 31
0.0
  0
LINE
  5
82B5
330
82B0
100
AcDbEntity
  8
3
 62
     0
370
    -2
100
AcDbLine
 10
1153.22368732464
 20
3851.464459246872
 30
0.0
 11
2653.22368732464
 21
3851.464459246872
 31
0.0
  0
INSERT
  5
82B6
330
82B0
100
AcDbEntity
  8
3
 62
     0
370
    -2
100
AcDbBlockReference
  2
_OPEN
 10
1103.22368732464
 20
3851.464459246872
 30
0.0
 41
50.0
 42
50.0
 43
50.0
 50
180.0
  0
INSERT
  5
82B7
330
82B0
100
AcDbEntity
  8
3
 62
     0
370
    -2
100
AcDbBlockReference
  2
_OPEN
 10
2703.22368732464
 20
3851.464459246872
 30
0.0
 41
50.0
 42
50.0
 43
50.0
  0
MTEXT
  5
82B8
330
82B0
100
AcDbEntity
  8
3
 62
     0
100
AcDbMText
 10
1903.22368732464
 20
3913.964459246872
 30
0.0
 40
75.0
 41
0.0
 71
     5
 72
     1
  1
\A1;1600
 73
     1
 44
1.0
1001
ACAD
1000
MTEXTBEGIN
1070
    73
1070
     1
1070
    44
1040
1.0
1070
    74
1070
     0
1000
MTEXTEND
  0
POINT
  5
82B9
330
82B0
100
AcDbEntity
  8
DEFPOINTS
 62
     0
100
AcDbPoint
 10
1103.22368732464
 20
4218.999187184333
 30
0.0
  0
POINT
  5
82BA
330
82B0
100
AcDbEntity
  8
DEFPOINTS
 62
     0
100
AcDbPoint
 10
2703.22368732464
 20
4218.999187184336
 30
0.0
  0
POINT
  5
82BB
330
82B0
100
AcDbEntity
  8
DEFPOINTS
 62
     0
100
AcDbPoint
 10
2703.22368732464
 20
3851.464459246872
 30
0.0
  0
ENDBLK
  5
82B2
330
82B0
100
AcDbEntity
  8
0
100
AcDbBlockEnd
  0
BLOCK
  5
82C5
330
82C4
100
AcDbEntity
  8
0
100
AcDbBlockBegin
  2
*D34
 70
     1
 10
0.0
 20
0.0
 30
0.0
  3
*D34
  1

  0
LINE
  5
82D0
330
82C4
100
AcDbEntity
  8
3
 62
     0
370
    -2
100
AcDbLine
 10
1553.22368732464
 20
3164.924811064502
 30
0.0
 11
1553.22368732464
 21
3361.376409230951
 31
0.0
  0
LINE
  5
82D1
330
82C4
100
AcDbEntity
  8
3
 62
     0
370
    -2
100
AcDbLine
 10
1064.223687324639
 20
2506.560251978062
 30
0.0
 11
1064.223687324639
 21
3361.376409230951
 31
0.0
  0
LINE
  5
82D2
330
82C4
100
AcDbEntity
  8
3
 62
     0
370
    -2
100
AcDbLine
 10
1503.22368732464
 20
3336.376409230951
 30
0.0
 11
1114.223687324639
 21
3336.376409230951
 31
0.0
  0
INSERT
  5
82D3
330
82C4
100
AcDbEntity
  8
3
 62
     0
370
    -2
100
AcDbBlockReference
  2
_OPEN
 10
1553.22368732464
 20
3336.376409230951
 30
0.0
 41
50.0
 42
50.0
 43
50.0
  0
INSERT
  5
82D4
330
82C4
100
AcDbEntity
  8
3
 62
     0
370
    -2
100
AcDbBlockReference
  2
_OPEN
 10
1064.223687324639
 20
3336.376409230951
 30
0.0
 41
50.0
 42
50.0
 43
50.0
 50
180.0
  0
MTEXT
  5
82D5
330
82C4
100
AcDbEntity
  8
3
 62
     0
100
AcDbMText
 10
1308.723687324639
 20
3398.876409230951
 30
0.0
 40
75.0
 41
0.0
 71
     5
 72
     1
  1
\A1;489
 73
     1
 44
1.0
1001
ACAD
1000
MTEXTBEGIN
1070
    73
1070
     1
1070
    44
1040
1.0
1070
    74
1070
     0
1000
MTEXTEND
  0
POINT
  5
82D6
330
82C4
100
AcDbEntity
  8
DEFPOINTS
 62
     0
100
AcDbPoint
 10
1553.22368732464
 20
3139.924811064502
 30
0.0
  0
POINT
  5
82D7
330
82C4
100
AcDbEntity
  8
DEFPOINTS
 62
     0
100
AcDbPoint
 10
1064.223687324639
 20
2481.560251978062
 30
0.0
  0
POINT
  5
82D8
330
82C4
100
AcDbEntity
  8
DEFPOINTS
 62
     0
100
AcDbPoint
 10
1064.223687324639
 20
3336.376409230951
 30
0.0
  0
ENDBLK
  5
82C6
330
82C4
100
AcDbEntity
  8
0
100
AcDbBlockEnd
  0
BLOCK
  5
82DB
330
82DA
100
AcDbEntity
  8
0
100
AcDbBlockBegin
  2
*D35
 70
     1
 10
0.0
 20
0.0
 30
0.0
  3
*D35
  1

  0
LINE
  5
82DD
330
82DA
100
AcDbEntity
  8
3
 62
     0
370
    -2
100
AcDbLine
 10
2703.22368732464
 20
2019.56025197806
 30
0.0
 11
2703.22368732464
 21
3499.078916862546
 31
0.0
  0
LINE
  5
82DE
330
82DA
100
AcDbEntity
  8
3
 62
     0
370
    -2
100
AcDbLine
 10
1064.223687324639
 20
2506.560251978062
 30
0.0
 11
1064.223687324639
 21
3499.078916862546
 31
0.0
  0
LINE
  5
82DF
330
82DA
100
AcDbEntity
  8
3
 62
     0
370
    -2
100
AcDbLine
 10
2653.22368732464
 20
3474.078916862545
 30
0.0
 11
1114.223687324639
 21
3474.078916862545
 31
0.0
  0
INSERT
  5
82E0
330
82DA
100
AcDbEntity
  8
3
 62
     0
370
    -2
100
AcDbBlockReference
  2
_OPEN
 10
2703.22368732464
 20
3474.078916862545
 30
0.0
 41
50.0
 42
50.0
 43
50.0
  0
INSERT
  5
82E1
330
82DA
100
AcDbEntity
  8
3
 62
     0
370
    -2
100
AcDbBlockReference
  2
_OPEN
 10
1064.223687324639
 20
3474.078916862545
 30
0.0
 41
50.0
 42
50.0
 43
50.0
 50
180.0
  0
MTEXT
  5
82E2
330
82DA
100
AcDbEntity
  8
3
 62
     0
100
AcDbMText
 10
1883.723687324639
 20
3536.578916862545
 30
0.0
 40
75.0
 41
0.0
 71
     5
 72
     1
  1
\A1;1639
 73
     1
 44
1.0
1001
ACAD
1000
MTEXTBEGIN
1070
    73
1070
     1
1070
    44
1040
1.0
1070
    74
1070
     0
1000
MTEXTEND
  0
POINT
  5
82E3
330
82DA
100
AcDbEntity
  8
DEFPOINTS
 62
     0
100
AcDbPoint
 10
2703.22368732464
 20
1994.56025197806
 30
0.0
  0
POINT
  5
82E4
330
82DA
100
AcDbEntity
  8
DEFPOINTS
 62
     0
100
AcDbPoint
 10
1064.223687324639
 20
2481.560251978062
 30
0.0
  0
POINT
  5
82E5
330
82DA
100
AcDbEntity
  8
DEFPOINTS
 62
     0
100
AcDbPoint
 10
1064.223687324639
 20
3474.078916862545
 30
0.0
  0
ENDBLK
  5
82DC
330
82DA
100
AcDbEntity
  8
0
100
AcDbBlockEnd
  0
BLOCK
  5
82E8
330
82E7
100
AcDbEntity
  8
0
100
AcDbBlockBegin
  2
*D36
 70
     1
 10
0.0
 20
0.0
 30
0.0
  3
*D36
  1

  0
LINE
  5
82F3
330
82E7
100
AcDbEntity
  8
3
 62
     0
370
    -2
100
AcDbLine
 10
905.9578485192103
 20
2534.560251978061
 30
0.0
 11
800.9065249622581
 21
2534.560251978061
 31
0.0
  0
LINE
  5
82F4
330
82E7
100
AcDbEntity
  8
3
 62
     0
370
    -2
100
AcDbLine
 10
1078.22368732464
 20
1894.56025197806
 30
0.0
 11
800.9065249622581
 21
1894.56025197806
 31
0.0
  0
LINE
  5
82F5
330
82E7
100
AcDbEntity
  8
3
 62
     0
370
    -2
100
AcDbLine
 10
825.9065249622581
 20
2484.560251978061
 30
0.0
 11
825.9065249622581
 21
1944.56025197806
 31
0.0
  0
INSERT
  5
82F6
330
82E7
100
AcDbEntity
  8
3
 62
     0
370
    -2
100
AcDbBlockReference
  2
_OPEN
 10
825.9065249622581
 20
2534.560251978061
 30
0.0
 41
50.0
 42
50.0
 43
50.0
 50
90.0
  0
INSERT
  5
82F7
330
82E7
100
AcDbEntity
  8
3
 62
     0
370
    -2
100
AcDbBlockReference
  2
_OPEN
 10
825.9065249622581
 20
1894.56025197806
 30
0.0
 41
50.0
 42
50.0
 43
50.0
 50
270.0
  0
MTEXT
  5
82F8
330
82E7
100
AcDbEntity
  8
3
 62
     0
100
AcDbMText
 10
763.4065249622578
 20
2214.560251978061
 30
0.0
 40
75.0
 41
0.0
 71
     5
 72
     1
  1
\A1;640
 11
0.0000000000000001
 21
1.0
 31
0.0
 73
     1
 44
1.0
1001
ACAD
1000
MTEXTBEGIN
1070
    73
1070
     1
1070
    44
1040
1.0
1070
    74
1070
     0
1000
MTEXTEND
  0
POINT
  5
82F9
330
82E7
100
AcDbEntity
  8
DEFPOINTS
 62
     0
100
AcDbPoint
 10
930.9578485192103
 20
2534.560251978061
 30
0.0
  0
POINT
  5
82FA
330
82E7
100
AcDbEntity
  8
DEFPOINTS
 62
     0
100
AcDbPoint
 10
1103.22368732464
 20
1894.56025197806
 30
0.0
  0
POINT
  5
82FB
330
82E7
100
AcDbEntity
  8
DEFPOINTS
 62
     0
100
AcDbPoint
 10
825.9065249622581
 20
1894.56025197806
 30
0.0
  0
ENDBLK
  5
82E9
330
82E7
100
AcDbEntity
  8
0
100
AcDbBlockEnd
  0
ENDSEC
  0
SECTION
  2
ENTITIES
  0
INSERT
  5
7C36
330
81A1
100
AcDbEntity
  8
0
100
AcDbBlockReference
  2
YA_N
 10
6.0
 20
5.0
 30
0.0
  0
LINE
  5
7C42
330
81A1
100
AcDbEntity
  8
2
100
AcDbLine
 10
1553.22368732464
 20
1767.56025197806
 30
0.0
 11
1553.22368732464
 21
3139.924811064502
 31
0.0
  0
LINE
  5
7C43
330
81A1
100
AcDbEntity
  8
2
100
AcDbLine
 10
930.9578485192103
 20
2534.560251978061
 30
0.0
 11
2376.206994460865
 21
2534.560251978061
 31
0.0
  0
LINE
  5
7C44
330
81A1
100
AcDbEntity
  8
1
100
AcDbLine
 10
2250.223687324639
 20
2034.56025197806
 30
0.0
 11
2656.22368732464
 21
2034.56025197806
 31
0.0
  0
LINE
  5
7C45
330
81A1
100
AcDbEntity
  8
1
100
AcDbLine
 10
2253.22368732464
 20
1994.56025197806
 30
0.0
 11
2253.223687324639
 21
2034.56025197806
 31
0.0
  0
LINE
  5
7C46
330
81A1
100
AcDbEntity
  8
1
100
AcDbLine
 10
1103.22368732464
 20
1767.56025197806
 30
0.0
 11
2703.22368732464
 21
1767.56025197806
 31
0.0
  0
LINE
  5
7C47
330
81A1
100
AcDbEntity
  8
1
100
AcDbLine
 10
1103.22368732464
 20
1867.56025197806
 30
0.0
 11
1103.22368732464
 21
1767.56025197806
 31
0.0
  0
LINE
  5
7C48
330
81A1
100
AcDbEntity
  8
1
100
AcDbLine
 10
2703.22368732464
 20
1867.56025197806
 30
0.0
 11
2703.22368732464
 21
1767.56025197806
 31
0.0
  0
LINE
  5
7C49
330
81A1
100
AcDbEntity
  8
1
100
AcDbLine
 10
1103.22368732464
 20
1867.56025197806
 30
0.0
 11
2703.22368732464
 21
1867.56025197806
 31
0.0
1001
ACAD
1000
ASC_BOUNDS
1002
{
1070
    19
1005
0
1002
}
  0
LINE
  5
7C4A
330
81A1
100
AcDbEntity
  8
2
100
AcDbLine
 10
3766.305087276281
 20
1767.56025197806
 30
0.0
 11
3766.305087276282
 21
3204.631364260667
 31
0.0
  0
LINE
  5
7C4B
330
81A1
100
AcDbEntity
  8
2
100
AcDbLine
 10
2913.894633913479
 20
2534.560251978061
 30
0.0
 11
4352.587445671594
 21
2534.560251978061
 31
0.0
  0
LINE
  5
7C4C
330
81A1
100
AcDbEntity
  8
1
100
AcDbLine
 10
3114.305087276282
 20
1767.56025197806
 30
0.0
 11
4244.30508727628
 21
1767.56025197806
 31
0.0
  0
LINE
  5
7C4D
330
81A1
100
AcDbEntity
  8
1
100
AcDbLine
 10
3114.305087276282
 20
1867.56025197806
 30
0.0
 11
4269.305087276282
 21
1867.56025197806
 31
0.0
1001
ACAD
1000
ASC_BOUNDS
1002
{
1070
    19
1002
}
  0
LINE
  5
7C4E
330
81A1
100
AcDbEntity
  8
2
100
AcDbLine
 10
1553.22368732464
 20
5455.889190798854
 30
0.0
 11
1553.22368732464
 21
4000.107986934368
 31
0.0
  0
LINE
  5
7C4F
330
81A1
100
AcDbEntity
  8
2
100
AcDbLine
 10
2453.22368732464
 20
4841.910119183573
 30
0.0
 11
2453.223687324639
 21
4000.107986934368
 31
0.0
  0
LINE
  5
7C50
330
81A1
100
AcDbEntity
  8
2
100
AcDbLine
 10
956.0254902965608
 20
4870.999187184334
 30
0.0
 11
2895.750156269511
 21
4870.999187184338
 31
0.0
  0
LINE
  5
7C51
330
81A1
100
AcDbEntity
  8
2
100
AcDbLine
 10
3044.337988078371
 20
2244.56025197806
 30
0.0
 11
3739.25037509537
 21
2244.56025197806
 31
0.0
  0
LINE
  5
7C52
330
81A1
100
AcDbEntity
  8
1
100
AcDbLine
 10
4216.305087276281
 20
1994.56025197806
 30
0.0
 11
4216.305087276281
 21
2534.560251978061
 31
0.0
  0
POINT
  5
7C53
330
81A1
100
AcDbEntity
  8
1
100
AcDbPoint
 10
1103.22368732464
 20
1767.56025197806
 30
0.0
  0
INSERT
  5
7C55
330
81A1
100
AcDbEntity
  8
0
100
AcDbBlockReference
  2
YA_N
 10
-1092.024831295133
 20
-1095.319682135705
 30
0.0
 41
20.0
 42
20.0
 43
20.0
  0
LINE
  5
7C57
330
81A1
100
AcDbEntity
  8
1
100
AcDbLine
 10
2607.22368732464
 20
2100.560251978061
 30
0.0
 11
2587.79118732464
 21
2153.950251978061
 31
0.0
  0
LINE
  5
7C58
330
81A1
100
AcDbEntity
  8
1
100
AcDbLine
 10
2299.22368732464
 20
2100.560251978061
 30
0.0
 11
2318.65628732464
 21
2153.950251978061
 31
0.0
  0
ARC
  5
7C59
330
81A1
100
AcDbEntity
  8
1
100
AcDbCircle
 10
2453.22368732464
 20
2244.56025197806
 30
0.0
 40
162.0
100
AcDbArc
 50
285.6481
 51
0.0
  0
ARC
  5
7C5A
330
81A1
100
AcDbEntity
  8
1
100
AcDbCircle
 10
2453.22368732464
 20
2244.56025197806
 30
0.0
 40
162.0
100
AcDbArc
 50
0.0
 51
254.5427
  0
LINE
  5
7C5B
330
81A1
100
AcDbEntity
  8
2
100
AcDbLine
 10
2453.22368732464
 20
2493.79625197806
 30
0.0
 11
2453.22368732464
 21
1767.56025197806
 31
0.0
  0
LINE
  5
7C5C
330
81A1
100
AcDbEntity
  8
1
100
AcDbLine
 10
2409.54308732464
 20
2088.56025197806
 30
0.0
 11
2496.904387324641
 21
2088.56025197806
 31
0.0
  0
LINE
  5
7C5D
330
81A1
100
AcDbEntity
  8
1
100
AcDbLine
 10
2368.279787324639
 20
2106.61625197806
 30
0.0
 11
2360.10238732464
 21
2098.43825197806
 31
0.0
  0
LINE
  5
7C5E
330
81A1
100
AcDbEntity
  8
1
100
AcDbLine
 10
2346.01048732464
 20
2102.560251978061
 30
0.0
 11
2301.22368732464
 21
2102.560251978061
 31
0.0
  0
ARC
  5
7C60
330
81A1
100
AcDbEntity
  8
1
100
AcDbCircle
 10
2301.22368732464
 20
2100.560251978061
 30
0.0
 40
2.0
100
AcDbArc
 50
90.0
 51
180.0
  0
LINE
  5
7C62
330
81A1
100
AcDbEntity
  8
1
100
AcDbLine
 10
2299.22368732464
 20
2084.560251978061
 30
0.0
 11
2299.22368732464
 21
2100.560251978061
 31
0.0
  0
ARC
  5
7C64
330
81A1
100
AcDbEntity
  8
1
100
AcDbCircle
 10
2362.22368732464
 20
2096.31725197806
 30
0.0
 40
3.0
100
AcDbArc
 50
135.0
 51
180.0
  0
LINE
  5
7C65
330
81A1
100
AcDbEntity
  8
1
100
AcDbLine
 10
2359.22368732464
 20
2084.560251978061
 30
0.0
 11
2359.22368732464
 21
2096.31725197806
 31
0.0
  0
ARC
  5
7C6A
330
81A1
100
AcDbEntity
  8
1
100
AcDbCircle
 10
2346.01048732464
 20
2105.560251978061
 30
0.0
 40
3.0
100
AcDbArc
 50
270.0
 51
315.0
  0
LINE
  5
7C6B
330
81A1
100
AcDbEntity
  8
1
100
AcDbLine
 10
2358.112487324639
 20
2113.41925197806
 30
0.0
 11
2348.13188732464
 21
2103.43825197806
 31
0.0
  0
LINE
  5
7C6D
330
81A1
100
AcDbEntity
  8
1
100
AcDbLine
 10
2560.43688732464
 20
2102.560251978061
 30
0.0
 11
2605.22368732464
 21
2102.560251978061
 31
0.0
  0
LINE
  5
7C6E
330
81A1
100
AcDbEntity
  8
1
100
AcDbLine
 10
2538.16758732464
 20
2106.61625197806
 30
0.0
 11
2546.34508732464
 21
2098.43825197806
 31
0.0
  0
ARC
  5
7C6F
330
81A1
100
AcDbEntity
  8
1
100
AcDbCircle
 10
2544.22368732464
 20
2096.31725197806
 30
0.0
 40
3.0
100
AcDbArc
 50
0.0
 51
45.0
  0
LINE
  5
7C70
330
81A1
100
AcDbEntity
  8
1
100
AcDbLine
 10
2547.22368732464
 20
2084.560251978061
 30
0.0
 11
2547.22368732464
 21
2096.31725197806
 31
0.0
  0
ARC
  5
7C71
330
81A1
100
AcDbEntity
  8
1
100
AcDbCircle
 10
2560.43688732464
 20
2105.560251978061
 30
0.0
 40
3.0
100
AcDbArc
 50
225.0
 51
270.0
  0
LINE
  5
7C72
330
81A1
100
AcDbEntity
  8
1
100
AcDbLine
 10
2558.42588732464
 20
2103.32825197806
 30
0.0
 11
2548.33488732464
 21
2113.41925197806
 31
0.0
  0
ARC
  5
7C79
330
81A1
100
AcDbEntity
  8
1
100
AcDbCircle
 10
2605.22368732464
 20
2100.560251978061
 30
0.0
 40
2.0
100
AcDbArc
 50
0.0
 51
90.0
  0
LINE
  5
7C7A
330
81A1
100
AcDbEntity
  8
1
100
AcDbLine
 10
2607.22368732464
 20
2084.560251978061
 30
0.0
 11
2607.22368732464
 21
2100.560251978061
 31
0.0
  0
LINE
  5
7C7B
330
81A1
100
AcDbEntity
  8
2
100
AcDbLine
 10
2260.366812425116
 20
2244.56025197806
 30
0.0
 11
2650.982614543311
 21
2244.56025197806
 31
0.0
  0
LINE
  5
7C7C
330
81A1
100
AcDbEntity
  8
1
100
AcDbLine
 10
2263.264219954381
 20
2084.560251978061
 30
0.0
 11
2393.22368732464
 21
2084.560251978061
 31
0.0
  0
LINE
  5
7C7D
330
81A1
100
AcDbEntity
  8
1
100
AcDbLine
 10
2250.223687324639
 20
2034.56025197806
 30
0.0
 11
2263.264219954381
 21
2084.560251978061
 31
0.0
  0
LINE
  5
7C7E
330
81A1
100
AcDbEntity
  8
1
100
AcDbLine
 10
2656.22368732464
 20
2034.56025197806
 30
0.0
 11
2642.842246415706
 21
2084.560251978061
 31
0.0
  0
LINE
  5
7C7F
330
81A1
100
AcDbEntity
  8
1
100
AcDbLine
 10
2513.22368732464
 20
2084.560251978061
 30
0.0
 11
2513.22368732464
 21
2079.56025197806
 31
0.0
  0
LINE
  5
7C80
330
81A1
100
AcDbEntity
  8
1
100
AcDbLine
 10
2393.22368732464
 20
2084.560251978061
 30
0.0
 11
2393.22368732464
 21
2079.56025197806
 31
0.0
  0
LINE
  5
7C81
330
81A1
100
AcDbEntity
  8
1
100
AcDbLine
 10
2393.22368732464
 20
2079.56025197806
 30
0.0
 11
2513.22368732464
 21
2079.56025197806
 31
0.0
  0
LINE
  5
7C83
330
81A1
100
AcDbEntity
  8
1
100
AcDbLine
 10
2513.22368732464
 20
2084.560251978061
 30
0.0
 11
2642.842246415707
 21
2084.560251978061
 31
0.0
  0
POINT
  5
7C87
330
81A1
100
AcDbEntity
  8
1
100
AcDbPoint
 10
1103.22368732464
 20
1772.56025197806
 30
0.0
  0
POINT
  5
7C88
330
81A1
100
AcDbEntity
  8
1
100
AcDbPoint
 10
1103.22368732464
 20
1767.56025197806
 30
0.0
  0
POINT
  5
7C89
330
81A1
100
AcDbEntity
  8
1
100
AcDbPoint
 10
1103.22368732464
 20
1772.56025197806
 30
0.0
  0
POINT
  5
7C8A
330
81A1
100
AcDbEntity
  8
1
100
AcDbPoint
 10
1103.22368732464
 20
1807.56025197806
 30
0.0
  0
DIMENSION
  5
7C8C
330
81A1
100
AcDbEntity
  8
3
100
AcDbDimension
  2
*D4
 10
1582.22368732464
 20
3183.567635757286
 30
0.0
 11
1947.22368732464
 21
3233.567635757286
 31
0.0
 12
872.5117110261454
 22
2025.966773756661
 32
0.0
 71
     5
 42
-1.0
  3
Standard
100
AcDbAlignedDimension
 13
2312.22368732464
 23
3034.560251978061
 33
0.0
 14
1582.22368732464
 24
3034.560251978061
 34
0.0
100
AcDbRotatedDimension
1001
ACAD
1000
DSTYLE
1002
{
1070
    40
1040
25.0
1002
}
  0
DIMENSION
  5
7C8D
330
81A1
100
AcDbEntity
  8
3
100
AcDbDimension
  2
*D5
 10
1553.22368732464
 20
3336.376409230953
 30
0.0
 11
1932.72368732464
 21
3386.376409230952
 31
0.0
 12
872.5117110261454
 22
2025.966773756661
 32
0.0
 71
     5
 42
-1.0
  3
Standard
100
AcDbAlignedDimension
 13
2312.22368732464
 23
3034.560251978061
 33
0.0
 14
1553.22368732464
 24
3156.82609078349
 34
0.0
100
AcDbRotatedDimension
1001
ACAD
1000
DSTYLE
1002
{
1070
    40
1040
25.0
1002
}
  0
LINE
  5
7C8E
330
81A1
100
AcDbEntity
  8
1
100
AcDbLine
 10
4219.305087276281
 20
1767.56025197806
 30
0.0
 11
4269.305087276282
 21
1767.56025197806
 31
0.0
  0
POINT
  5
7C8F
330
81A1
100
AcDbEntity
  8
1
100
AcDbPoint
 10
1103.22368732464
 20
1772.56025197806
 30
0.0
  0
POINT
  5
7C90
330
81A1
100
AcDbEntity
  8
1
100
AcDbPoint
 10
1103.22368732464
 20
1767.56025197806
 30
0.0
  0
POINT
  5
7C91
330
81A1
100
AcDbEntity
  8
1
100
AcDbPoint
 10
1103.22368732464
 20
1772.56025197806
 30
0.0
  0
POINT
  5
7C92
330
81A1
100
AcDbEntity
  8
1
100
AcDbPoint
 10
1103.22368732464
 20
1807.56025197806
 30
0.0
  0
INSERT
  5
7C93
330
81A1
100
AcDbEntity
  8
0
100
AcDbBlockReference
  2
YA_N
 10
-1018.773193578214
 20
-860.9217325598891
 30
0.0
 41
20.0
 42
20.0
 43
20.0
  0
POINT
  5
7C95
330
81A1
100
AcDbEntity
  8
1
100
AcDbPoint
 10
1103.22368732464
 20
1867.56025197806
 30
0.0
  0
POINT
  5
7C96
330
81A1
100
AcDbEntity
  8
1
100
AcDbPoint
 10
1103.22368732464
 20
1767.56025197806
 30
0.0
  0
POINT
  5
7C97
330
81A1
100
AcDbEntity
  8
1
100
AcDbPoint
 10
1103.22368732464
 20
1867.56025197806
 30
0.0
  0
LINE
  5
7C98
330
81A1
100
AcDbEntity
  8
1
100
AcDbLine
 10
3276.305087276282
 20
3034.560251978061
 30
0.0
 11
4256.305087276281
 21
3034.560251978061
 31
0.0
  0
LINE
  5
7C99
330
81A1
100
AcDbEntity
  8
1
100
AcDbLine
 10
4216.305087276281
 20
2534.560251978061
 30
0.0
 11
4216.305087276281
 21
3034.560251978061
 31
0.0
  0
LINE
  5
7C9B
330
81A1
100
AcDbEntity
  8
1
100
AcDbLine
 10
3316.305087276282
 20
2534.560251978061
 30
0.0
 11
3316.305087276282
 21
3034.560251978061
 31
0.0
  0
LINE
  5
7C9D
330
81A1
100
AcDbEntity
  8
1
100
AcDbLine
 10
4228.805087276279
 20
2399.36025197806
 30
0.0
 11
4228.805087276283
 21
2519.36025197806
 31
0.0
  0
LINE
  5
7C9E
330
81A1
100
AcDbEntity
  8
1
100
AcDbLine
 10
4326.30508727628
 20
2409.360251978061
 30
0.0
 11
4326.305087276281
 21
2509.360251978061
 31
0.0
  0
LINE
  5
7C9F
330
81A1
100
AcDbEntity
  8
1
100
AcDbLine
 10
4228.805087276283
 20
2519.36025197806
 30
0.0
 11
4268.605087276283
 21
2519.36025197806
 31
0.0
  0
LINE
  5
7CA0
330
81A1
100
AcDbEntity
  8
1
100
AcDbLine
 10
4228.805087276279
 20
2399.36025197806
 30
0.0
 11
4268.605087276283
 21
2399.36025197806
 31
0.0
  0
ARC
  5
7CA1
330
81A1
100
AcDbEntity
  8
1
100
AcDbCircle
 10
4316.305087276282
 20
2509.360251978061
 30
0.0
 40
10.0
100
AcDbArc
 50
359.9999999999982
 51
90.0
  0
ARC
  5
7CA2
330
81A1
100
AcDbEntity
  8
1
100
AcDbCircle
 10
4316.305087276279
 20
2409.360251978061
 30
0.0
 40
10.0
100
AcDbArc
 50
270.0
 51
359.9999999999982
  0
LINE
  5
7CA3
330
81A1
100
AcDbEntity
  8
1
100
AcDbLine
 10
4268.605087276283
 20
2399.36025197806
 30
0.0
 11
4316.305087276279
 21
2399.36025197806
 31
0.0
  0
LINE
  5
7CA4
330
81A1
100
AcDbEntity
  8
1
100
AcDbLine
 10
4268.605087276283
 20
2519.36025197806
 30
0.0
 11
4316.305087276282
 21
2519.36025197806
 31
0.0
  0
LINE
  5
7CA5
330
81A1
100
AcDbEntity
  8
1
100
AcDbLine
 10
2653.22368732464
 20
1994.56025197806
 30
0.0
 11
2653.22368732464
 21
2034.56025197806
 31
0.0
  0
POINT
  5
7CA6
330
81A1
100
AcDbEntity
  8
1
100
AcDbPoint
 10
4326.305087276281
 20
2509.360251978061
 30
0.0
  0
LINE
  5
7CA7
330
81A1
100
AcDbEntity
  8
1
100
AcDbLine
 10
1103.22368732464
 20
5373.999187184335
 30
0.0
 11
2003.22368732464
 21
5373.999187184336
 31
0.0
  0
LINE
  5
7CA8
330
81A1
100
AcDbEntity
  8
1
100
AcDbLine
 10
1103.22368732464
 20
4218.999187184333
 30
0.0
 11
2703.22368732464
 21
4218.999187184336
 31
0.0
  0
LINE
  5
7CA9
330
81A1
100
AcDbEntity
  8
1
100
AcDbLine
 10
1103.22368732464
 20
5373.999187184336
 30
0.0
 11
1103.22368732464
 21
5320.999187184336
 31
0.0
  0
LINE
  5
7CAA
330
81A1
100
AcDbEntity
  8
1
100
AcDbLine
 10
2003.22368732464
 20
5373.999187184336
 30
0.0
 11
2003.22368732464
 21
5320.999187184336
 31
0.0
  0
LINE
  5
7CAB
330
81A1
100
AcDbEntity
  8
1
100
AcDbLine
 10
2703.22368732464
 20
4888.999187184338
 30
0.0
 11
2703.22368732464
 21
4218.999187184336
 31
0.0
  0
LINE
  5
7CAC
330
81A1
100
AcDbEntity
  8
1
100
AcDbLine
 10
2312.22368732464
 20
4888.999187184335
 30
0.0
 11
2703.22368732464
 21
4888.999187184338
 31
0.0
  0
POINT
  5
7CAD
330
81A1
100
AcDbEntity
  8
1
100
AcDbPoint
 10
1103.22368732464
 20
1867.56025197806
 30
0.0
  0
POINT
  5
7CAE
330
81A1
100
AcDbEntity
  8
1
100
AcDbPoint
 10
1103.22368732464
 20
1767.56025197806
 30
0.0
  0
POINT
  5
7CAF
330
81A1
100
AcDbEntity
  8
1
100
AcDbPoint
 10
1103.22368732464
 20
1867.56025197806
 30
0.0
  0
LINE
  5
7CB0
330
81A1
100
AcDbEntity
  8
1
100
AcDbLine
 10
1103.22368732464
 20
1894.56025197806
 30
0.0
 11
2703.22368732464
 21
1894.56025197806
 31
0.0
1001
ACAD
1000
ASC_BOUNDS
1002
{
1070
    19
1002
}
  0
LINE
  5
7CB1
330
81A1
100
AcDbEntity
  8
1
100
AcDbLine
 10
1103.22368732464
 20
1994.56025197806
 30
0.0
 11
2703.22368732464
 21
1994.56025197806
 31
0.0
1001
ACAD
1000
ASC_BOUNDS
1002
{
1070
    19
1005
0
1002
}
  0
LINE
  5
7CB2
330
81A1
100
AcDbEntity
  8
1
100
AcDbLine
 10
2703.22368732464
 20
1994.56025197806
 30
0.0
 11
2703.22368732464
 21
1894.56025197806
 31
0.0
  0
LINE
  5
7CB3
330
81A1
100
AcDbEntity
  8
1
100
AcDbLine
 10
1103.22368732464
 20
1994.56025197806
 30
0.0
 11
1103.22368732464
 21
1894.56025197806
 31
0.0
  0
POINT
  5
7CB4
330
81A1
100
AcDbEntity
  8
1
100
AcDbPoint
 10
1103.22368732464
 20
1994.56025197806
 30
0.0
  0
POINT
  5
7CB5
330
81A1
100
AcDbEntity
  8
1
100
AcDbPoint
 10
1103.22368732464
 20
1994.56025197806
 30
0.0
  0
POINT
  5
7CB6
330
81A1
100
AcDbEntity
  8
1
100
AcDbPoint
 10
1103.22368732464
 20
1994.56025197806
 30
0.0
  0
POINT
  5
7CB7
330
81A1
100
AcDbEntity
  8
1
100
AcDbPoint
 10
1103.22368732464
 20
1994.56025197806
 30
0.0
  0
POINT
  5
7CBA
330
81A1
100
AcDbEntity
  8
1
100
AcDbPoint
 10
1103.22368732464
 20
1867.56025197806
 30
0.0
  0
POINT
  5
7CBB
330
81A1
100
AcDbEntity
  8
1
100
AcDbPoint
 10
1103.22368732464
 20
1767.56025197806
 30
0.0
  0
POINT
  5
7CBC
330
81A1
100
AcDbEntity
  8
1
100
AcDbPoint
 10
1103.22368732464
 20
1867.56025197806
 30
0.0
  0
POINT
  5
7CBD
330
81A1
100
AcDbEntity
  8
1
100
AcDbPoint
 10
1103.22368732464
 20
1894.56025197806
 30
0.0
  0
CIRCLE
  5
7CC3
330
81A1
100
AcDbEntity
  8
1
100
AcDbCircle
 10
2453.22368732464
 20
2244.56025197806
 30
0.0
 40
79.0
  0
CIRCLE
  5
7CC4
330
81A1
100
AcDbEntity
  8
1
100
AcDbCircle
 10
1553.22368732464
 20
2534.560251978061
 30
0.0
 40
203.2
  0
LINE
  5
7CC5
330
81A1
100
AcDbEntity
  8
1
100
AcDbLine
 10
1622.643056795693
 20
2725.534572613693
 30
0.0
 11
2480.212516991044
 21
2318.807158130693
 31
0.0
  0
LINE
  5
7CC6
330
81A1
100
AcDbEntity
  8
1
100
AcDbLine
 10
1537.372776330636
 20
2331.979432005734
 30
0.0
 11
2447.06117763701
 21
2165.800976496693
 31
0.0
  0
ARC
  5
7CC7
330
81A1
100
AcDbEntity
  8
1
100
AcDbCircle
 10
1553.22368732464
 20
2534.560251978061
 30
0.0
 40
280.0
100
AcDbArc
 50
69.65938634983065
 51
265.8903682986978
  0
ARC
  5
7CC8
330
81A1
100
AcDbEntity
  8
1
100
AcDbCircle
 10
2453.22368732464
 20
2244.56025197806
 30
0.0
 40
150.0
100
AcDbArc
 50
265.8903682986978
 51
69.65938634983065
  0
LINE
  5
7CC9
330
81A1
100
AcDbEntity
  8
1
100
AcDbLine
 10
1650.551793541955
 20
2797.100229391312
 30
0.0
 11
2505.363744226773
 21
2385.206668449445
 31
0.0
  0
LINE
  5
7CCA
330
81A1
100
AcDbEntity
  8
1
100
AcDbLine
 10
1533.157454283233
 20
2255.280202043361
 30
0.0
 11
2442.473919623886
 21
2094.945939513043
 31
0.0
  0
INSERT
  5
7CCB
330
81A1
100
AcDbEntity
  8
0
100
AcDbBlockReference
  2
YA_N
 10
2545.878788900856
 20
-1567.120050791241
 30
0.0
  0
LINE
  5
7CCD
330
81A1
100
AcDbEntity
  8
1
100
AcDbLine
 10
3114.305087276282
 20
1994.56025197806
 30
0.0
 11
4269.305087276282
 21
1994.56025197806
 31
0.0
1001
ACAD
1000
ASC_BOUNDS
1002
{
1070
    19
1002
}
  0
LINE
  5
7CCE
330
81A1
100
AcDbEntity
  8
1
100
AcDbLine
 10
3114.305087276282
 20
1767.56025197806
 30
0.0
 11
3114.305087276282
 21
1867.56025197806
 31
0.0
  0
LINE
  5
7CCF
330
81A1
100
AcDbEntity
  8
1
100
AcDbLine
 10
3114.305087276282
 20
1894.56025197806
 30
0.0
 11
4269.305087276282
 21
1894.56025197806
 31
0.0
  0
LINE
  5
7CD0
330
81A1
100
AcDbEntity
  8
1
100
AcDbLine
 10
4269.305087276282
 20
1767.56025197806
 30
0.0
 11
4269.305087276282
 21
1867.56025197806
 31
0.0
  0
LINE
  5
7CD3
330
81A1
100
AcDbEntity
  8
1
100
AcDbLine
 10
3264.00508727628
 20
2511.36025197806
 30
0.0
 11
3223.80508727628
 21
2511.36025197806
 31
0.0
  0
LINE
  5
7CD4
330
81A1
100
AcDbEntity
  8
1
100
AcDbLine
 10
3303.805087276281
 20
2406.560251978064
 30
0.0
 11
3303.80508727628
 21
2511.36025197806
 31
0.0
  0
LINE
  5
7CD5
330
81A1
100
AcDbEntity
  8
1
100
AcDbLine
 10
3303.80508727628
 20
2511.36025197806
 30
0.0
 11
3264.00508727628
 21
2511.36025197806
 31
0.0
  0
LINE
  5
7CD6
330
81A1
100
AcDbEntity
  8
1
100
AcDbLine
 10
3213.805087276282
 20
2406.560251978064
 30
0.0
 11
3213.805087276279
 21
2501.36025197806
 31
0.0
  0
ARC
  5
7CD7
330
81A1
100
AcDbEntity
  8
1
100
AcDbCircle
 10
3223.80508727628
 20
2501.360251978061
 30
0.0
 40
10.0
100
AcDbArc
 50
90.0
 51
180.0000000000016
  0
POINT
  5
7CD8
330
81A1
100
AcDbEntity
  8
1
100
AcDbPoint
 10
3213.805087276279
 20
2501.36025197806
 30
0.0
  0
LINE
  5
7CD9
330
81A1
100
AcDbEntity
  8
1
100
AcDbLine
 10
3186.305087276281
 20
2509.560251978061
 30
0.0
 11
3186.305087276281
 21
2559.560251978061
 31
0.0
  0
LINE
  5
7CDA
330
81A1
100
AcDbEntity
  8
1
100
AcDbLine
 10
3186.305087276281
 20
2559.560251978061
 30
0.0
 11
3316.305087276282
 21
2559.560251978061
 31
0.0
  0
LINE
  5
7CDB
330
81A1
100
AcDbEntity
  8
1
100
AcDbLine
 10
3186.305087276281
 20
2509.560251978061
 30
0.0
 11
3218.205087276281
 21
2509.560251978061
 31
0.0
  0
LINE
  5
7CDC
330
81A1
100
AcDbEntity
  8
1
100
AcDbLine
 10
3162.305087276281
 20
2555.560251978061
 30
0.0
 11
3186.305087276281
 21
2555.560251978061
 31
0.0
  0
LINE
  5
7CDD
330
81A1
100
AcDbEntity
  8
1
100
AcDbLine
 10
3162.30508727628
 20
2513.560251978061
 30
0.0
 11
3186.30508727628
 21
2513.560251978061
 31
0.0
  0
LINE
  5
7CDE
330
81A1
100
AcDbEntity
  8
1
100
AcDbLine
 10
3162.305087276276
 20
2165.56025197806
 30
0.0
 11
3162.305087276283
 21
2737.76025197806
 31
0.0
  0
LINE
  5
7CDF
330
81A1
100
AcDbEntity
  8
1
100
AcDbLine
 10
3061.305087276283
 20
2737.76025197806
 30
0.0
 11
3162.305087276284
 21
2737.76025197806
 31
0.0
  0
LINE
  5
7CE0
330
81A1
100
AcDbEntity
  8
1
100
AcDbLine
 10
3061.305087276278
 20
2331.36025197806
 30
0.0
 11
3162.305087276278
 21
2331.36025197806
 31
0.0
  0
LINE
  5
7CE1
330
81A1
100
AcDbEntity
  8
1
100
AcDbLine
 10
3061.305087276275
 20
2165.56025197806
 30
0.0
 11
3061.305087276283
 21
2737.760251978063
 31
0.0
  0
LINE
  5
7CE2
330
81A1
100
AcDbEntity
  8
1
100
AcDbLine
 10
3061.305087276279
 20
2323.560251978061
 30
0.0
 11
3162.305087276279
 21
2323.560251978061
 31
0.0
  0
LINE
  5
7CE3
330
81A1
100
AcDbEntity
  8
1
100
AcDbLine
 10
3061.305087276278
 20
2165.56025197806
 30
0.0
 11
3162.305087276278
 21
2165.56025197806
 31
0.0
  0
LINE
  5
7CE4
330
81A1
100
AcDbEntity
  8
1
100
AcDbLine
 10
2926.305087276285
 20
2814.560251978061
 30
0.0
 11
3212.305087276285
 21
2814.560251978061
 31
0.0
  0
LINE
  5
7CE5
330
81A1
100
AcDbEntity
  8
1
100
AcDbLine
 10
2926.305087276276
 20
2094.560251978061
 30
0.0
 11
3212.305087276276
 21
2094.560251978061
 31
0.0
  0
LINE
  5
7CE6
330
81A1
100
AcDbEntity
  8
1
100
AcDbLine
 10
3212.305087276276
 20
2094.560251978061
 30
0.0
 11
3212.305087276276
 21
2114.560251978061
 31
0.0
  0
LINE
  5
7CE7
330
81A1
100
AcDbEntity
  8
1
100
AcDbLine
 10
2926.305087276276
 20
2094.560251978061
 30
0.0
 11
2926.305087276285
 21
2814.560251978061
 31
0.0
  0
LINE
  5
7CE8
330
81A1
100
AcDbEntity
  8
1
100
AcDbLine
 10
3212.305087276285
 20
2794.560251978061
 30
0.0
 11
3212.305087276285
 21
2814.560251978061
 31
0.0
  0
DIMENSION
  5
7CE9
330
81A1
100
AcDbEntity
  8
3
100
AcDbDimension
  2
*D6
 10
4216.305087276281
 20
3220.078220399479
 30
0.0
 11
3766.305087276281
 21
3270.078220399478
 31
0.0
 12
-77.96698665418806
 22
2025.966773756661
 32
0.0
 71
     5
 42
-1.0
  3
Standard
100
AcDbAlignedDimension
 13
3316.305087276282
 23
3034.76914163961
 33
0.0
 14
4216.305087276281
 24
3034.769127902603
 34
0.0
100
AcDbRotatedDimension
1001
ACAD
1000
DSTYLE
1002
{
1070
    40
1040
25.0
1002
}
  0
DIMENSION
  5
7CED
330
81A1
100
AcDbEntity
  8
3
100
AcDbDimension
  2
*D10
 10
4494.0872222317
 20
2909.56025197806
 30
0.0
 11
4444.087222231701
 21
2534.560251978061
 31
0.0
 12
-77.96698665418806
 22
2025.966773756661
 32
0.0
  1
\U+03C6<>
 71
     5
 42
-1.0
  3
Standard
100
AcDbAlignedDimension
 13
4218.605087276282
 23
2159.560251978061
 33
0.0
 14
4218.605087276282
 24
2909.56025197806
 34
0.0
 50
90.0
100
AcDbRotatedDimension
1001
ACAD
1000
DSTYLE
1002
{
1070
    40
1040
25.0
1002
}
  0
DIMENSION
  5
7CEF
330
81A1
100
AcDbEntity
  8
3
100
AcDbDimension
  2
*D12
 10
3004.094192159729
 20
4888.999187184338
 30
0.0
 11
2954.094192159729
 21
4553.999187184337
 31
0.0
 12
872.5117110261454
 22
1445.465876648997
 32
0.0
 71
     5
 42
-1.0
  3
Standard
100
AcDbAlignedDimension
 13
2703.22368732464
 23
4218.999187184336
 33
0.0
 14
2703.22368732464
 24
4888.999187184338
 34
0.0
 50
270.0
100
AcDbRotatedDimension
1001
ACAD
1000
DSTYLE
1002
{
1070
    40
1040
25.0
1002
}
  0
DIMENSION
  5
7CF0
330
81A1
100
AcDbEntity
  8
3
100
AcDbDimension
  2
*D13
 10
1103.22368732464
 20
5675.631241588508
 30
0.0
 11
1553.22368732464
 21
5725.631241588509
 31
0.0
 12
872.5117110261454
 22
1445.465876648997
 32
0.0
 71
     5
 42
-1.0
  3
Standard
100
AcDbAlignedDimension
 13
2003.22368732464
 23
5373.999187184336
 33
0.0
 14
1103.22368732464
 24
5373.999187184336
 34
0.0
100
AcDbRotatedDimension
1001
ACAD
1000
DSTYLE
1002
{
1070
    40
1040
25.0
1002
}
  0
DIMENSION
  5
7CF1
330
81A1
100
AcDbEntity
  8
3
100
AcDbDimension
  2
*D14
 10
2003.22368732464
 20
5675.631241588508
 30
0.0
 11
2353.22368732464
 21
5725.631241588509
 31
0.0
 12
872.5117110261454
 22
1445.465876648997
 32
0.0
 71
     5
 42
-1.0
  3
Standard
100
AcDbAlignedDimension
 13
2703.22368732464
 23
4888.999187184338
 33
0.0
 14
2003.22368732464
 24
5373.999187184336
 34
0.0
100
AcDbRotatedDimension
1001
ACAD
1000
DSTYLE
1002
{
1070
    40
1040
25.0
1002
}
  0
DIMENSION
  5
7CF2
330
81A1
100
AcDbEntity
  8
3
100
AcDbDimension
  2
*D15
 10
801.8264791833825
 20
5373.999187184336
 30
0.0
 11
751.8264791833826
 21
4796.499187184335
 31
0.0
 12
872.5117110261454
 22
1445.465876648997
 32
0.0
 71
     5
 42
-1.0
  3
Standard
100
AcDbAlignedDimension
 13
1103.22368732464
 23
4218.999187184333
 33
0.0
 14
1103.22368732464
 24
5373.999187184336
 34
0.0
 50
270.0
100
AcDbRotatedDimension
1001
ACAD
1000
DSTYLE
1002
{
1070
    40
1040
25.0
1002
}
  0
LINE
  5
7CF3
330
81A1
100
AcDbEntity
  8
1
100
AcDbLine
 10
3114.305087276282
 20
1894.56025197806
 30
0.0
 11
3114.305087276282
 21
1994.56025197806
 31
0.0
  0
LINE
  5
7CF4
330
81A1
100
AcDbEntity
  8
1
100
AcDbLine
 10
1273.22368732464
 20
4030.999187184335
 30
0.0
 11
1273.22368732464
 21
4315.999187184336
 31
0.0
  0
LINE
  5
7CF5
330
81A1
100
AcDbEntity
  8
1
100
AcDbLine
 10
2603.22368732464
 20
4030.999187184335
 30
0.0
 11
2603.22368732464
 21
4315.999187184336
 31
0.0
  0
LINE
  5
7CF6
330
81A1
100
AcDbEntity
  8
1
100
AcDbLine
 10
1350.023687324639
 20
4165.999187184335
 30
0.0
 11
1350.023687324639
 21
4265.999187184336
 31
0.0
  0
LINE
  5
7CF7
330
81A1
100
AcDbEntity
  8
1
100
AcDbLine
 10
1756.423687324639
 20
4165.999187184335
 30
0.0
 11
1756.423687324639
 21
4265.999187184336
 31
0.0
  0
LINE
  5
7CF8
330
81A1
100
AcDbEntity
  8
1
100
AcDbLine
 10
2374.22368732464
 20
4165.999187184335
 30
0.0
 11
2374.22368732464
 21
4265.999187184336
 31
0.0
  0
LINE
  5
7CF9
330
81A1
100
AcDbEntity
  8
1
100
AcDbLine
 10
2532.22368732464
 20
4165.999187184335
 30
0.0
 11
2532.22368732464
 21
4265.999187184337
 31
0.0
  0
LINE
  5
7CFA
330
81A1
100
AcDbEntity
  8
1
100
AcDbLine
 10
1273.22368732464
 20
4030.999187184335
 30
0.0
 11
2603.22368732464
 21
4030.999187184335
 31
0.0
  0
LINE
  5
7CFB
330
81A1
100
AcDbEntity
  8
1
100
AcDbLine
 10
1273.223687324639
 20
4315.999187184336
 30
0.0
 11
2603.22368732464
 21
4315.999187184336
 31
0.0
  0
LINE
  5
7CFC
330
81A1
100
AcDbEntity
  8
1
100
AcDbLine
 10
1350.023687324639
 20
4265.999187184336
 30
0.0
 11
1756.423687324639
 21
4265.999187184336
 31
0.0
  0
LINE
  5
7CFD
330
81A1
100
AcDbEntity
  8
1
100
AcDbLine
 10
1350.023687324639
 20
4165.999187184335
 30
0.0
 11
1756.423687324639
 21
4165.999187184335
 31
0.0
  0
LINE
  5
7CFE
330
81A1
100
AcDbEntity
  8
1
100
AcDbLine
 10
2374.22368732464
 20
4265.999187184336
 30
0.0
 11
2532.22368732464
 21
4265.999187184336
 31
0.0
  0
LINE
  5
7CFF
330
81A1
100
AcDbEntity
  8
1
100
AcDbLine
 10
2374.22368732464
 20
4165.999187184335
 30
0.0
 11
2532.22368732464
 21
4165.999187184335
 31
0.0
  0
LINE
  5
7D00
330
81A1
100
AcDbEntity
  8
1
100
AcDbLine
 10
1047.22368732464
 20
4420.999187184334
 30
0.0
 11
2312.22368732464
 21
4420.999187184334
 31
0.0
  0
LINE
  5
7D01
330
81A1
100
AcDbEntity
  8
1
100
AcDbLine
 10
1047.22368732464
 20
5320.999187184336
 30
0.0
 11
2312.22368732464
 21
5320.999187184336
 31
0.0
  0
LINE
  5
7D04
330
81A1
100
AcDbEntity
  8
1
100
AcDbLine
 10
1528.22368732464
 20
4420.999187184334
 30
0.0
 11
1528.22368732464
 21
4265.999187184336
 31
0.0
  0
LINE
  5
7D05
330
81A1
100
AcDbEntity
  8
1
100
AcDbLine
 10
1578.22368732464
 20
4420.999187184334
 30
0.0
 11
1578.22368732464
 21
4265.999187184336
 31
0.0
  0
LINE
  5
7D06
330
81A1
100
AcDbEntity
  8
1
100
AcDbLine
 10
2291.22368732464
 20
4283.999187184336
 30
0.0
 11
2291.22368732464
 21
4420.999187184334
 31
0.0
  0
LINE
  5
7D07
330
81A1
100
AcDbEntity
  8
1
100
AcDbLine
 10
2615.22368732464
 20
4283.999187184336
 30
0.0
 11
2615.22368732464
 21
4768.999187184336
 31
0.0
  0
LINE
  5
7D08
330
81A1
100
AcDbEntity
  8
1
100
AcDbLine
 10
2312.22368732464
 20
4768.999187184336
 30
0.0
 11
2615.22368732464
 21
4768.999187184336
 31
0.0
  0
LINE
  5
7D09
330
81A1
100
AcDbEntity
  8
1
100
AcDbLine
 10
2291.22368732464
 20
4283.999187184336
 30
0.0
 11
2615.22368732464
 21
4283.999187184336
 31
0.0
  0
LINE
  5
7D0A
330
81A1
100
AcDbEntity
  8
1
100
AcDbLine
 10
2432.22368732464
 20
4283.999187184336
 30
0.0
 11
2432.22368732464
 21
4265.999187184336
 31
0.0
  0
LINE
  5
7D0B
330
81A1
100
AcDbEntity
  8
1
100
AcDbLine
 10
2474.22368732464
 20
4283.999187184336
 30
0.0
 11
2474.22368732464
 21
4265.999187184336
 31
0.0
  0
LINE
  5
7D0C
330
81A1
100
AcDbEntity
  8
1
100
AcDbLine
 10
3180.305087276277
 20
2406.560251978064
 30
0.0
 11
3665.305087276279
 21
2406.560251978064
 31
0.0
  0
LINE
  5
7D0D
330
81A1
100
AcDbEntity
  8
1
100
AcDbLine
 10
3180.305087276277
 20
2082.560251978063
 30
0.0
 11
3665.305087276277
 21
2082.560251978063
 31
0.0
  0
LINE
  5
7D0E
330
81A1
100
AcDbEntity
  8
1
100
AcDbLine
 10
3180.305087276277
 20
2082.560251978063
 30
0.0
 11
3180.305087276277
 21
2406.560251978064
 31
0.0
  0
LINE
  5
7D0F
330
81A1
100
AcDbEntity
  8
1
100
AcDbLine
 10
3180.305087276277
 20
2223.560251978063
 30
0.0
 11
3162.305087276278
 21
2223.560251978063
 31
0.0
  0
LINE
  5
7D10
330
81A1
100
AcDbEntity
  8
1
100
AcDbLine
 10
3180.305087276277
 20
2265.560251978063
 30
0.0
 11
3162.305087276278
 21
2265.560251978063
 31
0.0
  0
LINE
  5
7D11
330
81A1
100
AcDbEntity
  8
1
100
AcDbLine
 10
3303.80508727628
 20
2406.560251978064
 30
0.0
 11
3316.305087276281
 21
2406.560251978064
 31
0.0
  0
LINE
  5
7D18
330
81A1
100
AcDbEntity
  8
1
100
AcDbLine
 10
4269.305087276282
 20
1894.56025197806
 30
0.0
 11
4269.305087276282
 21
1994.56025197806
 31
0.0
  0
DIMENSION
  5
7D19
330
81A1
100
AcDbEntity
  8
3
100
AcDbDimension
  2
*D16
 10
825.1387041552657
 20
2534.560251978061
 30
0.0
 11
775.1387041552662
 21
2784.560251978061
 31
0.0
 12
872.5117110261454
 22
2025.966773756661
 32
0.0
 71
     5
 42
-1.0
  3
Standard
100
AcDbAlignedDimension
 13
1540.22368732464
 23
3034.560251978061
 33
0.0
 14
930.9578485192103
 24
2534.560251978061
 34
0.0
 50
270.0
100
AcDbRotatedDimension
1001
ACAD
1000
DSTYLE
1002
{
1070
    40
1040
25.0
1002
}
  0
DIMENSION
  5
7D1C
330
81A1
100
AcDbEntity
  8
3
100
AcDbDimension
  2
*D18
 10
825.1387041552657
 20
1767.56025197806
 30
0.0
 11
762.6387041552658
 21
1553.274537692345
 31
0.0
 71
     5
 42
-1.0
  3
Standard
100
AcDbAlignedDimension
 13
1103.22368732464
 23
1867.56025197806
 33
0.0
 14
1103.22368732464
 24
1767.56025197806
 34
0.0
 50
270.0
100
AcDbRotatedDimension
1001
ACAD
1000
DSTYLE
1002
{
1070
   287
1070
     3
1070
   287
1070
     3
1070
    40
1040
25.0
1070
   143
1040
0.039
1070
   172
1070
     1
1070
   271
1070
     0
1070
   279
1070
     0
1070
   288
1070
     1
1070
     6
1000
DOT
1002
}
  0
LINE
  5
7D20
330
81A1
100
AcDbEntity
  8
1
100
AcDbLine
 10
2312.22368732464
 20
5320.999187184336
 30
0.0
 11
2312.22368732464
 21
4420.999187184334
 31
0.0
  0
LINE
  5
7D21
330
81A1
100
AcDbEntity
  8
1
100
AcDbLine
 10
1047.22368732464
 20
5320.999187184336
 30
0.0
 11
1047.22368732464
 21
4420.999187184334
 31
0.0
  0
LINE
  5
7D22
330
81A1
100
AcDbEntity
  8
1
100
AcDbLine
 10
1582.22368732464
 20
5320.999187184336
 30
0.0
 11
1582.22368732464
 21
4420.999187184334
 31
0.0
  0
LINE
  5
7D23
330
81A1
100
AcDbEntity
  8
1
100
AcDbLine
 10
1582.22368732464
 20
5320.999187184336
 30
0.0
 11
2312.22368732464
 21
4420.999187184334
 31
0.0
  0
LINE
  5
7D24
330
81A1
100
AcDbEntity
  8
1
100
AcDbLine
 10
2312.22368732464
 20
5320.999187184336
 30
0.0
 11
1582.22368732464
 21
4420.999187184334
 31
0.0
  0
LINE
  5
7D25
330
81A1
100
AcDbEntity
  8
1
100
AcDbLine
 10
1103.22368732464
 20
4420.999187184334
 30
0.0
 11
1103.22368732464
 21
4218.999187184336
 31
0.0
  0
LINE
  5
7D26
330
81A1
100
AcDbEntity
  8
1
100
AcDbLine
 10
3276.305087276282
 20
3031.56025197806
 30
0.0
 11
4256.305087276281
 21
3031.56025197806
 31
0.0
  0
LINE
  5
7D27
330
81A1
100
AcDbEntity
  8
1
100
AcDbLine
 10
3276.305087276282
 20
3031.56025197806
 30
0.0
 11
3276.305087276282
 21
3034.560251978061
 31
0.0
  0
LINE
  5
7D28
330
81A1
100
AcDbEntity
  8
1
100
AcDbLine
 10
4256.305087276281
 20
3031.56025197806
 30
0.0
 11
4256.305087276281
 21
3034.560251978061
 31
0.0
  0
LINE
  5
7D29
330
81A1
100
AcDbEntity
  8
1
100
AcDbLine
 10
3665.305087276277
 20
2082.560251978063
 30
0.0
 11
3665.305087276277
 21
2406.560251978064
 31
0.0
  0
LINE
  5
7D2A
330
81A1
100
AcDbEntity
  8
1
100
AcDbLine
 10
3316.305087276282
 20
2406.560251978064
 30
0.0
 11
3316.305087276282
 21
2534.560251978061
 31
0.0
  0
LINE
  5
7D2B
330
81A1
100
AcDbEntity
  8
1
100
AcDbLine
 10
3596.310149353246
 20
2082.560251978063
 30
0.0
 11
3596.310149353246
 21
1994.56025197806
 31
0.0
  0
LINE
  5
7D2C
330
81A1
100
AcDbEntity
  8
1
100
AcDbLine
 10
3235.530131645973
 20
2082.560251978063
 30
0.0
 11
3235.530131645973
 21
1994.56025197806
 31
0.0
  0
LINE
  5
7D2D
330
81A1
100
AcDbEntity
  8
1
100
AcDbLine
 10
3235.530131645973
 20
2034.56025197806
 30
0.0
 11
3596.310149353246
 21
2034.56025197806
 31
0.0
  0
LINE
  5
7F58
330
81A1
100
AcDbEntity
  8
4
100
AcDbLine
 10
4625.0
 20
1250.0
 30
0.0
 11
4625.0
 21
750.0
 31
0.0
  0
LINE
  5
7F59
330
81A1
100
AcDbEntity
  8
4
100
AcDbLine
 10
2875.0
 20
1250.0
 30
0.0
 11
2875.0
 21
750.0
 31
0.0
  0
LINE
  5
7F5A
330
81A1
100
AcDbEntity
  8
4
100
AcDbLine
 10
1625.0
 20
1250.0
 30
0.0
 11
1625.0
 21
750.0
 31
0.0
  0
LINE
  5
7F5D
330
81A1
100
AcDbEntity
  8
4
100
AcDbLine
 10
1625.0
 20
750.0
 30
0.0
 11
4625.0
 21
750.0
 31
0.0
  0
LINE
  5
7F5E
330
81A1
100
AcDbEntity
  8
4
100
AcDbLine
 10
1625.0
 20
1000.0
 30
0.0
 11
4625.0
 21
1000.0
 31
0.0
  0
TEXT
  5
7F5F
330
81A1
100
AcDbEntity
  8
4
100
AcDbText
 10
1721.255202117253
 20
1078.857564666532
 30
0.0
 40
125.0
  1
機器名称
100
AcDbText
  0
TEXT
  5
7F60
330
81A1
100
AcDbEntity
  8
4
100
AcDbText
 10
1715.645265061993
 20
804.1128918300273
 30
0.0
 40
125.0
  1
機器型番
100
AcDbText
  0
TEXT
  5
7F61
330
81A1
100
AcDbEntity
  8
4
100
AcDbText
 10
2944.196863719162
 20
1056.429422393921
 30
0.0
 40
125.0
  1
ミツヤ多翼送風機
100
AcDbText
  0
TEXT
  5
7F62
330
81A1
100
AcDbEntity
  8
4
100
AcDbText
 10
2966.636238963701
 20
792.8989606998584
 30
0.0
 40
125.0
  1
MF#4 1/2-5
100
AcDbText
  0
TEXT
  5
7F64
330
81A1
100
AcDbEntity
  8
4
100
AcDbText
 10
2011.143643803508
 20
5958.572103331289
 30
0.0
 40
135.0
  1
床置防振ベット
100
AcDbText
  0
TEXT
  5
7F65
330
81A1
100
AcDbEntity
  8
4
100
AcDbText
 10
790.4189833236158
 20
6334.702440498245
 30
0.0
 40
180.0
  1
遠心式両吸込両持多翼ファン
100
AcDbText
  0
LINE
  5
7F66
330
81A1
100
AcDbEntity
  8
4
100
AcDbLine
 10
625.0
 20
6173.521885662012
 30
0.0
 11
4625.0
 21
6173.521885662012
 31
0.0
  0
LINE
  5
7F67
330
81A1
100
AcDbEntity
  8
4
100
AcDbLine
 10
625.0
 20
6673.521885662011
 30
0.0
 11
4625.0
 21
6673.521885662011
 31
0.0
  0
LINE
  5
7F68
330
81A1
100
AcDbEntity
  8
4
100
AcDbLine
 10
1625.0
 20
1250.0
 30
0.0
 11
4625.0
 21
1250.0
 31
0.0
  0
LINE
  5
7F69
330
81A1
100
AcDbEntity
  8
4
100
AcDbLine
 10
625.0
 20
6673.521885662011
 30
0.0
 11
625.0
 21
6173.521885662012
 31
0.0
  0
TEXT
  5
7F6A
330
81A1
100
AcDbEntity
  8
4
100
AcDbText
 10
921.4965631967531
 20
5955.798693865858
 30
0.0
 40
135.0
  1
左回転上向
100
AcDbText
  0
TEXT
  5
7F6B
330
81A1
100
AcDbEntity
  8
4
100
AcDbText
 10
3672.423898123224
 20
6765.15270373827
 30
0.0
 40
140.0
  1
No.
100
AcDbText
  0
TEXT
  5
7F6C
330
81A1
100
AcDbEntity
  8
4
100
AcDbText
 10
3278.240156500032
 20
5958.572103331289
 30
0.0
 40
135.0
  1
縮尺：1/25
100
AcDbText
  0
LINE
  5
7F6D
330
81A1
100
AcDbEntity
  8
4
100
AcDbLine
 10
4625.0
 20
6673.521885662011
 30
0.0
 11
4625.0
 21
6173.521885662012
 31
0.0
  0
LINE
  5
7F6E
330
81A1
100
AcDbEntity
  8
4
100
AcDbLine
 10
5250.0
 20
7375.0
 30
0.0
 11
5250.0
 21
7375.0
 31
0.0
  0
LINE
  5
7F6F
330
81A1
100
AcDbEntity
  8
4
100
AcDbLine
 10
3601.543555899662
 20
6703.158957813504
 30
0.0
 11
3601.543555899662
 21
6966.630653874381
 31
0.0
  0
LINE
  5
7F70
330
81A1
100
AcDbEntity
  8
4
100
AcDbLine
 10
3601.543555899662
 20
6966.630653874381
 30
0.0
 11
4625.0
 21
6966.630653874381
 31
0.0
  0
LINE
  5
7F71
330
81A1
100
AcDbEntity
  8
4
100
AcDbLine
 10
4625.0
 20
6966.630653874381
 30
0.0
 11
4625.0
 21
6703.158957813504
 31
0.0
  0
LINE
  5
7F72
330
81A1
100
AcDbEntity
  8
4
100
AcDbLine
 10
4625.0
 20
6703.158957813504
 30
0.0
 11
3601.543555899662
 21
6703.158957813504
 31
0.0
  0
LINE
  5
7F73
330
81A1
100
AcDbEntity
  8
4
100
AcDbLine
 10
0.0
 20
0.0
 30
0.0
 11
0.0
 21
7375.0
 31
0.0
  0
LINE
  5
7F74
330
81A1
100
AcDbEntity
  8
4
100
AcDbLine
 10
0.0
 20
7375.0
 30
0.0
 11
5250.0
 21
7375.0
 31
0.0
  0
LINE
  5
7F75
330
81A1
100
AcDbEntity
  8
4
100
AcDbLine
 10
5250.0
 20
7375.0
 30
0.0
 11
5250.0
 21
0.0
 31
0.0
  0
LINE
  5
7F76
330
81A1
100
AcDbEntity
  8
4
100
AcDbLine
 10
5250.0
 20
0.0
 30
0.0
 11
0.0
 21
0.0
 31
0.0
  0
DIMENSION
  5
805C
330
81A1
100
AcDbEntity
  8
3
100
AcDbDimension
  2
*D22
 10
1553.22368732464
 20
1609.209078611294
 30
0.0
 11
1328.22368732464
 21
1671.709078611294
 31
0.0
 71
     5
 42
-1.0
  3
Standard
100
AcDbAlignedDimension
 13
1103.22368732464
 23
1767.56025197806
 33
0.0
 14
1553.22368732464
 24
1767.56025197806
 34
0.0
100
AcDbRotatedDimension
1001
ACAD
1000
DSTYLE
1002
{
1070
   172
1070
     1
1070
    40
1040
25.0
1070
    42
1040
1.0
1070
   271
1070
     0
1070
   143
1040
0.039
1002
}
  0
DIMENSION
  5
8069
330
81A1
100
AcDbEntity
  8
3
100
AcDbDimension
  2
*D23
 10
2703.22368732464
 20
1609.209078611294
 30
0.0
 11
2128.22368732464
 21
1671.709078611294
 31
0.0
 71
     5
 42
-1.0
  3
Standard
100
AcDbAlignedDimension
 13
1553.22368732464
 23
1767.56025197806
 33
0.0
 14
2703.22368732464
 24
1767.56025197806
 34
0.0
100
AcDbRotatedDimension
1001
ACAD
1000
DSTYLE
1002
{
1070
   172
1070
     1
1070
    40
1040
25.0
1070
    42
1040
1.0
1070
   271
1070
     0
1070
   143
1040
0.039
1002
}
  0
DIMENSION
  5
8076
330
81A1
100
AcDbEntity
  8
3
100
AcDbDimension
  2
*D24
 10
3766.305087276281
 20
1609.209078611294
 30
0.0
 11
3440.305087276282
 21
1671.709078611294
 31
0.0
 71
     5
 42
-1.0
  3
Standard
100
AcDbAlignedDimension
 13
3114.305087276282
 23
1767.56025197806
 33
0.0
 14
3766.305087276281
 24
1767.56025197806
 34
0.0
100
AcDbRotatedDimension
1001
ACAD
1000
DSTYLE
1002
{
1070
   172
1070
     1
1070
    40
1040
25.0
1070
    42
1040
1.0
1070
   271
1070
     0
1070
   143
1040
0.039
1002
}
  0
DIMENSION
  5
8083
330
81A1
100
AcDbEntity
  8
3
100
AcDbDimension
  2
*D25
 10
4269.305087276282
 20
1609.209078611294
 30
0.0
 11
4017.805087276282
 21
1671.709078611294
 31
0.0
 71
     5
 42
-1.0
  3
Standard
100
AcDbAlignedDimension
 13
3766.305087276281
 23
1767.56025197806
 33
0.0
 14
4269.305087276282
 24
1767.56025197806
 34
0.0
100
AcDbRotatedDimension
1001
ACAD
1000
DSTYLE
1002
{
1070
   172
1070
     1
1070
    40
1040
25.0
1070
    42
1040
1.0
1070
   271
1070
     0
1070
   143
1040
0.039
1002
}
  0
DIMENSION
  5
8092
330
81A1
100
AcDbEntity
  8
3
100
AcDbDimension
  2
*D27
 10
825.9065249622581
 20
1894.56025197806
 30
0.0
 11
706.2636678194008
 21
1881.06025197806
 31
0.0
 71
     5
 42
-1.0
  3
Standard
100
AcDbAlignedDimension
 13
1103.22368732464
 23
1867.56025197806
 33
0.0
 14
1103.22368732464
 24
1894.56025197806
 34
0.0
 50
90.0
100
AcDbRotatedDimension
1001
ACAD
1000
DSTYLE
1002
{
1070
   172
1070
     1
1070
    76
1070
     1
1070
    75
1070
     1
1070
    40
1040
25.0
1070
     3
1000
(<>)
1070
    42
1040
1.0
1070
   271
1070
     0
1070
     7
1000
_NONE
1070
     6
1000
_NONE
1070
   143
1040
0.039
1002
}
  0
DIMENSION
  5
809F
330
81A1
100
AcDbEntity
  8
3
100
AcDbDimension
  2
*D28
 10
612.8864723850856
 20
3034.560251978061
 30
0.0
 11
530.7436152422284
 21
2401.060251978061
 31
0.0
 71
     5
 42
-1.0
  3
Standard
100
AcDbAlignedDimension
 13
1103.22368732464
 23
1767.56025197806
 33
0.0
 14
1540.22368732464
 24
3034.560251978061
 34
0.0
 50
90.0
100
AcDbRotatedDimension
1001
ACAD
1000
DSTYLE
1002
{
1070
   172
1070
     1
1070
    40
1040
25.0
1070
     3
1000
(<>)
1070
    42
1040
1.0
1070
   271
1070
     0
1070
   143
1040
0.039
1002
}
  0
LINE
  5
820A
330
81A1
100
AcDbEntity
  8
1
100
AcDbLine
 10
2311.86517770146
 20
3031.56025197806
 30
0.0
 11
2248.897833680489
 21
2504.651014822119
 31
0.0
  0
ARC
  5
820B
330
81A1
100
AcDbEntity
  8
1
100
AcDbCircle
 10
1606.223687324639
 20
2587.560251978063
 30
0.0
 40
648.0
100
AcDbArc
 50
293.7767343658895
 51
352.6490639824706
  0
ARC
  5
820C
330
81A1
100
AcDbEntity
  8
1
100
AcDbCircle
 10
1606.223687324639
 20
2481.560251978062
 30
0.0
 40
541.9999999999998
100
AcDbArc
 50
174.3883085668942
 51
243.9647248681592
  0
ARC
  5
820D
330
81A1
100
AcDbEntity
  8
1
100
AcDbCircle
 10
1512.223687324639
 20
2493.560251978062
 30
0.0
 40
448.0
100
AcDbArc
 50
90.0
 51
174.7490656834528
  0
ARC
  5
820E
330
81A1
100
AcDbEntity
  8
1
100
AcDbCircle
 10
1512.223687324639
 20
2575.560251978063
 30
0.0
 40
366.0
100
AcDbArc
 50
78.97385951871218
 51
90.0
  0
LINE
  5
820F
330
81A1
100
AcDbEntity
  8
1
100
AcDbLine
 10
1582.223687324639
 20
3034.560251978062
 30
0.0
 11
1582.223687324639
 21
2934.803901887146
 31
0.0
  0
LINE
  5
8210
330
81A1
100
AcDbEntity
  8
1
100
AcDbLine
 10
2354.22368732464
 20
3034.560251978061
 30
0.0
 11
1540.22368732464
 21
3034.560251978062
 31
0.0
  0
LINE
  5
8211
330
81A1
100
AcDbEntity
  8
1
100
AcDbLine
 10
2354.22368732464
 20
3034.560251978061
 30
0.0
 11
2354.22368732464
 21
3031.56025197806
 31
0.0
  0
LINE
  5
8212
330
81A1
100
AcDbEntity
  8
1
100
AcDbLine
 10
1540.22368732464
 20
3034.560251978062
 30
0.0
 11
1540.22368732464
 21
3031.56025197806
 31
0.0
  0
LINE
  5
8213
330
81A1
100
AcDbEntity
  8
1
100
AcDbLine
 10
2308.774455752035
 20
2994.560251978061
 30
0.0
 11
1582.223687324639
 21
2994.560251978061
 31
0.0
  0
LINE
  5
8214
330
81A1
100
AcDbEntity
  8
1
100
AcDbLine
 10
2354.22368732464
 20
3031.56025197806
 30
0.0
 11
1540.22368732464
 21
3031.56025197806
 31
0.0
  0
POINT
  5
8215
330
81A1
100
AcDbEntity
  8
1
100
AcDbPoint
 10
1553.22368732464
 20
2994.742824442512
 30
0.0
 50
270.0
  0
LINE
  5
8216
330
81A1
100
AcDbEntity
  8
1
100
AcDbLine
 10
1553.22368732464
 20
3038.042057610554
 30
0.0
 11
1553.22368732464
 21
3053.715363026869
 31
0.0
  0
CIRCLE
  5
8217
330
81A1
100
AcDbEntity
  8
1
100
AcDbCircle
 10
1553.22368732464
 20
2534.560251978061
 30
0.0
 40
375.0
  0
CIRCLE
  5
8218
330
81A1
100
AcDbEntity
  8
1
100
AcDbCircle
 10
1553.22368732464
 20
2534.560251978061
 30
0.0
 40
415.0
  0
DIMENSION
  5
826E
330
81A1
100
AcDbEntity
  8
3
100
AcDbDimension
  2
*D30
 10
3766.305087276282
 20
3456.760293225471
 30
0.0
 11
3346.305087276284
 21
3538.903150368328
 31
0.0
 70
    32
 71
     5
 42
839.9999999999973
  3
IGA
100
AcDbAlignedDimension
 13
2926.305087276285
 23
2814.560251978061
 33
0.0
 14
3766.305087276282
 24
3307.578220399479
 34
0.0
100
AcDbRotatedDimension
1001
ACAD
1000
DSTYLE
1002
{
1070
     3
1000
(<>)
1070
    40
1040
25.0
1070
    42
1040
1.0
1070
   143
1040
0.039
1070
   172
1070
     1
1070
   271
1070
     4
1070
   272
1070
     4
1070
   279
1070
     0
1070
   284
1070
     0
1070
   285
1070
     0
1070
   286
1070
     0
1070
   341
1005
81B5
1070
   343
1005
81B5
1070
   344
1005
81B5
1002
}
  0
DIMENSION
  5
827B
330
81A1
100
AcDbEntity
  8
3
100
AcDbDimension
  2
*D31
 10
4326.305087276281
 20
3456.760293225471
 30
0.0
 11
4046.305087276281
 21
3538.903150368328
 31
0.0
 70
    32
 71
     5
 42
559.9999999999995
  3
IGA
100
AcDbAlignedDimension
 13
3766.305087276282
 23
3307.578220399479
 33
0.0
 14
4326.305087276281
 24
2509.360251978061
 34
0.0
100
AcDbRotatedDimension
1001
ACAD
1000
DSTYLE
1002
{
1070
     3
1000
(<>)
1070
    40
1040
25.0
1070
    42
1040
1.0
1070
   143
1040
0.039
1070
   172
1070
     1
1070
   271
1070
     4
1070
   272
1070
     4
1070
   279
1070
     1
1070
   284
1070
     0
1070
   285
1070
     0
1070
   286
1070
     0
1070
   341
1005
81B5
1070
   343
1005
81B5
1070
   344
1005
81B5
1002
}
  0
DIMENSION
  5
82AF
330
81A1
100
AcDbEntity
  8
3
100
AcDbDimension
  2
*D32
 10
2703.22368732464
 20
3851.464459246872
 30
0.0
 11
1903.22368732464
 21
3913.964459246872
 31
0.0
 70
    32
 71
     5
 42
1600.0
  3
IGA
100
AcDbAlignedDimension
 13
1103.22368732464
 23
4218.999187184333
 33
0.0
 14
2703.22368732464
 24
4218.999187184336
 34
0.0
100
AcDbRotatedDimension
1001
ACAD
1000
DSTYLE
1002
{
1070
    40
1040
25.0
1070
    42
1040
1.0
1070
   143
1040
0.039
1070
   172
1070
     1
1070
   271
1070
     4
1070
   272
1070
     4
1070
   279
1070
     0
1070
   284
1070
     0
1070
   285
1070
     0
1070
   286
1070
     0
1070
   341
1005
81B5
1070
   343
1005
81B5
1070
   344
1005
81B5
1002
}
  0
DIMENSION
  5
82C3
330
81A1
100
AcDbEntity
  8
3
100
AcDbDimension
  2
*D34
 10
1064.223687324639
 20
3336.376409230951
 30
0.0
 11
1308.723687324639
 21
3398.876409230951
 31
0.0
 70
    32
 71
     5
 42
489.0000000000005
  3
IGA
100
AcDbAlignedDimension
 13
1553.22368732464
 23
3139.924811064502
 33
0.0
 14
1064.223687324639
 24
2481.560251978062
 34
0.0
100
AcDbRotatedDimension
1001
ACAD
1000
DSTYLE
1002
{
1070
    40
1040
25.0
1070
    42
1040
1.0
1070
   143
1040
0.039
1070
   172
1070
     1
1070
   271
1070
     4
1070
   272
1070
     4
1070
   279
1070
     0
1070
   284
1070
     0
1070
   285
1070
     0
1070
   286
1070
     0
1070
   341
1005
81B5
1070
   343
1005
81B5
1070
   344
1005
81B5
1002
}
  0
DIMENSION
  5
82D9
330
81A1
100
AcDbEntity
  8
3
100
AcDbDimension
  2
*D35
 10
1064.223687324639
 20
3474.078916862545
 30
0.0
 11
1883.723687324639
 21
3536.578916862545
 31
0.0
 70
    32
 71
     5
 42
1639.0
  3
IGA
100
AcDbAlignedDimension
 13
2703.22368732464
 23
1994.56025197806
 33
0.0
 14
1064.223687324639
 24
2481.560251978062
 34
0.0
100
AcDbRotatedDimension
1001
ACAD
1000
DSTYLE
1002
{
1070
    40
1040
25.0
1070
    42
1040
1.0
1070
   143
1040
0.039
1070
   172
1070
     1
1070
   271
1070
     4
1070
   272
1070
     4
1070
   279
1070
     0
1070
   284
1070
     0
1070
   285
1070
     0
1070
   286
1070
     0
1070
   341
1005
81B5
1070
   343
1005
81B5
1070
   344
1005
81B5
1002
}
  0
DIMENSION
  5
82E6
330
81A1
100
AcDbEntity
  8
3
100
AcDbDimension
  2
*D36
 10
825.9065249622581
 20
1894.56025197806
 30
0.0
 11
763.4065249622578
 21
2214.560251978061
 31
0.0
 70
    32
 71
     5
 42
640.0
  3
IGA
100
AcDbAlignedDimension
 13
930.9578485192103
 23
2534.560251978061
 33
0.0
 14
1103.22368732464
 24
1894.56025197806
 34
0.0
 50
90.0
100
AcDbRotatedDimension
1001
ACAD
1000
DSTYLE
1002
{
1070
    40
1040
25.0
1070
    42
1040
1.0
1070
   143
1040
0.039
1070
   172
1070
     1
1070
   271
1070
     4
1070
   272
1070
     4
1070
   279
1070
     0
1070
   284
1070
     0
1070
   285
1070
     0
1070
   286
1070
     0
1070
   341
1005
81B5
1070
   343
1005
81B5
1070
   344
1005
81B5
1002
}
  0
ENDSEC
  0
SECTION
  2
OBJECTS
  0
DICTIONARY
  5
813E
330
0
100
AcDbDictionary
281
     1
  3
ACAD_CIP_PREVIOUS_PRODUCT_INFO
350
81EB
  3
ACAD_COLOR
350
8194
  3
ACAD_DETAILVIEWSTYLE
350
819B
  3
ACAD_GROUP
350
813F
  3
ACAD_LAYOUT
350
8193
  3
ACAD_MATERIAL
350
8142
  3
ACAD_MLEADERSTYLE
350
8197
  3
ACAD_MLINESTYLE
350
8190
  3
ACAD_PLOTSETTINGS
350
8192
  3
ACAD_PLOTSTYLENAME
350
8140
  3
ACAD_SCALELIST
350
8174
  3
ACAD_SECTIONVIEWSTYLE
350
8199
  3
ACAD_TABLESTYLE
350
8195
  3
ACAD_VISUALSTYLE
350
815B
  3
ACDB_RECOMPOSE_DATA
350
833F
  3
AcDbVariableDictionary
350
8223
  3
DWGPROPS
350
8340
  0
DICTIONARY
  5
81ED
330
8134
100
AcDbDictionary
280
     1
281
     1
  3
ACAD_LAYERSTATES
360
81EE
  0
DICTIONARY
  5
8219
330
8186
100
AcDbDictionary
280
     1
281
     1
  3
ADSK_XREC_LAYER_RECONCILED
360
821A
  0
DICTIONARY
  5
821B
330
81A5
100
AcDbDictionary
280
     1
281
     1
  3
ADSK_XREC_LAYER_RECONCILED
360
821C
  0
DICTIONARY
  5
821D
330
81A8
100
AcDbDictionary
280
     1
281
     1
  3
ADSK_XREC_LAYER_RECONCILED
360
821E
  0
DICTIONARY
  5
821F
330
81A9
100
AcDbDictionary
280
     1
281
     1
  3
ADSK_XREC_LAYER_RECONCILED
360
8220
  0
DICTIONARY
  5
8221
330
81AA
100
AcDbDictionary
280
     1
281
     1
  3
ADSK_XREC_LAYER_RECONCILED
360
8222
  0
XRECORD
  5
81EB
102
{ACAD_REACTORS
330
813E
102
}
330
813E
100
AcDbXrecord
280
     1
300
ACDLT
300
2015
300
INVLTS_F_S
  0
DICTIONARY
  5
8194
102
{ACAD_REACTORS
330
813E
102
}
330
813E
100
AcDbDictionary
281
     1
  0
DICTIONARY
  5
819B
102
{ACAD_REACTORS
330
813E
102
}
330
813E
100
AcDbDictionary
281
     1
  3
Imperial24
350
819C
  0
DICTIONARY
  5
813F
102
{ACAD_REACTORS
330
813E
102
}
330
813E
100
AcDbDictionary
281
     1
  0
DICTIONARY
  5
8193
102
{ACAD_REACTORS
330
813E
102
}
330
813E
100
AcDbDictionary
281
     1
  3
Model
350
81A4
  3
レイアウト1
350
81A0
  0
DICTIONARY
  5
8142
102
{ACAD_REACTORS
330
813E
102
}
330
813E
100
AcDbDictionary
281
     1
  3
ByBlock
350
814B
  3
ByLayer
350
8143
  3
Global
350
8153
  0
DICTIONARY
  5
8197
102
{ACAD_REACTORS
330
813E
102
}
330
813E
100
AcDbDictionary
281
     1
  3
Standard
350
8198
  0
DICTIONARY
  5
8190
102
{ACAD_REACTORS
330
813E
102
}
330
813E
100
AcDbDictionary
281
     1
  3
Standard
350
8191
  0
DICTIONARY
  5
8192
102
{ACAD_REACTORS
330
813E
102
}
330
813E
100
AcDbDictionary
281
     1
  0
ACDBDICTIONARYWDFLT
  5
8140
102
{ACAD_REACTORS
330
813E
102
}
330
813E
100
AcDbDictionary
281
     1
  3
Normal
350
8141
100
AcDbDictionaryWithDefault
340
8141
  0
DICTIONARY
  5
8174
102
{ACAD_REACTORS
330
813E
102
}
330
813E
100
AcDbDictionary
281
     1
  3
A0
350
8175
  3
A1
350
8176
  3
A2
350
8177
  3
A3
350
8178
  3
A4
350
8179
  3
A5
350
817A
  3
A6
350
817B
  3
A7
350
817C
  3
A8
350
817D
  3
A9
350
817E
  3
B0
350
817F
  3
B1
350
8180
  3
B2
350
8181
  3
B3
350
8182
  3
B4
350
8183
  3
B5
350
8184
  3
B6
350
8185
  0
DICTIONARY
  5
8199
102
{ACAD_REACTORS
330
813E
102
}
330
813E
100
AcDbDictionary
281
     1
  3
Imperial24
350
819A
  0
DICTIONARY
  5
8195
102
{ACAD_REACTORS
330
813E
102
}
330
813E
100
AcDbDictionary
281
     1
  3
Standard
350
8196
  0
DICTIONARY
  5
815B
102
{ACAD_REACTORS
330
813E
102
}
330
813E
100
AcDbDictionary
281
     1
  3
2dWireframe
350
8161
  3
Basic
350
8160
  3
Brighten
350
8167
  3
ColorChange
350
816B
  3
Conceptual
350
8164
  3
Dim
350
8166
  3
EdgeColorOff
350
8173
  3
Facepattern
350
816A
  3
Flat
350
815C
  3
FlatWithEdges
350
815D
  3
Gouraud
350
815E
  3
GouraudWithEdges
350
815F
  3
Hidden
350
8163
  3
JitterOff
350
8171
  3
Linepattern
350
8169
  3
OverhangOff
350
8172
  3
Realistic
350
8165
  3
Shaded
350
8170
  3
Shaded with edges
350
816F
  3
Shades of Gray
350
816C
  3
Sketchy
350
816D
  3
Thicken
350
8168
  3
Wireframe
350
8162
  3
X-Ray
350
816E
  0
XRECORD
  5
833F
102
{ACAD_REACTORS
330
813E
102
}
330
813E
100
AcDbXrecord
280
     1
 90
        1
330
8196
  0
DICTIONARY
  5
8223
102
{ACAD_REACTORS
330
813E
102
}
330
813E
100
AcDbDictionary
281
     1
  3
CANNOSCALE
350
8228
  3
CMLEADERSTYLE
350
8225
  3
CTABLESTYLE
350
8224
  3
CVIEWDETAILSTYLE
350
8226
  3
CVIEWSECTIONSTYLE
350
8227
  3
DIMASSOC
350
822B
  3
INDEXCTL
350
822A
  3
SORTENTS
350
8229
  3
XCLIPFRAME
350
822C
  0
XRECORD
  5
8340
102
{ACAD_REACTORS
330
813E
102
}
330
813E
100
AcDbXrecord
280
     1
  1
DWGPROPS COOKIE
  2

  3

  4

  6

  7

  8
yasukiyo.ogawa
  9

300
=
301
=
302
=
303
=
304
=
305
=
306
=
307
=
308
=
309
=
 40
0.0661009259259259
 41
2451387.612503704
 42
2460263.704670648
  1

 90
        0
  0
DICTIONARY
  5
81EE
102
{ACAD_REACTORS
330
81ED
102
}
330
81ED
100
AcDbDictionary
281
     1
  0
XRECORD
  5
821A
102
{ACAD_REACTORS
330
8219
102
}
330
8219
100
AcDbXrecord
280
     1
290
     1
  0
XRECORD
  5
821C
102
{ACAD_REACTORS
330
821B
102
}
330
821B
100
AcDbXrecord
280
     1
290
     1
  0
XRECORD
  5
821E
102
{ACAD_REACTORS
330
821D
102
}
330
821D
100
AcDbXrecord
280
     1
290
     1
  0
XRECORD
  5
8220
102
{ACAD_REACTORS
330
821F
102
}
330
821F
100
AcDbXrecord
280
     1
290
     1
  0
XRECORD
  5
8222
102
{ACAD_REACTORS
330
8221
102
}
330
8221
100
AcDbXrecord
280
     1
290
     1
  0
ACDBDETAILVIEWSTYLE
  5
819C
102
{ACAD_XDICTIONARY
360
8378
102
}
102
{ACAD_REACTORS
330
819B
102
}
330
819B
100
AcDbModelDocViewStyle
 70
     0
  3
Imperial24
290
     0
100
AcDbDetailViewStyle
 70
     0
 71
     0
 90
        3
 71
     1
340
8187
 40
0.24
340
0
 40
0.24
300

 40
0.36
280
     3
 71
     2
340
818E
 90
       25
 71
     3
340
8187
 40
0.24
 90
        1
 40
0.75
 90
        1
300
%<\AcVar ViewType \f "%tc1">% %<\AcVar ViewDetailId>%\PSCALE %<\AcVar ViewScale \f "%sn">%
 71
     4
340
818E
 90
       25
340
818E
 90
       25
280
     0
  0
LAYOUT
  5
81A4
102
{ACAD_XDICTIONARY
360
837C
102
}
102
{ACAD_REACTORS
330
8193
102
}
330
8193
100
AcDbPlotSettings
  1

  2
RICOH imagio MP W3600 RPCS
  4

  6

 40
0.0
 41
0.0
 42
0.0
 43
0.0
 44
0.0
 45
0.0
 46
0.0
 47
0.0
 48
0.0
 49
0.0
140
0.0
141
0.0
142
1.0
143
1.0
 70
  1712
 72
     0
 73
     0
 74
     0
  7

 75
     0
147
1.0
148
0.0
149
0.0
100
AcDbLayout
  1
Model
 70
     1
 71
     0
 10
0.0
 20
0.0
 11
12.0
 21
9.0
 12
0.0
 22
0.0
 32
0.0
 14
0.0
 24
0.0
 34
0.0
 15
0.0
 25
0.0
 35
0.0
146
0.0
 13
0.0
 23
0.0
 33
0.0
 16
1.0
 26
0.0
 36
0.0
 17
0.0
 27
1.0
 37
0.0
 76
     0
330
81A1
331
81A6
  0
LAYOUT
  5
81A0
102
{ACAD_XDICTIONARY
360
837A
102
}
102
{ACAD_REACTORS
330
8193
102
}
330
8193
100
AcDbPlotSettings
  1

  2
RICOH imagio MP W3600 RPCS
  4

  6

 40
0.0
 41
0.0
 42
0.0
 43
0.0
 44
0.0
 45
0.0
 46
0.0
 47
0.0
 48
0.0
 49
0.0
140
0.0
141
0.0
142
1.0
143
1.0
 70
   688
 72
     0
 73
     0
 74
     5
  7

 75
    16
147
1.0
148
0.0
149
0.0
100
AcDbLayout
  1
レイアウト1
 70
     1
 71
     1
 10
0.0
 20
0.0
 11
12.0
 21
9.0
 12
0.0
 22
0.0
 32
0.0
 14
1.000000000000000E+20
 24
1.000000000000000E+20
 34
1.000000000000000E+20
 15
-1.000000000000000E+20
 25
-1.000000000000000E+20
 35
-1.000000000000000E+20
146
0.0
 13
0.0
 23
0.0
 33
0.0
 16
1.0
 26
0.0
 36
0.0
 17
0.0
 27
1.0
 37
0.0
 76
     0
330
819D
  0
MATERIAL
  5
814B
102
{ACAD_XDICTIONARY
360
814C
102
}
102
{ACAD_REACTORS
330
8142
102
}
330
8142
100
AcDbMaterial
  1
ByBlock
 72
     0
 43
0.0208333333333333
 43
0.0
 43
0.0
 43
0.0
 43
0.0
 43
0.0208333333333333
 43
0.0
 43
0.0
 43
0.0
 43
0.0
 43
1.0
 43
0.0
 43
0.0
 43
0.0
 43
0.0
 43
1.0
 77
     0
 47
0.0208333333333333
 47
0.0
 47
0.0
 47
0.0
 47
0.0
 47
0.0208333333333333
 47
0.0
 47
0.0
 47
0.0
 47
0.0
 47
1.0
 47
0.0
 47
0.0
 47
0.0
 47
0.0
 47
1.0
171
     0
 49
0.0208333333333333
 49
0.0
 49
0.0
 49
0.0
 49
0.0
 49
0.0208333333333333
 49
0.0
 49
0.0
 49
0.0
 49
0.0
 49
1.0
 49
0.0
 49
0.0
 49
0.0
 49
0.0
 49
1.0
175
     0
142
0.0208333333333333
142
0.0
142
0.0
142
0.0
142
0.0
142
0.0208333333333333
142
0.0
142
0.0
142
0.0
142
0.0
142
1.0
142
0.0
142
0.0
142
0.0
142
0.0
142
1.0
179
     0
144
0.0208333333333333
144
0.0
144
0.0
144
0.0
144
0.0
144
0.0208333333333333
144
0.0
144
0.0
144
0.0
144
0.0
144
1.0
144
0.0
144
0.0
144
0.0
144
0.0
144
1.0
147
0.0208333333333333
147
0.0
147
0.0
147
0.0
147
0.0
147
0.0208333333333333
147
0.0
147
0.0
147
0.0
147
0.0
147
1.0
147
0.0
147
0.0
147
0.0
147
0.0
147
1.0
  0
MATERIAL
  5
8143
102
{ACAD_XDICTIONARY
360
8144
102
}
102
{ACAD_REACTORS
330
8142
102
}
330
8142
100
AcDbMaterial
  1
ByLayer
 72
     0
 43
0.0208333333333333
 43
0.0
 43
0.0
 43
0.0
 43
0.0
 43
0.0208333333333333
 43
0.0
 43
0.0
 43
0.0
 43
0.0
 43
1.0
 43
0.0
 43
0.0
 43
0.0
 43
0.0
 43
1.0
 77
     0
 47
0.0208333333333333
 47
0.0
 47
0.0
 47
0.0
 47
0.0
 47
0.0208333333333333
 47
0.0
 47
0.0
 47
0.0
 47
0.0
 47
1.0
 47
0.0
 47
0.0
 47
0.0
 47
0.0
 47
1.0
171
     0
 49
0.0208333333333333
 49
0.0
 49
0.0
 49
0.0
 49
0.0
 49
0.0208333333333333
 49
0.0
 49
0.0
 49
0.0
 49
0.0
 49
1.0
 49
0.0
 49
0.0
 49
0.0
 49
0.0
 49
1.0
175
     0
142
0.0208333333333333
142
0.0
142
0.0
142
0.0
142
0.0
142
0.0208333333333333
142
0.0
142
0.0
142
0.0
142
0.0
142
1.0
142
0.0
142
0.0
142
0.0
142
0.0
142
1.0
179
     0
144
0.0208333333333333
144
0.0
144
0.0
144
0.0
144
0.0
144
0.0208333333333333
144
0.0
144
0.0
144
0.0
144
0.0
144
1.0
144
0.0
144
0.0
144
0.0
144
0.0
144
1.0
147
0.0208333333333333
147
0.0
147
0.0
147
0.0
147
0.0
147
0.0208333333333333
147
0.0
147
0.0
147
0.0
147
0.0
147
1.0
147
0.0
147
0.0
147
0.0
147
0.0
147
1.0
  0
MATERIAL
  5
8153
102
{ACAD_XDICTIONARY
360
8154
102
}
102
{ACAD_REACTORS
330
8142
102
}
330
8142
100
AcDbMaterial
  1
Global
 72
     0
 43
0.0208333333333333
 43
0.0
 43
0.0
 43
0.0
 43
0.0
 43
0.0208333333333333
 43
0.0
 43
0.0
 43
0.0
 43
0.0
 43
1.0
 43
0.0
 43
0.0
 43
0.0
 43
0.0
 43
1.0
 77
     0
 47
0.0208333333333333
 47
0.0
 47
0.0
 47
0.0
 47
0.0
 47
0.0208333333333333
 47
0.0
 47
0.0
 47
0.0
 47
0.0
 47
1.0
 47
0.0
 47
0.0
 47
0.0
 47
0.0
 47
1.0
171
     0
 49
0.0208333333333333
 49
0.0
 49
0.0
 49
0.0
 49
0.0
 49
0.0208333333333333
 49
0.0
 49
0.0
 49
0.0
 49
0.0
 49
1.0
 49
0.0
 49
0.0
 49
0.0
 49
0.0
 49
1.0
175
     0
142
0.0208333333333333
142
0.0
142
0.0
142
0.0
142
0.0
142
0.0208333333333333
142
0.0
142
0.0
142
0.0
142
0.0
142
1.0
142
0.0
142
0.0
142
0.0
142
0.0
142
1.0
179
     0
144
0.0208333333333333
144
0.0
144
0.0
144
0.0
144
0.0
144
0.0208333333333333
144
0.0
144
0.0
144
0.0
144
0.0
144
1.0
144
0.0
144
0.0
144
0.0
144
0.0
144
1.0
147
0.0208333333333333
147
0.0
147
0.0
147
0.0
147
0.0
147
0.0208333333333333
147
0.0
147
0.0
147
0.0
147
0.0
147
1.0
147
0.0
147
0.0
147
0.0
147
0.0
147
1.0
  0
MLEADERSTYLE
  5
8198
102
{ACAD_REACTORS
330
8197
102
}
330
8197
100
AcDbMLeaderStyle
170
     2
171
     1
172
     0
 90
        2
 40
0.0
 41
0.0
173
     1
 91
-1056964608
340
818C
 92
       -2
290
     1
 42
0.09
291
     1
 43
0.36
  3
Standard
 44
0.18
300

342
8187
174
     1
178
     6
175
     1
176
     0
 93
-1056964608
 45
0.18
292
     0
297
     0
 46
0.18
 94
-1056964608
 47
1.0
 49
1.0
140
1.0
293
     1
141
0.0
294
     1
177
     0
142
1.0
295
     0
296
     0
143
0.125
1001
ACAD_MLEADERVER
1070
     2
  0
MLINESTYLE
  5
8191
102
{ACAD_REACTORS
330
8190
102
}
330
8190
100
AcDbMlineStyle
  2
STANDARD
 70
     0
  3

 62
   256
 51
90.0
 52
90.0
 71
     2
 49
0.5
 62
   256
  6
BYLAYER
 49
-0.5
 62
   256
  6
BYLAYER
  0
ACDBPLACEHOLDER
  5
8141
102
{ACAD_REACTORS
330
8140
102
}
330
8140
  0
SCALE
  5
8175
102
{ACAD_REACTORS
330
8174
102
}
330
8174
100
AcDbScale
 70
     0
300
1:1
140
1.0
141
1.0
290
     1
  0
SCALE
  5
8176
102
{ACAD_REACTORS
330
8174
102
}
330
8174
100
AcDbScale
 70
     0
300
1/128" = 1'-0"
140
0.0078125
141
12.0
290
     0
  0
SCALE
  5
8177
102
{ACAD_REACTORS
330
8174
102
}
330
8174
100
AcDbScale
 70
     0
300
1/64" = 1'-0"
140
0.015625
141
12.0
290
     0
  0
SCALE
  5
8178
102
{ACAD_REACTORS
330
8174
102
}
330
8174
100
AcDbScale
 70
     0
300
1/32" = 1'-0"
140
0.03125
141
12.0
290
     0
  0
SCALE
  5
8179
102
{ACAD_REACTORS
330
8174
102
}
330
8174
100
AcDbScale
 70
     0
300
1/16" = 1'-0"
140
0.0625
141
12.0
290
     0
  0
SCALE
  5
817A
102
{ACAD_REACTORS
330
8174
102
}
330
8174
100
AcDbScale
 70
     0
300
3/32" = 1'-0"
140
0.09375
141
12.0
290
     0
  0
SCALE
  5
817B
102
{ACAD_REACTORS
330
8174
102
}
330
8174
100
AcDbScale
 70
     0
300
1/8" = 1'-0"
140
0.125
141
12.0
290
     0
  0
SCALE
  5
817C
102
{ACAD_REACTORS
330
8174
102
}
330
8174
100
AcDbScale
 70
     0
300
3/16" = 1'-0"
140
0.1875
141
12.0
290
     0
  0
SCALE
  5
817D
102
{ACAD_REACTORS
330
8174
102
}
330
8174
100
AcDbScale
 70
     0
300
1/4" = 1'-0"
140
0.25
141
12.0
290
     0
  0
SCALE
  5
817E
102
{ACAD_REACTORS
330
8174
102
}
330
8174
100
AcDbScale
 70
     0
300
3/8" = 1'-0"
140
0.375
141
12.0
290
     0
  0
SCALE
  5
817F
102
{ACAD_REACTORS
330
8174
102
}
330
8174
100
AcDbScale
 70
     0
300
1/2" = 1'-0"
140
0.5
141
12.0
290
     0
  0
SCALE
  5
8180
102
{ACAD_REACTORS
330
8174
102
}
330
8174
100
AcDbScale
 70
     0
300
3/4" = 1'-0"
140
0.75
141
12.0
290
     0
  0
SCALE
  5
8181
102
{ACAD_REACTORS
330
8174
102
}
330
8174
100
AcDbScale
 70
     0
300
1" = 1'-0"
140
1.0
141
12.0
290
     0
  0
SCALE
  5
8182
102
{ACAD_REACTORS
330
8174
102
}
330
8174
100
AcDbScale
 70
     0
300
1-1/2" = 1'-0"
140
1.5
141
12.0
290
     0
  0
SCALE
  5
8183
102
{ACAD_REACTORS
330
8174
102
}
330
8174
100
AcDbScale
 70
     0
300
3" = 1'-0"
140
3.0
141
12.0
290
     0
  0
SCALE
  5
8184
102
{ACAD_REACTORS
330
8174
102
}
330
8174
100
AcDbScale
 70
     0
300
6" = 1'-0"
140
6.0
141
12.0
290
     0
  0
SCALE
  5
8185
102
{ACAD_REACTORS
330
8174
102
}
330
8174
100
AcDbScale
 70
     0
300
1'-0" = 1'-0"
140
12.0
141
12.0
290
     0
  0
ACDBSECTIONVIEWSTYLE
  5
819A
102
{ACAD_XDICTIONARY
360
8376
102
}
102
{ACAD_REACTORS
330
8199
102
}
330
8199
100
AcDbModelDocViewStyle
 70
     0
  3
Imperial24
290
     0
100
AcDbSectionViewStyle
 70
     0
 71
     0
 90
       78
 71
     1
340
8187
 40
0.24
340
0
340
0
 40
0.24
300
I, O, Q, S, X, Z
 40
0.48
 90
        3
 40
0.18
 90
        1
 71
     2
340
818E
 90
       25
340
818E
 90
       50
 40
0.24
 40
0.0
 40
0.24
 71
     3
340
8187
 40
0.24
 90
        1
 40
0.75
 90
        1
300
%<\AcVar ViewType \f "%tc1">% %<\AcVar ViewSectionStartId>%-%<\AcVar ViewSectionEndId>%\PSCALE %<\AcVar ViewScale \f "%sn">%
 71
     4
300
ANSI31
 40
1.0
 90
        0
290
     0
290
     0
 90
        6
 40
0.0
 40
1.570796326794896
 40
0.2617993877991494
 40
1.308996938995747
 40
-0.2617993877991494
 40
1.832595714594046
  0
TABLESTYLE
  5
8196
102
{ACAD_XDICTIONARY
360
833D
102
}
102
{ACAD_REACTORS
330
8195
102
}
330
8195
100
AcDbTableStyle
  3
Standard
 70
     0
 71
     0
 40
0.06
 41
0.06
280
     0
281
     0
  7
STANDARD
140
0.18
170
     2
 62
     0
 63
     7
283
     0
274
    -2
284
     1
 64
     0
275
    -2
285
     1
 65
     0
276
    -2
286
     1
 66
     0
277
    -2
287
     1
 67
     0
278
    -2
288
     1
 68
     0
279
    -2
289
     1
 69
     0
  7
STANDARD
140
0.25
170
     5
 62
     0
 63
     7
283
     0
274
    -2
284
     1
 64
     0
275
    -2
285
     1
 65
     0
276
    -2
286
     1
 66
     0
277
    -2
287
     1
 67
     0
278
    -2
288
     1
 68
     0
279
    -2
289
     1
 69
     0
  7
STANDARD
140
0.18
170
     5
 62
     0
 63
     7
283
     0
274
    -2
284
     1
 64
     0
275
    -2
285
     1
 65
     0
276
    -2
286
     1
 66
     0
277
    -2
287
     1
 67
     0
278
    -2
288
     1
 68
     0
279
    -2
289
     1
 69
     0
  0
VISUALSTYLE
  5
8161
102
{ACAD_XDICTIONARY
360
834E
102
}
102
{ACAD_REACTORS
330
815B
102
}
330
815B
100
AcDbVisualStyle
  2
2dWireframe
 70
     4
 71
     0
 72
     2
 73
     0
 90
        0
 40
-0.6
 41
-30.0
 62
     5
 63
     7
 74
     1
 91
        4
 64
     7
 65
   257
 75
     1
175
     1
 42
1.0
 92
        0
 66
   257
 43
1.0
 76
     1
 77
     6
 78
     2
 67
     7
 79
     5
170
     0
171
     0
290
     0
174
     0
 93
        1
 44
0.0
173
     0
291
     0
 45
0.0
1001
ACAD
1000
AcDbSavedByObjectVersion
1070
     0
  0
VISUALSTYLE
  5
8160
102
{ACAD_XDICTIONARY
360
834C
102
}
102
{ACAD_REACTORS
330
815B
102
}
330
815B
100
AcDbVisualStyle
  2
Basic
 70
     7
 71
     1
 72
     0
 73
     1
 90
        0
 40
-0.6
 41
-30.0
 62
     5
 63
     7
 74
     0
 91
        4
 64
     7
 65
   257
 75
     1
175
     1
 42
1.0
 92
        8
 66
     7
 43
1.0
 76
     1
 77
     6
 78
     2
 67
     7
 79
     5
170
     0
171
     0
290
     0
174
     0
 93
        1
 44
0.0
173
     0
291
     1
 45
0.0
1001
ACAD
1000
AcDbSavedByObjectVersion
1070
     0
  0
VISUALSTYLE
  5
8167
102
{ACAD_XDICTIONARY
360
835A
102
}
102
{ACAD_REACTORS
330
815B
102
}
330
815B
100
AcDbVisualStyle
  2
Brighten
 70
    12
 71
     2
 72
     2
 73
     0
 90
        0
 40
-0.6
 41
-30.0
 62
     5
 63
     7
 74
     1
 91
        4
 64
     7
 65
   257
 75
     1
175
     1
 42
1.0
 92
        8
 66
     7
 43
1.0
 76
     1
 77
     6
 78
     2
 67
     7
 79
     5
170
     0
171
     0
290
     0
174
     0
 93
        1
 44
50.0
173
     0
291
     1
 45
0.0
1001
ACAD
1000
AcDbSavedByObjectVersion
1070
     0
  0
VISUALSTYLE
  5
816B
102
{ACAD_XDICTIONARY
360
8362
102
}
102
{ACAD_REACTORS
330
815B
102
}
330
815B
100
AcDbVisualStyle
  2
ColorChange
 70
    16
 71
     2
 72
     2
 73
     3
 90
        0
 40
-0.6
 41
-30.0
 62
     5
 63
     8
 74
     1
 91
        4
 64
     7
 65
   257
 75
     1
175
     1
 42
1.0
 92
        8
 66
     8
 43
1.0
 76
     1
 77
     6
 78
     2
 67
     7
 79
     5
170
     0
171
     0
290
     0
174
     0
 93
        1
 44
0.0
173
     0
291
     1
 45
0.0
1001
ACAD
1000
AcDbSavedByObjectVersion
1070
     0
  0
VISUALSTYLE
  5
8164
102
{ACAD_XDICTIONARY
360
8354
102
}
102
{ACAD_REACTORS
330
815B
102
}
330
815B
100
AcDbVisualStyle
  2
Conceptual
 70
     9
 71
     3
 72
     2
 73
     0
 90
        0
 40
-0.6
 41
-30.0
 62
     5
 63
     7
 74
     2
 91
        2
 64
     7
 65
   257
 75
     1
175
     1
 42
179.0
 92
        8
 66
     7
 43
1.0
 76
     1
 77
     6
 78
     2
 67
     7
 79
     3
170
     0
171
     0
290
     0
174
     0
 93
        1
 44
0.0
173
     0
291
     0
 45
0.0
1001
ACAD
1000
AcDbSavedByObjectVersion
1070
     0
  0
VISUALSTYLE
  5
8166
102
{ACAD_XDICTIONARY
360
8358
102
}
102
{ACAD_REACTORS
330
815B
102
}
330
815B
100
AcDbVisualStyle
  2
Dim
 70
    11
 71
     2
 72
     2
 73
     0
 90
        0
 40
-0.6
 41
-30.0
 62
     5
 63
     7
 74
     1
 91
        4
 64
     7
 65
   257
 75
     1
175
     1
 42
1.0
 92
        8
 66
     7
 43
1.0
 76
     1
 77
     6
 78
     2
 67
     7
 79
     5
170
     0
171
     0
290
     0
174
     0
 93
        1
 44
-50.0
173
     0
291
     1
 45
0.0
1001
ACAD
1000
AcDbSavedByObjectVersion
1070
     0
  0
VISUALSTYLE
  5
8173
102
{ACAD_XDICTIONARY
360
8372
102
}
102
{ACAD_REACTORS
330
815B
102
}
330
815B
100
AcDbVisualStyle
  2
EdgeColorOff
 70
    22
 71
     2
 72
     2
 73
     0
 90
        0
 40
-0.6
 41
-30.0
 62
     5
 63
     7
 74
     1
 91
        4
 64
     7
 65
   257
 75
     1
175
     1
 42
1.0
 92
        8
 66
     7
 43
1.0
 76
     1
 77
     6
 78
     2
 67
     7
 79
     5
170
     0
171
     0
290
     0
174
     0
 93
        1
 44
0.0
173
     0
291
     1
 45
0.0
1001
ACAD
1000
AcDbSavedByObjectVersion
1070
     0
  0
VISUALSTYLE
  5
816A
102
{ACAD_XDICTIONARY
360
8360
102
}
102
{ACAD_REACTORS
330
815B
102
}
330
815B
100
AcDbVisualStyle
  2
Facepattern
 70
    15
 71
     2
 72
     2
 73
     0
 90
        0
 40
-0.6
 41
-30.0
 62
     5
 63
     7
 74
     1
 91
        4
 64
     7
 65
   257
 75
     1
175
     1
 42
1.0
 92
        8
 66
     7
 43
1.0
 76
     1
 77
     6
 78
     2
 67
     7
 79
     5
170
     0
171
     0
290
     0
174
     0
 93
        1
 44
0.0
173
     0
291
     1
 45
0.0
1001
ACAD
1000
AcDbSavedByObjectVersion
1070
     0
  0
VISUALSTYLE
  5
815C
102
{ACAD_XDICTIONARY
360
8344
102
}
102
{ACAD_REACTORS
330
815B
102
}
330
815B
100
AcDbVisualStyle
  2
Flat
 70
     0
 71
     2
 72
     1
 73
     1
 90
        2
 40
-0.6
 41
30.0
 62
     5
 63
     7
 74
     0
 91
        0
 64
     7
 65
   257
 75
     1
175
     1
 42
1.0
 92
        8
 66
     7
 43
1.0
 76
     1
 77
     6
 78
     2
 67
     7
 79
     5
170
     0
171
     0
290
     0
174
     0
 93
       13
 44
0.0
173
     0
291
     1
 45
0.0
1001
ACAD
1000
AcDbSavedByObjectVersion
1070
     0
  0
VISUALSTYLE
  5
815D
102
{ACAD_XDICTIONARY
360
8346
102
}
102
{ACAD_REACTORS
330
815B
102
}
330
815B
100
AcDbVisualStyle
  2
FlatWithEdges
 70
     1
 71
     2
 72
     1
 73
     1
 90
        2
 40
-0.6
 41
30.0
 62
     5
 63
     7
 74
     1
 91
        0
 64
     7
 65
   257
 75
     1
175
     1
 42
1.0
 92
        0
 66
   257
 43
1.0
 76
     1
 77
     6
 78
     2
 67
     7
 79
     5
170
     0
171
     0
290
     0
174
     0
 93
       13
 44
0.0
173
     0
291
     1
 45
0.0
1001
ACAD
1000
AcDbSavedByObjectVersion
1070
     0
  0
VISUALSTYLE
  5
815E
102
{ACAD_XDICTIONARY
360
8348
102
}
102
{ACAD_REACTORS
330
815B
102
}
330
815B
100
AcDbVisualStyle
  2
Gouraud
 70
     2
 71
     2
 72
     2
 73
     1
 90
        2
 40
-0.6
 41
30.0
 62
     5
 63
     7
 74
     0
 91
        0
 64
     7
 65
   257
 75
     1
175
     1
 42
1.0
 92
        0
 66
     7
 43
1.0
 76
     1
 77
     6
 78
     2
 67
     7
 79
     5
170
     0
171
     0
290
     0
174
     0
 93
       13
 44
0.0
173
     0
291
     1
 45
0.0
1001
ACAD
1000
AcDbSavedByObjectVersion
1070
     0
  0
VISUALSTYLE
  5
815F
102
{ACAD_XDICTIONARY
360
834A
102
}
102
{ACAD_REACTORS
330
815B
102
}
330
815B
100
AcDbVisualStyle
  2
GouraudWithEdges
 70
     3
 71
     2
 72
     2
 73
     1
 90
        2
 40
-0.6
 41
30.0
 62
     5
 63
     7
 74
     1
 91
        0
 64
     7
 65
   257
 75
     1
175
     1
 42
1.0
 92
        0
 66
   257
 43
1.0
 76
     1
 77
     6
 78
     2
 67
     7
 79
     5
170
     0
171
     0
290
     0
174
     0
 93
       13
 44
0.0
173
     0
291
     1
 45
0.0
1001
ACAD
1000
AcDbSavedByObjectVersion
1070
     0
  0
VISUALSTYLE
  5
8163
102
{ACAD_XDICTIONARY
360
8352
102
}
102
{ACAD_REACTORS
330
815B
102
}
330
815B
100
AcDbVisualStyle
  2
Hidden
 70
     6
 71
     1
 72
     2
 73
     2
 90
        0
 40
-0.6
 41
-30.0
 62
     5
 63
     7
 74
     2
 91
        2
 64
     7
 65
   257
 75
     2
175
     1
 42
40.0
 92
        0
 66
   257
 43
1.0
 76
     1
 77
     6
 78
     2
 67
     7
 79
     3
170
     0
171
     0
290
     0
174
     0
 93
        1
 44
0.0
173
     0
291
     0
 45
0.0
1001
ACAD
1000
AcDbSavedByObjectVersion
1070
     0
  0
VISUALSTYLE
  5
8171
102
{ACAD_XDICTIONARY
360
836E
102
}
102
{ACAD_REACTORS
330
815B
102
}
330
815B
100
AcDbVisualStyle
  2
JitterOff
 70
    20
 71
     2
 72
     2
 73
     0
 90
        0
 40
-0.6
 41
-30.0
 62
     5
 63
     7
 74
     1
 91
        4
 64
     7
 65
   257
 75
     1
175
     1
 42
1.0
 92
       10
 66
     7
 43
1.0
 76
     1
 77
     6
 78
     2
 67
     7
 79
     5
170
     0
171
     0
290
     0
174
     0
 93
        1
 44
0.0
173
     0
291
     1
 45
0.0
1001
ACAD
1000
AcDbSavedByObjectVersion
1070
     0
  0
VISUALSTYLE
  5
8169
102
{ACAD_XDICTIONARY
360
835E
102
}
102
{ACAD_REACTORS
330
815B
102
}
330
815B
100
AcDbVisualStyle
  2
Linepattern
 70
    14
 71
     2
 72
     2
 73
     0
 90
        0
 40
-0.6
 41
-30.0
 62
     5
 63
     7
 74
     1
 91
        4
 64
     7
 65
   257
 75
     7
175
     7
 42
1.0
 92
        8
 66
     7
 43
1.0
 76
     1
 77
     6
 78
     2
 67
     7
 79
     5
170
     0
171
     0
290
     0
174
     0
 93
        1
 44
0.0
173
     0
291
     1
 45
0.0
1001
ACAD
1000
AcDbSavedByObjectVersion
1070
     0
  0
VISUALSTYLE
  5
8172
102
{ACAD_XDICTIONARY
360
8370
102
}
102
{ACAD_REACTORS
330
815B
102
}
330
815B
100
AcDbVisualStyle
  2
OverhangOff
 70
    21
 71
     2
 72
     2
 73
     0
 90
        0
 40
-0.6
 41
-30.0
 62
     5
 63
     7
 74
     1
 91
        4
 64
     7
 65
   257
 75
     1
175
     1
 42
1.0
 92
        9
 66
     7
 43
1.0
 76
     1
 77
     6
 78
     2
 67
     7
 79
     5
170
     0
171
     0
290
     0
174
     0
 93
        1
 44
0.0
173
     0
291
     1
 45
0.0
1001
ACAD
1000
AcDbSavedByObjectVersion
1070
     0
  0
VISUALSTYLE
  5
8165
102
{ACAD_XDICTIONARY
360
8356
102
}
102
{ACAD_REACTORS
330
815B
102
}
330
815B
100
AcDbVisualStyle
  2
Realistic
 70
     8
 71
     2
 72
     3
 73
     0
 90
        2
 40
-0.6
 41
30.0
 62
     5
 63
     7
 74
     0
 91
        0
 64
     7
 65
   257
 75
     1
175
     1
 42
1.0
 92
        8
 66
   257
 43
1.0
 76
     1
 77
     6
 78
     2
 67
     7
 79
     3
170
     0
171
     0
290
     0
174
     0
 93
       13
 44
0.0
173
     0
291
     0
 45
0.0
1001
ACAD
1000
AcDbSavedByObjectVersion
1070
     0
  0
VISUALSTYLE
  5
8170
102
{ACAD_XDICTIONARY
360
836C
102
}
102
{ACAD_REACTORS
330
815B
102
}
330
815B
100
AcDbVisualStyle
  2
Shaded
 70
    27
 71
     2
 72
     2
 73
     1
 90
        2
 40
-0.6
 41
30.0
 62
     5
 63
     7
 74
     0
 91
        4
 64
     7
 65
   257
 75
     1
175
     1
 42
1.0
 92
        8
 66
   257
 43
1.0
 76
     1
 77
     6
 78
     2
 67
     8
 79
     3
170
     0
171
     0
290
     0
174
     0
 93
        5
 44
0.0
173
     0
291
     0
 45
0.0
1001
ACAD
1000
AcDbSavedByObjectVersion
1070
     0
  0
VISUALSTYLE
  5
816F
102
{ACAD_XDICTIONARY
360
836A
102
}
102
{ACAD_REACTORS
330
815B
102
}
330
815B
100
AcDbVisualStyle
  2
Shaded with edges
 70
    26
 71
     2
 72
     2
 73
     1
 90
        2
 40
-0.6
 41
30.0
 62
     5
 63
     7
 74
     1
 91
       10
 64
     7
 65
   257
 75
     2
175
     1
 42
1.0
 92
        8
 66
   257
 43
1.0
 76
     1
 77
     6
 78
     2
 67
     7
 79
     3
170
     0
171
     0
290
     0
174
     0
 93
        5
 44
0.0
173
     0
291
     0
 45
0.0
1001
ACAD
1000
AcDbSavedByObjectVersion
1070
     0
  0
VISUALSTYLE
  5
816C
102
{ACAD_XDICTIONARY
360
8364
102
}
102
{ACAD_REACTORS
330
815B
102
}
330
815B
100
AcDbVisualStyle
  2
Shades of Gray
 70
    23
 71
     2
 72
     2
 73
     3
 90
        0
 40
-0.6
 41
-30.0
 62
     5
 63
     7
 74
     2
 91
        2
 64
     7
 65
     7
 75
     1
175
     1
 42
40.0
 92
        8
 66
     7
 43
1.0
 76
     1
 77
     6
 78
     2
 67
     7
 79
     3
170
     0
171
     0
290
     0
174
     0
 93
        1
 44
0.0
173
     0
291
     0
 45
0.0
1001
ACAD
1000
AcDbSavedByObjectVersion
1070
     0
  0
VISUALSTYLE
  5
816D
102
{ACAD_XDICTIONARY
360
8366
102
}
102
{ACAD_REACTORS
330
815B
102
}
330
815B
100
AcDbVisualStyle
  2
Sketchy
 70
    24
 71
     1
 72
     2
 73
     2
 90
        0
 40
-0.6
 41
-30.0
 62
     5
 63
     7
 74
     2
 91
        2
 64
     7
 65
     7
 75
     1
175
     1
 42
40.0
 92
       11
 66
     7
 43
1.0
 76
     1
 77
     6
 78
     2
 67
     7
 79
     6
170
     0
171
     0
290
     0
174
     0
 93
        1
 44
0.0
173
     0
291
     0
 45
0.0
1001
ACAD
1000
AcDbSavedByObjectVersion
1070
     0
  0
VISUALSTYLE
  5
8168
102
{ACAD_XDICTIONARY
360
835C
102
}
102
{ACAD_REACTORS
330
815B
102
}
330
815B
100
AcDbVisualStyle
  2
Thicken
 70
    13
 71
     2
 72
     2
 73
     0
 90
        0
 40
-0.6
 41
-30.0
 62
     5
 63
     7
 74
     1
 91
        4
 64
     7
 65
   257
 75
     1
175
     1
 42
1.0
 92
       12
 66
     7
 43
1.0
 76
     1
 77
     6
 78
     2
 67
     7
 79
     5
170
     0
171
     0
290
     0
174
     0
 93
        1
 44
0.0
173
     0
291
     1
 45
0.0
1001
ACAD
1000
AcDbSavedByObjectVersion
1070
     0
  0
VISUALSTYLE
  5
8162
102
{ACAD_XDICTIONARY
360
8350
102
}
102
{ACAD_REACTORS
330
815B
102
}
330
815B
100
AcDbVisualStyle
  2
Wireframe
 70
     5
 71
     0
 72
     2
 73
     0
 90
        0
 40
-0.6
 41
-30.0
 62
     5
 63
     7
 74
     1
 91
        4
 64
     7
 65
   257
 75
     1
175
     1
 42
1.0
 92
        0
 66
   257
 43
1.0
 76
     1
 77
     6
 78
     2
 67
     7
 79
     3
170
     0
171
     0
290
     0
174
     0
 93
        1
 44
0.0
173
     0
291
     0
 45
0.0
1001
ACAD
1000
AcDbSavedByObjectVersion
1070
     0
  0
VISUALSTYLE
  5
816E
102
{ACAD_XDICTIONARY
360
8368
102
}
102
{ACAD_REACTORS
330
815B
102
}
330
815B
100
AcDbVisualStyle
  2
X-Ray
 70
    25
 71
     2
 72
     2
 73
     1
 90
        1
 40
0.5
 41
-30.0
 62
     5
 63
     7
 74
     1
 91
        0
 64
     7
 65
   257
 75
     1
175
     1
 42
1.0
 92
        8
 66
     7
 43
1.0
 76
     1
 77
     6
 78
     2
 67
     7
 79
     3
170
     0
171
     0
290
     0
174
     0
 93
       13
 44
0.0
173
     0
291
     0
 45
0.0
1001
ACAD
1000
AcDbSavedByObjectVersion
1070
     0
  0
DICTIONARYVAR
  5
8228
102
{ACAD_REACTORS
330
8223
102
}
330
8223
100
DictionaryVariables
280
     0
  1
1:1
  0
DICTIONARYVAR
  5
8225
102
{ACAD_REACTORS
330
8223
102
}
330
8223
100
DictionaryVariables
280
     0
  1
STANDARD
  0
DICTIONARYVAR
  5
8224
102
{ACAD_REACTORS
330
8223
102
}
330
8223
100
DictionaryVariables
280
     0
  1
STANDARD
  0
DICTIONARYVAR
  5
8226
102
{ACAD_REACTORS
330
8223
102
}
330
8223
100
DictionaryVariables
280
     0
  1
Imperial24
  0
DICTIONARYVAR
  5
8227
102
{ACAD_REACTORS
330
8223
102
}
330
8223
100
DictionaryVariables
280
     0
  1
Imperial24
  0
DICTIONARYVAR
  5
822B
102
{ACAD_REACTORS
330
8223
102
}
330
8223
100
DictionaryVariables
280
     0
  1
1
  0
DICTIONARYVAR
  5
822A
102
{ACAD_REACTORS
330
8223
102
}
330
8223
100
DictionaryVariables
280
     0
  1
0
  0
DICTIONARYVAR
  5
8229
102
{ACAD_REACTORS
330
8223
102
}
330
8223
100
DictionaryVariables
280
     0
  1
127
  0
DICTIONARYVAR
  5
822C
102
{ACAD_REACTORS
330
8223
102
}
330
8223
100
DictionaryVariables
280
     0
  1
2
  0
DICTIONARY
  5
8378
330
819C
100
AcDbDictionary
280
     1
281
     1
  3
ACAD_XREC_ROUNDTRIP
360
8379
  0
DICTIONARY
  5
837C
330
81A4
100
AcDbDictionary
280
     1
281
     1
  3
ACAD_XREC_ROUNDTRIP
360
837D
  0
DICTIONARY
  5
837A
330
81A0
100
AcDbDictionary
280
     1
281
     1
  3
ACAD_XREC_ROUNDTRIP
360
837B
  0
DICTIONARY
  5
814C
330
814B
100
AcDbDictionary
280
     1
281
     1
  3
ACAD_XREC_ROUNDTRIP
360
8342
  3
BUMPTILE
360
814E
  3
DIFFUSETILE
360
814D
  3
OPACITYTILE
360
8151
  3
REFLECTIONTILE
360
8150
  3
REFRACTIONTILE
360
8152
  3
SPECULARTILE
360
814F
  0
DICTIONARY
  5
8144
330
8143
100
AcDbDictionary
280
     1
281
     1
  3
ACAD_XREC_ROUNDTRIP
360
8341
  3
BUMPTILE
360
8146
  3
DIFFUSETILE
360
8145
  3
OPACITYTILE
360
8149
  3
REFLECTIONTILE
360
8148
  3
REFRACTIONTILE
360
814A
  3
SPECULARTILE
360
8147
  0
DICTIONARY
  5
8154
330
8153
100
AcDbDictionary
280
     1
281
     1
  3
ACAD_XREC_ROUNDTRIP
360
8343
  3
BUMPTILE
360
8156
  3
DIFFUSETILE
360
8155
  3
FBXASSET
360
8288
  3
OPACITYTILE
360
8159
  3
REFLECTIONTILE
360
8158
  3
REFRACTIONTILE
360
815A
  3
SPECULARTILE
360
8157
  0
DICTIONARY
  5
8376
330
819A
100
AcDbDictionary
280
     1
281
     1
  3
ACAD_XREC_ROUNDTRIP
360
8377
  0
DICTIONARY
  5
833D
330
8196
100
AcDbDictionary
280
     1
281
     1
  3
ACAD_ROUNDTRIP_2008_TABLESTYLE_CELLSTYLEMAP
360
833E
  3
ACAD_XREC_ROUNDTRIP
360
8374
  0
DICTIONARY
  5
834E
330
8161
100
AcDbDictionary
280
     1
281
     1
  3
ACAD_XREC_ROUNDTRIP
360
834F
  0
DICTIONARY
  5
834C
330
8160
100
AcDbDictionary
280
     1
281
     1
  3
ACAD_XREC_ROUNDTRIP
360
834D
  0
DICTIONARY
  5
835A
330
8167
100
AcDbDictionary
280
     1
281
     1
  3
ACAD_XREC_ROUNDTRIP
360
835B
  0
DICTIONARY
  5
8362
330
816B
100
AcDbDictionary
280
     1
281
     1
  3
ACAD_XREC_ROUNDTRIP
360
8363
  0
DICTIONARY
  5
8354
330
8164
100
AcDbDictionary
280
     1
281
     1
  3
ACAD_XREC_ROUNDTRIP
360
8355
  0
DICTIONARY
  5
8358
330
8166
100
AcDbDictionary
280
     1
281
     1
  3
ACAD_XREC_ROUNDTRIP
360
8359
  0
DICTIONARY
  5
8372
330
8173
100
AcDbDictionary
280
     1
281
     1
  3
ACAD_XREC_ROUNDTRIP
360
8373
  0
DICTIONARY
  5
8360
330
816A
100
AcDbDictionary
280
     1
281
     1
  3
ACAD_XREC_ROUNDTRIP
360
8361
  0
DICTIONARY
  5
8344
330
815C
100
AcDbDictionary
280
     1
281
     1
  3
ACAD_XREC_ROUNDTRIP
360
8345
  0
DICTIONARY
  5
8346
330
815D
100
AcDbDictionary
280
     1
281
     1
  3
ACAD_XREC_ROUNDTRIP
360
8347
  0
DICTIONARY
  5
8348
330
815E
100
AcDbDictionary
280
     1
281
     1
  3
ACAD_XREC_ROUNDTRIP
360
8349
  0
DICTIONARY
  5
834A
330
815F
100
AcDbDictionary
280
     1
281
     1
  3
ACAD_XREC_ROUNDTRIP
360
834B
  0
DICTIONARY
  5
8352
330
8163
100
AcDbDictionary
280
     1
281
     1
  3
ACAD_XREC_ROUNDTRIP
360
8353
  0
DICTIONARY
  5
836E
330
8171
100
AcDbDictionary
280
     1
281
     1
  3
ACAD_XREC_ROUNDTRIP
360
836F
  0
DICTIONARY
  5
835E
330
8169
100
AcDbDictionary
280
     1
281
     1
  3
ACAD_XREC_ROUNDTRIP
360
835F
  0
DICTIONARY
  5
8370
330
8172
100
AcDbDictionary
280
     1
281
     1
  3
ACAD_XREC_ROUNDTRIP
360
8371
  0
DICTIONARY
  5
8356
330
8165
100
AcDbDictionary
280
     1
281
     1
  3
ACAD_XREC_ROUNDTRIP
360
8357
  0
DICTIONARY
  5
836C
330
8170
100
AcDbDictionary
280
     1
281
     1
  3
ACAD_XREC_ROUNDTRIP
360
836D
  0
DICTIONARY
  5
836A
330
816F
100
AcDbDictionary
280
     1
281
     1
  3
ACAD_XREC_ROUNDTRIP
360
836B
  0
DICTIONARY
  5
8364
330
816C
100
AcDbDictionary
280
     1
281
     1
  3
ACAD_XREC_ROUNDTRIP
360
8365
  0
DICTIONARY
  5
8366
330
816D
100
AcDbDictionary
280
     1
281
     1
  3
ACAD_XREC_ROUNDTRIP
360
8367
  0
DICTIONARY
  5
835C
330
8168
100
AcDbDictionary
280
     1
281
     1
  3
ACAD_XREC_ROUNDTRIP
360
835D
  0
DICTIONARY
  5
8350
330
8162
100
AcDbDictionary
280
     1
281
     1
  3
ACAD_XREC_ROUNDTRIP
360
8351
  0
DICTIONARY
  5
8368
330
816E
100
AcDbDictionary
280
     1
281
     1
  3
ACAD_XREC_ROUNDTRIP
360
8369
  0
XRECORD
  5
8379
102
{ACAD_REACTORS
330
8378
102
}
330
8378
100
AcDbXrecord
280
     1
102
DISPLAYNAME
  1
Imperial24
102
FLAGS
 90
        0
  0
XRECORD
  5
837D
102
{ACAD_REACTORS
330
837C
102
}
330
837C
100
AcDbXrecord
280
     1
102
SHADEPLOT
 70
     0
102
SHADEPLOTRESLEVEL
 70
     2
102
SHADEPLOTCUSTOMDPI
 70
   300
  0
XRECORD
  5
837B
102
{ACAD_REACTORS
330
837A
102
}
330
837A
100
AcDbXrecord
280
     1
102
SHADEPLOT
 70
     0
102
SHADEPLOTRESLEVEL
 70
     2
102
SHADEPLOTCUSTOMDPI
 70
   300
  0
XRECORD
  5
8342
102
{ACAD_REACTORS
330
814C
102
}
330
814C
100
AcDbXrecord
280
     1
102
MATERIAL
148
0.0
149
0.0
149
0.0
 93
        0
 94
      127
282
     0
 72
     0
 77
     0
171
     0
175
     0
179
     0
273
     0
  0
XRECORD
  5
814E
102
{ACAD_REACTORS
330
814C
102
}
330
814C
100
AcDbXrecord
280
     1
270
     1
271
     1
  0
XRECORD
  5
814D
102
{ACAD_REACTORS
330
814C
102
}
330
814C
100
AcDbXrecord
280
     1
270
     1
271
     1
  0
XRECORD
  5
8151
102
{ACAD_REACTORS
330
814C
102
}
330
814C
100
AcDbXrecord
280
     1
270
     1
271
     1
  0
XRECORD
  5
8150
102
{ACAD_REACTORS
330
814C
102
}
330
814C
100
AcDbXrecord
280
     1
270
     1
271
     1
  0
XRECORD
  5
8152
102
{ACAD_REACTORS
330
814C
102
}
330
814C
100
AcDbXrecord
280
     1
270
     1
271
     1
  0
XRECORD
  5
814F
102
{ACAD_REACTORS
330
814C
102
}
330
814C
100
AcDbXrecord
280
     1
270
     1
271
     1
  0
XRECORD
  5
8341
102
{ACAD_REACTORS
330
8144
102
}
330
8144
100
AcDbXrecord
280
     1
102
MATERIAL
148
0.0
149
0.0
149
0.0
 93
        0
 94
      127
282
     0
 72
     0
 77
     0
171
     0
175
     0
179
     0
273
     0
  0
XRECORD
  5
8146
102
{ACAD_REACTORS
330
8144
102
}
330
8144
100
AcDbXrecord
280
     1
270
     1
271
     1
  0
XRECORD
  5
8145
102
{ACAD_REACTORS
330
8144
102
}
330
8144
100
AcDbXrecord
280
     1
270
     1
271
     1
  0
XRECORD
  5
8149
102
{ACAD_REACTORS
330
8144
102
}
330
8144
100
AcDbXrecord
280
     1
270
     1
271
     1
  0
XRECORD
  5
8148
102
{ACAD_REACTORS
330
8144
102
}
330
8144
100
AcDbXrecord
280
     1
270
     1
271
     1
  0
XRECORD
  5
814A
102
{ACAD_REACTORS
330
8144
102
}
330
8144
100
AcDbXrecord
280
     1
270
     1
271
     1
  0
XRECORD
  5
8147
102
{ACAD_REACTORS
330
8144
102
}
330
8144
100
AcDbXrecord
280
     1
270
     1
271
     1
  0
XRECORD
  5
8343
102
{ACAD_REACTORS
330
8154
102
}
330
8154
100
AcDbXrecord
280
     1
102
MATERIAL
148
0.0
149
0.0
149
0.0
 93
        0
 94
      127
282
     0
 72
     0
 77
     0
171
     0
175
     0
179
     0
273
     0
  0
XRECORD
  5
8156
102
{ACAD_REACTORS
330
8154
102
}
330
8154
100
AcDbXrecord
280
     1
270
     1
271
     1
  0
XRECORD
  5
8155
102
{ACAD_REACTORS
330
8154
102
}
330
8154
100
AcDbXrecord
280
     1
270
     1
271
     1
  0
XRECORD
  5
8288
102
{ACAD_REACTORS
330
8154
102
}
330
8154
100
AcDbXrecord
280
     1
 70
     1
 90
1959938040
 71
     1
  1
9E4C8DC4-2712-4C1C-9732-D06B468FA244
311
504B0304140006080800167D6E57595CA159DA000000200100004F00000030333546393132312D444644412D343444412D393244442D4639454432434443303146342F4173736574446174612F446566696E6974696F6E4974657261746F7250726F706572746965732E62696E454E3D6FC23010351D8A183AF41F2076E3C4
311
31A489804AC651A77681A90B3A9C83467212142752C78EFDD7AD4FA5E2A477EF3EDFDD3763ECE76A2164A380AFE01F02BF60835D6577F6036B60F75471ED11DCF8D6BB0B21A5064F30B89EB65E2B6FD13968B01DFCE36D745A431FE4C0CD696912F05FF0A470FE3B46F7DF02E82562282FF933788FFD5A9C8E9F4217E9B2D8
311
26194F8CCEB84A33C3752A973C7A3246176A9BC9548B0E7D3B7416BD90223A5C950F97E65C959B555FD5386DA0C6F5CC76187E2A671B19C984C7318FD53E5EE42ACAD5E27D2568F217504B0304140006080800167D6E572443F501F9000000300200004500000030333546393132312D444644412D343444412D393244442D
311
4639454432434443303146342F4173736574446174612F496E7374616E636550726F706572746965732E62696EEB606060F80F0540260323103700495E20ED9E9A975A94991C9C9C919A9BA80214B0743571B6707136D135323734D235713674D6B5343736D2753130733231B37073343231614768046931363471713532B5
311
D435353131D635313332D475727372D13534373670367376B67474B5042A03DBCBA019D37FE8ABC6157B20CD04146B0062181F4C03F940F0C11EA29A8141C08141002C0426541C106CAC2CA046088033B02A030AC2157C6006F21A8018AAF50194E6010A610250382264E08660284CD9E98021862280A91564B406929A0FF6
311
2C401E28B6F88038B83CB1243943D7A928312F2535052403036C6C6CFCA2A2A2A67272725ED4C000504B0304140006080800167D6E5728BB58AF800100009E0500003D00000030333546393132312D444644412D343444412D393244442D4639454432434443303146342F536368656D61732F436F6D6D6F6E536368656D61
311
2E786D6CBD544D4FC23018BEFB2B96DE15493C78601010A34B880709DEDFB52FD0D8B54BD70DF6EFED3AC0B12E6442E2716BFB3CEFF3D18E26FB440405EA8C2B1992E1C323095052C5B8DC842437EBFB673219DF8DA659866649B798C078B48AE6410122242F2A4994AC7F93815DF85C049C8564CA0A901499DD886B2EB9B1
311
E02448F358701A9235880C49A0119892A20C89D1B9FD768815CAD268CB5E0355B40B1E47F3E37A2020464BED06AA57CE8FCC20C3C3446D46761A2632A8C1283D07031EFF2AE7CCB1BFEEE916E406DFAC8E36FFD99A9D60A6944090EEDC3B670C7DC13DE86B6B2C5C240D6E503BB85ACD579D513F1B9F9A69DC9CC22AFA80C4
311
26D40AF0B21EA168559156B6276F0F726A6BFF04DCD513A87A62CAD41FB24FCB2858B3952E3D852084DA25B9303C15687973CC8E8AAE11DF2836C38C6A9E765E8C1BA1BFB1DC29CDFE518C8B5A7655A4ED7E77291ABEB80DBD82EC866ADE1B8D05AF9E35CF09D7A061F38A986D9EC412B8F0F65E5D81534D9B231D1E5A8FE5
311
77A241F3A5FD01504B0304140006080800167D6E572CCEBD668A040000E01200003E00000030333546393132312D444644412D343444412D393244442D4639454432434443303146342F536368656D61732F47656E65726963536368656D612E786D6CD5586D6FDB380CFE7EBF42F0F7A649B70E1B90744856B4970F450FCD
311
7A5F05459613EDE4174872DADCAF3F522F8ED3B88D2F1D06AC4050DBA2493EE4438AF2F8EB73AEC8466823CB62928C06C384888297A92C5693A4B6D9D9E7E4EBD51FE3A931C22EF85AE4EC6AFC38BF261BA626C9AD288496DC3F4FCEAFC63366845F7A10452AF41DB320C0D44EC26EAB20918735565582695670811A6A4964
311
3A49A6E9069FA4604A64B29016DC4B48552F95E4932463CA888468C1D2B250DB4962750DF7CE273069CE8363F1FF4EDB00E0A21999574AE4A2B00C353B93F3BD4777B8A61ED8F604ABFEDD79CE56A2B7BDFBDBC50996E0ADDE16FED26223C5D30956C29BDF4A55EA686E5E58B112DA45CE67F76F4FA27EFA3FB672FD7372FC
311
388FAECDCA5209E693CAD167BADCD272F943701B3812F8A3D852008B1D2E32DB927B2F833C6EA95879925356D254582695095A3CE982924720BE5774A3CB9CDCDB350427D2DF20DA1B5532EBE2D5D6288D75D4F7E4FD9890A0EF8E3D93EBB8F8BA4758158EF6FB90A6F9520281C93DE7AAC6D24607DA296BB96018123F821A
311
7D6A5C5884050C475DA4865442732C8B95684A50165CBB3A32F25F783A4A480ED59AD7F924B968AEA50131F46303223E6A397B0E52976030DC1DCA81D7E7C1EDEEA42C19FF27635C505E2BD5198A599020DF50A2330FCB3AAF28CB0124108429553EF1B228802E2265D8F7CC2401042B155BCC7070F1E5C55F13B4A9577362
311
CCCE46C32174E010C3C378C44841A4BDA00FE3A12006CE11EE6AEC59894D3526DDE1CD59D503ECC324017F8061B7F162162FA62EDD81AE3308617770796DCBDAD2B2625C5AE8A63DE20B2C8AA5E95E76E5730823955956E33E705425A2187C185D36489A1B44D3DCEC2172F6BA2105C3546287A7194B2331768EBBE64F6E70
311
A9930ABE0ADEA89E9E2C38523B810287AD67A54A039C1606EAFE68F8304610BB9093DBDDABC0B2AE4E290DCDA15376D7E39F72B556F0B32EAB5D3D498B4C41ABADEC3A1434C422D87E8025A84BDCB2B1417ED750FAE4DA8976863974C577C7F902D3F156AD354DEA3540DE6BEAE2BEA52F7A2EB4CA43802ECE5BF2CE2EDC93
311
47179FFB023CE412E60BE16DA0BE29B374988A553F561DC04615DD35F7D2C8979F60E5955CE93DF29DED8AFA1EE6642D53418086C03C47C377910F75F7E8F5EF665F70B60FFB22AEDF897D119E8423C773E819A3C1E55E550599EE6EDCA34D0C86FD72057DF2CD46F16A470682471C164E4346D5306BF12D7D12D82CFF673D
311
41636C347443FEB51B50D72EA171A8E4A58623A4A16E0FA2B8B10A0D23268D87C33896EE8FB73305A74BF224EDBADFA0BD674AB354D63DB7BD5D83426761C077DE767728235446A552754EB93B755891C3C4CC6CADE37CF0E912A7BB38DBA010F9DE1282EDF470CA69A9CDA482E334C4A6EA4107987980B17E72F31730EBF8
311
8BBD39E7C629F56797A3C0009C2C5AE7951D9A05A02773440F02EEB4DE396A3B6A570C72CCFBCD823B0B8ED3F1D5CEDDFED772FA70236C83FB7D86C385D570B87107535572A60A96035F8F7C6A7192F13007246BBE0521855E6AC46F3E27689CEE7D186A6FD679D98CDCAD13333E04EBE7ED6F55FF01504B03041400060808
311
00167D6E576180134D5F0100006B0300004500000030333546393132312D444644412D343444412D393244442D4639454432434443303146342F536368656D61732F52656E6465724D6174657269616C536368656D612E786D6CA5934D6FC2300C86EFFB1551EEE343DBA41D1A103009551ADAD40EAE28A4A68D9426284961
311
FCFBE5A340113B2071746D3F765EBF4DC6BFB5407BD0862B49F0B037C0082453059725C18DDD3EBFE3F1E829991803366715D474942CD30FB4A782E00C64017A412D684E454CE3FE28995203B162A6EA5AC94B66997D225E109CD63B0135484BAD1B3C07E9080CA35DB3119C11BCA5C200461A68A1A438126C75E3E230D40F
311
F81FB3F03C91D1E3A3A0AF79FE28E25BC39EC3E17E4C2A2D94A0833A51AF55BCCA7D88572FCBAC529C4140B020FC3AAFA886621DCED7EAD7664CC86024E806DC297DA1BB393E4156543457A4537DB8817349A70F8ACBF09B3EEE2CB2F33E91B65D60786E4E3B39B77E3FEEEF5650424525DA657FB8B46BE6BF064646F0A0F7
311
327C0BC1BC1B4CBBC1C419FA3CCB23500007872A2580CAAE5461865565294E4EDB4617B62FF579DF9A5B2F54E834076A597573A020912FED777F9B3F504B0304140006080800167D6E57DFF657C051000000570000004700000030333546393132312D444644412D343444412D393244442D4639454432434443303146342F
311
4173736574446174612F41737365745461626C654F66436F6E74656E74732E62696E53616060B0743571B6707136D135323734D235713674D6B5343736D2753130733231B370733432311102AACB4D2C492DCA4CCC492C28484D2C4ACC4B4E050A82012F90744FCD03CA26072767A4E6260200504B0304140006080800167D
311
6E57F865834058000000680000004500000030333546393132312D444644412D343444412D393244442D4639454432434443303146342F4173736574446174612F53747265616D56657273696F6E5461626C652E696E66558CBD0A80300C06F73E4B117FB66E451741D041DC5BF98480A492E4FDD18EAEC7DD4555D89EF28D
311
F51A0B1BD8340C4DE7DD848B988C0ACF0649566493F2408C508DDEBB99D5129FF8F1AF8CF5B9503E20FAE5A16B5AF702504B0304140006080800167D6E576BA5DCE7350100009A0400003600000030333546393132312D444644412D343444412D393244442D4639454432434443303146342F4173736574446174612F636E
311
782E786D6CCD94314FC3301085FF4AE43D76525209558E2B044B2790A818D8AECEA5B5EAD8917D41F0EFB1DB0CA022A60E5DCFEFCECF9FFC4EAE3F075B7C6088C6BB96D5BC62053AED3BE3F62D9BA82FEF59B15632784F3F64AC703060CB729929B90F7E1AE752873D4C3657AD71C7B9F81023D21676169FFB47EF081D4556
311
680B31B62CEA030EC06122DF613CF20E0878CD03463F058D69129901E7493A2010764C2DAAC55D59D765DD6CEBE5AAA956CDF25D8AAC5472E7BD9DF5265D16FC58E8F3AD4C5552E46325A760664D7E0B537F79E43BE3A4484A252385C464EEA0AF3175C0385AA381123AE13521954984304871162B2932835F249EB037CEE4
311
964D3206E4C34BB287810CDE1C91FFBC5E9FCCC64502A7F176795C3ABC3E85D7D30F7A3B07F294985BCBC9A5436E5C7F859488D31A49A1C95B457D03504B0304140006080800167D6E57104BFFF2090100004F0300003400000030333546393132312D444644412D343444412D393244442D4639454432434443303146342F
311
536368656D61732F636E782E786D6CCD93316FC3201085FF0A6237B65347AA224C860E9DBAB49DBA517C495030671D50B5FFBEE0322452B776C8068F4FE8BDC721F79FB3631F40C1A21F792F3ACEC01B9CAC3F8E3CC54373CFD95E49428C1718675ECF30F22273258F8469A9D204079D5C519DF5E72A3EE03CA37F31279835
311
67C6E910461ED6ADD029E204E12C261DB5E80541C04406F20DD1CE506F30043AC2C4D5A6DBDC357DDFF4C36BBFDD0DDD6ED8BEC9B6904ABE23BACA5B1F81706106F3C2673B9D6CCBB192896C654A06AE2EBD89DC866C33A16488943BA864FC5A32A997C559A363AEAA5DC11F46C9B644BD0AFC081EC89ADB4C7C65EEDF223F
311
839F809EF22B91D5EE3693FFE6F16F05B4EBECE711285F417D03504B0304140006080800167D6E57410A3D5871000000A40000002C00000030333546393132312D444644412D343444412D393244442D4639454432434443303146342F636E782E786D6C55CC4D0E82301086E1AB34B31774E7A22D31F1069E60020334B633
311
A63FC6E34B0909B07DDE2F9FEE7EC1AB2FC5E4840DDC9A2B28E25E06C7938192C7CB1D54677514C9871928C640062A83D55394F2D968A0118BAFEA1DBF377CA444F98919176EAB9FEAAB9F2960DA5BBB1E2ED3FA6FFF504B0304140006080800167D6E5708EFA5267D000000A300000007000000636E782E786D6C4D8CD10A
311
C22018855F45FE7B4BCD20411DB13FDF633437A44DC366F4F869ECA29BF3C1C73947779F75216F9F5F214503FCC080F8784F6388B381B24DF402A4B33AA7B4FDD580C461F5069A06ABE79CCA7357A39F86B234BB84F8D8253B9D9DE282537478A552D65002913A7543D163CFB89375716C938ADF5F65BBB75F504B03041400
311
06080800167D6E5716E99B5DA600000035010000130000005B436F6E74656E745F54797065735D2E786D6C9590410E82301045AFD2740F4517C6180A0BF5065E60AC53688469D30E066F6F91AD9AB89CF9FFFD3F99BA9DC7413C3026E749CB4D59498164FCCD51A7E5C4B6D84BD136F5E5193089ECA5A465CF1C0E4A25D3E3
311
08A9F401292BD6C711388FB15301CC1D3A54DBAADA29E38991B8E0254336F5092D4C038BF39CD76B6FC6A538AEBEA54A4B08617006389FA516557DE4AE8E7E70DE30729138228C5F021CD93F02D4FB0DCD0B504B0304140006080800167D6E573DEE336E64000000790000001B0000006175746F6465736B2D64657369676E
311
2D7061636B6167652E786D6C35CBC10E83200C00D05F21DCA56CA76D41FC96062B120735B69A7DBE268BB7777961F8D5AF396893C2ADB70FE7ADA196782C2DF776D7A97B5933C430F15651E5469C55D70F80A4992A3ADC954792C525AE70A1E4D6AD9816CC044FEFDF01FE3FDE907802504B0304140006080800167D6E57F4
311
7FB591F7000000960100003700000030333546393132312D444644412D343444412D393244442D4639454432434443303146342F4173736574446174612F636F72652E786D6C8550CB6E833010FC15B47703062341641C119A7E414FBD59B643AD041BF951F5F36B072AB5A79E76353B3BB33BF4FCB53E8A4FE5BCB666045C
311
D6502823ACD4661921861BEAA13833EAAC0DBF685018BEAA11320C8C2ECEC6ED80843541998C1A2BD50172EF5580423C523382171F6AE5258F2131FCBDDCB8B8F34595B8DC798CC6A8E5B1AA6552D337AD1CB0A99FAEF52B9ED165263322ED90BA69B8A2B6199AB9BDCC3DA93B5AE56546835E7FDC85533C2809ACA99B1661
311
8C3079C3DD89D427D2BDD32A3319F5C1A59F0FD3FC5DB2CB57BFF0C069B54FFFA8C64DFEAF1AB5096D73A8EE1B1E184E473E078C5639A5549E11A69A1365DF504B0304140006080800167D6E57A44E48E9F6000000940100003500000030333546393132312D444644412D343444412D393244442D46394544324344433031
311
46342F536368656D61732F636F72652E786D6C8550CB6E833010FC15B47703062341641C1194FE407BEACDB21D6A25D8C88FAA9F5F3B50A93DF5B4ABD999D9DDA1E7AFF5517C2AE7B53523E0B286421961A536CB0831DC500FC59951676DF84583C2F0558D9061607471366E0724AC09CA64D458A90E907BAF0214E2919A11
311
BCF8502B2F790C89E1EFE5C6C59D2FAAC4E5CE6334462D0FA996C94DDFB472C0A67EBAD62F78469799CC88B443EAA6E18ADA6668E6F632F7A4EE6895C58C06BDFE6C174EF1A024B0A66E5A8431C2E40D7727529F48F74EABCC64D407977E3E96E6EF80BD3EEFF4B4DA677F3CE326FFF78CDA84B6393C77850786D389CF01A3
311
55CE28956780A9E63CD937504B0304140006080800167D6E579909DF6700010000D70100002D00000030333546393132312D444644412D343444412D393244442D4639454432434443303146342F636F72652E786D6C95914D6EC3201085AF62CDDE3F602C351126AAE2FA045D754761E2A0C46001AE7AFC42EDAAEDAEDD00
311
7A7C6FE0CDF0D3FB7C2FDED007E36C0FA46AA040AB9C3676EA618D97F2018A93E0DEB9F80383C2CA197BC832083E79B72EBBA49C8D68B36A9DC65D9421608442DDD3A187A0AE38CB4AAE3111E1562D52DDE48415A9364EF068E62FABF228236A10B4A16D494849D833E98EAC39B2EE85D799147C3536B6747F0CE757D4855B
311
628A04A2E3F5769BA8D5E89D313AFDD15C0C7A104DDB8D074249398CC363C9585A0E7418CAF1F034D0F3706EC8C8529164163C449F3AB317C93DF8AB7D33FE4AB62EFA9FC936470041BE43D5B9CD82D79F33487B1E89F800504B0304140006080800167D6E578D959A2206010000B201000008000000636F72652E786D6C8D
311
50C16E842010FD153277141413DD201BD76CBFA0A7DEA8B096AC8211DCB47F5F586DD2DE7A9AC97B6FE6BD197EFE9C27F4D0AB37CEB640330248DBC12963C716B670C335A0B3E0AB73E1970C9095B36E21C120F8B8BA6D39A0C1D9A06D42AD53FA00A5F73A001AA6D8B4E0870F3DCB4C6E212AFC3D5BE47097A3CE68B6EB04
311
0F66FE191D562D8356200A529498524CD92BAD4E8C9C58F5C6F3A4147CDB8C3AAC8C8AEEE666F40AA2ABBB2B79A13DBEF4ACC7AC6C62D735575C164DD19797BE66A4E2791A16DC8735DE7C2C893903F2F2917C79BE5382BF3B371D82184A2167A72F1084E789F8137A5BD43F421B1BCAE258B84F781034067A12D1387D3096
311
E77B634DDF16DF504B01021400140006080800167D6E57595CA159DA000000200100004F000000000000000000000000000000000030333546393132312D444644412D343444412D393244442D4639454432434443303146342F4173736574446174612F446566696E6974696F6E4974657261746F7250726F706572746965
311
732E62696E504B01021400140006080800167D6E572443F501F90000003002000045000000000000000000000000004701000030333546393132312D444644412D343444412D393244442D4639454432434443303146342F4173736574446174612F496E7374616E636550726F706572746965732E62696E504B0102140014
311
0006080800167D6E5728BB58AF800100009E0500003D00000000000000000000000000A302000030333546393132312D444644412D343444412D393244442D4639454432434443303146342F536368656D61732F436F6D6D6F6E536368656D612E786D6C504B01021400140006080800167D6E572CCEBD668A040000E01200
311
003E000000000000000000000000007E04000030333546393132312D444644412D343444412D393244442D4639454432434443303146342F536368656D61732F47656E65726963536368656D612E786D6C504B01021400140006080800167D6E576180134D5F0100006B030000450000000000000000000000000064090000
311
30333546393132312D444644412D343444412D393244442D4639454432434443303146342F536368656D61732F52656E6465724D6174657269616C536368656D612E786D6C504B01021400140006080800167D6E57DFF657C051000000570000004700000000000000000000000000260B000030333546393132312D444644
311
412D343444412D393244442D4639454432434443303146342F4173736574446174612F41737365745461626C654F66436F6E74656E74732E62696E504B01021400140006080800167D6E57F865834058000000680000004500000000000000000000000000DC0B000030333546393132312D444644412D343444412D393244
311
442D4639454432434443303146342F4173736574446174612F53747265616D56657273696F6E5461626C652E696E66504B01021400140006080800167D6E576BA5DCE7350100009A0400003600000000000000000000000000970C000030333546393132312D444644412D343444412D393244442D46394544324344433031
311
46342F4173736574446174612F636E782E786D6C504B01021400140006080800167D6E57104BFFF2090100004F0300003400000000000000000000000000200E000030333546393132312D444644412D343444412D393244442D4639454432434443303146342F536368656D61732F636E782E786D6C504B01021400140006
311
080800167D6E57410A3D5871000000A40000002C000000000000000000000000007B0F000030333546393132312D444644412D343444412D393244442D4639454432434443303146342F636E782E786D6C504B01021400140006080800167D6E5708EFA5267D000000A3000000070000000000000000000000000036100000
311
636E782E786D6C504B01021400140006080800167D6E5716E99B5DA6000000350100001300000000000000000000000000D81000005B436F6E74656E745F54797065735D2E786D6C504B01021400140006080800167D6E573DEE336E64000000790000001B00000000000000000000000000AF1100006175746F6465736B2D
311
64657369676E2D7061636B6167652E786D6C504B01021400140006080800167D6E57F47FB591F70000009601000037000000000000000000000000004C12000030333546393132312D444644412D343444412D393244442D4639454432434443303146342F4173736574446174612F636F72652E786D6C504B010214001400
311
06080800167D6E57A44E48E9F60000009401000035000000000000000000000000009813000030333546393132312D444644412D343444412D393244442D4639454432434443303146342F536368656D61732F636F72652E786D6C504B01021400140006080800167D6E579909DF6700010000D70100002D00000000000000
311
000000000000E114000030333546393132312D444644412D343444412D393244442D4639454432434443303146342F636F72652E786D6C504B01021400140006080800167D6E578D959A2206010000B201000008000000000000000000000000002C160000636F72652E786D6C504B050600000000110011005A0600005817
311
00000000
310
504B0304140006080800167D6E57000000000000000000000000370000006662782F34433632453939332D373545372D343041332D394442462D3143303843413439423331452F617474726962757465732E62696E504B0304140006080800167D6E57000000000000000000000000350000006662782F3443363245393933
310
2D373545372D343041332D394442462D3143303843413439423331452F76657274696365732E62696E504B0304140006080800167D6E57F270F1330600000004000000360000006662782F34433632453939332D373545372D343041332D394442462D3143303843413439423331452F747269616E676C65732E62696E6366
310
60600000504B0304140006080800167D6E5751464CB48900000043010000360000006662782F34433632453939332D373545372D343041332D394442462D3143303843413439423331452F6469726563746F72792E786D6C9D8F310EC2300C45AF127987122606C71DD918B841D4B851A43646695A717C52A85029031293A5
310
A76FBF6FACEF7DA7264E43906840EF0FA03836E242F406C6DCEE4EA06AC22492573150D1F66C60C640E8938CB705396EEDD86DE9B5042FE27813D640EA63BB001C722AF6E55CB61E4863F58284D5D3F53DD715CE1C3985E63FD7F1B7EBDD617E9F1E504B0304140006080800167D6E57EC78E2A23F070000201C0000340000
310
006662782F34433632453939332D373545372D343041332D394442462D3143303843413439423331452F6F626A656374732E786D6CDD595B6FE23814FE2B56F665F72137A05C469451817684469D190D9AD5BE452618EAAD739193B4747FFD1E3B7688D300E95CA4D5520952C7393EE73BF793E9FB43C4D013E1194DE26BCB
310
773C0B91384CB634DE5F5B45BEB3C7167A3F43539E24796D9F85621C916B4B2C5BB3E99E2745AA96B664870BD65CBD9BFF85B290C4C44221C359766D65E10389B0838B3CD992ECD1D9E21C3BFBDDC1F19D72A34976CF71FAD0382AC59CC439B00AEB3150511CF8E6BF20923B9BBA6283B1ADDF6D5BEFCC36570A6E324AE32C
310
C771F88AABC671BD135C358EEBFB83E56DEF6A625F0D067D7B30ECF9F6FC6EBEB4FD51DF5B0C178BC9CDEDC442B3E9264958A58094C45BD0E28B35F3A7AEB85389AF5068E33B4CE298840ACDB60D5BA2E8529235313180F5A568358594B2D616FA1D853FB1AD1328064B06DA5A38FD5BB7DE64F337809075B1529E1161E559
310
CE41D70AFBD21FBCA95BAE1A7AA1198A704E38C50C31BAE1988382606BA920838CF016410A09CCA41635BD3AAF60D8977DA98DCB5DC198F05F6B263D2D007F24792639A3FF107EE4BE7E1AF004D21634CEC74AD8FC25051293A92B17CB7BFD9EBA590289760CEFC15A404CB1A9DF6BE0B510B160B5B4661FEF3687B5880FED
310
87A73C4909CF85E54967567EA73558332D30BE0EA094B89ABA3BA2F215A0FF04C857BCA029688ED3C3E030D0B2731C67BB8447A01DE421DB832F0F89CB575753B77A788690112B4F610A6EFB933035C430CEAE413A9B3E81D127BCAF845B8798814DDFD358F839180A62092C41BCDF6D0ED66C05C11416E129CC407AF89BBA
310
E212C14F4907E24D43436DE1B783A2B4C334FDECA8AB0F60339C8695AA0C194FE17BF553F0BD59AE3FAE0BBEC321B9578EBD243B1AD31C92693B4306E886CB7F5B7D921EF981251BCC8E4F1B9B4238669F88B8D1A296B5520B927A014E441A2E352357EE29783B6338264991A9F5B63815262CE1C1E625285DB8F5AC3FB50D
310
94872903688D6590DC434E5381893553DAAA02A15313142C0C736581FB52ABC1A688D2004749118B50FBDA149B7C409C1196085425356DD8DA6B35D92DDDED8A0C82572BC98501A4F2674DB8B4F001C4B1367E39D9710C493489030A39189CA5F504E3800ABCF33C6784ED02CA5811053BCA208F04114E4FD0EF28413D733D
310
9297E7846F5B099A96A57D52DB90005C01AB41D2D9AA8CF94AA79C3C515166CA7CA6B381B143D5A1D66C70225D884CD102A8364669E693DBC162BC5C0CECDEC8EFD98385BFB027A37ECF5E7AC3F96038BEBBE90D80BCB21289C0315AD5F31DA852943986FFE50F45B4893165704350C0DBF4DD7B993DAF5D088DEEFC7634BC
310
5DF427767F399FD883D16469CF47BDA1ED8D97CB39F035E98DE62E275952F090646ECFF5026D9269BC3FC555154B45D602F9E15B410A65CDE564A7F5D514E67F1C439B39C150E27F358856B1ABA520EC1A44C5A3CD108AC34791A28210AABE56F76904D1261F6D71EE8D71D973FA9EFCF8FEA4E74D7AE3C9B032F6B3815A9E
310
F3C371AE4D8210FACE220F921487346F4FA80D5C3AC6E937E516A7EF5F2140A7FAAE0E399F67D421018DF09E043B2CBA8496C0784982D61CB6674996D19864B2CB7B55FD35687A0E145366CE6D31429A0511C9F1F7D89F6C1B1A360DB19905D08FE6622270B12AA80C5A7520A7288AEE1712B794FF25C87094B2B2D3BD8481
310
DFD310E81EA7CDE204D3E28827B0B700E781B725727071897AC5BEAE0F5AB5D6A43EF96EF227E0D175CD2F84471FD1BD7472AEFC89F88C21A80CAFFCFE482BE21256FAA85CF471AC80CE337C099E09DD3F742A34BBE9A456B29545754E226863715EF04EFE3ABCF25E1DA4E242C3216A27BDB13894FD9BEEE0003DD9C09D2A
310
6F6BC7401D4A6398737512E49514AD262C7521677A6274F506BF3EABEC3AD51F8E97BFBC62AE3B5F04855E171CAA7256451FA3A66EADBA8D7A287BC6790881742D7FED3978C4966C8F8D9941AEAD44D7F5E9A5EA7925026A04135B2CE2ECBDB8605F31A81ABAE7CCFD50166D6EB9BE1289CD81E1F4910F836993D6E70FEB06
310
1558E9FCF4178111796E5050AB0BD10D9F21F56D75ECF91B149444DF56671EFF4F74145A81B5CE02A6C159C2280CE5C916ED4902D91BC60E1DBA0D1E914C66E56397A2DF087478FAA99CA9E678C3748F133E60184C33D58B15210C4521635E5B6A1DFD066350318994C329E711DA3015C32C54707A6D81C5E614BA2D6703E3
310
2C393C94D41BE34A706C1CEF45BE2F9FAAFE3F3EF6AAFBAAF674C1454966381314B6A97C4F00555F796336FD7ED1353B08E770B929F24A98E3C2511A05827E21500A0753BF4705EF010A8AF372F98EDC6334A49D26F367EDA0A46AE798EFE578BD669337CB2FAE988CAF3EA394157BA1CE73DDAF41C9165D372BCA29D4140C
310
4389996251432EDEB95F7802AF98227447C108D0EF87F1F00F7791445112974BEE8D7A5185D60FF0DA69EBEA911FB4F19E7FE5CA29801AEB071B9C11076FB3475800D5722A66A325C4860154D1B466005A234217F098B17FB544AA36AA4D48EA6157C02367FA081C49BCCB116E53DF501B40822F0057F2E6F1422F4C5D0E43
310
F0D9BF504B0304140006080800167D6E5775761F3E3E01000046050000300000006662782F34433632453939332D373545372D343041332D394442462D3143303843413439423331452F636E782E786D6CCD94C14A033110865F25E4BEC9A6B620259B82079FC08378CB66A76B6C36599259B16F6F52B755918A8742BD85C9
310
3FF07F333F23376F8323AF10930DBEA182D5948037A1B3BE6FE884DBEA96928D923104FC22A3C4EB011A5ACA54C93E86699C4B1D6CF5E44AD559BF9B8B1A31DA7642489418A7536A6832CF3068A6270C1DA41DEB346A26588414A66820F7A31D60EE3711344247D5A25EDC54425462F92056EB65BD5EAE9E242F4A25DB10DC
310
ACB71E21869198901F3E9BA9252FDF4A4ED1CE9A4240D5A733D65A2F79FE573265B7BE9F75B81F8B6E1C9D351AF398783008586511E841F20FB192BCF07EA3BEBF7B3C3A209D8D6030C4FD950620CE0DE0648CE524FC8DFF20FC1D3BB42F19F75ADB3E0B3BDBBA18EA31AD29C7F5E7FE738AB4EFDDFF0BFDC9D8E5339F4F09
310
5AF3FF908FBE2E44CC0F272F2FBD5C40F50E504B0304140006080800167D6E57EFFCE05A7F000000A30000000B0000006662782F636E782E786D6C4D8CD10E822018465F85FDF71424A56C8053B2F770898E85D0485A8F1F342FBAFAB6B3EF1CD17E5687DE26BE6CF012E8810032FE1E26EB1709699B7103A8552286B0FDDD
310
00F97135120A06259618D273479399C7E40A75D63F76C8F4E534705EE1FA3CD49891AEC2FCDADF30D5A4D11DE37D45876C1C8B92E7D7CB5BF2EA0B504B0304140006080800167D6E57A6D797065F0000008200000007000000636E782E786D6C4DCB3B0E80201045D1AD90E9FD7516806B51190811670C8A61F982B1B0BAC9
310
C97B72CA7B1037C6D3332918DA1E04D2CAC69353902EDB8C20262D23F3F59B81A079470595414B17391D1F19B4730A5583A7ED43BBE4025D9592775E5ADFFA01504B0304140006080800167D6E574FEB6A7CA0000000F4000000130000005B436F6E74656E745F54797065735D2E786D6C7D8F4B0EC2300C44AF1279DFA6B0
310
400835ED02B8011730C16D239A8F121795DB93D02D6269CFBC19BBED573B8B17C564BC53B0AB1B10E4B47F18372A5878A88E20FAAEBDBD032591BD2E299898C349CAA427B2986A1FC86565F0D122E7318E32A07EE24872DF3407A9BD63725C71C980AEBDD080CBCCE2BAE6F5D69B7110E7CD57AA146008B3D1C8F92C5954F9
310
93BB1BF787F39A89ABC491D09600F9FDA2FB00504B0304140006080800167D6E573DEE336E64000000790000001B0000006175746F6465736B2D64657369676E2D7061636B6167652E786D6C35CBC10E83200C00D05F21DCA56CA76D41FC96062B120735B69A7DBE268BB7777961F8D5AF396893C2ADB70FE7ADA196782C2D
310
F776D7A97B5933C430F15651E5469C55D70F80A4992A3ADC954792C525AE70A1E4D6AD9816CC044FEFDF01FE3FDE907802504B0304140006080800167D6E5700BB0DACF9000000960100003B0000006662782F34433632453939332D373545372D343041332D394442462D3143303843413439423331452F7265736F757263
310
65732F636F72652E786D6C8550CB6E833010FC15B4770326A090C8380A56FA053DF566990DB112ECC88FAA9F5F3B50A93DF5B4ABD999D9DD61A7AFE5517CA2F3DA9A016859438146D9499B798018AEA487E2C499B336FCA24161E482036418389B9D8DCF0D52D60434193576C20D94DE6380423D52338057375C642963480C
310
7F2F9F52DDE58C252D571E6731EA6993EA29B9E9AB4607FCDC37829E9B9EF4A27B236DBFAFC928C49E5C76E2308AB13B88F6C2AA2CE62CE8E567BB7228034EC09BBAD9114A096DDF69776CEB63DB7DB02A3339F3C1A59FB7A5F93BE00EBD8D4EA167D53AFDE31A9FD3FFAE519BB06B36D755E181D374E46BC05995534AE515
310
61AA3951FE0D504B0304140006080800167D6E575C3D357CF3000000B1010000310000006662782F34433632453939332D373545372D343041332D394442462D3143303843413439423331452F636F72652E786D6C8D50CB6EC32010FC156BEFD8C6C64D1C61A2C44DBFA0A7DE10101725068B47D5CF2FC4AED4DE725A343B
310
C3CC0E3D7ECFF7E24B39AFAD1900973514CA082BB5990688E18AF6501C1975D6863F34280C9FD5001906462767E3B241C29AA04C468D956A03B9F72A4021EEE93180179F6AE6258F2131FCAD5CB8B8F14995B85C798C063DFF4A85533C2809ACA99B16618C3079C7DD81D407D27DD02A33198D51CBCD4ACBE4AEAF5A396064
310
7C692E7DDFA25D77D921529F5AD4BF9EDF101EEBFD7822FDB9C5175A6531A33EB874F3F649BEEE59F92AFC97392EF289CCDA84B6D90C57850786539EC782D12A1798C6A3DD3473D9EC07504B0304140006080800167D6E576BA9A12754010000DD0200000C0000006662782F636F72652E786D6C8D52DB8E832014FC15C33B
310
2A5653DB204D6BBA5FB04FFB46915A52058360FAF90B5EE2FAB0DD8D099239E7CC9C99804FAFB60906AE7BA16401501883804BA62A21EB0258738739084E046BA5CC8F361048DAF2027818105C6B65BB19624A1A2E3D2A55C56790F63D3720608DBB14A0670FDED2905AE33AFA67D851F6A4350F5138F5116CADA8E6515139
310
3671175C0372CE93129D931CE665F601D37C1FC34B59EEE175571E2EE5253B94E915477E986023DA459D694E0DAF0049E26407118228FD44D9318D8F69F68523DF49706FB4F33C8B7A7780DC6F2F1C4DF886CF76D5DF7C5648B34B66BE69A20704B9F5C602C191CFC7FDC6F0B6193A61979FA1B766B1F074D0C099513A7595
310
4AD9B534D0C672471D07E387A3A9EA984782DF7892373CEF395C5054D66E356ADCF5668D57DFEED4710D07F30AA4D22D6DD6E5A615D77315DA585AC6996A94FECFF462750933F20F937C03504B0304140006080800167D6E571299620207010000B201000008000000636F72652E786D6C8D50CB6EC32010FC15B4776CE387
310
E244982846E917F4D41B35C445B1C1021CB57F5F885DA9BDF5B468667667187AFE9C27F450CE6B6B3A2059014899C14A6DC60ED670C32DA033A3CEDAF04B06C88859759060607474765D7668B02628935063A5DA41E1BD0A8086293E3AF0C3879A4526D61015FE9E2D62B88B516524DB748C063DFFAC0E4E89A024B0B2282B
310
4C0826F52B694E7571AA9B379A2725A3EBAAE56EA56574D737AD1CB04B5B7272295BDCF2E605D7EDA1C03DE7077CADF8B1E77D73E4F595E66999511F5CFCF37E24E60CC88B47F2A5F94631FA6EEDB40B622889AC99BE8015344FC49FD0EB22FF115A9B5095FBC16DC3032331D09388C6A9C1389EF5C699DA66DF504B010214
310
00140006080800167D6E570000000000000000000000003700000000000000000000000000000000006662782F34433632453939332D373545372D343041332D394442462D3143303843413439423331452F617474726962757465732E62696E504B01021400140006080800167D6E57000000000000000000000000350000
310
0000000000000000000000550000006662782F34433632453939332D373545372D343041332D394442462D3143303843413439423331452F76657274696365732E62696E504B01021400140006080800167D6E57F270F13306000000040000003600000000000000000000000000A80000006662782F34433632453939332D
310
373545372D343041332D394442462D3143303843413439423331452F747269616E676C65732E62696E504B01021400140006080800167D6E5751464CB489000000430100003600000000000000000000000000020100006662782F34433632453939332D373545372D343041332D394442462D314330384341343942333145
310
2F6469726563746F72792E786D6C504B01021400140006080800167D6E57EC78E2A23F070000201C00003400000000000000000000000000DF0100006662782F34433632453939332D373545372D343041332D394442462D3143303843413439423331452F6F626A656374732E786D6C504B01021400140006080800167D6E
310
5775761F3E3E010000460500003000000000000000000000000000700900006662782F34433632453939332D373545372D343041332D394442462D3143303843413439423331452F636E782E786D6C504B01021400140006080800167D6E57EFFCE05A7F000000A30000000B00000000000000000000000000FC0A00006662
310
782F636E782E786D6C504B01021400140006080800167D6E57A6D797065F000000820000000700000000000000000000000000A40B0000636E782E786D6C504B01021400140006080800167D6E574FEB6A7CA0000000F40000001300000000000000000000000000280C00005B436F6E74656E745F54797065735D2E786D6C
310
504B01021400140006080800167D6E573DEE336E64000000790000001B00000000000000000000000000F90C00006175746F6465736B2D64657369676E2D7061636B6167652E786D6C504B01021400140006080800167D6E5700BB0DACF9000000960100003B00000000000000000000000000960D00006662782F34433632
310
453939332D373545372D343041332D394442462D3143303843413439423331452F7265736F75726365732F636F72652E786D6C504B01021400140006080800167D6E575C3D357CF3000000B10100003100000000000000000000000000E80E00006662782F34433632453939332D373545372D343041332D394442462D3143
310
303843413439423331452F636F72652E786D6C504B01021400140006080800167D6E576BA9A12754010000DD0200000C000000000000000000000000002A1000006662782F636F72652E786D6C504B01021400140006080800167D6E571299620207010000B20100000800000000000000000000000000A8110000636F7265
310
2E786D6C504B0506000000000E000E0080040000D51200000000
  0
XRECORD
  5
8159
102
{ACAD_REACTORS
330
8154
102
}
330
8154
100
AcDbXrecord
280
     1
270
     1
271
     1
  0
XRECORD
  5
8158
102
{ACAD_REACTORS
330
8154
102
}
330
8154
100
AcDbXrecord
280
     1
270
     1
271
     1
  0
XRECORD
  5
815A
102
{ACAD_REACTORS
330
8154
102
}
330
8154
100
AcDbXrecord
280
     1
270
     1
271
     1
  0
XRECORD
  5
8157
102
{ACAD_REACTORS
330
8154
102
}
330
8154
100
AcDbXrecord
280
     1
270
     1
271
     1
  0
XRECORD
  5
8377
102
{ACAD_REACTORS
330
8376
102
}
330
8376
100
AcDbXrecord
280
     1
102
DISPLAYNAME
  1
Imperial24
102
FLAGS
 90
        0
  0
CELLSTYLEMAP
  5
833E
102
{ACAD_REACTORS
330
833D
102
}
330
833D
100
AcDbCellStyleMap
 90
        3
300
CELLSTYLE
  1
TABLEFORMAT_BEGIN
 90
        5
170
     1
 91
        0
 92
    32768
 62
   257
 93
        1
300
CONTENTFORMAT
  1
CONTENTFORMAT_BEGIN
 90
        0
 91
        0
 92
      512
 93
        0
300

 40
0.0
140
1.0
 94
        5
 62
     0
340
8187
144
0.25
309
CONTENTFORMAT_END
171
     0
 94
        0
309
TABLEFORMAT_END
  1
CELLSTYLE_BEGIN
 90
        1
 91
        1
300
_TITLE
309
CELLSTYLE_END
300
CELLSTYLE
  1
TABLEFORMAT_BEGIN
 90
        5
170
     1
 91
        0
 92
        0
 62
   257
 93
        1
300
CONTENTFORMAT
  1
CONTENTFORMAT_BEGIN
 90
        0
 91
        0
 92
      512
 93
        0
300

 40
0.0
140
1.0
 94
        5
 62
     0
340
8187
144
0.18
309
CONTENTFORMAT_END
171
     0
 94
        0
309
TABLEFORMAT_END
  1
CELLSTYLE_BEGIN
 90
        2
 91
        1
300
_HEADER
309
CELLSTYLE_END
300
CELLSTYLE
  1
TABLEFORMAT_BEGIN
 90
        5
170
     1
 91
        0
 92
        0
 62
   257
 93
        1
300
CONTENTFORMAT
  1
CONTENTFORMAT_BEGIN
 90
        0
 91
        0
 92
      512
 93
        0
300

 40
0.0
140
1.0
 94
        2
 62
     0
340
8187
144
0.18
309
CONTENTFORMAT_END
171
     0
 94
        0
309
TABLEFORMAT_END
  1
CELLSTYLE_BEGIN
 90
        3
 91
        2
300
_DATA
309
CELLSTYLE_END
  0
XRECORD
  5
8374
102
{ACAD_REACTORS
330
833D
102
}
330
833D
100
AcDbXrecord
280
     1
102
ACAD_ROUNDTRIP_PRE2007_TABLESTYLE
 90
      512
 91
        0
  1

 92
      512
 93
        0
  2

 94
      512
 95
        0
  3

  0
XRECORD
  5
834F
102
{ACAD_REACTORS
330
834E
102
}
330
834E
100
AcDbXrecord
280
     1
102
RTVSPost2010Prop28
280
     1
102
RTVSPost2010PropOp28
 70
     1
102
RTVSPost2010Prop29
280
     1
102
RTVSPost2010PropOp29
 70
     1
102
RTVSPost2010Prop30
280
     0
102
RTVSPost2010PropOp30
 70
     1
102
RTVSPost2010Prop31
280
     0
102
RTVSPost2010PropOp31
 70
     1
102
RTVSPost2010Prop32
280
     0
102
RTVSPost2010PropOp32
 70
     1
102
RTVSPost2010Prop33
280
     0
102
RTVSPost2010PropOp33
 70
     1
102
RTVSPost2010Prop34
280
     0
102
RTVSPost2010PropOp34
 70
     1
102
RTVSPost2010Prop35
280
     0
102
RTVSPost2010PropOp35
 70
     1
102
RTVSPost2010Prop36
280
     0
102
RTVSPost2010PropOp36
 70
     1
102
RTVSPost2010Prop37
 90
       50
102
RTVSPost2010PropOp37
 70
     1
102
RTVSPost2010Prop38
140
0.0
102
RTVSPost2010PropOp38
 70
     1
102
RTVSPost2010Prop39
140
1.0
102
RTVSPost2010PropOp39
 70
     1
102
RTVSPost2010Prop40
 90
        0
102
RTVSPost2010PropOp40
 70
     1
102
RTVSPost2010Prop41ColorIndex
 90
       18
102
RTVSPost2010Prop41ColorRGB
 90
        0
102
RTVSPost2010PropOp41
 70
     1
102
RTVSPost2010Prop42
 90
       50
102
RTVSPost2010PropOp42
 70
     1
102
RTVSPost2010Prop43
 90
        3
102
RTVSPost2010PropOp43
 70
     1
102
RTVSPost2010Prop44ColorIndex
 90
        5
102
RTVSPost2010Prop44ColorRGB
 90
      255
102
RTVSPost2010PropOp44
 70
     1
102
RTVSPost2010Prop45
280
     0
102
RTVSPost2010PropOp45
 70
     1
102
RTVSPost2010Prop46
 90
       50
102
RTVSPost2010PropOp46
 70
     1
102
RTVSPost2010Prop47
 90
       50
102
RTVSPost2010PropOp47
 70
     1
102
RTVSPost2010Prop48
 90
       50
102
RTVSPost2010PropOp48
 70
     1
102
RTVSPost2010Prop49
280
     0
102
RTVSPost2010PropOp49
 70
     1
102
RTVSPost2010Prop50
 90
       50
102
RTVSPost2010PropOp50
 70
     1
102
RTVSPost2010Prop51ColorIndex
 90
      256
102
RTVSPost2010Prop51ColorRGB
 90
-16777216
102
RTVSPost2010PropOp51
 70
     0
102
RTVSPost2010Prop52
140
1.0
102
RTVSPost2010PropOp52
 70
     0
102
RTVSPost2010Prop53
 90
        2
102
RTVSPost2010PropOp53
 70
     1
102
RTVSPost2010Prop54
  1
strokes_ogs.tif
102
RTVSPost2010PropOp54
 70
     1
102
RTVSPost2010Prop55
280
     0
102
RTVSPost2010PropOp55
 70
     1
102
RTVSPost2010Prop56
140
1.0
102
RTVSPost2010PropOp56
 70
     1
102
RTVSPost2010Prop57
140
1.0
102
RTVSPost2010PropOp57
 70
     1
102
RTVSPropertyOp0
 70
     1
102
RTVSPropertyOp1
 70
     1
102
RTVSPropertyOp2
 70
     1
102
RTVSPropertyOp3
 70
     1
102
RTVSPropertyOp4
 70
     1
102
RTVSPropertyOp5
 70
     1
102
RTVSPropertyOp6
 70
     1
102
RTVSPropertyOp7
 70
     1
102
RTVSPropertyOp8
 70
     1
102
RTVSPropertyOp9
 70
     1
102
RTVSPropertyOp10
 70
     1
102
RTVSPropertyOp11
 70
     1
102
RTVSPropertyOp12
 70
     1
102
RTVSPropertyOp13
 70
     1
102
RTVSPropertyOp14
 70
     1
102
RTVSPropertyOp15
 70
     1
102
RTVSPropertyOp16
 70
     1
102
RTVSPropertyOp17
 70
     1
102
RTVSPropertyOp18
 70
     1
102
RTVSPropertyOp19
 70
     1
102
RTVSPropertyOp20
 70
     1
102
RTVSPropertyOp21
 70
     1
102
RTVSPropertyOp22
 70
     1
102
RTVSPropertyOp23
 70
     1
102
RTVSPropertyOp24
 70
     1
102
RTVSPropertyOp25
 70
     1
102
RTVSPropertyOp26
 70
     1
102
RTVSPropertyOp27
 70
     1
102
RTVSPropertyOp28
 70
     1
102
RTVSPropertyOp29
 70
     1
102
RTVSPropertyOp30
 70
     1
102
RTVSPropertyOp31
 70
     1
102
RTVSPropertyOp32
 70
     1
102
RTVSPropertyOp33
 70
     1
102
RTVSPropertyOp34
 70
     1
102
RTVSPropertyOp35
 70
     1
102
RTVSPropertyOp36
 70
     1
102
RTVSPropertyOp37
 70
     1
102
RTVSPropertyOp38
 70
     1
102
RTVSPropertyOp39
 70
     1
102
RTVSPropertyOp40
 70
     1
102
RTVSPropertyOp41
 70
     1
102
RTVSPropertyOp42
 70
     1
102
RTVSPropertyOp43
 70
     1
102
RTVSPropertyOp44
 70
     1
102
RTVSPropertyOp45
 70
     1
102
RTVSPropertyOp46
 70
     1
102
RTVSPropertyOp47
 70
     1
102
RTVSPropertyOp48
 70
     1
102
RTVSPropertyOp49
 70
     1
102
RTVSPropertyOp50
 70
     1
102
RTVSPropertyOp51
 70
     0
102
RTVSPropertyOp52
 70
     0
102
RTVSPropertyOp53
 70
     1
102
RTVSPropertyOp54
 70
     1
102
RTVSPropertyOp55
 70
     1
102
RTVSPropertyOp56
 70
     1
102
RTVSPropertyOp57
 70
     1
102
RTVSPropertyOp58
 70
     1
102
RTVSPropertyOp59
 70
     1
102
RTVSPropertyOp60
 70
     1
102
RTVSPropertyOp61
 70
     1
102
RTVSPropertyOp62
 70
     1
  0
XRECORD
  5
834D
102
{ACAD_REACTORS
330
834C
102
}
330
834C
100
AcDbXrecord
280
     1
102
RTVSPost2010Prop28
280
     0
102
RTVSPost2010PropOp28
 70
     1
102
RTVSPost2010Prop29
280
     1
102
RTVSPost2010PropOp29
 70
     1
102
RTVSPost2010Prop30
280
     1
102
RTVSPost2010PropOp30
 70
     1
102
RTVSPost2010Prop31
280
     0
102
RTVSPost2010PropOp31
 70
     1
102
RTVSPost2010Prop32
280
     0
102
RTVSPost2010PropOp32
 70
     1
102
RTVSPost2010Prop33
280
     0
102
RTVSPost2010PropOp33
 70
     1
102
RTVSPost2010Prop34
280
     0
102
RTVSPost2010PropOp34
 70
     1
102
RTVSPost2010Prop35
280
     0
102
RTVSPost2010PropOp35
 70
     1
102
RTVSPost2010Prop36
280
     0
102
RTVSPost2010PropOp36
 70
     1
102
RTVSPost2010Prop37
 90
       50
102
RTVSPost2010PropOp37
 70
     1
102
RTVSPost2010Prop38
140
0.0
102
RTVSPost2010PropOp38
 70
     1
102
RTVSPost2010Prop39
140
1.0
102
RTVSPost2010PropOp39
 70
     1
102
RTVSPost2010Prop40
 90
        0
102
RTVSPost2010PropOp40
 70
     1
102
RTVSPost2010Prop41ColorIndex
 90
       18
102
RTVSPost2010Prop41ColorRGB
 90
        0
102
RTVSPost2010PropOp41
 70
     1
102
RTVSPost2010Prop42
 90
       50
102
RTVSPost2010PropOp42
 70
     1
102
RTVSPost2010Prop43
 90
        3
102
RTVSPost2010PropOp43
 70
     1
102
RTVSPost2010Prop44ColorIndex
 90
        5
102
RTVSPost2010Prop44ColorRGB
 90
      255
102
RTVSPost2010PropOp44
 70
     1
102
RTVSPost2010Prop45
280
     0
102
RTVSPost2010PropOp45
 70
     1
102
RTVSPost2010Prop46
 90
       50
102
RTVSPost2010PropOp46
 70
     1
102
RTVSPost2010Prop47
 90
       50
102
RTVSPost2010PropOp47
 70
     1
102
RTVSPost2010Prop48
 90
       50
102
RTVSPost2010PropOp48
 70
     1
102
RTVSPost2010Prop49
280
     0
102
RTVSPost2010PropOp49
 70
     1
102
RTVSPost2010Prop50
 90
       50
102
RTVSPost2010PropOp50
 70
     1
102
RTVSPost2010Prop51ColorIndex
 90
      256
102
RTVSPost2010Prop51ColorRGB
 90
-16777216
102
RTVSPost2010PropOp51
 70
     0
102
RTVSPost2010Prop52
140
1.0
102
RTVSPost2010PropOp52
 70
     0
102
RTVSPost2010Prop53
 90
        2
102
RTVSPost2010PropOp53
 70
     1
102
RTVSPost2010Prop54
  1
strokes_ogs.tif
102
RTVSPost2010PropOp54
 70
     1
102
RTVSPost2010Prop55
280
     0
102
RTVSPost2010PropOp55
 70
     1
102
RTVSPost2010Prop56
140
1.0
102
RTVSPost2010PropOp56
 70
     1
102
RTVSPost2010Prop57
140
1.0
102
RTVSPost2010PropOp57
 70
     1
102
RTVSPropertyOp0
 70
     1
102
RTVSPropertyOp1
 70
     1
102
RTVSPropertyOp2
 70
     1
102
RTVSPropertyOp3
 70
     1
102
RTVSPropertyOp4
 70
     1
102
RTVSPropertyOp5
 70
     1
102
RTVSPropertyOp6
 70
     1
102
RTVSPropertyOp7
 70
     1
102
RTVSPropertyOp8
 70
     1
102
RTVSPropertyOp9
 70
     1
102
RTVSPropertyOp10
 70
     1
102
RTVSPropertyOp11
 70
     1
102
RTVSPropertyOp12
 70
     1
102
RTVSPropertyOp13
 70
     1
102
RTVSPropertyOp14
 70
     1
102
RTVSPropertyOp15
 70
     1
102
RTVSPropertyOp16
 70
     1
102
RTVSPropertyOp17
 70
     1
102
RTVSPropertyOp18
 70
     1
102
RTVSPropertyOp19
 70
     1
102
RTVSPropertyOp20
 70
     1
102
RTVSPropertyOp21
 70
     1
102
RTVSPropertyOp22
 70
     1
102
RTVSPropertyOp23
 70
     1
102
RTVSPropertyOp24
 70
     1
102
RTVSPropertyOp25
 70
     1
102
RTVSPropertyOp26
 70
     1
102
RTVSPropertyOp27
 70
     1
102
RTVSPropertyOp28
 70
     1
102
RTVSPropertyOp29
 70
     1
102
RTVSPropertyOp30
 70
     1
102
RTVSPropertyOp31
 70
     1
102
RTVSPropertyOp32
 70
     1
102
RTVSPropertyOp33
 70
     1
102
RTVSPropertyOp34
 70
     1
102
RTVSPropertyOp35
 70
     1
102
RTVSPropertyOp36
 70
     1
102
RTVSPropertyOp37
 70
     1
102
RTVSPropertyOp38
 70
     1
102
RTVSPropertyOp39
 70
     1
102
RTVSPropertyOp40
 70
     1
102
RTVSPropertyOp41
 70
     1
102
RTVSPropertyOp42
 70
     1
102
RTVSPropertyOp43
 70
     1
102
RTVSPropertyOp44
 70
     1
102
RTVSPropertyOp45
 70
     1
102
RTVSPropertyOp46
 70
     1
102
RTVSPropertyOp47
 70
     1
102
RTVSPropertyOp48
 70
     1
102
RTVSPropertyOp49
 70
     1
102
RTVSPropertyOp50
 70
     1
102
RTVSPropertyOp51
 70
     0
102
RTVSPropertyOp52
 70
     0
102
RTVSPropertyOp53
 70
     1
102
RTVSPropertyOp54
 70
     1
102
RTVSPropertyOp55
 70
     1
102
RTVSPropertyOp56
 70
     1
102
RTVSPropertyOp57
 70
     1
102
RTVSPropertyOp58
 70
     1
102
RTVSPropertyOp59
 70
     1
102
RTVSPropertyOp60
 70
     1
102
RTVSPropertyOp61
 70
     1
102
RTVSPropertyOp62
 70
     1
  0
XRECORD
  5
835B
102
{ACAD_REACTORS
330
835A
102
}
330
835A
100
AcDbXrecord
280
     1
102
RTVSPost2010Prop28
280
     0
102
RTVSPost2010PropOp28
 70
     1
102
RTVSPost2010Prop29
280
     1
102
RTVSPost2010PropOp29
 70
     1
102
RTVSPost2010Prop30
280
     1
102
RTVSPost2010PropOp30
 70
     1
102
RTVSPost2010Prop31
280
     0
102
RTVSPost2010PropOp31
 70
     1
102
RTVSPost2010Prop32
280
     0
102
RTVSPost2010PropOp32
 70
     1
102
RTVSPost2010Prop33
280
     0
102
RTVSPost2010PropOp33
 70
     1
102
RTVSPost2010Prop34
280
     0
102
RTVSPost2010PropOp34
 70
     1
102
RTVSPost2010Prop35
280
     0
102
RTVSPost2010PropOp35
 70
     1
102
RTVSPost2010Prop36
280
     0
102
RTVSPost2010PropOp36
 70
     1
102
RTVSPost2010Prop37
 90
       50
102
RTVSPost2010PropOp37
 70
     1
102
RTVSPost2010Prop38
140
0.0
102
RTVSPost2010PropOp38
 70
     1
102
RTVSPost2010Prop39
140
1.0
102
RTVSPost2010PropOp39
 70
     1
102
RTVSPost2010Prop40
 90
        0
102
RTVSPost2010PropOp40
 70
     1
102
RTVSPost2010Prop41ColorIndex
 90
       18
102
RTVSPost2010Prop41ColorRGB
 90
        0
102
RTVSPost2010PropOp41
 70
     1
102
RTVSPost2010Prop42
 90
       50
102
RTVSPost2010PropOp42
 70
     1
102
RTVSPost2010Prop43
 90
        3
102
RTVSPost2010PropOp43
 70
     1
102
RTVSPost2010Prop44ColorIndex
 90
        5
102
RTVSPost2010Prop44ColorRGB
 90
      255
102
RTVSPost2010PropOp44
 70
     1
102
RTVSPost2010Prop45
280
     0
102
RTVSPost2010PropOp45
 70
     1
102
RTVSPost2010Prop46
 90
       50
102
RTVSPost2010PropOp46
 70
     1
102
RTVSPost2010Prop47
 90
       50
102
RTVSPost2010PropOp47
 70
     1
102
RTVSPost2010Prop48
 90
       50
102
RTVSPost2010PropOp48
 70
     1
102
RTVSPost2010Prop49
280
     0
102
RTVSPost2010PropOp49
 70
     1
102
RTVSPost2010Prop50
 90
       50
102
RTVSPost2010PropOp50
 70
     1
102
RTVSPost2010Prop51ColorIndex
 90
      256
102
RTVSPost2010Prop51ColorRGB
 90
-16777216
102
RTVSPost2010PropOp51
 70
     0
102
RTVSPost2010Prop52
140
1.0
102
RTVSPost2010PropOp52
 70
     0
102
RTVSPost2010Prop53
 90
        2
102
RTVSPost2010PropOp53
 70
     1
102
RTVSPost2010Prop54
  1
strokes_ogs.tif
102
RTVSPost2010PropOp54
 70
     1
102
RTVSPost2010Prop55
280
     0
102
RTVSPost2010PropOp55
 70
     1
102
RTVSPost2010Prop56
140
1.0
102
RTVSPost2010PropOp56
 70
     1
102
RTVSPost2010Prop57
140
1.0
102
RTVSPost2010PropOp57
 70
     1
102
RTVSPropertyOp0
 70
     1
102
RTVSPropertyOp1
 70
     1
102
RTVSPropertyOp2
 70
     1
102
RTVSPropertyOp3
 70
     1
102
RTVSPropertyOp4
 70
     1
102
RTVSPropertyOp5
 70
     1
102
RTVSPropertyOp6
 70
     1
102
RTVSPropertyOp7
 70
     1
102
RTVSPropertyOp8
 70
     1
102
RTVSPropertyOp9
 70
     1
102
RTVSPropertyOp10
 70
     1
102
RTVSPropertyOp11
 70
     1
102
RTVSPropertyOp12
 70
     1
102
RTVSPropertyOp13
 70
     1
102
RTVSPropertyOp14
 70
     1
102
RTVSPropertyOp15
 70
     1
102
RTVSPropertyOp16
 70
     1
102
RTVSPropertyOp17
 70
     1
102
RTVSPropertyOp18
 70
     1
102
RTVSPropertyOp19
 70
     1
102
RTVSPropertyOp20
 70
     1
102
RTVSPropertyOp21
 70
     1
102
RTVSPropertyOp22
 70
     1
102
RTVSPropertyOp23
 70
     1
102
RTVSPropertyOp24
 70
     1
102
RTVSPropertyOp25
 70
     1
102
RTVSPropertyOp26
 70
     1
102
RTVSPropertyOp27
 70
     1
102
RTVSPropertyOp28
 70
     1
102
RTVSPropertyOp29
 70
     1
102
RTVSPropertyOp30
 70
     1
102
RTVSPropertyOp31
 70
     1
102
RTVSPropertyOp32
 70
     1
102
RTVSPropertyOp33
 70
     1
102
RTVSPropertyOp34
 70
     1
102
RTVSPropertyOp35
 70
     1
102
RTVSPropertyOp36
 70
     1
102
RTVSPropertyOp37
 70
     1
102
RTVSPropertyOp38
 70
     1
102
RTVSPropertyOp39
 70
     1
102
RTVSPropertyOp40
 70
     1
102
RTVSPropertyOp41
 70
     1
102
RTVSPropertyOp42
 70
     1
102
RTVSPropertyOp43
 70
     1
102
RTVSPropertyOp44
 70
     1
102
RTVSPropertyOp45
 70
     1
102
RTVSPropertyOp46
 70
     1
102
RTVSPropertyOp47
 70
     1
102
RTVSPropertyOp48
 70
     1
102
RTVSPropertyOp49
 70
     1
102
RTVSPropertyOp50
 70
     1
102
RTVSPropertyOp51
 70
     0
102
RTVSPropertyOp52
 70
     0
102
RTVSPropertyOp53
 70
     1
102
RTVSPropertyOp54
 70
     1
102
RTVSPropertyOp55
 70
     1
102
RTVSPropertyOp56
 70
     1
102
RTVSPropertyOp57
 70
     1
102
RTVSPropertyOp58
 70
     1
102
RTVSPropertyOp59
 70
     1
102
RTVSPropertyOp60
 70
     1
102
RTVSPropertyOp61
 70
     1
102
RTVSPropertyOp62
 70
     1
  0
XRECORD
  5
8363
102
{ACAD_REACTORS
330
8362
102
}
330
8362
100
AcDbXrecord
280
     1
102
RTVSPost2010Prop28
280
     0
102
RTVSPost2010PropOp28
 70
     1
102
RTVSPost2010Prop29
280
     1
102
RTVSPost2010PropOp29
 70
     1
102
RTVSPost2010Prop30
280
     1
102
RTVSPost2010PropOp30
 70
     1
102
RTVSPost2010Prop31
280
     0
102
RTVSPost2010PropOp31
 70
     1
102
RTVSPost2010Prop32
280
     0
102
RTVSPost2010PropOp32
 70
     1
102
RTVSPost2010Prop33
280
     0
102
RTVSPost2010PropOp33
 70
     1
102
RTVSPost2010Prop34
280
     0
102
RTVSPost2010PropOp34
 70
     1
102
RTVSPost2010Prop35
280
     0
102
RTVSPost2010PropOp35
 70
     1
102
RTVSPost2010Prop36
280
     0
102
RTVSPost2010PropOp36
 70
     1
102
RTVSPost2010Prop37
 90
       50
102
RTVSPost2010PropOp37
 70
     1
102
RTVSPost2010Prop38
140
0.0
102
RTVSPost2010PropOp38
 70
     1
102
RTVSPost2010Prop39
140
1.0
102
RTVSPost2010PropOp39
 70
     1
102
RTVSPost2010Prop40
 90
        0
102
RTVSPost2010PropOp40
 70
     1
102
RTVSPost2010Prop41ColorIndex
 90
       18
102
RTVSPost2010Prop41ColorRGB
 90
        0
102
RTVSPost2010PropOp41
 70
     1
102
RTVSPost2010Prop42
 90
       50
102
RTVSPost2010PropOp42
 70
     1
102
RTVSPost2010Prop43
 90
        3
102
RTVSPost2010PropOp43
 70
     1
102
RTVSPost2010Prop44ColorIndex
 90
        5
102
RTVSPost2010Prop44ColorRGB
 90
      255
102
RTVSPost2010PropOp44
 70
     1
102
RTVSPost2010Prop45
280
     0
102
RTVSPost2010PropOp45
 70
     1
102
RTVSPost2010Prop46
 90
       50
102
RTVSPost2010PropOp46
 70
     1
102
RTVSPost2010Prop47
 90
       50
102
RTVSPost2010PropOp47
 70
     1
102
RTVSPost2010Prop48
 90
       50
102
RTVSPost2010PropOp48
 70
     1
102
RTVSPost2010Prop49
280
     0
102
RTVSPost2010PropOp49
 70
     1
102
RTVSPost2010Prop50
 90
       50
102
RTVSPost2010PropOp50
 70
     1
102
RTVSPost2010Prop51ColorIndex
 90
      256
102
RTVSPost2010Prop51ColorRGB
 90
-16777216
102
RTVSPost2010PropOp51
 70
     0
102
RTVSPost2010Prop52
140
1.0
102
RTVSPost2010PropOp52
 70
     0
102
RTVSPost2010Prop53
 90
        2
102
RTVSPost2010PropOp53
 70
     1
102
RTVSPost2010Prop54
  1
strokes_ogs.tif
102
RTVSPost2010PropOp54
 70
     1
102
RTVSPost2010Prop55
280
     0
102
RTVSPost2010PropOp55
 70
     1
102
RTVSPost2010Prop56
140
1.0
102
RTVSPost2010PropOp56
 70
     1
102
RTVSPost2010Prop57
140
1.0
102
RTVSPost2010PropOp57
 70
     1
102
RTVSPropertyOp0
 70
     1
102
RTVSPropertyOp1
 70
     1
102
RTVSPropertyOp2
 70
     1
102
RTVSPropertyOp3
 70
     1
102
RTVSPropertyOp4
 70
     1
102
RTVSPropertyOp5
 70
     1
102
RTVSPropertyOp6
 70
     1
102
RTVSPropertyOp7
 70
     1
102
RTVSPropertyOp8
 70
     1
102
RTVSPropertyOp9
 70
     1
102
RTVSPropertyOp10
 70
     1
102
RTVSPropertyOp11
 70
     1
102
RTVSPropertyOp12
 70
     1
102
RTVSPropertyOp13
 70
     1
102
RTVSPropertyOp14
 70
     1
102
RTVSPropertyOp15
 70
     1
102
RTVSPropertyOp16
 70
     1
102
RTVSPropertyOp17
 70
     1
102
RTVSPropertyOp18
 70
     1
102
RTVSPropertyOp19
 70
     1
102
RTVSPropertyOp20
 70
     1
102
RTVSPropertyOp21
 70
     1
102
RTVSPropertyOp22
 70
     1
102
RTVSPropertyOp23
 70
     1
102
RTVSPropertyOp24
 70
     1
102
RTVSPropertyOp25
 70
     1
102
RTVSPropertyOp26
 70
     1
102
RTVSPropertyOp27
 70
     1
102
RTVSPropertyOp28
 70
     1
102
RTVSPropertyOp29
 70
     1
102
RTVSPropertyOp30
 70
     1
102
RTVSPropertyOp31
 70
     1
102
RTVSPropertyOp32
 70
     1
102
RTVSPropertyOp33
 70
     1
102
RTVSPropertyOp34
 70
     1
102
RTVSPropertyOp35
 70
     1
102
RTVSPropertyOp36
 70
     1
102
RTVSPropertyOp37
 70
     1
102
RTVSPropertyOp38
 70
     1
102
RTVSPropertyOp39
 70
     1
102
RTVSPropertyOp40
 70
     1
102
RTVSPropertyOp41
 70
     1
102
RTVSPropertyOp42
 70
     1
102
RTVSPropertyOp43
 70
     1
102
RTVSPropertyOp44
 70
     1
102
RTVSPropertyOp45
 70
     1
102
RTVSPropertyOp46
 70
     1
102
RTVSPropertyOp47
 70
     1
102
RTVSPropertyOp48
 70
     1
102
RTVSPropertyOp49
 70
     1
102
RTVSPropertyOp50
 70
     1
102
RTVSPropertyOp51
 70
     0
102
RTVSPropertyOp52
 70
     0
102
RTVSPropertyOp53
 70
     1
102
RTVSPropertyOp54
 70
     1
102
RTVSPropertyOp55
 70
     1
102
RTVSPropertyOp56
 70
     1
102
RTVSPropertyOp57
 70
     1
102
RTVSPropertyOp58
 70
     1
102
RTVSPropertyOp59
 70
     1
102
RTVSPropertyOp60
 70
     1
102
RTVSPropertyOp61
 70
     1
102
RTVSPropertyOp62
 70
     1
  0
XRECORD
  5
8355
102
{ACAD_REACTORS
330
8354
102
}
330
8354
100
AcDbXrecord
280
     1
102
RTVSPost2010Prop28
280
     0
102
RTVSPost2010PropOp28
 70
     1
102
RTVSPost2010Prop29
280
     1
102
RTVSPost2010PropOp29
 70
     1
102
RTVSPost2010Prop30
280
     1
102
RTVSPost2010PropOp30
 70
     1
102
RTVSPost2010Prop31
280
     0
102
RTVSPost2010PropOp31
 70
     1
102
RTVSPost2010Prop32
280
     0
102
RTVSPost2010PropOp32
 70
     1
102
RTVSPost2010Prop33
280
     0
102
RTVSPost2010PropOp33
 70
     1
102
RTVSPost2010Prop34
280
     0
102
RTVSPost2010PropOp34
 70
     1
102
RTVSPost2010Prop35
280
     0
102
RTVSPost2010PropOp35
 70
     1
102
RTVSPost2010Prop36
280
     0
102
RTVSPost2010PropOp36
 70
     1
102
RTVSPost2010Prop37
 90
       50
102
RTVSPost2010PropOp37
 70
     1
102
RTVSPost2010Prop38
140
0.0
102
RTVSPost2010PropOp38
 70
     1
102
RTVSPost2010Prop39
140
1.0
102
RTVSPost2010PropOp39
 70
     1
102
RTVSPost2010Prop40
 90
        0
102
RTVSPost2010PropOp40
 70
     1
102
RTVSPost2010Prop41ColorIndex
 90
       18
102
RTVSPost2010Prop41ColorRGB
 90
        0
102
RTVSPost2010PropOp41
 70
     1
102
RTVSPost2010Prop42
 90
       50
102
RTVSPost2010PropOp42
 70
     1
102
RTVSPost2010Prop43
 90
        3
102
RTVSPost2010PropOp43
 70
     1
102
RTVSPost2010Prop44ColorIndex
 90
        5
102
RTVSPost2010Prop44ColorRGB
 90
      255
102
RTVSPost2010PropOp44
 70
     1
102
RTVSPost2010Prop45
280
     0
102
RTVSPost2010PropOp45
 70
     1
102
RTVSPost2010Prop46
 90
       50
102
RTVSPost2010PropOp46
 70
     1
102
RTVSPost2010Prop47
 90
       50
102
RTVSPost2010PropOp47
 70
     1
102
RTVSPost2010Prop48
 90
       50
102
RTVSPost2010PropOp48
 70
     1
102
RTVSPost2010Prop49
280
     0
102
RTVSPost2010PropOp49
 70
     1
102
RTVSPost2010Prop50
 90
       50
102
RTVSPost2010PropOp50
 70
     1
102
RTVSPost2010Prop51ColorIndex
 90
      256
102
RTVSPost2010Prop51ColorRGB
 90
-16777216
102
RTVSPost2010PropOp51
 70
     0
102
RTVSPost2010Prop52
140
1.0
102
RTVSPost2010PropOp52
 70
     0
102
RTVSPost2010Prop53
 90
        2
102
RTVSPost2010PropOp53
 70
     1
102
RTVSPost2010Prop54
  1
strokes_ogs.tif
102
RTVSPost2010PropOp54
 70
     1
102
RTVSPost2010Prop55
280
     0
102
RTVSPost2010PropOp55
 70
     1
102
RTVSPost2010Prop56
140
1.0
102
RTVSPost2010PropOp56
 70
     1
102
RTVSPost2010Prop57
140
1.0
102
RTVSPost2010PropOp57
 70
     1
102
RTVSPropertyOp0
 70
     1
102
RTVSPropertyOp1
 70
     1
102
RTVSPropertyOp2
 70
     1
102
RTVSPropertyOp3
 70
     1
102
RTVSPropertyOp4
 70
     1
102
RTVSPropertyOp5
 70
     1
102
RTVSPropertyOp6
 70
     1
102
RTVSPropertyOp7
 70
     1
102
RTVSPropertyOp8
 70
     1
102
RTVSPropertyOp9
 70
     1
102
RTVSPropertyOp10
 70
     1
102
RTVSPropertyOp11
 70
     1
102
RTVSPropertyOp12
 70
     1
102
RTVSPropertyOp13
 70
     1
102
RTVSPropertyOp14
 70
     1
102
RTVSPropertyOp15
 70
     1
102
RTVSPropertyOp16
 70
     1
102
RTVSPropertyOp17
 70
     1
102
RTVSPropertyOp18
 70
     1
102
RTVSPropertyOp19
 70
     1
102
RTVSPropertyOp20
 70
     1
102
RTVSPropertyOp21
 70
     1
102
RTVSPropertyOp22
 70
     1
102
RTVSPropertyOp23
 70
     1
102
RTVSPropertyOp24
 70
     1
102
RTVSPropertyOp25
 70
     1
102
RTVSPropertyOp26
 70
     1
102
RTVSPropertyOp27
 70
     1
102
RTVSPropertyOp28
 70
     1
102
RTVSPropertyOp29
 70
     1
102
RTVSPropertyOp30
 70
     1
102
RTVSPropertyOp31
 70
     1
102
RTVSPropertyOp32
 70
     1
102
RTVSPropertyOp33
 70
     1
102
RTVSPropertyOp34
 70
     1
102
RTVSPropertyOp35
 70
     1
102
RTVSPropertyOp36
 70
     1
102
RTVSPropertyOp37
 70
     1
102
RTVSPropertyOp38
 70
     1
102
RTVSPropertyOp39
 70
     1
102
RTVSPropertyOp40
 70
     1
102
RTVSPropertyOp41
 70
     1
102
RTVSPropertyOp42
 70
     1
102
RTVSPropertyOp43
 70
     1
102
RTVSPropertyOp44
 70
     1
102
RTVSPropertyOp45
 70
     1
102
RTVSPropertyOp46
 70
     1
102
RTVSPropertyOp47
 70
     1
102
RTVSPropertyOp48
 70
     1
102
RTVSPropertyOp49
 70
     1
102
RTVSPropertyOp50
 70
     1
102
RTVSPropertyOp51
 70
     0
102
RTVSPropertyOp52
 70
     0
102
RTVSPropertyOp53
 70
     1
102
RTVSPropertyOp54
 70
     1
102
RTVSPropertyOp55
 70
     1
102
RTVSPropertyOp56
 70
     1
102
RTVSPropertyOp57
 70
     1
102
RTVSPropertyOp58
 70
     1
102
RTVSPropertyOp59
 70
     1
102
RTVSPropertyOp60
 70
     1
102
RTVSPropertyOp61
 70
     1
102
RTVSPropertyOp62
 70
     1
  0
XRECORD
  5
8359
102
{ACAD_REACTORS
330
8358
102
}
330
8358
100
AcDbXrecord
280
     1
102
RTVSPost2010Prop28
280
     0
102
RTVSPost2010PropOp28
 70
     1
102
RTVSPost2010Prop29
280
     1
102
RTVSPost2010PropOp29
 70
     1
102
RTVSPost2010Prop30
280
     1
102
RTVSPost2010PropOp30
 70
     1
102
RTVSPost2010Prop31
280
     0
102
RTVSPost2010PropOp31
 70
     1
102
RTVSPost2010Prop32
280
     0
102
RTVSPost2010PropOp32
 70
     1
102
RTVSPost2010Prop33
280
     0
102
RTVSPost2010PropOp33
 70
     1
102
RTVSPost2010Prop34
280
     0
102
RTVSPost2010PropOp34
 70
     1
102
RTVSPost2010Prop35
280
     0
102
RTVSPost2010PropOp35
 70
     1
102
RTVSPost2010Prop36
280
     0
102
RTVSPost2010PropOp36
 70
     1
102
RTVSPost2010Prop37
 90
       50
102
RTVSPost2010PropOp37
 70
     1
102
RTVSPost2010Prop38
140
0.0
102
RTVSPost2010PropOp38
 70
     1
102
RTVSPost2010Prop39
140
1.0
102
RTVSPost2010PropOp39
 70
     1
102
RTVSPost2010Prop40
 90
        0
102
RTVSPost2010PropOp40
 70
     1
102
RTVSPost2010Prop41ColorIndex
 90
       18
102
RTVSPost2010Prop41ColorRGB
 90
        0
102
RTVSPost2010PropOp41
 70
     1
102
RTVSPost2010Prop42
 90
       50
102
RTVSPost2010PropOp42
 70
     1
102
RTVSPost2010Prop43
 90
        3
102
RTVSPost2010PropOp43
 70
     1
102
RTVSPost2010Prop44ColorIndex
 90
        5
102
RTVSPost2010Prop44ColorRGB
 90
      255
102
RTVSPost2010PropOp44
 70
     1
102
RTVSPost2010Prop45
280
     0
102
RTVSPost2010PropOp45
 70
     1
102
RTVSPost2010Prop46
 90
       50
102
RTVSPost2010PropOp46
 70
     1
102
RTVSPost2010Prop47
 90
       50
102
RTVSPost2010PropOp47
 70
     1
102
RTVSPost2010Prop48
 90
       50
102
RTVSPost2010PropOp48
 70
     1
102
RTVSPost2010Prop49
280
     0
102
RTVSPost2010PropOp49
 70
     1
102
RTVSPost2010Prop50
 90
       50
102
RTVSPost2010PropOp50
 70
     1
102
RTVSPost2010Prop51ColorIndex
 90
      256
102
RTVSPost2010Prop51ColorRGB
 90
-16777216
102
RTVSPost2010PropOp51
 70
     0
102
RTVSPost2010Prop52
140
1.0
102
RTVSPost2010PropOp52
 70
     0
102
RTVSPost2010Prop53
 90
        2
102
RTVSPost2010PropOp53
 70
     1
102
RTVSPost2010Prop54
  1
strokes_ogs.tif
102
RTVSPost2010PropOp54
 70
     1
102
RTVSPost2010Prop55
280
     0
102
RTVSPost2010PropOp55
 70
     1
102
RTVSPost2010Prop56
140
1.0
102
RTVSPost2010PropOp56
 70
     1
102
RTVSPost2010Prop57
140
1.0
102
RTVSPost2010PropOp57
 70
     1
102
RTVSPropertyOp0
 70
     1
102
RTVSPropertyOp1
 70
     1
102
RTVSPropertyOp2
 70
     1
102
RTVSPropertyOp3
 70
     1
102
RTVSPropertyOp4
 70
     1
102
RTVSPropertyOp5
 70
     1
102
RTVSPropertyOp6
 70
     1
102
RTVSPropertyOp7
 70
     1
102
RTVSPropertyOp8
 70
     1
102
RTVSPropertyOp9
 70
     1
102
RTVSPropertyOp10
 70
     1
102
RTVSPropertyOp11
 70
     1
102
RTVSPropertyOp12
 70
     1
102
RTVSPropertyOp13
 70
     1
102
RTVSPropertyOp14
 70
     1
102
RTVSPropertyOp15
 70
     1
102
RTVSPropertyOp16
 70
     1
102
RTVSPropertyOp17
 70
     1
102
RTVSPropertyOp18
 70
     1
102
RTVSPropertyOp19
 70
     1
102
RTVSPropertyOp20
 70
     1
102
RTVSPropertyOp21
 70
     1
102
RTVSPropertyOp22
 70
     1
102
RTVSPropertyOp23
 70
     1
102
RTVSPropertyOp24
 70
     1
102
RTVSPropertyOp25
 70
     1
102
RTVSPropertyOp26
 70
     1
102
RTVSPropertyOp27
 70
     1
102
RTVSPropertyOp28
 70
     1
102
RTVSPropertyOp29
 70
     1
102
RTVSPropertyOp30
 70
     1
102
RTVSPropertyOp31
 70
     1
102
RTVSPropertyOp32
 70
     1
102
RTVSPropertyOp33
 70
     1
102
RTVSPropertyOp34
 70
     1
102
RTVSPropertyOp35
 70
     1
102
RTVSPropertyOp36
 70
     1
102
RTVSPropertyOp37
 70
     1
102
RTVSPropertyOp38
 70
     1
102
RTVSPropertyOp39
 70
     1
102
RTVSPropertyOp40
 70
     1
102
RTVSPropertyOp41
 70
     1
102
RTVSPropertyOp42
 70
     1
102
RTVSPropertyOp43
 70
     1
102
RTVSPropertyOp44
 70
     1
102
RTVSPropertyOp45
 70
     1
102
RTVSPropertyOp46
 70
     1
102
RTVSPropertyOp47
 70
     1
102
RTVSPropertyOp48
 70
     1
102
RTVSPropertyOp49
 70
     1
102
RTVSPropertyOp50
 70
     1
102
RTVSPropertyOp51
 70
     0
102
RTVSPropertyOp52
 70
     0
102
RTVSPropertyOp53
 70
     1
102
RTVSPropertyOp54
 70
     1
102
RTVSPropertyOp55
 70
     1
102
RTVSPropertyOp56
 70
     1
102
RTVSPropertyOp57
 70
     1
102
RTVSPropertyOp58
 70
     1
102
RTVSPropertyOp59
 70
     1
102
RTVSPropertyOp60
 70
     1
102
RTVSPropertyOp61
 70
     1
102
RTVSPropertyOp62
 70
     1
  0
XRECORD
  5
8373
102
{ACAD_REACTORS
330
8372
102
}
330
8372
100
AcDbXrecord
280
     1
102
RTVSPost2010Prop28
280
     0
102
RTVSPost2010PropOp28
 70
     1
102
RTVSPost2010Prop29
280
     1
102
RTVSPost2010PropOp29
 70
     1
102
RTVSPost2010Prop30
280
     1
102
RTVSPost2010PropOp30
 70
     1
102
RTVSPost2010Prop31
280
     0
102
RTVSPost2010PropOp31
 70
     1
102
RTVSPost2010Prop32
280
     0
102
RTVSPost2010PropOp32
 70
     1
102
RTVSPost2010Prop33
280
     0
102
RTVSPost2010PropOp33
 70
     1
102
RTVSPost2010Prop34
280
     0
102
RTVSPost2010PropOp34
 70
     1
102
RTVSPost2010Prop35
280
     0
102
RTVSPost2010PropOp35
 70
     1
102
RTVSPost2010Prop36
280
     0
102
RTVSPost2010PropOp36
 70
     1
102
RTVSPost2010Prop37
 90
       50
102
RTVSPost2010PropOp37
 70
     0
102
RTVSPost2010Prop38
140
0.0
102
RTVSPost2010PropOp38
 70
     0
102
RTVSPost2010Prop39
140
1.0
102
RTVSPost2010PropOp39
 70
     0
102
RTVSPost2010Prop40
 90
        0
102
RTVSPost2010PropOp40
 70
     0
102
RTVSPost2010Prop41ColorIndex
 90
       18
102
RTVSPost2010Prop41ColorRGB
 90
        0
102
RTVSPost2010PropOp41
 70
     0
102
RTVSPost2010Prop42
 90
       50
102
RTVSPost2010PropOp42
 70
     0
102
RTVSPost2010Prop43
 90
        3
102
RTVSPost2010PropOp43
 70
     0
102
RTVSPost2010Prop44ColorIndex
 90
        5
102
RTVSPost2010Prop44ColorRGB
 90
      255
102
RTVSPost2010PropOp44
 70
     0
102
RTVSPost2010Prop45
280
     0
102
RTVSPost2010PropOp45
 70
     1
102
RTVSPost2010Prop46
 90
       50
102
RTVSPost2010PropOp46
 70
     0
102
RTVSPost2010Prop47
 90
       50
102
RTVSPost2010PropOp47
 70
     0
102
RTVSPost2010Prop48
 90
       50
102
RTVSPost2010PropOp48
 70
     0
102
RTVSPost2010Prop49
280
     0
102
RTVSPost2010PropOp49
 70
     1
102
RTVSPost2010Prop50
 90
       50
102
RTVSPost2010PropOp50
 70
     0
102
RTVSPost2010Prop51ColorIndex
 90
      256
102
RTVSPost2010Prop51ColorRGB
 90
-16777216
102
RTVSPost2010PropOp51
 70
     0
102
RTVSPost2010Prop52
140
1.0
102
RTVSPost2010PropOp52
 70
     0
102
RTVSPost2010Prop53
 90
        2
102
RTVSPost2010PropOp53
 70
     0
102
RTVSPost2010Prop54
  1
strokes_ogs.tif
102
RTVSPost2010PropOp54
 70
     0
102
RTVSPost2010Prop55
280
     0
102
RTVSPost2010PropOp55
 70
     1
102
RTVSPost2010Prop56
140
1.0
102
RTVSPost2010PropOp56
 70
     0
102
RTVSPost2010Prop57
140
1.0
102
RTVSPost2010PropOp57
 70
     0
102
RTVSPropertyOp0
 70
     0
102
RTVSPropertyOp1
 70
     0
102
RTVSPropertyOp2
 70
     0
102
RTVSPropertyOp3
 70
     0
102
RTVSPropertyOp4
 70
     0
102
RTVSPropertyOp5
 70
     0
102
RTVSPropertyOp6
 70
     0
102
RTVSPropertyOp7
 70
     0
102
RTVSPropertyOp8
 70
     0
102
RTVSPropertyOp9
 70
     0
102
RTVSPropertyOp10
 70
     0
102
RTVSPropertyOp11
 70
     0
102
RTVSPropertyOp12
 70
     0
102
RTVSPropertyOp13
 70
     0
102
RTVSPropertyOp14
 70
     2
102
RTVSPropertyOp15
 70
     0
102
RTVSPropertyOp16
 70
     0
102
RTVSPropertyOp17
 70
     0
102
RTVSPropertyOp18
 70
     0
102
RTVSPropertyOp19
 70
     0
102
RTVSPropertyOp20
 70
     0
102
RTVSPropertyOp21
 70
     0
102
RTVSPropertyOp22
 70
     0
102
RTVSPropertyOp23
 70
     0
102
RTVSPropertyOp24
 70
     0
102
RTVSPropertyOp25
 70
     0
102
RTVSPropertyOp26
 70
     0
102
RTVSPropertyOp27
 70
     0
102
RTVSPropertyOp28
 70
     1
102
RTVSPropertyOp29
 70
     1
102
RTVSPropertyOp30
 70
     1
102
RTVSPropertyOp31
 70
     1
102
RTVSPropertyOp32
 70
     1
102
RTVSPropertyOp33
 70
     1
102
RTVSPropertyOp34
 70
     1
102
RTVSPropertyOp35
 70
     1
102
RTVSPropertyOp36
 70
     1
102
RTVSPropertyOp37
 70
     0
102
RTVSPropertyOp38
 70
     0
102
RTVSPropertyOp39
 70
     0
102
RTVSPropertyOp40
 70
     0
102
RTVSPropertyOp41
 70
     0
102
RTVSPropertyOp42
 70
     0
102
RTVSPropertyOp43
 70
     0
102
RTVSPropertyOp44
 70
     0
102
RTVSPropertyOp45
 70
     1
102
RTVSPropertyOp46
 70
     0
102
RTVSPropertyOp47
 70
     0
102
RTVSPropertyOp48
 70
     0
102
RTVSPropertyOp49
 70
     1
102
RTVSPropertyOp50
 70
     0
102
RTVSPropertyOp51
 70
     0
102
RTVSPropertyOp52
 70
     0
102
RTVSPropertyOp53
 70
     0
102
RTVSPropertyOp54
 70
     0
102
RTVSPropertyOp55
 70
     1
102
RTVSPropertyOp56
 70
     0
102
RTVSPropertyOp57
 70
     0
102
RTVSPropertyOp58
 70
     0
102
RTVSPropertyOp59
 70
     0
102
RTVSPropertyOp60
 70
     0
102
RTVSPropertyOp61
 70
     0
102
RTVSPropertyOp62
 70
     0
  0
XRECORD
  5
8361
102
{ACAD_REACTORS
330
8360
102
}
330
8360
100
AcDbXrecord
280
     1
102
RTVSPost2010Prop28
280
     0
102
RTVSPost2010PropOp28
 70
     1
102
RTVSPost2010Prop29
280
     1
102
RTVSPost2010PropOp29
 70
     1
102
RTVSPost2010Prop30
280
     1
102
RTVSPost2010PropOp30
 70
     1
102
RTVSPost2010Prop31
280
     0
102
RTVSPost2010PropOp31
 70
     1
102
RTVSPost2010Prop32
280
     0
102
RTVSPost2010PropOp32
 70
     1
102
RTVSPost2010Prop33
280
     0
102
RTVSPost2010PropOp33
 70
     1
102
RTVSPost2010Prop34
280
     0
102
RTVSPost2010PropOp34
 70
     1
102
RTVSPost2010Prop35
280
     0
102
RTVSPost2010PropOp35
 70
     1
102
RTVSPost2010Prop36
280
     0
102
RTVSPost2010PropOp36
 70
     1
102
RTVSPost2010Prop37
 90
       50
102
RTVSPost2010PropOp37
 70
     1
102
RTVSPost2010Prop38
140
0.0
102
RTVSPost2010PropOp38
 70
     1
102
RTVSPost2010Prop39
140
1.0
102
RTVSPost2010PropOp39
 70
     1
102
RTVSPost2010Prop40
 90
        0
102
RTVSPost2010PropOp40
 70
     1
102
RTVSPost2010Prop41ColorIndex
 90
       18
102
RTVSPost2010Prop41ColorRGB
 90
        0
102
RTVSPost2010PropOp41
 70
     1
102
RTVSPost2010Prop42
 90
       50
102
RTVSPost2010PropOp42
 70
     1
102
RTVSPost2010Prop43
 90
        3
102
RTVSPost2010PropOp43
 70
     1
102
RTVSPost2010Prop44ColorIndex
 90
        5
102
RTVSPost2010Prop44ColorRGB
 90
      255
102
RTVSPost2010PropOp44
 70
     1
102
RTVSPost2010Prop45
280
     0
102
RTVSPost2010PropOp45
 70
     1
102
RTVSPost2010Prop46
 90
       50
102
RTVSPost2010PropOp46
 70
     1
102
RTVSPost2010Prop47
 90
       50
102
RTVSPost2010PropOp47
 70
     1
102
RTVSPost2010Prop48
 90
       50
102
RTVSPost2010PropOp48
 70
     1
102
RTVSPost2010Prop49
280
     0
102
RTVSPost2010PropOp49
 70
     1
102
RTVSPost2010Prop50
 90
       50
102
RTVSPost2010PropOp50
 70
     1
102
RTVSPost2010Prop51ColorIndex
 90
      256
102
RTVSPost2010Prop51ColorRGB
 90
-16777216
102
RTVSPost2010PropOp51
 70
     0
102
RTVSPost2010Prop52
140
1.0
102
RTVSPost2010PropOp52
 70
     0
102
RTVSPost2010Prop53
 90
        2
102
RTVSPost2010PropOp53
 70
     1
102
RTVSPost2010Prop54
  1
strokes_ogs.tif
102
RTVSPost2010PropOp54
 70
     1
102
RTVSPost2010Prop55
280
     0
102
RTVSPost2010PropOp55
 70
     1
102
RTVSPost2010Prop56
140
1.0
102
RTVSPost2010PropOp56
 70
     1
102
RTVSPost2010Prop57
140
1.0
102
RTVSPost2010PropOp57
 70
     1
102
RTVSPropertyOp0
 70
     1
102
RTVSPropertyOp1
 70
     1
102
RTVSPropertyOp2
 70
     1
102
RTVSPropertyOp3
 70
     1
102
RTVSPropertyOp4
 70
     1
102
RTVSPropertyOp5
 70
     1
102
RTVSPropertyOp6
 70
     1
102
RTVSPropertyOp7
 70
     1
102
RTVSPropertyOp8
 70
     1
102
RTVSPropertyOp9
 70
     1
102
RTVSPropertyOp10
 70
     1
102
RTVSPropertyOp11
 70
     1
102
RTVSPropertyOp12
 70
     1
102
RTVSPropertyOp13
 70
     1
102
RTVSPropertyOp14
 70
     1
102
RTVSPropertyOp15
 70
     1
102
RTVSPropertyOp16
 70
     1
102
RTVSPropertyOp17
 70
     1
102
RTVSPropertyOp18
 70
     1
102
RTVSPropertyOp19
 70
     1
102
RTVSPropertyOp20
 70
     1
102
RTVSPropertyOp21
 70
     1
102
RTVSPropertyOp22
 70
     1
102
RTVSPropertyOp23
 70
     1
102
RTVSPropertyOp24
 70
     1
102
RTVSPropertyOp25
 70
     1
102
RTVSPropertyOp26
 70
     1
102
RTVSPropertyOp27
 70
     1
102
RTVSPropertyOp28
 70
     1
102
RTVSPropertyOp29
 70
     1
102
RTVSPropertyOp30
 70
     1
102
RTVSPropertyOp31
 70
     1
102
RTVSPropertyOp32
 70
     1
102
RTVSPropertyOp33
 70
     1
102
RTVSPropertyOp34
 70
     1
102
RTVSPropertyOp35
 70
     1
102
RTVSPropertyOp36
 70
     1
102
RTVSPropertyOp37
 70
     1
102
RTVSPropertyOp38
 70
     1
102
RTVSPropertyOp39
 70
     1
102
RTVSPropertyOp40
 70
     1
102
RTVSPropertyOp41
 70
     1
102
RTVSPropertyOp42
 70
     1
102
RTVSPropertyOp43
 70
     1
102
RTVSPropertyOp44
 70
     1
102
RTVSPropertyOp45
 70
     1
102
RTVSPropertyOp46
 70
     1
102
RTVSPropertyOp47
 70
     1
102
RTVSPropertyOp48
 70
     1
102
RTVSPropertyOp49
 70
     1
102
RTVSPropertyOp50
 70
     1
102
RTVSPropertyOp51
 70
     0
102
RTVSPropertyOp52
 70
     0
102
RTVSPropertyOp53
 70
     1
102
RTVSPropertyOp54
 70
     1
102
RTVSPropertyOp55
 70
     1
102
RTVSPropertyOp56
 70
     1
102
RTVSPropertyOp57
 70
     1
102
RTVSPropertyOp58
 70
     1
102
RTVSPropertyOp59
 70
     1
102
RTVSPropertyOp60
 70
     1
102
RTVSPropertyOp61
 70
     1
102
RTVSPropertyOp62
 70
     1
  0
XRECORD
  5
8345
102
{ACAD_REACTORS
330
8344
102
}
330
8344
100
AcDbXrecord
280
     1
102
RTVSPost2010Prop28
280
     0
102
RTVSPost2010PropOp28
 70
     1
102
RTVSPost2010Prop29
280
     1
102
RTVSPost2010PropOp29
 70
     1
102
RTVSPost2010Prop30
280
     1
102
RTVSPost2010PropOp30
 70
     1
102
RTVSPost2010Prop31
280
     0
102
RTVSPost2010PropOp31
 70
     1
102
RTVSPost2010Prop32
280
     0
102
RTVSPost2010PropOp32
 70
     1
102
RTVSPost2010Prop33
280
     0
102
RTVSPost2010PropOp33
 70
     1
102
RTVSPost2010Prop34
280
     0
102
RTVSPost2010PropOp34
 70
     1
102
RTVSPost2010Prop35
280
     0
102
RTVSPost2010PropOp35
 70
     1
102
RTVSPost2010Prop36
280
     0
102
RTVSPost2010PropOp36
 70
     1
102
RTVSPost2010Prop37
 90
       50
102
RTVSPost2010PropOp37
 70
     1
102
RTVSPost2010Prop38
140
0.0
102
RTVSPost2010PropOp38
 70
     1
102
RTVSPost2010Prop39
140
1.0
102
RTVSPost2010PropOp39
 70
     1
102
RTVSPost2010Prop40
 90
        0
102
RTVSPost2010PropOp40
 70
     1
102
RTVSPost2010Prop41ColorIndex
 90
       18
102
RTVSPost2010Prop41ColorRGB
 90
        0
102
RTVSPost2010PropOp41
 70
     1
102
RTVSPost2010Prop42
 90
       50
102
RTVSPost2010PropOp42
 70
     1
102
RTVSPost2010Prop43
 90
        3
102
RTVSPost2010PropOp43
 70
     1
102
RTVSPost2010Prop44ColorIndex
 90
        5
102
RTVSPost2010Prop44ColorRGB
 90
      255
102
RTVSPost2010PropOp44
 70
     1
102
RTVSPost2010Prop45
280
     0
102
RTVSPost2010PropOp45
 70
     1
102
RTVSPost2010Prop46
 90
       50
102
RTVSPost2010PropOp46
 70
     1
102
RTVSPost2010Prop47
 90
       50
102
RTVSPost2010PropOp47
 70
     1
102
RTVSPost2010Prop48
 90
       50
102
RTVSPost2010PropOp48
 70
     1
102
RTVSPost2010Prop49
280
     0
102
RTVSPost2010PropOp49
 70
     1
102
RTVSPost2010Prop50
 90
       50
102
RTVSPost2010PropOp50
 70
     1
102
RTVSPost2010Prop51ColorIndex
 90
      256
102
RTVSPost2010Prop51ColorRGB
 90
-16777216
102
RTVSPost2010PropOp51
 70
     0
102
RTVSPost2010Prop52
140
1.0
102
RTVSPost2010PropOp52
 70
     0
102
RTVSPost2010Prop53
 90
        2
102
RTVSPost2010PropOp53
 70
     1
102
RTVSPost2010Prop54
  1
strokes_ogs.tif
102
RTVSPost2010PropOp54
 70
     1
102
RTVSPost2010Prop55
280
     0
102
RTVSPost2010PropOp55
 70
     1
102
RTVSPost2010Prop56
140
1.0
102
RTVSPost2010PropOp56
 70
     1
102
RTVSPost2010Prop57
140
1.0
102
RTVSPost2010PropOp57
 70
     1
102
RTVSPropertyOp0
 70
     1
102
RTVSPropertyOp1
 70
     1
102
RTVSPropertyOp2
 70
     1
102
RTVSPropertyOp3
 70
     1
102
RTVSPropertyOp4
 70
     1
102
RTVSPropertyOp5
 70
     1
102
RTVSPropertyOp6
 70
     1
102
RTVSPropertyOp7
 70
     1
102
RTVSPropertyOp8
 70
     1
102
RTVSPropertyOp9
 70
     1
102
RTVSPropertyOp10
 70
     1
102
RTVSPropertyOp11
 70
     1
102
RTVSPropertyOp12
 70
     1
102
RTVSPropertyOp13
 70
     1
102
RTVSPropertyOp14
 70
     1
102
RTVSPropertyOp15
 70
     1
102
RTVSPropertyOp16
 70
     1
102
RTVSPropertyOp17
 70
     1
102
RTVSPropertyOp18
 70
     1
102
RTVSPropertyOp19
 70
     1
102
RTVSPropertyOp20
 70
     1
102
RTVSPropertyOp21
 70
     1
102
RTVSPropertyOp22
 70
     1
102
RTVSPropertyOp23
 70
     1
102
RTVSPropertyOp24
 70
     1
102
RTVSPropertyOp25
 70
     1
102
RTVSPropertyOp26
 70
     1
102
RTVSPropertyOp27
 70
     1
102
RTVSPropertyOp28
 70
     1
102
RTVSPropertyOp29
 70
     1
102
RTVSPropertyOp30
 70
     1
102
RTVSPropertyOp31
 70
     1
102
RTVSPropertyOp32
 70
     1
102
RTVSPropertyOp33
 70
     1
102
RTVSPropertyOp34
 70
     1
102
RTVSPropertyOp35
 70
     1
102
RTVSPropertyOp36
 70
     1
102
RTVSPropertyOp37
 70
     1
102
RTVSPropertyOp38
 70
     1
102
RTVSPropertyOp39
 70
     1
102
RTVSPropertyOp40
 70
     1
102
RTVSPropertyOp41
 70
     1
102
RTVSPropertyOp42
 70
     1
102
RTVSPropertyOp43
 70
     1
102
RTVSPropertyOp44
 70
     1
102
RTVSPropertyOp45
 70
     1
102
RTVSPropertyOp46
 70
     1
102
RTVSPropertyOp47
 70
     1
102
RTVSPropertyOp48
 70
     1
102
RTVSPropertyOp49
 70
     1
102
RTVSPropertyOp50
 70
     1
102
RTVSPropertyOp51
 70
     0
102
RTVSPropertyOp52
 70
     0
102
RTVSPropertyOp53
 70
     1
102
RTVSPropertyOp54
 70
     1
102
RTVSPropertyOp55
 70
     1
102
RTVSPropertyOp56
 70
     1
102
RTVSPropertyOp57
 70
     1
102
RTVSPropertyOp58
 70
     1
102
RTVSPropertyOp59
 70
     1
102
RTVSPropertyOp60
 70
     1
102
RTVSPropertyOp61
 70
     1
102
RTVSPropertyOp62
 70
     1
  0
XRECORD
  5
8347
102
{ACAD_REACTORS
330
8346
102
}
330
8346
100
AcDbXrecord
280
     1
102
RTVSPost2010Prop28
280
     0
102
RTVSPost2010PropOp28
 70
     1
102
RTVSPost2010Prop29
280
     1
102
RTVSPost2010PropOp29
 70
     1
102
RTVSPost2010Prop30
280
     1
102
RTVSPost2010PropOp30
 70
     1
102
RTVSPost2010Prop31
280
     0
102
RTVSPost2010PropOp31
 70
     1
102
RTVSPost2010Prop32
280
     0
102
RTVSPost2010PropOp32
 70
     1
102
RTVSPost2010Prop33
280
     0
102
RTVSPost2010PropOp33
 70
     1
102
RTVSPost2010Prop34
280
     0
102
RTVSPost2010PropOp34
 70
     1
102
RTVSPost2010Prop35
280
     0
102
RTVSPost2010PropOp35
 70
     1
102
RTVSPost2010Prop36
280
     0
102
RTVSPost2010PropOp36
 70
     1
102
RTVSPost2010Prop37
 90
       50
102
RTVSPost2010PropOp37
 70
     1
102
RTVSPost2010Prop38
140
0.0
102
RTVSPost2010PropOp38
 70
     1
102
RTVSPost2010Prop39
140
1.0
102
RTVSPost2010PropOp39
 70
     1
102
RTVSPost2010Prop40
 90
        0
102
RTVSPost2010PropOp40
 70
     1
102
RTVSPost2010Prop41ColorIndex
 90
       18
102
RTVSPost2010Prop41ColorRGB
 90
        0
102
RTVSPost2010PropOp41
 70
     1
102
RTVSPost2010Prop42
 90
       50
102
RTVSPost2010PropOp42
 70
     1
102
RTVSPost2010Prop43
 90
        3
102
RTVSPost2010PropOp43
 70
     1
102
RTVSPost2010Prop44ColorIndex
 90
        5
102
RTVSPost2010Prop44ColorRGB
 90
      255
102
RTVSPost2010PropOp44
 70
     1
102
RTVSPost2010Prop45
280
     0
102
RTVSPost2010PropOp45
 70
     1
102
RTVSPost2010Prop46
 90
       50
102
RTVSPost2010PropOp46
 70
     1
102
RTVSPost2010Prop47
 90
       50
102
RTVSPost2010PropOp47
 70
     1
102
RTVSPost2010Prop48
 90
       50
102
RTVSPost2010PropOp48
 70
     1
102
RTVSPost2010Prop49
280
     0
102
RTVSPost2010PropOp49
 70
     1
102
RTVSPost2010Prop50
 90
       50
102
RTVSPost2010PropOp50
 70
     1
102
RTVSPost2010Prop51ColorIndex
 90
      256
102
RTVSPost2010Prop51ColorRGB
 90
-16777216
102
RTVSPost2010PropOp51
 70
     0
102
RTVSPost2010Prop52
140
1.0
102
RTVSPost2010PropOp52
 70
     0
102
RTVSPost2010Prop53
 90
        2
102
RTVSPost2010PropOp53
 70
     1
102
RTVSPost2010Prop54
  1
strokes_ogs.tif
102
RTVSPost2010PropOp54
 70
     1
102
RTVSPost2010Prop55
280
     0
102
RTVSPost2010PropOp55
 70
     1
102
RTVSPost2010Prop56
140
1.0
102
RTVSPost2010PropOp56
 70
     1
102
RTVSPost2010Prop57
140
1.0
102
RTVSPost2010PropOp57
 70
     1
102
RTVSPropertyOp0
 70
     1
102
RTVSPropertyOp1
 70
     1
102
RTVSPropertyOp2
 70
     1
102
RTVSPropertyOp3
 70
     1
102
RTVSPropertyOp4
 70
     1
102
RTVSPropertyOp5
 70
     1
102
RTVSPropertyOp6
 70
     1
102
RTVSPropertyOp7
 70
     1
102
RTVSPropertyOp8
 70
     1
102
RTVSPropertyOp9
 70
     1
102
RTVSPropertyOp10
 70
     1
102
RTVSPropertyOp11
 70
     1
102
RTVSPropertyOp12
 70
     1
102
RTVSPropertyOp13
 70
     1
102
RTVSPropertyOp14
 70
     1
102
RTVSPropertyOp15
 70
     1
102
RTVSPropertyOp16
 70
     1
102
RTVSPropertyOp17
 70
     1
102
RTVSPropertyOp18
 70
     1
102
RTVSPropertyOp19
 70
     1
102
RTVSPropertyOp20
 70
     1
102
RTVSPropertyOp21
 70
     1
102
RTVSPropertyOp22
 70
     1
102
RTVSPropertyOp23
 70
     1
102
RTVSPropertyOp24
 70
     1
102
RTVSPropertyOp25
 70
     1
102
RTVSPropertyOp26
 70
     1
102
RTVSPropertyOp27
 70
     1
102
RTVSPropertyOp28
 70
     1
102
RTVSPropertyOp29
 70
     1
102
RTVSPropertyOp30
 70
     1
102
RTVSPropertyOp31
 70
     1
102
RTVSPropertyOp32
 70
     1
102
RTVSPropertyOp33
 70
     1
102
RTVSPropertyOp34
 70
     1
102
RTVSPropertyOp35
 70
     1
102
RTVSPropertyOp36
 70
     1
102
RTVSPropertyOp37
 70
     1
102
RTVSPropertyOp38
 70
     1
102
RTVSPropertyOp39
 70
     1
102
RTVSPropertyOp40
 70
     1
102
RTVSPropertyOp41
 70
     1
102
RTVSPropertyOp42
 70
     1
102
RTVSPropertyOp43
 70
     1
102
RTVSPropertyOp44
 70
     1
102
RTVSPropertyOp45
 70
     1
102
RTVSPropertyOp46
 70
     1
102
RTVSPropertyOp47
 70
     1
102
RTVSPropertyOp48
 70
     1
102
RTVSPropertyOp49
 70
     1
102
RTVSPropertyOp50
 70
     1
102
RTVSPropertyOp51
 70
     0
102
RTVSPropertyOp52
 70
     0
102
RTVSPropertyOp53
 70
     1
102
RTVSPropertyOp54
 70
     1
102
RTVSPropertyOp55
 70
     1
102
RTVSPropertyOp56
 70
     1
102
RTVSPropertyOp57
 70
     1
102
RTVSPropertyOp58
 70
     1
102
RTVSPropertyOp59
 70
     1
102
RTVSPropertyOp60
 70
     1
102
RTVSPropertyOp61
 70
     1
102
RTVSPropertyOp62
 70
     1
  0
XRECORD
  5
8349
102
{ACAD_REACTORS
330
8348
102
}
330
8348
100
AcDbXrecord
280
     1
102
RTVSPost2010Prop28
280
     0
102
RTVSPost2010PropOp28
 70
     1
102
RTVSPost2010Prop29
280
     1
102
RTVSPost2010PropOp29
 70
     1
102
RTVSPost2010Prop30
280
     1
102
RTVSPost2010PropOp30
 70
     1
102
RTVSPost2010Prop31
280
     0
102
RTVSPost2010PropOp31
 70
     1
102
RTVSPost2010Prop32
280
     0
102
RTVSPost2010PropOp32
 70
     1
102
RTVSPost2010Prop33
280
     0
102
RTVSPost2010PropOp33
 70
     1
102
RTVSPost2010Prop34
280
     0
102
RTVSPost2010PropOp34
 70
     1
102
RTVSPost2010Prop35
280
     0
102
RTVSPost2010PropOp35
 70
     1
102
RTVSPost2010Prop36
280
     0
102
RTVSPost2010PropOp36
 70
     1
102
RTVSPost2010Prop37
 90
       50
102
RTVSPost2010PropOp37
 70
     1
102
RTVSPost2010Prop38
140
0.0
102
RTVSPost2010PropOp38
 70
     1
102
RTVSPost2010Prop39
140
1.0
102
RTVSPost2010PropOp39
 70
     1
102
RTVSPost2010Prop40
 90
        0
102
RTVSPost2010PropOp40
 70
     1
102
RTVSPost2010Prop41ColorIndex
 90
       18
102
RTVSPost2010Prop41ColorRGB
 90
        0
102
RTVSPost2010PropOp41
 70
     1
102
RTVSPost2010Prop42
 90
       50
102
RTVSPost2010PropOp42
 70
     1
102
RTVSPost2010Prop43
 90
        3
102
RTVSPost2010PropOp43
 70
     1
102
RTVSPost2010Prop44ColorIndex
 90
        5
102
RTVSPost2010Prop44ColorRGB
 90
      255
102
RTVSPost2010PropOp44
 70
     1
102
RTVSPost2010Prop45
280
     0
102
RTVSPost2010PropOp45
 70
     1
102
RTVSPost2010Prop46
 90
       50
102
RTVSPost2010PropOp46
 70
     1
102
RTVSPost2010Prop47
 90
       50
102
RTVSPost2010PropOp47
 70
     1
102
RTVSPost2010Prop48
 90
       50
102
RTVSPost2010PropOp48
 70
     1
102
RTVSPost2010Prop49
280
     0
102
RTVSPost2010PropOp49
 70
     1
102
RTVSPost2010Prop50
 90
       50
102
RTVSPost2010PropOp50
 70
     1
102
RTVSPost2010Prop51ColorIndex
 90
      256
102
RTVSPost2010Prop51ColorRGB
 90
-16777216
102
RTVSPost2010PropOp51
 70
     0
102
RTVSPost2010Prop52
140
1.0
102
RTVSPost2010PropOp52
 70
     0
102
RTVSPost2010Prop53
 90
        2
102
RTVSPost2010PropOp53
 70
     1
102
RTVSPost2010Prop54
  1
strokes_ogs.tif
102
RTVSPost2010PropOp54
 70
     1
102
RTVSPost2010Prop55
280
     0
102
RTVSPost2010PropOp55
 70
     1
102
RTVSPost2010Prop56
140
1.0
102
RTVSPost2010PropOp56
 70
     1
102
RTVSPost2010Prop57
140
1.0
102
RTVSPost2010PropOp57
 70
     1
102
RTVSPropertyOp0
 70
     1
102
RTVSPropertyOp1
 70
     1
102
RTVSPropertyOp2
 70
     1
102
RTVSPropertyOp3
 70
     1
102
RTVSPropertyOp4
 70
     1
102
RTVSPropertyOp5
 70
     1
102
RTVSPropertyOp6
 70
     1
102
RTVSPropertyOp7
 70
     1
102
RTVSPropertyOp8
 70
     1
102
RTVSPropertyOp9
 70
     1
102
RTVSPropertyOp10
 70
     1
102
RTVSPropertyOp11
 70
     1
102
RTVSPropertyOp12
 70
     1
102
RTVSPropertyOp13
 70
     1
102
RTVSPropertyOp14
 70
     1
102
RTVSPropertyOp15
 70
     1
102
RTVSPropertyOp16
 70
     1
102
RTVSPropertyOp17
 70
     1
102
RTVSPropertyOp18
 70
     1
102
RTVSPropertyOp19
 70
     1
102
RTVSPropertyOp20
 70
     1
102
RTVSPropertyOp21
 70
     1
102
RTVSPropertyOp22
 70
     1
102
RTVSPropertyOp23
 70
     1
102
RTVSPropertyOp24
 70
     1
102
RTVSPropertyOp25
 70
     1
102
RTVSPropertyOp26
 70
     1
102
RTVSPropertyOp27
 70
     1
102
RTVSPropertyOp28
 70
     1
102
RTVSPropertyOp29
 70
     1
102
RTVSPropertyOp30
 70
     1
102
RTVSPropertyOp31
 70
     1
102
RTVSPropertyOp32
 70
     1
102
RTVSPropertyOp33
 70
     1
102
RTVSPropertyOp34
 70
     1
102
RTVSPropertyOp35
 70
     1
102
RTVSPropertyOp36
 70
     1
102
RTVSPropertyOp37
 70
     1
102
RTVSPropertyOp38
 70
     1
102
RTVSPropertyOp39
 70
     1
102
RTVSPropertyOp40
 70
     1
102
RTVSPropertyOp41
 70
     1
102
RTVSPropertyOp42
 70
     1
102
RTVSPropertyOp43
 70
     1
102
RTVSPropertyOp44
 70
     1
102
RTVSPropertyOp45
 70
     1
102
RTVSPropertyOp46
 70
     1
102
RTVSPropertyOp47
 70
     1
102
RTVSPropertyOp48
 70
     1
102
RTVSPropertyOp49
 70
     1
102
RTVSPropertyOp50
 70
     1
102
RTVSPropertyOp51
 70
     0
102
RTVSPropertyOp52
 70
     0
102
RTVSPropertyOp53
 70
     1
102
RTVSPropertyOp54
 70
     1
102
RTVSPropertyOp55
 70
     1
102
RTVSPropertyOp56
 70
     1
102
RTVSPropertyOp57
 70
     1
102
RTVSPropertyOp58
 70
     1
102
RTVSPropertyOp59
 70
     1
102
RTVSPropertyOp60
 70
     1
102
RTVSPropertyOp61
 70
     1
102
RTVSPropertyOp62
 70
     1
  0
XRECORD
  5
834B
102
{ACAD_REACTORS
330
834A
102
}
330
834A
100
AcDbXrecord
280
     1
102
RTVSPost2010Prop28
280
     0
102
RTVSPost2010PropOp28
 70
     1
102
RTVSPost2010Prop29
280
     1
102
RTVSPost2010PropOp29
 70
     1
102
RTVSPost2010Prop30
280
     1
102
RTVSPost2010PropOp30
 70
     1
102
RTVSPost2010Prop31
280
     0
102
RTVSPost2010PropOp31
 70
     1
102
RTVSPost2010Prop32
280
     0
102
RTVSPost2010PropOp32
 70
     1
102
RTVSPost2010Prop33
280
     0
102
RTVSPost2010PropOp33
 70
     1
102
RTVSPost2010Prop34
280
     0
102
RTVSPost2010PropOp34
 70
     1
102
RTVSPost2010Prop35
280
     0
102
RTVSPost2010PropOp35
 70
     1
102
RTVSPost2010Prop36
280
     0
102
RTVSPost2010PropOp36
 70
     1
102
RTVSPost2010Prop37
 90
       50
102
RTVSPost2010PropOp37
 70
     1
102
RTVSPost2010Prop38
140
0.0
102
RTVSPost2010PropOp38
 70
     1
102
RTVSPost2010Prop39
140
1.0
102
RTVSPost2010PropOp39
 70
     1
102
RTVSPost2010Prop40
 90
        0
102
RTVSPost2010PropOp40
 70
     1
102
RTVSPost2010Prop41ColorIndex
 90
       18
102
RTVSPost2010Prop41ColorRGB
 90
        0
102
RTVSPost2010PropOp41
 70
     1
102
RTVSPost2010Prop42
 90
       50
102
RTVSPost2010PropOp42
 70
     1
102
RTVSPost2010Prop43
 90
        3
102
RTVSPost2010PropOp43
 70
     1
102
RTVSPost2010Prop44ColorIndex
 90
        5
102
RTVSPost2010Prop44ColorRGB
 90
      255
102
RTVSPost2010PropOp44
 70
     1
102
RTVSPost2010Prop45
280
     0
102
RTVSPost2010PropOp45
 70
     1
102
RTVSPost2010Prop46
 90
       50
102
RTVSPost2010PropOp46
 70
     1
102
RTVSPost2010Prop47
 90
       50
102
RTVSPost2010PropOp47
 70
     1
102
RTVSPost2010Prop48
 90
       50
102
RTVSPost2010PropOp48
 70
     1
102
RTVSPost2010Prop49
280
     0
102
RTVSPost2010PropOp49
 70
     1
102
RTVSPost2010Prop50
 90
       50
102
RTVSPost2010PropOp50
 70
     1
102
RTVSPost2010Prop51ColorIndex
 90
      256
102
RTVSPost2010Prop51ColorRGB
 90
-16777216
102
RTVSPost2010PropOp51
 70
     0
102
RTVSPost2010Prop52
140
1.0
102
RTVSPost2010PropOp52
 70
     0
102
RTVSPost2010Prop53
 90
        2
102
RTVSPost2010PropOp53
 70
     1
102
RTVSPost2010Prop54
  1
strokes_ogs.tif
102
RTVSPost2010PropOp54
 70
     1
102
RTVSPost2010Prop55
280
     0
102
RTVSPost2010PropOp55
 70
     1
102
RTVSPost2010Prop56
140
1.0
102
RTVSPost2010PropOp56
 70
     1
102
RTVSPost2010Prop57
140
1.0
102
RTVSPost2010PropOp57
 70
     1
102
RTVSPropertyOp0
 70
     1
102
RTVSPropertyOp1
 70
     1
102
RTVSPropertyOp2
 70
     1
102
RTVSPropertyOp3
 70
     1
102
RTVSPropertyOp4
 70
     1
102
RTVSPropertyOp5
 70
     1
102
RTVSPropertyOp6
 70
     1
102
RTVSPropertyOp7
 70
     1
102
RTVSPropertyOp8
 70
     1
102
RTVSPropertyOp9
 70
     1
102
RTVSPropertyOp10
 70
     1
102
RTVSPropertyOp11
 70
     1
102
RTVSPropertyOp12
 70
     1
102
RTVSPropertyOp13
 70
     1
102
RTVSPropertyOp14
 70
     1
102
RTVSPropertyOp15
 70
     1
102
RTVSPropertyOp16
 70
     1
102
RTVSPropertyOp17
 70
     1
102
RTVSPropertyOp18
 70
     1
102
RTVSPropertyOp19
 70
     1
102
RTVSPropertyOp20
 70
     1
102
RTVSPropertyOp21
 70
     1
102
RTVSPropertyOp22
 70
     1
102
RTVSPropertyOp23
 70
     1
102
RTVSPropertyOp24
 70
     1
102
RTVSPropertyOp25
 70
     1
102
RTVSPropertyOp26
 70
     1
102
RTVSPropertyOp27
 70
     1
102
RTVSPropertyOp28
 70
     1
102
RTVSPropertyOp29
 70
     1
102
RTVSPropertyOp30
 70
     1
102
RTVSPropertyOp31
 70
     1
102
RTVSPropertyOp32
 70
     1
102
RTVSPropertyOp33
 70
     1
102
RTVSPropertyOp34
 70
     1
102
RTVSPropertyOp35
 70
     1
102
RTVSPropertyOp36
 70
     1
102
RTVSPropertyOp37
 70
     1
102
RTVSPropertyOp38
 70
     1
102
RTVSPropertyOp39
 70
     1
102
RTVSPropertyOp40
 70
     1
102
RTVSPropertyOp41
 70
     1
102
RTVSPropertyOp42
 70
     1
102
RTVSPropertyOp43
 70
     1
102
RTVSPropertyOp44
 70
     1
102
RTVSPropertyOp45
 70
     1
102
RTVSPropertyOp46
 70
     1
102
RTVSPropertyOp47
 70
     1
102
RTVSPropertyOp48
 70
     1
102
RTVSPropertyOp49
 70
     1
102
RTVSPropertyOp50
 70
     1
102
RTVSPropertyOp51
 70
     0
102
RTVSPropertyOp52
 70
     0
102
RTVSPropertyOp53
 70
     1
102
RTVSPropertyOp54
 70
     1
102
RTVSPropertyOp55
 70
     1
102
RTVSPropertyOp56
 70
     1
102
RTVSPropertyOp57
 70
     1
102
RTVSPropertyOp58
 70
     1
102
RTVSPropertyOp59
 70
     1
102
RTVSPropertyOp60
 70
     1
102
RTVSPropertyOp61
 70
     1
102
RTVSPropertyOp62
 70
     1
  0
XRECORD
  5
8353
102
{ACAD_REACTORS
330
8352
102
}
330
8352
100
AcDbXrecord
280
     1
102
RTVSPost2010Prop28
280
     0
102
RTVSPost2010PropOp28
 70
     1
102
RTVSPost2010Prop29
280
     1
102
RTVSPost2010PropOp29
 70
     1
102
RTVSPost2010Prop30
280
     1
102
RTVSPost2010PropOp30
 70
     1
102
RTVSPost2010Prop31
280
     0
102
RTVSPost2010PropOp31
 70
     1
102
RTVSPost2010Prop32
280
     0
102
RTVSPost2010PropOp32
 70
     1
102
RTVSPost2010Prop33
280
     0
102
RTVSPost2010PropOp33
 70
     1
102
RTVSPost2010Prop34
280
     0
102
RTVSPost2010PropOp34
 70
     1
102
RTVSPost2010Prop35
280
     0
102
RTVSPost2010PropOp35
 70
     1
102
RTVSPost2010Prop36
280
     0
102
RTVSPost2010PropOp36
 70
     1
102
RTVSPost2010Prop37
 90
       50
102
RTVSPost2010PropOp37
 70
     1
102
RTVSPost2010Prop38
140
0.0
102
RTVSPost2010PropOp38
 70
     1
102
RTVSPost2010Prop39
140
1.0
102
RTVSPost2010PropOp39
 70
     1
102
RTVSPost2010Prop40
 90
        0
102
RTVSPost2010PropOp40
 70
     1
102
RTVSPost2010Prop41ColorIndex
 90
       18
102
RTVSPost2010Prop41ColorRGB
 90
        0
102
RTVSPost2010PropOp41
 70
     1
102
RTVSPost2010Prop42
 90
       50
102
RTVSPost2010PropOp42
 70
     1
102
RTVSPost2010Prop43
 90
        3
102
RTVSPost2010PropOp43
 70
     1
102
RTVSPost2010Prop44ColorIndex
 90
        5
102
RTVSPost2010Prop44ColorRGB
 90
      255
102
RTVSPost2010PropOp44
 70
     1
102
RTVSPost2010Prop45
280
     0
102
RTVSPost2010PropOp45
 70
     1
102
RTVSPost2010Prop46
 90
       50
102
RTVSPost2010PropOp46
 70
     1
102
RTVSPost2010Prop47
 90
       50
102
RTVSPost2010PropOp47
 70
     1
102
RTVSPost2010Prop48
 90
       50
102
RTVSPost2010PropOp48
 70
     1
102
RTVSPost2010Prop49
280
     0
102
RTVSPost2010PropOp49
 70
     1
102
RTVSPost2010Prop50
 90
       50
102
RTVSPost2010PropOp50
 70
     1
102
RTVSPost2010Prop51ColorIndex
 90
      256
102
RTVSPost2010Prop51ColorRGB
 90
-16777216
102
RTVSPost2010PropOp51
 70
     0
102
RTVSPost2010Prop52
140
1.0
102
RTVSPost2010PropOp52
 70
     0
102
RTVSPost2010Prop53
 90
        2
102
RTVSPost2010PropOp53
 70
     1
102
RTVSPost2010Prop54
  1
strokes_ogs.tif
102
RTVSPost2010PropOp54
 70
     1
102
RTVSPost2010Prop55
280
     0
102
RTVSPost2010PropOp55
 70
     1
102
RTVSPost2010Prop56
140
1.0
102
RTVSPost2010PropOp56
 70
     1
102
RTVSPost2010Prop57
140
1.0
102
RTVSPost2010PropOp57
 70
     1
102
RTVSPropertyOp0
 70
     1
102
RTVSPropertyOp1
 70
     1
102
RTVSPropertyOp2
 70
     1
102
RTVSPropertyOp3
 70
     1
102
RTVSPropertyOp4
 70
     1
102
RTVSPropertyOp5
 70
     1
102
RTVSPropertyOp6
 70
     1
102
RTVSPropertyOp7
 70
     1
102
RTVSPropertyOp8
 70
     1
102
RTVSPropertyOp9
 70
     1
102
RTVSPropertyOp10
 70
     1
102
RTVSPropertyOp11
 70
     1
102
RTVSPropertyOp12
 70
     1
102
RTVSPropertyOp13
 70
     1
102
RTVSPropertyOp14
 70
     1
102
RTVSPropertyOp15
 70
     1
102
RTVSPropertyOp16
 70
     1
102
RTVSPropertyOp17
 70
     1
102
RTVSPropertyOp18
 70
     1
102
RTVSPropertyOp19
 70
     1
102
RTVSPropertyOp20
 70
     1
102
RTVSPropertyOp21
 70
     1
102
RTVSPropertyOp22
 70
     1
102
RTVSPropertyOp23
 70
     1
102
RTVSPropertyOp24
 70
     1
102
RTVSPropertyOp25
 70
     1
102
RTVSPropertyOp26
 70
     1
102
RTVSPropertyOp27
 70
     1
102
RTVSPropertyOp28
 70
     1
102
RTVSPropertyOp29
 70
     1
102
RTVSPropertyOp30
 70
     1
102
RTVSPropertyOp31
 70
     1
102
RTVSPropertyOp32
 70
     1
102
RTVSPropertyOp33
 70
     1
102
RTVSPropertyOp34
 70
     1
102
RTVSPropertyOp35
 70
     1
102
RTVSPropertyOp36
 70
     1
102
RTVSPropertyOp37
 70
     1
102
RTVSPropertyOp38
 70
     1
102
RTVSPropertyOp39
 70
     1
102
RTVSPropertyOp40
 70
     1
102
RTVSPropertyOp41
 70
     1
102
RTVSPropertyOp42
 70
     1
102
RTVSPropertyOp43
 70
     1
102
RTVSPropertyOp44
 70
     1
102
RTVSPropertyOp45
 70
     1
102
RTVSPropertyOp46
 70
     1
102
RTVSPropertyOp47
 70
     1
102
RTVSPropertyOp48
 70
     1
102
RTVSPropertyOp49
 70
     1
102
RTVSPropertyOp50
 70
     1
102
RTVSPropertyOp51
 70
     0
102
RTVSPropertyOp52
 70
     0
102
RTVSPropertyOp53
 70
     1
102
RTVSPropertyOp54
 70
     1
102
RTVSPropertyOp55
 70
     1
102
RTVSPropertyOp56
 70
     1
102
RTVSPropertyOp57
 70
     1
102
RTVSPropertyOp58
 70
     1
102
RTVSPropertyOp59
 70
     1
102
RTVSPropertyOp60
 70
     1
102
RTVSPropertyOp61
 70
     1
102
RTVSPropertyOp62
 70
     1
  0
XRECORD
  5
836F
102
{ACAD_REACTORS
330
836E
102
}
330
836E
100
AcDbXrecord
280
     1
102
RTVSPost2010Prop28
280
     0
102
RTVSPost2010PropOp28
 70
     1
102
RTVSPost2010Prop29
280
     1
102
RTVSPost2010PropOp29
 70
     1
102
RTVSPost2010Prop30
280
     1
102
RTVSPost2010PropOp30
 70
     1
102
RTVSPost2010Prop31
280
     0
102
RTVSPost2010PropOp31
 70
     1
102
RTVSPost2010Prop32
280
     0
102
RTVSPost2010PropOp32
 70
     1
102
RTVSPost2010Prop33
280
     0
102
RTVSPost2010PropOp33
 70
     1
102
RTVSPost2010Prop34
280
     0
102
RTVSPost2010PropOp34
 70
     1
102
RTVSPost2010Prop35
280
     0
102
RTVSPost2010PropOp35
 70
     1
102
RTVSPost2010Prop36
280
     0
102
RTVSPost2010PropOp36
 70
     1
102
RTVSPost2010Prop37
 90
       50
102
RTVSPost2010PropOp37
 70
     0
102
RTVSPost2010Prop38
140
0.0
102
RTVSPost2010PropOp38
 70
     0
102
RTVSPost2010Prop39
140
1.0
102
RTVSPost2010PropOp39
 70
     0
102
RTVSPost2010Prop40
 90
        0
102
RTVSPost2010PropOp40
 70
     0
102
RTVSPost2010Prop41ColorIndex
 90
       18
102
RTVSPost2010Prop41ColorRGB
 90
        0
102
RTVSPost2010PropOp41
 70
     0
102
RTVSPost2010Prop42
 90
       50
102
RTVSPost2010PropOp42
 70
     0
102
RTVSPost2010Prop43
 90
        3
102
RTVSPost2010PropOp43
 70
     0
102
RTVSPost2010Prop44ColorIndex
 90
        5
102
RTVSPost2010Prop44ColorRGB
 90
      255
102
RTVSPost2010PropOp44
 70
     0
102
RTVSPost2010Prop45
280
     0
102
RTVSPost2010PropOp45
 70
     1
102
RTVSPost2010Prop46
 90
       50
102
RTVSPost2010PropOp46
 70
     0
102
RTVSPost2010Prop47
 90
       50
102
RTVSPost2010PropOp47
 70
     0
102
RTVSPost2010Prop48
 90
       50
102
RTVSPost2010PropOp48
 70
     0
102
RTVSPost2010Prop49
280
     0
102
RTVSPost2010PropOp49
 70
     1
102
RTVSPost2010Prop50
 90
       50
102
RTVSPost2010PropOp50
 70
     0
102
RTVSPost2010Prop51ColorIndex
 90
      256
102
RTVSPost2010Prop51ColorRGB
 90
-16777216
102
RTVSPost2010PropOp51
 70
     0
102
RTVSPost2010Prop52
140
1.0
102
RTVSPost2010PropOp52
 70
     0
102
RTVSPost2010Prop53
 90
        2
102
RTVSPost2010PropOp53
 70
     0
102
RTVSPost2010Prop54
  1
strokes_ogs.tif
102
RTVSPost2010PropOp54
 70
     0
102
RTVSPost2010Prop55
280
     0
102
RTVSPost2010PropOp55
 70
     1
102
RTVSPost2010Prop56
140
1.0
102
RTVSPost2010PropOp56
 70
     0
102
RTVSPost2010Prop57
140
1.0
102
RTVSPost2010PropOp57
 70
     0
102
RTVSPropertyOp0
 70
     0
102
RTVSPropertyOp1
 70
     0
102
RTVSPropertyOp2
 70
     0
102
RTVSPropertyOp3
 70
     0
102
RTVSPropertyOp4
 70
     0
102
RTVSPropertyOp5
 70
     0
102
RTVSPropertyOp6
 70
     0
102
RTVSPropertyOp7
 70
     0
102
RTVSPropertyOp8
 70
     0
102
RTVSPropertyOp9
 70
     0
102
RTVSPropertyOp10
 70
     0
102
RTVSPropertyOp11
 70
     0
102
RTVSPropertyOp12
 70
     0
102
RTVSPropertyOp13
 70
     0
102
RTVSPropertyOp14
 70
     2
102
RTVSPropertyOp15
 70
     0
102
RTVSPropertyOp16
 70
     0
102
RTVSPropertyOp17
 70
     0
102
RTVSPropertyOp18
 70
     0
102
RTVSPropertyOp19
 70
     0
102
RTVSPropertyOp20
 70
     0
102
RTVSPropertyOp21
 70
     0
102
RTVSPropertyOp22
 70
     0
102
RTVSPropertyOp23
 70
     0
102
RTVSPropertyOp24
 70
     0
102
RTVSPropertyOp25
 70
     0
102
RTVSPropertyOp26
 70
     0
102
RTVSPropertyOp27
 70
     0
102
RTVSPropertyOp28
 70
     1
102
RTVSPropertyOp29
 70
     1
102
RTVSPropertyOp30
 70
     1
102
RTVSPropertyOp31
 70
     1
102
RTVSPropertyOp32
 70
     1
102
RTVSPropertyOp33
 70
     1
102
RTVSPropertyOp34
 70
     1
102
RTVSPropertyOp35
 70
     1
102
RTVSPropertyOp36
 70
     1
102
RTVSPropertyOp37
 70
     0
102
RTVSPropertyOp38
 70
     0
102
RTVSPropertyOp39
 70
     0
102
RTVSPropertyOp40
 70
     0
102
RTVSPropertyOp41
 70
     0
102
RTVSPropertyOp42
 70
     0
102
RTVSPropertyOp43
 70
     0
102
RTVSPropertyOp44
 70
     0
102
RTVSPropertyOp45
 70
     1
102
RTVSPropertyOp46
 70
     0
102
RTVSPropertyOp47
 70
     0
102
RTVSPropertyOp48
 70
     0
102
RTVSPropertyOp49
 70
     1
102
RTVSPropertyOp50
 70
     0
102
RTVSPropertyOp51
 70
     0
102
RTVSPropertyOp52
 70
     0
102
RTVSPropertyOp53
 70
     0
102
RTVSPropertyOp54
 70
     0
102
RTVSPropertyOp55
 70
     1
102
RTVSPropertyOp56
 70
     0
102
RTVSPropertyOp57
 70
     0
102
RTVSPropertyOp58
 70
     0
102
RTVSPropertyOp59
 70
     0
102
RTVSPropertyOp60
 70
     0
102
RTVSPropertyOp61
 70
     0
102
RTVSPropertyOp62
 70
     0
  0
XRECORD
  5
835F
102
{ACAD_REACTORS
330
835E
102
}
330
835E
100
AcDbXrecord
280
     1
102
RTVSPost2010Prop28
280
     0
102
RTVSPost2010PropOp28
 70
     1
102
RTVSPost2010Prop29
280
     1
102
RTVSPost2010PropOp29
 70
     1
102
RTVSPost2010Prop30
280
     1
102
RTVSPost2010PropOp30
 70
     1
102
RTVSPost2010Prop31
280
     0
102
RTVSPost2010PropOp31
 70
     1
102
RTVSPost2010Prop32
280
     0
102
RTVSPost2010PropOp32
 70
     1
102
RTVSPost2010Prop33
280
     0
102
RTVSPost2010PropOp33
 70
     1
102
RTVSPost2010Prop34
280
     0
102
RTVSPost2010PropOp34
 70
     1
102
RTVSPost2010Prop35
280
     0
102
RTVSPost2010PropOp35
 70
     1
102
RTVSPost2010Prop36
280
     0
102
RTVSPost2010PropOp36
 70
     1
102
RTVSPost2010Prop37
 90
       50
102
RTVSPost2010PropOp37
 70
     1
102
RTVSPost2010Prop38
140
0.0
102
RTVSPost2010PropOp38
 70
     1
102
RTVSPost2010Prop39
140
1.0
102
RTVSPost2010PropOp39
 70
     1
102
RTVSPost2010Prop40
 90
        0
102
RTVSPost2010PropOp40
 70
     1
102
RTVSPost2010Prop41ColorIndex
 90
       18
102
RTVSPost2010Prop41ColorRGB
 90
        0
102
RTVSPost2010PropOp41
 70
     1
102
RTVSPost2010Prop42
 90
       50
102
RTVSPost2010PropOp42
 70
     1
102
RTVSPost2010Prop43
 90
        3
102
RTVSPost2010PropOp43
 70
     1
102
RTVSPost2010Prop44ColorIndex
 90
        5
102
RTVSPost2010Prop44ColorRGB
 90
      255
102
RTVSPost2010PropOp44
 70
     1
102
RTVSPost2010Prop45
280
     0
102
RTVSPost2010PropOp45
 70
     1
102
RTVSPost2010Prop46
 90
       50
102
RTVSPost2010PropOp46
 70
     1
102
RTVSPost2010Prop47
 90
       50
102
RTVSPost2010PropOp47
 70
     1
102
RTVSPost2010Prop48
 90
       50
102
RTVSPost2010PropOp48
 70
     1
102
RTVSPost2010Prop49
280
     0
102
RTVSPost2010PropOp49
 70
     1
102
RTVSPost2010Prop50
 90
       50
102
RTVSPost2010PropOp50
 70
     1
102
RTVSPost2010Prop51ColorIndex
 90
      256
102
RTVSPost2010Prop51ColorRGB
 90
-16777216
102
RTVSPost2010PropOp51
 70
     0
102
RTVSPost2010Prop52
140
1.0
102
RTVSPost2010PropOp52
 70
     0
102
RTVSPost2010Prop53
 90
        2
102
RTVSPost2010PropOp53
 70
     1
102
RTVSPost2010Prop54
  1
strokes_ogs.tif
102
RTVSPost2010PropOp54
 70
     1
102
RTVSPost2010Prop55
280
     0
102
RTVSPost2010PropOp55
 70
     1
102
RTVSPost2010Prop56
140
1.0
102
RTVSPost2010PropOp56
 70
     1
102
RTVSPost2010Prop57
140
1.0
102
RTVSPost2010PropOp57
 70
     1
102
RTVSPropertyOp0
 70
     1
102
RTVSPropertyOp1
 70
     1
102
RTVSPropertyOp2
 70
     1
102
RTVSPropertyOp3
 70
     1
102
RTVSPropertyOp4
 70
     1
102
RTVSPropertyOp5
 70
     1
102
RTVSPropertyOp6
 70
     1
102
RTVSPropertyOp7
 70
     1
102
RTVSPropertyOp8
 70
     1
102
RTVSPropertyOp9
 70
     1
102
RTVSPropertyOp10
 70
     1
102
RTVSPropertyOp11
 70
     1
102
RTVSPropertyOp12
 70
     1
102
RTVSPropertyOp13
 70
     1
102
RTVSPropertyOp14
 70
     1
102
RTVSPropertyOp15
 70
     1
102
RTVSPropertyOp16
 70
     1
102
RTVSPropertyOp17
 70
     1
102
RTVSPropertyOp18
 70
     1
102
RTVSPropertyOp19
 70
     1
102
RTVSPropertyOp20
 70
     1
102
RTVSPropertyOp21
 70
     1
102
RTVSPropertyOp22
 70
     1
102
RTVSPropertyOp23
 70
     1
102
RTVSPropertyOp24
 70
     1
102
RTVSPropertyOp25
 70
     1
102
RTVSPropertyOp26
 70
     1
102
RTVSPropertyOp27
 70
     1
102
RTVSPropertyOp28
 70
     1
102
RTVSPropertyOp29
 70
     1
102
RTVSPropertyOp30
 70
     1
102
RTVSPropertyOp31
 70
     1
102
RTVSPropertyOp32
 70
     1
102
RTVSPropertyOp33
 70
     1
102
RTVSPropertyOp34
 70
     1
102
RTVSPropertyOp35
 70
     1
102
RTVSPropertyOp36
 70
     1
102
RTVSPropertyOp37
 70
     1
102
RTVSPropertyOp38
 70
     1
102
RTVSPropertyOp39
 70
     1
102
RTVSPropertyOp40
 70
     1
102
RTVSPropertyOp41
 70
     1
102
RTVSPropertyOp42
 70
     1
102
RTVSPropertyOp43
 70
     1
102
RTVSPropertyOp44
 70
     1
102
RTVSPropertyOp45
 70
     1
102
RTVSPropertyOp46
 70
     1
102
RTVSPropertyOp47
 70
     1
102
RTVSPropertyOp48
 70
     1
102
RTVSPropertyOp49
 70
     1
102
RTVSPropertyOp50
 70
     1
102
RTVSPropertyOp51
 70
     0
102
RTVSPropertyOp52
 70
     0
102
RTVSPropertyOp53
 70
     1
102
RTVSPropertyOp54
 70
     1
102
RTVSPropertyOp55
 70
     1
102
RTVSPropertyOp56
 70
     1
102
RTVSPropertyOp57
 70
     1
102
RTVSPropertyOp58
 70
     1
102
RTVSPropertyOp59
 70
     1
102
RTVSPropertyOp60
 70
     1
102
RTVSPropertyOp61
 70
     1
102
RTVSPropertyOp62
 70
     1
  0
XRECORD
  5
8371
102
{ACAD_REACTORS
330
8370
102
}
330
8370
100
AcDbXrecord
280
     1
102
RTVSPost2010Prop28
280
     0
102
RTVSPost2010PropOp28
 70
     1
102
RTVSPost2010Prop29
280
     1
102
RTVSPost2010PropOp29
 70
     1
102
RTVSPost2010Prop30
280
     1
102
RTVSPost2010PropOp30
 70
     1
102
RTVSPost2010Prop31
280
     0
102
RTVSPost2010PropOp31
 70
     1
102
RTVSPost2010Prop32
280
     0
102
RTVSPost2010PropOp32
 70
     1
102
RTVSPost2010Prop33
280
     0
102
RTVSPost2010PropOp33
 70
     1
102
RTVSPost2010Prop34
280
     0
102
RTVSPost2010PropOp34
 70
     1
102
RTVSPost2010Prop35
280
     0
102
RTVSPost2010PropOp35
 70
     1
102
RTVSPost2010Prop36
280
     0
102
RTVSPost2010PropOp36
 70
     1
102
RTVSPost2010Prop37
 90
       50
102
RTVSPost2010PropOp37
 70
     0
102
RTVSPost2010Prop38
140
0.0
102
RTVSPost2010PropOp38
 70
     0
102
RTVSPost2010Prop39
140
1.0
102
RTVSPost2010PropOp39
 70
     0
102
RTVSPost2010Prop40
 90
        0
102
RTVSPost2010PropOp40
 70
     0
102
RTVSPost2010Prop41ColorIndex
 90
       18
102
RTVSPost2010Prop41ColorRGB
 90
        0
102
RTVSPost2010PropOp41
 70
     0
102
RTVSPost2010Prop42
 90
       50
102
RTVSPost2010PropOp42
 70
     0
102
RTVSPost2010Prop43
 90
        3
102
RTVSPost2010PropOp43
 70
     0
102
RTVSPost2010Prop44ColorIndex
 90
        5
102
RTVSPost2010Prop44ColorRGB
 90
      255
102
RTVSPost2010PropOp44
 70
     0
102
RTVSPost2010Prop45
280
     0
102
RTVSPost2010PropOp45
 70
     1
102
RTVSPost2010Prop46
 90
       50
102
RTVSPost2010PropOp46
 70
     0
102
RTVSPost2010Prop47
 90
       50
102
RTVSPost2010PropOp47
 70
     0
102
RTVSPost2010Prop48
 90
       50
102
RTVSPost2010PropOp48
 70
     0
102
RTVSPost2010Prop49
280
     0
102
RTVSPost2010PropOp49
 70
     1
102
RTVSPost2010Prop50
 90
       50
102
RTVSPost2010PropOp50
 70
     0
102
RTVSPost2010Prop51ColorIndex
 90
      256
102
RTVSPost2010Prop51ColorRGB
 90
-16777216
102
RTVSPost2010PropOp51
 70
     0
102
RTVSPost2010Prop52
140
1.0
102
RTVSPost2010PropOp52
 70
     0
102
RTVSPost2010Prop53
 90
        2
102
RTVSPost2010PropOp53
 70
     0
102
RTVSPost2010Prop54
  1
strokes_ogs.tif
102
RTVSPost2010PropOp54
 70
     0
102
RTVSPost2010Prop55
280
     0
102
RTVSPost2010PropOp55
 70
     1
102
RTVSPost2010Prop56
140
1.0
102
RTVSPost2010PropOp56
 70
     0
102
RTVSPost2010Prop57
140
1.0
102
RTVSPost2010PropOp57
 70
     0
102
RTVSPropertyOp0
 70
     0
102
RTVSPropertyOp1
 70
     0
102
RTVSPropertyOp2
 70
     0
102
RTVSPropertyOp3
 70
     0
102
RTVSPropertyOp4
 70
     0
102
RTVSPropertyOp5
 70
     0
102
RTVSPropertyOp6
 70
     0
102
RTVSPropertyOp7
 70
     0
102
RTVSPropertyOp8
 70
     0
102
RTVSPropertyOp9
 70
     0
102
RTVSPropertyOp10
 70
     0
102
RTVSPropertyOp11
 70
     0
102
RTVSPropertyOp12
 70
     0
102
RTVSPropertyOp13
 70
     0
102
RTVSPropertyOp14
 70
     2
102
RTVSPropertyOp15
 70
     0
102
RTVSPropertyOp16
 70
     0
102
RTVSPropertyOp17
 70
     0
102
RTVSPropertyOp18
 70
     0
102
RTVSPropertyOp19
 70
     0
102
RTVSPropertyOp20
 70
     0
102
RTVSPropertyOp21
 70
     0
102
RTVSPropertyOp22
 70
     0
102
RTVSPropertyOp23
 70
     0
102
RTVSPropertyOp24
 70
     0
102
RTVSPropertyOp25
 70
     0
102
RTVSPropertyOp26
 70
     0
102
RTVSPropertyOp27
 70
     0
102
RTVSPropertyOp28
 70
     1
102
RTVSPropertyOp29
 70
     1
102
RTVSPropertyOp30
 70
     1
102
RTVSPropertyOp31
 70
     1
102
RTVSPropertyOp32
 70
     1
102
RTVSPropertyOp33
 70
     1
102
RTVSPropertyOp34
 70
     1
102
RTVSPropertyOp35
 70
     1
102
RTVSPropertyOp36
 70
     1
102
RTVSPropertyOp37
 70
     0
102
RTVSPropertyOp38
 70
     0
102
RTVSPropertyOp39
 70
     0
102
RTVSPropertyOp40
 70
     0
102
RTVSPropertyOp41
 70
     0
102
RTVSPropertyOp42
 70
     0
102
RTVSPropertyOp43
 70
     0
102
RTVSPropertyOp44
 70
     0
102
RTVSPropertyOp45
 70
     1
102
RTVSPropertyOp46
 70
     0
102
RTVSPropertyOp47
 70
     0
102
RTVSPropertyOp48
 70
     0
102
RTVSPropertyOp49
 70
     1
102
RTVSPropertyOp50
 70
     0
102
RTVSPropertyOp51
 70
     0
102
RTVSPropertyOp52
 70
     0
102
RTVSPropertyOp53
 70
     0
102
RTVSPropertyOp54
 70
     0
102
RTVSPropertyOp55
 70
     1
102
RTVSPropertyOp56
 70
     0
102
RTVSPropertyOp57
 70
     0
102
RTVSPropertyOp58
 70
     0
102
RTVSPropertyOp59
 70
     0
102
RTVSPropertyOp60
 70
     0
102
RTVSPropertyOp61
 70
     0
102
RTVSPropertyOp62
 70
     0
  0
XRECORD
  5
8357
102
{ACAD_REACTORS
330
8356
102
}
330
8356
100
AcDbXrecord
280
     1
102
RTVSPost2010Prop28
280
     0
102
RTVSPost2010PropOp28
 70
     1
102
RTVSPost2010Prop29
280
     1
102
RTVSPost2010PropOp29
 70
     1
102
RTVSPost2010Prop30
280
     1
102
RTVSPost2010PropOp30
 70
     1
102
RTVSPost2010Prop31
280
     0
102
RTVSPost2010PropOp31
 70
     1
102
RTVSPost2010Prop32
280
     0
102
RTVSPost2010PropOp32
 70
     1
102
RTVSPost2010Prop33
280
     0
102
RTVSPost2010PropOp33
 70
     1
102
RTVSPost2010Prop34
280
     0
102
RTVSPost2010PropOp34
 70
     1
102
RTVSPost2010Prop35
280
     0
102
RTVSPost2010PropOp35
 70
     1
102
RTVSPost2010Prop36
280
     0
102
RTVSPost2010PropOp36
 70
     1
102
RTVSPost2010Prop37
 90
       50
102
RTVSPost2010PropOp37
 70
     1
102
RTVSPost2010Prop38
140
0.0
102
RTVSPost2010PropOp38
 70
     1
102
RTVSPost2010Prop39
140
1.0
102
RTVSPost2010PropOp39
 70
     1
102
RTVSPost2010Prop40
 90
        0
102
RTVSPost2010PropOp40
 70
     1
102
RTVSPost2010Prop41ColorIndex
 90
       18
102
RTVSPost2010Prop41ColorRGB
 90
        0
102
RTVSPost2010PropOp41
 70
     1
102
RTVSPost2010Prop42
 90
       50
102
RTVSPost2010PropOp42
 70
     1
102
RTVSPost2010Prop43
 90
        3
102
RTVSPost2010PropOp43
 70
     1
102
RTVSPost2010Prop44ColorIndex
 90
        5
102
RTVSPost2010Prop44ColorRGB
 90
      255
102
RTVSPost2010PropOp44
 70
     1
102
RTVSPost2010Prop45
280
     0
102
RTVSPost2010PropOp45
 70
     1
102
RTVSPost2010Prop46
 90
       50
102
RTVSPost2010PropOp46
 70
     1
102
RTVSPost2010Prop47
 90
       50
102
RTVSPost2010PropOp47
 70
     1
102
RTVSPost2010Prop48
 90
       50
102
RTVSPost2010PropOp48
 70
     1
102
RTVSPost2010Prop49
280
     0
102
RTVSPost2010PropOp49
 70
     1
102
RTVSPost2010Prop50
 90
       50
102
RTVSPost2010PropOp50
 70
     1
102
RTVSPost2010Prop51ColorIndex
 90
      256
102
RTVSPost2010Prop51ColorRGB
 90
-16777216
102
RTVSPost2010PropOp51
 70
     0
102
RTVSPost2010Prop52
140
1.0
102
RTVSPost2010PropOp52
 70
     0
102
RTVSPost2010Prop53
 90
        2
102
RTVSPost2010PropOp53
 70
     1
102
RTVSPost2010Prop54
  1
strokes_ogs.tif
102
RTVSPost2010PropOp54
 70
     1
102
RTVSPost2010Prop55
280
     0
102
RTVSPost2010PropOp55
 70
     1
102
RTVSPost2010Prop56
140
1.0
102
RTVSPost2010PropOp56
 70
     1
102
RTVSPost2010Prop57
140
1.0
102
RTVSPost2010PropOp57
 70
     1
102
RTVSPropertyOp0
 70
     1
102
RTVSPropertyOp1
 70
     1
102
RTVSPropertyOp2
 70
     1
102
RTVSPropertyOp3
 70
     1
102
RTVSPropertyOp4
 70
     1
102
RTVSPropertyOp5
 70
     1
102
RTVSPropertyOp6
 70
     1
102
RTVSPropertyOp7
 70
     1
102
RTVSPropertyOp8
 70
     1
102
RTVSPropertyOp9
 70
     1
102
RTVSPropertyOp10
 70
     1
102
RTVSPropertyOp11
 70
     1
102
RTVSPropertyOp12
 70
     1
102
RTVSPropertyOp13
 70
     1
102
RTVSPropertyOp14
 70
     1
102
RTVSPropertyOp15
 70
     1
102
RTVSPropertyOp16
 70
     1
102
RTVSPropertyOp17
 70
     1
102
RTVSPropertyOp18
 70
     1
102
RTVSPropertyOp19
 70
     1
102
RTVSPropertyOp20
 70
     1
102
RTVSPropertyOp21
 70
     1
102
RTVSPropertyOp22
 70
     1
102
RTVSPropertyOp23
 70
     1
102
RTVSPropertyOp24
 70
     1
102
RTVSPropertyOp25
 70
     1
102
RTVSPropertyOp26
 70
     1
102
RTVSPropertyOp27
 70
     1
102
RTVSPropertyOp28
 70
     1
102
RTVSPropertyOp29
 70
     1
102
RTVSPropertyOp30
 70
     1
102
RTVSPropertyOp31
 70
     1
102
RTVSPropertyOp32
 70
     1
102
RTVSPropertyOp33
 70
     1
102
RTVSPropertyOp34
 70
     1
102
RTVSPropertyOp35
 70
     1
102
RTVSPropertyOp36
 70
     1
102
RTVSPropertyOp37
 70
     1
102
RTVSPropertyOp38
 70
     1
102
RTVSPropertyOp39
 70
     1
102
RTVSPropertyOp40
 70
     1
102
RTVSPropertyOp41
 70
     1
102
RTVSPropertyOp42
 70
     1
102
RTVSPropertyOp43
 70
     1
102
RTVSPropertyOp44
 70
     1
102
RTVSPropertyOp45
 70
     1
102
RTVSPropertyOp46
 70
     1
102
RTVSPropertyOp47
 70
     1
102
RTVSPropertyOp48
 70
     1
102
RTVSPropertyOp49
 70
     1
102
RTVSPropertyOp50
 70
     1
102
RTVSPropertyOp51
 70
     0
102
RTVSPropertyOp52
 70
     0
102
RTVSPropertyOp53
 70
     1
102
RTVSPropertyOp54
 70
     1
102
RTVSPropertyOp55
 70
     1
102
RTVSPropertyOp56
 70
     1
102
RTVSPropertyOp57
 70
     1
102
RTVSPropertyOp58
 70
     1
102
RTVSPropertyOp59
 70
     1
102
RTVSPropertyOp60
 70
     1
102
RTVSPropertyOp61
 70
     1
102
RTVSPropertyOp62
 70
     1
  0
XRECORD
  5
836D
102
{ACAD_REACTORS
330
836C
102
}
330
836C
100
AcDbXrecord
280
     1
102
RTVSPost2010Prop28
280
     0
102
RTVSPost2010PropOp28
 70
     1
102
RTVSPost2010Prop29
280
     1
102
RTVSPost2010PropOp29
 70
     1
102
RTVSPost2010Prop30
280
     1
102
RTVSPost2010PropOp30
 70
     1
102
RTVSPost2010Prop31
280
     0
102
RTVSPost2010PropOp31
 70
     1
102
RTVSPost2010Prop32
280
     0
102
RTVSPost2010PropOp32
 70
     1
102
RTVSPost2010Prop33
280
     0
102
RTVSPost2010PropOp33
 70
     1
102
RTVSPost2010Prop34
280
     0
102
RTVSPost2010PropOp34
 70
     1
102
RTVSPost2010Prop35
280
     0
102
RTVSPost2010PropOp35
 70
     1
102
RTVSPost2010Prop36
280
     0
102
RTVSPost2010PropOp36
 70
     1
102
RTVSPost2010Prop37
 90
       50
102
RTVSPost2010PropOp37
 70
     1
102
RTVSPost2010Prop38
140
0.0
102
RTVSPost2010PropOp38
 70
     1
102
RTVSPost2010Prop39
140
1.0
102
RTVSPost2010PropOp39
 70
     1
102
RTVSPost2010Prop40
 90
        0
102
RTVSPost2010PropOp40
 70
     1
102
RTVSPost2010Prop41ColorIndex
 90
       18
102
RTVSPost2010Prop41ColorRGB
 90
        0
102
RTVSPost2010PropOp41
 70
     1
102
RTVSPost2010Prop42
 90
       50
102
RTVSPost2010PropOp42
 70
     1
102
RTVSPost2010Prop43
 90
        3
102
RTVSPost2010PropOp43
 70
     1
102
RTVSPost2010Prop44ColorIndex
 90
        5
102
RTVSPost2010Prop44ColorRGB
 90
      255
102
RTVSPost2010PropOp44
 70
     1
102
RTVSPost2010Prop45
280
     0
102
RTVSPost2010PropOp45
 70
     1
102
RTVSPost2010Prop46
 90
       50
102
RTVSPost2010PropOp46
 70
     1
102
RTVSPost2010Prop47
 90
       50
102
RTVSPost2010PropOp47
 70
     1
102
RTVSPost2010Prop48
 90
       50
102
RTVSPost2010PropOp48
 70
     1
102
RTVSPost2010Prop49
280
     0
102
RTVSPost2010PropOp49
 70
     1
102
RTVSPost2010Prop50
 90
       50
102
RTVSPost2010PropOp50
 70
     1
102
RTVSPost2010Prop51ColorIndex
 90
      256
102
RTVSPost2010Prop51ColorRGB
 90
-16777216
102
RTVSPost2010PropOp51
 70
     0
102
RTVSPost2010Prop52
140
1.0
102
RTVSPost2010PropOp52
 70
     0
102
RTVSPost2010Prop53
 90
        2
102
RTVSPost2010PropOp53
 70
     1
102
RTVSPost2010Prop54
  1
strokes_ogs.tif
102
RTVSPost2010PropOp54
 70
     1
102
RTVSPost2010Prop55
280
     0
102
RTVSPost2010PropOp55
 70
     1
102
RTVSPost2010Prop56
140
1.0
102
RTVSPost2010PropOp56
 70
     1
102
RTVSPost2010Prop57
140
1.0
102
RTVSPost2010PropOp57
 70
     1
102
RTVSPropertyOp0
 70
     1
102
RTVSPropertyOp1
 70
     1
102
RTVSPropertyOp2
 70
     1
102
RTVSPropertyOp3
 70
     1
102
RTVSPropertyOp4
 70
     1
102
RTVSPropertyOp5
 70
     1
102
RTVSPropertyOp6
 70
     1
102
RTVSPropertyOp7
 70
     1
102
RTVSPropertyOp8
 70
     1
102
RTVSPropertyOp9
 70
     1
102
RTVSPropertyOp10
 70
     1
102
RTVSPropertyOp11
 70
     1
102
RTVSPropertyOp12
 70
     1
102
RTVSPropertyOp13
 70
     1
102
RTVSPropertyOp14
 70
     1
102
RTVSPropertyOp15
 70
     1
102
RTVSPropertyOp16
 70
     1
102
RTVSPropertyOp17
 70
     1
102
RTVSPropertyOp18
 70
     1
102
RTVSPropertyOp19
 70
     1
102
RTVSPropertyOp20
 70
     1
102
RTVSPropertyOp21
 70
     1
102
RTVSPropertyOp22
 70
     1
102
RTVSPropertyOp23
 70
     1
102
RTVSPropertyOp24
 70
     1
102
RTVSPropertyOp25
 70
     1
102
RTVSPropertyOp26
 70
     1
102
RTVSPropertyOp27
 70
     1
102
RTVSPropertyOp28
 70
     1
102
RTVSPropertyOp29
 70
     1
102
RTVSPropertyOp30
 70
     1
102
RTVSPropertyOp31
 70
     1
102
RTVSPropertyOp32
 70
     1
102
RTVSPropertyOp33
 70
     1
102
RTVSPropertyOp34
 70
     1
102
RTVSPropertyOp35
 70
     1
102
RTVSPropertyOp36
 70
     1
102
RTVSPropertyOp37
 70
     1
102
RTVSPropertyOp38
 70
     1
102
RTVSPropertyOp39
 70
     1
102
RTVSPropertyOp40
 70
     1
102
RTVSPropertyOp41
 70
     1
102
RTVSPropertyOp42
 70
     1
102
RTVSPropertyOp43
 70
     1
102
RTVSPropertyOp44
 70
     1
102
RTVSPropertyOp45
 70
     1
102
RTVSPropertyOp46
 70
     1
102
RTVSPropertyOp47
 70
     1
102
RTVSPropertyOp48
 70
     1
102
RTVSPropertyOp49
 70
     1
102
RTVSPropertyOp50
 70
     1
102
RTVSPropertyOp51
 70
     0
102
RTVSPropertyOp52
 70
     0
102
RTVSPropertyOp53
 70
     1
102
RTVSPropertyOp54
 70
     1
102
RTVSPropertyOp55
 70
     1
102
RTVSPropertyOp56
 70
     1
102
RTVSPropertyOp57
 70
     1
102
RTVSPropertyOp58
 70
     1
102
RTVSPropertyOp59
 70
     1
102
RTVSPropertyOp60
 70
     1
102
RTVSPropertyOp61
 70
     1
102
RTVSPropertyOp62
 70
     1
  0
XRECORD
  5
836B
102
{ACAD_REACTORS
330
836A
102
}
330
836A
100
AcDbXrecord
280
     1
102
RTVSPost2010Prop28
280
     0
102
RTVSPost2010PropOp28
 70
     1
102
RTVSPost2010Prop29
280
     1
102
RTVSPost2010PropOp29
 70
     1
102
RTVSPost2010Prop30
280
     1
102
RTVSPost2010PropOp30
 70
     1
102
RTVSPost2010Prop31
280
     0
102
RTVSPost2010PropOp31
 70
     1
102
RTVSPost2010Prop32
280
     0
102
RTVSPost2010PropOp32
 70
     1
102
RTVSPost2010Prop33
280
     0
102
RTVSPost2010PropOp33
 70
     1
102
RTVSPost2010Prop34
280
     0
102
RTVSPost2010PropOp34
 70
     1
102
RTVSPost2010Prop35
280
     0
102
RTVSPost2010PropOp35
 70
     1
102
RTVSPost2010Prop36
280
     0
102
RTVSPost2010PropOp36
 70
     1
102
RTVSPost2010Prop37
 90
       50
102
RTVSPost2010PropOp37
 70
     1
102
RTVSPost2010Prop38
140
0.0
102
RTVSPost2010PropOp38
 70
     1
102
RTVSPost2010Prop39
140
1.0
102
RTVSPost2010PropOp39
 70
     1
102
RTVSPost2010Prop40
 90
        0
102
RTVSPost2010PropOp40
 70
     1
102
RTVSPost2010Prop41ColorIndex
 90
       18
102
RTVSPost2010Prop41ColorRGB
 90
        0
102
RTVSPost2010PropOp41
 70
     1
102
RTVSPost2010Prop42
 90
       50
102
RTVSPost2010PropOp42
 70
     1
102
RTVSPost2010Prop43
 90
        3
102
RTVSPost2010PropOp43
 70
     1
102
RTVSPost2010Prop44ColorIndex
 90
        5
102
RTVSPost2010Prop44ColorRGB
 90
      255
102
RTVSPost2010PropOp44
 70
     1
102
RTVSPost2010Prop45
280
     0
102
RTVSPost2010PropOp45
 70
     1
102
RTVSPost2010Prop46
 90
       50
102
RTVSPost2010PropOp46
 70
     1
102
RTVSPost2010Prop47
 90
       50
102
RTVSPost2010PropOp47
 70
     1
102
RTVSPost2010Prop48
 90
       50
102
RTVSPost2010PropOp48
 70
     1
102
RTVSPost2010Prop49
280
     0
102
RTVSPost2010PropOp49
 70
     1
102
RTVSPost2010Prop50
 90
       50
102
RTVSPost2010PropOp50
 70
     1
102
RTVSPost2010Prop51ColorIndex
 90
      256
102
RTVSPost2010Prop51ColorRGB
 90
-16777216
102
RTVSPost2010PropOp51
 70
     0
102
RTVSPost2010Prop52
140
1.0
102
RTVSPost2010PropOp52
 70
     0
102
RTVSPost2010Prop53
 90
        2
102
RTVSPost2010PropOp53
 70
     1
102
RTVSPost2010Prop54
  1
strokes_ogs.tif
102
RTVSPost2010PropOp54
 70
     1
102
RTVSPost2010Prop55
280
     0
102
RTVSPost2010PropOp55
 70
     1
102
RTVSPost2010Prop56
140
1.0
102
RTVSPost2010PropOp56
 70
     1
102
RTVSPost2010Prop57
140
1.0
102
RTVSPost2010PropOp57
 70
     1
102
RTVSPropertyOp0
 70
     1
102
RTVSPropertyOp1
 70
     1
102
RTVSPropertyOp2
 70
     1
102
RTVSPropertyOp3
 70
     1
102
RTVSPropertyOp4
 70
     1
102
RTVSPropertyOp5
 70
     1
102
RTVSPropertyOp6
 70
     1
102
RTVSPropertyOp7
 70
     1
102
RTVSPropertyOp8
 70
     1
102
RTVSPropertyOp9
 70
     1
102
RTVSPropertyOp10
 70
     1
102
RTVSPropertyOp11
 70
     1
102
RTVSPropertyOp12
 70
     1
102
RTVSPropertyOp13
 70
     1
102
RTVSPropertyOp14
 70
     1
102
RTVSPropertyOp15
 70
     1
102
RTVSPropertyOp16
 70
     1
102
RTVSPropertyOp17
 70
     1
102
RTVSPropertyOp18
 70
     1
102
RTVSPropertyOp19
 70
     1
102
RTVSPropertyOp20
 70
     1
102
RTVSPropertyOp21
 70
     1
102
RTVSPropertyOp22
 70
     1
102
RTVSPropertyOp23
 70
     1
102
RTVSPropertyOp24
 70
     1
102
RTVSPropertyOp25
 70
     1
102
RTVSPropertyOp26
 70
     1
102
RTVSPropertyOp27
 70
     1
102
RTVSPropertyOp28
 70
     1
102
RTVSPropertyOp29
 70
     1
102
RTVSPropertyOp30
 70
     1
102
RTVSPropertyOp31
 70
     1
102
RTVSPropertyOp32
 70
     1
102
RTVSPropertyOp33
 70
     1
102
RTVSPropertyOp34
 70
     1
102
RTVSPropertyOp35
 70
     1
102
RTVSPropertyOp36
 70
     1
102
RTVSPropertyOp37
 70
     1
102
RTVSPropertyOp38
 70
     1
102
RTVSPropertyOp39
 70
     1
102
RTVSPropertyOp40
 70
     1
102
RTVSPropertyOp41
 70
     1
102
RTVSPropertyOp42
 70
     1
102
RTVSPropertyOp43
 70
     1
102
RTVSPropertyOp44
 70
     1
102
RTVSPropertyOp45
 70
     1
102
RTVSPropertyOp46
 70
     1
102
RTVSPropertyOp47
 70
     1
102
RTVSPropertyOp48
 70
     1
102
RTVSPropertyOp49
 70
     1
102
RTVSPropertyOp50
 70
     1
102
RTVSPropertyOp51
 70
     0
102
RTVSPropertyOp52
 70
     0
102
RTVSPropertyOp53
 70
     1
102
RTVSPropertyOp54
 70
     1
102
RTVSPropertyOp55
 70
     1
102
RTVSPropertyOp56
 70
     1
102
RTVSPropertyOp57
 70
     1
102
RTVSPropertyOp58
 70
     1
102
RTVSPropertyOp59
 70
     1
102
RTVSPropertyOp60
 70
     1
102
RTVSPropertyOp61
 70
     1
102
RTVSPropertyOp62
 70
     1
  0
XRECORD
  5
8365
102
{ACAD_REACTORS
330
8364
102
}
330
8364
100
AcDbXrecord
280
     1
102
RTVSPost2010Prop28
280
     0
102
RTVSPost2010PropOp28
 70
     1
102
RTVSPost2010Prop29
280
     1
102
RTVSPost2010PropOp29
 70
     1
102
RTVSPost2010Prop30
280
     1
102
RTVSPost2010PropOp30
 70
     1
102
RTVSPost2010Prop31
280
     0
102
RTVSPost2010PropOp31
 70
     1
102
RTVSPost2010Prop32
280
     0
102
RTVSPost2010PropOp32
 70
     1
102
RTVSPost2010Prop33
280
     0
102
RTVSPost2010PropOp33
 70
     1
102
RTVSPost2010Prop34
280
     0
102
RTVSPost2010PropOp34
 70
     1
102
RTVSPost2010Prop35
280
     0
102
RTVSPost2010PropOp35
 70
     1
102
RTVSPost2010Prop36
280
     0
102
RTVSPost2010PropOp36
 70
     1
102
RTVSPost2010Prop37
 90
       50
102
RTVSPost2010PropOp37
 70
     1
102
RTVSPost2010Prop38
140
0.0
102
RTVSPost2010PropOp38
 70
     1
102
RTVSPost2010Prop39
140
1.0
102
RTVSPost2010PropOp39
 70
     1
102
RTVSPost2010Prop40
 90
        0
102
RTVSPost2010PropOp40
 70
     1
102
RTVSPost2010Prop41ColorIndex
 90
       18
102
RTVSPost2010Prop41ColorRGB
 90
        0
102
RTVSPost2010PropOp41
 70
     1
102
RTVSPost2010Prop42
 90
       50
102
RTVSPost2010PropOp42
 70
     1
102
RTVSPost2010Prop43
 90
        3
102
RTVSPost2010PropOp43
 70
     1
102
RTVSPost2010Prop44ColorIndex
 90
        5
102
RTVSPost2010Prop44ColorRGB
 90
      255
102
RTVSPost2010PropOp44
 70
     1
102
RTVSPost2010Prop45
280
     0
102
RTVSPost2010PropOp45
 70
     1
102
RTVSPost2010Prop46
 90
       50
102
RTVSPost2010PropOp46
 70
     1
102
RTVSPost2010Prop47
 90
       50
102
RTVSPost2010PropOp47
 70
     1
102
RTVSPost2010Prop48
 90
       50
102
RTVSPost2010PropOp48
 70
     1
102
RTVSPost2010Prop49
280
     0
102
RTVSPost2010PropOp49
 70
     1
102
RTVSPost2010Prop50
 90
       50
102
RTVSPost2010PropOp50
 70
     1
102
RTVSPost2010Prop51ColorIndex
 90
      256
102
RTVSPost2010Prop51ColorRGB
 90
-16777216
102
RTVSPost2010PropOp51
 70
     0
102
RTVSPost2010Prop52
140
1.0
102
RTVSPost2010PropOp52
 70
     0
102
RTVSPost2010Prop53
 90
        2
102
RTVSPost2010PropOp53
 70
     1
102
RTVSPost2010Prop54
  1
strokes_ogs.tif
102
RTVSPost2010PropOp54
 70
     1
102
RTVSPost2010Prop55
280
     0
102
RTVSPost2010PropOp55
 70
     1
102
RTVSPost2010Prop56
140
1.0
102
RTVSPost2010PropOp56
 70
     1
102
RTVSPost2010Prop57
140
1.0
102
RTVSPost2010PropOp57
 70
     1
102
RTVSPropertyOp0
 70
     1
102
RTVSPropertyOp1
 70
     1
102
RTVSPropertyOp2
 70
     1
102
RTVSPropertyOp3
 70
     1
102
RTVSPropertyOp4
 70
     1
102
RTVSPropertyOp5
 70
     1
102
RTVSPropertyOp6
 70
     1
102
RTVSPropertyOp7
 70
     1
102
RTVSPropertyOp8
 70
     1
102
RTVSPropertyOp9
 70
     1
102
RTVSPropertyOp10
 70
     1
102
RTVSPropertyOp11
 70
     1
102
RTVSPropertyOp12
 70
     1
102
RTVSPropertyOp13
 70
     1
102
RTVSPropertyOp14
 70
     1
102
RTVSPropertyOp15
 70
     1
102
RTVSPropertyOp16
 70
     1
102
RTVSPropertyOp17
 70
     1
102
RTVSPropertyOp18
 70
     1
102
RTVSPropertyOp19
 70
     1
102
RTVSPropertyOp20
 70
     1
102
RTVSPropertyOp21
 70
     1
102
RTVSPropertyOp22
 70
     1
102
RTVSPropertyOp23
 70
     1
102
RTVSPropertyOp24
 70
     1
102
RTVSPropertyOp25
 70
     1
102
RTVSPropertyOp26
 70
     1
102
RTVSPropertyOp27
 70
     1
102
RTVSPropertyOp28
 70
     1
102
RTVSPropertyOp29
 70
     1
102
RTVSPropertyOp30
 70
     1
102
RTVSPropertyOp31
 70
     1
102
RTVSPropertyOp32
 70
     1
102
RTVSPropertyOp33
 70
     1
102
RTVSPropertyOp34
 70
     1
102
RTVSPropertyOp35
 70
     1
102
RTVSPropertyOp36
 70
     1
102
RTVSPropertyOp37
 70
     1
102
RTVSPropertyOp38
 70
     1
102
RTVSPropertyOp39
 70
     1
102
RTVSPropertyOp40
 70
     1
102
RTVSPropertyOp41
 70
     1
102
RTVSPropertyOp42
 70
     1
102
RTVSPropertyOp43
 70
     1
102
RTVSPropertyOp44
 70
     1
102
RTVSPropertyOp45
 70
     1
102
RTVSPropertyOp46
 70
     1
102
RTVSPropertyOp47
 70
     1
102
RTVSPropertyOp48
 70
     1
102
RTVSPropertyOp49
 70
     1
102
RTVSPropertyOp50
 70
     1
102
RTVSPropertyOp51
 70
     0
102
RTVSPropertyOp52
 70
     0
102
RTVSPropertyOp53
 70
     1
102
RTVSPropertyOp54
 70
     1
102
RTVSPropertyOp55
 70
     1
102
RTVSPropertyOp56
 70
     1
102
RTVSPropertyOp57
 70
     1
102
RTVSPropertyOp58
 70
     1
102
RTVSPropertyOp59
 70
     1
102
RTVSPropertyOp60
 70
     1
102
RTVSPropertyOp61
 70
     1
102
RTVSPropertyOp62
 70
     1
  0
XRECORD
  5
8367
102
{ACAD_REACTORS
330
8366
102
}
330
8366
100
AcDbXrecord
280
     1
102
RTVSPost2010Prop28
280
     0
102
RTVSPost2010PropOp28
 70
     1
102
RTVSPost2010Prop29
280
     1
102
RTVSPost2010PropOp29
 70
     1
102
RTVSPost2010Prop30
280
     1
102
RTVSPost2010PropOp30
 70
     1
102
RTVSPost2010Prop31
280
     0
102
RTVSPost2010PropOp31
 70
     1
102
RTVSPost2010Prop32
280
     0
102
RTVSPost2010PropOp32
 70
     1
102
RTVSPost2010Prop33
280
     0
102
RTVSPost2010PropOp33
 70
     1
102
RTVSPost2010Prop34
280
     0
102
RTVSPost2010PropOp34
 70
     1
102
RTVSPost2010Prop35
280
     0
102
RTVSPost2010PropOp35
 70
     1
102
RTVSPost2010Prop36
280
     0
102
RTVSPost2010PropOp36
 70
     1
102
RTVSPost2010Prop37
 90
       50
102
RTVSPost2010PropOp37
 70
     1
102
RTVSPost2010Prop38
140
0.0
102
RTVSPost2010PropOp38
 70
     1
102
RTVSPost2010Prop39
140
1.0
102
RTVSPost2010PropOp39
 70
     1
102
RTVSPost2010Prop40
 90
        0
102
RTVSPost2010PropOp40
 70
     1
102
RTVSPost2010Prop41ColorIndex
 90
       18
102
RTVSPost2010Prop41ColorRGB
 90
        0
102
RTVSPost2010PropOp41
 70
     1
102
RTVSPost2010Prop42
 90
       50
102
RTVSPost2010PropOp42
 70
     1
102
RTVSPost2010Prop43
 90
        3
102
RTVSPost2010PropOp43
 70
     1
102
RTVSPost2010Prop44ColorIndex
 90
        5
102
RTVSPost2010Prop44ColorRGB
 90
      255
102
RTVSPost2010PropOp44
 70
     1
102
RTVSPost2010Prop45
280
     0
102
RTVSPost2010PropOp45
 70
     1
102
RTVSPost2010Prop46
 90
       50
102
RTVSPost2010PropOp46
 70
     1
102
RTVSPost2010Prop47
 90
       50
102
RTVSPost2010PropOp47
 70
     1
102
RTVSPost2010Prop48
 90
       50
102
RTVSPost2010PropOp48
 70
     1
102
RTVSPost2010Prop49
280
     0
102
RTVSPost2010PropOp49
 70
     1
102
RTVSPost2010Prop50
 90
       50
102
RTVSPost2010PropOp50
 70
     1
102
RTVSPost2010Prop51ColorIndex
 90
      256
102
RTVSPost2010Prop51ColorRGB
 90
-16777216
102
RTVSPost2010PropOp51
 70
     0
102
RTVSPost2010Prop52
140
1.0
102
RTVSPost2010PropOp52
 70
     0
102
RTVSPost2010Prop53
 90
        2
102
RTVSPost2010PropOp53
 70
     1
102
RTVSPost2010Prop54
  1
strokes_ogs.tif
102
RTVSPost2010PropOp54
 70
     1
102
RTVSPost2010Prop55
280
     0
102
RTVSPost2010PropOp55
 70
     1
102
RTVSPost2010Prop56
140
1.0
102
RTVSPost2010PropOp56
 70
     1
102
RTVSPost2010Prop57
140
1.0
102
RTVSPost2010PropOp57
 70
     1
102
RTVSPropertyOp0
 70
     1
102
RTVSPropertyOp1
 70
     1
102
RTVSPropertyOp2
 70
     1
102
RTVSPropertyOp3
 70
     1
102
RTVSPropertyOp4
 70
     1
102
RTVSPropertyOp5
 70
     1
102
RTVSPropertyOp6
 70
     1
102
RTVSPropertyOp7
 70
     1
102
RTVSPropertyOp8
 70
     1
102
RTVSPropertyOp9
 70
     1
102
RTVSPropertyOp10
 70
     1
102
RTVSPropertyOp11
 70
     1
102
RTVSPropertyOp12
 70
     1
102
RTVSPropertyOp13
 70
     1
102
RTVSPropertyOp14
 70
     1
102
RTVSPropertyOp15
 70
     1
102
RTVSPropertyOp16
 70
     1
102
RTVSPropertyOp17
 70
     1
102
RTVSPropertyOp18
 70
     1
102
RTVSPropertyOp19
 70
     1
102
RTVSPropertyOp20
 70
     1
102
RTVSPropertyOp21
 70
     1
102
RTVSPropertyOp22
 70
     1
102
RTVSPropertyOp23
 70
     1
102
RTVSPropertyOp24
 70
     1
102
RTVSPropertyOp25
 70
     1
102
RTVSPropertyOp26
 70
     1
102
RTVSPropertyOp27
 70
     1
102
RTVSPropertyOp28
 70
     1
102
RTVSPropertyOp29
 70
     1
102
RTVSPropertyOp30
 70
     1
102
RTVSPropertyOp31
 70
     1
102
RTVSPropertyOp32
 70
     1
102
RTVSPropertyOp33
 70
     1
102
RTVSPropertyOp34
 70
     1
102
RTVSPropertyOp35
 70
     1
102
RTVSPropertyOp36
 70
     1
102
RTVSPropertyOp37
 70
     1
102
RTVSPropertyOp38
 70
     1
102
RTVSPropertyOp39
 70
     1
102
RTVSPropertyOp40
 70
     1
102
RTVSPropertyOp41
 70
     1
102
RTVSPropertyOp42
 70
     1
102
RTVSPropertyOp43
 70
     1
102
RTVSPropertyOp44
 70
     1
102
RTVSPropertyOp45
 70
     1
102
RTVSPropertyOp46
 70
     1
102
RTVSPropertyOp47
 70
     1
102
RTVSPropertyOp48
 70
     1
102
RTVSPropertyOp49
 70
     1
102
RTVSPropertyOp50
 70
     1
102
RTVSPropertyOp51
 70
     0
102
RTVSPropertyOp52
 70
     0
102
RTVSPropertyOp53
 70
     1
102
RTVSPropertyOp54
 70
     1
102
RTVSPropertyOp55
 70
     1
102
RTVSPropertyOp56
 70
     1
102
RTVSPropertyOp57
 70
     1
102
RTVSPropertyOp58
 70
     1
102
RTVSPropertyOp59
 70
     1
102
RTVSPropertyOp60
 70
     1
102
RTVSPropertyOp61
 70
     1
102
RTVSPropertyOp62
 70
     1
  0
XRECORD
  5
835D
102
{ACAD_REACTORS
330
835C
102
}
330
835C
100
AcDbXrecord
280
     1
102
RTVSPost2010Prop28
280
     0
102
RTVSPost2010PropOp28
 70
     1
102
RTVSPost2010Prop29
280
     1
102
RTVSPost2010PropOp29
 70
     1
102
RTVSPost2010Prop30
280
     1
102
RTVSPost2010PropOp30
 70
     1
102
RTVSPost2010Prop31
280
     0
102
RTVSPost2010PropOp31
 70
     1
102
RTVSPost2010Prop32
280
     0
102
RTVSPost2010PropOp32
 70
     1
102
RTVSPost2010Prop33
280
     0
102
RTVSPost2010PropOp33
 70
     1
102
RTVSPost2010Prop34
280
     0
102
RTVSPost2010PropOp34
 70
     1
102
RTVSPost2010Prop35
280
     0
102
RTVSPost2010PropOp35
 70
     1
102
RTVSPost2010Prop36
280
     0
102
RTVSPost2010PropOp36
 70
     1
102
RTVSPost2010Prop37
 90
       50
102
RTVSPost2010PropOp37
 70
     1
102
RTVSPost2010Prop38
140
0.0
102
RTVSPost2010PropOp38
 70
     1
102
RTVSPost2010Prop39
140
1.0
102
RTVSPost2010PropOp39
 70
     1
102
RTVSPost2010Prop40
 90
        0
102
RTVSPost2010PropOp40
 70
     1
102
RTVSPost2010Prop41ColorIndex
 90
       18
102
RTVSPost2010Prop41ColorRGB
 90
        0
102
RTVSPost2010PropOp41
 70
     1
102
RTVSPost2010Prop42
 90
       50
102
RTVSPost2010PropOp42
 70
     1
102
RTVSPost2010Prop43
 90
        3
102
RTVSPost2010PropOp43
 70
     1
102
RTVSPost2010Prop44ColorIndex
 90
        5
102
RTVSPost2010Prop44ColorRGB
 90
      255
102
RTVSPost2010PropOp44
 70
     1
102
RTVSPost2010Prop45
280
     0
102
RTVSPost2010PropOp45
 70
     1
102
RTVSPost2010Prop46
 90
       50
102
RTVSPost2010PropOp46
 70
     1
102
RTVSPost2010Prop47
 90
       50
102
RTVSPost2010PropOp47
 70
     1
102
RTVSPost2010Prop48
 90
       50
102
RTVSPost2010PropOp48
 70
     1
102
RTVSPost2010Prop49
280
     0
102
RTVSPost2010PropOp49
 70
     1
102
RTVSPost2010Prop50
 90
       50
102
RTVSPost2010PropOp50
 70
     1
102
RTVSPost2010Prop51ColorIndex
 90
      256
102
RTVSPost2010Prop51ColorRGB
 90
-16777216
102
RTVSPost2010PropOp51
 70
     0
102
RTVSPost2010Prop52
140
1.0
102
RTVSPost2010PropOp52
 70
     0
102
RTVSPost2010Prop53
 90
        2
102
RTVSPost2010PropOp53
 70
     1
102
RTVSPost2010Prop54
  1
strokes_ogs.tif
102
RTVSPost2010PropOp54
 70
     1
102
RTVSPost2010Prop55
280
     0
102
RTVSPost2010PropOp55
 70
     1
102
RTVSPost2010Prop56
140
1.0
102
RTVSPost2010PropOp56
 70
     1
102
RTVSPost2010Prop57
140
1.0
102
RTVSPost2010PropOp57
 70
     1
102
RTVSPropertyOp0
 70
     1
102
RTVSPropertyOp1
 70
     1
102
RTVSPropertyOp2
 70
     1
102
RTVSPropertyOp3
 70
     1
102
RTVSPropertyOp4
 70
     1
102
RTVSPropertyOp5
 70
     1
102
RTVSPropertyOp6
 70
     1
102
RTVSPropertyOp7
 70
     1
102
RTVSPropertyOp8
 70
     1
102
RTVSPropertyOp9
 70
     1
102
RTVSPropertyOp10
 70
     1
102
RTVSPropertyOp11
 70
     1
102
RTVSPropertyOp12
 70
     1
102
RTVSPropertyOp13
 70
     1
102
RTVSPropertyOp14
 70
     1
102
RTVSPropertyOp15
 70
     1
102
RTVSPropertyOp16
 70
     1
102
RTVSPropertyOp17
 70
     1
102
RTVSPropertyOp18
 70
     1
102
RTVSPropertyOp19
 70
     1
102
RTVSPropertyOp20
 70
     1
102
RTVSPropertyOp21
 70
     1
102
RTVSPropertyOp22
 70
     1
102
RTVSPropertyOp23
 70
     1
102
RTVSPropertyOp24
 70
     1
102
RTVSPropertyOp25
 70
     1
102
RTVSPropertyOp26
 70
     1
102
RTVSPropertyOp27
 70
     1
102
RTVSPropertyOp28
 70
     1
102
RTVSPropertyOp29
 70
     1
102
RTVSPropertyOp30
 70
     1
102
RTVSPropertyOp31
 70
     1
102
RTVSPropertyOp32
 70
     1
102
RTVSPropertyOp33
 70
     1
102
RTVSPropertyOp34
 70
     1
102
RTVSPropertyOp35
 70
     1
102
RTVSPropertyOp36
 70
     1
102
RTVSPropertyOp37
 70
     1
102
RTVSPropertyOp38
 70
     1
102
RTVSPropertyOp39
 70
     1
102
RTVSPropertyOp40
 70
     1
102
RTVSPropertyOp41
 70
     1
102
RTVSPropertyOp42
 70
     1
102
RTVSPropertyOp43
 70
     1
102
RTVSPropertyOp44
 70
     1
102
RTVSPropertyOp45
 70
     1
102
RTVSPropertyOp46
 70
     1
102
RTVSPropertyOp47
 70
     1
102
RTVSPropertyOp48
 70
     1
102
RTVSPropertyOp49
 70
     1
102
RTVSPropertyOp50
 70
     1
102
RTVSPropertyOp51
 70
     0
102
RTVSPropertyOp52
 70
     0
102
RTVSPropertyOp53
 70
     1
102
RTVSPropertyOp54
 70
     1
102
RTVSPropertyOp55
 70
     1
102
RTVSPropertyOp56
 70
     1
102
RTVSPropertyOp57
 70
     1
102
RTVSPropertyOp58
 70
     1
102
RTVSPropertyOp59
 70
     1
102
RTVSPropertyOp60
 70
     1
102
RTVSPropertyOp61
 70
     1
102
RTVSPropertyOp62
 70
     1
  0
XRECORD
  5
8351
102
{ACAD_REACTORS
330
8350
102
}
330
8350
100
AcDbXrecord
280
     1
102
RTVSPost2010Prop28
280
     0
102
RTVSPost2010PropOp28
 70
     1
102
RTVSPost2010Prop29
280
     1
102
RTVSPost2010PropOp29
 70
     1
102
RTVSPost2010Prop30
280
     1
102
RTVSPost2010PropOp30
 70
     1
102
RTVSPost2010Prop31
280
     0
102
RTVSPost2010PropOp31
 70
     1
102
RTVSPost2010Prop32
280
     0
102
RTVSPost2010PropOp32
 70
     1
102
RTVSPost2010Prop33
280
     0
102
RTVSPost2010PropOp33
 70
     1
102
RTVSPost2010Prop34
280
     0
102
RTVSPost2010PropOp34
 70
     1
102
RTVSPost2010Prop35
280
     0
102
RTVSPost2010PropOp35
 70
     1
102
RTVSPost2010Prop36
280
     0
102
RTVSPost2010PropOp36
 70
     1
102
RTVSPost2010Prop37
 90
       50
102
RTVSPost2010PropOp37
 70
     1
102
RTVSPost2010Prop38
140
0.0
102
RTVSPost2010PropOp38
 70
     1
102
RTVSPost2010Prop39
140
1.0
102
RTVSPost2010PropOp39
 70
     1
102
RTVSPost2010Prop40
 90
        0
102
RTVSPost2010PropOp40
 70
     1
102
RTVSPost2010Prop41ColorIndex
 90
       18
102
RTVSPost2010Prop41ColorRGB
 90
        0
102
RTVSPost2010PropOp41
 70
     1
102
RTVSPost2010Prop42
 90
       50
102
RTVSPost2010PropOp42
 70
     1
102
RTVSPost2010Prop43
 90
        3
102
RTVSPost2010PropOp43
 70
     1
102
RTVSPost2010Prop44ColorIndex
 90
        5
102
RTVSPost2010Prop44ColorRGB
 90
      255
102
RTVSPost2010PropOp44
 70
     1
102
RTVSPost2010Prop45
280
     0
102
RTVSPost2010PropOp45
 70
     1
102
RTVSPost2010Prop46
 90
       50
102
RTVSPost2010PropOp46
 70
     1
102
RTVSPost2010Prop47
 90
       50
102
RTVSPost2010PropOp47
 70
     1
102
RTVSPost2010Prop48
 90
       50
102
RTVSPost2010PropOp48
 70
     1
102
RTVSPost2010Prop49
280
     0
102
RTVSPost2010PropOp49
 70
     1
102
RTVSPost2010Prop50
 90
       50
102
RTVSPost2010PropOp50
 70
     1
102
RTVSPost2010Prop51ColorIndex
 90
      256
102
RTVSPost2010Prop51ColorRGB
 90
-16777216
102
RTVSPost2010PropOp51
 70
     0
102
RTVSPost2010Prop52
140
1.0
102
RTVSPost2010PropOp52
 70
     0
102
RTVSPost2010Prop53
 90
        2
102
RTVSPost2010PropOp53
 70
     1
102
RTVSPost2010Prop54
  1
strokes_ogs.tif
102
RTVSPost2010PropOp54
 70
     1
102
RTVSPost2010Prop55
280
     0
102
RTVSPost2010PropOp55
 70
     1
102
RTVSPost2010Prop56
140
1.0
102
RTVSPost2010PropOp56
 70
     1
102
RTVSPost2010Prop57
140
1.0
102
RTVSPost2010PropOp57
 70
     1
102
RTVSPropertyOp0
 70
     1
102
RTVSPropertyOp1
 70
     1
102
RTVSPropertyOp2
 70
     1
102
RTVSPropertyOp3
 70
     1
102
RTVSPropertyOp4
 70
     1
102
RTVSPropertyOp5
 70
     1
102
RTVSPropertyOp6
 70
     1
102
RTVSPropertyOp7
 70
     1
102
RTVSPropertyOp8
 70
     1
102
RTVSPropertyOp9
 70
     1
102
RTVSPropertyOp10
 70
     1
102
RTVSPropertyOp11
 70
     1
102
RTVSPropertyOp12
 70
     1
102
RTVSPropertyOp13
 70
     1
102
RTVSPropertyOp14
 70
     1
102
RTVSPropertyOp15
 70
     1
102
RTVSPropertyOp16
 70
     1
102
RTVSPropertyOp17
 70
     1
102
RTVSPropertyOp18
 70
     1
102
RTVSPropertyOp19
 70
     1
102
RTVSPropertyOp20
 70
     1
102
RTVSPropertyOp21
 70
     1
102
RTVSPropertyOp22
 70
     1
102
RTVSPropertyOp23
 70
     1
102
RTVSPropertyOp24
 70
     1
102
RTVSPropertyOp25
 70
     1
102
RTVSPropertyOp26
 70
     1
102
RTVSPropertyOp27
 70
     1
102
RTVSPropertyOp28
 70
     1
102
RTVSPropertyOp29
 70
     1
102
RTVSPropertyOp30
 70
     1
102
RTVSPropertyOp31
 70
     1
102
RTVSPropertyOp32
 70
     1
102
RTVSPropertyOp33
 70
     1
102
RTVSPropertyOp34
 70
     1
102
RTVSPropertyOp35
 70
     1
102
RTVSPropertyOp36
 70
     1
102
RTVSPropertyOp37
 70
     1
102
RTVSPropertyOp38
 70
     1
102
RTVSPropertyOp39
 70
     1
102
RTVSPropertyOp40
 70
     1
102
RTVSPropertyOp41
 70
     1
102
RTVSPropertyOp42
 70
     1
102
RTVSPropertyOp43
 70
     1
102
RTVSPropertyOp44
 70
     1
102
RTVSPropertyOp45
 70
     1
102
RTVSPropertyOp46
 70
     1
102
RTVSPropertyOp47
 70
     1
102
RTVSPropertyOp48
 70
     1
102
RTVSPropertyOp49
 70
     1
102
RTVSPropertyOp50
 70
     1
102
RTVSPropertyOp51
 70
     0
102
RTVSPropertyOp52
 70
     0
102
RTVSPropertyOp53
 70
     1
102
RTVSPropertyOp54
 70
     1
102
RTVSPropertyOp55
 70
     1
102
RTVSPropertyOp56
 70
     1
102
RTVSPropertyOp57
 70
     1
102
RTVSPropertyOp58
 70
     1
102
RTVSPropertyOp59
 70
     1
102
RTVSPropertyOp60
 70
     1
102
RTVSPropertyOp61
 70
     1
102
RTVSPropertyOp62
 70
     1
  0
XRECORD
  5
8369
102
{ACAD_REACTORS
330
8368
102
}
330
8368
100
AcDbXrecord
280
     1
102
RTVSPost2010Prop28
280
     0
102
RTVSPost2010PropOp28
 70
     1
102
RTVSPost2010Prop29
280
     1
102
RTVSPost2010PropOp29
 70
     1
102
RTVSPost2010Prop30
280
     1
102
RTVSPost2010PropOp30
 70
     1
102
RTVSPost2010Prop31
280
     0
102
RTVSPost2010PropOp31
 70
     1
102
RTVSPost2010Prop32
280
     0
102
RTVSPost2010PropOp32
 70
     1
102
RTVSPost2010Prop33
280
     0
102
RTVSPost2010PropOp33
 70
     1
102
RTVSPost2010Prop34
280
     0
102
RTVSPost2010PropOp34
 70
     1
102
RTVSPost2010Prop35
280
     0
102
RTVSPost2010PropOp35
 70
     1
102
RTVSPost2010Prop36
280
     0
102
RTVSPost2010PropOp36
 70
     1
102
RTVSPost2010Prop37
 90
       50
102
RTVSPost2010PropOp37
 70
     1
102
RTVSPost2010Prop38
140
0.0
102
RTVSPost2010PropOp38
 70
     1
102
RTVSPost2010Prop39
140
1.0
102
RTVSPost2010PropOp39
 70
     1
102
RTVSPost2010Prop40
 90
        0
102
RTVSPost2010PropOp40
 70
     1
102
RTVSPost2010Prop41ColorIndex
 90
       18
102
RTVSPost2010Prop41ColorRGB
 90
        0
102
RTVSPost2010PropOp41
 70
     1
102
RTVSPost2010Prop42
 90
       50
102
RTVSPost2010PropOp42
 70
     1
102
RTVSPost2010Prop43
 90
        3
102
RTVSPost2010PropOp43
 70
     1
102
RTVSPost2010Prop44ColorIndex
 90
        5
102
RTVSPost2010Prop44ColorRGB
 90
      255
102
RTVSPost2010PropOp44
 70
     1
102
RTVSPost2010Prop45
280
     0
102
RTVSPost2010PropOp45
 70
     1
102
RTVSPost2010Prop46
 90
       50
102
RTVSPost2010PropOp46
 70
     1
102
RTVSPost2010Prop47
 90
       50
102
RTVSPost2010PropOp47
 70
     1
102
RTVSPost2010Prop48
 90
       50
102
RTVSPost2010PropOp48
 70
     1
102
RTVSPost2010Prop49
280
     0
102
RTVSPost2010PropOp49
 70
     1
102
RTVSPost2010Prop50
 90
       50
102
RTVSPost2010PropOp50
 70
     1
102
RTVSPost2010Prop51ColorIndex
 90
      256
102
RTVSPost2010Prop51ColorRGB
 90
-16777216
102
RTVSPost2010PropOp51
 70
     0
102
RTVSPost2010Prop52
140
1.0
102
RTVSPost2010PropOp52
 70
     0
102
RTVSPost2010Prop53
 90
        2
102
RTVSPost2010PropOp53
 70
     1
102
RTVSPost2010Prop54
  1
strokes_ogs.tif
102
RTVSPost2010PropOp54
 70
     1
102
RTVSPost2010Prop55
280
     0
102
RTVSPost2010PropOp55
 70
     1
102
RTVSPost2010Prop56
140
1.0
102
RTVSPost2010PropOp56
 70
     1
102
RTVSPost2010Prop57
140
1.0
102
RTVSPost2010PropOp57
 70
     1
102
RTVSPropertyOp0
 70
     1
102
RTVSPropertyOp1
 70
     1
102
RTVSPropertyOp2
 70
     1
102
RTVSPropertyOp3
 70
     1
102
RTVSPropertyOp4
 70
     1
102
RTVSPropertyOp5
 70
     1
102
RTVSPropertyOp6
 70
     1
102
RTVSPropertyOp7
 70
     1
102
RTVSPropertyOp8
 70
     1
102
RTVSPropertyOp9
 70
     1
102
RTVSPropertyOp10
 70
     1
102
RTVSPropertyOp11
 70
     1
102
RTVSPropertyOp12
 70
     1
102
RTVSPropertyOp13
 70
     1
102
RTVSPropertyOp14
 70
     1
102
RTVSPropertyOp15
 70
     1
102
RTVSPropertyOp16
 70
     1
102
RTVSPropertyOp17
 70
     1
102
RTVSPropertyOp18
 70
     1
102
RTVSPropertyOp19
 70
     1
102
RTVSPropertyOp20
 70
     1
102
RTVSPropertyOp21
 70
     1
102
RTVSPropertyOp22
 70
     1
102
RTVSPropertyOp23
 70
     1
102
RTVSPropertyOp24
 70
     1
102
RTVSPropertyOp25
 70
     1
102
RTVSPropertyOp26
 70
     1
102
RTVSPropertyOp27
 70
     1
102
RTVSPropertyOp28
 70
     1
102
RTVSPropertyOp29
 70
     1
102
RTVSPropertyOp30
 70
     1
102
RTVSPropertyOp31
 70
     1
102
RTVSPropertyOp32
 70
     1
102
RTVSPropertyOp33
 70
     1
102
RTVSPropertyOp34
 70
     1
102
RTVSPropertyOp35
 70
     1
102
RTVSPropertyOp36
 70
     1
102
RTVSPropertyOp37
 70
     1
102
RTVSPropertyOp38
 70
     1
102
RTVSPropertyOp39
 70
     1
102
RTVSPropertyOp40
 70
     1
102
RTVSPropertyOp41
 70
     1
102
RTVSPropertyOp42
 70
     1
102
RTVSPropertyOp43
 70
     1
102
RTVSPropertyOp44
 70
     1
102
RTVSPropertyOp45
 70
     1
102
RTVSPropertyOp46
 70
     1
102
RTVSPropertyOp47
 70
     1
102
RTVSPropertyOp48
 70
     1
102
RTVSPropertyOp49
 70
     1
102
RTVSPropertyOp50
 70
     1
102
RTVSPropertyOp51
 70
     0
102
RTVSPropertyOp52
 70
     0
102
RTVSPropertyOp53
 70
     1
102
RTVSPropertyOp54
 70
     1
102
RTVSPropertyOp55
 70
     1
102
RTVSPropertyOp56
 70
     1
102
RTVSPropertyOp57
 70
     1
102
RTVSPropertyOp58
 70
     1
102
RTVSPropertyOp59
 70
     1
102
RTVSPropertyOp60
 70
     1
102
RTVSPropertyOp61
 70
     1
102
RTVSPropertyOp62
 70
     1
  0
ENDSEC
  0
EOF
