  0
SECTION
  2
HEADER
  9
$ACADVER
  1
AC1015
  9
$ACADMAINTVER
 70
    20
  9
$DWGCODEPAGE
  3
ANSI_932
  9
$INSBASE
 10
0.0
 20
0.0
 30
0.0
  9
$EXTMIN
 10
-0.1602050617329951
 20
-0.22504996767384
 30
-0.0015258207003583
  9
$EXTMAX
 10
5250.160229508953
 20
7375.225084310193
 30
0.0000000349246037
  9
$LIMMIN
 10
0.0
 20
0.0
  9
$LIMMAX
 10
297.0
 20
210.0
  9
$ORTHOMODE
 70
     1
  9
$REGENMODE
 70
     1
  9
$FILLMODE
 70
     0
  9
$QTEXTMODE
 70
     0
  9
$MIRRTEXT
 70
     1
  9
$LTSCALE
 40
100.0
  9
$ATTMODE
 70
     1
  9
$TEXTSIZE
 40
180.0
  9
$TRACEWID
 40
0.05
  9
$TEXTSTYLE
  7
STANDARD
  9
$CLAYER
  8
3
  9
$CELTYPE
  6
ByLayer
  9
$CECOLOR
 62
   256
  9
$CELTSCALE
 40
1.0
  9
$DISPSILH
 70
     0
  9
$DIMSCALE
 40
25.0
  9
$DIMASZ
 40
2.0
  9
$DIMEXO
 40
1.0
  9
$DIMDLI
 40
10.0
  9
$DIMRND
 40
0.0
  9
$DIMDLE
 40
0.0
  9
$DIMEXE
 40
1.0
  9
$DIMTP
 40
1.0
  9
$DIMTM
 40
1.0
  9
$DIMTXT
 40
3.0
  9
$DIMCEN
 40
0.0
  9
$DIMTSZ
 40
0.0
  9
$DIMTOL
 70
     0
  9
$DIMLIM
 70
     0
  9
$DIMTIH
 70
     0
  9
$DIMTOH
 70
     0
  9
$DIMSE1
 70
     0
  9
$DIMSE2
 70
     0
  9
$DIMTAD
 70
     1
  9
$DIMZIN
 70
     8
  9
$DIMBLK
  1

  9
$DIMASO
 70
     1
  9
$DIMSHO
 70
     1
  9
$DIMPOST
  1

  9
$DIMAPOST
  1

  9
$DIMALT
 70
     0
  9
$DIMALTD
 70
     2
  9
$DIMALTF
 40
0.039
  9
$DIMLFAC
 40
1.0
  9
$DIMTOFL
 70
     1
  9
$DIMTVP
 40
0.0
  9
$DIMTIX
 70
     0
  9
$DIMSOXD
 70
     0
  9
$DIMSAH
 70
     1
  9
$DIMBLK1
  1
OPEN
  9
$DIMBLK2
  1
OPEN
  9
$DIMSTYLE
  2
IGA
  9
$DIMCLRD
 70
     0
  9
$DIMCLRE
 70
     0
  9
$DIMCLRT
 70
     0
  9
$DIMTFAC
 40
10.0
  9
$DIMGAP
 40
1.0
  9
$DIMJUST
 70
     0
  9
$DIMSD1
 70
     0
  9
$DIMSD2
 70
     0
  9
$DIMTOLJ
 70
     1
  9
$DIMTZIN
 70
     0
  9
$DIMALTZ
 70
     0
  9
$DIMALTTZ
 70
     0
  9
$DIMUPT
 70
     0
  9
$DIMDEC
 70
     4
  9
$DIMTDEC
 70
     4
  9
$DIMALTU
 70
     2
  9
$DIMALTTD
 70
     2
  9
$DIMTXSTY
  7
STANDARD
  9
$DIMAUNIT
 70
     0
  9
$DIMADEC
 70
     0
  9
$DIMALTRND
 40
0.0
  9
$DIMAZIN
 70
     0
  9
$DIMDSEP
 70
    46
  9
$DIMATFIT
 70
     3
  9
$DIMFRAC
 70
     0
  9
$DIMLDRBLK
  1
OPEN
  9
$DIMLUNIT
 70
     2
  9
$DIMLWD
 70
    -2
  9
$DIMLWE
 70
    -2
  9
$DIMTMOVE
 70
     0
  9
$LUNITS
 70
     2
  9
$LUPREC
 70
     3
  9
$SKETCHINC
 40
0.1
  9
$FILLETRAD
 40
50.0
  9
$AUNITS
 70
     0
  9
$AUPREC
 70
     0
  9
$MENU
  1
acad
  9
$ELEVATION
 40
0.0
  9
$PELEVATION
 40
0.0
  9
$THICKNESS
 40
0.0
  9
$LIMCHECK
 70
     0
  9
$CHAMFERA
 40
0.5
  9
$CHAMFERB
 40
0.5
  9
$CHAMFERC
 40
0.0
  9
$CHAMFERD
 40
0.0
  9
$SKPOLY
 70
     0
  9
$TDCREATE
 40
2451387.606533102
  9
$TDUCREATE
 40
2451387.231533102
  9
$TDUPDATE
 40
2460263.704314930
  9
$TDUUPDATE
 40
2460263.329314930
  9
$TDINDWG
 40
0.0660846991
  9
$TDUSRTIMER
 40
0.0660843403
  9
$USRTIMER
 70
     1
  9
$ANGBASE
 50
0.0
  9
$ANGDIR
 70
     0
  9
$PDMODE
 70
     0
  9
$PDSIZE
 40
0.0
  9
$PLINEWID
 40
0.0
  9
$SPLFRAME
 70
     0
  9
$SPLINETYPE
 70
     6
  9
$SPLINESEGS
 70
     8
  9
$HANDSEED
  5
82F2
  9
$SURFTAB1
 70
     6
  9
$SURFTAB2
 70
     6
  9
$SURFTYPE
 70
     6
  9
$SURFU
 70
     6
  9
$SURFV
 70
     6
  9
$UCSBASE
  2

  9
$UCSNAME
  2

  9
$UCSORG
 10
0.0
 20
0.0
 30
0.0
  9
$UCSXDIR
 10
1.0
 20
0.0
 30
0.0
  9
$UCSYDIR
 10
0.0
 20
1.0
 30
0.0
  9
$UCSORTHOREF
  2

  9
$UCSORTHOVIEW
 70
     0
  9
$UCSORGTOP
 10
0.0
 20
0.0
 30
0.0
  9
$UCSORGBOTTOM
 10
0.0
 20
0.0
 30
0.0
  9
$UCSORGLEFT
 10
0.0
 20
0.0
 30
0.0
  9
$UCSORGRIGHT
 10
0.0
 20
0.0
 30
0.0
  9
$UCSORGFRONT
 10
0.0
 20
0.0
 30
0.0
  9
$UCSORGBACK
 10
0.0
 20
0.0
 30
0.0
  9
$PUCSBASE
  2

  9
$PUCSNAME
  2

  9
$PUCSORG
 10
0.0
 20
0.0
 30
0.0
  9
$PUCSXDIR
 10
1.0
 20
0.0
 30
0.0
  9
$PUCSYDIR
 10
0.0
 20
1.0
 30
0.0
  9
$PUCSORTHOREF
  2

  9
$PUCSORTHOVIEW
 70
     0
  9
$PUCSORGTOP
 10
0.0
 20
0.0
 30
0.0
  9
$PUCSORGBOTTOM
 10
0.0
 20
0.0
 30
0.0
  9
$PUCSORGLEFT
 10
0.0
 20
0.0
 30
0.0
  9
$PUCSORGRIGHT
 10
0.0
 20
0.0
 30
0.0
  9
$PUCSORGFRONT
 10
0.0
 20
0.0
 30
0.0
  9
$PUCSORGBACK
 10
0.0
 20
0.0
 30
0.0
  9
$USERI1
 70
     0
  9
$USERI2
 70
     0
  9
$USERI3
 70
     0
  9
$USERI4
 70
     0
  9
$USERI5
 70
     0
  9
$USERR1
 40
0.0
  9
$USERR2
 40
0.0
  9
$USERR3
 40
0.0
  9
$USERR4
 40
0.0
  9
$USERR5
 40
0.0
  9
$WORLDVIEW
 70
     1
  9
$SHADEDGE
 70
     3
  9
$SHADEDIF
 70
    70
  9
$TILEMODE
 70
     1
  9
$MAXACTVP
 70
    16
  9
$PINSBASE
 10
0.0
 20
0.0
 30
0.0
  9
$PLIMCHECK
 70
     0
  9
$PEXTMIN
 10
1.000000000000000E+20
 20
1.000000000000000E+20
 30
1.000000000000000E+20
  9
$PEXTMAX
 10
-1.000000000000000E+20
 20
-1.000000000000000E+20
 30
-1.000000000000000E+20
  9
$PLIMMIN
 10
0.0
 20
0.0
  9
$PLIMMAX
 10
12.0
 20
9.0
  9
$UNITMODE
 70
     0
  9
$VISRETAIN
 70
     0
  9
$PLINEGEN
 70
     0
  9
$PSLTSCALE
 70
     1
  9
$TREEDEPTH
 70
  3020
  9
$CMLSTYLE
  2
Standard
  9
$CMLJUST
 70
     0
  9
$CMLSCALE
 40
1.0
  9
$PROXYGRAPHICS
 70
     1
  9
$MEASUREMENT
 70
     0
  9
$CELWEIGHT
370
    -1
  9
$ENDCAPS
280
     0
  9
$JOINSTYLE
280
     0
  9
$LWDISPLAY
290
     0
  9
$INSUNITS
 70
     0
  9
$HYPERLINKBASE
  1

  9
$STYLESHEET
  1

  9
$XEDIT
290
     1
  9
$CEPSNTYPE
380
     0
  9
$PSTYLEMODE
290
     1
  9
$FINGERPRINTGUID
  2
{903D6360-5909-42E4-A9C0-EACF970E2A2A}
  9
$VERSIONGUID
  2
{0AFABEBC-6B87-4079-9A43-D46273EA69F1}
  9
$EXTNAMES
290
     1
  9
$PSVPSCALE
 40
0.0
  9
$OLESTARTUP
290
     0
  0
ENDSEC
  0
SECTION
  2
CLASSES
  0
CLASS
  1
ACDBDICTIONARYWDFLT
  2
AcDbDictionaryWithDefault
  3
ObjectDBX Classes
 90
        0
280
     0
281
     0
  0
CLASS
  1
MATERIAL
  2
AcDbMaterial
  3
ObjectDBX Classes
 90
     1153
280
     0
281
     0
  0
CLASS
  1
VISUALSTYLE
  2
AcDbVisualStyle
  3
ObjectDBX Classes
 90
     4095
280
     0
281
     0
  0
CLASS
  1
SCALE
  2
AcDbScale
  3
ObjectDBX Classes
 90
     1153
280
     0
281
     0
  0
CLASS
  1
TABLESTYLE
  2
AcDbTableStyle
  3
ObjectDBX Classes
 90
     4095
280
     0
281
     0
  0
CLASS
  1
MLEADERSTYLE
  2
AcDbMLeaderStyle
  3
ACDB_MLEADERSTYLE_CLASS
 90
     4095
280
     0
281
     0
  0
CLASS
  1
ACDBSECTIONVIEWSTYLE
  2
AcDbSectionViewStyle
  3
ObjectDBX Classes
 90
     1025
280
     0
281
     0
  0
CLASS
  1
ACDBDETAILVIEWSTYLE
  2
AcDbDetailViewStyle
  3
ObjectDBX Classes
 90
     1025
280
     0
281
     0
  0
CLASS
  1
DICTIONARYVAR
  2
AcDbDictionaryVar
  3
ObjectDBX Classes
 90
        0
280
     0
281
     0
  0
CLASS
  1
CELLSTYLEMAP
  2
AcDbCellStyleMap
  3
ObjectDBX Classes
 90
     1152
280
     0
281
     0
  0
CLASS
  1
SORTENTSTABLE
  2
AcDbSortentsTable
  3
ObjectDBX Classes
 90
        0
280
     0
281
     0
  0
CLASS
  1
ACDBPLACEHOLDER
  2
AcDbPlaceHolder
  3
ObjectDBX Classes
 90
        0
280
     0
281
     0
  0
CLASS
  1
LAYOUT
  2
AcDbLayout
  3
ObjectDBX Classes
 90
        0
280
     0
281
     0
  0
ENDSEC
  0
SECTION
  2
TABLES
  0
TABLE
  2
VPORT
  5
80D8
330
0
100
AcDbSymbolTable
 70
     1
  0
VPORT
  5
8144
330
80D8
100
AcDbSymbolTableRecord
100
AcDbViewportTableRecord
  2
*ACTIVE
 70
     0
 10
0.0
 20
0.0
 11
1.0
 21
1.0
 12
2625.00001222361
 22
3687.500017171259
 13
0.0
 23
0.0
 14
10.0
 24
10.0
 15
10.0
 25
10.0
 16
0.0
 26
0.0
 36
1.0
 17
0.0
 27
0.0
 37
0.0
 40
7425.03316837574
 41
2.050213675213675
 42
50.0
 43
0.0
 44
0.0
 50
0.0
 51
0.0
 71
     0
 72
   100
 73
     1
 74
     0
 75
     0
 76
     0
 77
     0
 78
     0
281
     0
 65
     1
110
0.0
120
0.0
130
0.0
111
1.0
121
0.0
131
0.0
112
0.0
122
1.0
132
0.0
 79
     0
146
0.0
1001
ACAD_NAV_VCDISPLAY
1070
     3
  0
ENDTAB
  0
TABLE
  2
LTYPE
  5
80D5
330
0
100
AcDbSymbolTable
 70
     2
  0
LTYPE
  5
812A
330
80D5
100
AcDbSymbolTableRecord
100
AcDbLinetypeTableRecord
  2
ByBlock
 70
     0
  3

 72
    65
 73
     0
 40
0.0
  0
LTYPE
  5
812B
330
80D5
100
AcDbSymbolTableRecord
100
AcDbLinetypeTableRecord
  2
ByLayer
 70
     0
  3

 72
    65
 73
     0
 40
0.0
  0
LTYPE
  5
812C
330
80D5
100
AcDbSymbolTableRecord
100
AcDbLinetypeTableRecord
  2
CONTINUOUS
 70
     0
  3
Solid line
 72
    65
 73
     0
 40
0.0
  0
LTYPE
  5
8145
330
80D5
100
AcDbSymbolTableRecord
100
AcDbLinetypeTableRecord
  2
CENTER
 70
     0
  3
____ _ ____ _ ____ _ ____ _ ____ _ ____ _ ____ 
 72
    65
 73
     4
 40
2.0
 49
1.25
 74
     0
 49
-0.25
 74
     0
 49
0.25
 74
     0
 49
-0.25
 74
     0
  0
ENDTAB
  0
TABLE
  2
LAYER
  5
80D2
102
{ACAD_XDICTIONARY
360
81E0
102
}
330
0
100
AcDbSymbolTable
 70
     6
  0
LAYER
  5
8124
102
{ACAD_XDICTIONARY
360
818A
102
}
330
80D2
100
AcDbSymbolTableRecord
100
AcDbLayerTableRecord
  2
0
 70
     0
 62
     7
  6
CONTINUOUS
370
    -3
390
80DF
  0
LAYER
  5
8143
102
{ACAD_XDICTIONARY
360
818C
102
}
330
80D2
100
AcDbSymbolTableRecord
100
AcDbLayerTableRecord
  2
3
 70
     0
 62
     2
  6
CONTINUOUS
370
    -3
390
80DF
  0
LAYER
  5
8146
102
{ACAD_XDICTIONARY
360
818E
102
}
330
80D2
100
AcDbSymbolTableRecord
100
AcDbLayerTableRecord
  2
2
 70
     0
 62
     3
  6
CENTER
370
    -3
390
80DF
  0
LAYER
  5
8147
102
{ACAD_XDICTIONARY
360
8190
102
}
330
80D2
100
AcDbSymbolTableRecord
100
AcDbLayerTableRecord
  2
1
 70
     0
 62
     4
  6
CONTINUOUS
370
    -3
390
80DF
  0
LAYER
  5
8148
102
{ACAD_XDICTIONARY
360
8192
102
}
330
80D2
100
AcDbSymbolTableRecord
100
AcDbLayerTableRecord
  2
4
 70
     0
 62
     7
  6
CONTINUOUS
370
    -3
390
80DF
  0
LAYER
  5
8149
330
80D2
100
AcDbSymbolTableRecord
100
AcDbLayerTableRecord
  2
DEFPOINTS
 70
     0
 62
     7
  6
CONTINUOUS
290
     0
370
    -3
390
80DF
  0
ENDTAB
  0
TABLE
  2
STYLE
  5
80D3
330
0
100
AcDbSymbolTable
 70
     2
  0
STYLE
  5
8125
330
80D3
100
AcDbSymbolTableRecord
100
AcDbTextStyleTableRecord
  2
STANDARD
 70
     0
 40
0.0
 41
1.0
 50
0.0
 71
     0
 42
180.0
  3
simplex.shx
  4
extfont.shx
  0
STYLE
  5
8129
330
80D3
100
AcDbSymbolTableRecord
100
AcDbTextStyleTableRecord
  2
Annotative
 70
     0
 40
0.0
 41
1.0
 50
0.0
 71
     0
 42
0.2
  3
txt
  4

1001
AcadAnnotative
1000
AnnotativeData
1002
{
1070
     1
1070
     1
1002
}
  0
ENDTAB
  0
TABLE
  2
VIEW
  5
80D6
330
0
100
AcDbSymbolTable
 70
     0
  0
ENDTAB
  0
TABLE
  2
UCS
  5
80D7
330
0
100
AcDbSymbolTable
 70
     0
  0
ENDTAB
  0
TABLE
  2
APPID
  5
80D9
330
0
100
AcDbSymbolTable
 70
     6
  0
APPID
  5
8126
330
80D9
100
AcDbSymbolTableRecord
100
AcDbRegAppTableRecord
  2
ACAD
 70
     0
  0
APPID
  5
812D
330
80D9
100
AcDbSymbolTableRecord
100
AcDbRegAppTableRecord
  2
AcadAnnotative
 70
     0
  0
APPID
  5
819E
330
80D9
100
AcDbSymbolTableRecord
100
AcDbRegAppTableRecord
  2
ACAD_NAV_VCDISPLAY
 70
     0
  0
APPID
  5
8227
330
80D9
100
AcDbSymbolTableRecord
100
AcDbRegAppTableRecord
  2
ACAD_DSTYLE_DIMJAG
 70
     0
  0
APPID
  5
8228
330
80D9
100
AcDbSymbolTableRecord
100
AcDbRegAppTableRecord
  2
ACAD_DSTYLE_DIMTALN
 70
     0
  0
APPID
  5
82E9
330
80D9
100
AcDbSymbolTableRecord
100
AcDbRegAppTableRecord
  2
ACAD_MLEADERVER
 70
     0
  0
ENDTAB
  0
TABLE
  2
DIMSTYLE
  5
80DA
330
0
100
AcDbSymbolTable
 70
     4
100
AcDbDimStyleTable
 71
     1
340
814A
  0
DIMSTYLE
105
8127
102
{ACAD_REACTORS
330
7C8C
330
7C8D
330
7C9B
330
7CAF
330
7CEB
330
7CEF
330
7CF1
330
7CF2
330
7CF3
330
7CF4
330
7CF7
330
7CF9
330
8021
330
802E
330
803B
330
8048
330
8057
330
8064
102
}
330
80DA
100
AcDbSymbolTableRecord
100
AcDbDimStyleTableRecord
  2
Standard
 70
     0
340
8125
  0
DIMSTYLE
105
8128
330
80DA
100
AcDbSymbolTableRecord
100
AcDbDimStyleTableRecord
  2
Annotative
 70
     0
340
8125
1001
AcadAnnotative
1000
AnnotativeData
1002
{
1070
     1
1070
     1
1002
}
  0
DIMSTYLE
105
814A
102
{ACAD_REACTORS
330
820C
330
8219
330
824D
330
825A
102
}
330
80DA
100
AcDbSymbolTableRecord
100
AcDbDimStyleTableRecord
  2
IGA
 70
     0
 40
2.0
 41
2.0
 42
0.5
 43
10.0
 44
1.0
 47
1.0
 48
1.0
 73
     0
 74
     0
 77
     1
 78
     8
140
3.0
141
0.0
143
0.03937
146
10.0
147
1.0
173
     1
271
     3
272
     3
279
     2
284
     8
285
     8
286
     8
340
8125
  0
DIMSTYLE
105
814B
330
80DA
100
AcDbSymbolTableRecord
100
AcDbDimStyleTableRecord
  2
MATSU
 70
     0
 41
2.0
 42
1.0
 43
10.0
 44
1.0
 73
     0
 74
     0
 77
     1
 78
     8
140
3.0
141
0.0
143
0.03937
147
0.5
172
     1
173
     1
176
   256
177
   256
178
   256
271
     3
272
     3
279
     2
284
     8
285
     8
286
     8
340
8125
  0
ENDTAB
  0
TABLE
  2
BLOCK_RECORD
  5
80D1
330
0
100
AcDbSymbolTable
 70
    34
  0
BLOCK_RECORD
  5
813F
330
80D1
100
AcDbSymbolTableRecord
100
AcDbBlockTableRecord
  2
*Model_Space
340
8142
  0
BLOCK_RECORD
  5
813B
330
80D1
100
AcDbSymbolTableRecord
100
AcDbBlockTableRecord
  2
*Paper_Space
340
813E
  0
BLOCK_RECORD
  5
814F
330
80D1
100
AcDbSymbolTableRecord
100
AcDbBlockTableRecord
  2
$MODEL_SPACE
340
0
  0
BLOCK_RECORD
  5
8151
330
80D1
100
AcDbSymbolTableRecord
100
AcDbBlockTableRecord
  2
$PAPER_SPACE
340
0
  0
BLOCK_RECORD
  5
8153
330
80D1
100
AcDbSymbolTableRecord
100
AcDbBlockTableRecord
  2
_OPEN
340
0
102
{BLKREFS
331
823E
331
823F
331
8247
331
8248
331
8254
331
8255
331
826A
331
826B
331
7E5E
331
7E5F
331
7F5F
331
7F60
331
7E74
331
7E75
331
7E7F
331
7E80
331
7E95
331
7E96
331
8041
331
8042
331
805D
331
805E
331
7ECC
331
7ECD
331
7FF0
331
7FF1
331
8006
331
8007
331
7EED
331
7EEE
331
7EF8
331
7EF9
331
7F03
331
7F04
331
7F0E
331
7F0F
331
7F19
331
7F1A
331
7F24
331
7F25
331
80C3
331
7F54
331
7F55
331
801A
331
801B
331
8027
331
8028
331
8034
331
8035
102
}
  0
BLOCK_RECORD
  5
8155
330
80D1
100
AcDbSymbolTableRecord
100
AcDbBlockTableRecord
  2
YA_N
340
0
102
{BLKREFS
331
7C36
331
7C55
331
7C93
331
7CCE
102
}
  0
BLOCK_RECORD
  5
8157
330
80D1
100
AcDbSymbolTableRecord
100
AcDbBlockTableRecord
  2
*D4
340
0
  0
BLOCK_RECORD
  5
8159
330
80D1
100
AcDbSymbolTableRecord
100
AcDbBlockTableRecord
  2
*D5
340
0
  0
BLOCK_RECORD
  5
815B
330
80D1
100
AcDbSymbolTableRecord
100
AcDbBlockTableRecord
  2
*D6
340
0
  0
BLOCK_RECORD
  5
815D
330
80D1
100
AcDbSymbolTableRecord
100
AcDbBlockTableRecord
  2
*D7
340
0
  0
BLOCK_RECORD
  5
815F
330
80D1
100
AcDbSymbolTableRecord
100
AcDbBlockTableRecord
  2
*D8
340
0
  0
BLOCK_RECORD
  5
8161
330
80D1
100
AcDbSymbolTableRecord
100
AcDbBlockTableRecord
  2
*D9
340
0
  0
BLOCK_RECORD
  5
8163
330
80D1
100
AcDbSymbolTableRecord
100
AcDbBlockTableRecord
  2
*D10
340
0
  0
BLOCK_RECORD
  5
8165
330
80D1
100
AcDbSymbolTableRecord
100
AcDbBlockTableRecord
  2
*U11
340
0
102
{BLKREFS
331
7FF2
102
}
  0
BLOCK_RECORD
  5
8166
330
80D1
100
AcDbSymbolTableRecord
100
AcDbBlockTableRecord
  2
*D12
340
0
  0
BLOCK_RECORD
  5
8168
330
80D1
100
AcDbSymbolTableRecord
100
AcDbBlockTableRecord
  2
*D13
340
0
  0
BLOCK_RECORD
  5
816A
330
80D1
100
AcDbSymbolTableRecord
100
AcDbBlockTableRecord
  2
*D14
340
0
  0
BLOCK_RECORD
  5
816C
330
80D1
100
AcDbSymbolTableRecord
100
AcDbBlockTableRecord
  2
*D15
340
0
  0
BLOCK_RECORD
  5
816E
330
80D1
100
AcDbSymbolTableRecord
100
AcDbBlockTableRecord
  2
*D16
340
0
  0
BLOCK_RECORD
  5
8170
330
80D1
100
AcDbSymbolTableRecord
100
AcDbBlockTableRecord
  2
*D17
340
0
  0
BLOCK_RECORD
  5
8172
330
80D1
100
AcDbSymbolTableRecord
100
AcDbBlockTableRecord
  2
*D18
340
0
  0
BLOCK_RECORD
  5
8174
330
80D1
100
AcDbSymbolTableRecord
100
AcDbBlockTableRecord
  2
*D19
340
0
  0
BLOCK_RECORD
  5
8176
330
80D1
100
AcDbSymbolTableRecord
100
AcDbBlockTableRecord
  2
_DOT
340
0
102
{BLKREFS
331
80C2
102
}
  0
BLOCK_RECORD
  5
8177
330
80D1
100
AcDbSymbolTableRecord
100
AcDbBlockTableRecord
  2
*D21
340
0
  0
BLOCK_RECORD
  5
817A
330
80D1
100
AcDbSymbolTableRecord
100
AcDbBlockTableRecord
  2
*D22
340
0
  0
BLOCK_RECORD
  5
817C
330
80D1
100
AcDbSymbolTableRecord
100
AcDbBlockTableRecord
  2
*D23
340
0
  0
BLOCK_RECORD
  5
817E
330
80D1
100
AcDbSymbolTableRecord
100
AcDbBlockTableRecord
  2
*D24
340
0
  0
BLOCK_RECORD
  5
8180
330
80D1
100
AcDbSymbolTableRecord
100
AcDbBlockTableRecord
  2
*D25
340
0
  0
BLOCK_RECORD
  5
8182
330
80D1
100
AcDbSymbolTableRecord
100
AcDbBlockTableRecord
  2
_NONE
340
0
  0
BLOCK_RECORD
  5
8184
330
80D1
100
AcDbSymbolTableRecord
100
AcDbBlockTableRecord
  2
*D27
340
0
  0
BLOCK_RECORD
  5
8186
330
80D1
100
AcDbSymbolTableRecord
100
AcDbBlockTableRecord
  2
*D28
340
0
  0
BLOCK_RECORD
  5
820D
330
80D1
100
AcDbSymbolTableRecord
100
AcDbBlockTableRecord
  2
*D30
340
0
  0
BLOCK_RECORD
  5
821A
330
80D1
100
AcDbSymbolTableRecord
100
AcDbBlockTableRecord
  2
*D31
340
0
  0
BLOCK_RECORD
  5
824E
330
80D1
100
AcDbSymbolTableRecord
100
AcDbBlockTableRecord
  2
*D32
340
0
  0
BLOCK_RECORD
  5
825B
330
80D1
100
AcDbSymbolTableRecord
100
AcDbBlockTableRecord
  2
*D33
340
0
  0
ENDTAB
  0
ENDSEC
  0
SECTION
  2
BLOCKS
  0
BLOCK
  5
8140
330
813F
100
AcDbEntity
  8
0
100
AcDbBlockBegin
  2
*Model_Space
 70
     0
 10
0.0
 20
0.0
 30
0.0
  3
*Model_Space
  1

  0
ENDBLK
  5
8141
330
813F
100
AcDbEntity
  8
0
100
AcDbBlockEnd
  0
BLOCK
  5
813C
330
813B
100
AcDbEntity
 67
     1
  8
0
100
AcDbBlockBegin
  2
*Paper_Space
 70
     0
 10
0.0
 20
0.0
 30
0.0
  3
*Paper_Space
  1

  0
ENDBLK
  5
813D
330
813B
100
AcDbEntity
 67
     1
  8
0
100
AcDbBlockEnd
  0
BLOCK
  5
8150
330
814F
100
AcDbEntity
  8
0
100
AcDbBlockBegin
  2
$MODEL_SPACE
 70
     0
 10
0.0
 20
0.0
 30
0.0
  3
$MODEL_SPACE
  1

  0
ENDBLK
  5
1B
330
814F
100
AcDbEntity
  8
0
100
AcDbBlockEnd
  0
BLOCK
  5
8152
330
8151
100
AcDbEntity
  8
0
100
AcDbBlockBegin
  2
$PAPER_SPACE
 70
     0
 10
0.0
 20
0.0
 30
0.0
  3
$PAPER_SPACE
  1

  0
ENDBLK
  5
18
330
8151
100
AcDbEntity
  8
0
100
AcDbBlockEnd
  0
BLOCK
  5
8154
330
8153
100
AcDbEntity
  8
0
100
AcDbBlockBegin
  2
_OPEN
 70
     0
 10
0.0
 20
0.0
 30
0.0
  3
_OPEN
  1

  0
LINE
  5
79FD
330
8153
100
AcDbEntity
  8
0
  6
ByBlock
 62
     0
100
AcDbLine
 10
-1.0
 20
0.1666666666666666
 30
0.0
 11
0.0
 21
0.0
 31
0.0
  0
LINE
  5
79FE
330
8153
100
AcDbEntity
  8
0
  6
ByBlock
 62
     0
100
AcDbLine
 10
0.0
 20
0.0
 30
0.0
 11
-1.0
 21
-0.1666666666666666
 31
0.0
  0
LINE
  5
79FF
330
8153
100
AcDbEntity
  8
0
  6
ByBlock
 62
     0
100
AcDbLine
 10
0.0
 20
0.0
 30
0.0
 11
-1.0
 21
0.0
 31
0.0
  0
ENDBLK
  5
7A01
330
8153
100
AcDbEntity
  8
0
100
AcDbBlockEnd
  0
BLOCK
  5
8156
330
8155
100
AcDbEntity
  8
0
100
AcDbBlockBegin
  2
YA_N
 70
     0
 10
0.0
 20
0.0
 30
0.0
  3
YA_N
  1

  0
ENDBLK
  5
7A0C
330
8155
100
AcDbEntity
  8
0
100
AcDbBlockEnd
  0
BLOCK
  5
8158
330
8157
100
AcDbEntity
  8
0
100
AcDbBlockBegin
  2
*D4
 70
     1
 10
0.0
 20
0.0
 30
0.0
  3
*D4
  1

  0
LINE
  5
7E5B
330
8157
100
AcDbEntity
  8
0
  6
ByBlock
100
AcDbLine
 10
93.06435467549272
 20
1267.593478221399
 30
0.0
 11
-55.94302910373335
 21
1267.593478221399
 31
0.0
  0
LINE
  5
7E5C
330
8157
100
AcDbEntity
  8
0
  6
ByBlock
100
AcDbLine
 10
93.06435467549178
 20
537.5934782213988
 30
0.0
 11
-55.94302910373335
 21
537.5934782213988
 31
0.0
  0
LINE
  5
7E5D
330
8157
100
AcDbEntity
  8
0
  6
ByBlock
100
AcDbLine
 10
-30.94302910373336
 20
1217.593478221399
 30
0.0
 11
-30.94302910373336
 21
587.5934782213988
 31
0.0
  0
INSERT
  5
7E5E
330
8157
100
AcDbEntity
  8
0
  6
ByBlock
100
AcDbBlockReference
  2
_OPEN
 10
-30.94302910373336
 20
1267.593478221399
 30
0.0
 41
50.0
 42
50.0
 43
50.0
 50
90.0
  0
INSERT
  5
7E5F
330
8157
100
AcDbEntity
  8
0
  6
ByBlock
100
AcDbBlockReference
  2
_OPEN
 10
-30.94302910373336
 20
537.5934782213988
 30
0.0
 41
50.0
 42
50.0
 43
50.0
 50
270.0
  0
TEXT
  5
7E60
330
8157
100
AcDbEntity
  8
3
100
AcDbText
 10
-43.44302910373335
 20
806.1649067928273
 30
0.0
 40
75.0
  1
730
 50
90.0
100
AcDbText
  0
POINT
  5
7E61
330
8157
100
AcDbEntity
  8
DEFPOINTS
  6
ByBlock
 62
     0
100
AcDbPoint
 10
118.0643546754926
 20
1267.593478221399
 30
0.0
  0
POINT
  5
7E62
330
8157
100
AcDbEntity
  8
DEFPOINTS
  6
ByBlock
 62
     0
100
AcDbPoint
 10
118.0643546754918
 20
537.5934782213988
 30
0.0
  0
POINT
  5
7E63
330
8157
100
AcDbEntity
  8
DEFPOINTS
  6
ByBlock
 62
     0
100
AcDbPoint
 10
-30.94302910373336
 20
537.5934782213988
 30
0.0
  0
ENDBLK
  5
7E64
330
8157
100
AcDbEntity
  8
0
100
AcDbBlockEnd
  0
BLOCK
  5
815A
330
8159
100
AcDbEntity
  8
0
100
AcDbBlockBegin
  2
*D5
 70
     1
 10
0.0
 20
0.0
 30
0.0
  3
*D5
  1

  0
LINE
  5
7F5C
330
8159
100
AcDbEntity
  8
0
  6
ByBlock
100
AcDbLine
 10
93.06435467549272
 20
1267.593478221399
 30
0.0
 11
-208.7518025773988
 21
1267.593478221399
 31
0.0
  0
LINE
  5
7F5D
330
8159
100
AcDbEntity
  8
0
  6
ByBlock
100
AcDbLine
 10
-29.20148412993695
 20
508.5934782213988
 30
0.0
 11
-208.7518025773988
 21
508.5934782213988
 31
0.0
  0
LINE
  5
7F5E
330
8159
100
AcDbEntity
  8
0
  6
ByBlock
100
AcDbLine
 10
-183.7518025773988
 20
1217.593478221399
 30
0.0
 11
-183.7518025773988
 21
558.5934782213988
 31
0.0
  0
INSERT
  5
7F5F
330
8159
100
AcDbEntity
  8
0
  6
ByBlock
100
AcDbBlockReference
  2
_OPEN
 10
-183.7518025773988
 20
1267.593478221399
 30
0.0
 41
50.0
 42
50.0
 43
50.0
 50
90.0
  0
INSERT
  5
7F60
330
8159
100
AcDbEntity
  8
0
  6
ByBlock
100
AcDbBlockReference
  2
_OPEN
 10
-183.7518025773988
 20
508.5934782213988
 30
0.0
 41
50.0
 42
50.0
 43
50.0
 50
270.0
  0
TEXT
  5
7F61
330
8159
100
AcDbEntity
  8
3
100
AcDbText
 10
-196.2518025773988
 20
793.4506210785417
 30
0.0
 40
75.0
  1
759
 50
90.0
100
AcDbText
  0
POINT
  5
7F62
330
8159
100
AcDbEntity
  8
DEFPOINTS
  6
ByBlock
 62
     0
100
AcDbPoint
 10
118.0643546754926
 20
1267.593478221399
 30
0.0
  0
POINT
  5
7F63
330
8159
100
AcDbEntity
  8
DEFPOINTS
  6
ByBlock
 62
     0
100
AcDbPoint
 10
-4.201484129936942
 20
508.5934782213988
 30
0.0
  0
POINT
  5
7F64
330
8159
100
AcDbEntity
  8
DEFPOINTS
  6
ByBlock
 62
     0
100
AcDbPoint
 10
-183.7518025773988
 20
508.5934782213988
 30
0.0
  0
ENDBLK
  5
7F65
330
8159
100
AcDbEntity
  8
0
100
AcDbBlockEnd
  0
BLOCK
  5
815C
330
815B
100
AcDbEntity
  8
0
100
AcDbBlockBegin
  2
*D6
 70
     1
 10
0.0
 20
0.0
 30
0.0
  3
*D6
  1

  0
LINE
  5
7E71
330
815B
100
AcDbEntity
  8
0
  6
ByBlock
100
AcDbLine
 10
118.0643546754926
 20
1334.593478221398
 30
0.0
 11
118.0643546754926
 21
1485.574010402429
 31
0.0
  0
LINE
  5
7E72
330
815B
100
AcDbEntity
  8
0
  6
ByBlock
100
AcDbLine
 10
618.0643546754928
 20
1363.64476267854
 30
0.0
 11
618.0643546754928
 21
1485.574010402429
 31
0.0
  0
LINE
  5
7E73
330
815B
100
AcDbEntity
  8
0
  6
ByBlock
100
AcDbLine
 10
168.0643546754927
 20
1460.57401040243
 30
0.0
 11
568.0643546754928
 21
1460.57401040243
 31
0.0
  0
INSERT
  5
7E74
330
815B
100
AcDbEntity
  8
0
  6
ByBlock
100
AcDbBlockReference
  2
_OPEN
 10
118.0643546754926
 20
1460.57401040243
 30
0.0
 41
50.0
 42
50.0
 43
50.0
 50
180.0
  0
INSERT
  5
7E75
330
815B
100
AcDbEntity
  8
0
  6
ByBlock
100
AcDbBlockReference
  2
_OPEN
 10
618.0643546754928
 20
1460.57401040243
 30
0.0
 41
50.0
 42
50.0
 43
50.0
  0
TEXT
  5
7E76
330
815B
100
AcDbEntity
  8
3
100
AcDbText
 10
271.6357832469213
 20
1473.07401040243
 30
0.0
 40
75.0
  1
500
100
AcDbText
  0
POINT
  5
7E77
330
815B
100
AcDbEntity
  8
DEFPOINTS
  6
ByBlock
 62
     0
100
AcDbPoint
 10
118.0643546754926
 20
1309.593478221398
 30
0.0
  0
POINT
  5
7E78
330
815B
100
AcDbEntity
  8
DEFPOINTS
  6
ByBlock
 62
     0
100
AcDbPoint
 10
618.0643546754928
 20
1338.64476267854
 30
0.0
  0
POINT
  5
7E79
330
815B
100
AcDbEntity
  8
DEFPOINTS
  6
ByBlock
 62
     0
100
AcDbPoint
 10
618.0643546754928
 20
1460.57401040243
 30
0.0
  0
ENDBLK
  5
7E7A
330
815B
100
AcDbEntity
  8
0
100
AcDbBlockEnd
  0
BLOCK
  5
815E
330
815D
100
AcDbEntity
  8
0
100
AcDbBlockBegin
  2
*D7
 70
     1
 10
0.0
 20
0.0
 30
0.0
  3
*D7
  1

  0
LINE
  5
7E7C
330
815D
100
AcDbEntity
  8
0
  6
ByBlock
100
AcDbLine
 10
618.0643546754928
 20
1363.64476267854
 30
0.0
 11
618.0643546754928
 21
1485.574010402429
 31
0.0
  0
LINE
  5
7E7D
330
815D
100
AcDbEntity
  8
0
  6
ByBlock
100
AcDbLine
 10
1227.94896001793
 20
533.5934782213992
 30
0.0
 11
1227.94896001793
 21
1485.574010402429
 31
0.0
  0
LINE
  5
7E7E
330
815D
100
AcDbEntity
  8
0
  6
ByBlock
100
AcDbLine
 10
668.0643546754928
 20
1460.57401040243
 30
0.0
 11
1177.94896001793
 21
1460.57401040243
 31
0.0
  0
INSERT
  5
7E7F
330
815D
100
AcDbEntity
  8
0
  6
ByBlock
100
AcDbBlockReference
  2
_OPEN
 10
618.0643546754928
 20
1460.57401040243
 30
0.0
 41
50.0
 42
50.0
 43
50.0
 50
180.0
  0
INSERT
  5
7E80
330
815D
100
AcDbEntity
  8
0
  6
ByBlock
100
AcDbBlockReference
  2
_OPEN
 10
1227.94896001793
 20
1460.57401040243
 30
0.0
 41
50.0
 42
50.0
 43
50.0
  0
TEXT
  5
7E81
330
815D
100
AcDbEntity
  8
3
100
AcDbText
 10
833.7209430609973
 20
1473.07401040243
 30
0.0
 40
75.0
  1
612
100
AcDbText
  0
POINT
  5
7E82
330
815D
100
AcDbEntity
  8
DEFPOINTS
  6
ByBlock
 62
     0
100
AcDbPoint
 10
618.0643546754928
 20
1338.64476267854
 30
0.0
  0
POINT
  5
7E83
330
815D
100
AcDbEntity
  8
DEFPOINTS
  6
ByBlock
 62
     0
100
AcDbPoint
 10
1227.94896001793
 20
508.5934782213991
 30
0.0
  0
POINT
  5
7E84
330
815D
100
AcDbEntity
  8
DEFPOINTS
  6
ByBlock
 62
     0
100
AcDbPoint
 10
1227.94896001793
 20
1460.57401040243
 30
0.0
  0
ENDBLK
  5
7E85
330
815D
100
AcDbEntity
  8
0
100
AcDbBlockEnd
  0
BLOCK
  5
8160
330
815F
100
AcDbEntity
  8
0
100
AcDbBlockBegin
  2
*D8
 70
     1
 10
0.0
 20
0.0
 30
0.0
  3
*D8
  1

  0
LINE
  5
7E92
330
815F
100
AcDbEntity
  8
0
  6
ByBlock
100
AcDbLine
 10
-29.20148412993695
 20
508.5934782213988
 30
0.0
 11
-207.6894596098227
 21
508.5934782213988
 31
0.0
  0
LINE
  5
7E93
330
815F
100
AcDbEntity
  8
0
  6
ByBlock
100
AcDbLine
 10
143.0643546754927
 20
-36.40652177860101
 30
0.0
 11
-207.6894596098227
 21
-36.40652177860101
 31
0.0
  0
LINE
  5
7E94
330
815F
100
AcDbEntity
  8
0
  6
ByBlock
100
AcDbLine
 10
-182.6894596098227
 20
458.5934782213988
 30
0.0
 11
-182.6894596098227
 21
13.59347822139898
 31
0.0
  0
INSERT
  5
7E95
330
815F
100
AcDbEntity
  8
0
  6
ByBlock
100
AcDbBlockReference
  2
_OPEN
 10
-182.6894596098227
 20
508.5934782213988
 30
0.0
 41
50.0
 42
50.0
 43
50.0
 50
90.0
  0
INSERT
  5
7E96
330
815F
100
AcDbEntity
  8
0
  6
ByBlock
100
AcDbBlockReference
  2
_OPEN
 10
-182.6894596098227
 20
-36.40652177860101
 30
0.0
 41
50.0
 42
50.0
 43
50.0
 50
270.0
  0
TEXT
  5
7E97
330
815F
100
AcDbEntity
  8
3
100
AcDbText
 10
-195.1894596098227
 20
139.6649067928275
 30
0.0
 40
75.0
  1
545
 50
90.0
100
AcDbText
  0
POINT
  5
7E98
330
815F
100
AcDbEntity
  8
DEFPOINTS
  6
ByBlock
 62
     0
100
AcDbPoint
 10
-4.201484129936942
 20
508.5934782213988
 30
0.0
  0
POINT
  5
7E99
330
815F
100
AcDbEntity
  8
DEFPOINTS
  6
ByBlock
 62
     0
100
AcDbPoint
 10
168.0643546754927
 20
-36.40652177860101
 30
0.0
  0
POINT
  5
7E9A
330
815F
100
AcDbEntity
  8
DEFPOINTS
  6
ByBlock
 62
     0
100
AcDbPoint
 10
-182.6894596098227
 20
-36.40652177860101
 30
0.0
  0
ENDBLK
  5
7E9B
330
815F
100
AcDbEntity
  8
0
100
AcDbBlockEnd
  0
BLOCK
  5
8162
330
8161
100
AcDbEntity
  8
0
100
AcDbBlockBegin
  2
*D9
 70
     1
 10
0.0
 20
0.0
 30
0.0
  3
*D9
  1

  0
LINE
  5
7EC9
330
8161
100
AcDbEntity
  8
0
  6
ByBlock
100
AcDbLine
 10
3394.272073930469
 20
1292.802367882948
 30
0.0
 11
3394.272073930469
 21
1484.407041015605
 31
0.0
  0
LINE
  5
7ECA
330
8161
100
AcDbEntity
  8
0
  6
ByBlock
100
AcDbLine
 10
4294.27207393047
 20
1292.80235414594
 30
0.0
 11
4294.27207393047
 21
1484.407041015605
 31
0.0
  0
LINE
  5
7ECB
330
8161
100
AcDbEntity
  8
0
  6
ByBlock
100
AcDbLine
 10
3444.272073930469
 20
1459.407041015604
 30
0.0
 11
4244.27207393047
 21
1459.407041015604
 31
0.0
  0
INSERT
  5
7ECC
330
8161
100
AcDbEntity
  8
0
  6
ByBlock
100
AcDbBlockReference
  2
_OPEN
 10
3394.272073930469
 20
1459.407041015604
 30
0.0
 41
50.0
 42
50.0
 43
50.0
 50
180.0
  0
INSERT
  5
7ECD
330
8161
100
AcDbEntity
  8
0
  6
ByBlock
100
AcDbBlockReference
  2
_OPEN
 10
4294.27207393047
 20
1459.407041015604
 30
0.0
 41
50.0
 42
50.0
 43
50.0
  0
TEXT
  5
7ECE
330
8161
100
AcDbEntity
  8
3
100
AcDbText
 10
3747.843502501898
 20
1471.907041015605
 30
0.0
 40
75.0
  1
900
100
AcDbText
  0
POINT
  5
7ECF
330
8161
100
AcDbEntity
  8
DEFPOINTS
  6
ByBlock
 62
     0
100
AcDbPoint
 10
3394.272073930469
 20
1267.802367882948
 30
0.0
  0
POINT
  5
7ED0
330
8161
100
AcDbEntity
  8
DEFPOINTS
  6
ByBlock
 62
     0
100
AcDbPoint
 10
4294.27207393047
 20
1267.80235414594
 30
0.0
  0
POINT
  5
7ED1
330
8161
100
AcDbEntity
  8
DEFPOINTS
  6
ByBlock
 62
     0
100
AcDbPoint
 10
4294.27207393047
 20
1459.407041015604
 30
0.0
  0
ENDBLK
  5
7ED2
330
8161
100
AcDbEntity
  8
0
100
AcDbBlockEnd
  0
BLOCK
  5
8164
330
8163
100
AcDbEntity
  8
0
100
AcDbBlockBegin
  2
*D10
 70
     1
 10
0.0
 20
0.0
 30
0.0
  3
*D10
  1

  0
LINE
  5
7FED
330
8163
100
AcDbEntity
  8
0
  6
ByBlock
100
AcDbLine
 10
3178.266996014719
 20
2702.648447497555
 30
0.0
 11
3178.266996014719
 21
3523.715676899058
 31
0.0
  0
LINE
  5
7FEE
330
8163
100
AcDbEntity
  8
0
  6
ByBlock
100
AcDbLine
 10
3933.266996014715
 20
3508.420243801976
 30
0.0
 11
3933.266996014715
 21
3523.715676899058
 31
0.0
  0
LINE
  5
7FEF
330
8163
100
AcDbEntity
  8
0
  6
ByBlock
100
AcDbLine
 10
3228.266996014719
 20
3498.715676899058
 30
0.0
 11
3883.266996014715
 21
3498.715676899058
 31
0.0
  0
INSERT
  5
7FF0
330
8163
100
AcDbEntity
  8
0
  6
ByBlock
100
AcDbBlockReference
  2
_OPEN
 10
3178.266996014719
 20
3498.715676899058
 30
0.0
 41
50.0
 42
50.0
 43
50.0
 50
180.0
  0
INSERT
  5
7FF1
330
8163
100
AcDbEntity
  8
0
  6
ByBlock
100
AcDbBlockReference
  2
_OPEN
 10
3933.266996014715
 20
3498.715676899058
 30
0.0
 41
50.0
 42
50.0
 43
50.0
  0
INSERT
  5
7FF2
330
8163
100
AcDbEntity
  8
3
100
AcDbBlockReference
  2
*U11
 10
0.0
 20
0.0
 30
0.0
  0
POINT
  5
7FF3
330
8163
100
AcDbEntity
  8
DEFPOINTS
  6
ByBlock
 62
     0
100
AcDbPoint
 10
3178.266996014719
 20
2677.648447497555
 30
0.0
  0
POINT
  5
7FF4
330
8163
100
AcDbEntity
  8
DEFPOINTS
  6
ByBlock
 62
     0
100
AcDbPoint
 10
3933.266996014715
 20
3483.420243801976
 30
0.0
  0
POINT
  5
7FF5
330
8163
100
AcDbEntity
  8
DEFPOINTS
  6
ByBlock
 62
     0
100
AcDbPoint
 10
3933.266996014715
 20
3498.715676899058
 30
0.0
  0
ENDBLK
  5
7FF6
330
8163
100
AcDbEntity
  8
0
100
AcDbBlockEnd
  0
BLOCK
  5
8188
330
8165
100
AcDbEntity
  8
0
100
AcDbBlockBegin
  2
*U11
 70
     1
 10
0.0
 20
0.0
 30
0.0
  3
*U11
  1

  0
TEXT
  5
80CC
330
8165
100
AcDbEntity
  8
3
100
AcDbText
 10
3448.624138871861
 20
3636.215676899059
 30
0.0
 40
75.0
  1
MAX
100
AcDbText
  0
TEXT
  5
80CD
330
8165
100
AcDbEntity
  8
3
100
AcDbText
 10
3459.338424586146
 20
3511.215676899059
 30
0.0
 40
75.0
  1
780
100
AcDbText
  0
ENDBLK
  5
80CF
330
8165
100
AcDbEntity
  8
0
100
AcDbBlockEnd
  0
BLOCK
  5
8167
330
8166
100
AcDbEntity
  8
0
100
AcDbBlockBegin
  2
*D12
 70
     1
 10
0.0
 20
0.0
 30
0.0
  3
*D12
  1

  0
LINE
  5
8003
330
8166
100
AcDbEntity
  8
0
  6
ByBlock
100
AcDbLine
 10
3933.266996014715
 20
3470.899470513359
 30
0.0
 11
3933.266996014715
 21
3523.715676899058
 31
0.0
  0
LINE
  5
8004
330
8166
100
AcDbEntity
  8
0
  6
ByBlock
100
AcDbLine
 10
4485.766996014716
 20
2397.448447497553
 30
0.0
 11
4485.766996014716
 21
3523.715676899058
 31
0.0
  0
LINE
  5
8005
330
8166
100
AcDbEntity
  8
0
  6
ByBlock
100
AcDbLine
 10
3983.266996014716
 20
3498.715676899058
 30
0.0
 11
4435.766996014717
 21
3498.715676899058
 31
0.0
  0
INSERT
  5
8006
330
8166
100
AcDbEntity
  8
0
  6
ByBlock
100
AcDbBlockReference
  2
_OPEN
 10
3933.266996014715
 20
3498.715676899058
 30
0.0
 41
50.0
 42
50.0
 43
50.0
 50
180.0
  0
INSERT
  5
8007
330
8166
100
AcDbEntity
  8
0
  6
ByBlock
100
AcDbBlockReference
  2
_OPEN
 10
4485.766996014716
 20
3498.715676899058
 30
0.0
 41
50.0
 42
50.0
 43
50.0
  0
TEXT
  5
8008
330
8166
100
AcDbEntity
  8
3
100
AcDbText
 10
4064.874138871856
 20
3543.358534041916
 30
0.0
 40
75.0
  1
(560)
100
AcDbText
  0
POINT
  5
8009
330
8166
100
AcDbEntity
  8
DEFPOINTS
  6
ByBlock
 62
     0
100
AcDbPoint
 10
3933.266996014715
 20
3445.899470513359
 30
0.0
  0
POINT
  5
800A
330
8166
100
AcDbEntity
  8
DEFPOINTS
  6
ByBlock
 62
     0
100
AcDbPoint
 10
4485.766996014716
 20
2372.448447497554
 30
0.0
  0
POINT
  5
800B
330
8166
100
AcDbEntity
  8
DEFPOINTS
  6
ByBlock
 62
     0
100
AcDbPoint
 10
4485.766996014716
 20
3498.715676899058
 30
0.0
  0
ENDBLK
  5
800C
330
8166
100
AcDbEntity
  8
0
100
AcDbBlockEnd
  0
BLOCK
  5
8169
330
8168
100
AcDbEntity
  8
0
100
AcDbBlockBegin
  2
*D13
 70
     1
 10
0.0
 20
0.0
 30
0.0
  3
*D13
  1

  0
LINE
  5
7EEA
330
8168
100
AcDbEntity
  8
0
  6
ByBlock
100
AcDbLine
 10
4321.57207393047
 20
133.5934782213989
 30
0.0
 11
4597.054208885889
 21
133.5934782213989
 31
0.0
  0
LINE
  5
7EEB
330
8168
100
AcDbEntity
  8
0
  6
ByBlock
100
AcDbLine
 10
4321.57207393047
 20
883.5934782213987
 30
0.0
 11
4597.054208885889
 21
883.5934782213987
 31
0.0
  0
LINE
  5
7EEC
330
8168
100
AcDbEntity
  8
0
  6
ByBlock
100
AcDbLine
 10
4572.054208885889
 20
183.5934782213989
 30
0.0
 11
4572.054208885889
 21
833.5934782213987
 31
0.0
  0
INSERT
  5
7EED
330
8168
100
AcDbEntity
  8
0
  6
ByBlock
100
AcDbBlockReference
  2
_OPEN
 10
4572.054208885889
 20
133.5934782213989
 30
0.0
 41
50.0
 42
50.0
 43
50.0
 50
270.0
  0
INSERT
  5
7EEE
330
8168
100
AcDbEntity
  8
0
  6
ByBlock
100
AcDbBlockReference
  2
_OPEN
 10
4572.054208885889
 20
883.5934782213987
 30
0.0
 41
50.0
 42
50.0
 43
50.0
 50
90.0
  0
TEXT
  5
7EEF
330
8168
100
AcDbEntity
  8
3
100
AcDbText
 10
4559.554208885889
 20
374.6649067928275
 30
0.0
 40
75.0
  1
\U+03C6750
 50
90.0
100
AcDbText
  0
POINT
  5
7EF0
330
8168
100
AcDbEntity
  8
DEFPOINTS
  6
ByBlock
 62
     0
100
AcDbPoint
 10
4296.57207393047
 20
133.5934782213989
 30
0.0
  0
POINT
  5
7EF1
330
8168
100
AcDbEntity
  8
DEFPOINTS
  6
ByBlock
 62
     0
100
AcDbPoint
 10
4296.57207393047
 20
883.5934782213987
 30
0.0
  0
POINT
  5
7EF2
330
8168
100
AcDbEntity
  8
DEFPOINTS
  6
ByBlock
 62
     0
100
AcDbPoint
 10
4572.054208885889
 20
883.5934782213987
 30
0.0
  0
ENDBLK
  5
7EF3
330
8168
100
AcDbEntity
  8
0
100
AcDbBlockEnd
  0
BLOCK
  5
816B
330
816A
100
AcDbEntity
  8
0
100
AcDbBlockBegin
  2
*D14
 70
     1
 10
0.0
 20
0.0
 30
0.0
  3
*D14
  1

  0
LINE
  5
7EF5
330
816A
100
AcDbEntity
  8
0
  6
ByBlock
100
AcDbLine
 10
1768.064354675493
 20
2748.533310535339
 30
0.0
 11
1768.064354675493
 21
2485.350850711191
 31
0.0
  0
LINE
  5
7EF6
330
816A
100
AcDbEntity
  8
0
  6
ByBlock
100
AcDbLine
 10
168.0643546754927
 20
2748.533310535338
 30
0.0
 11
168.0643546754927
 21
2485.350850711191
 31
0.0
  0
LINE
  5
7EF7
330
816A
100
AcDbEntity
  8
0
  6
ByBlock
100
AcDbLine
 10
1718.064354675493
 20
2510.350850711191
 30
0.0
 11
218.0643546754927
 21
2510.350850711191
 31
0.0
  0
INSERT
  5
7EF8
330
816A
100
AcDbEntity
  8
0
  6
ByBlock
100
AcDbBlockReference
  2
_OPEN
 10
1768.064354675493
 20
2510.350850711191
 30
0.0
 41
50.0
 42
50.0
 43
50.0
  0
INSERT
  5
7EF9
330
816A
100
AcDbEntity
  8
0
  6
ByBlock
100
AcDbBlockReference
  2
_OPEN
 10
168.0643546754927
 20
2510.350850711191
 30
0.0
 41
50.0
 42
50.0
 43
50.0
 50
180.0
  0
TEXT
  5
7EFA
330
816A
100
AcDbEntity
  8
3
100
AcDbText
 10
843.0643546754925
 20
2522.850850711191
 30
0.0
 40
75.0
  1
1600
100
AcDbText
  0
POINT
  5
7EFB
330
816A
100
AcDbEntity
  8
DEFPOINTS
  6
ByBlock
 62
     0
100
AcDbPoint
 10
1768.064354675493
 20
2773.533310535339
 30
0.0
  0
POINT
  5
7EFC
330
816A
100
AcDbEntity
  8
DEFPOINTS
  6
ByBlock
 62
     0
100
AcDbPoint
 10
168.0643546754927
 20
2773.533310535337
 30
0.0
  0
POINT
  5
7EFD
330
816A
100
AcDbEntity
  8
DEFPOINTS
  6
ByBlock
 62
     0
100
AcDbPoint
 10
168.0643546754927
 20
2510.350850711191
 30
0.0
  0
ENDBLK
  5
7EFE
330
816A
100
AcDbEntity
  8
0
100
AcDbBlockEnd
  0
BLOCK
  5
816D
330
816C
100
AcDbEntity
  8
0
100
AcDbBlockBegin
  2
*D15
 70
     1
 10
0.0
 20
0.0
 30
0.0
  3
*D15
  1

  0
LINE
  5
7F00
330
816C
100
AcDbEntity
  8
0
  6
ByBlock
100
AcDbLine
 10
1793.064354675492
 20
2773.533310535339
 30
0.0
 11
2093.934859510582
 21
2773.533310535339
 31
0.0
  0
LINE
  5
7F01
330
816C
100
AcDbEntity
  8
0
  6
ByBlock
100
AcDbLine
 10
1793.064354675492
 20
3443.53331053534
 30
0.0
 11
2093.934859510582
 21
3443.53331053534
 31
0.0
  0
LINE
  5
7F02
330
816C
100
AcDbEntity
  8
0
  6
ByBlock
100
AcDbLine
 10
2068.934859510582
 20
2823.533310535339
 30
0.0
 11
2068.934859510582
 21
3393.53331053534
 31
0.0
  0
INSERT
  5
7F03
330
816C
100
AcDbEntity
  8
0
  6
ByBlock
100
AcDbBlockReference
  2
_OPEN
 10
2068.934859510582
 20
2773.533310535339
 30
0.0
 41
50.0
 42
50.0
 43
50.0
 50
270.0
  0
INSERT
  5
7F04
330
816C
100
AcDbEntity
  8
0
  6
ByBlock
100
AcDbBlockReference
  2
_OPEN
 10
2068.934859510582
 20
3443.53331053534
 30
0.0
 41
50.0
 42
50.0
 43
50.0
 50
90.0
  0
TEXT
  5
7F05
330
816C
100
AcDbEntity
  8
3
100
AcDbText
 10
2056.434859510583
 20
3012.104739106767
 30
0.0
 40
75.0
  1
670
 50
90.0
100
AcDbText
  0
POINT
  5
7F06
330
816C
100
AcDbEntity
  8
DEFPOINTS
  6
ByBlock
 62
     0
100
AcDbPoint
 10
1768.064354675493
 20
2773.533310535339
 30
0.0
  0
POINT
  5
7F07
330
816C
100
AcDbEntity
  8
DEFPOINTS
  6
ByBlock
 62
     0
100
AcDbPoint
 10
1768.064354675493
 20
3443.53331053534
 30
0.0
  0
POINT
  5
7F08
330
816C
100
AcDbEntity
  8
DEFPOINTS
  6
ByBlock
 62
     0
100
AcDbPoint
 10
2068.934859510582
 20
3443.53331053534
 30
0.0
  0
ENDBLK
  5
7F09
330
816C
100
AcDbEntity
  8
0
100
AcDbBlockEnd
  0
BLOCK
  5
816F
330
816E
100
AcDbEntity
  8
0
100
AcDbBlockBegin
  2
*D16
 70
     1
 10
0.0
 20
0.0
 30
0.0
  3
*D16
  1

  0
LINE
  5
7F0B
330
816E
100
AcDbEntity
  8
0
  6
ByBlock
100
AcDbLine
 10
1068.064354675492
 20
3953.533310535338
 30
0.0
 11
1068.064354675492
 21
4255.16536493951
 31
0.0
  0
LINE
  5
7F0C
330
816E
100
AcDbEntity
  8
0
  6
ByBlock
100
AcDbLine
 10
168.0643546754927
 20
3953.533310535338
 30
0.0
 11
168.0643546754927
 21
4255.16536493951
 31
0.0
  0
LINE
  5
7F0D
330
816E
100
AcDbEntity
  8
0
  6
ByBlock
100
AcDbLine
 10
1018.064354675492
 20
4230.165364939511
 30
0.0
 11
218.0643546754927
 21
4230.165364939511
 31
0.0
  0
INSERT
  5
7F0E
330
816E
100
AcDbEntity
  8
0
  6
ByBlock
100
AcDbBlockReference
  2
_OPEN
 10
1068.064354675492
 20
4230.165364939511
 30
0.0
 41
50.0
 42
50.0
 43
50.0
  0
INSERT
  5
7F0F
330
816E
100
AcDbEntity
  8
0
  6
ByBlock
100
AcDbBlockReference
  2
_OPEN
 10
168.0643546754927
 20
4230.165364939511
 30
0.0
 41
50.0
 42
50.0
 43
50.0
 50
180.0
  0
TEXT
  5
7F10
330
816E
100
AcDbEntity
  8
3
100
AcDbText
 10
521.6357832469213
 20
4242.665364939511
 30
0.0
 40
75.0
  1
900
100
AcDbText
  0
POINT
  5
7F11
330
816E
100
AcDbEntity
  8
DEFPOINTS
  6
ByBlock
 62
     0
100
AcDbPoint
 10
1068.064354675492
 20
3928.533310535339
 30
0.0
  0
POINT
  5
7F12
330
816E
100
AcDbEntity
  8
DEFPOINTS
  6
ByBlock
 62
     0
100
AcDbPoint
 10
168.0643546754927
 20
3928.533310535338
 30
0.0
  0
POINT
  5
7F13
330
816E
100
AcDbEntity
  8
DEFPOINTS
  6
ByBlock
 62
     0
100
AcDbPoint
 10
168.0643546754927
 20
4230.165364939511
 30
0.0
  0
ENDBLK
  5
7F14
330
816E
100
AcDbEntity
  8
0
100
AcDbBlockEnd
  0
BLOCK
  5
8171
330
8170
100
AcDbEntity
  8
0
100
AcDbBlockBegin
  2
*D17
 70
     1
 10
0.0
 20
0.0
 30
0.0
  3
*D17
  1

  0
LINE
  5
7F16
330
8170
100
AcDbEntity
  8
0
  6
ByBlock
100
AcDbLine
 10
1768.064354675493
 20
3468.53331053534
 30
0.0
 11
1768.064354675493
 21
4255.16536493951
 31
0.0
  0
LINE
  5
7F17
330
8170
100
AcDbEntity
  8
0
  6
ByBlock
100
AcDbLine
 10
1068.064354675492
 20
3953.533310535338
 30
0.0
 11
1068.064354675492
 21
4255.16536493951
 31
0.0
  0
LINE
  5
7F18
330
8170
100
AcDbEntity
  8
0
  6
ByBlock
100
AcDbLine
 10
1718.064354675493
 20
4230.165364939511
 30
0.0
 11
1118.064354675492
 21
4230.165364939511
 31
0.0
  0
INSERT
  5
7F19
330
8170
100
AcDbEntity
  8
0
  6
ByBlock
100
AcDbBlockReference
  2
_OPEN
 10
1768.064354675493
 20
4230.165364939511
 30
0.0
 41
50.0
 42
50.0
 43
50.0
  0
INSERT
  5
7F1A
330
8170
100
AcDbEntity
  8
0
  6
ByBlock
100
AcDbBlockReference
  2
_OPEN
 10
1068.064354675492
 20
4230.165364939511
 30
0.0
 41
50.0
 42
50.0
 43
50.0
 50
180.0
  0
TEXT
  5
7F1B
330
8170
100
AcDbEntity
  8
3
100
AcDbText
 10
1321.63578324692
 20
4242.665364939511
 30
0.0
 40
75.0
  1
700
100
AcDbText
  0
POINT
  5
7F1C
330
8170
100
AcDbEntity
  8
DEFPOINTS
  6
ByBlock
 62
     0
100
AcDbPoint
 10
1768.064354675493
 20
3443.53331053534
 30
0.0
  0
POINT
  5
7F1D
330
8170
100
AcDbEntity
  8
DEFPOINTS
  6
ByBlock
 62
     0
100
AcDbPoint
 10
1068.064354675492
 20
3928.533310535339
 30
0.0
  0
POINT
  5
7F1E
330
8170
100
AcDbEntity
  8
DEFPOINTS
  6
ByBlock
 62
     0
100
AcDbPoint
 10
1068.064354675492
 20
4230.165364939511
 30
0.0
  0
ENDBLK
  5
7F1F
330
8170
100
AcDbEntity
  8
0
100
AcDbBlockEnd
  0
BLOCK
  5
8173
330
8172
100
AcDbEntity
  8
0
100
AcDbBlockBegin
  2
*D18
 70
     1
 10
0.0
 20
0.0
 30
0.0
  3
*D18
  1

  0
LINE
  5
7F21
330
8172
100
AcDbEntity
  8
0
  6
ByBlock
100
AcDbLine
 10
143.0643546754927
 20
2773.533310535337
 30
0.0
 11
-158.3328534657648
 21
2773.533310535337
 31
0.0
  0
LINE
  5
7F22
330
8172
100
AcDbEntity
  8
0
  6
ByBlock
100
AcDbLine
 10
143.0643546754927
 20
3928.533310535338
 30
0.0
 11
-158.3328534657648
 21
3928.533310535338
 31
0.0
  0
LINE
  5
7F23
330
8172
100
AcDbEntity
  8
0
  6
ByBlock
100
AcDbLine
 10
-133.3328534657648
 20
2823.533310535337
 30
0.0
 11
-133.3328534657648
 21
3878.533310535337
 31
0.0
  0
INSERT
  5
7F24
330
8172
100
AcDbEntity
  8
0
  6
ByBlock
100
AcDbBlockReference
  2
_OPEN
 10
-133.3328534657648
 20
2773.533310535337
 30
0.0
 41
50.0
 42
50.0
 43
50.0
 50
270.0
  0
INSERT
  5
7F25
330
8172
100
AcDbEntity
  8
0
  6
ByBlock
100
AcDbBlockReference
  2
_OPEN
 10
-133.3328534657648
 20
3928.533310535338
 30
0.0
 41
50.0
 42
50.0
 43
50.0
 50
90.0
  0
TEXT
  5
7F26
330
8172
100
AcDbEntity
  8
3
100
AcDbText
 10
-145.8328534657648
 20
3233.176167678195
 30
0.0
 40
75.0
  1
1155
 50
90.0
100
AcDbText
  0
POINT
  5
7F27
330
8172
100
AcDbEntity
  8
DEFPOINTS
  6
ByBlock
 62
     0
100
AcDbPoint
 10
168.0643546754927
 20
2773.533310535337
 30
0.0
  0
POINT
  5
7F28
330
8172
100
AcDbEntity
  8
DEFPOINTS
  6
ByBlock
 62
     0
100
AcDbPoint
 10
168.0643546754927
 20
3928.533310535338
 30
0.0
  0
POINT
  5
7F29
330
8172
100
AcDbEntity
  8
DEFPOINTS
  6
ByBlock
 62
     0
100
AcDbPoint
 10
-133.3328534657648
 20
3928.533310535338
 30
0.0
  0
ENDBLK
  5
7F2A
330
8172
100
AcDbEntity
  8
0
100
AcDbBlockEnd
  0
BLOCK
  5
8175
330
8174
100
AcDbEntity
  8
0
100
AcDbBlockBegin
  2
*D19
 70
     1
 10
0.0
 20
0.0
 30
0.0
  3
*D19
  1

  0
LINE
  5
80BD
330
8174
100
AcDbEntity
  8
3
 62
     0
100
AcDbLine
 10
1208.239022619682
 20
1825.648447497555
 30
0.0
 11
844.9852083343667
 21
1825.648447497555
 31
0.0
  0
LINE
  5
80BE
330
8174
100
AcDbEntity
  8
3
 62
     0
100
AcDbLine
 10
1208.239022619682
 20
1725.648447497555
 30
0.0
 11
844.9852083343667
 21
1725.648447497555
 31
0.0
  0
LINE
  5
80BF
330
8174
100
AcDbEntity
  8
3
 62
     0
100
AcDbLine
 10
869.9852083343667
 20
1875.648447497555
 30
0.0
 11
869.9852083343667
 21
1925.648447497555
 31
0.0
  0
LINE
  5
80C0
330
8174
100
AcDbEntity
  8
3
 62
     0
100
AcDbLine
 10
869.9852083343667
 20
1675.648447497555
 30
0.0
 11
869.9852083343667
 21
1397.077018926126
 31
0.0
  0
LINE
  5
80C1
330
8174
100
AcDbEntity
  8
3
 62
     0
100
AcDbLine
 10
869.9852083343667
 20
1825.648447497555
 30
0.0
 11
869.9852083343667
 21
1725.648447497555
 31
0.0
  0
INSERT
  5
80C2
330
8174
100
AcDbEntity
  8
3
 62
     0
100
AcDbBlockReference
  2
_DOT
 10
869.9852083343667
 20
1825.648447497555
 30
0.0
 41
50.0
 42
50.0
 43
50.0
 50
270.0
  0
INSERT
  5
80C3
330
8174
100
AcDbEntity
  8
3
 62
     0
100
AcDbBlockReference
  2
_OPEN
 10
869.9852083343667
 20
1725.648447497555
 30
0.0
 41
50.0
 42
50.0
 43
50.0
 50
90.0
  0
TEXT
  5
80D0
330
8174
100
AcDbEntity
  8
3
 62
     0
100
AcDbText
 10
657.485
 20
1378.61
 30
0.0
 40
75.0
  1
100
100
AcDbText
  0
POINT
  5
80C5
330
8174
100
AcDbEntity
  8
DEFPOINTS
 62
     0
100
AcDbPoint
 10
1220.739022619682
 20
1825.648447497555
 30
0.0
  0
POINT
  5
80C6
330
8174
100
AcDbEntity
  8
DEFPOINTS
 62
     0
100
AcDbPoint
 10
1220.739022619682
 20
1725.648447497555
 30
0.0
  0
POINT
  5
80C7
330
8174
100
AcDbEntity
  8
DEFPOINTS
 62
     0
100
AcDbPoint
 10
869.9852083343667
 20
1725.648447497555
 30
0.0
  0
ENDBLK
  5
7FCB
330
8174
100
AcDbEntity
  8
0
100
AcDbBlockEnd
  0
BLOCK
  5
8179
330
8176
100
AcDbEntity
  8
0
100
AcDbBlockBegin
  2
_DOT
 70
     0
 10
0.0
 20
0.0
 30
0.0
  3
_DOT
  1

  0
LWPOLYLINE
  5
7FDB
330
8176
100
AcDbEntity
  8
0
  6
ByBlock
 62
     0
100
AcDbPolyline
 90
        2
 70
     1
 43
0.25
 10
-0.125
 20
0.0
 42
1.0
 10
0.125
 20
0.0
 42
1.0
  0
LINE
  5
7FDF
330
8176
100
AcDbEntity
  8
0
  6
ByBlock
 62
     0
100
AcDbLine
 10
-0.25
 20
0.0
 30
0.0
 11
-1.0
 21
0.0
 31
0.0
  0
ENDBLK
  5
7FBE
330
8176
100
AcDbEntity
  8
0
100
AcDbBlockEnd
  0
BLOCK
  5
8178
330
8177
100
AcDbEntity
  8
0
100
AcDbBlockBegin
  2
*D21
 70
     1
 10
0.0
 20
0.0
 30
0.0
  3
*D21
  1

  0
LINE
  5
7F51
330
8177
100
AcDbEntity
  8
0
  6
ByBlock
100
AcDbLine
 10
118.0643546754926
 20
1334.593478221398
 30
0.0
 11
118.0643546754926
 21
1654.359497277424
 31
0.0
  0
LINE
  5
7F52
330
8177
100
AcDbEntity
  8
0
  6
ByBlock
100
AcDbLine
 10
1768.064354675493
 20
88.59347822139898
 30
0.0
 11
1768.064354675493
 21
1654.359497277424
 31
0.0
  0
LINE
  5
7F53
330
8177
100
AcDbEntity
  8
0
  6
ByBlock
100
AcDbLine
 10
168.0643546754927
 20
1629.359497277424
 30
0.0
 11
1718.064354675493
 21
1629.359497277424
 31
0.0
  0
INSERT
  5
7F54
330
8177
100
AcDbEntity
  8
0
  6
ByBlock
100
AcDbBlockReference
  2
_OPEN
 10
118.0643546754926
 20
1629.359497277424
 30
0.0
 41
50.0
 42
50.0
 43
50.0
 50
180.0
  0
INSERT
  5
7F55
330
8177
100
AcDbEntity
  8
0
  6
ByBlock
100
AcDbBlockReference
  2
_OPEN
 10
1768.064354675493
 20
1629.359497277424
 30
0.0
 41
50.0
 42
50.0
 43
50.0
  0
TEXT
  5
7F56
330
8177
100
AcDbEntity
  8
3
100
AcDbText
 10
818.0643546754925
 20
1641.859497277424
 30
0.0
 40
75.0
  1
1650
100
AcDbText
  0
POINT
  5
7F57
330
8177
100
AcDbEntity
  8
DEFPOINTS
  6
ByBlock
 62
     0
100
AcDbPoint
 10
118.0643546754926
 20
1309.593478221398
 30
0.0
  0
POINT
  5
7F58
330
8177
100
AcDbEntity
  8
DEFPOINTS
  6
ByBlock
 62
     0
100
AcDbPoint
 10
1768.064354675493
 20
63.59347822139898
 30
0.0
  0
POINT
  5
7F59
330
8177
100
AcDbEntity
  8
DEFPOINTS
  6
ByBlock
 62
     0
100
AcDbPoint
 10
1768.064354675493
 20
1629.359497277424
 30
0.0
  0
ENDBLK
  5
7F5A
330
8177
100
AcDbEntity
  8
0
100
AcDbBlockEnd
  0
BLOCK
  5
817B
330
817A
100
AcDbEntity
  8
0
100
AcDbBlockBegin
  2
*D22
 70
     1
 10
0.0
 20
0.0
 30
0.0
  3
*D22
  1

  0
LINE
  5
8017
330
817A
100
AcDbEntity
  8
0
  6
ByBlock
 62
     0
100
AcDbLine
 10
1220.739022619682
 20
1700.648447497555
 30
0.0
 11
1220.739022619682
 21
1516.992421795832
 31
0.0
  0
LINE
  5
8018
330
817A
100
AcDbEntity
  8
0
  6
ByBlock
 62
     0
100
AcDbLine
 10
1670.739022619682
 20
1700.648447497555
 30
0.0
 11
1670.739022619682
 21
1516.992421795832
 31
0.0
  0
LINE
  5
8019
330
817A
100
AcDbEntity
  8
0
  6
ByBlock
 62
     0
100
AcDbLine
 10
1270.739022619682
 20
1541.992421795832
 30
0.0
 11
1620.739022619682
 21
1541.992421795832
 31
0.0
  0
INSERT
  5
801A
330
817A
100
AcDbEntity
  8
0
  6
ByBlock
 62
     0
100
AcDbBlockReference
  2
_OPEN
 10
1220.739022619682
 20
1541.992421795832
 30
0.0
 41
50.0
 42
50.0
 43
50.0
 50
180.0
  0
INSERT
  5
801B
330
817A
100
AcDbEntity
  8
0
  6
ByBlock
 62
     0
100
AcDbBlockReference
  2
_OPEN
 10
1670.739022619682
 20
1541.992421795832
 30
0.0
 41
50.0
 42
50.0
 43
50.0
  0
TEXT
  5
801C
330
817A
100
AcDbEntity
  8
3
 62
     0
100
AcDbText
 10
1349.31045119111
 20
1566.992421795832
 30
0.0
 40
75.0
  1
450
100
AcDbText
  0
POINT
  5
801D
330
817A
100
AcDbEntity
  8
DEFPOINTS
  6
ByBlock
 62
     0
100
AcDbPoint
 10
1220.739022619682
 20
1725.648447497555
 30
0.0
  0
POINT
  5
801E
330
817A
100
AcDbEntity
  8
DEFPOINTS
  6
ByBlock
 62
     0
100
AcDbPoint
 10
1670.739022619682
 20
1725.648447497555
 30
0.0
  0
POINT
  5
801F
330
817A
100
AcDbEntity
  8
DEFPOINTS
  6
ByBlock
 62
     0
100
AcDbPoint
 10
1670.739022619682
 20
1541.992421795832
 30
0.0
  0
ENDBLK
  5
8020
330
817A
100
AcDbEntity
  8
0
100
AcDbBlockEnd
  0
BLOCK
  5
817D
330
817C
100
AcDbEntity
  8
0
100
AcDbBlockBegin
  2
*D23
 70
     1
 10
0.0
 20
0.0
 30
0.0
  3
*D23
  1

  0
LINE
  5
8024
330
817C
100
AcDbEntity
  8
0
  6
ByBlock
 62
     0
100
AcDbLine
 10
1670.739022619682
 20
1700.648447497555
 30
0.0
 11
1670.739022619682
 21
1516.992421795832
 31
0.0
  0
LINE
  5
8025
330
817C
100
AcDbEntity
  8
0
  6
ByBlock
 62
     0
100
AcDbLine
 10
2820.739022619682
 20
1700.648447497555
 30
0.0
 11
2820.739022619682
 21
1516.992421795832
 31
0.0
  0
LINE
  5
8026
330
817C
100
AcDbEntity
  8
0
  6
ByBlock
 62
     0
100
AcDbLine
 10
1720.739022619682
 20
1541.992421795832
 30
0.0
 11
2770.739022619682
 21
1541.992421795832
 31
0.0
  0
INSERT
  5
8027
330
817C
100
AcDbEntity
  8
0
  6
ByBlock
 62
     0
100
AcDbBlockReference
  2
_OPEN
 10
1670.739022619682
 20
1541.992421795832
 30
0.0
 41
50.0
 42
50.0
 43
50.0
 50
180.0
  0
INSERT
  5
8028
330
817C
100
AcDbEntity
  8
0
  6
ByBlock
 62
     0
100
AcDbBlockReference
  2
_OPEN
 10
2820.739022619682
 20
1541.992421795832
 30
0.0
 41
50.0
 42
50.0
 43
50.0
  0
TEXT
  5
8029
330
817C
100
AcDbEntity
  8
3
 62
     0
100
AcDbText
 10
2127.881879762539
 20
1566.992421795832
 30
0.0
 40
75.0
  1
1150
100
AcDbText
  0
POINT
  5
802A
330
817C
100
AcDbEntity
  8
DEFPOINTS
  6
ByBlock
 62
     0
100
AcDbPoint
 10
1670.739022619682
 20
1725.648447497555
 30
0.0
  0
POINT
  5
802B
330
817C
100
AcDbEntity
  8
DEFPOINTS
  6
ByBlock
 62
     0
100
AcDbPoint
 10
2820.739022619682
 20
1725.648447497555
 30
0.0
  0
POINT
  5
802C
330
817C
100
AcDbEntity
  8
DEFPOINTS
  6
ByBlock
 62
     0
100
AcDbPoint
 10
2820.739022619682
 20
1541.992421795832
 30
0.0
  0
ENDBLK
  5
802D
330
817C
100
AcDbEntity
  8
0
100
AcDbBlockEnd
  0
BLOCK
  5
817F
330
817E
100
AcDbEntity
  8
0
100
AcDbBlockBegin
  2
*D24
 70
     1
 10
0.0
 20
0.0
 30
0.0
  3
*D24
  1

  0
LINE
  5
8031
330
817E
100
AcDbEntity
  8
0
  6
ByBlock
 62
     0
100
AcDbLine
 10
3281.266996014716
 20
1700.648447497555
 30
0.0
 11
3281.266996014716
 21
1516.992421795832
 31
0.0
  0
LINE
  5
8032
330
817E
100
AcDbEntity
  8
0
  6
ByBlock
 62
     0
100
AcDbLine
 10
3933.266996014717
 20
1700.648447497555
 30
0.0
 11
3933.266996014717
 21
1516.992421795832
 31
0.0
  0
LINE
  5
8033
330
817E
100
AcDbEntity
  8
0
  6
ByBlock
 62
     0
100
AcDbLine
 10
3331.266996014716
 20
1541.992421795832
 30
0.0
 11
3883.266996014717
 21
1541.992421795832
 31
0.0
  0
INSERT
  5
8034
330
817E
100
AcDbEntity
  8
0
  6
ByBlock
 62
     0
100
AcDbBlockReference
  2
_OPEN
 10
3281.266996014716
 20
1541.992421795832
 30
0.0
 41
50.0
 42
50.0
 43
50.0
 50
180.0
  0
INSERT
  5
8035
330
817E
100
AcDbEntity
  8
0
  6
ByBlock
 62
     0
100
AcDbBlockReference
  2
_OPEN
 10
3933.266996014717
 20
1541.992421795832
 30
0.0
 41
50.0
 42
50.0
 43
50.0
  0
TEXT
  5
8036
330
817E
100
AcDbEntity
  8
3
 62
     0
100
AcDbText
 10
3510.838424586144
 20
1566.992421795832
 30
0.0
 40
75.0
  1
652
100
AcDbText
  0
POINT
  5
8037
330
817E
100
AcDbEntity
  8
DEFPOINTS
  6
ByBlock
 62
     0
100
AcDbPoint
 10
3281.266996014716
 20
1725.648447497555
 30
0.0
  0
POINT
  5
8038
330
817E
100
AcDbEntity
  8
DEFPOINTS
  6
ByBlock
 62
     0
100
AcDbPoint
 10
3933.266996014717
 20
1725.648447497555
 30
0.0
  0
POINT
  5
8039
330
817E
100
AcDbEntity
  8
DEFPOINTS
  6
ByBlock
 62
     0
100
AcDbPoint
 10
3933.266996014717
 20
1541.992421795832
 30
0.0
  0
ENDBLK
  5
803A
330
817E
100
AcDbEntity
  8
0
100
AcDbBlockEnd
  0
BLOCK
  5
8181
330
8180
100
AcDbEntity
  8
0
100
AcDbBlockBegin
  2
*D25
 70
     1
 10
0.0
 20
0.0
 30
0.0
  3
*D25
  1

  0
LINE
  5
803E
330
8180
100
AcDbEntity
  8
0
  6
ByBlock
 62
     0
100
AcDbLine
 10
3933.266996014717
 20
1700.648447497555
 30
0.0
 11
3933.266996014717
 21
1516.992421795832
 31
0.0
  0
LINE
  5
803F
330
8180
100
AcDbEntity
  8
0
  6
ByBlock
 62
     0
100
AcDbLine
 10
4436.266996014715
 20
1700.648447497555
 30
0.0
 11
4436.266996014715
 21
1516.992421795832
 31
0.0
  0
LINE
  5
8040
330
8180
100
AcDbEntity
  8
0
  6
ByBlock
 62
     0
100
AcDbLine
 10
3983.266996014716
 20
1541.992421795832
 30
0.0
 11
4386.266996014716
 21
1541.992421795832
 31
0.0
  0
INSERT
  5
8041
330
8180
100
AcDbEntity
  8
0
  6
ByBlock
 62
     0
100
AcDbBlockReference
  2
_OPEN
 10
3933.266996014717
 20
1541.992421795832
 30
0.0
 41
50.0
 42
50.0
 43
50.0
 50
180.0
  0
INSERT
  5
8042
330
8180
100
AcDbEntity
  8
0
  6
ByBlock
 62
     0
100
AcDbBlockReference
  2
_OPEN
 10
4436.266996014715
 20
1541.992421795832
 30
0.0
 41
50.0
 42
50.0
 43
50.0
  0
TEXT
  5
8043
330
8180
100
AcDbEntity
  8
3
 62
     0
100
AcDbText
 10
4088.338424586146
 20
1566.992421795832
 30
0.0
 40
75.0
  1
503
100
AcDbText
  0
POINT
  5
8044
330
8180
100
AcDbEntity
  8
DEFPOINTS
  6
ByBlock
 62
     0
100
AcDbPoint
 10
3933.266996014717
 20
1725.648447497555
 30
0.0
  0
POINT
  5
8045
330
8180
100
AcDbEntity
  8
DEFPOINTS
  6
ByBlock
 62
     0
100
AcDbPoint
 10
4436.266996014715
 20
1725.648447497555
 30
0.0
  0
POINT
  5
8046
330
8180
100
AcDbEntity
  8
DEFPOINTS
  6
ByBlock
 62
     0
100
AcDbPoint
 10
4436.266996014715
 20
1541.992421795832
 30
0.0
  0
ENDBLK
  5
8047
330
8180
100
AcDbEntity
  8
0
100
AcDbBlockEnd
  0
BLOCK
  5
8183
330
8182
100
AcDbEntity
  8
0
100
AcDbBlockBegin
  2
_NONE
 70
     0
 10
0.0
 20
0.0
 30
0.0
  3
_NONE
  1

  0
CIRCLE
  5
804B
330
8182
100
AcDbEntity
  8
0
  6
ByBlock
 62
     0
100
AcDbCircle
 10
0.0
 20
0.0
 30
0.0
 40
0.25
  0
ENDBLK
  5
804C
330
8182
100
AcDbEntity
  8
0
100
AcDbBlockEnd
  0
BLOCK
  5
8185
330
8184
100
AcDbEntity
  8
0
100
AcDbBlockBegin
  2
*D27
 70
     1
 10
0.0
 20
0.0
 30
0.0
  3
*D27
  1

  0
LINE
  5
804F
330
8184
100
AcDbEntity
  8
0
  6
ByBlock
 62
     0
100
AcDbLine
 10
871.0468023388273
 20
1825.648447497555
 30
0.0
 11
871.0468023388273
 21
1825.648447497555
 31
0.0
  0
LINE
  5
8050
330
8184
100
AcDbEntity
  8
0
  6
ByBlock
 62
     0
100
AcDbLine
 10
871.0468023388273
 20
1852.648447497555
 30
0.0
 11
871.0468023388273
 21
1952.648447497555
 31
0.0
  0
TEXT
  5
8051
330
8184
100
AcDbEntity
  8
3
 62
     0
100
AcDbText
 10
776.4039451959703
 20
1730.219876068983
 30
0.0
 40
75.0
  1
(27)
 50
90.0
100
AcDbText
  0
LINE
  5
8052
330
8184
100
AcDbEntity
  8
0
  6
ByBlock
 62
     0
100
AcDbLine
 10
871.0468023388273
 20
1825.648447497555
 30
0.0
 11
871.0468023388273
 21
1852.648447497555
 31
0.0
  0
POINT
  5
8053
330
8184
100
AcDbEntity
  8
DEFPOINTS
  6
ByBlock
 62
     0
100
AcDbPoint
 10
1220.739022619682
 20
1825.648447497555
 30
0.0
  0
POINT
  5
8054
330
8184
100
AcDbEntity
  8
DEFPOINTS
  6
ByBlock
 62
     0
100
AcDbPoint
 10
1220.739022619682
 20
1852.648447497555
 30
0.0
  0
POINT
  5
8055
330
8184
100
AcDbEntity
  8
DEFPOINTS
  6
ByBlock
 62
     0
100
AcDbPoint
 10
871.0468023388273
 20
1852.648447497555
 30
0.0
  0
ENDBLK
  5
8056
330
8184
100
AcDbEntity
  8
0
100
AcDbBlockEnd
  0
BLOCK
  5
8187
330
8186
100
AcDbEntity
  8
0
100
AcDbBlockBegin
  2
*D28
 70
     1
 10
0.0
 20
0.0
 30
0.0
  3
*D28
  1

  0
LINE
  5
805A
330
8186
100
AcDbEntity
  8
0
  6
ByBlock
 62
     0
100
AcDbLine
 10
1195.739022619682
 20
1725.648447497555
 30
0.0
 11
621.626464644225
 21
1725.648447497555
 31
0.0
  0
LINE
  5
805B
330
8186
100
AcDbEntity
  8
0
  6
ByBlock
 62
     0
100
AcDbLine
 10
1145.739022619682
 20
3156.648447497555
 30
0.0
 11
621.626464644225
 21
3156.648447497555
 31
0.0
  0
LINE
  5
805C
330
8186
100
AcDbEntity
  8
0
  6
ByBlock
 62
     0
100
AcDbLine
 10
646.626464644225
 20
1775.648447497555
 30
0.0
 11
646.626464644225
 21
3106.648447497555
 31
0.0
  0
INSERT
  5
805D
330
8186
100
AcDbEntity
  8
0
  6
ByBlock
 62
     0
100
AcDbBlockReference
  2
_OPEN
 10
646.626464644225
 20
1725.648447497555
 30
0.0
 41
50.0
 42
50.0
 43
50.0
 50
270.0
  0
INSERT
  5
805E
330
8186
100
AcDbEntity
  8
0
  6
ByBlock
 62
     0
100
AcDbBlockReference
  2
_OPEN
 10
646.626464644225
 20
3156.648447497555
 30
0.0
 41
50.0
 42
50.0
 43
50.0
 50
90.0
  0
TEXT
  5
805F
330
8186
100
AcDbEntity
  8
3
 62
     0
100
AcDbText
 10
589.483607501368
 20
2275.077018926126
 30
0.0
 40
75.0
  1
(1431)
 50
90.0
100
AcDbText
  0
POINT
  5
8060
330
8186
100
AcDbEntity
  8
DEFPOINTS
  6
ByBlock
 62
     0
100
AcDbPoint
 10
1220.739022619682
 20
1725.648447497555
 30
0.0
  0
POINT
  5
8061
330
8186
100
AcDbEntity
  8
DEFPOINTS
  6
ByBlock
 62
     0
100
AcDbPoint
 10
1170.739022619682
 20
3156.648447497555
 30
0.0
  0
POINT
  5
8062
330
8186
100
AcDbEntity
  8
DEFPOINTS
  6
ByBlock
 62
     0
100
AcDbPoint
 10
646.626464644225
 20
3156.648447497555
 30
0.0
  0
ENDBLK
  5
8063
330
8186
100
AcDbEntity
  8
0
100
AcDbBlockEnd
  0
BLOCK
  5
820E
330
820D
100
AcDbEntity
  8
0
100
AcDbBlockBegin
  2
*D30
 70
     1
 10
0.0
 20
0.0
 30
0.0
  3
*D30
  1

  0
LINE
  5
823B
330
820D
100
AcDbEntity
  8
3
 62
     0
370
    -2
100
AcDbLine
 10
3093.266996014719
 20
2702.648447497555
 30
0.0
 11
3093.266996014719
 21
3545.904341838777
 31
0.0
  0
LINE
  5
823C
330
820D
100
AcDbEntity
  8
3
 62
     0
370
    -2
100
AcDbLine
 10
3933.266996014717
 20
3460.962010291761
 30
0.0
 11
3933.266996014717
 21
3545.904341838777
 31
0.0
  0
LINE
  5
823D
330
820D
100
AcDbEntity
  8
3
 62
     0
370
    -2
100
AcDbLine
 10
3143.266996014719
 20
3520.904341838777
 30
0.0
 11
3883.266996014717
 21
3520.904341838777
 31
0.0
  0
INSERT
  5
823E
330
820D
100
AcDbEntity
  8
3
 62
     0
370
    -2
100
AcDbBlockReference
  2
_OPEN
 10
3093.266996014719
 20
3520.904341838777
 30
0.0
 41
50.0
 42
50.0
 43
50.0
 50
180.0
  0
INSERT
  5
823F
330
820D
100
AcDbEntity
  8
3
 62
     0
370
    -2
100
AcDbBlockReference
  2
_OPEN
 10
3933.266996014717
 20
3520.904341838777
 30
0.0
 41
50.0
 42
50.0
 43
50.0
  0
MTEXT
  5
8240
330
820D
100
AcDbEntity
  8
3
 62
     0
100
AcDbMText
 10
3513.266996014718
 20
3603.047198981635
 30
0.0
 40
75.0
 41
0.0
 71
     5
 72
     1
  1
\A1;(840)
 73
     1
 44
1.0
1001
ACAD
1000
MTEXTBEGIN
1070
    73
1070
     1
1070
    44
1040
1.0
1070
    74
1070
     0
1000
MTEXTEND
  0
POINT
  5
8241
330
820D
100
AcDbEntity
  8
DEFPOINTS
 62
     0
100
AcDbPoint
 10
3093.266996014719
 20
2677.648447497555
 30
0.0
  0
POINT
  5
8242
330
820D
100
AcDbEntity
  8
DEFPOINTS
 62
     0
100
AcDbPoint
 10
3933.266996014717
 20
3435.962010291761
 30
0.0
  0
POINT
  5
8243
330
820D
100
AcDbEntity
  8
DEFPOINTS
 62
     0
100
AcDbPoint
 10
3933.266996014717
 20
3520.904341838777
 30
0.0
  0
ENDBLK
  5
820F
330
820D
100
AcDbEntity
  8
0
100
AcDbBlockEnd
  0
BLOCK
  5
821B
330
821A
100
AcDbEntity
  8
0
100
AcDbBlockBegin
  2
*D31
 70
     1
 10
0.0
 20
0.0
 30
0.0
  3
*D31
  1

  0
LINE
  5
8244
330
821A
100
AcDbEntity
  8
3
 62
     0
370
    -2
100
AcDbLine
 10
3933.266996014717
 20
3460.962010291761
 30
0.0
 11
3933.266996014717
 21
3545.904341838777
 31
0.0
  0
LINE
  5
8245
330
821A
100
AcDbEntity
  8
3
 62
     0
370
    -2
100
AcDbLine
 10
4493.266996014716
 20
2397.448447497553
 30
0.0
 11
4493.266996014716
 21
3545.904341838777
 31
0.0
  0
LINE
  5
8246
330
821A
100
AcDbEntity
  8
3
 62
     0
370
    -2
100
AcDbLine
 10
3983.266996014717
 20
3520.904341838777
 30
0.0
 11
4443.266996014716
 21
3520.904341838777
 31
0.0
  0
INSERT
  5
8247
330
821A
100
AcDbEntity
  8
3
 62
     0
370
    -2
100
AcDbBlockReference
  2
_OPEN
 10
3933.266996014717
 20
3520.904341838777
 30
0.0
 41
50.0
 42
50.0
 43
50.0
 50
180.0
  0
INSERT
  5
8248
330
821A
100
AcDbEntity
  8
3
 62
     0
370
    -2
100
AcDbBlockReference
  2
_OPEN
 10
4493.266996014716
 20
3520.904341838777
 30
0.0
 41
50.0
 42
50.0
 43
50.0
  0
MTEXT
  5
8249
330
821A
100
AcDbEntity
  8
3
 62
     0
100
AcDbMText
 10
4213.266996014715
 20
3603.047198981635
 30
0.0
 40
75.0
 41
0.0
 71
     5
 72
     1
  1
\A1;(560)
 73
     1
 44
1.0
1001
ACAD
1000
MTEXTBEGIN
1070
    73
1070
     1
1070
    44
1040
1.0
1070
    74
1070
     0
1000
MTEXTEND
  0
POINT
  5
824A
330
821A
100
AcDbEntity
  8
DEFPOINTS
 62
     0
100
AcDbPoint
 10
3933.266996014717
 20
3435.962010291761
 30
0.0
  0
POINT
  5
824B
330
821A
100
AcDbEntity
  8
DEFPOINTS
 62
     0
100
AcDbPoint
 10
4493.266996014716
 20
2372.448447497554
 30
0.0
  0
POINT
  5
824C
330
821A
100
AcDbEntity
  8
DEFPOINTS
 62
     0
100
AcDbPoint
 10
4493.266996014716
 20
3520.904341838777
 30
0.0
  0
ENDBLK
  5
821C
330
821A
100
AcDbEntity
  8
0
100
AcDbBlockEnd
  0
BLOCK
  5
824F
330
824E
100
AcDbEntity
  8
0
100
AcDbBlockBegin
  2
*D32
 70
     1
 10
0.0
 20
0.0
 30
0.0
  3
*D32
  1

  0
LINE
  5
8251
330
824E
100
AcDbEntity
  8
3
 62
     0
370
    -2
100
AcDbLine
 10
1220.739022619682
 20
4043.894181494283
 30
0.0
 11
1220.739022619682
 21
3701.637517748135
 31
0.0
  0
LINE
  5
8252
330
824E
100
AcDbEntity
  8
3
 62
     0
370
    -2
100
AcDbLine
 10
2820.739022619682
 20
4043.894181494284
 30
0.0
 11
2820.739022619682
 21
3701.637517748135
 31
0.0
  0
LINE
  5
8253
330
824E
100
AcDbEntity
  8
3
 62
     0
370
    -2
100
AcDbLine
 10
1270.739022619682
 20
3726.637517748135
 30
0.0
 11
2770.739022619682
 21
3726.637517748135
 31
0.0
  0
INSERT
  5
8254
330
824E
100
AcDbEntity
  8
3
 62
     0
370
    -2
100
AcDbBlockReference
  2
_OPEN
 10
1220.739022619682
 20
3726.637517748135
 30
0.0
 41
50.0
 42
50.0
 43
50.0
 50
180.0
  0
INSERT
  5
8255
330
824E
100
AcDbEntity
  8
3
 62
     0
370
    -2
100
AcDbBlockReference
  2
_OPEN
 10
2820.739022619682
 20
3726.637517748135
 30
0.0
 41
50.0
 42
50.0
 43
50.0
  0
MTEXT
  5
8256
330
824E
100
AcDbEntity
  8
3
 62
     0
100
AcDbMText
 10
2020.739022619682
 20
3789.137517748135
 30
0.0
 40
75.0
 41
0.0
 71
     5
 72
     1
  1
\A1;1600
 73
     1
 44
1.0
1001
ACAD
1000
MTEXTBEGIN
1070
    73
1070
     1
1070
    44
1040
1.0
1070
    74
1070
     0
1000
MTEXTEND
  0
POINT
  5
8257
330
824E
100
AcDbEntity
  8
DEFPOINTS
 62
     0
100
AcDbPoint
 10
1220.739022619682
 20
4068.894181494282
 30
0.0
  0
POINT
  5
8258
330
824E
100
AcDbEntity
  8
DEFPOINTS
 62
     0
100
AcDbPoint
 10
2820.739022619682
 20
4068.894181494284
 30
0.0
  0
POINT
  5
8259
330
824E
100
AcDbEntity
  8
DEFPOINTS
 62
     0
100
AcDbPoint
 10
2820.739022619682
 20
3726.637517748135
 30
0.0
  0
ENDBLK
  5
8250
330
824E
100
AcDbEntity
  8
0
100
AcDbBlockEnd
  0
BLOCK
  5
825C
330
825B
100
AcDbEntity
  8
0
100
AcDbBlockBegin
  2
*D33
 70
     1
 10
0.0
 20
0.0
 30
0.0
  3
*D33
  1

  0
LINE
  5
8267
330
825B
100
AcDbEntity
  8
3
 62
     0
370
    -2
100
AcDbLine
 10
1670.739022619682
 20
3252.699731954696
 30
0.0
 11
1670.739022619682
 21
3374.628979678586
 31
0.0
  0
LINE
  5
8268
330
825B
100
AcDbEntity
  8
3
 62
     0
370
    -2
100
AcDbLine
 10
2265.73902261968
 20
2475.648447497555
 30
0.0
 11
2265.73902261968
 21
3374.628979678586
 31
0.0
  0
LINE
  5
8269
330
825B
100
AcDbEntity
  8
3
 62
     0
370
    -2
100
AcDbLine
 10
1720.739022619682
 20
3349.628979678586
 30
0.0
 11
2215.73902261968
 21
3349.628979678586
 31
0.0
  0
INSERT
  5
826A
330
825B
100
AcDbEntity
  8
3
 62
     0
370
    -2
100
AcDbBlockReference
  2
_OPEN
 10
1670.739022619682
 20
3349.628979678586
 30
0.0
 41
50.0
 42
50.0
 43
50.0
 50
180.0
  0
INSERT
  5
826B
330
825B
100
AcDbEntity
  8
3
 62
     0
370
    -2
100
AcDbBlockReference
  2
_OPEN
 10
2265.73902261968
 20
3349.628979678586
 30
0.0
 41
50.0
 42
50.0
 43
50.0
  0
MTEXT
  5
826C
330
825B
100
AcDbEntity
  8
3
 62
     0
100
AcDbMText
 10
1968.239022619681
 20
3412.128979678586
 30
0.0
 40
75.0
 41
0.0
 71
     5
 72
     1
  1
\A1;595
 73
     1
 44
1.0
1001
ACAD
1000
MTEXTBEGIN
1070
    73
1070
     1
1070
    44
1040
1.0
1070
    74
1070
     0
1000
MTEXTEND
  0
POINT
  5
826D
330
825B
100
AcDbEntity
  8
DEFPOINTS
 62
     0
100
AcDbPoint
 10
1670.739022619682
 20
3227.699731954696
 30
0.0
  0
POINT
  5
826E
330
825B
100
AcDbEntity
  8
DEFPOINTS
 62
     0
100
AcDbPoint
 10
2265.73902261968
 20
2450.648447497555
 30
0.0
  0
POINT
  5
826F
330
825B
100
AcDbEntity
  8
DEFPOINTS
 62
     0
100
AcDbPoint
 10
2265.73902261968
 20
3349.628979678586
 30
0.0
  0
ENDBLK
  5
825D
330
825B
100
AcDbEntity
  8
0
100
AcDbBlockEnd
  0
ENDSEC
  0
SECTION
  2
ENTITIES
  0
INSERT
  5
7C36
330
813F
100
AcDbEntity
  8
0
100
AcDbBlockReference
  2
YA_N
 10
6.0
 20
5.0
 30
0.0
  0
LINE
  5
7C3E
330
813F
100
AcDbEntity
  8
1
100
AcDbLine
 10
1170.739022619682
 20
3198.648447497554
 30
0.0
 11
1173.739022619682
 21
3198.648447497555
 31
0.0
  0
LINE
  5
7C42
330
813F
100
AcDbEntity
  8
2
100
AcDbLine
 10
1670.739022619682
 20
1725.648447497555
 30
0.0
 11
1670.739022619682
 21
3227.699731954696
 31
0.0
  0
LINE
  5
7C43
330
813F
100
AcDbEntity
  8
2
100
AcDbLine
 10
1048.473183814252
 20
2397.648447497555
 30
0.0
 11
2345.765500122286
 21
2397.648447497555
 31
0.0
  0
LINE
  5
7C44
330
813F
100
AcDbEntity
  8
1
100
AcDbLine
 10
2367.739022619681
 20
1992.648447497553
 30
0.0
 11
2773.739022619682
 21
1992.648447497553
 31
0.0
  0
LINE
  5
7C45
330
813F
100
AcDbEntity
  8
1
100
AcDbLine
 10
2370.739022619682
 20
1952.648447497555
 30
0.0
 11
2370.739022619682
 21
1992.648447497553
 31
0.0
  0
LINE
  5
7C46
330
813F
100
AcDbEntity
  8
1
100
AcDbLine
 10
1220.739022619682
 20
1725.648447497555
 30
0.0
 11
2820.739022619682
 21
1725.648447497555
 31
0.0
  0
LINE
  5
7C47
330
813F
100
AcDbEntity
  8
1
100
AcDbLine
 10
1220.739022619682
 20
1825.648447497555
 30
0.0
 11
1220.739022619682
 21
1725.648447497555
 31
0.0
  0
LINE
  5
7C48
330
813F
100
AcDbEntity
  8
1
100
AcDbLine
 10
2820.739022619682
 20
1825.648447497555
 30
0.0
 11
2820.739022619682
 21
1725.648447497555
 31
0.0
  0
LINE
  5
7C49
330
813F
100
AcDbEntity
  8
1
100
AcDbLine
 10
1220.739022619682
 20
1825.648447497555
 30
0.0
 11
2820.739022619682
 21
1825.648447497555
 31
0.0
1001
ACAD
1000
ASC_BOUNDS
1002
{
1070
    19
1005
0
1002
}
  0
LINE
  5
7C4A
330
813F
100
AcDbEntity
  8
2
100
AcDbLine
 10
3933.266996014717
 20
1725.648447497555
 30
0.0
 11
3933.266996014717
 21
3333.01515415295
 31
0.0
  0
LINE
  5
7C4B
330
813F
100
AcDbEntity
  8
2
100
AcDbLine
 10
3080.856542651913
 20
2397.648447497555
 30
0.0
 11
4519.54935441003
 21
2397.648447497555
 31
0.0
  0
LINE
  5
7C4C
330
813F
100
AcDbEntity
  8
1
100
AcDbLine
 10
3281.266996014716
 20
1725.648447497555
 30
0.0
 11
4411.266996014715
 21
1725.648447497555
 31
0.0
  0
LINE
  5
7C4D
330
813F
100
AcDbEntity
  8
1
100
AcDbLine
 10
3281.266996014716
 20
1825.648447497555
 30
0.0
 11
4436.266996014714
 21
1825.648447497555
 31
0.0
1001
ACAD
1000
ASC_BOUNDS
1002
{
1070
    19
1002
}
  0
LINE
  5
7C4E
330
813F
100
AcDbEntity
  8
2
100
AcDbLine
 10
1670.739022619682
 20
5305.784185108803
 30
0.0
 11
1670.739022619682
 21
3850.002981244318
 31
0.0
  0
LINE
  5
7C4F
330
813F
100
AcDbEntity
  8
2
100
AcDbLine
 10
2570.739022619682
 20
4691.805113493521
 30
0.0
 11
2570.739022619682
 21
3850.002981244318
 31
0.0
  0
LINE
  5
7C50
330
813F
100
AcDbEntity
  8
2
100
AcDbLine
 10
1073.540825591602
 20
4720.894181494282
 30
0.0
 11
3013.265491564553
 21
4720.894181494285
 31
0.0
  0
LINE
  5
7C51
330
813F
100
AcDbEntity
  8
2
100
AcDbLine
 10
3211.299896816806
 20
2202.648447497554
 30
0.0
 11
3852.988804828707
 21
2202.648447497554
 31
0.0
  0
LINE
  5
7C52
330
813F
100
AcDbEntity
  8
1
100
AcDbLine
 10
4383.266996014715
 20
1952.648447497555
 30
0.0
 11
4383.266996014715
 21
2397.648447497555
 31
0.0
  0
POINT
  5
7C53
330
813F
100
AcDbEntity
  8
1
100
AcDbPoint
 10
1220.739022619682
 20
1725.648447497555
 30
0.0
  0
INSERT
  5
7C55
330
813F
100
AcDbEntity
  8
0
100
AcDbBlockReference
  2
YA_N
 10
-1092.024831295133
 20
-1095.319682135705
 30
0.0
 41
20.0
 42
20.0
 43
20.0
  0
LINE
  5
7C57
330
813F
100
AcDbEntity
  8
1
100
AcDbLine
 10
2724.739022619682
 20
2058.648447497554
 30
0.0
 11
2705.306522619681
 21
2112.038447497555
 31
0.0
  0
LINE
  5
7C58
330
813F
100
AcDbEntity
  8
1
100
AcDbLine
 10
2416.739022619682
 20
2058.648447497554
 30
0.0
 11
2436.171622619682
 21
2112.038447497555
 31
0.0
  0
ARC
  5
7C59
330
813F
100
AcDbEntity
  8
1
100
AcDbCircle
 10
2570.739022619682
 20
2202.648447497554
 30
0.0
 40
162.0
100
AcDbArc
 50
285.6481
 51
0.0
  0
ARC
  5
7C5A
330
813F
100
AcDbEntity
  8
1
100
AcDbCircle
 10
2570.739022619682
 20
2202.648447497554
 30
0.0
 40
162.0
100
AcDbArc
 50
0.0
 51
254.5427
  0
LINE
  5
7C5B
330
813F
100
AcDbEntity
  8
2
100
AcDbLine
 10
2570.739022619682
 20
2451.884447497555
 30
0.0
 11
2570.739022619682
 21
1725.648447497555
 31
0.0
  0
LINE
  5
7C5C
330
813F
100
AcDbEntity
  8
1
100
AcDbLine
 10
2527.058422619682
 20
2046.648447497555
 30
0.0
 11
2614.419722619682
 21
2046.648447497555
 31
0.0
  0
LINE
  5
7C5D
330
813F
100
AcDbEntity
  8
1
100
AcDbLine
 10
2485.795122619681
 20
2064.704447497555
 30
0.0
 11
2477.617722619682
 21
2056.526447497553
 31
0.0
  0
LINE
  5
7C5E
330
813F
100
AcDbEntity
  8
1
100
AcDbLine
 10
2463.525822619682
 20
2060.648447497555
 30
0.0
 11
2418.739022619682
 21
2060.648447497555
 31
0.0
  0
ARC
  5
7C60
330
813F
100
AcDbEntity
  8
1
100
AcDbCircle
 10
2418.739022619682
 20
2058.648447497554
 30
0.0
 40
2.0
100
AcDbArc
 50
90.0
 51
180.0
  0
LINE
  5
7C62
330
813F
100
AcDbEntity
  8
1
100
AcDbLine
 10
2416.739022619682
 20
2042.648447497553
 30
0.0
 11
2416.739022619682
 21
2058.648447497554
 31
0.0
  0
ARC
  5
7C64
330
813F
100
AcDbEntity
  8
1
100
AcDbCircle
 10
2479.739022619682
 20
2054.405447497555
 30
0.0
 40
3.0
100
AcDbArc
 50
135.0
 51
180.0
  0
LINE
  5
7C65
330
813F
100
AcDbEntity
  8
1
100
AcDbLine
 10
2476.739022619682
 20
2042.648447497553
 30
0.0
 11
2476.739022619682
 21
2054.405447497555
 31
0.0
  0
ARC
  5
7C6A
330
813F
100
AcDbEntity
  8
1
100
AcDbCircle
 10
2463.525822619682
 20
2063.648447497555
 30
0.0
 40
3.0
100
AcDbArc
 50
270.0
 51
315.0
  0
LINE
  5
7C6B
330
813F
100
AcDbEntity
  8
1
100
AcDbLine
 10
2475.627822619681
 20
2071.507447497554
 30
0.0
 11
2465.647222619682
 21
2061.526447497553
 31
0.0
  0
LINE
  5
7C6D
330
813F
100
AcDbEntity
  8
1
100
AcDbLine
 10
2677.952222619682
 20
2060.648447497555
 30
0.0
 11
2722.739022619682
 21
2060.648447497555
 31
0.0
  0
LINE
  5
7C6E
330
813F
100
AcDbEntity
  8
1
100
AcDbLine
 10
2655.682922619682
 20
2064.704447497555
 30
0.0
 11
2663.860422619682
 21
2056.526447497553
 31
0.0
  0
ARC
  5
7C6F
330
813F
100
AcDbEntity
  8
1
100
AcDbCircle
 10
2661.739022619682
 20
2054.405447497555
 30
0.0
 40
3.0
100
AcDbArc
 50
0.0
 51
45.0
  0
LINE
  5
7C70
330
813F
100
AcDbEntity
  8
1
100
AcDbLine
 10
2664.739022619682
 20
2042.648447497553
 30
0.0
 11
2664.739022619682
 21
2054.405447497555
 31
0.0
  0
ARC
  5
7C71
330
813F
100
AcDbEntity
  8
1
100
AcDbCircle
 10
2677.952222619682
 20
2063.648447497555
 30
0.0
 40
3.0
100
AcDbArc
 50
225.0
 51
270.0
  0
LINE
  5
7C72
330
813F
100
AcDbEntity
  8
1
100
AcDbLine
 10
2675.941222619682
 20
2061.416447497554
 30
0.0
 11
2665.850222619682
 21
2071.507447497554
 31
0.0
  0
ARC
  5
7C79
330
813F
100
AcDbEntity
  8
1
100
AcDbCircle
 10
2722.739022619682
 20
2058.648447497554
 30
0.0
 40
2.0
100
AcDbArc
 50
0.0
 51
90.0
  0
LINE
  5
7C7A
330
813F
100
AcDbEntity
  8
1
100
AcDbLine
 10
2724.739022619682
 20
2042.648447497553
 30
0.0
 11
2724.739022619682
 21
2058.648447497554
 31
0.0
  0
LINE
  5
7C7B
330
813F
100
AcDbEntity
  8
2
100
AcDbLine
 10
2377.882147720158
 20
2202.648447497554
 30
0.0
 11
2768.497949838352
 21
2202.648447497554
 31
0.0
  0
LINE
  5
7C7C
330
813F
100
AcDbEntity
  8
1
100
AcDbLine
 10
2380.779555249423
 20
2042.648447497553
 30
0.0
 11
2510.739022619683
 21
2042.648447497553
 31
0.0
  0
LINE
  5
7C7D
330
813F
100
AcDbEntity
  8
1
100
AcDbLine
 10
2367.739022619681
 20
1992.648447497553
 30
0.0
 11
2380.779555249423
 21
2042.648447497553
 31
0.0
  0
LINE
  5
7C7E
330
813F
100
AcDbEntity
  8
1
100
AcDbLine
 10
2773.739022619682
 20
1992.648447497553
 30
0.0
 11
2760.357581710749
 21
2042.648447497553
 31
0.0
  0
LINE
  5
7C7F
330
813F
100
AcDbEntity
  8
1
100
AcDbLine
 10
2630.739022619682
 20
2042.648447497553
 30
0.0
 11
2630.739022619682
 21
2037.648447497555
 31
0.0
  0
LINE
  5
7C80
330
813F
100
AcDbEntity
  8
1
100
AcDbLine
 10
2510.739022619683
 20
2042.648447497553
 30
0.0
 11
2510.739022619683
 21
2037.648447497555
 31
0.0
  0
LINE
  5
7C81
330
813F
100
AcDbEntity
  8
1
100
AcDbLine
 10
2510.739022619683
 20
2037.648447497555
 30
0.0
 11
2630.739022619682
 21
2037.648447497555
 31
0.0
  0
LINE
  5
7C83
330
813F
100
AcDbEntity
  8
1
100
AcDbLine
 10
2630.739022619682
 20
2042.648447497553
 30
0.0
 11
2760.357581710749
 21
2042.648447497553
 31
0.0
  0
POINT
  5
7C87
330
813F
100
AcDbEntity
  8
1
100
AcDbPoint
 10
1220.739022619682
 20
1730.648447497555
 30
0.0
  0
POINT
  5
7C88
330
813F
100
AcDbEntity
  8
1
100
AcDbPoint
 10
1220.739022619682
 20
1725.648447497555
 30
0.0
  0
POINT
  5
7C89
330
813F
100
AcDbEntity
  8
1
100
AcDbPoint
 10
1220.739022619682
 20
1730.648447497555
 30
0.0
  0
POINT
  5
7C8A
330
813F
100
AcDbEntity
  8
1
100
AcDbPoint
 10
1220.739022619682
 20
1765.648447497555
 30
0.0
  0
DIMENSION
  5
7C8C
330
813F
100
AcDbEntity
  8
3
100
AcDbDimension
  2
*D4
 10
1021.731638840456
 20
2426.648447497556
 30
0.0
 11
971.731638840456
 21
2791.648447497555
 31
0.0
 12
1052.674667944189
 22
1889.054969276156
 32
0.0
 71
     5
 42
-1.0
  3
Standard
100
AcDbAlignedDimension
 13
1170.739022619682
 23
3156.648447497555
 33
0.0
 14
1170.739022619681
 24
2426.648447497556
 34
0.0
 50
90.0
100
AcDbRotatedDimension
1001
ACAD
1000
DSTYLE
1002
{
1070
    40
1040
25.0
1002
}
  0
DIMENSION
  5
7C8D
330
813F
100
AcDbEntity
  8
3
100
AcDbDimension
  2
*D5
 10
868.9228653667903
 20
2397.648447497555
 30
0.0
 11
818.9228653667903
 21
2777.148447497555
 31
0.0
 12
1052.674667944189
 22
1889.054969276156
 32
0.0
 71
     5
 42
-1.0
  3
Standard
100
AcDbAlignedDimension
 13
1170.739022619682
 23
3156.648447497555
 33
0.0
 14
1048.473183814252
 24
2397.648447497555
 34
0.0
 50
90.0
100
AcDbRotatedDimension
1001
ACAD
1000
DSTYLE
1002
{
1070
    40
1040
25.0
1002
}
  0
LINE
  5
7C8E
330
813F
100
AcDbEntity
  8
1
100
AcDbLine
 10
4386.266996014716
 20
1725.648447497555
 30
0.0
 11
4436.266996014714
 21
1725.648447497555
 31
0.0
  0
POINT
  5
7C8F
330
813F
100
AcDbEntity
  8
1
100
AcDbPoint
 10
1220.739022619682
 20
1730.648447497555
 30
0.0
  0
POINT
  5
7C90
330
813F
100
AcDbEntity
  8
1
100
AcDbPoint
 10
1220.739022619682
 20
1725.648447497555
 30
0.0
  0
POINT
  5
7C91
330
813F
100
AcDbEntity
  8
1
100
AcDbPoint
 10
1220.739022619682
 20
1730.648447497555
 30
0.0
  0
POINT
  5
7C92
330
813F
100
AcDbEntity
  8
1
100
AcDbPoint
 10
1220.739022619682
 20
1765.648447497555
 30
0.0
  0
INSERT
  5
7C93
330
813F
100
AcDbEntity
  8
0
100
AcDbBlockReference
  2
YA_N
 10
-1018.773193578214
 20
-860.9217325598891
 30
0.0
 41
20.0
 42
20.0
 43
20.0
  0
POINT
  5
7C95
330
813F
100
AcDbEntity
  8
1
100
AcDbPoint
 10
1220.739022619682
 20
1825.648447497555
 30
0.0
  0
POINT
  5
7C96
330
813F
100
AcDbEntity
  8
1
100
AcDbPoint
 10
1220.739022619682
 20
1725.648447497555
 30
0.0
  0
POINT
  5
7C97
330
813F
100
AcDbEntity
  8
1
100
AcDbPoint
 10
1220.739022619682
 20
1825.648447497555
 30
0.0
  0
LINE
  5
7C98
330
813F
100
AcDbEntity
  8
1
100
AcDbLine
 10
3483.266996014716
 20
3156.648447497555
 30
0.0
 11
4383.266996014715
 21
3156.648447497555
 31
0.0
  0
LINE
  5
7C99
330
813F
100
AcDbEntity
  8
1
100
AcDbLine
 10
4383.266996014715
 20
2397.648447497555
 30
0.0
 11
4383.266996014715
 21
3156.648447497555
 31
0.0
  0
DIMENSION
  5
7C9B
330
813F
100
AcDbEntity
  8
3
100
AcDbDimension
  2
*D6
 10
1670.739022619682
 20
3349.628979678585
 30
0.0
 11
1420.739022619682
 21
3399.628979678585
 31
0.0
 12
1052.674667944189
 22
1889.054969276156
 32
0.0
 71
     5
 42
-1.0
  3
Standard
100
AcDbAlignedDimension
 13
1170.739022619682
 23
3198.648447497554
 33
0.0
 14
1670.739022619682
 24
3227.699731954696
 34
0.0
100
AcDbRotatedDimension
1001
ACAD
1000
DSTYLE
1002
{
1070
    40
1040
25.0
1002
}
  0
LINE
  5
7C9D
330
813F
100
AcDbEntity
  8
1
100
AcDbLine
 10
3483.266996014716
 20
2397.648447497555
 30
0.0
 11
3483.266996014716
 21
3156.648447497555
 31
0.0
  0
LINE
  5
7C9F
330
813F
100
AcDbEntity
  8
1
100
AcDbLine
 10
4395.766996014715
 20
2262.448447497555
 30
0.0
 11
4395.766996014716
 21
2382.448447497555
 31
0.0
  0
LINE
  5
7CA0
330
813F
100
AcDbEntity
  8
1
100
AcDbLine
 10
4493.266996014714
 20
2272.448447497553
 30
0.0
 11
4493.266996014716
 21
2372.448447497554
 31
0.0
  0
LINE
  5
7CA1
330
813F
100
AcDbEntity
  8
1
100
AcDbLine
 10
4395.766996014716
 20
2382.448447497555
 30
0.0
 11
4435.566996014716
 21
2382.448447497555
 31
0.0
  0
LINE
  5
7CA2
330
813F
100
AcDbEntity
  8
1
100
AcDbLine
 10
4395.766996014715
 20
2262.448447497555
 30
0.0
 11
4435.566996014716
 21
2262.448447497555
 31
0.0
  0
ARC
  5
7CA3
330
813F
100
AcDbEntity
  8
1
100
AcDbCircle
 10
4483.266996014717
 20
2372.448447497555
 30
0.0
 40
10.0
100
AcDbArc
 50
359.9999999999982
 51
90.0
  0
ARC
  5
7CA4
330
813F
100
AcDbEntity
  8
1
100
AcDbCircle
 10
4483.266996014715
 20
2272.448447497555
 30
0.0
 40
10.0
100
AcDbArc
 50
270.0
 51
359.9999999999982
  0
LINE
  5
7CA5
330
813F
100
AcDbEntity
  8
1
100
AcDbLine
 10
4435.566996014716
 20
2262.448447497555
 30
0.0
 11
4483.266996014715
 21
2262.448447497555
 31
0.0
  0
LINE
  5
7CA6
330
813F
100
AcDbEntity
  8
1
100
AcDbLine
 10
4435.566996014716
 20
2382.448447497555
 30
0.0
 11
4483.266996014717
 21
2382.448447497555
 31
0.0
  0
LINE
  5
7CA7
330
813F
100
AcDbEntity
  8
1
100
AcDbLine
 10
2770.739022619682
 20
1952.648447497555
 30
0.0
 11
2770.739022619682
 21
1992.648447497553
 31
0.0
  0
POINT
  5
7CA8
330
813F
100
AcDbEntity
  8
1
100
AcDbPoint
 10
4493.266996014716
 20
2372.448447497554
 30
0.0
  0
LINE
  5
7CA9
330
813F
100
AcDbEntity
  8
1
100
AcDbLine
 10
1220.739022619682
 20
5223.894181494284
 30
0.0
 11
2120.739022619682
 21
5223.894181494284
 31
0.0
  0
LINE
  5
7CAA
330
813F
100
AcDbEntity
  8
1
100
AcDbLine
 10
1220.739022619682
 20
4068.894181494282
 30
0.0
 11
2820.739022619682
 21
4068.894181494284
 31
0.0
  0
LINE
  5
7CAB
330
813F
100
AcDbEntity
  8
1
100
AcDbLine
 10
1220.739022619682
 20
5223.894181494284
 30
0.0
 11
1220.739022619682
 21
5170.894181494284
 31
0.0
  0
LINE
  5
7CAC
330
813F
100
AcDbEntity
  8
1
100
AcDbLine
 10
2120.739022619682
 20
5223.894181494284
 30
0.0
 11
2120.739022619682
 21
5170.894181494285
 31
0.0
  0
LINE
  5
7CAD
330
813F
100
AcDbEntity
  8
1
100
AcDbLine
 10
2820.739022619682
 20
4738.894181494287
 30
0.0
 11
2820.739022619682
 21
4068.894181494285
 31
0.0
  0
LINE
  5
7CAE
330
813F
100
AcDbEntity
  8
1
100
AcDbLine
 10
2282.739022619682
 20
4738.894181494283
 30
0.0
 11
2820.739022619682
 21
4738.894181494287
 31
0.0
  0
DIMENSION
  5
7CAF
330
813F
100
AcDbEntity
  8
3
100
AcDbDimension
  2
*D8
 10
869.9852083343667
 20
1852.648447497555
 30
0.0
 11
819.9852083343667
 21
2125.148447497555
 31
0.0
 12
1052.674667944189
 22
1889.054969276156
 32
0.0
 71
     5
 42
-1.0
  3
Standard
100
AcDbAlignedDimension
 13
1048.473183814252
 23
2397.648447497555
 33
0.0
 14
1220.739022619682
 24
1852.648447497555
 34
0.0
 50
270.0
100
AcDbRotatedDimension
1001
ACAD
1000
DSTYLE
1002
{
1070
    40
1040
25.0
1002
}
  0
POINT
  5
7CB0
330
813F
100
AcDbEntity
  8
1
100
AcDbPoint
 10
1220.739022619682
 20
1825.648447497555
 30
0.0
  0
POINT
  5
7CB1
330
813F
100
AcDbEntity
  8
1
100
AcDbPoint
 10
1220.739022619682
 20
1725.648447497555
 30
0.0
  0
POINT
  5
7CB2
330
813F
100
AcDbEntity
  8
1
100
AcDbPoint
 10
1220.739022619682
 20
1825.648447497555
 30
0.0
  0
LINE
  5
7CB3
330
813F
100
AcDbEntity
  8
1
100
AcDbLine
 10
1220.739022619682
 20
1852.648447497555
 30
0.0
 11
2820.739022619682
 21
1852.648447497555
 31
0.0
1001
ACAD
1000
ASC_BOUNDS
1002
{
1070
    19
1002
}
  0
LINE
  5
7CB4
330
813F
100
AcDbEntity
  8
1
100
AcDbLine
 10
1220.739022619682
 20
1952.648447497555
 30
0.0
 11
2820.739022619682
 21
1952.648447497555
 31
0.0
1001
ACAD
1000
ASC_BOUNDS
1002
{
1070
    19
1005
0
1002
}
  0
LINE
  5
7CB5
330
813F
100
AcDbEntity
  8
1
100
AcDbLine
 10
2820.739022619682
 20
1952.648447497555
 30
0.0
 11
2820.739022619682
 21
1852.648447497555
 31
0.0
  0
LINE
  5
7CB6
330
813F
100
AcDbEntity
  8
1
100
AcDbLine
 10
1220.739022619682
 20
1952.648447497555
 30
0.0
 11
1220.739022619682
 21
1852.648447497555
 31
0.0
  0
POINT
  5
7CB7
330
813F
100
AcDbEntity
  8
1
100
AcDbPoint
 10
1220.739022619682
 20
1952.648447497555
 30
0.0
  0
POINT
  5
7CB8
330
813F
100
AcDbEntity
  8
1
100
AcDbPoint
 10
1220.739022619682
 20
1952.648447497555
 30
0.0
  0
POINT
  5
7CB9
330
813F
100
AcDbEntity
  8
1
100
AcDbPoint
 10
1220.739022619682
 20
1952.648447497555
 30
0.0
  0
POINT
  5
7CBA
330
813F
100
AcDbEntity
  8
1
100
AcDbPoint
 10
1220.739022619682
 20
1952.648447497555
 30
0.0
  0
POINT
  5
7CBD
330
813F
100
AcDbEntity
  8
1
100
AcDbPoint
 10
1220.739022619682
 20
1825.648447497555
 30
0.0
  0
POINT
  5
7CBE
330
813F
100
AcDbEntity
  8
1
100
AcDbPoint
 10
1220.739022619682
 20
1725.648447497555
 30
0.0
  0
POINT
  5
7CBF
330
813F
100
AcDbEntity
  8
1
100
AcDbPoint
 10
1220.739022619682
 20
1825.648447497555
 30
0.0
  0
POINT
  5
7CC0
330
813F
100
AcDbEntity
  8
1
100
AcDbPoint
 10
1220.739022619682
 20
1852.648447497555
 30
0.0
  0
CIRCLE
  5
7CC6
330
813F
100
AcDbEntity
  8
1
100
AcDbCircle
 10
2570.739022619682
 20
2202.648447497554
 30
0.0
 40
79.0
  0
CIRCLE
  5
7CC7
330
813F
100
AcDbEntity
  8
1
100
AcDbCircle
 10
1670.739022619682
 20
2397.648447497555
 30
0.0
 40
203.2
  0
LINE
  5
7CC8
330
813F
100
AcDbEntity
  8
1
100
AcDbLine
 10
1740.158392090735
 20
2588.622768133187
 30
0.0
 11
2597.727852286086
 21
2276.895353650187
 31
0.0
  0
LINE
  5
7CC9
330
813F
100
AcDbEntity
  8
1
100
AcDbLine
 10
1654.888111625678
 20
2195.067627525228
 30
0.0
 11
2564.576512932053
 21
2123.889172016188
 31
0.0
  0
ARC
  5
7CCA
330
813F
100
AcDbEntity
  8
1
100
AcDbCircle
 10
1670.739022619682
 20
2397.648447497555
 30
0.0
 40
280.0
100
AcDbArc
 50
69.65938634983065
 51
265.8903682986978
  0
ARC
  5
7CCB
330
813F
100
AcDbEntity
  8
1
100
AcDbCircle
 10
2570.739022619682
 20
2202.648447497554
 30
0.0
 40
150.0
100
AcDbArc
 50
265.8903682986978
 51
69.65938634983065
  0
LINE
  5
7CCC
330
813F
100
AcDbEntity
  8
1
100
AcDbLine
 10
1768.067128836997
 20
2660.188424910807
 30
0.0
 11
2622.879079521815
 21
2343.294863968941
 31
0.0
  0
LINE
  5
7CCD
330
813F
100
AcDbEntity
  8
1
100
AcDbLine
 10
1650.672789578275
 20
2118.368397562856
 30
0.0
 11
2559.989254918928
 21
2053.034135032536
 31
0.0
  0
INSERT
  5
7CCE
330
813F
100
AcDbEntity
  8
0
100
AcDbBlockReference
  2
YA_N
 10
2545.878788900856
 20
-1567.120050791241
 30
0.0
  0
LINE
  5
7CD0
330
813F
100
AcDbEntity
  8
1
100
AcDbLine
 10
3281.266996014716
 20
1952.648447497555
 30
0.0
 11
4436.266996014714
 21
1952.648447497555
 31
0.0
1001
ACAD
1000
ASC_BOUNDS
1002
{
1070
    19
1002
}
  0
LINE
  5
7CD1
330
813F
100
AcDbEntity
  8
1
100
AcDbLine
 10
3281.266996014716
 20
1725.648447497555
 30
0.0
 11
3281.266996014715
 21
1825.648447497555
 31
0.0
  0
LINE
  5
7CD2
330
813F
100
AcDbEntity
  8
1
100
AcDbLine
 10
3281.266996014716
 20
1852.648447497555
 30
0.0
 11
4436.266996014714
 21
1852.648447497555
 31
0.0
  0
LINE
  5
7CD3
330
813F
100
AcDbEntity
  8
1
100
AcDbLine
 10
4436.266996014715
 20
1725.648447497555
 30
0.0
 11
4436.266996014714
 21
1825.648447497555
 31
0.0
  0
LINE
  5
7CD6
330
813F
100
AcDbEntity
  8
1
100
AcDbLine
 10
3430.966996014713
 20
2374.448447497555
 30
0.0
 11
3390.766996014713
 21
2374.448447497555
 31
0.0
  0
LINE
  5
7CD7
330
813F
100
AcDbEntity
  8
1
100
AcDbLine
 10
3470.766996014714
 20
2364.648447497559
 30
0.0
 11
3470.766996014714
 21
2374.448447497555
 31
0.0
  0
LINE
  5
7CD8
330
813F
100
AcDbEntity
  8
1
100
AcDbLine
 10
3470.766996014714
 20
2374.448447497555
 30
0.0
 11
3430.966996014713
 21
2374.448447497555
 31
0.0
  0
ARC
  5
7CD9
330
813F
100
AcDbEntity
  8
1
100
AcDbCircle
 10
3390.766996014713
 20
2364.448447497555
 30
0.0
 40
10.0
100
AcDbArc
 50
90.0
 51
180.0000000000016
  0
POINT
  5
7CDA
330
813F
100
AcDbEntity
  8
1
100
AcDbPoint
 10
3380.766996014714
 20
2364.448447497554
 30
0.0
  0
LINE
  5
7CDB
330
813F
100
AcDbEntity
  8
1
100
AcDbLine
 10
3353.266996014716
 20
2372.648447497554
 30
0.0
 11
3353.266996014717
 21
2422.648447497555
 31
0.0
  0
LINE
  5
7CDC
330
813F
100
AcDbEntity
  8
1
100
AcDbLine
 10
3353.266996014717
 20
2422.648447497555
 30
0.0
 11
3483.266996014716
 21
2422.648447497554
 31
0.0
  0
LINE
  5
7CDD
330
813F
100
AcDbEntity
  8
1
100
AcDbLine
 10
3353.266996014717
 20
2372.648447497554
 30
0.0
 11
3385.166996014715
 21
2372.648447497554
 31
0.0
  0
LINE
  5
7CDE
330
813F
100
AcDbEntity
  8
1
100
AcDbLine
 10
3329.266996014716
 20
2418.648447497555
 30
0.0
 11
3353.266996014716
 21
2418.648447497555
 31
0.0
  0
LINE
  5
7CDF
330
813F
100
AcDbEntity
  8
1
100
AcDbLine
 10
3329.266996014715
 20
2376.648447497555
 30
0.0
 11
3353.266996014716
 21
2376.648447497555
 31
0.0
  0
LINE
  5
7CE0
330
813F
100
AcDbEntity
  8
1
100
AcDbLine
 10
3329.266996014712
 20
2123.648447497555
 30
0.0
 11
3329.266996014719
 21
2600.848447497555
 31
0.0
  0
LINE
  5
7CE1
330
813F
100
AcDbEntity
  8
1
100
AcDbLine
 10
3228.266996014717
 20
2600.848447497555
 30
0.0
 11
3329.266996014719
 21
2600.848447497555
 31
0.0
  0
LINE
  5
7CE2
330
813F
100
AcDbEntity
  8
1
100
AcDbLine
 10
3228.266996014712
 20
2194.448447497555
 30
0.0
 11
3329.266996014712
 21
2194.448447497555
 31
0.0
  0
LINE
  5
7CE3
330
813F
100
AcDbEntity
  8
1
100
AcDbLine
 10
3228.266996014712
 20
2123.648447497555
 30
0.0
 11
3228.266996014717
 21
2600.848447497556
 31
0.0
  0
LINE
  5
7CE4
330
813F
100
AcDbEntity
  8
1
100
AcDbLine
 10
3228.266996014713
 20
2281.648447497555
 30
0.0
 11
3329.266996014714
 21
2281.648447497555
 31
0.0
  0
LINE
  5
7CE5
330
813F
100
AcDbEntity
  8
1
100
AcDbLine
 10
3228.266996014712
 20
2123.648447497555
 30
0.0
 11
3329.266996014712
 21
2123.648447497555
 31
0.0
  0
LINE
  5
7CE6
330
813F
100
AcDbEntity
  8
1
100
AcDbLine
 10
3093.266996014719
 20
2677.648447497555
 30
0.0
 11
3379.266996014719
 21
2677.648447497555
 31
0.0
  0
LINE
  5
7CE7
330
813F
100
AcDbEntity
  8
1
100
AcDbLine
 10
3093.266996014711
 20
2052.648447497555
 30
0.0
 11
3379.26699601471
 21
2052.648447497555
 31
0.0
  0
LINE
  5
7CE8
330
813F
100
AcDbEntity
  8
1
100
AcDbLine
 10
3379.266996014712
 20
2052.648447497555
 30
0.0
 11
3379.266996014712
 21
2072.648447497555
 31
0.0
  0
LINE
  5
7CE9
330
813F
100
AcDbEntity
  8
1
100
AcDbLine
 10
3093.266996014711
 20
2052.648447497555
 30
0.0
 11
3093.266996014719
 21
2677.648447497555
 31
0.0
  0
LINE
  5
7CEA
330
813F
100
AcDbEntity
  8
1
100
AcDbLine
 10
3379.266996014719
 20
2657.648447497555
 30
0.0
 11
3379.266996014719
 21
2677.648447497555
 31
0.0
  0
DIMENSION
  5
7CEB
330
813F
100
AcDbEntity
  8
3
100
AcDbDimension
  2
*D9
 10
4383.266996014715
 20
3348.462010291761
 30
0.0
 11
3933.266996014715
 21
3398.462010291761
 31
0.0
 12
88.99492208424636
 22
1889.054969276156
 32
0.0
 71
     5
 42
-1.0
  3
Standard
100
AcDbAlignedDimension
 13
3483.266996014716
 23
3156.857337159105
 33
0.0
 14
4383.266996014715
 24
3156.857323422096
 34
0.0
100
AcDbRotatedDimension
1001
ACAD
1000
DSTYLE
1002
{
1070
    40
1040
25.0
1002
}
  0
DIMENSION
  5
7CEF
330
813F
100
AcDbEntity
  8
3
100
AcDbDimension
  2
*D13
 10
4661.049130970137
 20
2772.648447497555
 30
0.0
 11
4611.049130970136
 21
2397.648447497555
 31
0.0
 12
88.99492208424636
 22
1889.054969276156
 32
0.0
  1
\U+03C6<>
 71
     5
 42
-1.0
  3
Standard
100
AcDbAlignedDimension
 13
4385.566996014715
 23
2022.648447497555
 33
0.0
 14
4385.566996014715
 24
2772.648447497555
 34
0.0
 50
90.0
100
AcDbRotatedDimension
1001
ACAD
1000
DSTYLE
1002
{
1070
    40
1040
25.0
1002
}
  0
DIMENSION
  5
7CF1
330
813F
100
AcDbEntity
  8
3
100
AcDbDimension
  2
*D15
 10
3121.609527454771
 20
4738.894181494287
 30
0.0
 11
3071.609527454771
 21
4403.894181494285
 31
0.0
 12
1052.674667944189
 22
1295.360870958946
 32
0.0
 71
     5
 42
-1.0
  3
Standard
100
AcDbAlignedDimension
 13
2820.739022619682
 23
4068.894181494284
 33
0.0
 14
2820.739022619682
 24
4738.894181494287
 34
0.0
 50
270.0
100
AcDbRotatedDimension
1001
ACAD
1000
DSTYLE
1002
{
1070
    40
1040
25.0
1002
}
  0
DIMENSION
  5
7CF2
330
813F
100
AcDbEntity
  8
3
100
AcDbDimension
  2
*D16
 10
1220.739022619682
 20
5525.526235898457
 30
0.0
 11
1670.739022619682
 21
5575.526235898458
 31
0.0
 12
1052.674667944189
 22
1295.360870958946
 32
0.0
 71
     5
 42
-1.0
  3
Standard
100
AcDbAlignedDimension
 13
2120.739022619682
 23
5223.894181494284
 33
0.0
 14
1220.739022619682
 24
5223.894181494284
 34
0.0
100
AcDbRotatedDimension
1001
ACAD
1000
DSTYLE
1002
{
1070
    40
1040
25.0
1002
}
  0
DIMENSION
  5
7CF3
330
813F
100
AcDbEntity
  8
3
100
AcDbDimension
  2
*D17
 10
2120.739022619682
 20
5525.526235898457
 30
0.0
 11
2470.739022619682
 21
5575.526235898458
 31
0.0
 12
1052.674667944189
 22
1295.360870958946
 32
0.0
 71
     5
 42
-1.0
  3
Standard
100
AcDbAlignedDimension
 13
2820.739022619682
 23
4738.894181494287
 33
0.0
 14
2120.739022619682
 24
5223.894181494284
 34
0.0
100
AcDbRotatedDimension
1001
ACAD
1000
DSTYLE
1002
{
1070
    40
1040
25.0
1002
}
  0
DIMENSION
  5
7CF4
330
813F
100
AcDbEntity
  8
3
100
AcDbDimension
  2
*D18
 10
919.3418144784244
 20
5223.894181494284
 30
0.0
 11
869.3418144784246
 21
4646.394181494282
 31
0.0
 12
1052.674667944189
 22
1295.360870958946
 32
0.0
 71
     5
 42
-1.0
  3
Standard
100
AcDbAlignedDimension
 13
1220.739022619682
 23
4068.894181494282
 33
0.0
 14
1220.739022619682
 24
5223.894181494284
 34
0.0
 50
270.0
100
AcDbRotatedDimension
1001
ACAD
1000
DSTYLE
1002
{
1070
    40
1040
25.0
1002
}
  0
LINE
  5
7CF5
330
813F
100
AcDbEntity
  8
1
100
AcDbLine
 10
3281.266996014715
 20
1852.648447497555
 30
0.0
 11
3281.266996014716
 21
1952.648447497555
 31
0.0
  0
DIMENSION
  5
7CF7
330
813F
100
AcDbEntity
  8
3
100
AcDbDimension
  2
*D19
 10
869.9852083343667
 20
1725.648447497555
 30
0.0
 11
807.4852083343664
 21
1511.362733211841
 31
0.0
 71
     5
 42
-1.0
  3
Standard
100
AcDbAlignedDimension
 13
1220.739022619682
 23
1825.648447497555
 33
0.0
 14
1220.739022619682
 24
1725.648447497555
 34
0.0
 50
270.0
100
AcDbRotatedDimension
1001
ACAD
1000
DSTYLE
1002
{
1070
   287
1070
     3
1070
   287
1070
     3
1070
    40
1040
25.0
1070
   143
1040
0.039
1070
   172
1070
     1
1070
   271
1070
     0
1070
   279
1070
     0
1070
   288
1070
     1
1070
     6
1000
DOT
1002
}
  0
DIMENSION
  5
7CF9
330
813F
100
AcDbEntity
  8
3
100
AcDbDimension
  2
*D21
 10
2820.739022619682
 20
3518.414466553581
 30
0.0
 11
1995.739022619681
 21
3568.41446655358
 31
0.0
 12
1052.674667944189
 22
1889.054969276156
 32
0.0
 71
     5
 42
-1.0
  3
Standard
100
AcDbAlignedDimension
 13
1170.739022619682
 23
3198.648447497554
 33
0.0
 14
2820.739022619682
 24
1952.648447497555
 34
0.0
100
AcDbRotatedDimension
1001
ACAD
1000
DSTYLE
1002
{
1070
    40
1040
25.0
1002
}
  0
LINE
  5
7CFA
330
813F
100
AcDbEntity
  8
1
100
AcDbLine
 10
1390.739022619682
 20
3880.894181494284
 30
0.0
 11
1390.739022619682
 21
4165.894181494286
 31
0.0
  0
LINE
  5
7CFB
330
813F
100
AcDbEntity
  8
1
100
AcDbLine
 10
2720.739022619682
 20
3880.894181494284
 30
0.0
 11
2720.739022619682
 21
4165.894181494286
 31
0.0
  0
LINE
  5
7CFC
330
813F
100
AcDbEntity
  8
1
100
AcDbLine
 10
1467.539022619681
 20
4015.894181494284
 30
0.0
 11
1467.539022619681
 21
4115.894181494286
 31
0.0
  0
LINE
  5
7CFD
330
813F
100
AcDbEntity
  8
1
100
AcDbLine
 10
1873.939022619682
 20
4015.894181494284
 30
0.0
 11
1873.939022619682
 21
4115.894181494286
 31
0.0
  0
LINE
  5
7CFE
330
813F
100
AcDbEntity
  8
1
100
AcDbLine
 10
2491.739022619682
 20
4015.894181494284
 30
0.0
 11
2491.739022619682
 21
4115.894181494286
 31
0.0
  0
LINE
  5
7CFF
330
813F
100
AcDbEntity
  8
1
100
AcDbLine
 10
2649.739022619682
 20
4015.894181494284
 30
0.0
 11
2649.739022619682
 21
4115.894181494286
 31
0.0
  0
LINE
  5
7D00
330
813F
100
AcDbEntity
  8
1
100
AcDbLine
 10
1390.739022619682
 20
3880.894181494284
 30
0.0
 11
2720.739022619682
 21
3880.894181494284
 31
0.0
  0
LINE
  5
7D01
330
813F
100
AcDbEntity
  8
1
100
AcDbLine
 10
1390.739022619681
 20
4165.894181494286
 30
0.0
 11
2720.739022619682
 21
4165.894181494286
 31
0.0
  0
LINE
  5
7D02
330
813F
100
AcDbEntity
  8
1
100
AcDbLine
 10
1467.539022619681
 20
4115.894181494286
 30
0.0
 11
1873.939022619682
 21
4115.894181494286
 31
0.0
  0
LINE
  5
7D03
330
813F
100
AcDbEntity
  8
1
100
AcDbLine
 10
1467.539022619681
 20
4015.894181494284
 30
0.0
 11
1873.939022619682
 21
4015.894181494284
 31
0.0
  0
LINE
  5
7D04
330
813F
100
AcDbEntity
  8
1
100
AcDbLine
 10
2491.739022619682
 20
4115.894181494286
 30
0.0
 11
2649.739022619682
 21
4115.894181494286
 31
0.0
  0
LINE
  5
7D05
330
813F
100
AcDbEntity
  8
1
100
AcDbLine
 10
2491.739022619682
 20
4015.894181494284
 30
0.0
 11
2649.739022619682
 21
4015.894181494284
 31
0.0
  0
LINE
  5
7D06
330
813F
100
AcDbEntity
  8
1
100
AcDbLine
 10
1170.739022619682
 20
4270.894181494282
 30
0.0
 11
2282.739022619682
 21
4270.894181494283
 31
0.0
  0
LINE
  5
7D07
330
813F
100
AcDbEntity
  8
1
100
AcDbLine
 10
1170.739022619682
 20
5170.894181494284
 30
0.0
 11
2282.739022619682
 21
5170.894181494285
 31
0.0
  0
LINE
  5
7D08
330
813F
100
AcDbEntity
  8
1
100
AcDbLine
 10
1170.739022619682
 20
5210.894181494284
 30
0.0
 11
1170.739022619682
 21
4230.894181494281
 31
0.0
  0
LINE
  5
7D09
330
813F
100
AcDbEntity
  8
1
100
AcDbLine
 10
2282.739022619682
 20
5170.894181494285
 30
0.0
 11
2282.739022619682
 21
4270.894181494283
 31
0.0
  0
LINE
  5
7D0A
330
813F
100
AcDbEntity
  8
1
100
AcDbLine
 10
1170.739022619682
 20
5210.894181494284
 30
0.0
 11
1173.739022619682
 21
5210.894181494284
 31
0.0
  0
LINE
  5
7D0B
330
813F
100
AcDbEntity
  8
1
100
AcDbLine
 10
1170.739022619682
 20
4230.894181494281
 30
0.0
 11
1173.739022619682
 21
4230.894181494281
 31
0.0
  0
LINE
  5
7D0C
330
813F
100
AcDbEntity
  8
1
100
AcDbLine
 10
1173.739022619682
 20
5210.894181494284
 30
0.0
 11
1173.739022619682
 21
4230.894181494281
 31
0.0
  0
LINE
  5
7D0D
330
813F
100
AcDbEntity
  8
1
100
AcDbLine
 10
1645.739022619682
 20
4270.894181494282
 30
0.0
 11
1645.739022619682
 21
4115.894181494286
 31
0.0
  0
LINE
  5
7D0E
330
813F
100
AcDbEntity
  8
1
100
AcDbLine
 10
1695.739022619681
 20
4270.894181494283
 30
0.0
 11
1695.739022619681
 21
4115.894181494286
 31
0.0
  0
LINE
  5
7D12
330
813F
100
AcDbEntity
  8
1
100
AcDbLine
 10
2408.739022619682
 20
4133.894181494286
 30
0.0
 11
2408.739022619682
 21
4618.894181494283
 31
0.0
  0
LINE
  5
7D13
330
813F
100
AcDbEntity
  8
1
100
AcDbLine
 10
2732.739022619683
 20
4133.894181494286
 30
0.0
 11
2732.739022619683
 21
4618.894181494283
 31
0.0
  0
LINE
  5
7D14
330
813F
100
AcDbEntity
  8
1
100
AcDbLine
 10
2408.739022619682
 20
4618.894181494283
 30
0.0
 11
2732.739022619683
 21
4618.894181494283
 31
0.0
  0
LINE
  5
7D15
330
813F
100
AcDbEntity
  8
1
100
AcDbLine
 10
2408.739022619682
 20
4133.894181494286
 30
0.0
 11
2732.739022619683
 21
4133.894181494286
 31
0.0
  0
LINE
  5
7D16
330
813F
100
AcDbEntity
  8
1
100
AcDbLine
 10
2549.739022619682
 20
4133.894181494286
 30
0.0
 11
2549.739022619682
 21
4115.894181494286
 31
0.0
  0
LINE
  5
7D17
330
813F
100
AcDbEntity
  8
1
100
AcDbLine
 10
2591.739022619683
 20
4133.894181494286
 30
0.0
 11
2591.739022619683
 21
4115.894181494286
 31
0.0
  0
LINE
  5
7D18
330
813F
100
AcDbEntity
  8
1
100
AcDbLine
 10
3347.266996014713
 20
2364.648447497559
 30
0.0
 11
3832.266996014713
 21
2364.648447497559
 31
0.0
  0
LINE
  5
7D19
330
813F
100
AcDbEntity
  8
1
100
AcDbLine
 10
3347.266996014713
 20
2040.648447497558
 30
0.0
 11
3832.266996014712
 21
2040.648447497558
 31
0.0
  0
LINE
  5
7D1A
330
813F
100
AcDbEntity
  8
1
100
AcDbLine
 10
3347.266996014713
 20
2040.648447497558
 30
0.0
 11
3347.266996014713
 21
2364.648447497559
 31
0.0
  0
LINE
  5
7D1B
330
813F
100
AcDbEntity
  8
1
100
AcDbLine
 10
3347.266996014712
 20
2181.648447497557
 30
0.0
 11
3329.266996014712
 21
2181.648447497557
 31
0.0
  0
LINE
  5
7D1C
330
813F
100
AcDbEntity
  8
1
100
AcDbLine
 10
3347.266996014712
 20
2223.648447497557
 30
0.0
 11
3329.266996014712
 21
2223.648447497557
 31
0.0
  0
LINE
  5
7D1D
330
813F
100
AcDbEntity
  8
1
100
AcDbLine
 10
3470.766996014714
 20
2364.648447497559
 30
0.0
 11
3483.266996014715
 21
2364.648447497559
 31
0.0
  0
LINE
  5
7D24
330
813F
100
AcDbEntity
  8
1
100
AcDbLine
 10
4436.266996014714
 20
1852.648447497555
 30
0.0
 11
4436.266996014714
 21
1952.648447497555
 31
0.0
  0
LINE
  5
7D25
330
813F
100
AcDbEntity
  8
1
100
AcDbLine
 10
1220.739022619682
 20
4270.894181494282
 30
0.0
 11
1220.739022619682
 21
4068.894181494284
 31
0.0
  0
LINE
  5
7D26
330
813F
100
AcDbEntity
  8
1
100
AcDbLine
 10
3832.266996014712
 20
2040.648447497558
 30
0.0
 11
3832.266996014712
 21
2364.648447497559
 31
0.0
  0
LINE
  5
7D27
330
813F
100
AcDbEntity
  8
1
100
AcDbLine
 10
3483.266996014716
 20
2364.648447497559
 30
0.0
 11
3483.266996014716
 21
2397.648447497555
 31
0.0
  0
LINE
  5
7D28
330
813F
100
AcDbEntity
  8
1
100
AcDbLine
 10
3413.875671079507
 20
1992.648447497553
 30
0.0
 11
3757.863845874028
 21
1992.648447497553
 31
0.0
  0
LINE
  5
7D29
330
813F
100
AcDbEntity
  8
1
100
AcDbLine
 10
3757.863845874028
 20
2040.648447497558
 30
0.0
 11
3757.863845874028
 21
1952.648447497555
 31
0.0
  0
LINE
  5
7D2A
330
813F
100
AcDbEntity
  8
1
100
AcDbLine
 10
3413.875671079505
 20
2040.648447497558
 30
0.0
 11
3413.875671079505
 21
1952.648447497555
 31
0.0
  0
LINE
  5
7F66
330
813F
100
AcDbEntity
  8
4
100
AcDbLine
 10
4625.0
 20
1250.0
 30
0.0
 11
4625.0
 21
750.0
 31
0.0
  0
LINE
  5
7F67
330
813F
100
AcDbEntity
  8
4
100
AcDbLine
 10
2875.0
 20
1250.0
 30
0.0
 11
2875.0
 21
750.0
 31
0.0
  0
LINE
  5
7F68
330
813F
100
AcDbEntity
  8
4
100
AcDbLine
 10
1625.0
 20
1250.0
 30
0.0
 11
1625.0
 21
750.0
 31
0.0
  0
LINE
  5
7F6B
330
813F
100
AcDbEntity
  8
4
100
AcDbLine
 10
1625.0
 20
750.0
 30
0.0
 11
4625.0
 21
750.0
 31
0.0
  0
LINE
  5
7F6C
330
813F
100
AcDbEntity
  8
4
100
AcDbLine
 10
1625.0
 20
1000.0
 30
0.0
 11
4625.0
 21
1000.0
 31
0.0
  0
TEXT
  5
7F6D
330
813F
100
AcDbEntity
  8
4
100
AcDbText
 10
1721.255202117253
 20
1078.857564666532
 30
0.0
 40
125.0
  1
機器名称
100
AcDbText
  0
TEXT
  5
7F6E
330
813F
100
AcDbEntity
  8
4
100
AcDbText
 10
1715.645265061993
 20
804.1128918300273
 30
0.0
 40
125.0
  1
機器型番
100
AcDbText
  0
TEXT
  5
7F6F
330
813F
100
AcDbEntity
  8
4
100
AcDbText
 10
2944.196863719162
 20
1056.429422393921
 30
0.0
 40
125.0
  1
ミツヤ多翼送風機
100
AcDbText
  0
TEXT
  5
7F70
330
813F
100
AcDbEntity
  8
4
100
AcDbText
 10
2966.636238963701
 20
792.8989606998584
 30
0.0
 40
125.0
  1
MF#4 1/2-5
100
AcDbText
  0
TEXT
  5
7F72
330
813F
100
AcDbEntity
  8
4
100
AcDbText
 10
1958.339281192402
 20
5958.572103331289
 30
0.0
 40
135.0
  1
床置防振ベット
100
AcDbText
  0
TEXT
  5
7F73
330
813F
100
AcDbEntity
  8
4
100
AcDbText
 10
790.4189833236158
 20
6334.702440498245
 30
0.0
 40
180.0
  1
遠心式両吸込両持多翼ファン
100
AcDbText
  0
LINE
  5
7F74
330
813F
100
AcDbEntity
  8
4
100
AcDbLine
 10
625.0
 20
6173.521885662012
 30
0.0
 11
4625.0
 21
6173.521885662012
 31
0.0
  0
LINE
  5
7F75
330
813F
100
AcDbEntity
  8
4
100
AcDbLine
 10
625.0
 20
6673.521885662011
 30
0.0
 11
4625.0
 21
6673.521885662011
 31
0.0
  0
LINE
  5
7F76
330
813F
100
AcDbEntity
  8
4
100
AcDbLine
 10
1625.0
 20
1250.0
 30
0.0
 11
4625.0
 21
1250.0
 31
0.0
  0
LINE
  5
7F77
330
813F
100
AcDbEntity
  8
4
100
AcDbLine
 10
625.0
 20
6673.521885662011
 30
0.0
 11
625.0
 21
6173.521885662012
 31
0.0
  0
TEXT
  5
7F78
330
813F
100
AcDbEntity
  8
4
100
AcDbText
 10
868.6922005856468
 20
5955.798693865858
 30
0.0
 40
135.0
  1
左回転左横向
100
AcDbText
  0
TEXT
  5
7F79
330
813F
100
AcDbEntity
  8
4
100
AcDbText
 10
3672.423898123224
 20
6765.15270373827
 30
0.0
 40
140.0
  1
No.
100
AcDbText
  0
TEXT
  5
7F7A
330
813F
100
AcDbEntity
  8
4
100
AcDbText
 10
3278.240156500032
 20
5958.572103331289
 30
0.0
 40
135.0
  1
縮尺：1/25
100
AcDbText
  0
LINE
  5
7F7B
330
813F
100
AcDbEntity
  8
4
100
AcDbLine
 10
4625.0
 20
6673.521885662011
 30
0.0
 11
4625.0
 21
6173.521885662012
 31
0.0
  0
LINE
  5
7F7C
330
813F
100
AcDbEntity
  8
4
100
AcDbLine
 10
5250.0
 20
7375.0
 30
0.0
 11
5250.0
 21
7375.0
 31
0.0
  0
LINE
  5
7F7D
330
813F
100
AcDbEntity
  8
4
100
AcDbLine
 10
3601.543555899662
 20
6703.158957813504
 30
0.0
 11
3601.543555899662
 21
6966.630653874381
 31
0.0
  0
LINE
  5
7F7E
330
813F
100
AcDbEntity
  8
4
100
AcDbLine
 10
3601.543555899662
 20
6966.630653874381
 30
0.0
 11
4625.0
 21
6966.630653874381
 31
0.0
  0
LINE
  5
7F7F
330
813F
100
AcDbEntity
  8
4
100
AcDbLine
 10
4625.0
 20
6966.630653874381
 30
0.0
 11
4625.0
 21
6703.158957813504
 31
0.0
  0
LINE
  5
7F80
330
813F
100
AcDbEntity
  8
4
100
AcDbLine
 10
4625.0
 20
6703.158957813504
 30
0.0
 11
3601.543555899662
 21
6703.158957813504
 31
0.0
  0
LINE
  5
7F81
330
813F
100
AcDbEntity
  8
4
100
AcDbLine
 10
0.0
 20
0.0
 30
0.0
 11
0.0
 21
7375.0
 31
0.0
  0
LINE
  5
7F82
330
813F
100
AcDbEntity
  8
4
100
AcDbLine
 10
0.0
 20
7375.0
 30
0.0
 11
5250.0
 21
7375.0
 31
0.0
  0
LINE
  5
7F83
330
813F
100
AcDbEntity
  8
4
100
AcDbLine
 10
5250.0
 20
7375.0
 30
0.0
 11
5250.0
 21
0.0
 31
0.0
  0
LINE
  5
7F84
330
813F
100
AcDbEntity
  8
4
100
AcDbLine
 10
5250.0
 20
0.0
 30
0.0
 11
0.0
 21
0.0
 31
0.0
  0
DIMENSION
  5
8021
330
813F
100
AcDbEntity
  8
3
100
AcDbDimension
  2
*D22
 10
1670.739022619682
 20
1541.992421795832
 30
0.0
 11
1445.739022619682
 21
1604.492421795832
 31
0.0
 71
     5
 42
-1.0
  3
Standard
100
AcDbAlignedDimension
 13
1220.739022619682
 23
1725.648447497555
 33
0.0
 14
1670.739022619682
 24
1725.648447497555
 34
0.0
100
AcDbRotatedDimension
1001
ACAD
1000
DSTYLE
1002
{
1070
   172
1070
     1
1070
    40
1040
25.0
1070
    42
1040
1.0
1070
   271
1070
     0
1070
   143
1040
0.039
1002
}
  0
DIMENSION
  5
802E
330
813F
100
AcDbEntity
  8
3
100
AcDbDimension
  2
*D23
 10
2820.739022619682
 20
1541.992421795832
 30
0.0
 11
2245.739022619682
 21
1604.492421795832
 31
0.0
 71
     5
 42
-1.0
  3
Standard
100
AcDbAlignedDimension
 13
1670.739022619682
 23
1725.648447497555
 33
0.0
 14
2820.739022619682
 24
1725.648447497555
 34
0.0
100
AcDbRotatedDimension
1001
ACAD
1000
DSTYLE
1002
{
1070
   172
1070
     1
1070
    40
1040
25.0
1070
    42
1040
1.0
1070
   271
1070
     0
1070
   143
1040
0.039
1002
}
  0
DIMENSION
  5
803B
330
813F
100
AcDbEntity
  8
3
100
AcDbDimension
  2
*D24
 10
3933.266996014717
 20
1541.992421795832
 30
0.0
 11
3607.266996014717
 21
1604.492421795832
 31
0.0
 71
     5
 42
-1.0
  3
Standard
100
AcDbAlignedDimension
 13
3281.266996014716
 23
1725.648447497555
 33
0.0
 14
3933.266996014717
 24
1725.648447497555
 34
0.0
100
AcDbRotatedDimension
1001
ACAD
1000
DSTYLE
1002
{
1070
   172
1070
     1
1070
    40
1040
25.0
1070
    42
1040
1.0
1070
   271
1070
     0
1070
   143
1040
0.039
1002
}
  0
DIMENSION
  5
8048
330
813F
100
AcDbEntity
  8
3
100
AcDbDimension
  2
*D25
 10
4436.266996014715
 20
1541.992421795832
 30
0.0
 11
4184.766996014717
 21
1604.492421795832
 31
0.0
 71
     5
 42
-1.0
  3
Standard
100
AcDbAlignedDimension
 13
3933.266996014717
 23
1725.648447497555
 33
0.0
 14
4436.266996014715
 24
1725.648447497555
 34
0.0
100
AcDbRotatedDimension
1001
ACAD
1000
DSTYLE
1002
{
1070
   172
1070
     1
1070
    40
1040
25.0
1070
    42
1040
1.0
1070
   271
1070
     0
1070
   143
1040
0.039
1002
}
  0
DIMENSION
  5
8057
330
813F
100
AcDbEntity
  8
3
100
AcDbDimension
  2
*D27
 10
871.0468023388273
 20
1852.648447497555
 30
0.0
 11
751.4039451959703
 21
1839.148447497555
 31
0.0
 71
     5
 42
-1.0
  3
Standard
100
AcDbAlignedDimension
 13
1220.739022619682
 23
1825.648447497555
 33
0.0
 14
1220.739022619682
 24
1852.648447497555
 34
0.0
 50
90.0
100
AcDbRotatedDimension
1001
ACAD
1000
DSTYLE
1002
{
1070
   172
1070
     1
1070
    76
1070
     1
1070
    75
1070
     1
1070
    40
1040
25.0
1070
     3
1000
(<>)
1070
    42
1040
1.0
1070
   271
1070
     0
1070
     7
1000
_NONE
1070
     6
1000
_NONE
1070
   143
1040
0.039
1002
}
  0
DIMENSION
  5
8064
330
813F
100
AcDbEntity
  8
3
100
AcDbDimension
  2
*D28
 10
646.626464644225
 20
3156.648447497555
 30
0.0
 11
564.483607501368
 21
2441.148447497555
 31
0.0
 71
     5
 42
-1.0
  3
Standard
100
AcDbAlignedDimension
 13
1220.739022619682
 23
1725.648447497555
 33
0.0
 14
1170.739022619682
 24
3156.648447497555
 34
0.0
 50
90.0
100
AcDbRotatedDimension
1001
ACAD
1000
DSTYLE
1002
{
1070
   172
1070
     1
1070
    40
1040
25.0
1070
     3
1000
(<>)
1070
    42
1040
1.0
1070
   271
1070
     0
1070
   143
1040
0.039
1002
}
  0
LINE
  5
81FD
330
813F
100
AcDbEntity
  8
1
100
AcDbLine
 10
1173.739022619682
 20
3156.289937874375
 30
0.0
 11
1700.648259775624
 21
3093.322593853404
 31
0.0
  0
ARC
  5
81FE
330
813F
100
AcDbEntity
  8
1
100
AcDbCircle
 10
1617.73902261968
 20
2450.648447497555
 30
0.0
 40
648.0
100
AcDbArc
 50
0.0
 51
82.64906398247021
  0
ARC
  5
81FF
330
813F
100
AcDbEntity
  8
1
100
AcDbCircle
 10
1723.73902261968
 20
2450.648447497555
 30
0.0
 40
541.9999999999998
100
AcDbArc
 50
293.245938743557
 51
0.0
  0
ARC
  5
8200
330
813F
100
AcDbEntity
  8
1
100
AcDbCircle
 10
1711.73902261968
 20
2356.648447497555
 30
0.0
 40
448.0
100
AcDbArc
 50
180.0
 51
244.3937932836091
  0
ARC
  5
8201
330
813F
100
AcDbEntity
  8
1
100
AcDbCircle
 10
1629.73902261968
 20
2356.648447497555
 30
0.0
 40
366.0
100
AcDbArc
 50
168.973859518714
 51
180.0
  0
LINE
  5
8202
330
813F
100
AcDbEntity
  8
1
100
AcDbLine
 10
1170.73902261968
 20
2426.648447497556
 30
0.0
 11
1270.495372710597
 21
2426.648447497556
 31
0.0
  0
LINE
  5
8203
330
813F
100
AcDbEntity
  8
1
100
AcDbLine
 10
1170.739022619682
 20
3198.648447497555
 30
0.0
 11
1170.73902261968
 21
2384.648447497555
 31
0.0
  0
LINE
  5
8204
330
813F
100
AcDbEntity
  8
1
100
AcDbLine
 10
1170.739022619682
 20
3198.648447497555
 30
0.0
 11
1173.739022619682
 21
3198.648447497555
 31
0.0
  0
LINE
  5
8205
330
813F
100
AcDbEntity
  8
1
100
AcDbLine
 10
1170.73902261968
 20
2384.648447497555
 30
0.0
 11
1173.739022619682
 21
2384.648447497555
 31
0.0
  0
LINE
  5
8206
330
813F
100
AcDbEntity
  8
1
100
AcDbLine
 10
1210.739022619682
 20
3153.199215924951
 30
0.0
 11
1210.739022619682
 21
2426.648447497556
 31
0.0
  0
LINE
  5
8207
330
813F
100
AcDbEntity
  8
1
100
AcDbLine
 10
1173.739022619682
 20
3198.648447497555
 30
0.0
 11
1173.739022619682
 21
2384.648447497555
 31
0.0
  0
POINT
  5
8208
330
813F
100
AcDbEntity
  8
1
100
AcDbPoint
 10
1210.556450155231
 20
2397.648447497555
 30
0.0
  0
LINE
  5
8209
330
813F
100
AcDbEntity
  8
1
100
AcDbLine
 10
1167.257216987189
 20
2397.648447497555
 30
0.0
 11
1151.583911570873
 21
2397.648447497555
 31
0.0
  0
CIRCLE
  5
820A
330
813F
100
AcDbEntity
  8
1
100
AcDbCircle
 10
1670.739022619682
 20
2397.648447497555
 30
0.0
 40
375.0
  0
CIRCLE
  5
820B
330
813F
100
AcDbEntity
  8
1
100
AcDbCircle
 10
1670.739022619682
 20
2397.648447497555
 30
0.0
 40
415.0
  0
DIMENSION
  5
820C
330
813F
100
AcDbEntity
  8
3
100
AcDbDimension
  2
*D30
 10
3933.266996014717
 20
3520.904341838777
 30
0.0
 11
3513.266996014718
 21
3603.047198981635
 31
0.0
 70
    32
 71
     5
 42
839.9999999999977
  3
IGA
100
AcDbAlignedDimension
 13
3093.266996014719
 23
2677.648447497555
 33
0.0
 14
3933.266996014717
 24
3435.962010291761
 34
0.0
100
AcDbRotatedDimension
1001
ACAD
1000
DSTYLE
1002
{
1070
     3
1000
(<>)
1070
    40
1040
25.0
1070
    42
1040
1.0
1070
   143
1040
0.039
1070
   172
1070
     1
1070
   271
1070
     4
1070
   272
1070
     4
1070
   279
1070
     0
1070
   284
1070
     0
1070
   285
1070
     0
1070
   286
1070
     0
1070
   341
1005
8153
1070
   343
1005
8153
1070
   344
1005
8153
1002
}
  0
DIMENSION
  5
8219
330
813F
100
AcDbEntity
  8
3
100
AcDbDimension
  2
*D31
 10
4493.266996014716
 20
3520.904341838777
 30
0.0
 11
4213.266996014715
 21
3603.047198981635
 31
0.0
 70
    32
 71
     5
 42
559.999999999999
  3
IGA
100
AcDbAlignedDimension
 13
3933.266996014717
 23
3435.962010291761
 33
0.0
 14
4493.266996014716
 24
2372.448447497554
 34
0.0
100
AcDbRotatedDimension
1001
ACAD
1000
DSTYLE
1002
{
1070
     3
1000
(<>)
1070
    40
1040
25.0
1070
    42
1040
1.0
1070
   143
1040
0.039
1070
   172
1070
     1
1070
   271
1070
     4
1070
   272
1070
     4
1070
   279
1070
     1
1070
   284
1070
     0
1070
   285
1070
     0
1070
   286
1070
     0
1070
   341
1005
8153
1070
   343
1005
8153
1070
   344
1005
8153
1002
}
  0
DIMENSION
  5
824D
330
813F
100
AcDbEntity
  8
3
100
AcDbDimension
  2
*D32
 10
2820.739022619682
 20
3726.637517748135
 30
0.0
 11
2020.739022619682
 21
3789.137517748135
 31
0.0
 70
    32
 71
     5
 42
1600.0
  3
IGA
100
AcDbAlignedDimension
 13
1220.739022619682
 23
4068.894181494282
 33
0.0
 14
2820.739022619682
 24
4068.894181494284
 34
0.0
100
AcDbRotatedDimension
1001
ACAD
1000
DSTYLE
1002
{
1070
    40
1040
25.0
1070
    42
1040
1.0
1070
   143
1040
0.039
1070
   172
1070
     1
1070
   271
1070
     4
1070
   272
1070
     4
1070
   279
1070
     0
1070
   284
1070
     0
1070
   285
1070
     0
1070
   286
1070
     0
1070
   341
1005
8153
1070
   343
1005
8153
1070
   344
1005
8153
1002
}
  0
DIMENSION
  5
825A
330
813F
100
AcDbEntity
  8
3
100
AcDbDimension
  2
*D33
 10
2265.73902261968
 20
3349.628979678586
 30
0.0
 11
1968.239022619681
 21
3412.128979678586
 31
0.0
 70
    32
 71
     5
 42
594.9999999999984
  3
IGA
100
AcDbAlignedDimension
 13
1670.739022619682
 23
3227.699731954696
 33
0.0
 14
2265.73902261968
 24
2450.648447497555
 34
0.0
100
AcDbRotatedDimension
1001
ACAD
1000
DSTYLE
1002
{
1070
    40
1040
25.0
1070
    42
1040
1.0
1070
   143
1040
0.039
1070
   172
1070
     1
1070
   271
1070
     4
1070
   272
1070
     4
1070
   279
1070
     0
1070
   284
1070
     0
1070
   285
1070
     0
1070
   286
1070
     0
1070
   341
1005
8153
1070
   343
1005
8153
1070
   344
1005
8153
1002
}
  0
ENDSEC
  0
SECTION
  2
OBJECTS
  0
DICTIONARY
  5
80DC
330
0
100
AcDbDictionary
281
     1
  3
ACAD_CIP_PREVIOUS_PRODUCT_INFO
350
8189
  3
ACAD_COLOR
350
8132
  3
ACAD_DETAILVIEWSTYLE
350
8139
  3
ACAD_GROUP
350
80DD
  3
ACAD_LAYOUT
350
8131
  3
ACAD_MATERIAL
350
80E0
  3
ACAD_MLEADERSTYLE
350
8135
  3
ACAD_MLINESTYLE
350
812E
  3
ACAD_PLOTSETTINGS
350
8130
  3
ACAD_PLOTSTYLENAME
350
80DE
  3
ACAD_SCALELIST
350
8112
  3
ACAD_SECTIONVIEWSTYLE
350
8137
  3
ACAD_TABLESTYLE
350
8133
  3
ACAD_VISUALSTYLE
350
80F9
  3
ACDB_RECOMPOSE_DATA
350
82B3
  3
AcDbVariableDictionary
350
8194
  3
DWGPROPS
350
82B4
  0
DICTIONARY
  5
81E0
330
80D2
100
AcDbDictionary
280
     1
281
     1
  3
ACAD_LAYERSTATES
360
81E1
  0
DICTIONARY
  5
818A
330
8124
100
AcDbDictionary
280
     1
281
     1
  3
ADSK_XREC_LAYER_RECONCILED
360
818B
  0
DICTIONARY
  5
818C
330
8143
100
AcDbDictionary
280
     1
281
     1
  3
ADSK_XREC_LAYER_RECONCILED
360
818D
  0
DICTIONARY
  5
818E
330
8146
100
AcDbDictionary
280
     1
281
     1
  3
ADSK_XREC_LAYER_RECONCILED
360
818F
  0
DICTIONARY
  5
8190
330
8147
100
AcDbDictionary
280
     1
281
     1
  3
ADSK_XREC_LAYER_RECONCILED
360
8191
  0
DICTIONARY
  5
8192
330
8148
100
AcDbDictionary
280
     1
281
     1
  3
ADSK_XREC_LAYER_RECONCILED
360
8193
  0
XRECORD
  5
8189
102
{ACAD_REACTORS
330
80DC
102
}
330
80DC
100
AcDbXrecord
280
     1
300
ACDLT
300
2015
300
INVLTS_F_S
  0
DICTIONARY
  5
8132
102
{ACAD_REACTORS
330
80DC
102
}
330
80DC
100
AcDbDictionary
281
     1
  0
DICTIONARY
  5
8139
102
{ACAD_REACTORS
330
80DC
102
}
330
80DC
100
AcDbDictionary
281
     1
  3
Imperial24
350
813A
  0
DICTIONARY
  5
80DD
102
{ACAD_REACTORS
330
80DC
102
}
330
80DC
100
AcDbDictionary
281
     1
  0
DICTIONARY
  5
8131
102
{ACAD_REACTORS
330
80DC
102
}
330
80DC
100
AcDbDictionary
281
     1
  3
Model
350
8142
  3
レイアウト1
350
813E
  0
DICTIONARY
  5
80E0
102
{ACAD_REACTORS
330
80DC
102
}
330
80DC
100
AcDbDictionary
281
     1
  3
ByBlock
350
80E9
  3
ByLayer
350
80E1
  3
Global
350
80F1
  0
DICTIONARY
  5
8135
102
{ACAD_REACTORS
330
80DC
102
}
330
80DC
100
AcDbDictionary
281
     1
  3
Standard
350
8136
  0
DICTIONARY
  5
812E
102
{ACAD_REACTORS
330
80DC
102
}
330
80DC
100
AcDbDictionary
281
     1
  3
Standard
350
812F
  0
DICTIONARY
  5
8130
102
{ACAD_REACTORS
330
80DC
102
}
330
80DC
100
AcDbDictionary
281
     1
  0
ACDBDICTIONARYWDFLT
  5
80DE
102
{ACAD_REACTORS
330
80DC
102
}
330
80DC
100
AcDbDictionary
281
     1
  3
Normal
350
80DF
100
AcDbDictionaryWithDefault
340
80DF
  0
DICTIONARY
  5
8112
102
{ACAD_REACTORS
330
80DC
102
}
330
80DC
100
AcDbDictionary
281
     1
  3
A0
350
8113
  3
A1
350
8114
  3
A2
350
8115
  3
A3
350
8116
  3
A4
350
8117
  3
A5
350
8118
  3
A6
350
8119
  3
A7
350
811A
  3
A8
350
811B
  3
A9
350
811C
  3
B0
350
811D
  3
B1
350
811E
  3
B2
350
811F
  3
B3
350
8120
  3
B4
350
8121
  3
B5
350
8122
  3
B6
350
8123
  0
DICTIONARY
  5
8137
102
{ACAD_REACTORS
330
80DC
102
}
330
80DC
100
AcDbDictionary
281
     1
  3
Imperial24
350
8138
  0
DICTIONARY
  5
8133
102
{ACAD_REACTORS
330
80DC
102
}
330
80DC
100
AcDbDictionary
281
     1
  3
Standard
350
8134
  0
DICTIONARY
  5
80F9
102
{ACAD_REACTORS
330
80DC
102
}
330
80DC
100
AcDbDictionary
281
     1
  3
2dWireframe
350
80FF
  3
Basic
350
80FE
  3
Brighten
350
8105
  3
ColorChange
350
8109
  3
Conceptual
350
8102
  3
Dim
350
8104
  3
EdgeColorOff
350
8111
  3
Facepattern
350
8108
  3
Flat
350
80FA
  3
FlatWithEdges
350
80FB
  3
Gouraud
350
80FC
  3
GouraudWithEdges
350
80FD
  3
Hidden
350
8101
  3
JitterOff
350
810F
  3
Linepattern
350
8107
  3
OverhangOff
350
8110
  3
Realistic
350
8103
  3
Shaded
350
810E
  3
Shaded with edges
350
810D
  3
Shades of Gray
350
810A
  3
Sketchy
350
810B
  3
Thicken
350
8106
  3
Wireframe
350
8100
  3
X-Ray
350
810C
  0
XRECORD
  5
82B3
102
{ACAD_REACTORS
330
80DC
102
}
330
80DC
100
AcDbXrecord
280
     1
 90
        1
330
8134
  0
DICTIONARY
  5
8194
102
{ACAD_REACTORS
330
80DC
102
}
330
80DC
100
AcDbDictionary
281
     1
  3
CANNOSCALE
350
8199
  3
CMLEADERSTYLE
350
8196
  3
CTABLESTYLE
350
8195
  3
CVIEWDETAILSTYLE
350
8197
  3
CVIEWSECTIONSTYLE
350
8198
  3
DIMASSOC
350
819C
  3
INDEXCTL
350
819B
  3
SORTENTS
350
819A
  3
XCLIPFRAME
350
819D
  0
XRECORD
  5
82B4
102
{ACAD_REACTORS
330
80DC
102
}
330
80DC
100
AcDbXrecord
280
     1
  1
DWGPROPS COOKIE
  2

  3

  4

  6

  7

  8
yasukiyo.ogawa
  9

300
=
301
=
302
=
303
=
304
=
305
=
306
=
307
=
308
=
309
=
 40
0.0660837268518519
 41
2451387.606533102
 42
2460263.70431493
  1

 90
        0
  0
DICTIONARY
  5
81E1
102
{ACAD_REACTORS
330
81E0
102
}
330
81E0
100
AcDbDictionary
281
     1
  0
XRECORD
  5
818B
102
{ACAD_REACTORS
330
818A
102
}
330
818A
100
AcDbXrecord
280
     1
290
     1
  0
XRECORD
  5
818D
102
{ACAD_REACTORS
330
818C
102
}
330
818C
100
AcDbXrecord
280
     1
290
     1
  0
XRECORD
  5
818F
102
{ACAD_REACTORS
330
818E
102
}
330
818E
100
AcDbXrecord
280
     1
290
     1
  0
XRECORD
  5
8191
102
{ACAD_REACTORS
330
8190
102
}
330
8190
100
AcDbXrecord
280
     1
290
     1
  0
XRECORD
  5
8193
102
{ACAD_REACTORS
330
8192
102
}
330
8192
100
AcDbXrecord
280
     1
290
     1
  0
ACDBDETAILVIEWSTYLE
  5
813A
102
{ACAD_XDICTIONARY
360
82EC
102
}
102
{ACAD_REACTORS
330
8139
102
}
330
8139
100
AcDbModelDocViewStyle
 70
     0
  3
Imperial24
290
     0
100
AcDbDetailViewStyle
 70
     0
 71
     0
 90
        3
 71
     1
340
8125
 40
0.24
340
0
 40
0.24
300

 40
0.36
280
     3
 71
     2
340
812C
 90
       25
 71
     3
340
8125
 40
0.24
 90
        1
 40
0.75
 90
        1
300
%<\AcVar ViewType \f "%tc1">% %<\AcVar ViewDetailId>%\PSCALE %<\AcVar ViewScale \f "%sn">%
 71
     4
340
812C
 90
       25
340
812C
 90
       25
280
     0
  0
LAYOUT
  5
8142
102
{ACAD_XDICTIONARY
360
82F0
102
}
102
{ACAD_REACTORS
330
8131
102
}
330
8131
100
AcDbPlotSettings
  1

  2
RICOH imagio MP W3600 RPCS
  4

  6

 40
0.0
 41
0.0
 42
0.0
 43
0.0
 44
0.0
 45
0.0
 46
0.0
 47
0.0
 48
0.0
 49
0.0
140
0.0
141
0.0
142
1.0
143
1.0
 70
  1712
 72
     0
 73
     0
 74
     0
  7

 75
     0
147
1.0
148
0.0
149
0.0
100
AcDbLayout
  1
Model
 70
     1
 71
     0
 10
0.0
 20
0.0
 11
12.0
 21
9.0
 12
0.0
 22
0.0
 32
0.0
 14
0.0
 24
0.0
 34
0.0
 15
0.0
 25
0.0
 35
0.0
146
0.0
 13
0.0
 23
0.0
 33
0.0
 16
1.0
 26
0.0
 36
0.0
 17
0.0
 27
1.0
 37
0.0
 76
     0
330
813F
331
8144
  0
LAYOUT
  5
813E
102
{ACAD_XDICTIONARY
360
82EE
102
}
102
{ACAD_REACTORS
330
8131
102
}
330
8131
100
AcDbPlotSettings
  1

  2
RICOH imagio MP W3600 RPCS
  4

  6

 40
0.0
 41
0.0
 42
0.0
 43
0.0
 44
0.0
 45
0.0
 46
0.0
 47
0.0
 48
0.0
 49
0.0
140
0.0
141
0.0
142
1.0
143
1.0
 70
   688
 72
     0
 73
     0
 74
     5
  7

 75
    16
147
1.0
148
0.0
149
0.0
100
AcDbLayout
  1
レイアウト1
 70
     1
 71
     1
 10
0.0
 20
0.0
 11
12.0
 21
9.0
 12
0.0
 22
0.0
 32
0.0
 14
1.000000000000000E+20
 24
1.000000000000000E+20
 34
1.000000000000000E+20
 15
-1.000000000000000E+20
 25
-1.000000000000000E+20
 35
-1.000000000000000E+20
146
0.0
 13
0.0
 23
0.0
 33
0.0
 16
1.0
 26
0.0
 36
0.0
 17
0.0
 27
1.0
 37
0.0
 76
     0
330
813B
  0
MATERIAL
  5
80E9
102
{ACAD_XDICTIONARY
360
80EA
102
}
102
{ACAD_REACTORS
330
80E0
102
}
330
80E0
100
AcDbMaterial
  1
ByBlock
 72
     0
 43
0.0208333333333333
 43
0.0
 43
0.0
 43
0.0
 43
0.0
 43
0.0208333333333333
 43
0.0
 43
0.0
 43
0.0
 43
0.0
 43
1.0
 43
0.0
 43
0.0
 43
0.0
 43
0.0
 43
1.0
 77
     0
 47
0.0208333333333333
 47
0.0
 47
0.0
 47
0.0
 47
0.0
 47
0.0208333333333333
 47
0.0
 47
0.0
 47
0.0
 47
0.0
 47
1.0
 47
0.0
 47
0.0
 47
0.0
 47
0.0
 47
1.0
171
     0
 49
0.0208333333333333
 49
0.0
 49
0.0
 49
0.0
 49
0.0
 49
0.0208333333333333
 49
0.0
 49
0.0
 49
0.0
 49
0.0
 49
1.0
 49
0.0
 49
0.0
 49
0.0
 49
0.0
 49
1.0
175
     0
142
0.0208333333333333
142
0.0
142
0.0
142
0.0
142
0.0
142
0.0208333333333333
142
0.0
142
0.0
142
0.0
142
0.0
142
1.0
142
0.0
142
0.0
142
0.0
142
0.0
142
1.0
179
     0
144
0.0208333333333333
144
0.0
144
0.0
144
0.0
144
0.0
144
0.0208333333333333
144
0.0
144
0.0
144
0.0
144
0.0
144
1.0
144
0.0
144
0.0
144
0.0
144
0.0
144
1.0
147
0.0208333333333333
147
0.0
147
0.0
147
0.0
147
0.0
147
0.0208333333333333
147
0.0
147
0.0
147
0.0
147
0.0
147
1.0
147
0.0
147
0.0
147
0.0
147
0.0
147
1.0
  0
MATERIAL
  5
80E1
102
{ACAD_XDICTIONARY
360
80E2
102
}
102
{ACAD_REACTORS
330
80E0
102
}
330
80E0
100
AcDbMaterial
  1
ByLayer
 72
     0
 43
0.0208333333333333
 43
0.0
 43
0.0
 43
0.0
 43
0.0
 43
0.0208333333333333
 43
0.0
 43
0.0
 43
0.0
 43
0.0
 43
1.0
 43
0.0
 43
0.0
 43
0.0
 43
0.0
 43
1.0
 77
     0
 47
0.0208333333333333
 47
0.0
 47
0.0
 47
0.0
 47
0.0
 47
0.0208333333333333
 47
0.0
 47
0.0
 47
0.0
 47
0.0
 47
1.0
 47
0.0
 47
0.0
 47
0.0
 47
0.0
 47
1.0
171
     0
 49
0.0208333333333333
 49
0.0
 49
0.0
 49
0.0
 49
0.0
 49
0.0208333333333333
 49
0.0
 49
0.0
 49
0.0
 49
0.0
 49
1.0
 49
0.0
 49
0.0
 49
0.0
 49
0.0
 49
1.0
175
     0
142
0.0208333333333333
142
0.0
142
0.0
142
0.0
142
0.0
142
0.0208333333333333
142
0.0
142
0.0
142
0.0
142
0.0
142
1.0
142
0.0
142
0.0
142
0.0
142
0.0
142
1.0
179
     0
144
0.0208333333333333
144
0.0
144
0.0
144
0.0
144
0.0
144
0.0208333333333333
144
0.0
144
0.0
144
0.0
144
0.0
144
1.0
144
0.0
144
0.0
144
0.0
144
0.0
144
1.0
147
0.0208333333333333
147
0.0
147
0.0
147
0.0
147
0.0
147
0.0208333333333333
147
0.0
147
0.0
147
0.0
147
0.0
147
1.0
147
0.0
147
0.0
147
0.0
147
0.0
147
1.0
  0
MATERIAL
  5
80F1
102
{ACAD_XDICTIONARY
360
80F2
102
}
102
{ACAD_REACTORS
330
80E0
102
}
330
80E0
100
AcDbMaterial
  1
Global
 72
     0
 43
0.0208333333333333
 43
0.0
 43
0.0
 43
0.0
 43
0.0
 43
0.0208333333333333
 43
0.0
 43
0.0
 43
0.0
 43
0.0
 43
1.0
 43
0.0
 43
0.0
 43
0.0
 43
0.0
 43
1.0
 77
     0
 47
0.0208333333333333
 47
0.0
 47
0.0
 47
0.0
 47
0.0
 47
0.0208333333333333
 47
0.0
 47
0.0
 47
0.0
 47
0.0
 47
1.0
 47
0.0
 47
0.0
 47
0.0
 47
0.0
 47
1.0
171
     0
 49
0.0208333333333333
 49
0.0
 49
0.0
 49
0.0
 49
0.0
 49
0.0208333333333333
 49
0.0
 49
0.0
 49
0.0
 49
0.0
 49
1.0
 49
0.0
 49
0.0
 49
0.0
 49
0.0
 49
1.0
175
     0
142
0.0208333333333333
142
0.0
142
0.0
142
0.0
142
0.0
142
0.0208333333333333
142
0.0
142
0.0
142
0.0
142
0.0
142
1.0
142
0.0
142
0.0
142
0.0
142
0.0
142
1.0
179
     0
144
0.0208333333333333
144
0.0
144
0.0
144
0.0
144
0.0
144
0.0208333333333333
144
0.0
144
0.0
144
0.0
144
0.0
144
1.0
144
0.0
144
0.0
144
0.0
144
0.0
144
1.0
147
0.0208333333333333
147
0.0
147
0.0
147
0.0
147
0.0
147
0.0208333333333333
147
0.0
147
0.0
147
0.0
147
0.0
147
1.0
147
0.0
147
0.0
147
0.0
147
0.0
147
1.0
  0
MLEADERSTYLE
  5
8136
102
{ACAD_REACTORS
330
8135
102
}
330
8135
100
AcDbMLeaderStyle
170
     2
171
     1
172
     0
 90
        2
 40
0.0
 41
0.0
173
     1
 91
-1056964608
340
812A
 92
       -2
290
     1
 42
0.09
291
     1
 43
0.36
  3
Standard
 44
0.18
300

342
8125
174
     1
178
     6
175
     1
176
     0
 93
-1056964608
 45
0.18
292
     0
297
     0
 46
0.18
 94
-1056964608
 47
1.0
 49
1.0
140
1.0
293
     1
141
0.0
294
     1
177
     0
142
1.0
295
     0
296
     0
143
0.125
1001
ACAD_MLEADERVER
1070
     2
  0
MLINESTYLE
  5
812F
102
{ACAD_REACTORS
330
812E
102
}
330
812E
100
AcDbMlineStyle
  2
STANDARD
 70
     0
  3

 62
   256
 51
90.0
 52
90.0
 71
     2
 49
0.5
 62
   256
  6
BYLAYER
 49
-0.5
 62
   256
  6
BYLAYER
  0
ACDBPLACEHOLDER
  5
80DF
102
{ACAD_REACTORS
330
80DE
102
}
330
80DE
  0
SCALE
  5
8113
102
{ACAD_REACTORS
330
8112
102
}
330
8112
100
AcDbScale
 70
     0
300
1:1
140
1.0
141
1.0
290
     1
  0
SCALE
  5
8114
102
{ACAD_REACTORS
330
8112
102
}
330
8112
100
AcDbScale
 70
     0
300
1/128" = 1'-0"
140
0.0078125
141
12.0
290
     0
  0
SCALE
  5
8115
102
{ACAD_REACTORS
330
8112
102
}
330
8112
100
AcDbScale
 70
     0
300
1/64" = 1'-0"
140
0.015625
141
12.0
290
     0
  0
SCALE
  5
8116
102
{ACAD_REACTORS
330
8112
102
}
330
8112
100
AcDbScale
 70
     0
300
1/32" = 1'-0"
140
0.03125
141
12.0
290
     0
  0
SCALE
  5
8117
102
{ACAD_REACTORS
330
8112
102
}
330
8112
100
AcDbScale
 70
     0
300
1/16" = 1'-0"
140
0.0625
141
12.0
290
     0
  0
SCALE
  5
8118
102
{ACAD_REACTORS
330
8112
102
}
330
8112
100
AcDbScale
 70
     0
300
3/32" = 1'-0"
140
0.09375
141
12.0
290
     0
  0
SCALE
  5
8119
102
{ACAD_REACTORS
330
8112
102
}
330
8112
100
AcDbScale
 70
     0
300
1/8" = 1'-0"
140
0.125
141
12.0
290
     0
  0
SCALE
  5
811A
102
{ACAD_REACTORS
330
8112
102
}
330
8112
100
AcDbScale
 70
     0
300
3/16" = 1'-0"
140
0.1875
141
12.0
290
     0
  0
SCALE
  5
811B
102
{ACAD_REACTORS
330
8112
102
}
330
8112
100
AcDbScale
 70
     0
300
1/4" = 1'-0"
140
0.25
141
12.0
290
     0
  0
SCALE
  5
811C
102
{ACAD_REACTORS
330
8112
102
}
330
8112
100
AcDbScale
 70
     0
300
3/8" = 1'-0"
140
0.375
141
12.0
290
     0
  0
SCALE
  5
811D
102
{ACAD_REACTORS
330
8112
102
}
330
8112
100
AcDbScale
 70
     0
300
1/2" = 1'-0"
140
0.5
141
12.0
290
     0
  0
SCALE
  5
811E
102
{ACAD_REACTORS
330
8112
102
}
330
8112
100
AcDbScale
 70
     0
300
3/4" = 1'-0"
140
0.75
141
12.0
290
     0
  0
SCALE
  5
811F
102
{ACAD_REACTORS
330
8112
102
}
330
8112
100
AcDbScale
 70
     0
300
1" = 1'-0"
140
1.0
141
12.0
290
     0
  0
SCALE
  5
8120
102
{ACAD_REACTORS
330
8112
102
}
330
8112
100
AcDbScale
 70
     0
300
1-1/2" = 1'-0"
140
1.5
141
12.0
290
     0
  0
SCALE
  5
8121
102
{ACAD_REACTORS
330
8112
102
}
330
8112
100
AcDbScale
 70
     0
300
3" = 1'-0"
140
3.0
141
12.0
290
     0
  0
SCALE
  5
8122
102
{ACAD_REACTORS
330
8112
102
}
330
8112
100
AcDbScale
 70
     0
300
6" = 1'-0"
140
6.0
141
12.0
290
     0
  0
SCALE
  5
8123
102
{ACAD_REACTORS
330
8112
102
}
330
8112
100
AcDbScale
 70
     0
300
1'-0" = 1'-0"
140
12.0
141
12.0
290
     0
  0
ACDBSECTIONVIEWSTYLE
  5
8138
102
{ACAD_XDICTIONARY
360
82EA
102
}
102
{ACAD_REACTORS
330
8137
102
}
330
8137
100
AcDbModelDocViewStyle
 70
     0
  3
Imperial24
290
     0
100
AcDbSectionViewStyle
 70
     0
 71
     0
 90
       78
 71
     1
340
8125
 40
0.24
340
0
340
0
 40
0.24
300
I, O, Q, S, X, Z
 40
0.48
 90
        3
 40
0.18
 90
        1
 71
     2
340
812C
 90
       25
340
812C
 90
       50
 40
0.24
 40
0.0
 40
0.24
 71
     3
340
8125
 40
0.24
 90
        1
 40
0.75
 90
        1
300
%<\AcVar ViewType \f "%tc1">% %<\AcVar ViewSectionStartId>%-%<\AcVar ViewSectionEndId>%\PSCALE %<\AcVar ViewScale \f "%sn">%
 71
     4
300
ANSI31
 40
1.0
 90
        0
290
     0
290
     0
 90
        6
 40
0.0
 40
1.570796326794896
 40
0.2617993877991494
 40
1.308996938995747
 40
-0.2617993877991494
 40
1.832595714594046
  0
TABLESTYLE
  5
8134
102
{ACAD_XDICTIONARY
360
82B1
102
}
102
{ACAD_REACTORS
330
8133
102
}
330
8133
100
AcDbTableStyle
  3
Standard
 70
     0
 71
     0
 40
0.06
 41
0.06
280
     0
281
     0
  7
STANDARD
140
0.18
170
     2
 62
     0
 63
     7
283
     0
274
    -2
284
     1
 64
     0
275
    -2
285
     1
 65
     0
276
    -2
286
     1
 66
     0
277
    -2
287
     1
 67
     0
278
    -2
288
     1
 68
     0
279
    -2
289
     1
 69
     0
  7
STANDARD
140
0.25
170
     5
 62
     0
 63
     7
283
     0
274
    -2
284
     1
 64
     0
275
    -2
285
     1
 65
     0
276
    -2
286
     1
 66
     0
277
    -2
287
     1
 67
     0
278
    -2
288
     1
 68
     0
279
    -2
289
     1
 69
     0
  7
STANDARD
140
0.18
170
     5
 62
     0
 63
     7
283
     0
274
    -2
284
     1
 64
     0
275
    -2
285
     1
 65
     0
276
    -2
286
     1
 66
     0
277
    -2
287
     1
 67
     0
278
    -2
288
     1
 68
     0
279
    -2
289
     1
 69
     0
  0
VISUALSTYLE
  5
80FF
102
{ACAD_XDICTIONARY
360
82C2
102
}
102
{ACAD_REACTORS
330
80F9
102
}
330
80F9
100
AcDbVisualStyle
  2
2dWireframe
 70
     4
 71
     0
 72
     2
 73
     0
 90
        0
 40
-0.6
 41
-30.0
 62
     5
 63
     7
 74
     1
 91
        4
 64
     7
 65
   257
 75
     1
175
     1
 42
1.0
 92
        0
 66
   257
 43
1.0
 76
     1
 77
     6
 78
     2
 67
     7
 79
     5
170
     0
171
     0
290
     0
174
     0
 93
        1
 44
0.0
173
     0
291
     0
 45
0.0
1001
ACAD
1000
AcDbSavedByObjectVersion
1070
     0
  0
VISUALSTYLE
  5
80FE
102
{ACAD_XDICTIONARY
360
82C0
102
}
102
{ACAD_REACTORS
330
80F9
102
}
330
80F9
100
AcDbVisualStyle
  2
Basic
 70
     7
 71
     1
 72
     0
 73
     1
 90
        0
 40
-0.6
 41
-30.0
 62
     5
 63
     7
 74
     0
 91
        4
 64
     7
 65
   257
 75
     1
175
     1
 42
1.0
 92
        8
 66
     7
 43
1.0
 76
     1
 77
     6
 78
     2
 67
     7
 79
     5
170
     0
171
     0
290
     0
174
     0
 93
        1
 44
0.0
173
     0
291
     1
 45
0.0
1001
ACAD
1000
AcDbSavedByObjectVersion
1070
     0
  0
VISUALSTYLE
  5
8105
102
{ACAD_XDICTIONARY
360
82CE
102
}
102
{ACAD_REACTORS
330
80F9
102
}
330
80F9
100
AcDbVisualStyle
  2
Brighten
 70
    12
 71
     2
 72
     2
 73
     0
 90
        0
 40
-0.6
 41
-30.0
 62
     5
 63
     7
 74
     1
 91
        4
 64
     7
 65
   257
 75
     1
175
     1
 42
1.0
 92
        8
 66
     7
 43
1.0
 76
     1
 77
     6
 78
     2
 67
     7
 79
     5
170
     0
171
     0
290
     0
174
     0
 93
        1
 44
50.0
173
     0
291
     1
 45
0.0
1001
ACAD
1000
AcDbSavedByObjectVersion
1070
     0
  0
VISUALSTYLE
  5
8109
102
{ACAD_XDICTIONARY
360
82D6
102
}
102
{ACAD_REACTORS
330
80F9
102
}
330
80F9
100
AcDbVisualStyle
  2
ColorChange
 70
    16
 71
     2
 72
     2
 73
     3
 90
        0
 40
-0.6
 41
-30.0
 62
     5
 63
     8
 74
     1
 91
        4
 64
     7
 65
   257
 75
     1
175
     1
 42
1.0
 92
        8
 66
     8
 43
1.0
 76
     1
 77
     6
 78
     2
 67
     7
 79
     5
170
     0
171
     0
290
     0
174
     0
 93
        1
 44
0.0
173
     0
291
     1
 45
0.0
1001
ACAD
1000
AcDbSavedByObjectVersion
1070
     0
  0
VISUALSTYLE
  5
8102
102
{ACAD_XDICTIONARY
360
82C8
102
}
102
{ACAD_REACTORS
330
80F9
102
}
330
80F9
100
AcDbVisualStyle
  2
Conceptual
 70
     9
 71
     3
 72
     2
 73
     0
 90
        0
 40
-0.6
 41
-30.0
 62
     5
 63
     7
 74
     2
 91
        2
 64
     7
 65
   257
 75
     1
175
     1
 42
179.0
 92
        8
 66
     7
 43
1.0
 76
     1
 77
     6
 78
     2
 67
     7
 79
     3
170
     0
171
     0
290
     0
174
     0
 93
        1
 44
0.0
173
     0
291
     0
 45
0.0
1001
ACAD
1000
AcDbSavedByObjectVersion
1070
     0
  0
VISUALSTYLE
  5
8104
102
{ACAD_XDICTIONARY
360
82CC
102
}
102
{ACAD_REACTORS
330
80F9
102
}
330
80F9
100
AcDbVisualStyle
  2
Dim
 70
    11
 71
     2
 72
     2
 73
     0
 90
        0
 40
-0.6
 41
-30.0
 62
     5
 63
     7
 74
     1
 91
        4
 64
     7
 65
   257
 75
     1
175
     1
 42
1.0
 92
        8
 66
     7
 43
1.0
 76
     1
 77
     6
 78
     2
 67
     7
 79
     5
170
     0
171
     0
290
     0
174
     0
 93
        1
 44
-50.0
173
     0
291
     1
 45
0.0
1001
ACAD
1000
AcDbSavedByObjectVersion
1070
     0
  0
VISUALSTYLE
  5
8111
102
{ACAD_XDICTIONARY
360
82E6
102
}
102
{ACAD_REACTORS
330
80F9
102
}
330
80F9
100
AcDbVisualStyle
  2
EdgeColorOff
 70
    22
 71
     2
 72
     2
 73
     0
 90
        0
 40
-0.6
 41
-30.0
 62
     5
 63
     7
 74
     1
 91
        4
 64
     7
 65
   257
 75
     1
175
     1
 42
1.0
 92
        8
 66
     7
 43
1.0
 76
     1
 77
     6
 78
     2
 67
     7
 79
     5
170
     0
171
     0
290
     0
174
     0
 93
        1
 44
0.0
173
     0
291
     1
 45
0.0
1001
ACAD
1000
AcDbSavedByObjectVersion
1070
     0
  0
VISUALSTYLE
  5
8108
102
{ACAD_XDICTIONARY
360
82D4
102
}
102
{ACAD_REACTORS
330
80F9
102
}
330
80F9
100
AcDbVisualStyle
  2
Facepattern
 70
    15
 71
     2
 72
     2
 73
     0
 90
        0
 40
-0.6
 41
-30.0
 62
     5
 63
     7
 74
     1
 91
        4
 64
     7
 65
   257
 75
     1
175
     1
 42
1.0
 92
        8
 66
     7
 43
1.0
 76
     1
 77
     6
 78
     2
 67
     7
 79
     5
170
     0
171
     0
290
     0
174
     0
 93
        1
 44
0.0
173
     0
291
     1
 45
0.0
1001
ACAD
1000
AcDbSavedByObjectVersion
1070
     0
  0
VISUALSTYLE
  5
80FA
102
{ACAD_XDICTIONARY
360
82B8
102
}
102
{ACAD_REACTORS
330
80F9
102
}
330
80F9
100
AcDbVisualStyle
  2
Flat
 70
     0
 71
     2
 72
     1
 73
     1
 90
        2
 40
-0.6
 41
30.0
 62
     5
 63
     7
 74
     0
 91
        0
 64
     7
 65
   257
 75
     1
175
     1
 42
1.0
 92
        8
 66
     7
 43
1.0
 76
     1
 77
     6
 78
     2
 67
     7
 79
     5
170
     0
171
     0
290
     0
174
     0
 93
       13
 44
0.0
173
     0
291
     1
 45
0.0
1001
ACAD
1000
AcDbSavedByObjectVersion
1070
     0
  0
VISUALSTYLE
  5
80FB
102
{ACAD_XDICTIONARY
360
82BA
102
}
102
{ACAD_REACTORS
330
80F9
102
}
330
80F9
100
AcDbVisualStyle
  2
FlatWithEdges
 70
     1
 71
     2
 72
     1
 73
     1
 90
        2
 40
-0.6
 41
30.0
 62
     5
 63
     7
 74
     1
 91
        0
 64
     7
 65
   257
 75
     1
175
     1
 42
1.0
 92
        0
 66
   257
 43
1.0
 76
     1
 77
     6
 78
     2
 67
     7
 79
     5
170
     0
171
     0
290
     0
174
     0
 93
       13
 44
0.0
173
     0
291
     1
 45
0.0
1001
ACAD
1000
AcDbSavedByObjectVersion
1070
     0
  0
VISUALSTYLE
  5
80FC
102
{ACAD_XDICTIONARY
360
82BC
102
}
102
{ACAD_REACTORS
330
80F9
102
}
330
80F9
100
AcDbVisualStyle
  2
Gouraud
 70
     2
 71
     2
 72
     2
 73
     1
 90
        2
 40
-0.6
 41
30.0
 62
     5
 63
     7
 74
     0
 91
        0
 64
     7
 65
   257
 75
     1
175
     1
 42
1.0
 92
        0
 66
     7
 43
1.0
 76
     1
 77
     6
 78
     2
 67
     7
 79
     5
170
     0
171
     0
290
     0
174
     0
 93
       13
 44
0.0
173
     0
291
     1
 45
0.0
1001
ACAD
1000
AcDbSavedByObjectVersion
1070
     0
  0
VISUALSTYLE
  5
80FD
102
{ACAD_XDICTIONARY
360
82BE
102
}
102
{ACAD_REACTORS
330
80F9
102
}
330
80F9
100
AcDbVisualStyle
  2
GouraudWithEdges
 70
     3
 71
     2
 72
     2
 73
     1
 90
        2
 40
-0.6
 41
30.0
 62
     5
 63
     7
 74
     1
 91
        0
 64
     7
 65
   257
 75
     1
175
     1
 42
1.0
 92
        0
 66
   257
 43
1.0
 76
     1
 77
     6
 78
     2
 67
     7
 79
     5
170
     0
171
     0
290
     0
174
     0
 93
       13
 44
0.0
173
     0
291
     1
 45
0.0
1001
ACAD
1000
AcDbSavedByObjectVersion
1070
     0
  0
VISUALSTYLE
  5
8101
102
{ACAD_XDICTIONARY
360
82C6
102
}
102
{ACAD_REACTORS
330
80F9
102
}
330
80F9
100
AcDbVisualStyle
  2
Hidden
 70
     6
 71
     1
 72
     2
 73
     2
 90
        0
 40
-0.6
 41
-30.0
 62
     5
 63
     7
 74
     2
 91
        2
 64
     7
 65
   257
 75
     2
175
     1
 42
40.0
 92
        0
 66
   257
 43
1.0
 76
     1
 77
     6
 78
     2
 67
     7
 79
     3
170
     0
171
     0
290
     0
174
     0
 93
        1
 44
0.0
173
     0
291
     0
 45
0.0
1001
ACAD
1000
AcDbSavedByObjectVersion
1070
     0
  0
VISUALSTYLE
  5
810F
102
{ACAD_XDICTIONARY
360
82E2
102
}
102
{ACAD_REACTORS
330
80F9
102
}
330
80F9
100
AcDbVisualStyle
  2
JitterOff
 70
    20
 71
     2
 72
     2
 73
     0
 90
        0
 40
-0.6
 41
-30.0
 62
     5
 63
     7
 74
     1
 91
        4
 64
     7
 65
   257
 75
     1
175
     1
 42
1.0
 92
       10
 66
     7
 43
1.0
 76
     1
 77
     6
 78
     2
 67
     7
 79
     5
170
     0
171
     0
290
     0
174
     0
 93
        1
 44
0.0
173
     0
291
     1
 45
0.0
1001
ACAD
1000
AcDbSavedByObjectVersion
1070
     0
  0
VISUALSTYLE
  5
8107
102
{ACAD_XDICTIONARY
360
82D2
102
}
102
{ACAD_REACTORS
330
80F9
102
}
330
80F9
100
AcDbVisualStyle
  2
Linepattern
 70
    14
 71
     2
 72
     2
 73
     0
 90
        0
 40
-0.6
 41
-30.0
 62
     5
 63
     7
 74
     1
 91
        4
 64
     7
 65
   257
 75
     7
175
     7
 42
1.0
 92
        8
 66
     7
 43
1.0
 76
     1
 77
     6
 78
     2
 67
     7
 79
     5
170
     0
171
     0
290
     0
174
     0
 93
        1
 44
0.0
173
     0
291
     1
 45
0.0
1001
ACAD
1000
AcDbSavedByObjectVersion
1070
     0
  0
VISUALSTYLE
  5
8110
102
{ACAD_XDICTIONARY
360
82E4
102
}
102
{ACAD_REACTORS
330
80F9
102
}
330
80F9
100
AcDbVisualStyle
  2
OverhangOff
 70
    21
 71
     2
 72
     2
 73
     0
 90
        0
 40
-0.6
 41
-30.0
 62
     5
 63
     7
 74
     1
 91
        4
 64
     7
 65
   257
 75
     1
175
     1
 42
1.0
 92
        9
 66
     7
 43
1.0
 76
     1
 77
     6
 78
     2
 67
     7
 79
     5
170
     0
171
     0
290
     0
174
     0
 93
        1
 44
0.0
173
     0
291
     1
 45
0.0
1001
ACAD
1000
AcDbSavedByObjectVersion
1070
     0
  0
VISUALSTYLE
  5
8103
102
{ACAD_XDICTIONARY
360
82CA
102
}
102
{ACAD_REACTORS
330
80F9
102
}
330
80F9
100
AcDbVisualStyle
  2
Realistic
 70
     8
 71
     2
 72
     3
 73
     0
 90
        2
 40
-0.6
 41
30.0
 62
     5
 63
     7
 74
     0
 91
        0
 64
     7
 65
   257
 75
     1
175
     1
 42
1.0
 92
        8
 66
   257
 43
1.0
 76
     1
 77
     6
 78
     2
 67
     7
 79
     3
170
     0
171
     0
290
     0
174
     0
 93
       13
 44
0.0
173
     0
291
     0
 45
0.0
1001
ACAD
1000
AcDbSavedByObjectVersion
1070
     0
  0
VISUALSTYLE
  5
810E
102
{ACAD_XDICTIONARY
360
82E0
102
}
102
{ACAD_REACTORS
330
80F9
102
}
330
80F9
100
AcDbVisualStyle
  2
Shaded
 70
    27
 71
     2
 72
     2
 73
     1
 90
        2
 40
-0.6
 41
30.0
 62
     5
 63
     7
 74
     0
 91
        4
 64
     7
 65
   257
 75
     1
175
     1
 42
1.0
 92
        8
 66
   257
 43
1.0
 76
     1
 77
     6
 78
     2
 67
     8
 79
     3
170
     0
171
     0
290
     0
174
     0
 93
        5
 44
0.0
173
     0
291
     0
 45
0.0
1001
ACAD
1000
AcDbSavedByObjectVersion
1070
     0
  0
VISUALSTYLE
  5
810D
102
{ACAD_XDICTIONARY
360
82DE
102
}
102
{ACAD_REACTORS
330
80F9
102
}
330
80F9
100
AcDbVisualStyle
  2
Shaded with edges
 70
    26
 71
     2
 72
     2
 73
     1
 90
        2
 40
-0.6
 41
30.0
 62
     5
 63
     7
 74
     1
 91
       10
 64
     7
 65
   257
 75
     2
175
     1
 42
1.0
 92
        8
 66
   257
 43
1.0
 76
     1
 77
     6
 78
     2
 67
     7
 79
     3
170
     0
171
     0
290
     0
174
     0
 93
        5
 44
0.0
173
     0
291
     0
 45
0.0
1001
ACAD
1000
AcDbSavedByObjectVersion
1070
     0
  0
VISUALSTYLE
  5
810A
102
{ACAD_XDICTIONARY
360
82D8
102
}
102
{ACAD_REACTORS
330
80F9
102
}
330
80F9
100
AcDbVisualStyle
  2
Shades of Gray
 70
    23
 71
     2
 72
     2
 73
     3
 90
        0
 40
-0.6
 41
-30.0
 62
     5
 63
     7
 74
     2
 91
        2
 64
     7
 65
     7
 75
     1
175
     1
 42
40.0
 92
        8
 66
     7
 43
1.0
 76
     1
 77
     6
 78
     2
 67
     7
 79
     3
170
     0
171
     0
290
     0
174
     0
 93
        1
 44
0.0
173
     0
291
     0
 45
0.0
1001
ACAD
1000
AcDbSavedByObjectVersion
1070
     0
  0
VISUALSTYLE
  5
810B
102
{ACAD_XDICTIONARY
360
82DA
102
}
102
{ACAD_REACTORS
330
80F9
102
}
330
80F9
100
AcDbVisualStyle
  2
Sketchy
 70
    24
 71
     1
 72
     2
 73
     2
 90
        0
 40
-0.6
 41
-30.0
 62
     5
 63
     7
 74
     2
 91
        2
 64
     7
 65
     7
 75
     1
175
     1
 42
40.0
 92
       11
 66
     7
 43
1.0
 76
     1
 77
     6
 78
     2
 67
     7
 79
     6
170
     0
171
     0
290
     0
174
     0
 93
        1
 44
0.0
173
     0
291
     0
 45
0.0
1001
ACAD
1000
AcDbSavedByObjectVersion
1070
     0
  0
VISUALSTYLE
  5
8106
102
{ACAD_XDICTIONARY
360
82D0
102
}
102
{ACAD_REACTORS
330
80F9
102
}
330
80F9
100
AcDbVisualStyle
  2
Thicken
 70
    13
 71
     2
 72
     2
 73
     0
 90
        0
 40
-0.6
 41
-30.0
 62
     5
 63
     7
 74
     1
 91
        4
 64
     7
 65
   257
 75
     1
175
     1
 42
1.0
 92
       12
 66
     7
 43
1.0
 76
     1
 77
     6
 78
     2
 67
     7
 79
     5
170
     0
171
     0
290
     0
174
     0
 93
        1
 44
0.0
173
     0
291
     1
 45
0.0
1001
ACAD
1000
AcDbSavedByObjectVersion
1070
     0
  0
VISUALSTYLE
  5
8100
102
{ACAD_XDICTIONARY
360
82C4
102
}
102
{ACAD_REACTORS
330
80F9
102
}
330
80F9
100
AcDbVisualStyle
  2
Wireframe
 70
     5
 71
     0
 72
     2
 73
     0
 90
        0
 40
-0.6
 41
-30.0
 62
     5
 63
     7
 74
     1
 91
        4
 64
     7
 65
   257
 75
     1
175
     1
 42
1.0
 92
        0
 66
   257
 43
1.0
 76
     1
 77
     6
 78
     2
 67
     7
 79
     3
170
     0
171
     0
290
     0
174
     0
 93
        1
 44
0.0
173
     0
291
     0
 45
0.0
1001
ACAD
1000
AcDbSavedByObjectVersion
1070
     0
  0
VISUALSTYLE
  5
810C
102
{ACAD_XDICTIONARY
360
82DC
102
}
102
{ACAD_REACTORS
330
80F9
102
}
330
80F9
100
AcDbVisualStyle
  2
X-Ray
 70
    25
 71
     2
 72
     2
 73
     1
 90
        1
 40
0.5
 41
-30.0
 62
     5
 63
     7
 74
     1
 91
        0
 64
     7
 65
   257
 75
     1
175
     1
 42
1.0
 92
        8
 66
     7
 43
1.0
 76
     1
 77
     6
 78
     2
 67
     7
 79
     3
170
     0
171
     0
290
     0
174
     0
 93
       13
 44
0.0
173
     0
291
     0
 45
0.0
1001
ACAD
1000
AcDbSavedByObjectVersion
1070
     0
  0
DICTIONARYVAR
  5
8199
102
{ACAD_REACTORS
330
8194
102
}
330
8194
100
DictionaryVariables
280
     0
  1
1:1
  0
DICTIONARYVAR
  5
8196
102
{ACAD_REACTORS
330
8194
102
}
330
8194
100
DictionaryVariables
280
     0
  1
STANDARD
  0
DICTIONARYVAR
  5
8195
102
{ACAD_REACTORS
330
8194
102
}
330
8194
100
DictionaryVariables
280
     0
  1
STANDARD
  0
DICTIONARYVAR
  5
8197
102
{ACAD_REACTORS
330
8194
102
}
330
8194
100
DictionaryVariables
280
     0
  1
Imperial24
  0
DICTIONARYVAR
  5
8198
102
{ACAD_REACTORS
330
8194
102
}
330
8194
100
DictionaryVariables
280
     0
  1
Imperial24
  0
DICTIONARYVAR
  5
819C
102
{ACAD_REACTORS
330
8194
102
}
330
8194
100
DictionaryVariables
280
     0
  1
1
  0
DICTIONARYVAR
  5
819B
102
{ACAD_REACTORS
330
8194
102
}
330
8194
100
DictionaryVariables
280
     0
  1
0
  0
DICTIONARYVAR
  5
819A
102
{ACAD_REACTORS
330
8194
102
}
330
8194
100
DictionaryVariables
280
     0
  1
127
  0
DICTIONARYVAR
  5
819D
102
{ACAD_REACTORS
330
8194
102
}
330
8194
100
DictionaryVariables
280
     0
  1
2
  0
DICTIONARY
  5
82EC
330
813A
100
AcDbDictionary
280
     1
281
     1
  3
ACAD_XREC_ROUNDTRIP
360
82ED
  0
DICTIONARY
  5
82F0
330
8142
100
AcDbDictionary
280
     1
281
     1
  3
ACAD_XREC_ROUNDTRIP
360
82F1
  0
DICTIONARY
  5
82EE
330
813E
100
AcDbDictionary
280
     1
281
     1
  3
ACAD_XREC_ROUNDTRIP
360
82EF
  0
DICTIONARY
  5
80EA
330
80E9
100
AcDbDictionary
280
     1
281
     1
  3
ACAD_XREC_ROUNDTRIP
360
82B6
  3
BUMPTILE
360
80EC
  3
DIFFUSETILE
360
80EB
  3
OPACITYTILE
360
80EF
  3
REFLECTIONTILE
360
80EE
  3
REFRACTIONTILE
360
80F0
  3
SPECULARTILE
360
80ED
  0
DICTIONARY
  5
80E2
330
80E1
100
AcDbDictionary
280
     1
281
     1
  3
ACAD_XREC_ROUNDTRIP
360
82B5
  3
BUMPTILE
360
80E4
  3
DIFFUSETILE
360
80E3
  3
OPACITYTILE
360
80E7
  3
REFLECTIONTILE
360
80E6
  3
REFRACTIONTILE
360
80E8
  3
SPECULARTILE
360
80E5
  0
DICTIONARY
  5
80F2
330
80F1
100
AcDbDictionary
280
     1
281
     1
  3
ACAD_XREC_ROUNDTRIP
360
82B7
  3
BUMPTILE
360
80F4
  3
DIFFUSETILE
360
80F3
  3
FBXASSET
360
8226
  3
OPACITYTILE
360
80F7
  3
REFLECTIONTILE
360
80F6
  3
REFRACTIONTILE
360
80F8
  3
SPECULARTILE
360
80F5
  0
DICTIONARY
  5
82EA
330
8138
100
AcDbDictionary
280
     1
281
     1
  3
ACAD_XREC_ROUNDTRIP
360
82EB
  0
DICTIONARY
  5
82B1
330
8134
100
AcDbDictionary
280
     1
281
     1
  3
ACAD_ROUNDTRIP_2008_TABLESTYLE_CELLSTYLEMAP
360
82B2
  3
ACAD_XREC_ROUNDTRIP
360
82E8
  0
DICTIONARY
  5
82C2
330
80FF
100
AcDbDictionary
280
     1
281
     1
  3
ACAD_XREC_ROUNDTRIP
360
82C3
  0
DICTIONARY
  5
82C0
330
80FE
100
AcDbDictionary
280
     1
281
     1
  3
ACAD_XREC_ROUNDTRIP
360
82C1
  0
DICTIONARY
  5
82CE
330
8105
100
AcDbDictionary
280
     1
281
     1
  3
ACAD_XREC_ROUNDTRIP
360
82CF
  0
DICTIONARY
  5
82D6
330
8109
100
AcDbDictionary
280
     1
281
     1
  3
ACAD_XREC_ROUNDTRIP
360
82D7
  0
DICTIONARY
  5
82C8
330
8102
100
AcDbDictionary
280
     1
281
     1
  3
ACAD_XREC_ROUNDTRIP
360
82C9
  0
DICTIONARY
  5
82CC
330
8104
100
AcDbDictionary
280
     1
281
     1
  3
ACAD_XREC_ROUNDTRIP
360
82CD
  0
DICTIONARY
  5
82E6
330
8111
100
AcDbDictionary
280
     1
281
     1
  3
ACAD_XREC_ROUNDTRIP
360
82E7
  0
DICTIONARY
  5
82D4
330
8108
100
AcDbDictionary
280
     1
281
     1
  3
ACAD_XREC_ROUNDTRIP
360
82D5
  0
DICTIONARY
  5
82B8
330
80FA
100
AcDbDictionary
280
     1
281
     1
  3
ACAD_XREC_ROUNDTRIP
360
82B9
  0
DICTIONARY
  5
82BA
330
80FB
100
AcDbDictionary
280
     1
281
     1
  3
ACAD_XREC_ROUNDTRIP
360
82BB
  0
DICTIONARY
  5
82BC
330
80FC
100
AcDbDictionary
280
     1
281
     1
  3
ACAD_XREC_ROUNDTRIP
360
82BD
  0
DICTIONARY
  5
82BE
330
80FD
100
AcDbDictionary
280
     1
281
     1
  3
ACAD_XREC_ROUNDTRIP
360
82BF
  0
DICTIONARY
  5
82C6
330
8101
100
AcDbDictionary
280
     1
281
     1
  3
ACAD_XREC_ROUNDTRIP
360
82C7
  0
DICTIONARY
  5
82E2
330
810F
100
AcDbDictionary
280
     1
281
     1
  3
ACAD_XREC_ROUNDTRIP
360
82E3
  0
DICTIONARY
  5
82D2
330
8107
100
AcDbDictionary
280
     1
281
     1
  3
ACAD_XREC_ROUNDTRIP
360
82D3
  0
DICTIONARY
  5
82E4
330
8110
100
AcDbDictionary
280
     1
281
     1
  3
ACAD_XREC_ROUNDTRIP
360
82E5
  0
DICTIONARY
  5
82CA
330
8103
100
AcDbDictionary
280
     1
281
     1
  3
ACAD_XREC_ROUNDTRIP
360
82CB
  0
DICTIONARY
  5
82E0
330
810E
100
AcDbDictionary
280
     1
281
     1
  3
ACAD_XREC_ROUNDTRIP
360
82E1
  0
DICTIONARY
  5
82DE
330
810D
100
AcDbDictionary
280
     1
281
     1
  3
ACAD_XREC_ROUNDTRIP
360
82DF
  0
DICTIONARY
  5
82D8
330
810A
100
AcDbDictionary
280
     1
281
     1
  3
ACAD_XREC_ROUNDTRIP
360
82D9
  0
DICTIONARY
  5
82DA
330
810B
100
AcDbDictionary
280
     1
281
     1
  3
ACAD_XREC_ROUNDTRIP
360
82DB
  0
DICTIONARY
  5
82D0
330
8106
100
AcDbDictionary
280
     1
281
     1
  3
ACAD_XREC_ROUNDTRIP
360
82D1
  0
DICTIONARY
  5
82C4
330
8100
100
AcDbDictionary
280
     1
281
     1
  3
ACAD_XREC_ROUNDTRIP
360
82C5
  0
DICTIONARY
  5
82DC
330
810C
100
AcDbDictionary
280
     1
281
     1
  3
ACAD_XREC_ROUNDTRIP
360
82DD
  0
XRECORD
  5
82ED
102
{ACAD_REACTORS
330
82EC
102
}
330
82EC
100
AcDbXrecord
280
     1
102
DISPLAYNAME
  1
Imperial24
102
FLAGS
 90
        0
  0
XRECORD
  5
82F1
102
{ACAD_REACTORS
330
82F0
102
}
330
82F0
100
AcDbXrecord
280
     1
102
SHADEPLOT
 70
     0
102
SHADEPLOTRESLEVEL
 70
     2
102
SHADEPLOTCUSTOMDPI
 70
   300
  0
XRECORD
  5
82EF
102
{ACAD_REACTORS
330
82EE
102
}
330
82EE
100
AcDbXrecord
280
     1
102
SHADEPLOT
 70
     0
102
SHADEPLOTRESLEVEL
 70
     2
102
SHADEPLOTCUSTOMDPI
 70
   300
  0
XRECORD
  5
82B6
102
{ACAD_REACTORS
330
80EA
102
}
330
80EA
100
AcDbXrecord
280
     1
102
MATERIAL
148
0.0
149
0.0
149
0.0
 93
        0
 94
      127
282
     0
 72
     0
 77
     0
171
     0
175
     0
179
     0
273
     0
  0
XRECORD
  5
80EC
102
{ACAD_REACTORS
330
80EA
102
}
330
80EA
100
AcDbXrecord
280
     1
270
     1
271
     1
  0
XRECORD
  5
80EB
102
{ACAD_REACTORS
330
80EA
102
}
330
80EA
100
AcDbXrecord
280
     1
270
     1
271
     1
  0
XRECORD
  5
80EF
102
{ACAD_REACTORS
330
80EA
102
}
330
80EA
100
AcDbXrecord
280
     1
270
     1
271
     1
  0
XRECORD
  5
80EE
102
{ACAD_REACTORS
330
80EA
102
}
330
80EA
100
AcDbXrecord
280
     1
270
     1
271
     1
  0
XRECORD
  5
80F0
102
{ACAD_REACTORS
330
80EA
102
}
330
80EA
100
AcDbXrecord
280
     1
270
     1
271
     1
  0
XRECORD
  5
80ED
102
{ACAD_REACTORS
330
80EA
102
}
330
80EA
100
AcDbXrecord
280
     1
270
     1
271
     1
  0
XRECORD
  5
82B5
102
{ACAD_REACTORS
330
80E2
102
}
330
80E2
100
AcDbXrecord
280
     1
102
MATERIAL
148
0.0
149
0.0
149
0.0
 93
        0
 94
      127
282
     0
 72
     0
 77
     0
171
     0
175
     0
179
     0
273
     0
  0
XRECORD
  5
80E4
102
{ACAD_REACTORS
330
80E2
102
}
330
80E2
100
AcDbXrecord
280
     1
270
     1
271
     1
  0
XRECORD
  5
80E3
102
{ACAD_REACTORS
330
80E2
102
}
330
80E2
100
AcDbXrecord
280
     1
270
     1
271
     1
  0
XRECORD
  5
80E7
102
{ACAD_REACTORS
330
80E2
102
}
330
80E2
100
AcDbXrecord
280
     1
270
     1
271
     1
  0
XRECORD
  5
80E6
102
{ACAD_REACTORS
330
80E2
102
}
330
80E2
100
AcDbXrecord
280
     1
270
     1
271
     1
  0
XRECORD
  5
80E8
102
{ACAD_REACTORS
330
80E2
102
}
330
80E2
100
AcDbXrecord
280
     1
270
     1
271
     1
  0
XRECORD
  5
80E5
102
{ACAD_REACTORS
330
80E2
102
}
330
80E2
100
AcDbXrecord
280
     1
270
     1
271
     1
  0
XRECORD
  5
82B7
102
{ACAD_REACTORS
330
80F2
102
}
330
80F2
100
AcDbXrecord
280
     1
102
MATERIAL
148
0.0
149
0.0
149
0.0
 93
        0
 94
      127
282
     0
 72
     0
 77
     0
171
     0
175
     0
179
     0
273
     0
  0
XRECORD
  5
80F4
102
{ACAD_REACTORS
330
80F2
102
}
330
80F2
100
AcDbXrecord
280
     1
270
     1
271
     1
  0
XRECORD
  5
80F3
102
{ACAD_REACTORS
330
80F2
102
}
330
80F2
100
AcDbXrecord
280
     1
270
     1
271
     1
  0
XRECORD
  5
8226
102
{ACAD_REACTORS
330
80F2
102
}
330
80F2
100
AcDbXrecord
280
     1
 70
     1
 90
1959938040
 71
     1
  1
F7BF54E1-D40F-40D6-A83E-48FA9959C43B
311
504B0304140006080800697C6E576392824ADC000000200100004F00000042303739314639312D333634322D344438452D393542452D3932373636304137393733422F4173736574446174612F446566696E6974696F6E4974657261746F7250726F706572746965732E62696E454E4B4EC33010755980BA60D11B700163A7
311
71E21809A1A48959B1A107A8A66168233949552762DB650FC365BAE975602C8A3AD29B37FF7947C6D8CFC5286413C281FC3DF12B76B86FEA65BDC516D86DA8B87E0DEEEEDABBA130A4257EC2E886B0F5D6F81A9D830EFBD1CFAEA30F2D0C740EDC63589A12FE0B3E5CD8FC3D0BFFBF08415260F8D83DBD80F7383C8B426A13
311
5913F1385573AECAACE22629C8CD759ACA5C1B1D17E21D7D3FEE6BF4C2EAC226AA8A78A9A4E54A9629CFB3B8E22AB3B9318959281A1FB663BBEEA071428A8B84D5AEDBB0EFE5E4742631BF504B0304140006080800697C6E571B1161D80D010000300200004500000042303739314639312D333634322D344438452D393542
311
452D3932373636304137393733422F4173736574446174612F496E7374616E636550726F706572746965732E62696EEB606060F80F0540260323103700495E20ED9E9A975A94991C9C9C919A9BA802147033777233357135D475313170D335317031D375B43076D535B17073B4B434B5743631766247680469313634717135
311
32B5D435353131D635313332D475727372D13534373670367376B67474B5042A03DBCBA019D37FE8ABC6157B20CD04146B0062181F4C03F940F0C11EA29A8141C08141002C0426541C106CAC2CA046088033B02A030AC2157C6006F21A8018AAF50194E6010A610250382264E08660284CD9E98021862280A91564B406929A
311
0FF62C401E28B6F88038B83CB1243943D7A928312F25350524C3C0A0DD70F5FFFF55A160369C0F32E6FFD5066D983C84095703D1842608372874D5FFFF00504B0304140006080800697C6E5788E57597CD3F0000904100006B00000042303739314639312D333634322D344438452D393542452D3932373636304137393733
311
422F5265736F75726365732F46374246353445312D443430462D343044362D413833452D3438464139393539433433422F7468756D626E61696C2F302F67656E657269635F706E67355B773CD4FF1FBF73E71C0E67EF7576C9DEF3EC995D46C6A1EC5046649CBDF79E192942562825CE965D8A868C2842C8DE9FDFD1F7E7F1
311
38F7078FCF6B3F5FCFD7EBFDFEC41B196891913091804020321D6D7513FC77D8C5070EC3FFEE51B21F068154CC75D455CC028A3EA68992803810109FDDE5D5CEC5521B28A1B422BF80741695D5B529DA1C2D058AD2388BDA9F476F7C2CADC939304173DBF48A452BF8A700C0C70C3D121C1AA15A5270C22E2B9E28763651F7
311
DA0D12CE11077B2ECD0D560B5E3DE2368B1E65C5E1C87384A4CC5F2D9FB8BE39E9B77C753783A37998F5CEF1B4FEE553463245C9712270880DF339E0B882A6BA713D865F6F384C842D440934EF264F4A304F8DE4EEFA1E2BF5E2D91F5ADD9613D6E31DDB33ED31DB1D7916CAF091286EA3D31B9CFECB78BB0060245B943C4C
311
040119FF780A74DD308BA9D028678674EB5504ECF284EE814DAED07440BAF649BE4B55DA2890F4D73E2D489A59EE54FDB0A85B59F2F52C4858A02705C4815A792B0C4A996A2023ECB195073E115E3E3647F64243A8338F2000BCB58DA5692C7E7C3D413F963FEDF3CF00FBB0F831A9D51360FECA43819F527B89FA260EB63C
311
5DA676830AA3626A3693B23F1A17A0DFFCE3EE164E31B5365EDF0C89EF64D8E38AB0BA9A1117D7C3A0EC44F44F4023095E80BA610DE336D0F99593A88BFC5306E72DF98F7FD132ED95878DF2964EA7E43071359FD83B2BDF9C6B5BDF768F0F3C0FC351199526F53D9460A34511F75D1B63E488178569472C91A94497807A3F
311
D4A390C6558F26D416365C3656DE6E769DA9D8FC73774E1709812842DD8EF96AED1960F79D21B395CDDFE6F92CB4EB962A4668C76990E2EF29798C8941D67DA50F4A5F947872460F1F6FDB794E8A29FD7AC0C0D6E0714339CE258FB17AE8535221E3464A10F29A0BE5EEECEFC5675926A89F49EB14E5711894F6586DB5754E
311
B4D5DA9C6437EBA57DB97A24F8B8A8DB295FFD73266CF57E82694DF5166DDF93573AFE9C9C5EB05F8FEF8E89E0A8917B0B3724DB7BEBB53252581EFC3E38166BA131A3A5B42FE2AD00A769BBFA4458D2DE7822F8C4F63D0B8E21B285AE13325F3410A435C648C9D91FDEB109E73CEDA7BC796961AF79175E1A3CE4C5E8B0D0
311
09B0C9E29EFD98BC8E97554E3D8D838424E270F7685226E5AC268E021EDE3522D583E8F20C0BDE2959EF5BBFEEDAB32FE9A3ED0E39F211A86AA9DEBFC68182EDED132AB8BB794442D2D7EA9F4D8BFF52BC4D55BB165124EE90A42D101E67BBBB292FFB4F66DE5BF2300E44546757DA7CEF8932BFC9F92A0707953491A55C5A
311
5ACEDABD9FA1AEA01BAC3DC5A24E22E7C47213493996EFBC369D086ED9397C9BA6C7F9855C7BD5E15BFC8C53DB3D2A4C5901A57ACD2FBDF4D1676E95338B2C2BCE65FDA4C64F5FEFDC7D9CA5AA1FCF11E193F2FDABF0F4916BF13FB916A224380E6462A9815F2300DC49CC4DF8D055CEF76462F4B7A7ACA7365C2707891370
311
BC1D0AA6203C44CCAB47084FEC057F27FFCD57F89B8B9852459798A675C66BD7CE572CAF71FF7E6D7ECF7BF62CAB7B3F1107DCD04DC55A3F9961700286141C94A4F771FEB2BCDA2DDEE0CB0BAE402FF1DB0100F8E475DFFFC074DDB4498AB7D186A7654DDB1CB680D703D47CEB4E72F8CB13D86A4AA68116E26387B93FD673
311
8779B34FEDB8E517EDF2BAF28D9BE93A1D3A164320E07D42E514725C29515FF361754213EDE06B079A2E99EB1CA82A02019EADEEB87B9AF005BD04BBCECB14AACD6B24EFBE482194A97DD32400685FF1FEF1544D1B14EFB1E7F08E6D2CD2AF52DE757F35F5E62332EE88EA26417AD5C3E0E319D68F25414E6D672BD4522B27
311
8C57D18F0113921C71D96527E091F00CEB15AE23D24667369BD3CEFA10C7549D930890BA4366F4EBC55F01F746109F98ABCDD5A3EE06619C6AD78AB33E48E4C9BD21BF7478B385EC05C4F8987E2C1BFA0A60EBEDAA0AE0B015C2720ECE180FB6F2DEFBEB822D96338C9B63822183BBF52FB664A7AE57003AABCE512BF77E7E
311
31BDA2E739AC4C131657DDFE5225E900FB56CC01CDE808FA4A9C9DA16AC679656BB64796283D89812B8F91136AE18EE5EBBAF47A73BE3C153EB5D4CD491B4BFB4FE690A4CF9ABA08C0D8AA64220C438C96EA6CA80B58FE5761E697B3A292EB9FBDA502FA863E49FE694ADDFFF9D62C520BDD1A22014147A0903A05B9B729F5
311
4272EF83931FEEC057BFF8C8055C279EAC5C0011804828734024F6CFA319C9CC6867C727184465CD9BB7ED386AFFD96B294A85E3802FAE47244602D8273615952B98C4F23F7EAE4463D9D638EEE374A20959E0FE519C4CFB0FBFE5DD80C2AA3F9DB961D1BDE57E67C9BB47B77FDD74EE3094F5DBBE3EBC1FBDB7393F511626
311
3009E2EFE1AF9A221B2AE234C902BF70E9F280ED23E73908361565964333A3F01D0B006AF32FB21AA1316744B489D5A198E85299241735BE559675130955C902A8ED761FC0DBE337A9F91919AF5CE32AF902ADF9AB2615E00E8A94586BA1A90839B61832FF1BFB76D2EFADE6DB1BA04CCAD3DA649E7E2A0219F592E22F2AD5
311
4847EEA8E42271011E9074F8F3DD9FBA6CDF88FFC9FC7E811AD1CA8F4557CE4AFC7BBEDCF0114A48689F20A584520C74DA8127124B767E2FB91A6B186246727BE63C9445BAE02088D58B8EFDC0F1072407CD9B89A13F6303B4A928F593AD489B58E6869325790ADC406036C591729FE14021F94B7796BB11848D463536A092
311
A26F077F94639F7CEEE2A724C66EC885F4A24F8B8A0AC321F8FD149BA529460FAA34E4663C02D41FDF80BCA222D42F0ABFF8490F4FA74C673807C2051D8E467B47B616072860069A9A303ABA9B319D58404461401B0A0F9BE5E1E151C14BC33B32ABE03DDE91708DFAEB15E7C0D593C86BB7D7EC17BE56E57975F077BFD552
311
5F3A1A361D584A75E08CF29FC7B44B2B3085014F3A5A14517377C3F6B8F37E59514C3B12F8AACDEDDA4DFC49BE5710101534CD6FB6DE15B50F11A09472AABA727F0C49D9CB906B158030065F48EB3625E010CEC1D511D0053474B11E6A4F01C0D6EF1BED3A944FDEC70E0DDCDC756C86545910E0DAE3BE3AA9A404574C2995
311
CD5CAF9549226BC94B4F4F0F5F9086F418F6B32346464610D8BC7391D3C3A3CCF04CFC1FB2A3A3170E369511868F14EEA4E5E438CC73DB1F3248AA94B6B2FF33B222FF3D1E7BF146CAD229770158063BCE4F5391964DF62F7E52A7BE0EEA829C9E13C4C147D6F93FE59E111DAB5E4594D6F3CD1AD375EE039930EFE5AF2BB2
311
D41C83C7DABD8C659BAFBE8FAB392CA634F3D15C1D945DB4588D2B0824A4EC928AAC565557CA2F0DAA588CA5BE30B3A8004F7BF005E96CBF891D7F18112A3619FDF530DC8AA64954258E1811789B5189B49B4EB53F5F89F7D37523894F3EB57B373763C91E502F52CC99EB7BDDF933FC324C4FFC2561DFFA7339FAFDD0A4BF
311
BE6D3A8FF9ED1FC49898139864602458968913181918F719CCF5A68B2EE9C1FF050E34E63107003B8120FA982C21B30A874E4F5E4B38D5A8290C4B8D9BE48A0BE31EA995BDC37AC6DE90BA17D259DEF53605D55922FEB1855D915B659FBEB350EE0DFB2F9F766E1C84CC8964B75D08667445EAB966015F63A18A9E0A325C1B
311
3DC628C0D3CB60F767FA93CC65F25458BD23C3B312716E5F40E5858AC06EBA9AB14F95DB99147B832069201541D09A0D856E12C629CF32683760EE855537D1901988D5EBC156676C7DD51D7207CF3267AF1D76C2AD867315E44618015313A98B19941C696FED3461CAA9B5415F918556D7802EDACEFD6B2E45853A9735DFC9
311
DBF7E440F9319F8B6805A973BCCDC76C069A9144E51F187EDCC12FC31B5DEAAF0A76137199B106EC84ADA6B6EE697D4E6A96E007417F4E880E8B1E89B4BCE9D81EF611E2ED8F0C1A6C25F620FAFAAB656A7C42D464880E8AFAB0E0FC8EA38CA9A8AEEAEE3E4648BA4680270A89743CDD3E6C6CBF34B7B640EFA285ABC7EA0A
311
1E28F3CC963D114A80123EE66D0AF7D5380EB41909B605AB4765B709B808590458157E69BA1378FEC4B48CAF6A730E3BE3C5EF2DD1A5EAF94B1DDE50CEB55DDFD7EE9A16747FA4B223359FB1FCC69E1194892BABB93A1D5C4E807AC0EA2E30180811E77A2291F6E7F7FAA5E0F60215BC6024E48DE436C511F0628B8CA18998
311
2D4D83CCA17D305A7E923C37941CFDFDCD93ACAF735EF5F0E61BBD3E6C41A59B242790D3A3BAC7064DCD89AA2E37214EC839820949D5CAA31E240D2948E48F690298974A96BA9A8432BC90F5071D6537C9666EA4564796B7AFFFA548077BEEA75F63083435074BA182F3699557397F71548383FDA8CA34D99B981E72835ECD
311
A5DDDC151315173D05A21F651AAF8524E88209E2E7A737ED1045800CE3390050BCFB8BE588DF111617874C62575039CA588EEFDEFEFE319B739DE2EDC147092A262611E159650E787917885EF08F1F51B8F2D8A71D60B58B190FEF9541A1BE94BC19FEA50784DA1419FE4B0FB51B8D36B5FF8E1286FD8AF42B91E59A5F1CC4
311
D60174E764045FD8C57B18209B217F89A62252BD20BE0E63E12B8E8F029FE19E0E8D0870F58721A557082250D5424F7909369376E41666C0EE77CD87CB283F661D5FB6D0DA023CB67320A20DC7BE661E9E1BFE5463085C557DA1FF9BE835733766C3D139F2CF9E2208873AD0EB4814DE9E6BF2CAF81614D4D43906ED1C05A3
311
265CABBFE192770FC2F64F940CB6B17B5F166F133C9AEEAD2641807C3E69515171DD74C4A85311513D6EC9530B3B601B6BA3EBFF3B5C3D2F7D69765141E345F75433953D013ADDF8F6AA7DC3F4A7563FE5C7D367937E2900D7EAD0F9FC9A4A1A9B5BDF1FEF08532660C01C5D6DE22199AA774383E306DAB87E301ABB7D2138
311
87F9869D4942D0D71E94B27EDF216A318BD488D45DF84529EF575AF3C3938C0AAA0215B01994153E2054A0B894DA5C784980633AAD48576957CF4AEAEAFADC7C587368551C73DBE1E57C58AC713303A8BFC258BD04B51724459FF9E24C03A81E0E0679CEB9B348C0DC998FEB9C6D6EFA77D247CC8F92D3848599ED89A23218
311
D0636465AD1CEEB7DC140D7426F83491C4E8E8281C2FB35240918FFECE880CA2A42D70E8B20B34DF5221C7DB0CF90ECCB9C745B37A47E9B716FF7A97B7A252C1F3814DC7B1E1A7F72B8751D524EF7CAE45B0C73B3BE7D08ED39781B380DDFC9AA4A4749C9493DB5BAD07A6EA6C092FBD0E85DB004DF06B8C9D3089C5320187
311
E4CE1846158C7EA7DDAE8AD9AFFF21AA3A1026BB06A259845E8232DEE62811A4DA9CEAB3A4887320B76E2AE5615EAB7BDF738CBDD01F1E64064BC13D9EC53576751CA8CACD58B3CEB0E6CA585BD089B2A59B9FC101403387AADBDBE70586B93D64BF3AD4453EF9C3B6A93817E8346991798601344F79A83C51F3D50F7BF268
311
3A3605F51A72449489E0EE6169C749C60B1035651103AEE24D24E51A759C840DD3FC6504DA6FE107510E447B43461C79D22970B75DE5E1BD3007D1AFC619A4A4A69B5626AF5E9B8374E20677F77E2F8E73DF868E8BEC7EBA7B6A75EEF7205E1AB9486CB642741D6E03FF13FCCEDB1C4AC129886268B01CDF4B124AF797CF78
311
4F3C6DEC97A17D4B558070A0F1C04DA4FF9BDBF34159AEFE958479824B3F58EBD1E19088A2AFDE501B6F2052368A3FD0E650A179EFAB1561E1D27527077136E652676C3670F42DCB3352F48F6BC86D2C3B0051727E41A0A4DC6CE2BE9D47F5CAA2935A3C0539AF080665997194ABECD723B08129CC5B6B21D2E7D54CD4D126
311
10E7E9FB8306771A89576C7A982002775ED44F3F744CF21EEBB27A631671D921938AAEE3EB0D19CD1E083727F607823E817BF599DCED5394E37EEBC2E88782E638920CA641EF74D4CDFCDEF06F4278ECB18E31E7E9876F2D783C8BF429C75395F57E98C2B495A3DA077EB3AC3C158608B6B57FE3EA48484D9A480096FCEE0D
311
E880950E7E5A5714131C5C41AAA29FD19AE81AC145FA1B9E85C7169A5AB837B213493DF7E9AA4B5FBF9CDEB36EBD21EF1181B7CF7366AB2A951D01E37AF4EB835D1BE8C117CFBE7625D2EBCDB0B20C5A4B45CED0BCDE3EE8DA9DA78C2E21DEAAFFD1197E463C33CC6A80FB785669B856EFF7A8CCCA2841B5A5369173320B11
311
70C368B2748D81062EA0296E5E2D95D7667A4A46D98A6FF475C76AAB0A8C8D45E226FAFC9FE0133EA9F60111F99CA81ACE03A1D14C89E8B0D69079C91464FA1D99E651D0EAF606F345C42A8A1AA9BA391031582B96D5B4176A77AADB01F12FD298A75DEEBB2C82F0B8650E880722F8DDD90C56A7A058E5FDEF1AC93545BA27
311
367C76F5D8F9690CB6F8DAE141EDD7971F0FB548A2AE435F224D6E5954CA155512F7332029D5A1230854B79F258EC5FFDB09F5F6343A8EB193229B7F7E79B3E48F8E183860B38C8269D1B53738FF1E0BACF6AADA6D4869E9DE708E79B5DADCC09B1BC76F649731CFAF59A83FD8BAE4C749D66FA87A3810D4D62FFE826FA400
311
C0F325D2BC0F3CA35F5847B82A2ACC7961745C823E4D863D54460AF792CE6F79B5C7A33B25C3AEA6CDE15A919B6367D781E9D44F61BF828672594A3E1D9EDD6DF179A81F27EAC05B936575D73E05C209DDD2115CFB705DF9BBF3C911589B3640735E9E618FC9C36A7326C82B2205E244C55D56FDB9D5DC93CE958D4BF8174D
311
2B3DA54CB3C09F2C2A6DFF73D23B2197355761AD421EC581284A7EF8DE2CE3497C0C804D49B41DFD6A7360844E5BEFFB495CFCDB97A4595911CDBA623274CE852B5E278AF0BEB1770E9D37CD977B2766A7DED0E94B840E1E95E8C77DE5CB6354AF7871427C28ADBEEF7BA0A28E19DE9ACD75F379FE373EAE6DDDAE3834692F
311
9C2B03B4FCA8FCA9ABE8EEEBEBB725B88A7C90941E850682CA04061A7DF0CE82ED49BFAFFD42C309818FAE14755CAAE78B0F73243ECCCAD7DF58FCB9CDFAE7A4D3E6671A613639130D056C8383C8F4FCF4808C331E544DD26E4755D09EA05253B3049A1E32587CC25D72E073E2CD96D04A71BBCB0038FEC3F53D254199C3CD
311
C67CD66640269431860225392B2CB3ECD0B4498AAE78BA1994246AE1EE78F2EDFB79F6C6CB6B5E279C4D373FBC21CB2698C9ACBBEB6A4BB6B39E16AB0E421CCBFC7654D81ED86022F9BB522146F9F4772E2D0E4FA70120C95A85A417BF5078B232F4754363EB1750B2AC2148EB46B1EA72AD9B4D23ADCBC589D70106C3EC2A
311
BEEED84DFE28E718C6C83502C28E9FDD3B09DA0A6F6F7B72B706A31C9E2A331EE70DA56A083D2177BFD63C55B11D8D949FAFCF90B23A1E24B9B5018B9A17E99F2890EC302F330FE7936E2C23F0D237EC8916F5166AB84B62A21BB0B950146962D754F92CC2C8877BED8FC7B7B25726DD19545392570B3A2C66B58F027BEF41
311
2E552D12A588C4A3CC5C3193FCB3485EFFF700D0B9EEC077754A33DC1FB9E25AF814628F91DDFECB667D3F7690803F38D13F8AE39353523BB08FC6760144AFA2CE28236F65EDBB3D5F59A57D612B99E3D7E5F8A851666BF9B5A6658EFC96EEB37A378ABB0EB3FDDF1303AF32C41BD1C8560745D7BD81066B0D6313359CF488
311
563D3BA3F8E2185D1FAA3EBA1397C9D0E3DD232180A4DCADB6AF25DB3AC3CC26589C8239E66E81547BC7E2F328F9884764CA37EB5DBE390DFC03A5246B456A7C3684C4377D0EEF9A350680FA9A077E8B2957B489E09AB1AD41316944C2254B5984830F691C93CAA767EECF976FA5647538830B5E63236A6F0365C1E0F3E327
311
F24FE35EDDBD7360B0F7374837409F7A6311BECC12B7026D4FA1AE204FA3F5FE904B1F420C7A9044AE58E403E7C4848E7DA25DC9EDAC79DD756FAA26B9EA83ACE8A214A2612A22AFA19DAE7DBAC5F8CDE1292A485F98DAC731A29FE01A3966E96BCB9FB5A4C8830E1B9AF0C54B87FBE221A097036E5D28D1F869F810C06A9B
311
B0AC0612F69AEBAF893C6E7AD59460208BAB3A6B09CA4F6BDDAB8CF0D1F84B72487498395A70DCD754796E271099A567A55CF242BBED64696378BB6CF25EF0FCDB589F3A82F1116D010A9AB9FA4358809EE0C973A2B4229BAA876A70B03AB49CBA7FBE71DB1832FFD32F9BF2C8E98075CACAFB36921235D0F552B6A67E94E0
311
94097A5D7DF681B40623DA535ADA7A9AD8E9A62407D7C9A5AE51D62A17A83A23728DE86BB56115804D3F2675F2C6B87541A0FC497BF0CA86420F558C9859EBE9FAD62747E323E3AADC03FDCDDFE7407B09DA90B44E3185723C5381EAEF589765E2F7A099BA46695BAD60CEF3491B8A171F5F56444F7CE9455312C3498C7417
311
3AEA0214EC029833B34B650CBB5A5508D5091665309642791708ECF27CF11DB3D797D6CFE474453BD4BFADB768094B2147814D81C7CBAF8228DCAF5564B5891F5EF6A860EB2E323CB82AB868D8EA048880D63B0DE5341F1B3D53297B928A11E15F25E5148990F710747C3509ED14909C552EBE3973246FCE55D00564D8310B
311
C3EBC5085D08D806799B77D6C57FDF5E55837F9E934F09C03C729271B64F12D0A9F9E938107CAF7BF1EC8CF1BB9B42363D33070F4CACB425E605DDB0A34A12BB936DE286B9887A4E2E558F0886498BFF49C311D96C277CF6A9FC0D75AD0ECC5226D7E0E3572012E56D7FDE4410CEC7A6D0F997F225A2055B8B92E3956E875A
311
E4993CB3D4C9063AF98FD45E1BAB165640A43439A2C9181A7C355B297C0A0CCFFAE19B6FA3C2BA238A885FBC98B8F6DAF4B94B97304878DF4D8BFF6A4AEDF79E90ED4E68F00CD7299F4E0D83E35601AF0CBEF18C1E870E74758FA91F5131075004DB3CFCF09AE1DABC11957FD9808C92E8A678CE9DBE40DDA0E0D1D505AAFB
311
CBA208232BFB6FB3704E8985E61ADE53DE74152F5C7DE74B1DEDCD37DC3E8FB30D7EBA8B9EFFC3606BF90B8D438279CB7709FC7C00D327F41817EEA71CD9E49FE9C8C9A81C70915D9F0F15958EC5AA4C3BBFAF46986B90F188BDB24B89DE3C6F29EC3E6F66D84856EE96A35E657CA41B41EFD8DBFA16AD6E91439EA92B40B2
311
1C053249F51AE50EB0B24C770FFAF40DF12C8436366819C48E36547D4E7B72FE2BBF10828583057814A668BDF183F6B2E58DFB151103E56303E63D00F39C27C4661605DB644D19175D02E3F0241E8FC3458D17AAAADB117CE9EEA690D0DB01E634878C04C2C9310B69FCAB831151E3AD293BEF6E46B0ABCECB50F5939B39C6
311
13D41E81FAE8D34CAE3C4566B761D37185FE864AC32FCB71AEF39DAA5BAB88609BB980CD2F07A8F941653B529567726E2B2A58D079DD57E1E5E31426CF184A04D7B03B985F276D47406AF276FE32E3328BA866EB1FD39BEF57863A317634AA5FE467409B3873F5069EF0D71AF00AD189D17BA1974ECDB2D623E9E14086386A
311
6AAB5807825C37B015BFE892AFD154920EC437EB945D958E18622E1E0FE2FA06557CE4BB9BBD05A2D40E774DA2B65473791E314B7D6C886820B2FCFE4AA272B3B8B15E7344A145E8AF919B5454D89D36D413E87211186BF6F645E5EC94DCCE8E1C799022E4EC9BC86D7A0F2AFB1FC4B2CE48F84B3F49ECE65BAD24CADCC07E
311
FF39AB06BE9E6B27A059938EA7208838455383DDBCFCD967DDE4650EF92A14FF933C975DB20BD7FEEBC4487576485963D757D16340D9599FEB362F775F38CA4185A86F74B629C81B133644A3B18FD056E997E0734F9BE26D11C0AAFC669E2AC9FC41D281F8B2E1C35AE27BCE05F3DA295488096688719D974DF1B5D182DB77
311
92288697F8763CFB43562C1CDEE11C4AABD5C22B6E33F6F389CFC3477C5919DC0D533F8A7A1846B7ADB60ABDC26C43D0CFC8910B7C15EE22675BD02702ED39DB77A87A192CA7A543E6205B979B9F5A6B512A3CA799E198B2D5797C0AF8D1D872CA455D4D431A7879D4DD76110B5FF7F4176B54477A9EB5E4A5D11214FDA585
311
F0382751D8E2582BA5D2075053298FEB8F1537304E32CB22C2E2B693DC0A760B1DFCA751BDC445AFDCBB12820ED85F6D5298933C7EF1211E9E057684056CDA3FEF3BB6052355E162DF27C59E965A8DDB7F9437EB72CDDA3A090DE65A5B2F50326247B7EC67B73ACC7047FC9B353D6EE990F772207C6EC52B39DC2F3C075482
311
1DAB559F7C1809C7D0DD5B0499D0442E0A6E391B3D5DB46D11E731E6794EC77523FBDAA242ED67F9FA1FB684255671F63C9BCFE6E7E896D51001A6113EF2298BA494E0B0980D1FA5B9D60796554C02256B1E0345FB7C6186B6A19D2DCA270416262845FA4F42DB5D9B0A0B6F07FCA2E56C242522E001E0CEB734AF310FC8BF
311
B57E38E03AACE93B3326A2197891E68452B26A6307FDABFEE0223D3C03C3C73D2D5BC054C8311F12004CAE488E5C29287F8156A2CAA4AD0D7BE6B97264E4139F437CE73ADF52E5134C52B819777C18B323A5924E4F67AFD13B1CDC3A61793A79FAF5C0CEB718E441071E797C6DCCB9EFCF7E4A1E9F3DF3C2F9C9E8294E9586
311
868788C972857FB0556D7A26941A7EEB9B580AD78EC40B85DC906B4120A563CA3B87797ED612D3B035962BB75F6515A393F4CB057F564CDF54F2E5A024514E6A1F901DB80C7E70B1FC05E356A7E72FABF4775B3E3FB8F70A2A8E7B6A94542BB304157978CCC999E707A29CC795E67A59CC546A5D47B368954CA7B6E75EC9E1
311
F6FC73CE3B4F71F8CB1A6B15923D61EAAEB14626AAA9D04A26EB9C66CD1BE86CA31A5D8703DE04CD1EBCE4F5CCB62F93909AD11E55799A781A956ED27D3E738F4538CB04ADABC7DAEF20BC35BA6A90BCC1DC61BA05F20D8832FFB9BC9B15E2DB838A0AFBB7E0C82A562127E0446894F427794C3037186F622BF24DE1B00AA1
311
0A23BFA47B2A180D6DA5AD6F7326FEB8C100C2D7142EB2A0B2A9D1008A09BA343D70E054AB69E2A7EDB783CBD92537FAF4A44D1296AC2792729104B3276C276C951D0CF3CF3F1E6B017720A7B8505A5FF9589365979678C36F1BAF759EAF57C60F1FF5FE9DCF5F8E764FF25A2D06CF25117A8FED51884C13B2B750DB0E4F5E
311
3D64124FCF11F0AD8F1CC3B3DA4B38ED22BF1CB2585EE6BFEBBA63FBFD44F9537B9B37BDD6B358720F98A8125AED4349CCFEB0E135F19E208A04CA7E2B10711185D72E381F448036EF57C9F874E54A971CA37A639E986AC0226DC5AA00D5B14FEA9192234B3DE617814FC221C92F33F1D392F297731B567FD98FD91D989379
311
AF567A65B8ADF177591DB90FBEA99BF4ED11B16E50A0AB1DBF1156D034BBE04D69D08F939D8E92BF525A1DDAFF80ECBC95D8F45D3FDD289FD23F7D8B452F8EBB34EC082DEEE68E18EDDF072060FAD2AB1504DD4879BF67099FC58F6E9DEFBF645D16334A3E9A127C6F1AF6132CF287E433B43A0EE93812B4AA0B194E03EE3F
311
F91EF9C6ED0074A2F6EB18A96A7C9890B1FCDA1F2095E944DB911ED54C60DF16FB74C8CE9BDC7C54C4F14078CF73C2FFF1F1BBCCD7CF64F71407EA1683DBC410D226627F66E509060D5C0AFD611DE681D509DB8DD12FB1265B03C6F5C55FF4C30BD94187FF692B4F152982502F193098A789526A038AB529A52BC0DC4FB628
311
5CBAC10A8B8DB75DCD9BDABBB221E27D1F8DA9F5EE5926A1C8AA9BA9BC09239C6A7F12914EA3B59EFF7AAEC3FFCCE56F1C5C2980AD072793527565E774F4631DB178CEEC691B1F367BEA0CF2907E1D6B854D527065979DDEF002D8B2ACEA7CE21AE297737EDE1D45B31233B73FEA35BCFDD0B09721FDBAF6432681F2FD10C3
311
E9EFB246FD6E854B344ACC9D8A0EEF876A7314B49B6A499FC650B099D650DBFEC7638ADFD245E2B7839DA5AC5F7D5623FC0ECEEC8653FC9B2BDD1AD4D00A566FBA7186DD3C9CD26512551637498CADB950FEC71ADB9A5524285DE328B8EC7EC75D2345AEC6A27C42AF6D9B92155315C80DBFCABBB7DA0FAE425C4FB896B15C
311
9BFAC4FE67DF5A23D30C93DA4D8F36FB15D100050DA6062E22AEC5F4DAC4F6FEEF97AE05DE63C6D38F9E068A20BC5E3B6BCD75320C5090924E7F93640A7735B1A43451C2D91EE62C6238B797349E59890AF3A520DF4A87095F3ABEC2E61F0593416CE46CDCBE0E00E2523FCCD04408588B5B6C9DB6459C786CE378770B54F5
311
1DA3A5E1DF2A3349BEAAC234A6CF8993B598B3B25B4B113E353A4D750FA7534749430F3EBF2512E7EA3FD43C6AB9A1F765A58463B306721A15D224FAFE8C6F5E3432D57EE697DA0DD5A9D4866A8BCCAAA9DFF1F06047851408FEC060471D0E3EB86BFAF46E4B5E60311DC3E3CEA147C75CF971BE74689507154FF2D2E92F15
311
CDB2B9182B11459FD8ACAC5A85F174BC94A7F4EE4C4F5CAFA7C02E37BF0BC77B7DCD0C047BC316F562A01A441AFA7931CC84A28CB9F4AA367EB515778F29BFE61195FA671F4352E5E46E3A64773F1F76EE5EB36D7BCE9BCEAD837A4D77F8DB8C92AEEF6711920D7C7D0F76B0FD0EB7AB83724CD35BCA7D36DDDF5FBB7FF6F0
311
4A91F3E2BB3B8F1A43CD659639507FF6331C5F697BCC782AE57D757A27D97F1AB9E0AEDB43F92F1B2AACDF5FEC8ADBAF9F814E2027003BA2F9E144B1938A7A04050AE5D953B82C45619165C813A10E76DD6906B3C16438064D14CDA713AEC420034613E1AC7241904A49FBF87409AFB1FCB9B72FE7933A87D8FBEDACECE4ED
311
CF6A4FE9FB94D5DEB74FAB7CFEAE17EE965DF980DCCA2D04134994F9A2E94D2265DA4FE6AA7B7AC15FACAC2B5ABBCD7DFF542C5314FDAB2E1B9D8B65220B8E2B638BE008E8DCA22678C820C5053664D15E89F2D735B51A84955E81A443545E9FF787BE0FA700A76D136C27DA179A7C6E8939E01BE756E19CB292798063D8B9
311
7F44E8A27BCF3A614FEB8BE974A718E86F7EC99B53CA35FA24F61F2B07266684623A3D4CF073E511F3A10A8FDAFAF0078C577F4DF9D339FE7862E5FA47CF4344209E5BF76D783B1B48E152AD281B15FCB934DCDA49CEC5706B1EE8B460F435324A5CAD154725E21AB8044B75A557A79F6C807B9340AA3D92503E866F427441
311
2926C8C504E4D5EF8C0E68DD0B028781A6B4054F11CF18941F101C57CCC796773ABC8DED9CD91FE5788806C05E548895354AEAC96546D55B0E94A59F148D061F42AA398D822CDECA4CDE79E13469BDCC44FDC990F366BA5978C15F97ED80CBFD73B0CD9B8B83A4F6845BDFBFAF034019473FB9A63BD55D3A4A728475707157
311
4029A4D016DCCBE95DD679EF3C4880BF169422F8C89B68A988D2B13793CAED4F74DE7486C72DC94DF46B8E93D8E02EFCB1FF9B3BA10C8AE7F653DF94F4AF466CDDCEF5776687F7C4C14B63E4EED1719DC2EC482D7DBCC7AE518CDE3D5FF86D39000EC3673C0044E1D308BF05F74D1B5F033A7D1BE7F74BC55BBE3E4A20F920
311
946CA0271EB17BD2B80E5660ACB8A29A79F5E4BBA49D4D945B6EEF4A7EFEAA65E5555BBB57A7E15D2F83C69F30BBB978D2B39F1F26FC097424D39BB33CA3D87ABF64E307938B685BAD44F71556A30B7E712CA4FE600613C3E554B69ADE949A7CFE214DF1FFF05CB82151EC6FC31950239F94CF7AD39DC473F6EA356E5EC2C4
311
EFA04383CEFE985A127484366FBEE3C0EC4FEA363E4F6632AE781392FD45D67B63FB8DF70E82734F431FD3443172A0E30A83D60982D55FA6A2CF86DBA8382502ACC6CDEF3B907982EED1160E14863FA242F9757347E1544275CCDCF71ECD5F8621CBEA326B8BA884AD7F825781923E66971F04010D574C541D8427A438A37E
311
EF8AF88240EED7362C953F5A81DE2D56109CDE2524EA0F5D2F87308C0C47BD97AD605878AB8589E17CA83930CB5E0DCCD75853D68B1AB136594926DE426C367428E9334AFAFF90ECE221BB5DC9E5BB53D2CDEF954EAA9CD814F0E5725F1965DD458E5F8487683AD86B9D0076BE3EE91EB1CECC5331A67A3F79D8B27587C12E
311
C2A6A70474749F27B4C0BBAFB94B34189E88DC18964BE4121B9137FD516C7755356E50D6714E31ACD222621EBBCD1CFF81D87479056A9DA0E0B8EA19D24CF937DA89F78E8650CCBDC110AAB6C4E46DCBFD0446BA9E2060E81F314AC2031E88135E5476AC0160EF5C0DD2EEF1B8B5CB2D198BE9A554A9093B5F7D7E4B5407DD
311
FCA1D9C152FD97F55BFFFDFE802954DFEC8995B983E28AC92F1971E28F531DC407A1280EB125F64A72E617EFB27DFBCEDCDA2D6F2BDADA36873EE46B9BE1782998C63DA7182BC383FB6FD15DA472B175D7E8B4FC88F38D6E07FEAA3FA3CBB8F6B449ECF14D2175E5C5CCA3A42ABF24CA6C9395AF74535F4DDB38CB84F56614
311
B0FD32D7E19CA5CF988DB4449C40E23DF2B16772594554579094450F56F253CD25EA7F77366FB1CFE79696C428BB64D5A41E986189427E5E4D7E2DAE3D5BB4972B3DC44EAABDDDD63A2264ECFA5C786EB0EE1FDC5BE34FA0F08376869FD1E61EA06CAE15191135445EE8F0394161C3266A596AA035572BB0C8876180D8B9C7
311
7D307DF9DCDF7365ABDA6F3A2366436457A4DFC1F259666569A9E4A79C817BDD5610E5200FCE894A358EC72858D50EF67545DA81C6FACE3D457BAF70367E1E6BDD9A952FB4F56247F58F523B97E640246051A72F79BE42FFA0B3187F63097F91C48B868586F714B0EBD5A00A8412C1236E1298F60C72BE6C96B82B404CADAA
311
304AE9F303176B14BA53FBC2D5E86377E35542019E24D97B96A49B2C0E5006E7795954DEAF5DA58958839043C6C70BD3B1B33B6DC5C31316D8A6923F142E26F6711A2258AF977DDF1F970ECC4F1F2B434B96D81BEB6E89BF3BBB3C7C8CC80505070723D6D7D7D3C8CA27CA164A26024FED94B12A86031867241DA53D929636
311
DA600F050BC40CE48B8BA03D69224720DEE2ED2127390BDF5E6EA64527BBD4C4C63FA76BB801FEEC0E61218EC98A8A86CD8313781617877E66692839B9468CF4DB8E50A73986E558E309C0D6F676F921BE02F1185454DC75B111572FF9D27D85EA14C05AD7271225B391C4275659CA4A43759D0BA44639BE4C30A84DB7F67A
311
41399FB95CBF923B1B1672ABC807C1590557FB18D811983FA97F5E609516D62281D38B1281F68FC75528C35E4CD7DF0F7DBB5E5DD69C414EBEA2F4A5B241B996BA77AE6C772E367408C633EA3E438B68563EA8BE7667F3A4C4FDEEA52ABD78A2820F443B7914A15F180018D231E64519C56A12F6CA7C8DAE18F06F6B769DBF
311
92329EF6A5D18FBCE600F36BD8E8198DE5CDAA96181F3A756EBA5501CEE58F497EA4F418A2B82565B9BCC611713C0B708CCA1F398B78C5F7D03B3437CC18F13061F55C7BEDADD5ACB1DB0E36D3CE47FF6EA1A563A57E9649EA5D14D1A50EAA457463381C073777EF1600607BAF6428A7DDC079D47A204EF1E1F1F0589FB054
311
D45E02CE623B3823C317C601E589E22B1E88B448524B86A82828E32345EC18AE17214B42F8C41C6D428016D9BA31DDCB47572561E5A402E5BA4FCE55F78AF7268524AA04130F3A20BA5D1E9F9948EA48FC8F5314FDB35E21898198060034ACE5E3E2BBCA34092518F275190AF65F45867FF0900AA4B81F25427414C372BF51
311
DC29AA855C5428EE1EEDD6B849AD60F6E73475C2D2523F8A2772C840A478DED18A8C5C91B085F255DC4F54EA7AA8947354FD17ECF8FB3B4A0DE7B483CAF3A1165EE05BBA413E5C1FEF3DE1D6B8F2F3F3251C17D9FCAB48A9AAF63AC773A0E413BBC46A9ADF84A566FC920E4D8C52C9769EE3301CADEEEDD92B312E02E2A7E3
311
5B7F1E7D203FE5A7D75578B06E99D0E46FFADB8FDA17ED8880390DA29094202D6F645F76F6F96409CDA05495A96E84B04A00D1A6C6C81D7F3DE9376E828CCF144EE50E364ACCE7237EA0BFB5607ED1AC3CFE73794E5B61739D14DF1743441B1AC98F00ECEDE9E7301FA29755FBEFA68C91EF2B314CF510537EF1ABFC9A7624
311
96280B546F5EDAAF8A5B387D469FC9A878A92828C88608453ACEC6094DCA54111E7AD5B2663DFE2DD151B7F123B9F4FEF8EE36AB125FD7AD52A59B1B765B3E3F73E3F73DEA93875004D2AFFE3CDE9493B87A9904DD052028949041A91DC0E1BA47BA714343FD5B25E0A6A09503AFC17C790058A836A324FE31D7893512E282
311
30332F153181C1E018E1124EBE1BA262AA428A518237D1EA7275E48C5C561BD19ED6912EDD8367DA0F31E40EEAE9683DA9257525AEA7B632B97119E17145A90231768A4F3B9120FF32E8319B015E3CBE26F1A754177D8185345817C096B0CE443A955D13AC15E1FB5DEEA0239EC32A3C92241A237B0B02FFCB4F93CF2B0257
311
0C8D192E2F2A68CEEB42F12E6F8CEEFF46C251E22B4341C56FB08CCE550E7A9D6F4D6564B9EA52A83D5BF2C6E03FA19D2775E15A8A7ACF30A13C259EE7F5EF2AC3BA354F1500E1A07FC63FB4686E2F12EC69719F9ECF5FE3F35598DF2CE944008CE78F0911BA5BE5D0A34E0098FF038669C26030BA9B300303039852A8F6F4
311
96341737CA7E0D2E3AAA36DE0A70AA7D9CA0D54D9AD84B18A44C9E625475E1C97B93BEBB38DCE7D227E67A2D00F531436136355F243D1FC0D712C5765754FA22FCFFAE97919161F46D6E61ACB37D83777B385889770B50765B127768443A5C4D3A4E35A3151111F146B7CA116F918A049F1C272F2CD7976C69A00687734516
311
59A97E0F4A08FE604C3FF6CE7385DB19F4D3ABC8A0D80DA8A42096AC377DB49382B36E270B6FA7570188B4B7D1DDDDA82ACA487CCA5D38BD3BD039ADBAFA4ACFF27809239B722081E2EB9F145320553D183F28471C388BC8814E5045676767AB58A8E72D1CED2CA731379515D2E533E4CF0B39DFC625F97AC4836831A4DE33
311
0E87A8126FA17EBE583D614E71E22A8DBF2825599743E0640037303E8E1B1E8EA4E1ABFA4F62907B5E4E0E5DCFDAB417C36C6848A2B8D15F1E505434C0707E16B1CFC2A1C36A42BBF55734F8F4301DDC2A5110CEE8C0747F69519265012A2174BF4E955ECD4FDE095A3ABC70536B7AD0B9D7892F81287D667C108703C9B66A
311
221E9A0929D030008F77FF6F5D2108EF5706FC87A3069B976F7C9FC3239D13D283CDEA83597461079FEEE049B0F392889898B7D87D31F8D60ED7B56B91823A8E4EDDB36C6172ECEE42BD42B12CD67994FA0F0DFAE9389356F4CD4425A4B8AA55CBF7ECD585C6A2C2316791E43D5C06841ADBB226A87FD61515FFBB0167B74E
311
56BD7F3E90A57A97FEDCBDF483A0D6699A8C0849CAEB4947FAA90D8E332D9DEBD9F4738C37DA0CAF9CF3DAA68BCB67C420459C7A64498D6E848E5CADE92BB6901F607AA331104A67F7CD650EE169B1DAE94D2C31C2F993632259B6957E246EFE4C5481107B07118607700040E5812A2A2A38DA0076875258C753F60E0F2662
311
C748EDD5F3F3686B8FC3BD6FE631ECCAA1E8B1C1E565AD117E54893E79F4672E32F9E46B2A183DFDCF3EECB4D4D077DBEA0DA254D256045109670050129E9B9B1A9E4A11344D61497A992778095151510C4BB7EF2009B63AA4360635312E4CF668B7E0D3D85A8688E2BD83B569439892ADB63461930D428E0DE42E4AC57CE4
311
8DA5CC1449530D8BD3D6A0F08DF20C8E8F570F2CFFFCEA286E30969B4654D498A58D9DA782E19FE3F002181838925592C4A1EF0B332D88B61A92C644547BED490D3A42CFFAB70E36D961F694F6307F72FF15A1C79D5B1B5CEFD353D9E2B52566DEC8F8F09CB3E8359C0F68EBBB7898243E34E12A015B2685AB303C04D3A9E0
311
0671FF3DFF0A184E4A2ABEB2B666AF5B3A209C73D8EF29DCDB069C9F391EEE9DD0F74C7BCDE16F8F02E3B8816122BBEB50665775B600549D8BB33A54A6BF940C028118BC6878C79958D6784F9DEAA6E26748386FFAF8D0D0101E2847B6563F5D8DC1D78F787BE00E2C941AE12148D4A81599FE8F68D4DA5CDED75530ADE138
311
240300EE13B0FC13A1687FED6774662C05A2B7DFB186732F0D7A93545D8B0A6390AE5054D9CB582DA846D7A061B3358B45E2B52DDE63E114397EDB7E09233A579155D795BE76102CF277F4DF8B188C4F2879BEAE3C08347124BF9ED23B128259FE107D31E34A652F090B30B39E0D9AF917B76A2806135621A8A60681F16AF2
311
16514BBD02711585B5B1AE823F4B2D0369EA5B6BCB863072727FFC871CA6C9AB79A814D989057E9470A3D238BC87CBB4A0EA49AFE2B86F22E499793CAA9047080450166BDC357524561E258C77CB697F1ABB32562CF87C3B7AA12F911EF19FB3E5C02222E887D08202A60A17151F5E053A86B437771088B4FEE14D652C43E8
311
D939995D34545E12E2FF93D4E366EAD25F10CB7DED141563C3D0C447AF06078A91135FD4B9611583CB4BF3BD167F2399CEAB0E0100F8FFC305F00F1711717173138B4B48C83022295DE657EFEDD97F238ECA80F528AFB4F8D67AD4E2594B9A3AA86D7487EFC313BA95745C186F0CDD84CC12DC9CB0424B42203D351FD9C0A3
311
AF10CC7F388E0329279087386421F194F4A29464C1DEF7EF8BE515E4A199DCD5B909342598D8FE6A231F71336248D5CEC5454455C7BE383B3BC7B260FED27F703FDC39A170F3827239102F59D4DEE7FEF82EAA1A5E4BA94DCC4CC44E7E2EDE20F24244E4454369D2E87C3F823F193FD4FD27E1C23984B01898D15ABC20711A
311
8A558054951A6AE280096BA36CBA439603B7B0B4C45F248C14B2383B4B5CD8ECECE4FF859AD4A6CA2326D020EF090F4041D28DB66E5256B56232CC52829DE8060BAE6BBF37D4B7469B822454FE93210A3E8D15E69FFCF01123222611C51C4FD0A041A0CFA2471CF6BE38D2B20FA4C3525B5B8B586759475CF80ADFE67A284A
311
C24651E52B8E683D24C2622642F27E7C3C22783BCF63648BC398BD6CD0D9C97E7E7E3EACB6126DB7A6C1FD9F1031302EE67ED96F22B77C7CA0239BB324207559B105E4693EB26EC46182A92C9C0DBD24F29B31C5C5AC1F84300E0E17CEEAC15F5736FA4A98971E2F1423BFCD68D4BBD5F86E74B40A369F39507C88FCDB35D2
311
DD8DEBEA4AF999E23CF2816D204200DF6E611781B9884C1AC8888B4DE397320472959434323A5A36B22A8E1F721A270DF3BD65E4A31C11FF048AFB0D8B7B6881423793963A23CFCE935FC189ED36FAE35C46DA3574C979E4394BE52084F3081837BE033396D2EBD80F1F691B273F660D2B32FA27A33B1DE4ADA5F0FA465151
311
1102DFA410DDA86E065272CA314D5249DF91B06BB92807B28EFD54F08F7B525252782CD276DD02E6B0319B13DF87B1F6361AD6B28FC0D711CF445429B9E5A433CD493051C49A9E03DDB1B147D880253514A5DED88009018620EE229101C041950E2D8AA8E1F5F5438E0C0C0C60EEDEE9E3E0C051948C69F84BB7B2A48A1F3C
311
8EB9E6864687F4F4F6F6E2FA87608ADAF9C5E117B7C1A737E710769DA1D15ECE6A84502AA855398712D5FB51BE92E4EF824969CE18278798AC303C2C7980DD2500ADF8FB1E6D6C2FAAFF9987178923334A244758BAA01A9A1B70FA5097D01E1CC2A58DAD0EC94CE6430AA9B0C10D75E3C6BAC670EFBADEE1607739CE0FC18A
311
2587E3EC3058562014C64219C69BC269082D5C2F4A659278D585755912176D78A1B641719C2A394CED495A1AC5D583FD2F5EDD93308EA7EAE8A6DD396598BDBD3D4CFED62D18A5BDFDE0DD5C80D1A89BA62697B131AE7CE9A6594138582F1B37D68F1749AC7CB67A70695D48A4A056AC1FBD4E82358CEAE38F54B95A9016F9
311
000F9879C0D9D131768635CA798895F27D6F1614F11F2838A83611AA51C9A3DDB539D42979C29F10465655C17BEC3E2760B80DCBF609198C7B171A531905F3EC218D696025975E986C6B4C666666787271F202805577DD5A3EF0CAFAF91B62DC4B2DB4217A7606282F31D8DDBC290593BAA93EA6353AFA9939B877978481E1
311
5CFC9F2755CDC00C538F63A4BA3E80AE009B73CA0185687D339A507D165B74290D6EE46D5C58148F020C3668ABE9EF2F7549170DC80DB41FFC1D678FF19AEB10C7133832B104B80F691B3138F97A92D26E551F1F110400D45AC71A9B9AC41A1A1B1DAEED0B0810638EFFB511D46B121C6FEA0F38CD00E03CFFEB9713FE1F9C
311
263E4DDEC160D0497FA9A132BA608584057FB15380825DE6C7FC3C667EE947D488A09898D8E939C4953BF4EC9836344D2CC6B2971B2A21A572B06096F4982D2CC7232D46E8EA69DC83722E267754D777F97F96D5DA74E1E75178084D0E70F12AD33E5F71EF2AFA599B2BEBF60A5BE475F444F240CBFE8143C334E7ED9150FE
311
EFEF7EB020C4DBED388DD1D6A167A76F3CBF119B578AE8CFA7736ACAFA4440A1C47185638A0D2F3EB5BDDEFDA958FB13CE4AA4923D5BF840392D45544329525749734866684BF7F8D9D54D892E19BCA9F829A0F8BFCBEEA6CFDFC61D74EA1A645ED7A1FF241739F15694BD835B66FEC5677E40FE69BD3F91AE402F03653721
311
8A401CB0828604AD189E575015C6F3F6BBC8AC79CF6C70653847254B31551EFCBEB5978B9DB85D58D0FA41A9DFE9C624834AA04949D24B5AE6D299E072D152D12097920F14AA92C31C3B97E28B6C2E6E9C23D63043ECBBC0A60FDF5BD0C33C127EA8A3308B8B6AFFEB28B4455BF6E7AF4FC6222728357EB8E46E85053E6A88
311
43AB23295BF838ABDA94658FEF3F832F147046B4ACD6F7D48E8FCC9618582961C898D1C7A253C91BFECBDA6BA18A1FCF70755DCCEE2222F41B76D23CA98D0CB3D95F0CF66D57FFF65E2A90F5DF40FC3187621E981BD0BC1D992787212688976B94A8F0C6EF646624B570B78E068826F87CE27041A95C9A4871FF65CC17FCB1
311
639629AD6A9517000D63AC231F3D741CB8430777E7ECF80CE7A3F73C0F162F7E56AA71F4DA80A33CD6ACEE78E2C11FAC03DAFCE929B106F8F6B3ED2DC71FF994BD9CEF4E9A94896EF1B6E2B7B4978168BCF0847A3D2A4F1B0500B926E634B174548E9FBAD27153FB5FC36799B1E6C7C38A94E1F9E996796D7B485E635D5287
311
A2AE76FBD11A341DB3F8F810385BB7296391973DC6C37C452A9305AEBBE0CDB6C566DB59FE60C8E94B1FD090354BF51439FFD1B48D725228FFA88C84F686F547107A7A235665A4593B7C34D748C1AC8D56DD5DA861EEFBADDECBBD65117E65851F90351AEB65F0EFCFF4BCFEF24CB7A5879699FAC437A7AF9099186CF006BB
311
923A59E37D7A36A29FD8D2CBB914A5E9D0A8FD212FBF796AE9A67958FF1D5D8B85F78F96219D4714EB919929241B6C018AAE0C02069F8D919961EC5DDFBFB7573E3AC8E08BFB7C8534BE6DE045B3CD63DBD71F7638BA2309CAE398EA3A7D8F98BBBC7AEB367EFA5CFA27A9F8F2F52FE878058E6209C026453F8E7E8A237DFC
311
389E9590F6059B397CFD65183BBF936E86896612A5B5FEE49DAC8455D026218AFEBEC12B3523A45B57B82C9C97E02ACFA1184DB18E48CF615DBF39C3CC6F0B4AE6BBEEA2E39D944E290302FA3DE33FA7E40296E2EF7BF1CD855BBECFAD0FD622BEE9746FC4FDFDE545AE6E3BC234CADF83A0FB76DFB145BF3828AE3436368A
311
C24989454F8FF70A177672C711CAA1A76107218CF948CA01F873520E7A2B118EBB161ABAD432932029628B6761590C98AB590C8C8C79798CE9F715BA696E839E9131A4BB68BE923F1747FBFF165331FFDD4D05997ACD168F12CA75348DAC04C7F509FE83898A8B421181AF492861CE81E4A2DD0A30850CFA95E05F097FF70F
311
9E777310D584A75BA7018922E271DAB1D785671157685B7D383D3E074DDB4F1E44EF04B07BAAC75A062077C54B9752C738C9D804D402E02851F3F89605AF189738C18C021D2139EAF72513824E10DDD3047BACC8521ED7E98B257D1166903B1B08FA6F918FD7E162913FEC7D0EF4787E29C35FBA8C6E2C9C20E9AB30AE42CA
311
2A01A090E7D010C1B5BF9CEE2A304BF3A987FB40D836979B79E18D70F257DA61E808472DD85B82761825779D6B90CAEB0F23360C6F80A7D7D77545E95B3DFF0CF96A827F9B5BCECD2C9698718417EF80FEEDEE938AFF55859D0D540B7FE09435583A6F04874A0C7E8CF234DF4879722000167F5872CEC6BF3EF7E5A8CC8121
311
E6A359227C8A29C95212F9F735BC72A887D56B8F309FC525BFB4FD767AAEC4AEFF249CFBBD2DE1AB9969A6155C7D8DABC307E47324C1F916C7BCFF40ABA5644E9FFB9238D19ADADA49D9610F01ABBA57E4DFCBDCCBB2B93C8953206C91DE01B0E2651A6D6C31721915B31F7B7CBCE55466F6D70402788FA91D73BE4ADCBA99
311
A35F17D6B83383704917D6833F0FA3CD45C926ADB8BC17999A4A0AFBCE2541F7B8CF4C2F5FBA611B3E626D64407CB32C122DFF4EF8674D6EDBB86C8F7C6A16D50FA685E2CCA34F8F7D1D8265BB0042E9D7F1F666F7BE5FAA5184DF58E12122A42EF02F461B3F369AC746F96528AD208512AB56844CF75B97F352DF7995024F
311
B02855385854F3798670D01CAC771AC3E1889EC25F61A20C1F8CAB46898817F9C47E2CDA1F286BF2F358298709FE567C91133E2638C8B53975E753EA8BFD3578B5F7186B7BF084EBA3F77BAC3132A5779902EC22AF2D2E79F42D324E083386DAEE9810D1B44A5DAA54513C7A71E52A4AB9257D975B621308FE4D2141CC3DCF
311
E946C154A3C1DFCCA7629EC69ACFA831634ADDA93C0388D2A9A2DDAFCF957C6995BCE7FBB6DC4EBAE79E63EB08E9A25F52F67076F7093CA545CA3053B5BF576DEAD4E0017143C5F759F32B2D6F145B52B67B48909B7C7FCA6586EE385A2189C16932CB6DDFD9152AE317C430492A578ED27B72D85D40C7C93C097939E1B50F
311
4D67F05334FE9DC362C30B7FF561B95259138ECFD9274C8D695C31B14D4EAA9F3D7FA8DDF652F8C5DEFA23284C799B7D94416DEE81E05A866302DC70192A5368EA65E1CED8BF107A1E2D3119A71E85DC1A7B0C1E93274CE04DD0F2ABC8AC7C987FDB002B6F81757B43502EF7A0D92E416494FAEEA4C9C090CD9557AA4D532F
311
4996A272B94355C5A0E4974EEA9627476F30809B94D8D8D860062E02204643BEC7D0438AF800FC7E2B26955D595421E83C69E1A07E0E3122285835F014AD538188CF9737CE76D464A353FA55A001AB2526B84E985083693BC76FE211CA1D000679C889E3C009832C87E1AC2EDD05C302557422DF0800E316FCAC86978A371F
311
025A6C7DAA9F333E7BD160403A1A06EA75AA9888FF01504B0304140006080800697C6E5728BB58AF800100009E0500003D00000042303739314639312D333634322D344438452D393542452D3932373636304137393733422F536368656D61732F436F6D6D6F6E536368656D612E786D6CBD544D4FC23018BEFB2B96DE1549
311
3C78601010A34B880709DEDFB52FD0D8B54BD70DF6EFED3AC0B12E6442E2716BFB3CEFF3D18E26FB440405EA8C2B1992E1C323095052C5B8DC842437EBFB673219DF8DA659866649B798C078B48AE6410122242F2A4994AC7F93815DF85C049C8564CA0A901499DD886B2EB9B1E02448F358701A9235880C49A0119892A20C
311
89D1B9FD768815CAD268CB5E0355B40B1E47F3E37A2020464BED06AA57CE8FCC20C3C3446D46761A2632A8C1283D07031EFF2AE7CCB1BFEEE916E406DFAC8E36FFD99A9D60A6944090EEDC3B670C7DC13DE86B6B2C5C240D6E503BB85ACD579D513F1B9F9A69DC9CC22AFA80C426D40AF0B21EA168559156B6276F0F726A6B
311
FF04DCD513A87A62CAD41FB24FCB2858B3952E3D852084DA25B9303C15687973CC8E8AAE11DF2836C38C6A9E765E8C1BA1BFB1DC29CDFE518C8B5A7655A4ED7E77291ABEB80DBD82EC866ADE1B8D05AF9E35CF09D7A061F38A986D9EC412B8F0F65E5D81534D9B231D1E5A8FE577A241F3A5FD01504B030414000608080069
311
7C6E572CCEBD668A040000E01200003E00000042303739314639312D333634322D344438452D393542452D3932373636304137393733422F536368656D61732F47656E65726963536368656D612E786D6CD5586D6FDB380CFE7EBF42F0F7A649B70E1B90744856B4970F450FCD7A5F05459613EDE4174872DADCAF3F522F8E
311
D3B88D2F1D06AC4050DBA2493EE4438AF2F8EB73AEC8466823CB62928C06C384888297A92C5693A4B6D9D9E7E4EBD51FE3A931C22EF85AE4EC6AFC38BF261BA626C9AD288496DC3F4FCEAFC63366845F7A10452AF41DB320C0D44EC26EAB20918735565582695670811A6A49643A49A6E9069FA4604A64B29016DC4B48552F
311
95E4932463CA888468C1D2B250DB4962750DF7CE273069CE8363F1FF4EDB00E0A21999574AE4A2B00C353B93F3BD4777B8A61ED8F604ABFEDD79CE56A2B7BDFBDBC50996E0ADDE16FED26223C5D30956C29BDF4A55EA686E5E58B112DA45CE67F76F4FA27EFA3FB672FD7372FC388FAECDCA5209E693CAD167BADCD272F943
311
701B3812F8A3D852008B1D2E32DB927B2F833C6EA95879925356D254582695095A3CE982924720BE5774A3CB9CDCDB350427D2DF20DA1B5532EBE2D5D6288D75D4F7E4FD9890A0EF8E3D93EBB8F8BA4758158EF6FB90A6F9520281C93DE7AAC6D24607DA296BB96018123F821A7D6A5C5884050C475DA4865442732C8B9568
311
4A50165CBB3A32F25F783A4A480ED59AD7F924B968AEA50131F46303223E6A397B0E52976030DC1DCA81D7E7C1EDEEA42C19FF27635C505E2BD5198A599020DF50A2330FCB3AAF28CB0124108429553EF1B228802E2265D8F7CC2401042B155BCC7070F1E5C55F13B4A9577362CCCE46C32174E010C3C378C44841A4BDA00F
311
E3A12006CE11EE6AEC59894D3526DDE1CD59D503ECC324017F8061B7F162162FA62EDD81AE3308617770796DCBDAD2B2625C5AE8A63DE20B2C8AA5E95E76E5730823955956E33E705425A2187C185D36489A1B44D3DCEC2172F6BA2105C3546287A7194B2331768EBBE64F6E70A9930ABE0ADEA89E9E2C38523B810287AD67
311
A54A039C1606EAFE68F8304610BB9093DBDDABC0B2AE4E290DCDA15376D7E39F72B556F0B32EAB5D3D498B4C41ABADEC3A1434C422D87E8025A84BDCB2B1417ED750FAE4DA8976863974C577C7F902D3F156AD354DEA3540DE6BEAE2BEA52F7A2EB4CA43802ECE5BF2CE2EDC9347179FFB023CE412E60BE16DA0BE29B37498
311
8A553F561DC04615DD35F7D2C8979F60E5955CE93DF29DED8AFA1EE6642D53418086C03C47C377910F75F7E8F5EF665F70B60FFB22AEDF897D119E8423C773E819A3C1E55E550599EE6EDCA34D0C86FD72057DF2CD46F16A470682471C164E4346D5306BF12D7D12D82CFF673D41636C347443FEB51B50D72EA171A8E4A586
311
23A4A16E0FA2B8B10A0D23268D87C33896EE8FB73305A74BF224EDBADFA0BD674AB354D63DB7BD5D83426761C077DE767728235446A552754EB93B755891C3C4CC6CADE37CF0E912A7BB38DBA010F9DE1282EDF470CA69A9CDA482E334C4A6EA4107987980B17E72F31730EBF88BBD39E7C629F56797A3C0009C2C5AE7951D
311
9A05A02773440F02EEB4DE396A3B6A570C72CCFBCD823B0B8ED3F1D5CEDDFED772FA70236C83FB7D86C385D570B87107535572A60A96035F8F7C6A7192F13007246BBE0521855E6AC46F3E27689CEE7D186A6FD679D98CDCAD13333E04EBE7ED6F55FF01504B0304140006080800697C6E576180134D5F0100006B03000045
311
00000042303739314639312D333634322D344438452D393542452D3932373636304137393733422F536368656D61732F52656E6465724D6174657269616C536368656D612E786D6CA5934D6FC2300C86EFFB1551EEE343DBA41D1A103009551ADAD40EAE28A4A68D9426284961FCFBE5A340113B2071746D3F765EBF4DC6BF
311
B5407BD0862B49F0B037C0082453059725C18DDD3EBFE3F1E829991803366715D474942CD30FB4A782E00C64017A412D684E454CE3FE28995203B162A6EA5AC94B66997D225E109CD63B0135484BAD1B3C07E9080CA35DB3119C11BCA5C200461A68A1A438126C75E3E230D40FF81FB3F03C91D1E3A3A0AF79FE28E25BC39E
311
C3E17E4C2A2D94A0833A51AF55BCCA7D88572FCBAC529C4140B020FC3AAFA886621DCED7EAD7664CC86024E806DC297DA1BB393E4156543457A4537DB8817349A70F8ACBF09B3EEE2CB2F33E91B65D60786E4E3B39B77E3FEEEF5650424525DA657FB8B46BE6BF064646F0A0F7327C0BC1BC1B4CBBC1C419FA3CCB23500007
311
872A2580CAAE5461865565294E4EDB4617B62FF579DF9A5B2F54E834076A597573A020912FED777F9B3F504B0304140006080800697C6E57547E667C51000000570000004700000042303739314639312D333634322D344438452D393542452D3932373636304137393733422F4173736574446174612F4173736574546162
311
6C654F66436F6E74656E74732E62696E536160607033777233357135D475313170D335317031D375B43076D535B17073B4B434B5743631761202AACB4D2C492DCA4CCC492C28484D2C4ACC4B4E050A82012F90744FCD03CA26072767A4E6260200504B0304140006080800697C6E57F8658340580000006800000045000000
311
42303739314639312D333634322D344438452D393542452D3932373636304137393733422F4173736574446174612F53747265616D56657273696F6E5461626C652E696E66558CBD0A80300C06F73E4B117FB66E451741D041DC5BF98480A492E4FDD18EAEC7DD4555D89EF28DF51A0B1BD8340C4DE7DD848B988C0ACF0649
311
566493F2408C508DDEBB99D5129FF8F1AF8CF5B9503E20FAE5A16B5AF702504B0304140006080800697C6E57B882E06B340100009A0400003600000042303739314639312D333634322D344438452D393542452D3932373636304137393733422F4173736574446174612F636E782E786D6CCD94414F03211085FFCA86FB42
311
696DA20D4B63F4D29326361EBC4DD9D94ACAC206668DFE7BA1DD83A6C6530FBD0E6F86C717DEA8F567EFAA0F8CC906DF30C967AC426F426BFDBE612375F52DABD65AC510E8878C551E7A6C582933ADF6318CC3546AB183D195AAB3FE3015EF5342DAC2CEE153F7103CA1A7C42AE320A58625F38E3D701829B4980EBC05022E
311
79C414C668304F22DBE334C94404C296E9F96CBEA8A5ACE5CD562E578BE54ADEBD2951945AED427093DEE6CB62182A73BA95E99912E558AB31DA4953DEC2F45F1EF9CE7A25B252AB443133993AE86BC81D300CCE1AA08C4E044348751621F44A9CC45A89C2E0178947ECACB7A565938D0185F89CED61248B5747E43FAF9727
311
B3F189C01BBC5E1EE70E2F4FE1E5F8835E4F813C26E6DA7272EE905BDF5D2025E2B8467268CA56D1DF504B0304140006080800697C6E57414278CAE40000005E0100006700000042303739314639312D333634322D344438452D393542452D3932373636304137393733422F5265736F75726365732F46374246353445312D
311
443430462D343044362D413833452D3438464139393539433433422F7468756D626E61696C2F302F636E782E786D6C4D90C16E03210C447F0571DF25248DD4465EF2133DF55251D6D9A2B01881A9DABF2FB41C72B235F3647906AEDF7B105F988BA7B8483D1FA4C0E868F5715B64E5DBF42CC5D54026E2074C8A68775C6497
311
A5812D534D435AF1666BE86AF0F13EC40D2366EFDE53DCA470C196B2C8E23E71B7B3AD4C2B96FBBC5AB6B39E3316AAD9613BC07EC771C065B48CAB34C7C3F134693DE9A7577DBE9CCE17FDF206AA93063E88C2E07D64CC9484A3B6C4F6CD0154B70DD4EC07D32348F3F01AA8661A289C5BFA01F14F6A904D297867B995A4C8
311
31F2D420B43BA87FD880EA69DBF8ABA2CDDE8CF905504B0304140006080800697C6E57A233C2345D000000800000006500000042303739314639312D333634322D344438452D393542452D3932373636304137393733422F5265736F75726365732F46374246353445312D443430462D343044362D413833452D3438464139
311
393539433433422F7468756D626E61696C2F636E782E786D6C4D8B490E80201004BF42E6EE76F3C0F216234B883063108CCF170C074F95AE5473F5C4C06E932E4F28601967600677D21E9D8092EDB002539227A2FCCB80E1168D80A6417297A89C5D6963B7129A0D1E8F2EE73AA7B62BBEB8B27DE50B504B03041400060808
311
00697C6E57BE89762363000000880000005B00000042303739314639312D333634322D344438452D393542452D3932373636304137393733422F5265736F75726365732F46374246353445312D443430462D343044362D413833452D3438464139393539433433422F636E782E786D6C4DCC3B0E80201004D0AB90EDFD7516
311
7CCE820A4A845D83603CBE602CAC26799919AEEEE0D965E2E908050C6D0FCCE04C8BC355404EB6198129C92351FAD580A10E464065907C8D948F8F166375F655BDC3FDC3B4E530A176BE7057BDC43B2A593FE403504B0304140006080800697C6E57883FA0597F000000A30000003600000042303739314639312D33363432
311
2D344438452D393542452D3932373636304137393733422F5265736F75726365732F636E782E786D6C4D8CD10E822018465F85FDF7144E2CD800A729EFE1121D0BA191B41E3F685E74F56D67DF39A2FD6C0EBD4D7CD9E025542702C8F87B98AD5F25A47DC10C50AB440C61FFBB01F2D36624140C4AAC31A4E78166B34CC915
311
EAAC7F1C505F7BDDD0B1C203251A53325C70C7EA1153A63BCE1B7EA3759F8D7351F2FC7A794B5E7D01504B0304140006080800697C6E5796412D01080100004F0300003400000042303739314639312D333634322D344438452D393542452D3932373636304137393733422F536368656D61732F636E782E786D6CCD933F4F
311
432114C5BFCA0BFB83D2DA441B1E1D1C9C5CD4C90DE1B69202F7853F46BFBDF0646813371DBAC1E11772CEE122F69FDE0D1F1093C530114E576480A0D1D8709C48C987F1960C7B2922623EC3C810948789349948718C58E62E1938A8E29AEA6C3875F11EBDC7F0ACDFC12B3268A7529A485AB654958C06D2891A9515E53442
311
C21235D41BB2F5D06FD011540643E47AB5DE8C9C8FFCE6856F779BED8EDFBD0AD64829DE105DE76DC810711E34D645A8765682B563294AB49D6919883CF7466B1B8255428A9463EDA093F96BAEA49A6767B5CAB52AB6803F8C14AC45BD08FC0001A2D5D799F8C2DCBF457E8260203ED6578A56B9EB4CFE9BC7BF15C096D9AF
311
23D0BE82FC06504B0304140006080800697C6E57E3603EBE7A000000C20000002C00000042303739314639312D333634322D344438452D393542452D3932373636304137393733422F636E782E786D6C6DCD410EC2201085E1AB90D9DBEACE05D09878023D01A1D34A8419C380F1F82DA68B9AB8FDFEC93C3D7C52546FCC12
311
980C9CBA232824CF63A0D9402DD3E10C6AB03A3397DD192872090D3406ABE7CCF5B5D18893ABB1690CF4DCF02282E5EA8A5BB96FFE536F285CB347F95BEFFE81C9ED5AFF9D5B1FB575BB00504B0304140006080800697C6E575305484D7E000000A300000007000000636E782E786D6C4D8CD10AC22018855F45FE7B4BB7A5
311
13D49154EF319A1B92D3B0193D7E1ABBE8E67CF071CE91C367F5E86DD3CBC5A0801E08201BEE7172615190B719F780062D538CDB5F0D501857ABA06AD07249313F7735D979CCBE5AEFC263978670416F82E296750DEE2EFD158B9329D170C6C8990BDE9AB238D649C1EFAFB0DEEB2F504B0304140006080800697C6E57CA1D
311
F9C9A900000073010000130000005B436F6E74656E745F54797065735D2E786D6CA590410EC2300C04BF12E5DEBA70400835E500FC800F84E0B411AD13252E2ABF27A55740421CEDDDD9B55CEFA7A117778CC979527255565220197F75D42A39B22DB652EC9BFAFC089844F65252B2630E3B80643A1C742A7D40CA8AF571D0
311
9CC7D842D0E6A65B8475556DC07862242E78CE904D7D44ABC79EC569CAEBA537E3521C16DF5CA5A40EA17746733E0B6615DE7217475F386F18B9481C510F1F021CD9FF027EA0E1F5C4E609504B0304140006080800697C6E573DEE336E64000000790000001B0000006175746F6465736B2D64657369676E2D7061636B6167
311
652E786D6C35CBC10E83200C00D05F21DCA56CA76D41FC96062B120735B69A7DBE268BB7777961F8D5AF396893C2ADB70FE7ADA196782C2DF776D7A97B5933C430F15651E5469C55D70F80A4992A3ADC954792C525AE70A1E4D6AD9816CC044FEFDF01FE3FDE907802504B0304140006080800697C6E573AEE506DF6000000
311
960100003700000042303739314639312D333634322D344438452D393542452D3932373636304137393733422F4173736574446174612F636F72652E786D6C8550CB6EC32010FC156BEFD8C66F4798C851F2073DF58680B82831583CAA7E7E2176A5F6D4D3AE66676677879CBFD667F629AD53464F80F31232A9B9114A2F13
311
047F470364674AAC31FE170D32CD563941828192C59AB01D1037DA4B9D506D843C40E69CF490F1676C2670FC43AE2C67C147867BE41BE30FB6C81CE73B8F92109438A44A44377557D2026DBABAEBFBB145B8EB6EA899633754DD802E251EAFF365BCF5554D8A24A6C4ABF5673BB792792980566555238C116EDE707BAADB13
311
1EDF49919894386FE3CFC7D2F41DD0395D7D659E91629FFE710D9BF8DF3528EDEBEA70DD150E288E47BE06941429A5585E11C69A12A5DF504B0304140006080800697C6E577FA2E359F20000008E0100006800000042303739314639312D333634322D344438452D393542452D3932373636304137393733422F5265736F75
311
726365732F46374246353445312D443430462D343044362D413833452D3438464139393539433433422F7468756D626E61696C2F302F636F72652E786D6C8550CB6EC32010FC156BEFD8C66F47982851F3073DF58680382831583CA27C7E2176A5F6D4D3AE66676677871C5FCB237B4AEB94D113E0BC844C6A6E84D2F304C1
311
5FD100D991126B8CFF45834CB3454E9060A064B626AC3BC48DF65227541B21779039273D64FC119B091CBFC985E52CF8C870F77C65FCCE6699E37CE351128212BB5489E8A6AE4A5AA04D57777D3FB60877DD0535A7D80D5537A07389C78FD379BCF4554D8A24A6C4ABE5673BB792792980566555238C116E3E717BA8DB031E
311
BF48919894386FE3CFFBD2F41DD092141BFAC72DACE27FB7A0B4AFABDD6D5338A0381EF71E5052A474627947176B4A927E03504B0304140006080800697C6E575A20616FF8000000960100006600000042303739314639312D333634322D344438452D393542452D3932373636304137393733422F5265736F75726365732F
311
46374246353445312D443430462D343044362D413833452D3438464139393539433433422F7468756D626E61696C2F636F72652E786D6C8550CB6EC32010FC156BEFD8C6CF38C244899A3FE8A9370AC441B1C1E211F5F30BB12BB5A79E76353B33BB3BE4F4B5CCD9535AA78C1E01E72564527323949E4608FE860E909D28B1
311
C6F85F34C8345BE40809064A266BC2BA43DC682F7542B51172079973D243C6E7D88CE0F85D2E2C67C147867BE42BE30F36C91CE71B8F921094D8A54A44377553D2026DBABAEBFBA145B8EBAEA839C7EE5075077429F1F076BE0CD7BEAA4991C49478B5FC6CE756322F05D0AAAC6A8431C2CD3B6E8F757BC4C30729129312E7
311
6DFC795F9ABE03EAEF61F9D44CCDA4D8A67F5CC32AFE770D4AFBBADA5D3785038AE391AF0125454A29965784B1A644E937504B0304140006080800697C6E578ED2E5A00E010000B10100005C00000042303739314639312D333634322D344438452D393542452D3932373636304137393733422F5265736F75726365732F46
311
374246353445312D443430462D343044362D413833452D3438464139393539433433422F636F72652E786D6C85904D6EC3201085AF62CD1EDB18FC438489EC263E4157DD219BA428314406AA1EBFD0B852BBEA6A468FF7F866861F3FD77BF6A136A7ADE901E72564CACC76D1E6DA43F017D44176147CB3D6FFB24166E4AA7A
311
4832087EDD6C78ECD26C8D5726A9C62E6A17A573CA4336DF63D3839BDFD52A73197C74B85BFE90F34D5E558EF3A74FF010F4B247F5127FD317AD3610B4214DDBB21AE1A639233AC4AEAB9A0E8D2566A76164E7B622BC4861C1BD5E7FE8F3A6A4570B88AAAC08C21861FA8AEB03A90F98BDF1223905777E8B3BEFD0B41D88A9
311
1DA79A9E313AD17242B43C3568E8480477D3C058CD5E281979F10CFE0186C7F23F3068E349B5039F090702C7F9BF1F042FD20163F9BE6EACE9D8E20B504B0304140006080800697C6E57AEB23730F8000000960100003700000042303739314639312D333634322D344438452D393542452D3932373636304137393733422F
311
5265736F75726365732F636F72652E786D6C8550496EC3300CFC8AC1BB6CCB6B1CC80A12341F287AEA4D901957482C195A8A3EBF52EC02EDA92712C3992139ECF4B53CB24FB44E193D02CD4BC8504B33293D8F10FC8D1C203B71668DF1BF689069B1E0080906CE666BC2BA43D2688F3AA1DA4CB883C239F490C9476C4670F2
311
0317918BE023C3DDF355C8BB9831A7F9C6E32C0435ED5235453775536881375DDDF5FDD012DA7557D29C6377A8BA03B9947478395F866B5FD5AC4862CEBC5A7EB64B8BC2E304BC2AAB9A504A68F346DB63DD1EE9F0CE8AC4E4CC791B7FDE97A6EF80BFA233C14A74ACD8A67F5CC33AFDEF1A94F675B5BB6E0A079CC6239F03
311
CE8A94522CCF08634D89F26F504B0304140006080800697C6E57477CDA6FF5000000940100003500000042303739314639312D333634322D344438452D393542452D3932373636304137393733422F536368656D61732F636F72652E786D6C8550CB6EC32010FC156BEFD8C66F47982851F305EDA93704C44589C1E251F5F3
311
0BB62BB5A79E76353B33BB3BE4FCB53CB34F699D327A029C979049CD8D507A9E20F83B1A203B53628DF1BF689069B6C809120C94CCD684F580B8D15EEA846A23E40132E7A4878C3F633381E31F7261390B3E32DC235F197FB059E638DF799484A0C4215522BAA9BB921668D3D55DDF8F2DC25D7743CD257643D50DE85AE2F1
311
E5721D6F7D5593228929F16AF9D9CEAD645E0AA05559D50863849B37DC9EEAF684C77752242625CEDBF8F3B1347D07F475BBD391629FFDF10CABF8DF3328EDEBEAF0DC150E288E276E034A8A94512C5B80B1A63CE937504B0304140006080800697C6E57409EB12B01010000D70100002D00000042303739314639312D3336
311
34322D344438452D393542452D3932373636304137393733422F636F72652E786D6C9591CB52C42010457F85EA7D1EE431994C11A64CA95FE0CA1D424FA46602291E969F2F31B1D49D6E80BA9CDB70BBD9F97DBE9137745E5B3300CD4B2068A455DA4C03C470C98E40CE9C396BC30F0C8811330EB0CAC0D9E46C5C76495A13
311
D0ACAAB10A7751788F0188BCA5C3005EBEE22C72114322FC355F84BC8A09739A6F1C6741CF5F56E9500454C0ABB2AA334A33DA3CD1F654B727DA3FB36225398BDA84BADA1FC3F90515B14B489180B7ACD86E1315B5DA19ADD21FF545A3033E965D4F1F7B9AD587A6CA9AFBE343D6B7635AAAEE7028EFBABEABC754249939F3
311
C1A5CEEC45D61EFCD5BE197F258B8BFA67B2CDE181D3EF50C5DA66CE8ACF19A47D1D09FF00504B0304140006080800697C6E572B27F1F406010000B201000008000000636F72652E786D6C8D50CB6EC32010FC15B4773FF0338E3051A2E60F7AEA8D1AE2A2D860F188DABF2FC4546A6F3DED6A66766776C9E9735DD043182B
311
B51A01E72520A126CDA59A47F0EE961D009D28315ABB5F32408AAD6284080325B3D17E4BD0A495132AA24A73914066AD7080A6253423D8E943AC2C67DE0585BDE71B9BEE6C1639CE771D254EAE3FA39311CC090EB42AAB3AC338C3CD2B6E8F757BC4C31B29A29212EF254F569207777993C2006DBABAEBFBA1CD70D75DB3E6
311
1CBA43D51DB24B898797F365B8F6554D8A384C897526DC9C96849C0E59F688BEA4D8294ADEB55E922084E248ABE50B68498A48FC09ED37FE8FD052B9BA4A0BF7090B1487404F2218C70F86F27C6FA8F1DBF41B504B01021400140006080800697C6E576392824ADC000000200100004F000000000000000000000000000000
311
000042303739314639312D333634322D344438452D393542452D3932373636304137393733422F4173736574446174612F446566696E6974696F6E4974657261746F7250726F706572746965732E62696E504B01021400140006080800697C6E571B1161D80D01000030020000450000000000000000000000000049010000
311
42303739314639312D333634322D344438452D393542452D3932373636304137393733422F4173736574446174612F496E7374616E636550726F706572746965732E62696E504B01021400140006080800697C6E5788E57597CD3F0000904100006B00000000000000000000000000B902000042303739314639312D333634
311
322D344438452D393542452D3932373636304137393733422F5265736F75726365732F46374246353445312D443430462D343044362D413833452D3438464139393539433433422F7468756D626E61696C2F302F67656E657269635F706E67504B01021400140006080800697C6E5728BB58AF800100009E0500003D000000
311
000000000000000000000F43000042303739314639312D333634322D344438452D393542452D3932373636304137393733422F536368656D61732F436F6D6D6F6E536368656D612E786D6C504B01021400140006080800697C6E572CCEBD668A040000E01200003E00000000000000000000000000EA440000423037393146
311
39312D333634322D344438452D393542452D3932373636304137393733422F536368656D61732F47656E65726963536368656D612E786D6C504B01021400140006080800697C6E576180134D5F0100006B0300004500000000000000000000000000D049000042303739314639312D333634322D344438452D393542452D39
311
32373636304137393733422F536368656D61732F52656E6465724D6174657269616C536368656D612E786D6C504B01021400140006080800697C6E57547E667C51000000570000004700000000000000000000000000924B000042303739314639312D333634322D344438452D393542452D3932373636304137393733422F
311
4173736574446174612F41737365745461626C654F66436F6E74656E74732E62696E504B01021400140006080800697C6E57F865834058000000680000004500000000000000000000000000484C000042303739314639312D333634322D344438452D393542452D3932373636304137393733422F4173736574446174612F
311
53747265616D56657273696F6E5461626C652E696E66504B01021400140006080800697C6E57B882E06B340100009A0400003600000000000000000000000000034D000042303739314639312D333634322D344438452D393542452D3932373636304137393733422F4173736574446174612F636E782E786D6C504B010214
311
00140006080800697C6E57414278CAE40000005E01000067000000000000000000000000008B4E000042303739314639312D333634322D344438452D393542452D3932373636304137393733422F5265736F75726365732F46374246353445312D443430462D343044362D413833452D3438464139393539433433422F7468
311
756D626E61696C2F302F636E782E786D6C504B01021400140006080800697C6E57A233C2345D000000800000006500000000000000000000000000F44F000042303739314639312D333634322D344438452D393542452D3932373636304137393733422F5265736F75726365732F46374246353445312D443430462D343044
311
362D413833452D3438464139393539433433422F7468756D626E61696C2F636E782E786D6C504B01021400140006080800697C6E57BE89762363000000880000005B00000000000000000000000000D450000042303739314639312D333634322D344438452D393542452D3932373636304137393733422F5265736F757263
311
65732F46374246353445312D443430462D343044362D413833452D3438464139393539433433422F636E782E786D6C504B01021400140006080800697C6E57883FA0597F000000A30000003600000000000000000000000000B051000042303739314639312D333634322D344438452D393542452D39323736363041373937
311
33422F5265736F75726365732F636E782E786D6C504B01021400140006080800697C6E5796412D01080100004F03000034000000000000000000000000008352000042303739314639312D333634322D344438452D393542452D3932373636304137393733422F536368656D61732F636E782E786D6C504B01021400140006
311
080800697C6E57E3603EBE7A000000C20000002C00000000000000000000000000DD53000042303739314639312D333634322D344438452D393542452D3932373636304137393733422F636E782E786D6C504B01021400140006080800697C6E575305484D7E000000A30000000700000000000000000000000000A1540000
311
636E782E786D6C504B01021400140006080800697C6E57CA1DF9C9A9000000730100001300000000000000000000000000445500005B436F6E74656E745F54797065735D2E786D6C504B01021400140006080800697C6E573DEE336E64000000790000001B000000000000000000000000001E5600006175746F6465736B2D
311
64657369676E2D7061636B6167652E786D6C504B01021400140006080800697C6E573AEE506DF6000000960100003700000000000000000000000000BB56000042303739314639312D333634322D344438452D393542452D3932373636304137393733422F4173736574446174612F636F72652E786D6C504B010214001400
311
06080800697C6E577FA2E359F20000008E01000068000000000000000000000000000658000042303739314639312D333634322D344438452D393542452D3932373636304137393733422F5265736F75726365732F46374246353445312D443430462D343044362D413833452D3438464139393539433433422F7468756D62
311
6E61696C2F302F636F72652E786D6C504B01021400140006080800697C6E575A20616FF80000009601000066000000000000000000000000007E59000042303739314639312D333634322D344438452D393542452D3932373636304137393733422F5265736F75726365732F46374246353445312D443430462D343044362D
311
413833452D3438464139393539433433422F7468756D626E61696C2F636F72652E786D6C504B01021400140006080800697C6E578ED2E5A00E010000B10100005C00000000000000000000000000FA5A000042303739314639312D333634322D344438452D393542452D3932373636304137393733422F5265736F75726365
311
732F46374246353445312D443430462D343044362D413833452D3438464139393539433433422F636F72652E786D6C504B01021400140006080800697C6E57AEB23730F8000000960100003700000000000000000000000000825C000042303739314639312D333634322D344438452D393542452D39323736363041373937
311
33422F5265736F75726365732F636F72652E786D6C504B01021400140006080800697C6E57477CDA6FF5000000940100003500000000000000000000000000CF5D000042303739314639312D333634322D344438452D393542452D3932373636304137393733422F536368656D61732F636F72652E786D6C504B0102140014
311
0006080800697C6E57409EB12B01010000D70100002D00000000000000000000000000175F000042303739314639312D333634322D344438452D393542452D3932373636304137393733422F636F72652E786D6C504B01021400140006080800697C6E572B27F1F406010000B2010000080000000000000000000000000063
311
600000636F72652E786D6C504B0506000000001A001A00210B00008F6100000000
310
504B0304140006080800697C6E57000000000000000000000000370000006662782F42453736454333392D334442392D343739442D423732362D3038444442453443393237422F617474726962757465732E62696E504B0304140006080800697C6E57000000000000000000000000350000006662782F4245373645433339
310
2D334442392D343739442D423732362D3038444442453443393237422F76657274696365732E62696E504B0304140006080800697C6E57F270F1330600000004000000360000006662782F42453736454333392D334442392D343739442D423732362D3038444442453443393237422F747269616E676C65732E62696E6366
310
60600000504B0304140006080800697C6E5788E57597CD3F000090410000420000006662782F42453736454333392D334442392D343739442D423732362D3038444442453443393237422F7265736F75726365732F322F305F67656E657269632E706E67355B773CD4FF1FBF73E71C0E67EF7576C9DEF3EC995D46C6A1EC50
310
46649CBDF79E192942562825CE965D8A868C2842C8DE9FDFD1F7E7F138F7078FCF6B3F5FCFD7EBFDFEC41B196891913091804020321D6D7513FC77D8C5070EC3FFEE51B21F068154CC75D455CC028A3EA68992803810109FDDE5D5CEC5521B28A1B422BF80741695D5B529DA1C2D058AD2388BDA9F476F7C2CADC939304173
310
DBF48A452BF8A700C0C70C3D121C1AA15A5270C22E2B9E28763651F7DA0D12CE11077B2ECD0D560B5E3DE2368B1E65C5E1C87384A4CC5F2D9FB8BE39E9B77C753783A37998F5CEF1B4FEE553463245C9712270880DF339E0B882A6BA713D865F6F384C842D440934EF264F4A304F8DE4EEFA1E2BF5E2D91F5ADD9613D6E31D
310
DB33ED31DB1D7916CAF091286EA3D31B9CFECB78BB0060245B943C4C040119FF780A74DD308BA9D028678674EB5504ECF284EE814DAED07440BAF649BE4B55DA2890F4D73E2D489A59EE54FDB0A85B59F2F52C4858A02705C4815A792B0C4A996A2023ECB195073E115E3E3647F64243A8338F2000BCB58DA5692C7E7C3D41
310
3F963FEDF3CF00FBB0F831A9D51360FECA43819F527B89FA260EB63C5DA676830AA3626A3693B23F1A17A0DFFCE3EE164E31B5365EDF0C89EF64D8E38AB0BA9A1117D7C3A0EC44F44F4023095E80BA610DE336D0F99593A88BFC5306E72DF98F7FD132ED95878DF2964EA7E43071359FD83B2BDF9C6B5BDF768F0F3C0FC351
310
199526F53D9460A34511F75D1B63E488178569472C91A94497807A3FD4A390C6558F26D416365C3656DE6E769DA9D8FC73774E1709812842DD8EF96AED1960F79D21B395CDDFE6F92CB4EB962A4668C76990E2EF29798C8941D67DA50F4A5F947872460F1F6FDB794E8A29FD7AC0C0D6E0714339CE258FB17AE8535221E346
310
4A10F29A0BE5EEECEFC5675926A89F49EB14E5711894F6586DB5754EB4D5DA9C6437EBA57DB97A24F8B8A8DB295FFD73266CF57E82694DF5166DDF93573AFE9C9C5EB05F8FEF8E89E0A8917B0B3724DB7BEBB53252581EFC3E38166BA131A3A5B42FE2AD00A769BBFA4458D2DE7822F8C4F63D0B8E21B285AE13325F3410A4
310
35C648C9D91FDEB109E73CEDA7BC796961AF79175E1A3CE4C5E8B0D009B0C9E29EFD98BC8E97554E3D8D838424E270F7685226E5AC268E021EDE3522D583E8F20C0BDE2959EF5BBFEEDAB32FE9A3ED0E39F211A86AA9DEBFC68182EDED132AB8BB794442D2D7EA9F4D8BFF52BC4D55BB165124EE90A42D101E67BBBB292FFB
310
4F66DE5BF2300E44546757DA7CEF8932BFC9F92A0707953491A55C5A5ACEDABD9FA1AEA01BAC3DC5A24E22E7C47213493996EFBC369D086ED9397C9BA6C7F9855C7BD5E15BFC8C53DB3D2A4C5901A57ACD2FBDF4D1676E95338B2C2BCE65FDA4C64F5FEFDC7D9CA5AA1FCF11E193F2FDABF0F4916BF13FB916A224380E6462
310
A9815F2300DC49CC4DF8D055CEF76462F4B7A7ACA7365C2707891370BC1D0AA6203C44CCAB47084FEC057F27FFCD57F89B8B9852459798A675C66BD7CE572CAF71FF7E6D7ECF7BF62CAB7B3F1107DCD04DC55A3F9961700286141C94A4F771FEB2BCDA2DDEE0CB0BAE402FF1DB0100F8E475DFFFC074DDB4498AB7D186A765
310
4DDB1CB680D703D47CEB4E72F8CB13D86A4AA68116E26387B93FD6738779B34FEDB8E517EDF2BAF28D9BE93A1D3A164320E07D42E514725C29515FF361754213EDE06B079A2E99EB1CA82A02019EADEEB87B9AF005BD04BBCECB14AACD6B24EFBE482194A97DD32400685FF1FEF1544D1B14EFB1E7F08E6D2CD2AF52DE757F
310
35F5E62332EE88EA26417AD5C3E0E319D68F25414E6D672BD4522B278C57D18F0113921C71D96527E091F00CEB15AE23D24667369BD3CEFA10C7549D930890BA4366F4EBC55F01F746109F98ABCDD5A3EE06619C6AD78AB33E48E4C9BD21BF7478B385EC05C4F8987E2C1BFA0A60EBEDAA0AE0B015C2720ECE180FB6F2DEFB
310
EB822D96338C9B63822183BBF52FB664A7AE57003AABCE512BF77E7E31BDA2E739AC4C131657DDFE5225E900FB56CC01CDE808FA4A9C9DA16AC679656BB64796283D89812B8F91136AE18EE5EBBAF47A73BE3C153EB5D4CD491B4BFB4FE690A4CF9ABA08C0D8AA64220C438C96EA6CA80B58FE5761E697B3A292EB9FBDA502
310
FA863E49FE694ADDFFF9D62C520BDD1A22014147A0903A05B9B729F54272EF83931FEEC057BFF8C8055C279EAC5C0011804828734024F6CFA319C9CC6867C727184465CD9BB7ED386AFFD96B294A85E3802FAE47244602D8273615952B98C4F23F7EAE4463D9D638EEE374A20959E0FE519C4CFB0FBFE5DD80C2AA3F9DB961
310
D1BDE57E67C9BB47B77FDD74EE3094F5DBBE3EBC1FBDB7393F5116263009E2EFE1AF9A221B2AE234C902BF70E9F280ED23E73908361565964333A3F01D0B006AF32FB21AA1316744B489D5A198E85299241735BE559675130955C902A8ED761FC0DBE337A9F91919AF5CE32AF902ADF9AB2615E00E8A94586BA1A90839B618
310
32FF1BFB76D2EFADE6DB1BA04CCAD3DA649E7E2A0219F592E22F2AD54847EEA8E42271011E9074F8F3DD9FBA6CDF88FFC9FC7E811AD1CA8F4557CE4AFC7BBEDCF0114A48689F20A584520C74DA8127124B767E2FB91A6B186246727BE63C9445BAE02088D58B8EFDC0F1072407CD9B89A13F6303B4A928F593AD489B58E686
310
9325790ADC406036C591729FE14021F94B7796BB11848D463536A092A26F077F94639F7CEEE2A724C66EC885F4A24F8B8A0AC321F8FD149BA529460FAA34E4663C02D41FDF80BCA222D42F0ABFF8490F4FA74C673807C2051D8E467B47B616072860069A9A303ABA9B319D58404461401B0A0F9BE5E1E151C14BC33B32ABE0
310
3DDE91708DFAEB15E7C0D593C86BB7D7EC17BE56E57975F077BFD5525F3A1A361D584A75E08CF29FC7B44B2B3085014F3A5A14517377C3F6B8F37E59514C3B12F8AACDEDDA4DFC49BE5710101534CD6FB6DE15B50F11A09472AABA727F0C49D9CB906B158030065F48EB3625E010CEC1D511D0053474B11E6A4F01C0D6EF1B
310
ED3A944FDEC70E0DDCDC756C86545910E0DAE3BE3AA9A404574C2995CD5CAF9549226BC94B4F4F0F5F9086F418F6B32346464610D8BC7391D3C3A3CCF04CFC1FB2A3A3170E369511868F14EEA4E5E438CC73DB1F3248AA94B6B2FF33B222FF3D1E7BF146CAD229770158063BCE4F5391964DF62F7E52A7BE0EEA829C9E13C4
310
C147D6F93FE59E111DAB5E4594D6F3CD1AD375EE039930EFE5AF2BB2D41C83C7DABD8C659BAFBE8FAB392CA634F3D15C1D945DB4588D2B0824A4EC928AAC565557CA2F0DAA588CA5BE30B3A8004F7BF005E96CBF891D7F18112A3619FDF530DC8AA64954258E1811789B5189B49B4EB53F5F89F7D37523894F3EB57B373763
310
C91E502F52CC99EB7BDDF933FC324C4FFC2561DFFA7339FAFDD0A4BFBE6D3A8FF9ED1FC49898139864602458968913181918F719CCF5A68B2EE9C1FF050E34E63107003B8120FA982C21B30A874E4F5E4B38D5A8290C4B8D9BE48A0BE31EA995BDC37AC6DE90BA17D259DEF53605D55922FEB1855D915B659FBEB350EE0DFB
310
2F9F766E1C84CC8964B75D08667445EAB966015F63A18A9E0A325C1B3DC628C0D3CB60F767FA93CC65F25458BD23C3B312716E5F40E5858AC06EBA9AB14F95DB99147B832069201541D09A0D856E12C629CF32683760EE855537D1901988D5EBC156676C7DD51D7207CF3267AF1D76C2AD867315E44618015313A98B19941C
310
696FED3461CAA9B5415F918556D7802EDACEFD6B2E45853A9735DFC9DBF7E440F9319F8B6805A973BCCDC76C069A9144E51F187EDCC12FC31B5DEAAF0A76137199B106EC84ADA6B6EE697D4E6A96E007417F4E880E8B1E89B4BCE9D81EF611E2ED8F0C1A6C25F620FAFAAB656A7C42D464880E8AFAB0E0FC8EA38CA9A8AEEA
310
EE3E4648BA4680270A89743CDD3E6C6CBF34B7B640EFA285ABC7EA0A1E28F3CC963D114A80123EE66D0AF7D5380EB41909B605AB4765B709B808590458157E69BA1378FEC4B48CAF6A730E3BE3C5EF2DD1A5EAF94B1DDE50CEB55DDFD7EE9A16747FA4B223359FB1FCC69E1194892BABB93A1D5C4E807AC0EA2E30180811E7
310
7A2291F6E7F7FAA5E0F60215BC6024E48DE436C511F0628B8CA189982D4D83CCA17D305A7E923C37941CFDFDCD93ACAF735EF5F0E61BBD3E6C41A59B242790D3A3BAC7064DCD89AA2E37214EC839820949D5CAA31E240D2948E48F690298974A96BA9A8432BC90F5071D6537C9666EA4564796B7AFFFA548077BEEA75F6308
310
3435074BA182F3699557397F71548383FDA8CA34D99B981E72835ECDA5DDDC151315173D05A21F651AAF8524E88209E2E7A737ED1045800CE3390050BCFB8BE588DF111617874C62575039CA588EEFDEFEFE319B739DE2EDC147092A262611E159650E787917885EF08F1F51B8F2D8A71D60B58B190FEF9541A1BE94BC19FE
310
A50784DA1419FE4B0FB51B8D36B5FF8E1286FD8AF42B91E59A5F1CC4D60174E764045FD8C57B18209B217F89A62252BD20BE0E63E12B8E8F029FE19E0E8D0870F58721A557082250D5424F7909369376E41666C0EE77CD87CB283F661D5FB6D0DA023CB67320A20DC7BE661E9E1BFE5463085C557DA1FF9BE835733766C3D1
310
39F2CF9E2208873AD0EB4814DE9E6BF2CAF81614D4D43906ED1C05A3265CABBFE192770FC2F64F940CB6B17B5F166F133C9AEEAD2641807C3E69515171DD74C4A85311513D6EC9530B3B601B6BA3EBFF3B5C3D2F7D69765141E345F75433953D013ADDF8F6AA7DC3F4A7563FE5C7D367937E2900D7EAD0F9FC9A4A1A9B5BDF
310
1FEF08532660C01C5D6DE22199AA774383E306DAB87E301ABB7D213887F9869D4942D0D71E94B27EDF216A318BD488D45DF84529EF575AF3C3938C0AAA0215B01994153E2054A0B894DA5C784980633AAD48576957CF4AEAEAFADC7C587368551C73DBE1E57C58AC713303A8BFC258BD04B51724459FF9E24C03A81E0E0679
310
CEB9B348C0DC998FEB9C6D6EFA77D247CC8F92D3848599ED89A23218D0636465AD1CEEB7DC140D7426F83491C4E8E8281C2FB35240918FFECE880CA2A42D70E8B20B34DF5221C7DB0CF90ECCB9C745B37A47E9B716FF7A97B7A252C1F3814DC7B1E1A7F72B8751D524EF7CAE45B0C73B3BE7D08ED39781B380DDFC9AA4A474
310
9C9493DB5BAD07A6EA6C092FBD0E85DB004DF06B8C9D3089C5320187E4CE1846158C7EA7DDAE8AD9AFFF21AA3A1026BB06A259845E8232DEE62811A4DA9CEAB3A4887320B76E2AE5615EAB7BDF738CBDD01F1E64064BC13D9EC53576751CA8CACD58B3CEB0E6CA585BD089B2A59B9FC101403387AADBDBE70586B93D64BF3A
310
D4453EF9C3B6A93817E8346991798601344F79A83C51F3D50F7BF2683A3605F51A72449489E0EE6169C749C60B1035651103AEE24D24E51A759C840DD3FC6504DA6FE107510E447B43461C79D22970B75DE5E1BD3007D1AFC619A4A4A69B5626AF5E9B8374E20677F77E2F8E73DF868E8BEC7EBA7B6A75EEF7205E1AB9486C
310
B642741D6E03FF13FCCEDB1C4AC129886268B01CDF4B124AF797CF784F3C6DEC97A17D4B558070A0F1C04DA4FF9BDBF34159AEFE958479824B3F58EBD1E19088A2AFDE501B6F2052368A3FD0E650A179EFAB1561E1D27527077136E652676C3670F42DCB3352F48F6BC86D2C3B0051727E41A0A4DC6CE2BE9D47F5CAA2935A
310
3C0539AF080665997194ABECD723B08129CC5B6B21D2E7D54CD4D12610E7E9FB8306771A89576C7A982002775ED44F3F744CF21EEBB27A631671D921938AAEE3EB0D19CD1E083727F607823E817BF599DCED5394E37EEBC2E88782E638920CA641EF74D4CDFCDEF06F4278ECB18E31E7E9876F2D783C8BF429C75395F57E98
310
C2B495A3DA077EB3AC3C158608B6B57FE3EA48484D9A480096FCEE0DE880950E7E5A5714131C5C41AAA29FD19AE81AC145FA1B9E85C7169A5AB837B213493DF7E9AA4B5FBF9CDEB36EBD21EF1181B7CF7366AB2A951D01E37AF4EB835D1BE8C117CFBE7625D2EBCDB0B20C5A4B45CED0BCDE3EE8DA9DA78C2E21DEAAFFD119
310
7E463C33CC6A80FB785669B856EFF7A8CCCA2841B5A5369173320B1170C368B2748D81062EA0296E5E2D95D7667A4A46D98A6FF475C76AAB0A8C8D45E226FAFC9FE0133EA9F60111F99CA81ACE03A1D14C89E8B0D69079C91464FA1D99E651D0EAF606F345C42A8A1AA9BA391031582B96D5B4176A77AADB01F12FD298A75D
310
EEBB2C82F0B8650E880722F8DDD90C56A7A058E5FDEF1AC93545BA27367C76F5D8F9690CB6F8DAE141EDD7971F0FB548A2AE435F224D6E5954CA155512F7332029D5A1230854B79F258EC5FFDB09F5F6343A8EB193229B7F7E79B3E48F8E183860B38C8269D1B53738FF1E0BACF6AADA6D4869E9DE708E79B5DADCC09B1BC7
310
6F649731CFAF59A83FD8BAE4C749D66FA87A3810D4D62FFE826FA400C0F325D2BC0F3CA35F5847B82A2ACC7961745C823E4D863D54460AF792CE6F79B5C7A33B25C3AEA6CDE15A919B6367D781E9D44F61BF828672594A3E1D9EDD6DF179A81F27EAC05B936575D73E05C209DDD2115CFB705DF9BBF3C911589B3640735E9E
310
618FC9C36A7326C82B2205E244C55D56FDB9D5DC93CE958D4BF8174D2B3DA54CB3C09F2C2A6DFF73D23B2197355761AD421EC581284A7EF8DE2CE3497C0C804D49B41DFD6A7360844E5BEFFB495CFCDB97A4595911CDBA623274CE852B5E278AF0BEB1770E9D37CD977B2766A7DED0E94B840E1E95E8C77DE5CB6354AF7871
310
427C28ADBEEF7BA0A28E19DE9ACD75F379FE373EAE6DDDAE3834692F9C2B03B4FCA8FCA9ABE8EEEBEBB725B88A7C90941E850682CA04061A7DF0CE82ED49BFAFFD42C309818FAE14755CAAE78B0F73243ECCCAD7DF58FCB9CDFAE7A4D3E6671A613639130D056C8383C8F4FCF4808C331E544DD26E4755D09EA05253B3049A
310
1E32587CC25D72E073E2CD96D04A71BBCB0038FEC3F53D254199C3CDC67CD66640269431860225392B2CB3ECD0B4498AAE78BA1994246AE1EE78F2EDFB79F6C6CB6B5E279C4D373FBC21CB2698C9ACBBEB6A4BB6B39E16AB0E421CCBFC7654D81ED86022F9BB522146F9F4772E2D0E4FA70120C95A85A417BF5078B232F475
310
4363EB1750B2AC2148EB46B1EA72AD9B4D23ADCBC589D70106C3EC2ABEEED84DFE28E718C6C83502C28E9FDD3B09DA0A6F6F7B72B706A31C9E2A331EE70DA56A083D2177BFD63C55B11D8D949FAFCF90B23A1E24B9B5018B9A17E99F2890EC302F330FE7936E2C23F0D237EC8916F5166AB84B62A21BB0B950146962D754F9
310
2CC2C8877BED8FC7B7B25726DD19545392570B3A2C66B58F027BEF412E552D12A588C4A3CC5C3193FCB3485EFFF700D0B9EEC077754A33DC1FB9E25AF814628F91DDFECB667D3F7690803F38D13F8AE39353523BB08FC6760144AFA2CE28236F65EDBB3D5F59A57D612B99E3D7E5F8A851666BF9B5A6658EFC96EEB37A378A
310
BB0EB3FDDF1303AF32C41BD1C8560745D7BD81066B0D6313359CF488563D3BA3F8E2185D1FAA3EBA1397C9D0E3DD232180A4DCADB6AF25DB3AC3CC26589C8239E66E81547BC7E2F328F9884764CA37EB5DBE390DFC03A5246B456A7C3684C4377D0EEF9A350680FA9A077E8B2957B489E09AB1AD41316944C2254B5984830F
310
691C93CAA767EECF976FA5647538830B5E63236A6F0365C1E0F3E327F24FE35EDDBD7360B0F7374837409F7A6311BECC12B7026D4FA1AE204FA3F5FE904B1F420C7A9044AE58E403E7C4848E7DA25DC9EDAC79DD756FAA26B9EA83ACE8A214A2612A22AFA19DAE7DBAC5F8CDE1292A485F98DAC731A29FE01A3966E96BCB9F
310
B5A4C8830E1B9AF0C54B87FBE221A097036E5D28D1F869F810C06A9BB0AC0612F69AEBAF893C6E7AD59460208BAB3A6B09CA4F6BDDAB8CF0D1F84B72487498395A70DCD754796E271099A567A55CF242BBED64696378BB6CF25EF0FCDB589F3A82F1116D010A9AB9FA4358809EE0C973A2B4229BAA876A70B03AB49CBA7FBE
310
71DB1832FFD32F9BF2C8E98075CACAFB36921235D0F552B6A67E94E094097A5D7DF681B40623DA535ADA7A9AD8E9A62407D7C9A5AE51D62A17A83A23728DE86BB56115804D3F2675F2C6B87541A0FC497BF0CA86420F558C9859EBE9FAD62747E323E3AADC03FDCDDFE7407B09DA90B44E3185723C5381EAEF589765E2F7A0
310
99BA46695BAD60CEF3491B8A171F5F56444F7CE9455312C3498C74173AEA0214EC029833B34B650CBB5A5508D5091665309642791708ECF27CF11DB3D797D6CFE474453BD4BFADB768094B2147814D81C7CBAF8228DCAF5564B5891F5EF6A860EB2E323CB82AB868D8EA048880D63B0DE5341F1B3D53297B928A11E15F25E5
310
148990F710747C3509ED14909C552EBE3973246FCE55D00564D8310BC3EBC5085D08D806799B77D6C57FDF5E55837F9E934F09C03C729271B64F12D0A9F9E938107CAF7BF1EC8CF1BB9B42363D33070F4CACB425E605DDB0A34A12BB936DE286B9887A4E2E558F0886498BFF49C311D96C277CF6A9FC0D75AD0ECC5226D7E0
310
E3572012E56D7FDE4410CEC7A6D0F997F225A2055B8B92E3956E875AE4993CB3D4C9063AF98FD45E1BAB165640A43439A2C9181A7C355B297C0A0CCFFAE19B6FA3C2BA238A885FBC98B8F6DAF4B94B97304878DF4D8BFF6A4AEDF79E90ED4E68F00CD7299F4E0D83E35601AF0CBEF18C1E870E74758FA91F5131075004DB3C
310
FCF09AE1DABC11957FD9808C92E8A678CE9DBE40DDA0E0D1D505AAFBCBA208232BFB6FB3704E8985E61ADE53DE74152F5C7DE74B1DEDCD37DC3E8FB30D7EBA8B9EFFC3606BF90B8D438279CB7709FC7C00D327F41817EEA71CD9E49FE9C8C9A81C70915D9F0F15958EC5AA4C3BBFAF46986B90F188BDB24B89DE3C6F29EC3E
310
6F66D84856EE96A35E657CA41B41EFD8DBFA16AD6E91439EA92B40B21C053249F51AE50EB0B24C770FFAF40DF12C8436366819C48E36547D4E7B72FE2BBF10828583057814A668BDF183F6B2E58DFB151103E56303E63D00F39C27C4661605DB644D19175D02E3F0241E8FC3458D17AAAADB117CE9EEA690D0DB01E634878C
310
04C2C9310B69FCAB831151E3AD293BEF6E46B0ABCECB50F5939B39C613D41E81FAE8D34CAE3C4566B761D37185FE864AC32FCB71AEF39DAA5BAB88609BB980CD2F07A8F941653B529567726E2B2A58D079DD57E1E5E31426CF184A04D7B03B985F276D47406AF276FE32E3328BA866EB1FD39BEF57863A317634AA5FE46740
310
9B3873F5069EF0D71AF00AD189D17BA1974ECDB2D623E9E14086386A6AAB5807825C37B015BFE892AFD154920EC437EB945D958E18622E1E0FE2FA06557CE4BB9BBD05A2D40E774DA2B65473791E314B7D6C886820B2FCFE4AA272B3B8B15E7344A145E8AF919B5454D89D36D413E87211186BF6F645E5EC94DCCE8E1C7990
310
22E4EC9BC86D7A0F2AFB1FC4B2CE48F84B3F49ECE65BAD24CADCC07EFF39AB06BE9E6B27A059938EA7208838455383DDBCFCD967DDE4650EF92A14FF933C975DB20BD7FEEBC4487576485963D757D16340D9599FEB362F775F38CA4185A86F74B629C81B133644A3B18FD056E997E0734F9BE26D11C0AAFC669E2AC9FC41D2
310
81F8B2E1C35AE27BCE05F3DA295488096688719D974DF1B5D182DB7792288697F8763CFB43562C1CDEE11C4AABD5C22B6E33F6F389CFC3477C5919DC0D533F8A7A1846B7ADB60ABDC26C43D0CFC8910B7C15EE22675BD02702ED39DB77A87A192CA7A543E6205B979B9F5A6B512A3CA799E198B2D5797C0AF8D1D872CA455D
310
4D431A7879D4DD76110B5FF7F4176B54477A9EB5E4A5D11214FDA585F0382751D8E2582BA5D2075053298FEB8F1537304E32CB22C2E2B693DC0A760B1DFCA751BDC445AFDCBB12820ED85F6D5298933C7EF1211E9E057684056CDA3FEF3BB6052355E162DF27C59E965A8DDB7F9437EB72CDDA3A090DE65A5B2F50326247B7
310
EC67B73ACC7047FC9B353D6EE990F772207C6EC52B39DC2F3C0754821DAB559F7C1809C7D0DD5B0499D0442E0A6E391B3D5DB46D11E731E6794EC77523FBDAA242ED67F9FA1FB684255671F63C9BCFE6E7E896D51001A6113EF2298BA494E0B0980D1FA5B9D60796554C02256B1E0345FB7C6186B6A19D2DCA270416262845
310
FA4F42DB5D9B0A0B6F07FCA2E56C242522E001E0CEB734AF310FC8BFB57E38E03AACE93B3326A2197891E68452B26A6307FDABFEE0223D3C03C3C73D2D5BC054C8311F12004CAE488E5C29287F8156A2CAA4AD0D7BE6B97264E4139F437CE73ADF52E5134C52B819777C18B323A5924E4F67AFD13B1CDC3A61793A79FAF5C0
310
CEB718E441071E797C6DCCB9EFCF7E4A1E9F3DF3C2F9C9E8294E9586868788C972857FB0556D7A26941A7EEB9B580AD78EC40B85DC906B4120A563CA3B87797ED612D3B035962BB75F6515A393F4CB057F564CDF54F2E5A024514E6A1F901DB80C7E70B1FC05E356A7E72FABF4775B3E3FB8F70A2A8E7B6A94542BB3041579
310
78CCC999E707A29CC795E67A59CC546A5D47B368954CA7B6E75EC9E1F6FC73CE3B4F71F8CB1A6B15923D61EAAEB14626AAA9D04A26EB9C66CD1BE86CA31A5D8703DE04CD1EBCE4F5CCB62F93909AD11E55799A781A956ED27D3E738F4538CB04ADABC7DAEF20BC35BA6A90BCC1DC61BA05F20D8832FFB9BC9B15E2DB838A0A
310
FBB7E0C82A562127E0446894F427794C3037186F622BF24DE1B00AA10A23BFA47B2A180D6DA5AD6F7326FEB8C100C2D7142EB2A0B2A9D1008A09BA343D70E054AB69E2A7EDB783CBD92537FAF4A44D1296AC2792729104B3276C276C951D0CF3CF3F1E6B017720A7B8505A5FF9589365979678C36F1BAF759EAF57C60F1FF5
310
FE9DCF5F8E764FF25A2D06CF25117A8FED51884C13B2B750DB0E4F5E3D64124FCF11F0AD8F1CC3B3DA4B38ED22BF1CB2585EE6BFEBBA63FBFD44F9537B9B37BDD6B358720F98A8125AED4349CCFEB0E135F19E208A04CA7E2B10711185D72E381F448036EF57C9F874E54A971CA37A639E986AC0226DC5AA00D5B14FEA9192
310
234B3DE617814FC221C92F33F1D392F297731B567FD98FD91D989379AF567A65B8ADF177591DB90FBEA99BF4ED11B16E50A0AB1DBF1156D034BBE04D69D08F939D8E92BF525A1DDAFF80ECBC95D8F45D3FDD289FD23F7D8B452F8EBB34EC082DEEE68E18EDDF072060FAD2AB1504DD4879BF67099FC58F6E9DEFBF645D1633
310
4A3E9A127C6F1AF6132CF287E433B43A0EE93812B4AA0B194E03EE3FF91EF9C6ED0074A2F6EB18A96A7C9890B1FCDA1F2095E944DB911ED54C60DF16FB74C8CE9BDC7C54C4F14078CF73C2FFF1F1BBCCD7CF64F71407EA1683DBC410D226627F66E509060D5C0AFD611DE681D509DB8DD12FB1265B03C6F5C55FF4C30BD941
310
87FF692B4F152982502F193098A789526A038AB529A52BC0DC4FB6285CBAC10A8B8DB75DCD9BDABBB221E27D1F8DA9F5EE5926A1C8AA9BA9BC09239C6A7F12914EA3B59EFF7AAEC3FFCCE56F1C5C2980AD072793527565E774F4631DB178CEEC691B1F367BEA0CF2907E1D6B854D527065979DDEF002D8B2ACEA7CE21AE297
310
737EDE1D45B31233B73FEA35BCFDD0B09721FDBAF6432681F2FD10C3E9EFB246FD6E854B344ACC9D8A0EEF876A7314B49B6A499FC650B099D650DBFEC7638ADFD245E2B7839DA5AC5F7D5623FC0ECEEC8653FC9B2BDD1AD4D00A566FBA7186DD3C9CD26512551637498CADB950FEC71ADB9A5524285DE328B8EC7EC75D2345
310
AEC6A27C42AF6D9B92155315C80DBFCABBB7DA0FAE425C4FB896B15C9BFAC4FE67DF5A23D30C93DA4D8F36FB15D100050DA6062E22AEC5F4DAC4F6FEEF97AE05DE63C6D38F9E068A20BC5E3B6BCD75320C5090924E7F93640A7735B1A43451C2D91EE62C6238B797349E59890AF3A520DF4A87095F3ABEC2E61F0593416CE4
310
6CDCBE0E00E2523FCCD04408588B5B6C9DB6459C786CE378770B54F51DA3A5E1DF2A3349BEAAC234A6CF8993B598B3B25B4B113E353A4D750FA7534749430F3EBF2512E7EA3FD43C6AB9A1F765A58463B306721A15D224FAFE8C6F5E3432D57EE697DA0DD5A9D4866A8BCCAAA9DFF1F06047851408FEC060471D0E3EB86BFA
310
F46E4B5E60311DC3E3CEA147C75CF971BE74689507154FF2D2E92F15CDB2B9182B11459FD8ACAC5A85F174BC94A7F4EE4C4F5CAFA7C02E37BF0BC77B7DCD0C047BC316F562A01A441AFA7931CC84A28CB9F4AA367EB515778F29BFE61195FA671F4352E5E46E3A64773F1F76EE5EB36D7BCE9BCEAD837A4D77F8DB8C92AEEF
310
6711920D7C7D0F76B0FD0EB7AB83724CD35BCA7D36DDDF5FBB7FF6F04A91F3E2BB3B8F1A43CD659639507FF6331C5F697BCC782AE57D757A27D97F1AB9E0AEDB43F92F1B2AACDF5FEC8ADBAF9F814E2027003BA2F9E144B1938A7A04050AE5D953B82C45619165C813A10E76DD6906B3C16438064D14CDA713AEC420034613
310
E1AC7241904A49FBF87409AFB1FCB9B72FE7933A87D8FBEDACECE4EDCF6A4FE9FB94D5DEB74FAB7CFEAE17EE965DF980DCCA2D04134994F9A2E94D2265DA4FE6AA7B7AC15FACAC2B5ABBCD7DFF542C5314FDAB2E1B9D8B65220B8E2B638BE008E8DCA22678C820C5053664D15E89F2D735B51A84955E81A443545E9FF787BE
310
0FA700A76D136C27DA179A7C6E8939E01BE756E19CB292798063D8B97F44E8A27BCF3A614FEB8BE974A718E86F7EC99B53CA35FA24F61F2B07266684623A3D4CF073E511F3A10A8FDAFAF0078C577F4DF9D339FE7862E5FA47CF4344209E5BF76D783B1B48E152AD281B15FCB934DCDA49CEC5706B1EE8B460F435324A5CAD
310
154725E21AB8044B75A557A79F6C807B9340AA3D92503E866F4274412926C8C504E4D5EF8C0E68DD0B028781A6B4054F11CF18941F101C57CCC796773ABC8DED9CD91FE5788806C05E548895354AEAC96546D55B0E94A59F148D061F42AA398D822CDECA4CDE79E13469BDCC44FDC990F366BA5978C15F97ED80CBFD73B0CD
310
9B8B83A4F6845BDFBFAF034019473FB9A63BD55D3A4A7284757071574029A4D016DCCBE95DD679EF3C4880BF169422F8C89B68A988D2B13793CAED4F74DE7486C72DC94DF46B8E93D8E02EFCB1FF9B3BA10C8AE7F653DF94F4AF466CDDCEF5776687F7C4C14B63E4EED1719DC2EC482D7DBCC7AE518CDE3D5FF86D39000EC3
310
673C0044E1D308BF05F74D1B5F033A7D1BE7F74BC55BBE3E4A20F920946CA0271EB17BD2B80E5660ACB8A29A79F5E4BBA49D4D945B6EEF4A7EFEAA65E5555BBB57A7E15D2F83C69F30BBB978D2B39F1F26FC097424D39BB33CA3D87ABF64E307938B685BAD44F71556A30B7E712CA4FE600613C3E554B69ADE949A7CFE214D
310
F1FFF05CB82151EC6FC31950239F94CF7AD39DC473F6EA356E5EC2C4EFA04383CEFE985A127484366FBEE3C0EC4FEA363E4F6632AE781392FD45D67B63FB8DF70E82734F431FD3443172A0E30A83D60982D55FA6A2CF86DBA8382502ACC6CDEF3B907982EED1160E14863FA242F9757347E1544275CCDCF71ECD5F8621CBEA
310
326B8BA884AD7F825781923E66971F04010D574C541D8427A438A37EEF8AF88240EED7362C953F5A81DE2D56109CDE2524EA0F5D2F87308C0C47BD97AD605878AB8589E17CA83930CB5E0DCCD75853D68B1AB136594926DE426C367428E9334AFAFF90ECE221BB5DC9E5BB53D2CDEF954EAA9CD814F0E5725F1965DD458E5F
310
8487683AD86B9D0076BE3EE91EB1CECC5331A67A3F79D8B27587C12EC2A6A70474749F27B4C0BBAFB94B34189E88DC18964BE4121B9137FD516C7755356E50D6714E31ACD222621EBBCD1CFF81D87479056A9DA0E0B8EA19D24CF937DA89F78E8650CCBDC110AAB6C4E46DCBFD0446BA9E2060E81F314AC2031E88135E5476
310
AC0160EF5C0DD2EEF1B8B5CB2D198BE9A554A9093B5F7D7E4B5407DDFCA1D9C152FD97F55BFFFDFE802954DFEC8995B983E28AC92F1971E28F531DC407A1280EB125F64A72E617EFB27DFBCEDCDA2D6F2BDADA36873EE46B9BE1782998C63DA7182BC383FB6FD15DA472B175D7E8B4FC88F38D6E07FEAA3FA3CBB8F6B449EC
310
F14D2175E5C5CCA3A42ABF24CA6C9395AF74535F4DDB38CB84F56614B0FD32D7E19CA5CF988DB4449C40E23DF2B16772594554579094450F56F253CD25EA7F77366FB1CFE79696C428BB64D5A41E986189427E5E4D7E2DAE3D5BB4972B3DC44EAABDDDD63A2264ECFA5C786EB0EE1FDC5BE34FA0F08376869FD1E61EA06CAE
310
15191135445EE8F0394161C3266A596AA035572BB0C8876180D8B9C77D307DF9DCDF7365ABDA6F3A2366436457A4DFC1F259666569A9E4A79C817BDD5610E5200FCE894A358EC72858D50EF67545DA81C6FACE3D457BAF70367E1E6BDD9A952FB4F56247F58F523B97E640246051A72F79BE42FFA0B3187F63097F91C48B86
310
8586F714B0EBD5A00A8412C1236E1298F60C72BE6C96B82B404CADAA304AE9F303176B14BA53FBC2D5E86377E35542019E24D97B96A49B2C0E5006E7795954DEAF5DA58958839043C6C70BD3B1B33B6DC5C31316D8A6923F142E26F6711A2258AF977DDF1F970ECC4F1F2B434B96D81BEB6E89BF3BBB3C7C8CC80505070723
310
D6D7D7D3C8CA27CA164A26024FED94B12A86031867241DA53D929636DA600F050BC40CE48B8BA03D69224720DEE2ED2127390BDF5E6EA64527BBD4C4C63FA76BB801FEEC0E61218EC98A8A86CD8313781617877E66692839B9468CF4DB8E50A73986E558E309C0D6F676F921BE02F1185454DC75B111572FF9D27D85EA14C0
310
5AD7271225B391C4275659CA4A43759D0BA44639BE4C30A84DB7F67A41399FB95CBF923B1B1672ABC807C1590557FB18D811983FA97F5E609516D62281D38B1281F68FC75528C35E4CD7DF0F7DBB5E5DD69C414EBEA2F4A5B241B996BA77AE6C772E367408C633EA3E438B68563EA8BE7667F3A4C4FDEEA52ABD78A2820F44
310
3B7914A15F180018D231E64519C56A12F6CA7C8DAE18F06F6B769DBF92329EF6A5D18FBCE600F36BD8E8198DE5CDAA96181F3A756EBA5501CEE58F497EA4F418A2B82565B9BCC611713C0B708CCA1F398B78C5F7D03B3437CC18F13061F55C7BEDADD5ACB1DB0E36D3CE47FF6EA1A563A57E9649EA5D14D1A50EAA45746338
310
1C073777EF1600607BAF6428A7DDC079D47A204EF1E1F1F0589FB054D45E02CE623B3823C317C601E589E22B1E88B448524B86A82828E32345EC18AE17214B42F8C41C6D428016D9BA31DDCB47572561E5A402E5BA4FCE55F78AF7268524AA04130F3A20BA5D1E9F9948EA48FC8F5314FDB35E21898198060034ACE5E3E2BB
310
CA34092518F275190AF65F45867FF0900AA4B81F25427414C372BF51DC29AA855C5428EE1EEDD6B849AD60F6E73475C2D2523F8A2772C840A478DED18A8C5C91B085F255DC4F54EA7AA8947354FD17ECF8FB3B4A0DE7B483CAF3A1165EE05BBA413E5C1FEF3DE1D6B8F2F3F3251C17D9FCAB48A9AAF63AC773A0E413BBC46A
310
9ADF84A566FC920E4D8C52C9769EE3301CADEEEDD92B312E02E2A7E35B7F1E7D203FE5A7D75578B06E99D0E46FFADB8FDA17ED8880390DA29094202D6F645F76F6F96409CDA05495A96E84B04A00D1A6C6C81D7F3DE9376E828CCF144EE50E364ACCE7237EA0BFB5607ED1AC3CFE73794E5B61739D14DF1743441B1AC98F00
310
ECEDE9E7301FA29755FBEFA68C91EF2B314CF510537EF1ABFC9A762496280B546F5EDAAF8A5B387D469FC9A878A92828C88608453ACEC6094DCA54111E7AD5B2663DFE2DD151B7F123B9F4FEF8EE36AB125FD7AD52A59B1B765B3E3F73E3F73DEA93875004D2AFFE3CDE9493B87A9904DD052028949041A91DC0E1BA47BA71
310
4343FD5B25E0A6A09503AFC17C790058A836A324FE31D7893512E28230332F153181C1E018E1124EBE1BA262AA428A518237D1EA7275E48C5C561BD19ED6912EDD8367DA0F31E40EEAE9683DA9257525AEA7B632B97119E17145A90231768A4F3B9120FF32E8319B015E3CBE26F1A754177D8185345817C096B0CE443A955D
310
13AC15E1FB5DEEA0239EC32A3C92241A237B0B02FFCB4F93CF2B02570C8D192E2F2A68CEEB42F12E6F8CEEFF46C251E22B4341C56FB08CCE550E7A9D6F4D6564B9EA52A83D5BF2C6E03FA19D2775E15A8A7ACF30A13C259EE7F5EF2AC3BA354F1500E1A07FC63FB4686E2F12EC69719F9ECF5FE3F35598DF2CE944008CE78F
310
0911BA5BE5D0A34E0098FF038669C26030BA9B300303039852A8F6F496341737CA7E0D2E3AAA36DE0A70AA7D9CA0D54D9AD84B18A44C9E625475E1C97B93BEBB38DCE7D227E67A2D00F531436136355F243D1FC0D712C5765754FA22FCFFAE97919161F46D6E61ACB37D83777B385889770B50765B127768443A5C4D3A4E35
310
A3151111F146B7CA116F918A049F1C272F2CD7976C69A0068773451659A97E0F4A08FE604C3FF6CE7385DB19F4D3ABC8A0D80DA8A42096AC377DB49382B36E270B6FA7570188B4B7D1DDDDA82ACA487CCA5D38BD3BD039ADBAFA4ACFF27809239B722081E2EB9F145320553D183F28471C388BC8814E5045676767AB58A8E7
310
2D1CED2CA731379515D2E533E4CF0B39DFC625F97AC4836831A4DE330E87A8126FA17EBE583D614E71E22A8DBF2825599743E0640037303E8E1B1E8EA4E1ABFA4F62907B5E4E0E5DCFDAB417C36C6848A2B8D15F1E505434C0707E16B1CFC2A1C36A42BBF55734F8F4301DDC2A5110CEE8C0747F69519265012A2174BF4E95
310
5ECD4FDE095A3ABC70536B7AD0B9D7892F81287D667C108703C9B66A221E9A0929D030008F77FF6F5D2108EF5706FC87A3069B976F7C9FC3239D13D283CDEA83597461079FEEE049B0F392889898B7D87D31F8D60ED7B56B91823A8E4EDDB36C6172ECEE42BD42B12CD67994FA0F0DFAE9389356F4CD4425A4B8AA55CBF7EC
310
D585C6A2C2316791E43D5C06841ADBB226A87FD61515FFBB0167B74E56BD7F3E90A57A97FEDCBDF483A0D6699A8C0849CAEB4947FAA90D8E332D9DEBD9F4738C37DA0CAF9CF3DAA68BCB67C420459C7A64498D6E848E5CADE92BB6901F607AA331104A67F7CD650EE169B1DAE94D2C31C2F993632259B6957E246EFE4C5481
310
107B07118607700040E5812A2A2A38DA0076875258C753F60E0F2662C748EDD5F3F3686B8FC3BD6FE631ECCAA1E8B1C1E565AD117E54893E79F4672E32F9E46B2A183DFDCF3EECB4D4D077DBEA0DA254D256045109670050129E9B9B1A9E4A11344D61497A992778095151510C4BB7EF2009B63AA4360635312E4CF668B7E0
310
D3D85A8688E2BD83B569439892ADB63461930D428E0DE42E4AC57CE48DA5CC1449530D8BD3D6A0F08DF20C8E8F570F2CFFFCEA286E30969B4654D498A58D9DA782E19FE3F002181838925592C4A1EF0B332D88B61A92C644547BED490D3A42CFFAB70E36D961F694F6307F72FF15A1C79D5B1B5CEFD353D9E2B52566DEC8F8
310
F09CB3E8359C0F68EBBB7898243E34E12A015B2685AB303C04D3A9E00671FF3DFF0A184E4A2ABEB2B666AF5B3A209C73D8EF29DCDB069C9F391EEE9DD0F74C7BCDE16F8F02E3B8816122BBEB50665775B600549D8BB33A54A6BF940C028118BC6878C79958D6784F9DEAA6E26748386FFAF8D0D0101E2847B6563F5D8DC1D7
310
8F787BE00E2C941AE12148D4A81599FE8F68D4DA5CDED75530ADE138240300EE13B0FC13A1687FED6774662C05A2B7DFB186732F0D7A93545D8B0A6390AE5054D9CB582DA846D7A061B3358B45E2B52DDE63E114397EDB7E09233A579155D795BE76102CF277F4DF8B188C4F2879BEAE3C08347124BF9ED23B128259FE107D
310
31E34A652F090B30B39E0D9AF917B76A2806135621A8A60681F16AF216514BBD02711585B5B1AE823F4B2D0369EA5B6BCB863072727FFC871CA6C9AB79A814D989057E9470A3D238BC87CBB4A0EA49AFE2B86F22E499793CAA9047080450166BDC357524561E258C77CB697F1ABB32562CF87C3B7AA12F911EF19FB3E5C022
310
22E887D08202A60A17151F5E053A86B437771088B4FEE14D652C43E8D939995D34545E12E2FF93D4E366EAD25F10CB7DED141563C3D0C447AF06078A91135FD4B9611583CB4BF3BD167F2399CEAB0E0100F8FFC305F00F1711717173138B4B48C83022295DE657EFEDD97F238ECA80F528AFB4F8D67AD4E2594B9A3AA86D74
310
87EFC313BA95745C186F0CDD84CC12DC9CB0424B42203D351FD9C0A3AF10CC7F388E0329279087386421F194F4A29464C1DEF7EF8BE515E4A199DCD5B909342598D8FE6A231F71336248D5CEC5454455C7BE383B3BC7B260FED27F703FDC39A170F3827239102F59D4DEE7FEF82EAA1A5E4BA94DCC4CC44E7E2EDE20F24244
310
E4454369D2E87C3F823F193FD4FD27E1C23984B01898D15ABC20711A8A558054951A6AE280096BA36CBA439603B7B0B4C45F248C14B2383B4B5CD8ECECE4FF859AD4A6CA2326D020EF090F4041D28DB66E5256B56232CC52829DE8060BAE6BBF37D4B7469B822454FE93210A3E8D15E69FFCF01123222611C51C4FD0A041A0
310
CFA2471CF6BE38D2B20FA4C3525B5B8B586759475CF80ADFE67A284AC24651E52B8E683D24C2622642F27E7C3C22783BCF63648BC398BD6CD0D9C97E7E7E3EACB6126DB7A6C1FD9F1031302EE67ED96F22B77C7CA0239BB324207559B105E4693EB26EC46182A92C9C0DBD24F29B31C5C5AC1F84300E0E17CEEAC15F5736FA
310
4A98971E2F1423BFCD68D4BBD5F86E74B40A369F39507C88FCDB35D2DD8DEBEA4AF999E23CF2816D204200DF6E611781B9884C1AC8888B4DE397320472959434323A5A36B22A8E1F721A270DF3BD65E4A31C11FF048AFB0D8B7B6881423793963A23CFCE935FC189ED36FAE35C46DA3574C979E4394BE52084F3081837BE03
310
3396D2EBD80F1F691B273F660D2B32FA27A33B1DE4ADA5F0FA4651511102DFA410DDA86E065272CA314D5249DF91B06BB92807B28EFD54F08F7B525252782CD276DD02E6B0319B13DF87B1F6361AD6B28FC0D711CF445429B9E5A433CD493051C49A9E03DDB1B147D880253514A5DED88009018620EE229101C041950E2D8A
310
A8E1F5F5438E0C0C0C60EEDEE9E3E0C051948C69F84BB7B2A48A1F3C8EB9E6864687F4F4F6F6E2FA87608ADAF9C5E117B7C1A737E710769DA1D15ECE6A84502AA855398712D5FB51BE92E4EF824969CE18278798AC303C2C7980DD2500ADF8FB1E6D6C2FAAFF9987178923334A244758BAA01A9A1B70FA5097D01E1CC2A58D
310
AD0EC94CE6430AA9B0C10D75E3C6BAC670EFBADEE1607739CE0FC18A2587E3EC3058562014C64219C69BC269082D5C2F4A659278D585755912176D78A1B641719C2A394CED495A1AC5D583FD2F5EDD93308EA7EAE8A6DD396598BDBD3D4CFED62D18A5BDFDE0DD5C80D1A89BA62697B131AE7CE9A6594138582F1B37D68F17
310
49AC7CB67A70695D48A4A056AC1FBD4E82358CEAE38F54B95A9016F9000F9879C0D9D131768635CA798895F27D6F1614F11F2838A83611AA51C9A3DDB539D42979C29F10465655C17BEC3E2760B80DCBF609198C7B171A531905F3EC218D696025975E986C6B4C666666787271F202805577DD5A3EF0CAFAF91B62DC4B2DB4
310
217A7606282F31D8DDBC290593BAA93EA6353AFA9939B877978481E15CFC9F2755CDC00C538F63A4BA3E80AE009B73CA0185687D339A507D165B74290D6EE46D5C58148F020C3668ABE9EF2F7549170DC80DB41FFC1D678FF19AEB10C7133832B104B80F691B3138F97A92D26E551F1F110400D45AC71A9B9AC41A1A1B1DAE
310
ED0B0810638EFFB511D46B121C6FEA0F38CD00E03CFFEB9713FE1F9C263E4DDEC160D0497FA9A132BA608584057FB15380825DE6C7FC3C667EE947D488A09898D8E939C4953BF4EC9836344D2CC6B2971B2A21A572B06096F4982D2CC7232D46E8EA69DC83722E267754D777F97F96D5DA74E1E75178084D0E70F12AD33E5F
310
71EF2AFA599B2BEBF60A5BE475F444F240CBFE8143C334E7ED9150FEEFEF7EB020C4DBED388DD1D6A167A76F3CBF119B578AE8CFA7736ACAFA4440A1C47185638A0D2F3EB5BDDEFDA958FB13CE4AA4923D5BF840392D45544329525749734866684BF7F8D9D54D892E19BCA9F829A0F8BFCBEEA6CFDFC61D74EA1A645ED7A1
310
FF241739F15694BD835B66FEC5677E40FE69BD3F91AE402F036537218A401CB0828604AD189E575015C6F3F6BBC8AC79CF6C70653847254B31551EFCBEB5978B9DB85D58D0FA41A9DFE9C624834AA04949D24B5AE6D299E072D152D12097920F14AA92C31C3B97E28B6C2E6E9C23D63043ECBBC0A60FDF5BD0C33C127EA8A3
310
308B8B6AFFEB28B4455BF6E7AF4FC6222728357EB8E46E85053E6A8843AB23295BF838ABDA94658FEF3F832F147046B4ACD6F7D48E8FCC9618582961C898D1C7A253C91BFECBDA6BA18A1FCF70755DCCEE2222F41B76D23CA98D0CB3D95F0CF66D57FFF65E2A90F5DF40FC3187621E981BD0BC1D992787212688976B94A8F0
310
C6EF646624B570B78E068826F87CE27041A95C9A4871FF65CC17FCB1639629AD6A9517000D63AC231F3D741CB8430777E7ECF80CE7A3F73C0F162F7E56AA71F4DA80A33CD6ACEE78E2C11FAC03DAFCE929B106F8F6B3ED2DC71FF994BD9CEF4E9A94896EF1B6E2B7B4978168BCF0847A3D2A4F1B0500B926E634B174548E9F
310
BAD27153FB5FC36799B1E6C7C38A94E1F9E996796D7B485E635D5287A2AE76FBD11A341DB3F8F810385BB7296391973DC6C37C452A9305AEBBE0CDB6C566DB59FE60C8E94B1FD090354BF51439FFD1B48D725228FFA88C84F686F547107A7A235665A4593B7C34D748C1AC8D56DD5DA861EEFBADDECBBD65117E65851F9035
310
1AEB65F0EFCFF4BCFEF24CB7A5879699FAC437A7AF9099186CF006BB923A59E37D7A36A29FD8D2CBB914A5E9D0A8FD212FBF796AE9A67958FF1D5D8B85F78F96219D4714EB919929241B6C018AAE0C02069F8D919961EC5DDFBFB7573E3AC8E08BFB7C8534BE6DE045B3CD63DBD71F7638BA2309CAE398EA3A7D8F98BBBC7A
310
EB367EFA5CFA27A9F8F2F52FE878058E6209C026453F8E7E8A237DFC389E9590F6059B397CFD65183BBF936E86896612A5B5FEE49DAC8455D026218AFEBEC12B3523A45B57B82C9C97E02ACFA1184DB18E48CF615DBF39C3CC6F0B4AE6BBEEA2E39D944E290302FA3DE33FA7E40296E2EF7BF1CD855BBECFAD0FD622BEE974
310
6FC4FDFDE545AE6E3BC234CADF83A0FB76DFB145BF3828AE3436368AC24989454F8FF70A177672C711CAA1A76107218CF948CA01F873520E7A2B118EBB161ABAD432932029628B6761590C98AB590C8C8C79798CE9F715BA696E839E9131A4BB68BE923F1747FBFF165331FFDD4D05997ACD168F12CA75348DAC04C7F509FE
310
83898A8B421181AF492861CE81E4A2DD0A30850CFA95E05F097FF70F9E777310D584A75BA7018922E271DAB1D785671157685B7D383D3E074DDB4F1E44EF04B07BAAC75A062077C54B9752C738C9D804D402E02851F3F89605AF189738C18C021D2139EAF72513824E10DDD3047BACC8521ED7E98B257D1166903B1B08FA6F
310
918FD7E162913FEC7D0EF4787E29C35FBA8C6E2C9C20E9AB30AE42CA2A01A090E7D010C1B5BF9CEE2A304BF3A987FB40D836979B79E18D70F257DA61E808472DD85B82761825779D6B90CAEB0F23360C6F80A7D7D77545E95B3DFF0CF96A827F9B5BCECD2C9698718417EF80FEEDEE938AFF55859D0D540B7FE09435583A6F
310
04874A0C7E8CF234DF4879722000167F5872CEC6BF3EF7E5A8CC8121E6A359227C8A29C95212F9F735BC72A887D56B8F309FC525BFB4FD767AAEC4AEFF249CFBBD2DE1AB9969A6155C7D8DABC307E47324C1F916C7BCFF40ABA5644E9FFB9238D19ADADA49D9610F01ABBA57E4DFCBDCCBB2B93C8953206C91DE01B0E2651A
310
6D6C31721915B31F7B7CBCE55466F6D70402788FA91D73BE4ADCBA99A35F17D6B83383704917D6833F0FA3CD45C926ADB8BC17999A4A0AFBCE2541F7B8CF4C2F5FBA611B3E626D64407CB32C122DFF4EF8674D6EDBB86C8F7C6A16D50FA685E2CCA34F8F7D1D8265BB0042E9D7F1F666F7BE5FAA5184DF58E12122A42EF02F
310
461B3F369AC746F96528AD208512AB56844CF75B97F352DF7995024FB02855385854F3798670D01CAC771AC3E1889EC25F61A20C1F8CAB46898817F9C47E2CDA1F286BF2F358298709FE567C91133E2638C8B53975E753EA8BFD3578B5F7186B7BF084EBA3F77BAC3132A5779902EC22AF2D2E79F42D324E083386DAEE9810
310
D1B44A5DAA54513C7A71E52A4AB9257D975B621308FE4D2141CC3DCFE946C154A3C1DFCCA7629EC69ACFA831634ADDA93C0388D2A9A2DDAFCF957C6995BCE7FBB6DC4EBAE79E63EB08E9A25F52F67076F7093CA545CA3053B5BF576DEAD4E0017143C5F759F32B2D6F145B52B67B48909B7C7FCA6586EE385A2189C16932CB
310
6DDFD9152AE317C430492A578ED27B72D85D40C7C93C097939E1B50F4D67F05334FE9DC362C30B7FF561B95259138ECFD9274C8D695C31B14D4EAA9F3D7FA8DDF652F8C5DEFA23284C799B7D94416DEE81E05A866302DC70192A5368EA65E1CED8BF107A1E2D3119A71E85DC1A7B0C1E93274CE04DD0F2ABC8AC7C987FDB00
310
2B6F81757B43502EF7A0D92E416494FAEEA4C9C090CD9557AA4D532F4996A272B94355C5A0E4974EEA9627476F30809B94D8D8D860062E02204643BEC7D0438AF800FC7E2B26955D595421E83C69E1A07E0E3122285835F014AD538188CF9737CE76D464A353FA55A001AB2526B84E985083693BC76FE211CA1D000679C889
310
E3C009832C87E1AC2EDD05C302557422DF0800E316FCAC86978A371F025A6C7DAA9F333E7BD160403A1A06EA75AA9888FF01504B0304140006080800697C6E5751464CB48900000043010000360000006662782F42453736454333392D334442392D343739442D423732362D3038444442453443393237422F646972656374
310
6F72792E786D6C9D8F310EC2300C45AF127987122606C71DD918B841D4B851A43646695A717C52A85029031293A5A76FBF6FACEF7DA7264E43906840EF0FA03836E242F406C6DCEE4EA06AC22492573150D1F66C60C640E8938CB705396EEDD86DE9B5042FE27813D640EA63BB001C722AF6E55CB61E4863F58284D5D3F53D
310
D715CE1C3985E63FD7F1B7EBDD617E9F1E504B0304140006080800697C6E57B326B07340070000201C0000340000006662782F42453736454333392D334442392D343739442D423732362D3038444442453443393237422F6F626A656374732E786D6CDD595B6FE23814FE2B56F665F72124E15632A28C0AB42334EACC68D0
310
ACF62D32C1506F9D8B9CA4A5FBEBF7D8B1439C0648E722ADB6950A75ECE373BE733F99BE3F440C3D119ED124BEB6BC9E6B211287C996C6FB6BABC877F6C442EF6768CA9324AFEDB3508C23726D89656B36DDF3A448D5D296EC70C19AAB77F3BF5016929858286438CBAEAD2C7C2011EEE1224FB6247BEC6D718E7BFBDDA1E7
310
F5CA8D26D93DC7E943E3AA147312E7C02AACC7404571E099FF8248CE6CEA880DC6B641B76DFD33DB1C29B8C9288DB31CC7E12BAE1AD7F54F70D5B86EE00D97B7FD916F8F86C3813D1CF73D7B7E375FDADED5C05D8C170BFFE6D6B7D06CBA491256292025F116B4F862CDBCA9239E54E22B14DAF80E933826A142B36DC39628
310
BA94644D4C0C603D295A4D21A5ACB5854147E14F6CEB048AC19281B6164E7FD6AD37D9FC0D20645DAC94674458799673D0B5C2BEF40777EA94AB865E6886229C134E31438C6E38E6A020D85A2AC82023BC4590420233A9454DAFCE2B18F6655F6AE372573026FCD79A494F0BC01F499E49CEE83F841FB9AFDF063C81B4058D
310
F38912367F4981843F75E462F96CD0570F4B20D18EE13D580B8829360DFA0DBC162216AC96D6ECE3DDE6B016F1A1FDF2942729E1B9B03CE9CCCAEFB4066BA605C6D70194125753774754BE02F49F00F98A173405CD717A181E865A768EE36C97F008B4835C64BBF0C745E2EBAB6F53A73A3C43C88895A73005B7FD49981A62
310
1877D7209D4D9FC0E8133E50C2AD43CCC0A6EF692CFC1C0C05B1049620DEEF36076BB682600A8B700A33901E7EA78EF88AE0A3A403F1A6A1A1B6F0DB4151DA619A7E76D4D507B0194EC34A55868CA7F01DFD147C6F96EB8FEB82EF7048EE95632FC98EC6348764DACE9001BAE1F2DF569FA4477E60C906B3E369635308D7EC
310
1311375AD4B2566A41522FC08948C3A566E4CA3D056F670CC7242932B5DE16A7C284253CD8BC04A50BB7DEF5A7B681F2326500ADB10C927BC8692A30B1664A5B5520ECD504050BC35C59E0BED46AB029A234C05152C422D4BE36C5261F106784250255494D1BB6F65A4D764B77BB2283E0D54A726100A9FC59132E2D7C0871
310
AC8D5F4E761C43124DE280420E066769BDC1B8A002EF3CCF1961BB80325644C18E32C8234184D313F43B4A50CF5C8FE4E539E1DB5682A665699FD436240057C06A9074B62A63BED229274F549499329FE96C60EC5075A8351B9E48172253B400AA8D519AF9DDD5FC6E34BCF5ECE5D0BDB387EE726CDF4C06B7F6707277E3FB
310
237F311CCC9B7CEA6855CF77A04A51E618FE973F14D126C694C1032136DEA6EFDECBEC79ED406874E6B757E3DBC5C0B707CBB96F0FAFFCA53DBFEA8F6D77B25CCE6F870BBF7F357738C99282872473FA8E1B68934CE3FD29AE3477AF6328943597939DD6575398FF710C6DE6044389FFD5205AC5AE9682B06B1015479B2114
310
878F22450521547DADEED308A24D3EDAE2DC1BE3B2DB1BB8F2C7F3FCBEEBF727FEB832F6B3815ADEF3C371AE4D8210FACE220F921487346F4FA80D5C3AC6E937E596DEC01B2140A7FA5B5D723ECFA84B021AE13D09765874092D81F19204AD396CCF922CA331C96497F7AAFA6BD0747B504C9939B7C50869164424C7DF637F
310
B26D68D834C46616403F9A8B89C0C5AAA03268D5819CA228BA5F48DC52FE9720C351CACA4EF712065E5F43A07B9C368B134C8B2B9EC0DE029C07EE96C8C1C525EA15FBBA3E68D55A93BAFFDDE44FC0A3EB9A5F088FBEA27BE9D41B79BEF8994050198FBCC19556C425ACF455B9E8E358019D67F8123C13BA7FE8546876D349
310
AD642B8BEA9C44D0C6E2BCE09DFC753C725F5DA4E242C3216A37BDB13894FD9BEEE0003DD9C09D2A6F6BD7401D4A6398737512E49514AD262C7521677A6274F506BF3EABEC3AD51F8E97BFBC62AE3B5F24873F9771806AB90CC02AFA1835756BD56DD443D933CE4308A46BF969CFC123B6647B6CCC0C726D25BAAE4F2F55CF
310
2B11502398D8621167EFC517F61583AAA17BCE9C0F65D1E694EB2B91D87A309C3EF261306DD2FAFC61DDA0022B9D4F7F111891E70605B5BA10DDF01952DF56C79EBF414149F46D75E6F87FA2A3D00AAC8DD1601A9C258CC2509E6CD19E2490BD61ECD0A1DBE011C9645606E355414ABF11E870FAA99CA9E678C3F4E9F001C3
310
609AA95EAC0861280A19F3DA52EBE83718838A49A41C4EF51EA10D5331CC4205A7D716586C4EA1DBEA6D609C258787927A635C098E8DE3BDC8F7E5A9EAFFE331810E44A5A35CD59E2EB828C90C6782C23695EF09A0EA2B1FCCA6DF2FBA6607E11CBE6E8ABC12E6B870944681A05F0894C2C1D4EF51C17B8082E2BC5C5E4FEE
310
3120E934993F6B0725553BC77C2FC7EB35BC6F965F1C31195F7D46292BF6429DE7BA5F83922DBA6E569453A82918861233C5A2865CBC73BEF0045E3145E88E8211A0DF0F93F11FCE2289A2242E979C1BF5A20AAD1FE0B5D3D6D1233F68E35D6FE4C829801AEB071B9C911EDE668FB000AAE554CC464B880D03A8A269CD00B4
310
46842EE098B17FB544AA36AA4D48EA6157C02367FA081C49BCCB116E53DF501B40822F0057F2E1F18B5E983A1C86E0B37F01504B0304140006080800697C6E577301FC37DE000000530100003C0000006662782F42453736454333392D334442392D343739442D423732362D3038444442453443393237422F7265736F7572
310
6365732F322F636E782E786D6C4D90CD6E03210C845F05715F5892466A2396BC444FBD44141C8A0278C54FD5BE7D21A5524FB6663E59339697AF18C827E4E2316D54B095124806AD4F6EA3ADDE96674A2E4A66C4FA0FA324E9081B1D3255D2656CFB942CDC740B430D3EDDA7B85E1D24C8DE5CF7E428314197B2D1623E206A
310
A65B450BE5CEACAE9A0996A160CB06FA89EA23CC132683AE60A93AAC87E322C4229E5EC5E97C3C9DC5CB9BE48354F21D314CDEA70A197762B02FA9E759251FB6922DFBC98C12DDF80BC77A38C9BBAD64A9B97F6062F57BEF988FDA017F20BFAE927C54ECE3D1BFCFF10EF503504B0304140006080800697C6E57FF15A4A45D
310
000000800000003A0000006662782F42453736454333392D334442392D343739442D423732362D3038444442453443393237422F7265736F75726365732F636E782E786D6C4D8B3B0E80201005AF42B6F75B59F0390B113044D83508C6E30BC6C26AF226F3B8BA6360974DA7271430F523308B2B198F9B80925DB700539227
310
A2FCCB80A18E5640D320F996A81C9F32D6E9129A0D1EF74FCE750E6D57BC7165FBCA07504B0304140006080800697C6E57F93649A43E01000046050000300000006662782F42453736454333392D334442392D343739442D423732362D3038444442453443393237422F636E782E786D6CCD94C14E032110865F8570DFA5B4
310
36D186A589079FC083F1C6B2D315BB0B1B188C7D7BA1D2AA31351E9AB43732FC93FCDFCC9F11EBF771206FE08371B6A1BC9E510256BBCED8BEA11137D52D256B29BC73F84D46895523343497A914BD77712AA50E362A0EB93A18BB2D4585E84D1B1102257A50213434E8171855AD22BA0EC2B6EE14AA9AD71E828B5E43EA47
310
3342E9D71E144247E57C365F549C57FCE6912F578BE58ADF3D0B969552B4CE0D456F2C827713D12E3D6C3233132C7F4B11BD299A4C40E597B3BA3556B0F42F45486E6D5F74B89BB26E9A06A315A63131A711B04A2250A3609F622958E6FD41FD70FF7470403AE341A3F3BB0B0D809F1AC0D1589D92F03FFEBDF06F6CD7BE26
310
DC4B6DFB246CB17536D4435A438AEBEFFDA71429DB0FD717FAA3B1F3673E9D1234FAFA900FBECE44CCF6272F2D3D5F40F901504B0304140006080800697C6E57BA6678B77D000000A30000000B0000006662782F636E782E786D6C4D8CD10A832018465F45FE7B5BABC80435307D90581632D3E132F6F8D3D1C5AE3E387CE7
310
B0F1B33B749AF8B6C173B8573520E31F61B17EE3908E150F8046C16208C7DF0D909F77C3A160106C8B21BD2EB498754EAE5067FDF38252935E4F2DC5AD921477842A2C49D3E37A504AEA6EA20D91D9B81525CFAF97B7E4C517504B0304140006080800697C6E57A6D797065F0000008200000007000000636E782E786D6C4D
310
CB3B0E80201045D1AD90E9FD7516806B51190811670C8A61F982B1B0BAC9C97B72CA7B1037C6D3332918DA1E04D2CAC69353902EDB8C20262D23F3F59B81A079470595414B17391D1F19B4730A5583A7ED43BBE4025D9592775E5ADFFA01504B0304140006080800697C6E57ECFD112DA800000026010000130000005B436F
310
6E74656E745F54797065735D2E786D6C7D4F4B0EC22010BD0A61DF525D18634ABB506FE00510A79458060253536F2FD89D5197F3FED3F68B9BD80362B21E25DFD40D6780DADF2C1AC9671AAA3D677DD75E9E0112CB5A4C928F44E12044D22338956A1F003333F8E814E5331A1194BE2B0362DB343BA13D122055543278D79E
310
6050F344ECBC6478EDCD76CE8EABAE5449AE4298AC56946789C28AAFBEABC53F3EAF09A84A1441B91F0101CD4780756578C173A578FFDDBD00504B0304140006080800697C6E573DEE336E64000000790000001B0000006175746F6465736B2D64657369676E2D7061636B6167652E786D6C35CBC10E83200C00D05F21DCA5
310
6CA76D41FC96062B120735B69A7DBE268BB7777961F8D5AF396893C2ADB70FE7ADA196782C2DF776D7A97B5933C430F15651E5469C55D70F80A4992A3ADC954792C525AE70A1E4D6AD9816CC044FEFDF01FE3FDE907802504B0304140006080800697C6E5748D77337F30000008E0100003D0000006662782F424537364543
310
33392D334442392D343739442D423732362D3038444442453443393237422F7265736F75726365732F322F636F72652E786D6C8550CB6EC32010FC156BEFD806C7911B612237AEBFA0A7DE10101725068B47D4CF2FC4AED49E7ADADD6166961D7AFE5AEEC54339AFADE901973514CA082BB5997B88E18A3A28CE8C3A6BC32F
310
1A14862FAA870C03A3B3B371DD21614D5026A3C64AB583DC7B15A010F7D4F4E0C5A75A78C963480C7F2B572E6E7C56252E371EA3316AB94BB54C6EFAAA9503F6D68DC3443041D35477E830BE1ED130350D22633BD497639A714DAB2C6634E8E567BB708A072581919A340863840FEFB83D35ED09BF7CD02A3319F5C1A59BF7
310
A5F9BA44A7D586FE718BABFCDF2D6A131AB2BB6D0A0F0CA7CF3D1F18AD723AA93CA34B3527C9BE01504B0304140006080800697C6E57E8CAD011F8000000960100003B0000006662782F42453736454333392D334442392D343739442D423732362D3038444442453443393237422F7265736F75726365732F636F72652E78
310
6D6C8550CB6E833010FC15B477033621A29171444BF9829E7AB3CC865A0936F2A3EAE7D74EA8D49E7A5A7B76667677F8F96BBD159FE8BCB6A6075AD650A05176D666E921860BE9A0380BEEAC0DBF685018B9620F1906C11767E3B643CA9A8026A3C6CEB883D27B0C50A85B7AF4E0D507AEB294312486BF969B5457B96049CB
310
074FF018F5BC4BF59CDCF445A303F1DA8DC3C42823D35477E4303E1FC930350D61633BD42FC7F4A735AFB258F0A0D79FE9CAA10C388360356B08A5841EDE687B6ADA137D7AE755660AEE834B37EF43F375201C7A1B9D42CFAB47F78F6BDCE6FF5DA336A161BBEB43E141D0B4E4BD217895534AE51E61AA3951F10D504B0304
310
140006080800697C6E57EC59AE50F2000000B1010000310000006662782F42453736454333392D334442392D343739442D423732362D3038444442453443393237422F636F72652E786D6C8D50CB6E833010FC15B47703061242641C89C01FF4D49B653BC44AB0911F553FBF76A0527BCB69ADD919CFEC90CBF7F2CCBEA475
310
CAE81E705E4226353742E9B987E06FE804D985126B8CFF43834CB345F69060A064B626AC3BC48DF65227541B21779039273D64FC191F3D387E970BCB59F091E11EF9CAF883CD32C7F9C6A3C4ABE557CAAD645E0AA05559D50863849B0F7C38D78733EE3E4991989484A0C46EA544745737252DD0616A8FD3B5EE503D0E1D6A
310
DA6E44435B1D51791AC7616AAE5DD50EA448624A9CB7F1E6FD9374DDBBF24DF82F7358C51B9995F675B51B6E0A0714C73CAF0525452A308E57BB71A6B2E90F504B0304140006080800697C6E5778E0508553010000DD0200000C0000006662782F636F72652E786D6C8D52CB6E833010FC15E4BB014312A591719436E50B7A
310
EACD310EB502363236CAE777CD432987A61512D8B33BB33B23E8F1DE36D1206DAF8C2E10895314492D4CA5745D20EFAE788FA223A3D618F7A30D459AB7B24001468CD6D6F86E8684D14EEA806A53C919E47D2F1D8A44038702F5E24BB63CE6DE41477F8B3B2E6EBC963189A73E46BD57D54C5515A8A9AB9216B1F7FDF95466
310
24C36599EEF1E6FCBAC3A732CF7176DE9ED2B71DDC494A934066D4A976992EACE44E5688656996634230D97C90ED21DF1EC8CB274D4227A3BDB3E0791E1ADC2176BDDC6932E12B3DDF557FEB79A55D9ECD7A13A3478CC07A6381D124E4039F31BC75863018F273FCD22C166E000D5238633750A98C7F9406DE7809D269343E
310
3499AAA03C0AFCA6933DD179AE0141715DC36ADCC1F1E25D98BEDEA993160FEE1E69635BDE3C969B567CBC1F83569616BA308DB1FF612F56973093F063B26F504B0304140006080800697C6E57DBE0C21D06010000B201000008000000636F72652E786D6C8D50C16E842010FD1532775474DDD80DB2B1B57E414FBD51605D
310
B20A0670D3FE7D61B5497BEB69E0CD9BF7DE0C3D7FCE13BA2BE7B5352D90AC00A48CB0529BB185355C7003E8CCA8B336FCA201327C562D2418181D9D5D971D12D60465126AAC543BC8BD57019098E2A3052FAE6AE6195F4364F85BB67071E3A3CA48B6F1180D7AFE19154EF1A024B0B2282B4C08268737529FAAFA449EDE69
310
9E988CAEAB96BB9596D15D5FB472C05E9BBE1B4A52E261281A7CE89F8FB81BAA0A977DDD152FC7F82705CDD330A33EB8B8F32E127306E4F93DF9D27C6B31FA61EDB413622889AC99BE804585D4F8137A5DE43F426B13AA7217DC263C3012033D1AD1385D3096C779634DD766DF504B01021400140006080800697C6E570000
310
000000000000000000003700000000000000000000000000000000006662782F42453736454333392D334442392D343739442D423732362D3038444442453443393237422F617474726962757465732E62696E504B01021400140006080800697C6E5700000000000000000000000035000000000000000000000000005500
310
00006662782F42453736454333392D334442392D343739442D423732362D3038444442453443393237422F76657274696365732E62696E504B01021400140006080800697C6E57F270F13306000000040000003600000000000000000000000000A80000006662782F42453736454333392D334442392D343739442D423732
310
362D3038444442453443393237422F747269616E676C65732E62696E504B01021400140006080800697C6E5788E57597CD3F0000904100004200000000000000000000000000020100006662782F42453736454333392D334442392D343739442D423732362D3038444442453443393237422F7265736F75726365732F322F
310
305F67656E657269632E706E67504B01021400140006080800697C6E5751464CB4890000004301000036000000000000000000000000002F4100006662782F42453736454333392D334442392D343739442D423732362D3038444442453443393237422F6469726563746F72792E786D6C504B01021400140006080800697C
310
6E57B326B07340070000201C000034000000000000000000000000000C4200006662782F42453736454333392D334442392D343739442D423732362D3038444442453443393237422F6F626A656374732E786D6C504B01021400140006080800697C6E577301FC37DE000000530100003C000000000000000000000000009E
310
4900006662782F42453736454333392D334442392D343739442D423732362D3038444442453443393237422F7265736F75726365732F322F636E782E786D6C504B01021400140006080800697C6E57FF15A4A45D000000800000003A00000000000000000000000000D64A00006662782F42453736454333392D334442392D
310
343739442D423732362D3038444442453443393237422F7265736F75726365732F636E782E786D6C504B01021400140006080800697C6E57F93649A43E0100004605000030000000000000000000000000008B4B00006662782F42453736454333392D334442392D343739442D423732362D3038444442453443393237422F
310
636E782E786D6C504B01021400140006080800697C6E57BA6678B77D000000A30000000B00000000000000000000000000174D00006662782F636E782E786D6C504B01021400140006080800697C6E57A6D797065F000000820000000700000000000000000000000000BD4D0000636E782E786D6C504B0102140014000608
310
0800697C6E57ECFD112DA8000000260100001300000000000000000000000000414E00005B436F6E74656E745F54797065735D2E786D6C504B01021400140006080800697C6E573DEE336E64000000790000001B000000000000000000000000001A4F00006175746F6465736B2D64657369676E2D7061636B6167652E786D
310
6C504B01021400140006080800697C6E5748D77337F30000008E0100003D00000000000000000000000000B74F00006662782F42453736454333392D334442392D343739442D423732362D3038444442453443393237422F7265736F75726365732F322F636F72652E786D6C504B01021400140006080800697C6E57E8CAD0
310
11F8000000960100003B00000000000000000000000000055100006662782F42453736454333392D334442392D343739442D423732362D3038444442453443393237422F7265736F75726365732F636F72652E786D6C504B01021400140006080800697C6E57EC59AE50F2000000B101000031000000000000000000000000
310
00565200006662782F42453736454333392D334442392D343739442D423732362D3038444442453443393237422F636F72652E786D6C504B01021400140006080800697C6E5778E0508553010000DD0200000C00000000000000000000000000975300006662782F636F72652E786D6C504B01021400140006080800697C6E
310
57DBE0C21D06010000B2010000080000000000000000000000000014550000636F72652E786D6C504B050600000000120012002D060000405600000000
  0
XRECORD
  5
80F7
102
{ACAD_REACTORS
330
80F2
102
}
330
80F2
100
AcDbXrecord
280
     1
270
     1
271
     1
  0
XRECORD
  5
80F6
102
{ACAD_REACTORS
330
80F2
102
}
330
80F2
100
AcDbXrecord
280
     1
270
     1
271
     1
  0
XRECORD
  5
80F8
102
{ACAD_REACTORS
330
80F2
102
}
330
80F2
100
AcDbXrecord
280
     1
270
     1
271
     1
  0
XRECORD
  5
80F5
102
{ACAD_REACTORS
330
80F2
102
}
330
80F2
100
AcDbXrecord
280
     1
270
     1
271
     1
  0
XRECORD
  5
82EB
102
{ACAD_REACTORS
330
82EA
102
}
330
82EA
100
AcDbXrecord
280
     1
102
DISPLAYNAME
  1
Imperial24
102
FLAGS
 90
        0
  0
CELLSTYLEMAP
  5
82B2
102
{ACAD_REACTORS
330
82B1
102
}
330
82B1
100
AcDbCellStyleMap
 90
        3
300
CELLSTYLE
  1
TABLEFORMAT_BEGIN
 90
        5
170
     1
 91
        0
 92
    32768
 62
   257
 93
        1
300
CONTENTFORMAT
  1
CONTENTFORMAT_BEGIN
 90
        0
 91
        0
 92
      512
 93
        0
300

 40
0.0
140
1.0
 94
        5
 62
     0
340
8125
144
0.25
309
CONTENTFORMAT_END
171
     0
 94
        0
309
TABLEFORMAT_END
  1
CELLSTYLE_BEGIN
 90
        1
 91
        1
300
_TITLE
309
CELLSTYLE_END
300
CELLSTYLE
  1
TABLEFORMAT_BEGIN
 90
        5
170
     1
 91
        0
 92
        0
 62
   257
 93
        1
300
CONTENTFORMAT
  1
CONTENTFORMAT_BEGIN
 90
        0
 91
        0
 92
      512
 93
        0
300

 40
0.0
140
1.0
 94
        5
 62
     0
340
8125
144
0.18
309
CONTENTFORMAT_END
171
     0
 94
        0
309
TABLEFORMAT_END
  1
CELLSTYLE_BEGIN
 90
        2
 91
        1
300
_HEADER
309
CELLSTYLE_END
300
CELLSTYLE
  1
TABLEFORMAT_BEGIN
 90
        5
170
     1
 91
        0
 92
        0
 62
   257
 93
        1
300
CONTENTFORMAT
  1
CONTENTFORMAT_BEGIN
 90
        0
 91
        0
 92
      512
 93
        0
300

 40
0.0
140
1.0
 94
        2
 62
     0
340
8125
144
0.18
309
CONTENTFORMAT_END
171
     0
 94
        0
309
TABLEFORMAT_END
  1
CELLSTYLE_BEGIN
 90
        3
 91
        2
300
_DATA
309
CELLSTYLE_END
  0
XRECORD
  5
82E8
102
{ACAD_REACTORS
330
82B1
102
}
330
82B1
100
AcDbXrecord
280
     1
102
ACAD_ROUNDTRIP_PRE2007_TABLESTYLE
 90
      512
 91
        0
  1

 92
      512
 93
        0
  2

 94
      512
 95
        0
  3

  0
XRECORD
  5
82C3
102
{ACAD_REACTORS
330
82C2
102
}
330
82C2
100
AcDbXrecord
280
     1
102
RTVSPost2010Prop28
280
     1
102
RTVSPost2010PropOp28
 70
     1
102
RTVSPost2010Prop29
280
     1
102
RTVSPost2010PropOp29
 70
     1
102
RTVSPost2010Prop30
280
     0
102
RTVSPost2010PropOp30
 70
     1
102
RTVSPost2010Prop31
280
     0
102
RTVSPost2010PropOp31
 70
     1
102
RTVSPost2010Prop32
280
     0
102
RTVSPost2010PropOp32
 70
     1
102
RTVSPost2010Prop33
280
     0
102
RTVSPost2010PropOp33
 70
     1
102
RTVSPost2010Prop34
280
     0
102
RTVSPost2010PropOp34
 70
     1
102
RTVSPost2010Prop35
280
     0
102
RTVSPost2010PropOp35
 70
     1
102
RTVSPost2010Prop36
280
     0
102
RTVSPost2010PropOp36
 70
     1
102
RTVSPost2010Prop37
 90
       50
102
RTVSPost2010PropOp37
 70
     1
102
RTVSPost2010Prop38
140
0.0
102
RTVSPost2010PropOp38
 70
     1
102
RTVSPost2010Prop39
140
1.0
102
RTVSPost2010PropOp39
 70
     1
102
RTVSPost2010Prop40
 90
        0
102
RTVSPost2010PropOp40
 70
     1
102
RTVSPost2010Prop41ColorIndex
 90
       18
102
RTVSPost2010Prop41ColorRGB
 90
        0
102
RTVSPost2010PropOp41
 70
     1
102
RTVSPost2010Prop42
 90
       50
102
RTVSPost2010PropOp42
 70
     1
102
RTVSPost2010Prop43
 90
        3
102
RTVSPost2010PropOp43
 70
     1
102
RTVSPost2010Prop44ColorIndex
 90
        5
102
RTVSPost2010Prop44ColorRGB
 90
      255
102
RTVSPost2010PropOp44
 70
     1
102
RTVSPost2010Prop45
280
     0
102
RTVSPost2010PropOp45
 70
     1
102
RTVSPost2010Prop46
 90
       50
102
RTVSPost2010PropOp46
 70
     1
102
RTVSPost2010Prop47
 90
       50
102
RTVSPost2010PropOp47
 70
     1
102
RTVSPost2010Prop48
 90
       50
102
RTVSPost2010PropOp48
 70
     1
102
RTVSPost2010Prop49
280
     0
102
RTVSPost2010PropOp49
 70
     1
102
RTVSPost2010Prop50
 90
       50
102
RTVSPost2010PropOp50
 70
     1
102
RTVSPost2010Prop51ColorIndex
 90
      256
102
RTVSPost2010Prop51ColorRGB
 90
-16777216
102
RTVSPost2010PropOp51
 70
     0
102
RTVSPost2010Prop52
140
1.0
102
RTVSPost2010PropOp52
 70
     0
102
RTVSPost2010Prop53
 90
        2
102
RTVSPost2010PropOp53
 70
     1
102
RTVSPost2010Prop54
  1
strokes_ogs.tif
102
RTVSPost2010PropOp54
 70
     1
102
RTVSPost2010Prop55
280
     0
102
RTVSPost2010PropOp55
 70
     1
102
RTVSPost2010Prop56
140
1.0
102
RTVSPost2010PropOp56
 70
     1
102
RTVSPost2010Prop57
140
1.0
102
RTVSPost2010PropOp57
 70
     1
102
RTVSPropertyOp0
 70
     1
102
RTVSPropertyOp1
 70
     1
102
RTVSPropertyOp2
 70
     1
102
RTVSPropertyOp3
 70
     1
102
RTVSPropertyOp4
 70
     1
102
RTVSPropertyOp5
 70
     1
102
RTVSPropertyOp6
 70
     1
102
RTVSPropertyOp7
 70
     1
102
RTVSPropertyOp8
 70
     1
102
RTVSPropertyOp9
 70
     1
102
RTVSPropertyOp10
 70
     1
102
RTVSPropertyOp11
 70
     1
102
RTVSPropertyOp12
 70
     1
102
RTVSPropertyOp13
 70
     1
102
RTVSPropertyOp14
 70
     1
102
RTVSPropertyOp15
 70
     1
102
RTVSPropertyOp16
 70
     1
102
RTVSPropertyOp17
 70
     1
102
RTVSPropertyOp18
 70
     1
102
RTVSPropertyOp19
 70
     1
102
RTVSPropertyOp20
 70
     1
102
RTVSPropertyOp21
 70
     1
102
RTVSPropertyOp22
 70
     1
102
RTVSPropertyOp23
 70
     1
102
RTVSPropertyOp24
 70
     1
102
RTVSPropertyOp25
 70
     1
102
RTVSPropertyOp26
 70
     1
102
RTVSPropertyOp27
 70
     1
102
RTVSPropertyOp28
 70
     1
102
RTVSPropertyOp29
 70
     1
102
RTVSPropertyOp30
 70
     1
102
RTVSPropertyOp31
 70
     1
102
RTVSPropertyOp32
 70
     1
102
RTVSPropertyOp33
 70
     1
102
RTVSPropertyOp34
 70
     1
102
RTVSPropertyOp35
 70
     1
102
RTVSPropertyOp36
 70
     1
102
RTVSPropertyOp37
 70
     1
102
RTVSPropertyOp38
 70
     1
102
RTVSPropertyOp39
 70
     1
102
RTVSPropertyOp40
 70
     1
102
RTVSPropertyOp41
 70
     1
102
RTVSPropertyOp42
 70
     1
102
RTVSPropertyOp43
 70
     1
102
RTVSPropertyOp44
 70
     1
102
RTVSPropertyOp45
 70
     1
102
RTVSPropertyOp46
 70
     1
102
RTVSPropertyOp47
 70
     1
102
RTVSPropertyOp48
 70
     1
102
RTVSPropertyOp49
 70
     1
102
RTVSPropertyOp50
 70
     1
102
RTVSPropertyOp51
 70
     0
102
RTVSPropertyOp52
 70
     0
102
RTVSPropertyOp53
 70
     1
102
RTVSPropertyOp54
 70
     1
102
RTVSPropertyOp55
 70
     1
102
RTVSPropertyOp56
 70
     1
102
RTVSPropertyOp57
 70
     1
102
RTVSPropertyOp58
 70
     1
102
RTVSPropertyOp59
 70
     1
102
RTVSPropertyOp60
 70
     1
102
RTVSPropertyOp61
 70
     1
102
RTVSPropertyOp62
 70
     1
  0
XRECORD
  5
82C1
102
{ACAD_REACTORS
330
82C0
102
}
330
82C0
100
AcDbXrecord
280
     1
102
RTVSPost2010Prop28
280
     0
102
RTVSPost2010PropOp28
 70
     1
102
RTVSPost2010Prop29
280
     1
102
RTVSPost2010PropOp29
 70
     1
102
RTVSPost2010Prop30
280
     1
102
RTVSPost2010PropOp30
 70
     1
102
RTVSPost2010Prop31
280
     0
102
RTVSPost2010PropOp31
 70
     1
102
RTVSPost2010Prop32
280
     0
102
RTVSPost2010PropOp32
 70
     1
102
RTVSPost2010Prop33
280
     0
102
RTVSPost2010PropOp33
 70
     1
102
RTVSPost2010Prop34
280
     0
102
RTVSPost2010PropOp34
 70
     1
102
RTVSPost2010Prop35
280
     0
102
RTVSPost2010PropOp35
 70
     1
102
RTVSPost2010Prop36
280
     0
102
RTVSPost2010PropOp36
 70
     1
102
RTVSPost2010Prop37
 90
       50
102
RTVSPost2010PropOp37
 70
     1
102
RTVSPost2010Prop38
140
0.0
102
RTVSPost2010PropOp38
 70
     1
102
RTVSPost2010Prop39
140
1.0
102
RTVSPost2010PropOp39
 70
     1
102
RTVSPost2010Prop40
 90
        0
102
RTVSPost2010PropOp40
 70
     1
102
RTVSPost2010Prop41ColorIndex
 90
       18
102
RTVSPost2010Prop41ColorRGB
 90
        0
102
RTVSPost2010PropOp41
 70
     1
102
RTVSPost2010Prop42
 90
       50
102
RTVSPost2010PropOp42
 70
     1
102
RTVSPost2010Prop43
 90
        3
102
RTVSPost2010PropOp43
 70
     1
102
RTVSPost2010Prop44ColorIndex
 90
        5
102
RTVSPost2010Prop44ColorRGB
 90
      255
102
RTVSPost2010PropOp44
 70
     1
102
RTVSPost2010Prop45
280
     0
102
RTVSPost2010PropOp45
 70
     1
102
RTVSPost2010Prop46
 90
       50
102
RTVSPost2010PropOp46
 70
     1
102
RTVSPost2010Prop47
 90
       50
102
RTVSPost2010PropOp47
 70
     1
102
RTVSPost2010Prop48
 90
       50
102
RTVSPost2010PropOp48
 70
     1
102
RTVSPost2010Prop49
280
     0
102
RTVSPost2010PropOp49
 70
     1
102
RTVSPost2010Prop50
 90
       50
102
RTVSPost2010PropOp50
 70
     1
102
RTVSPost2010Prop51ColorIndex
 90
      256
102
RTVSPost2010Prop51ColorRGB
 90
-16777216
102
RTVSPost2010PropOp51
 70
     0
102
RTVSPost2010Prop52
140
1.0
102
RTVSPost2010PropOp52
 70
     0
102
RTVSPost2010Prop53
 90
        2
102
RTVSPost2010PropOp53
 70
     1
102
RTVSPost2010Prop54
  1
strokes_ogs.tif
102
RTVSPost2010PropOp54
 70
     1
102
RTVSPost2010Prop55
280
     0
102
RTVSPost2010PropOp55
 70
     1
102
RTVSPost2010Prop56
140
1.0
102
RTVSPost2010PropOp56
 70
     1
102
RTVSPost2010Prop57
140
1.0
102
RTVSPost2010PropOp57
 70
     1
102
RTVSPropertyOp0
 70
     1
102
RTVSPropertyOp1
 70
     1
102
RTVSPropertyOp2
 70
     1
102
RTVSPropertyOp3
 70
     1
102
RTVSPropertyOp4
 70
     1
102
RTVSPropertyOp5
 70
     1
102
RTVSPropertyOp6
 70
     1
102
RTVSPropertyOp7
 70
     1
102
RTVSPropertyOp8
 70
     1
102
RTVSPropertyOp9
 70
     1
102
RTVSPropertyOp10
 70
     1
102
RTVSPropertyOp11
 70
     1
102
RTVSPropertyOp12
 70
     1
102
RTVSPropertyOp13
 70
     1
102
RTVSPropertyOp14
 70
     1
102
RTVSPropertyOp15
 70
     1
102
RTVSPropertyOp16
 70
     1
102
RTVSPropertyOp17
 70
     1
102
RTVSPropertyOp18
 70
     1
102
RTVSPropertyOp19
 70
     1
102
RTVSPropertyOp20
 70
     1
102
RTVSPropertyOp21
 70
     1
102
RTVSPropertyOp22
 70
     1
102
RTVSPropertyOp23
 70
     1
102
RTVSPropertyOp24
 70
     1
102
RTVSPropertyOp25
 70
     1
102
RTVSPropertyOp26
 70
     1
102
RTVSPropertyOp27
 70
     1
102
RTVSPropertyOp28
 70
     1
102
RTVSPropertyOp29
 70
     1
102
RTVSPropertyOp30
 70
     1
102
RTVSPropertyOp31
 70
     1
102
RTVSPropertyOp32
 70
     1
102
RTVSPropertyOp33
 70
     1
102
RTVSPropertyOp34
 70
     1
102
RTVSPropertyOp35
 70
     1
102
RTVSPropertyOp36
 70
     1
102
RTVSPropertyOp37
 70
     1
102
RTVSPropertyOp38
 70
     1
102
RTVSPropertyOp39
 70
     1
102
RTVSPropertyOp40
 70
     1
102
RTVSPropertyOp41
 70
     1
102
RTVSPropertyOp42
 70
     1
102
RTVSPropertyOp43
 70
     1
102
RTVSPropertyOp44
 70
     1
102
RTVSPropertyOp45
 70
     1
102
RTVSPropertyOp46
 70
     1
102
RTVSPropertyOp47
 70
     1
102
RTVSPropertyOp48
 70
     1
102
RTVSPropertyOp49
 70
     1
102
RTVSPropertyOp50
 70
     1
102
RTVSPropertyOp51
 70
     0
102
RTVSPropertyOp52
 70
     0
102
RTVSPropertyOp53
 70
     1
102
RTVSPropertyOp54
 70
     1
102
RTVSPropertyOp55
 70
     1
102
RTVSPropertyOp56
 70
     1
102
RTVSPropertyOp57
 70
     1
102
RTVSPropertyOp58
 70
     1
102
RTVSPropertyOp59
 70
     1
102
RTVSPropertyOp60
 70
     1
102
RTVSPropertyOp61
 70
     1
102
RTVSPropertyOp62
 70
     1
  0
XRECORD
  5
82CF
102
{ACAD_REACTORS
330
82CE
102
}
330
82CE
100
AcDbXrecord
280
     1
102
RTVSPost2010Prop28
280
     0
102
RTVSPost2010PropOp28
 70
     1
102
RTVSPost2010Prop29
280
     1
102
RTVSPost2010PropOp29
 70
     1
102
RTVSPost2010Prop30
280
     1
102
RTVSPost2010PropOp30
 70
     1
102
RTVSPost2010Prop31
280
     0
102
RTVSPost2010PropOp31
 70
     1
102
RTVSPost2010Prop32
280
     0
102
RTVSPost2010PropOp32
 70
     1
102
RTVSPost2010Prop33
280
     0
102
RTVSPost2010PropOp33
 70
     1
102
RTVSPost2010Prop34
280
     0
102
RTVSPost2010PropOp34
 70
     1
102
RTVSPost2010Prop35
280
     0
102
RTVSPost2010PropOp35
 70
     1
102
RTVSPost2010Prop36
280
     0
102
RTVSPost2010PropOp36
 70
     1
102
RTVSPost2010Prop37
 90
       50
102
RTVSPost2010PropOp37
 70
     1
102
RTVSPost2010Prop38
140
0.0
102
RTVSPost2010PropOp38
 70
     1
102
RTVSPost2010Prop39
140
1.0
102
RTVSPost2010PropOp39
 70
     1
102
RTVSPost2010Prop40
 90
        0
102
RTVSPost2010PropOp40
 70
     1
102
RTVSPost2010Prop41ColorIndex
 90
       18
102
RTVSPost2010Prop41ColorRGB
 90
        0
102
RTVSPost2010PropOp41
 70
     1
102
RTVSPost2010Prop42
 90
       50
102
RTVSPost2010PropOp42
 70
     1
102
RTVSPost2010Prop43
 90
        3
102
RTVSPost2010PropOp43
 70
     1
102
RTVSPost2010Prop44ColorIndex
 90
        5
102
RTVSPost2010Prop44ColorRGB
 90
      255
102
RTVSPost2010PropOp44
 70
     1
102
RTVSPost2010Prop45
280
     0
102
RTVSPost2010PropOp45
 70
     1
102
RTVSPost2010Prop46
 90
       50
102
RTVSPost2010PropOp46
 70
     1
102
RTVSPost2010Prop47
 90
       50
102
RTVSPost2010PropOp47
 70
     1
102
RTVSPost2010Prop48
 90
       50
102
RTVSPost2010PropOp48
 70
     1
102
RTVSPost2010Prop49
280
     0
102
RTVSPost2010PropOp49
 70
     1
102
RTVSPost2010Prop50
 90
       50
102
RTVSPost2010PropOp50
 70
     1
102
RTVSPost2010Prop51ColorIndex
 90
      256
102
RTVSPost2010Prop51ColorRGB
 90
-16777216
102
RTVSPost2010PropOp51
 70
     0
102
RTVSPost2010Prop52
140
1.0
102
RTVSPost2010PropOp52
 70
     0
102
RTVSPost2010Prop53
 90
        2
102
RTVSPost2010PropOp53
 70
     1
102
RTVSPost2010Prop54
  1
strokes_ogs.tif
102
RTVSPost2010PropOp54
 70
     1
102
RTVSPost2010Prop55
280
     0
102
RTVSPost2010PropOp55
 70
     1
102
RTVSPost2010Prop56
140
1.0
102
RTVSPost2010PropOp56
 70
     1
102
RTVSPost2010Prop57
140
1.0
102
RTVSPost2010PropOp57
 70
     1
102
RTVSPropertyOp0
 70
     1
102
RTVSPropertyOp1
 70
     1
102
RTVSPropertyOp2
 70
     1
102
RTVSPropertyOp3
 70
     1
102
RTVSPropertyOp4
 70
     1
102
RTVSPropertyOp5
 70
     1
102
RTVSPropertyOp6
 70
     1
102
RTVSPropertyOp7
 70
     1
102
RTVSPropertyOp8
 70
     1
102
RTVSPropertyOp9
 70
     1
102
RTVSPropertyOp10
 70
     1
102
RTVSPropertyOp11
 70
     1
102
RTVSPropertyOp12
 70
     1
102
RTVSPropertyOp13
 70
     1
102
RTVSPropertyOp14
 70
     1
102
RTVSPropertyOp15
 70
     1
102
RTVSPropertyOp16
 70
     1
102
RTVSPropertyOp17
 70
     1
102
RTVSPropertyOp18
 70
     1
102
RTVSPropertyOp19
 70
     1
102
RTVSPropertyOp20
 70
     1
102
RTVSPropertyOp21
 70
     1
102
RTVSPropertyOp22
 70
     1
102
RTVSPropertyOp23
 70
     1
102
RTVSPropertyOp24
 70
     1
102
RTVSPropertyOp25
 70
     1
102
RTVSPropertyOp26
 70
     1
102
RTVSPropertyOp27
 70
     1
102
RTVSPropertyOp28
 70
     1
102
RTVSPropertyOp29
 70
     1
102
RTVSPropertyOp30
 70
     1
102
RTVSPropertyOp31
 70
     1
102
RTVSPropertyOp32
 70
     1
102
RTVSPropertyOp33
 70
     1
102
RTVSPropertyOp34
 70
     1
102
RTVSPropertyOp35
 70
     1
102
RTVSPropertyOp36
 70
     1
102
RTVSPropertyOp37
 70
     1
102
RTVSPropertyOp38
 70
     1
102
RTVSPropertyOp39
 70
     1
102
RTVSPropertyOp40
 70
     1
102
RTVSPropertyOp41
 70
     1
102
RTVSPropertyOp42
 70
     1
102
RTVSPropertyOp43
 70
     1
102
RTVSPropertyOp44
 70
     1
102
RTVSPropertyOp45
 70
     1
102
RTVSPropertyOp46
 70
     1
102
RTVSPropertyOp47
 70
     1
102
RTVSPropertyOp48
 70
     1
102
RTVSPropertyOp49
 70
     1
102
RTVSPropertyOp50
 70
     1
102
RTVSPropertyOp51
 70
     0
102
RTVSPropertyOp52
 70
     0
102
RTVSPropertyOp53
 70
     1
102
RTVSPropertyOp54
 70
     1
102
RTVSPropertyOp55
 70
     1
102
RTVSPropertyOp56
 70
     1
102
RTVSPropertyOp57
 70
     1
102
RTVSPropertyOp58
 70
     1
102
RTVSPropertyOp59
 70
     1
102
RTVSPropertyOp60
 70
     1
102
RTVSPropertyOp61
 70
     1
102
RTVSPropertyOp62
 70
     1
  0
XRECORD
  5
82D7
102
{ACAD_REACTORS
330
82D6
102
}
330
82D6
100
AcDbXrecord
280
     1
102
RTVSPost2010Prop28
280
     0
102
RTVSPost2010PropOp28
 70
     1
102
RTVSPost2010Prop29
280
     1
102
RTVSPost2010PropOp29
 70
     1
102
RTVSPost2010Prop30
280
     1
102
RTVSPost2010PropOp30
 70
     1
102
RTVSPost2010Prop31
280
     0
102
RTVSPost2010PropOp31
 70
     1
102
RTVSPost2010Prop32
280
     0
102
RTVSPost2010PropOp32
 70
     1
102
RTVSPost2010Prop33
280
     0
102
RTVSPost2010PropOp33
 70
     1
102
RTVSPost2010Prop34
280
     0
102
RTVSPost2010PropOp34
 70
     1
102
RTVSPost2010Prop35
280
     0
102
RTVSPost2010PropOp35
 70
     1
102
RTVSPost2010Prop36
280
     0
102
RTVSPost2010PropOp36
 70
     1
102
RTVSPost2010Prop37
 90
       50
102
RTVSPost2010PropOp37
 70
     1
102
RTVSPost2010Prop38
140
0.0
102
RTVSPost2010PropOp38
 70
     1
102
RTVSPost2010Prop39
140
1.0
102
RTVSPost2010PropOp39
 70
     1
102
RTVSPost2010Prop40
 90
        0
102
RTVSPost2010PropOp40
 70
     1
102
RTVSPost2010Prop41ColorIndex
 90
       18
102
RTVSPost2010Prop41ColorRGB
 90
        0
102
RTVSPost2010PropOp41
 70
     1
102
RTVSPost2010Prop42
 90
       50
102
RTVSPost2010PropOp42
 70
     1
102
RTVSPost2010Prop43
 90
        3
102
RTVSPost2010PropOp43
 70
     1
102
RTVSPost2010Prop44ColorIndex
 90
        5
102
RTVSPost2010Prop44ColorRGB
 90
      255
102
RTVSPost2010PropOp44
 70
     1
102
RTVSPost2010Prop45
280
     0
102
RTVSPost2010PropOp45
 70
     1
102
RTVSPost2010Prop46
 90
       50
102
RTVSPost2010PropOp46
 70
     1
102
RTVSPost2010Prop47
 90
       50
102
RTVSPost2010PropOp47
 70
     1
102
RTVSPost2010Prop48
 90
       50
102
RTVSPost2010PropOp48
 70
     1
102
RTVSPost2010Prop49
280
     0
102
RTVSPost2010PropOp49
 70
     1
102
RTVSPost2010Prop50
 90
       50
102
RTVSPost2010PropOp50
 70
     1
102
RTVSPost2010Prop51ColorIndex
 90
      256
102
RTVSPost2010Prop51ColorRGB
 90
-16777216
102
RTVSPost2010PropOp51
 70
     0
102
RTVSPost2010Prop52
140
1.0
102
RTVSPost2010PropOp52
 70
     0
102
RTVSPost2010Prop53
 90
        2
102
RTVSPost2010PropOp53
 70
     1
102
RTVSPost2010Prop54
  1
strokes_ogs.tif
102
RTVSPost2010PropOp54
 70
     1
102
RTVSPost2010Prop55
280
     0
102
RTVSPost2010PropOp55
 70
     1
102
RTVSPost2010Prop56
140
1.0
102
RTVSPost2010PropOp56
 70
     1
102
RTVSPost2010Prop57
140
1.0
102
RTVSPost2010PropOp57
 70
     1
102
RTVSPropertyOp0
 70
     1
102
RTVSPropertyOp1
 70
     1
102
RTVSPropertyOp2
 70
     1
102
RTVSPropertyOp3
 70
     1
102
RTVSPropertyOp4
 70
     1
102
RTVSPropertyOp5
 70
     1
102
RTVSPropertyOp6
 70
     1
102
RTVSPropertyOp7
 70
     1
102
RTVSPropertyOp8
 70
     1
102
RTVSPropertyOp9
 70
     1
102
RTVSPropertyOp10
 70
     1
102
RTVSPropertyOp11
 70
     1
102
RTVSPropertyOp12
 70
     1
102
RTVSPropertyOp13
 70
     1
102
RTVSPropertyOp14
 70
     1
102
RTVSPropertyOp15
 70
     1
102
RTVSPropertyOp16
 70
     1
102
RTVSPropertyOp17
 70
     1
102
RTVSPropertyOp18
 70
     1
102
RTVSPropertyOp19
 70
     1
102
RTVSPropertyOp20
 70
     1
102
RTVSPropertyOp21
 70
     1
102
RTVSPropertyOp22
 70
     1
102
RTVSPropertyOp23
 70
     1
102
RTVSPropertyOp24
 70
     1
102
RTVSPropertyOp25
 70
     1
102
RTVSPropertyOp26
 70
     1
102
RTVSPropertyOp27
 70
     1
102
RTVSPropertyOp28
 70
     1
102
RTVSPropertyOp29
 70
     1
102
RTVSPropertyOp30
 70
     1
102
RTVSPropertyOp31
 70
     1
102
RTVSPropertyOp32
 70
     1
102
RTVSPropertyOp33
 70
     1
102
RTVSPropertyOp34
 70
     1
102
RTVSPropertyOp35
 70
     1
102
RTVSPropertyOp36
 70
     1
102
RTVSPropertyOp37
 70
     1
102
RTVSPropertyOp38
 70
     1
102
RTVSPropertyOp39
 70
     1
102
RTVSPropertyOp40
 70
     1
102
RTVSPropertyOp41
 70
     1
102
RTVSPropertyOp42
 70
     1
102
RTVSPropertyOp43
 70
     1
102
RTVSPropertyOp44
 70
     1
102
RTVSPropertyOp45
 70
     1
102
RTVSPropertyOp46
 70
     1
102
RTVSPropertyOp47
 70
     1
102
RTVSPropertyOp48
 70
     1
102
RTVSPropertyOp49
 70
     1
102
RTVSPropertyOp50
 70
     1
102
RTVSPropertyOp51
 70
     0
102
RTVSPropertyOp52
 70
     0
102
RTVSPropertyOp53
 70
     1
102
RTVSPropertyOp54
 70
     1
102
RTVSPropertyOp55
 70
     1
102
RTVSPropertyOp56
 70
     1
102
RTVSPropertyOp57
 70
     1
102
RTVSPropertyOp58
 70
     1
102
RTVSPropertyOp59
 70
     1
102
RTVSPropertyOp60
 70
     1
102
RTVSPropertyOp61
 70
     1
102
RTVSPropertyOp62
 70
     1
  0
XRECORD
  5
82C9
102
{ACAD_REACTORS
330
82C8
102
}
330
82C8
100
AcDbXrecord
280
     1
102
RTVSPost2010Prop28
280
     0
102
RTVSPost2010PropOp28
 70
     1
102
RTVSPost2010Prop29
280
     1
102
RTVSPost2010PropOp29
 70
     1
102
RTVSPost2010Prop30
280
     1
102
RTVSPost2010PropOp30
 70
     1
102
RTVSPost2010Prop31
280
     0
102
RTVSPost2010PropOp31
 70
     1
102
RTVSPost2010Prop32
280
     0
102
RTVSPost2010PropOp32
 70
     1
102
RTVSPost2010Prop33
280
     0
102
RTVSPost2010PropOp33
 70
     1
102
RTVSPost2010Prop34
280
     0
102
RTVSPost2010PropOp34
 70
     1
102
RTVSPost2010Prop35
280
     0
102
RTVSPost2010PropOp35
 70
     1
102
RTVSPost2010Prop36
280
     0
102
RTVSPost2010PropOp36
 70
     1
102
RTVSPost2010Prop37
 90
       50
102
RTVSPost2010PropOp37
 70
     1
102
RTVSPost2010Prop38
140
0.0
102
RTVSPost2010PropOp38
 70
     1
102
RTVSPost2010Prop39
140
1.0
102
RTVSPost2010PropOp39
 70
     1
102
RTVSPost2010Prop40
 90
        0
102
RTVSPost2010PropOp40
 70
     1
102
RTVSPost2010Prop41ColorIndex
 90
       18
102
RTVSPost2010Prop41ColorRGB
 90
        0
102
RTVSPost2010PropOp41
 70
     1
102
RTVSPost2010Prop42
 90
       50
102
RTVSPost2010PropOp42
 70
     1
102
RTVSPost2010Prop43
 90
        3
102
RTVSPost2010PropOp43
 70
     1
102
RTVSPost2010Prop44ColorIndex
 90
        5
102
RTVSPost2010Prop44ColorRGB
 90
      255
102
RTVSPost2010PropOp44
 70
     1
102
RTVSPost2010Prop45
280
     0
102
RTVSPost2010PropOp45
 70
     1
102
RTVSPost2010Prop46
 90
       50
102
RTVSPost2010PropOp46
 70
     1
102
RTVSPost2010Prop47
 90
       50
102
RTVSPost2010PropOp47
 70
     1
102
RTVSPost2010Prop48
 90
       50
102
RTVSPost2010PropOp48
 70
     1
102
RTVSPost2010Prop49
280
     0
102
RTVSPost2010PropOp49
 70
     1
102
RTVSPost2010Prop50
 90
       50
102
RTVSPost2010PropOp50
 70
     1
102
RTVSPost2010Prop51ColorIndex
 90
      256
102
RTVSPost2010Prop51ColorRGB
 90
-16777216
102
RTVSPost2010PropOp51
 70
     0
102
RTVSPost2010Prop52
140
1.0
102
RTVSPost2010PropOp52
 70
     0
102
RTVSPost2010Prop53
 90
        2
102
RTVSPost2010PropOp53
 70
     1
102
RTVSPost2010Prop54
  1
strokes_ogs.tif
102
RTVSPost2010PropOp54
 70
     1
102
RTVSPost2010Prop55
280
     0
102
RTVSPost2010PropOp55
 70
     1
102
RTVSPost2010Prop56
140
1.0
102
RTVSPost2010PropOp56
 70
     1
102
RTVSPost2010Prop57
140
1.0
102
RTVSPost2010PropOp57
 70
     1
102
RTVSPropertyOp0
 70
     1
102
RTVSPropertyOp1
 70
     1
102
RTVSPropertyOp2
 70
     1
102
RTVSPropertyOp3
 70
     1
102
RTVSPropertyOp4
 70
     1
102
RTVSPropertyOp5
 70
     1
102
RTVSPropertyOp6
 70
     1
102
RTVSPropertyOp7
 70
     1
102
RTVSPropertyOp8
 70
     1
102
RTVSPropertyOp9
 70
     1
102
RTVSPropertyOp10
 70
     1
102
RTVSPropertyOp11
 70
     1
102
RTVSPropertyOp12
 70
     1
102
RTVSPropertyOp13
 70
     1
102
RTVSPropertyOp14
 70
     1
102
RTVSPropertyOp15
 70
     1
102
RTVSPropertyOp16
 70
     1
102
RTVSPropertyOp17
 70
     1
102
RTVSPropertyOp18
 70
     1
102
RTVSPropertyOp19
 70
     1
102
RTVSPropertyOp20
 70
     1
102
RTVSPropertyOp21
 70
     1
102
RTVSPropertyOp22
 70
     1
102
RTVSPropertyOp23
 70
     1
102
RTVSPropertyOp24
 70
     1
102
RTVSPropertyOp25
 70
     1
102
RTVSPropertyOp26
 70
     1
102
RTVSPropertyOp27
 70
     1
102
RTVSPropertyOp28
 70
     1
102
RTVSPropertyOp29
 70
     1
102
RTVSPropertyOp30
 70
     1
102
RTVSPropertyOp31
 70
     1
102
RTVSPropertyOp32
 70
     1
102
RTVSPropertyOp33
 70
     1
102
RTVSPropertyOp34
 70
     1
102
RTVSPropertyOp35
 70
     1
102
RTVSPropertyOp36
 70
     1
102
RTVSPropertyOp37
 70
     1
102
RTVSPropertyOp38
 70
     1
102
RTVSPropertyOp39
 70
     1
102
RTVSPropertyOp40
 70
     1
102
RTVSPropertyOp41
 70
     1
102
RTVSPropertyOp42
 70
     1
102
RTVSPropertyOp43
 70
     1
102
RTVSPropertyOp44
 70
     1
102
RTVSPropertyOp45
 70
     1
102
RTVSPropertyOp46
 70
     1
102
RTVSPropertyOp47
 70
     1
102
RTVSPropertyOp48
 70
     1
102
RTVSPropertyOp49
 70
     1
102
RTVSPropertyOp50
 70
     1
102
RTVSPropertyOp51
 70
     0
102
RTVSPropertyOp52
 70
     0
102
RTVSPropertyOp53
 70
     1
102
RTVSPropertyOp54
 70
     1
102
RTVSPropertyOp55
 70
     1
102
RTVSPropertyOp56
 70
     1
102
RTVSPropertyOp57
 70
     1
102
RTVSPropertyOp58
 70
     1
102
RTVSPropertyOp59
 70
     1
102
RTVSPropertyOp60
 70
     1
102
RTVSPropertyOp61
 70
     1
102
RTVSPropertyOp62
 70
     1
  0
XRECORD
  5
82CD
102
{ACAD_REACTORS
330
82CC
102
}
330
82CC
100
AcDbXrecord
280
     1
102
RTVSPost2010Prop28
280
     0
102
RTVSPost2010PropOp28
 70
     1
102
RTVSPost2010Prop29
280
     1
102
RTVSPost2010PropOp29
 70
     1
102
RTVSPost2010Prop30
280
     1
102
RTVSPost2010PropOp30
 70
     1
102
RTVSPost2010Prop31
280
     0
102
RTVSPost2010PropOp31
 70
     1
102
RTVSPost2010Prop32
280
     0
102
RTVSPost2010PropOp32
 70
     1
102
RTVSPost2010Prop33
280
     0
102
RTVSPost2010PropOp33
 70
     1
102
RTVSPost2010Prop34
280
     0
102
RTVSPost2010PropOp34
 70
     1
102
RTVSPost2010Prop35
280
     0
102
RTVSPost2010PropOp35
 70
     1
102
RTVSPost2010Prop36
280
     0
102
RTVSPost2010PropOp36
 70
     1
102
RTVSPost2010Prop37
 90
       50
102
RTVSPost2010PropOp37
 70
     1
102
RTVSPost2010Prop38
140
0.0
102
RTVSPost2010PropOp38
 70
     1
102
RTVSPost2010Prop39
140
1.0
102
RTVSPost2010PropOp39
 70
     1
102
RTVSPost2010Prop40
 90
        0
102
RTVSPost2010PropOp40
 70
     1
102
RTVSPost2010Prop41ColorIndex
 90
       18
102
RTVSPost2010Prop41ColorRGB
 90
        0
102
RTVSPost2010PropOp41
 70
     1
102
RTVSPost2010Prop42
 90
       50
102
RTVSPost2010PropOp42
 70
     1
102
RTVSPost2010Prop43
 90
        3
102
RTVSPost2010PropOp43
 70
     1
102
RTVSPost2010Prop44ColorIndex
 90
        5
102
RTVSPost2010Prop44ColorRGB
 90
      255
102
RTVSPost2010PropOp44
 70
     1
102
RTVSPost2010Prop45
280
     0
102
RTVSPost2010PropOp45
 70
     1
102
RTVSPost2010Prop46
 90
       50
102
RTVSPost2010PropOp46
 70
     1
102
RTVSPost2010Prop47
 90
       50
102
RTVSPost2010PropOp47
 70
     1
102
RTVSPost2010Prop48
 90
       50
102
RTVSPost2010PropOp48
 70
     1
102
RTVSPost2010Prop49
280
     0
102
RTVSPost2010PropOp49
 70
     1
102
RTVSPost2010Prop50
 90
       50
102
RTVSPost2010PropOp50
 70
     1
102
RTVSPost2010Prop51ColorIndex
 90
      256
102
RTVSPost2010Prop51ColorRGB
 90
-16777216
102
RTVSPost2010PropOp51
 70
     0
102
RTVSPost2010Prop52
140
1.0
102
RTVSPost2010PropOp52
 70
     0
102
RTVSPost2010Prop53
 90
        2
102
RTVSPost2010PropOp53
 70
     1
102
RTVSPost2010Prop54
  1
strokes_ogs.tif
102
RTVSPost2010PropOp54
 70
     1
102
RTVSPost2010Prop55
280
     0
102
RTVSPost2010PropOp55
 70
     1
102
RTVSPost2010Prop56
140
1.0
102
RTVSPost2010PropOp56
 70
     1
102
RTVSPost2010Prop57
140
1.0
102
RTVSPost2010PropOp57
 70
     1
102
RTVSPropertyOp0
 70
     1
102
RTVSPropertyOp1
 70
     1
102
RTVSPropertyOp2
 70
     1
102
RTVSPropertyOp3
 70
     1
102
RTVSPropertyOp4
 70
     1
102
RTVSPropertyOp5
 70
     1
102
RTVSPropertyOp6
 70
     1
102
RTVSPropertyOp7
 70
     1
102
RTVSPropertyOp8
 70
     1
102
RTVSPropertyOp9
 70
     1
102
RTVSPropertyOp10
 70
     1
102
RTVSPropertyOp11
 70
     1
102
RTVSPropertyOp12
 70
     1
102
RTVSPropertyOp13
 70
     1
102
RTVSPropertyOp14
 70
     1
102
RTVSPropertyOp15
 70
     1
102
RTVSPropertyOp16
 70
     1
102
RTVSPropertyOp17
 70
     1
102
RTVSPropertyOp18
 70
     1
102
RTVSPropertyOp19
 70
     1
102
RTVSPropertyOp20
 70
     1
102
RTVSPropertyOp21
 70
     1
102
RTVSPropertyOp22
 70
     1
102
RTVSPropertyOp23
 70
     1
102
RTVSPropertyOp24
 70
     1
102
RTVSPropertyOp25
 70
     1
102
RTVSPropertyOp26
 70
     1
102
RTVSPropertyOp27
 70
     1
102
RTVSPropertyOp28
 70
     1
102
RTVSPropertyOp29
 70
     1
102
RTVSPropertyOp30
 70
     1
102
RTVSPropertyOp31
 70
     1
102
RTVSPropertyOp32
 70
     1
102
RTVSPropertyOp33
 70
     1
102
RTVSPropertyOp34
 70
     1
102
RTVSPropertyOp35
 70
     1
102
RTVSPropertyOp36
 70
     1
102
RTVSPropertyOp37
 70
     1
102
RTVSPropertyOp38
 70
     1
102
RTVSPropertyOp39
 70
     1
102
RTVSPropertyOp40
 70
     1
102
RTVSPropertyOp41
 70
     1
102
RTVSPropertyOp42
 70
     1
102
RTVSPropertyOp43
 70
     1
102
RTVSPropertyOp44
 70
     1
102
RTVSPropertyOp45
 70
     1
102
RTVSPropertyOp46
 70
     1
102
RTVSPropertyOp47
 70
     1
102
RTVSPropertyOp48
 70
     1
102
RTVSPropertyOp49
 70
     1
102
RTVSPropertyOp50
 70
     1
102
RTVSPropertyOp51
 70
     0
102
RTVSPropertyOp52
 70
     0
102
RTVSPropertyOp53
 70
     1
102
RTVSPropertyOp54
 70
     1
102
RTVSPropertyOp55
 70
     1
102
RTVSPropertyOp56
 70
     1
102
RTVSPropertyOp57
 70
     1
102
RTVSPropertyOp58
 70
     1
102
RTVSPropertyOp59
 70
     1
102
RTVSPropertyOp60
 70
     1
102
RTVSPropertyOp61
 70
     1
102
RTVSPropertyOp62
 70
     1
  0
XRECORD
  5
82E7
102
{ACAD_REACTORS
330
82E6
102
}
330
82E6
100
AcDbXrecord
280
     1
102
RTVSPost2010Prop28
280
     0
102
RTVSPost2010PropOp28
 70
     1
102
RTVSPost2010Prop29
280
     1
102
RTVSPost2010PropOp29
 70
     1
102
RTVSPost2010Prop30
280
     1
102
RTVSPost2010PropOp30
 70
     1
102
RTVSPost2010Prop31
280
     0
102
RTVSPost2010PropOp31
 70
     1
102
RTVSPost2010Prop32
280
     0
102
RTVSPost2010PropOp32
 70
     1
102
RTVSPost2010Prop33
280
     0
102
RTVSPost2010PropOp33
 70
     1
102
RTVSPost2010Prop34
280
     0
102
RTVSPost2010PropOp34
 70
     1
102
RTVSPost2010Prop35
280
     0
102
RTVSPost2010PropOp35
 70
     1
102
RTVSPost2010Prop36
280
     0
102
RTVSPost2010PropOp36
 70
     1
102
RTVSPost2010Prop37
 90
       50
102
RTVSPost2010PropOp37
 70
     0
102
RTVSPost2010Prop38
140
0.0
102
RTVSPost2010PropOp38
 70
     0
102
RTVSPost2010Prop39
140
1.0
102
RTVSPost2010PropOp39
 70
     0
102
RTVSPost2010Prop40
 90
        0
102
RTVSPost2010PropOp40
 70
     0
102
RTVSPost2010Prop41ColorIndex
 90
       18
102
RTVSPost2010Prop41ColorRGB
 90
        0
102
RTVSPost2010PropOp41
 70
     0
102
RTVSPost2010Prop42
 90
       50
102
RTVSPost2010PropOp42
 70
     0
102
RTVSPost2010Prop43
 90
        3
102
RTVSPost2010PropOp43
 70
     0
102
RTVSPost2010Prop44ColorIndex
 90
        5
102
RTVSPost2010Prop44ColorRGB
 90
      255
102
RTVSPost2010PropOp44
 70
     0
102
RTVSPost2010Prop45
280
     0
102
RTVSPost2010PropOp45
 70
     1
102
RTVSPost2010Prop46
 90
       50
102
RTVSPost2010PropOp46
 70
     0
102
RTVSPost2010Prop47
 90
       50
102
RTVSPost2010PropOp47
 70
     0
102
RTVSPost2010Prop48
 90
       50
102
RTVSPost2010PropOp48
 70
     0
102
RTVSPost2010Prop49
280
     0
102
RTVSPost2010PropOp49
 70
     1
102
RTVSPost2010Prop50
 90
       50
102
RTVSPost2010PropOp50
 70
     0
102
RTVSPost2010Prop51ColorIndex
 90
      256
102
RTVSPost2010Prop51ColorRGB
 90
-16777216
102
RTVSPost2010PropOp51
 70
     0
102
RTVSPost2010Prop52
140
1.0
102
RTVSPost2010PropOp52
 70
     0
102
RTVSPost2010Prop53
 90
        2
102
RTVSPost2010PropOp53
 70
     0
102
RTVSPost2010Prop54
  1
strokes_ogs.tif
102
RTVSPost2010PropOp54
 70
     0
102
RTVSPost2010Prop55
280
     0
102
RTVSPost2010PropOp55
 70
     1
102
RTVSPost2010Prop56
140
1.0
102
RTVSPost2010PropOp56
 70
     0
102
RTVSPost2010Prop57
140
1.0
102
RTVSPost2010PropOp57
 70
     0
102
RTVSPropertyOp0
 70
     0
102
RTVSPropertyOp1
 70
     0
102
RTVSPropertyOp2
 70
     0
102
RTVSPropertyOp3
 70
     0
102
RTVSPropertyOp4
 70
     0
102
RTVSPropertyOp5
 70
     0
102
RTVSPropertyOp6
 70
     0
102
RTVSPropertyOp7
 70
     0
102
RTVSPropertyOp8
 70
     0
102
RTVSPropertyOp9
 70
     0
102
RTVSPropertyOp10
 70
     0
102
RTVSPropertyOp11
 70
     0
102
RTVSPropertyOp12
 70
     0
102
RTVSPropertyOp13
 70
     0
102
RTVSPropertyOp14
 70
     2
102
RTVSPropertyOp15
 70
     0
102
RTVSPropertyOp16
 70
     0
102
RTVSPropertyOp17
 70
     0
102
RTVSPropertyOp18
 70
     0
102
RTVSPropertyOp19
 70
     0
102
RTVSPropertyOp20
 70
     0
102
RTVSPropertyOp21
 70
     0
102
RTVSPropertyOp22
 70
     0
102
RTVSPropertyOp23
 70
     0
102
RTVSPropertyOp24
 70
     0
102
RTVSPropertyOp25
 70
     0
102
RTVSPropertyOp26
 70
     0
102
RTVSPropertyOp27
 70
     0
102
RTVSPropertyOp28
 70
     1
102
RTVSPropertyOp29
 70
     1
102
RTVSPropertyOp30
 70
     1
102
RTVSPropertyOp31
 70
     1
102
RTVSPropertyOp32
 70
     1
102
RTVSPropertyOp33
 70
     1
102
RTVSPropertyOp34
 70
     1
102
RTVSPropertyOp35
 70
     1
102
RTVSPropertyOp36
 70
     1
102
RTVSPropertyOp37
 70
     0
102
RTVSPropertyOp38
 70
     0
102
RTVSPropertyOp39
 70
     0
102
RTVSPropertyOp40
 70
     0
102
RTVSPropertyOp41
 70
     0
102
RTVSPropertyOp42
 70
     0
102
RTVSPropertyOp43
 70
     0
102
RTVSPropertyOp44
 70
     0
102
RTVSPropertyOp45
 70
     1
102
RTVSPropertyOp46
 70
     0
102
RTVSPropertyOp47
 70
     0
102
RTVSPropertyOp48
 70
     0
102
RTVSPropertyOp49
 70
     1
102
RTVSPropertyOp50
 70
     0
102
RTVSPropertyOp51
 70
     0
102
RTVSPropertyOp52
 70
     0
102
RTVSPropertyOp53
 70
     0
102
RTVSPropertyOp54
 70
     0
102
RTVSPropertyOp55
 70
     1
102
RTVSPropertyOp56
 70
     0
102
RTVSPropertyOp57
 70
     0
102
RTVSPropertyOp58
 70
     0
102
RTVSPropertyOp59
 70
     0
102
RTVSPropertyOp60
 70
     0
102
RTVSPropertyOp61
 70
     0
102
RTVSPropertyOp62
 70
     0
  0
XRECORD
  5
82D5
102
{ACAD_REACTORS
330
82D4
102
}
330
82D4
100
AcDbXrecord
280
     1
102
RTVSPost2010Prop28
280
     0
102
RTVSPost2010PropOp28
 70
     1
102
RTVSPost2010Prop29
280
     1
102
RTVSPost2010PropOp29
 70
     1
102
RTVSPost2010Prop30
280
     1
102
RTVSPost2010PropOp30
 70
     1
102
RTVSPost2010Prop31
280
     0
102
RTVSPost2010PropOp31
 70
     1
102
RTVSPost2010Prop32
280
     0
102
RTVSPost2010PropOp32
 70
     1
102
RTVSPost2010Prop33
280
     0
102
RTVSPost2010PropOp33
 70
     1
102
RTVSPost2010Prop34
280
     0
102
RTVSPost2010PropOp34
 70
     1
102
RTVSPost2010Prop35
280
     0
102
RTVSPost2010PropOp35
 70
     1
102
RTVSPost2010Prop36
280
     0
102
RTVSPost2010PropOp36
 70
     1
102
RTVSPost2010Prop37
 90
       50
102
RTVSPost2010PropOp37
 70
     1
102
RTVSPost2010Prop38
140
0.0
102
RTVSPost2010PropOp38
 70
     1
102
RTVSPost2010Prop39
140
1.0
102
RTVSPost2010PropOp39
 70
     1
102
RTVSPost2010Prop40
 90
        0
102
RTVSPost2010PropOp40
 70
     1
102
RTVSPost2010Prop41ColorIndex
 90
       18
102
RTVSPost2010Prop41ColorRGB
 90
        0
102
RTVSPost2010PropOp41
 70
     1
102
RTVSPost2010Prop42
 90
       50
102
RTVSPost2010PropOp42
 70
     1
102
RTVSPost2010Prop43
 90
        3
102
RTVSPost2010PropOp43
 70
     1
102
RTVSPost2010Prop44ColorIndex
 90
        5
102
RTVSPost2010Prop44ColorRGB
 90
      255
102
RTVSPost2010PropOp44
 70
     1
102
RTVSPost2010Prop45
280
     0
102
RTVSPost2010PropOp45
 70
     1
102
RTVSPost2010Prop46
 90
       50
102
RTVSPost2010PropOp46
 70
     1
102
RTVSPost2010Prop47
 90
       50
102
RTVSPost2010PropOp47
 70
     1
102
RTVSPost2010Prop48
 90
       50
102
RTVSPost2010PropOp48
 70
     1
102
RTVSPost2010Prop49
280
     0
102
RTVSPost2010PropOp49
 70
     1
102
RTVSPost2010Prop50
 90
       50
102
RTVSPost2010PropOp50
 70
     1
102
RTVSPost2010Prop51ColorIndex
 90
      256
102
RTVSPost2010Prop51ColorRGB
 90
-16777216
102
RTVSPost2010PropOp51
 70
     0
102
RTVSPost2010Prop52
140
1.0
102
RTVSPost2010PropOp52
 70
     0
102
RTVSPost2010Prop53
 90
        2
102
RTVSPost2010PropOp53
 70
     1
102
RTVSPost2010Prop54
  1
strokes_ogs.tif
102
RTVSPost2010PropOp54
 70
     1
102
RTVSPost2010Prop55
280
     0
102
RTVSPost2010PropOp55
 70
     1
102
RTVSPost2010Prop56
140
1.0
102
RTVSPost2010PropOp56
 70
     1
102
RTVSPost2010Prop57
140
1.0
102
RTVSPost2010PropOp57
 70
     1
102
RTVSPropertyOp0
 70
     1
102
RTVSPropertyOp1
 70
     1
102
RTVSPropertyOp2
 70
     1
102
RTVSPropertyOp3
 70
     1
102
RTVSPropertyOp4
 70
     1
102
RTVSPropertyOp5
 70
     1
102
RTVSPropertyOp6
 70
     1
102
RTVSPropertyOp7
 70
     1
102
RTVSPropertyOp8
 70
     1
102
RTVSPropertyOp9
 70
     1
102
RTVSPropertyOp10
 70
     1
102
RTVSPropertyOp11
 70
     1
102
RTVSPropertyOp12
 70
     1
102
RTVSPropertyOp13
 70
     1
102
RTVSPropertyOp14
 70
     1
102
RTVSPropertyOp15
 70
     1
102
RTVSPropertyOp16
 70
     1
102
RTVSPropertyOp17
 70
     1
102
RTVSPropertyOp18
 70
     1
102
RTVSPropertyOp19
 70
     1
102
RTVSPropertyOp20
 70
     1
102
RTVSPropertyOp21
 70
     1
102
RTVSPropertyOp22
 70
     1
102
RTVSPropertyOp23
 70
     1
102
RTVSPropertyOp24
 70
     1
102
RTVSPropertyOp25
 70
     1
102
RTVSPropertyOp26
 70
     1
102
RTVSPropertyOp27
 70
     1
102
RTVSPropertyOp28
 70
     1
102
RTVSPropertyOp29
 70
     1
102
RTVSPropertyOp30
 70
     1
102
RTVSPropertyOp31
 70
     1
102
RTVSPropertyOp32
 70
     1
102
RTVSPropertyOp33
 70
     1
102
RTVSPropertyOp34
 70
     1
102
RTVSPropertyOp35
 70
     1
102
RTVSPropertyOp36
 70
     1
102
RTVSPropertyOp37
 70
     1
102
RTVSPropertyOp38
 70
     1
102
RTVSPropertyOp39
 70
     1
102
RTVSPropertyOp40
 70
     1
102
RTVSPropertyOp41
 70
     1
102
RTVSPropertyOp42
 70
     1
102
RTVSPropertyOp43
 70
     1
102
RTVSPropertyOp44
 70
     1
102
RTVSPropertyOp45
 70
     1
102
RTVSPropertyOp46
 70
     1
102
RTVSPropertyOp47
 70
     1
102
RTVSPropertyOp48
 70
     1
102
RTVSPropertyOp49
 70
     1
102
RTVSPropertyOp50
 70
     1
102
RTVSPropertyOp51
 70
     0
102
RTVSPropertyOp52
 70
     0
102
RTVSPropertyOp53
 70
     1
102
RTVSPropertyOp54
 70
     1
102
RTVSPropertyOp55
 70
     1
102
RTVSPropertyOp56
 70
     1
102
RTVSPropertyOp57
 70
     1
102
RTVSPropertyOp58
 70
     1
102
RTVSPropertyOp59
 70
     1
102
RTVSPropertyOp60
 70
     1
102
RTVSPropertyOp61
 70
     1
102
RTVSPropertyOp62
 70
     1
  0
XRECORD
  5
82B9
102
{ACAD_REACTORS
330
82B8
102
}
330
82B8
100
AcDbXrecord
280
     1
102
RTVSPost2010Prop28
280
     0
102
RTVSPost2010PropOp28
 70
     1
102
RTVSPost2010Prop29
280
     1
102
RTVSPost2010PropOp29
 70
     1
102
RTVSPost2010Prop30
280
     1
102
RTVSPost2010PropOp30
 70
     1
102
RTVSPost2010Prop31
280
     0
102
RTVSPost2010PropOp31
 70
     1
102
RTVSPost2010Prop32
280
     0
102
RTVSPost2010PropOp32
 70
     1
102
RTVSPost2010Prop33
280
     0
102
RTVSPost2010PropOp33
 70
     1
102
RTVSPost2010Prop34
280
     0
102
RTVSPost2010PropOp34
 70
     1
102
RTVSPost2010Prop35
280
     0
102
RTVSPost2010PropOp35
 70
     1
102
RTVSPost2010Prop36
280
     0
102
RTVSPost2010PropOp36
 70
     1
102
RTVSPost2010Prop37
 90
       50
102
RTVSPost2010PropOp37
 70
     1
102
RTVSPost2010Prop38
140
0.0
102
RTVSPost2010PropOp38
 70
     1
102
RTVSPost2010Prop39
140
1.0
102
RTVSPost2010PropOp39
 70
     1
102
RTVSPost2010Prop40
 90
        0
102
RTVSPost2010PropOp40
 70
     1
102
RTVSPost2010Prop41ColorIndex
 90
       18
102
RTVSPost2010Prop41ColorRGB
 90
        0
102
RTVSPost2010PropOp41
 70
     1
102
RTVSPost2010Prop42
 90
       50
102
RTVSPost2010PropOp42
 70
     1
102
RTVSPost2010Prop43
 90
        3
102
RTVSPost2010PropOp43
 70
     1
102
RTVSPost2010Prop44ColorIndex
 90
        5
102
RTVSPost2010Prop44ColorRGB
 90
      255
102
RTVSPost2010PropOp44
 70
     1
102
RTVSPost2010Prop45
280
     0
102
RTVSPost2010PropOp45
 70
     1
102
RTVSPost2010Prop46
 90
       50
102
RTVSPost2010PropOp46
 70
     1
102
RTVSPost2010Prop47
 90
       50
102
RTVSPost2010PropOp47
 70
     1
102
RTVSPost2010Prop48
 90
       50
102
RTVSPost2010PropOp48
 70
     1
102
RTVSPost2010Prop49
280
     0
102
RTVSPost2010PropOp49
 70
     1
102
RTVSPost2010Prop50
 90
       50
102
RTVSPost2010PropOp50
 70
     1
102
RTVSPost2010Prop51ColorIndex
 90
      256
102
RTVSPost2010Prop51ColorRGB
 90
-16777216
102
RTVSPost2010PropOp51
 70
     0
102
RTVSPost2010Prop52
140
1.0
102
RTVSPost2010PropOp52
 70
     0
102
RTVSPost2010Prop53
 90
        2
102
RTVSPost2010PropOp53
 70
     1
102
RTVSPost2010Prop54
  1
strokes_ogs.tif
102
RTVSPost2010PropOp54
 70
     1
102
RTVSPost2010Prop55
280
     0
102
RTVSPost2010PropOp55
 70
     1
102
RTVSPost2010Prop56
140
1.0
102
RTVSPost2010PropOp56
 70
     1
102
RTVSPost2010Prop57
140
1.0
102
RTVSPost2010PropOp57
 70
     1
102
RTVSPropertyOp0
 70
     1
102
RTVSPropertyOp1
 70
     1
102
RTVSPropertyOp2
 70
     1
102
RTVSPropertyOp3
 70
     1
102
RTVSPropertyOp4
 70
     1
102
RTVSPropertyOp5
 70
     1
102
RTVSPropertyOp6
 70
     1
102
RTVSPropertyOp7
 70
     1
102
RTVSPropertyOp8
 70
     1
102
RTVSPropertyOp9
 70
     1
102
RTVSPropertyOp10
 70
     1
102
RTVSPropertyOp11
 70
     1
102
RTVSPropertyOp12
 70
     1
102
RTVSPropertyOp13
 70
     1
102
RTVSPropertyOp14
 70
     1
102
RTVSPropertyOp15
 70
     1
102
RTVSPropertyOp16
 70
     1
102
RTVSPropertyOp17
 70
     1
102
RTVSPropertyOp18
 70
     1
102
RTVSPropertyOp19
 70
     1
102
RTVSPropertyOp20
 70
     1
102
RTVSPropertyOp21
 70
     1
102
RTVSPropertyOp22
 70
     1
102
RTVSPropertyOp23
 70
     1
102
RTVSPropertyOp24
 70
     1
102
RTVSPropertyOp25
 70
     1
102
RTVSPropertyOp26
 70
     1
102
RTVSPropertyOp27
 70
     1
102
RTVSPropertyOp28
 70
     1
102
RTVSPropertyOp29
 70
     1
102
RTVSPropertyOp30
 70
     1
102
RTVSPropertyOp31
 70
     1
102
RTVSPropertyOp32
 70
     1
102
RTVSPropertyOp33
 70
     1
102
RTVSPropertyOp34
 70
     1
102
RTVSPropertyOp35
 70
     1
102
RTVSPropertyOp36
 70
     1
102
RTVSPropertyOp37
 70
     1
102
RTVSPropertyOp38
 70
     1
102
RTVSPropertyOp39
 70
     1
102
RTVSPropertyOp40
 70
     1
102
RTVSPropertyOp41
 70
     1
102
RTVSPropertyOp42
 70
     1
102
RTVSPropertyOp43
 70
     1
102
RTVSPropertyOp44
 70
     1
102
RTVSPropertyOp45
 70
     1
102
RTVSPropertyOp46
 70
     1
102
RTVSPropertyOp47
 70
     1
102
RTVSPropertyOp48
 70
     1
102
RTVSPropertyOp49
 70
     1
102
RTVSPropertyOp50
 70
     1
102
RTVSPropertyOp51
 70
     0
102
RTVSPropertyOp52
 70
     0
102
RTVSPropertyOp53
 70
     1
102
RTVSPropertyOp54
 70
     1
102
RTVSPropertyOp55
 70
     1
102
RTVSPropertyOp56
 70
     1
102
RTVSPropertyOp57
 70
     1
102
RTVSPropertyOp58
 70
     1
102
RTVSPropertyOp59
 70
     1
102
RTVSPropertyOp60
 70
     1
102
RTVSPropertyOp61
 70
     1
102
RTVSPropertyOp62
 70
     1
  0
XRECORD
  5
82BB
102
{ACAD_REACTORS
330
82BA
102
}
330
82BA
100
AcDbXrecord
280
     1
102
RTVSPost2010Prop28
280
     0
102
RTVSPost2010PropOp28
 70
     1
102
RTVSPost2010Prop29
280
     1
102
RTVSPost2010PropOp29
 70
     1
102
RTVSPost2010Prop30
280
     1
102
RTVSPost2010PropOp30
 70
     1
102
RTVSPost2010Prop31
280
     0
102
RTVSPost2010PropOp31
 70
     1
102
RTVSPost2010Prop32
280
     0
102
RTVSPost2010PropOp32
 70
     1
102
RTVSPost2010Prop33
280
     0
102
RTVSPost2010PropOp33
 70
     1
102
RTVSPost2010Prop34
280
     0
102
RTVSPost2010PropOp34
 70
     1
102
RTVSPost2010Prop35
280
     0
102
RTVSPost2010PropOp35
 70
     1
102
RTVSPost2010Prop36
280
     0
102
RTVSPost2010PropOp36
 70
     1
102
RTVSPost2010Prop37
 90
       50
102
RTVSPost2010PropOp37
 70
     1
102
RTVSPost2010Prop38
140
0.0
102
RTVSPost2010PropOp38
 70
     1
102
RTVSPost2010Prop39
140
1.0
102
RTVSPost2010PropOp39
 70
     1
102
RTVSPost2010Prop40
 90
        0
102
RTVSPost2010PropOp40
 70
     1
102
RTVSPost2010Prop41ColorIndex
 90
       18
102
RTVSPost2010Prop41ColorRGB
 90
        0
102
RTVSPost2010PropOp41
 70
     1
102
RTVSPost2010Prop42
 90
       50
102
RTVSPost2010PropOp42
 70
     1
102
RTVSPost2010Prop43
 90
        3
102
RTVSPost2010PropOp43
 70
     1
102
RTVSPost2010Prop44ColorIndex
 90
        5
102
RTVSPost2010Prop44ColorRGB
 90
      255
102
RTVSPost2010PropOp44
 70
     1
102
RTVSPost2010Prop45
280
     0
102
RTVSPost2010PropOp45
 70
     1
102
RTVSPost2010Prop46
 90
       50
102
RTVSPost2010PropOp46
 70
     1
102
RTVSPost2010Prop47
 90
       50
102
RTVSPost2010PropOp47
 70
     1
102
RTVSPost2010Prop48
 90
       50
102
RTVSPost2010PropOp48
 70
     1
102
RTVSPost2010Prop49
280
     0
102
RTVSPost2010PropOp49
 70
     1
102
RTVSPost2010Prop50
 90
       50
102
RTVSPost2010PropOp50
 70
     1
102
RTVSPost2010Prop51ColorIndex
 90
      256
102
RTVSPost2010Prop51ColorRGB
 90
-16777216
102
RTVSPost2010PropOp51
 70
     0
102
RTVSPost2010Prop52
140
1.0
102
RTVSPost2010PropOp52
 70
     0
102
RTVSPost2010Prop53
 90
        2
102
RTVSPost2010PropOp53
 70
     1
102
RTVSPost2010Prop54
  1
strokes_ogs.tif
102
RTVSPost2010PropOp54
 70
     1
102
RTVSPost2010Prop55
280
     0
102
RTVSPost2010PropOp55
 70
     1
102
RTVSPost2010Prop56
140
1.0
102
RTVSPost2010PropOp56
 70
     1
102
RTVSPost2010Prop57
140
1.0
102
RTVSPost2010PropOp57
 70
     1
102
RTVSPropertyOp0
 70
     1
102
RTVSPropertyOp1
 70
     1
102
RTVSPropertyOp2
 70
     1
102
RTVSPropertyOp3
 70
     1
102
RTVSPropertyOp4
 70
     1
102
RTVSPropertyOp5
 70
     1
102
RTVSPropertyOp6
 70
     1
102
RTVSPropertyOp7
 70
     1
102
RTVSPropertyOp8
 70
     1
102
RTVSPropertyOp9
 70
     1
102
RTVSPropertyOp10
 70
     1
102
RTVSPropertyOp11
 70
     1
102
RTVSPropertyOp12
 70
     1
102
RTVSPropertyOp13
 70
     1
102
RTVSPropertyOp14
 70
     1
102
RTVSPropertyOp15
 70
     1
102
RTVSPropertyOp16
 70
     1
102
RTVSPropertyOp17
 70
     1
102
RTVSPropertyOp18
 70
     1
102
RTVSPropertyOp19
 70
     1
102
RTVSPropertyOp20
 70
     1
102
RTVSPropertyOp21
 70
     1
102
RTVSPropertyOp22
 70
     1
102
RTVSPropertyOp23
 70
     1
102
RTVSPropertyOp24
 70
     1
102
RTVSPropertyOp25
 70
     1
102
RTVSPropertyOp26
 70
     1
102
RTVSPropertyOp27
 70
     1
102
RTVSPropertyOp28
 70
     1
102
RTVSPropertyOp29
 70
     1
102
RTVSPropertyOp30
 70
     1
102
RTVSPropertyOp31
 70
     1
102
RTVSPropertyOp32
 70
     1
102
RTVSPropertyOp33
 70
     1
102
RTVSPropertyOp34
 70
     1
102
RTVSPropertyOp35
 70
     1
102
RTVSPropertyOp36
 70
     1
102
RTVSPropertyOp37
 70
     1
102
RTVSPropertyOp38
 70
     1
102
RTVSPropertyOp39
 70
     1
102
RTVSPropertyOp40
 70
     1
102
RTVSPropertyOp41
 70
     1
102
RTVSPropertyOp42
 70
     1
102
RTVSPropertyOp43
 70
     1
102
RTVSPropertyOp44
 70
     1
102
RTVSPropertyOp45
 70
     1
102
RTVSPropertyOp46
 70
     1
102
RTVSPropertyOp47
 70
     1
102
RTVSPropertyOp48
 70
     1
102
RTVSPropertyOp49
 70
     1
102
RTVSPropertyOp50
 70
     1
102
RTVSPropertyOp51
 70
     0
102
RTVSPropertyOp52
 70
     0
102
RTVSPropertyOp53
 70
     1
102
RTVSPropertyOp54
 70
     1
102
RTVSPropertyOp55
 70
     1
102
RTVSPropertyOp56
 70
     1
102
RTVSPropertyOp57
 70
     1
102
RTVSPropertyOp58
 70
     1
102
RTVSPropertyOp59
 70
     1
102
RTVSPropertyOp60
 70
     1
102
RTVSPropertyOp61
 70
     1
102
RTVSPropertyOp62
 70
     1
  0
XRECORD
  5
82BD
102
{ACAD_REACTORS
330
82BC
102
}
330
82BC
100
AcDbXrecord
280
     1
102
RTVSPost2010Prop28
280
     0
102
RTVSPost2010PropOp28
 70
     1
102
RTVSPost2010Prop29
280
     1
102
RTVSPost2010PropOp29
 70
     1
102
RTVSPost2010Prop30
280
     1
102
RTVSPost2010PropOp30
 70
     1
102
RTVSPost2010Prop31
280
     0
102
RTVSPost2010PropOp31
 70
     1
102
RTVSPost2010Prop32
280
     0
102
RTVSPost2010PropOp32
 70
     1
102
RTVSPost2010Prop33
280
     0
102
RTVSPost2010PropOp33
 70
     1
102
RTVSPost2010Prop34
280
     0
102
RTVSPost2010PropOp34
 70
     1
102
RTVSPost2010Prop35
280
     0
102
RTVSPost2010PropOp35
 70
     1
102
RTVSPost2010Prop36
280
     0
102
RTVSPost2010PropOp36
 70
     1
102
RTVSPost2010Prop37
 90
       50
102
RTVSPost2010PropOp37
 70
     1
102
RTVSPost2010Prop38
140
0.0
102
RTVSPost2010PropOp38
 70
     1
102
RTVSPost2010Prop39
140
1.0
102
RTVSPost2010PropOp39
 70
     1
102
RTVSPost2010Prop40
 90
        0
102
RTVSPost2010PropOp40
 70
     1
102
RTVSPost2010Prop41ColorIndex
 90
       18
102
RTVSPost2010Prop41ColorRGB
 90
        0
102
RTVSPost2010PropOp41
 70
     1
102
RTVSPost2010Prop42
 90
       50
102
RTVSPost2010PropOp42
 70
     1
102
RTVSPost2010Prop43
 90
        3
102
RTVSPost2010PropOp43
 70
     1
102
RTVSPost2010Prop44ColorIndex
 90
        5
102
RTVSPost2010Prop44ColorRGB
 90
      255
102
RTVSPost2010PropOp44
 70
     1
102
RTVSPost2010Prop45
280
     0
102
RTVSPost2010PropOp45
 70
     1
102
RTVSPost2010Prop46
 90
       50
102
RTVSPost2010PropOp46
 70
     1
102
RTVSPost2010Prop47
 90
       50
102
RTVSPost2010PropOp47
 70
     1
102
RTVSPost2010Prop48
 90
       50
102
RTVSPost2010PropOp48
 70
     1
102
RTVSPost2010Prop49
280
     0
102
RTVSPost2010PropOp49
 70
     1
102
RTVSPost2010Prop50
 90
       50
102
RTVSPost2010PropOp50
 70
     1
102
RTVSPost2010Prop51ColorIndex
 90
      256
102
RTVSPost2010Prop51ColorRGB
 90
-16777216
102
RTVSPost2010PropOp51
 70
     0
102
RTVSPost2010Prop52
140
1.0
102
RTVSPost2010PropOp52
 70
     0
102
RTVSPost2010Prop53
 90
        2
102
RTVSPost2010PropOp53
 70
     1
102
RTVSPost2010Prop54
  1
strokes_ogs.tif
102
RTVSPost2010PropOp54
 70
     1
102
RTVSPost2010Prop55
280
     0
102
RTVSPost2010PropOp55
 70
     1
102
RTVSPost2010Prop56
140
1.0
102
RTVSPost2010PropOp56
 70
     1
102
RTVSPost2010Prop57
140
1.0
102
RTVSPost2010PropOp57
 70
     1
102
RTVSPropertyOp0
 70
     1
102
RTVSPropertyOp1
 70
     1
102
RTVSPropertyOp2
 70
     1
102
RTVSPropertyOp3
 70
     1
102
RTVSPropertyOp4
 70
     1
102
RTVSPropertyOp5
 70
     1
102
RTVSPropertyOp6
 70
     1
102
RTVSPropertyOp7
 70
     1
102
RTVSPropertyOp8
 70
     1
102
RTVSPropertyOp9
 70
     1
102
RTVSPropertyOp10
 70
     1
102
RTVSPropertyOp11
 70
     1
102
RTVSPropertyOp12
 70
     1
102
RTVSPropertyOp13
 70
     1
102
RTVSPropertyOp14
 70
     1
102
RTVSPropertyOp15
 70
     1
102
RTVSPropertyOp16
 70
     1
102
RTVSPropertyOp17
 70
     1
102
RTVSPropertyOp18
 70
     1
102
RTVSPropertyOp19
 70
     1
102
RTVSPropertyOp20
 70
     1
102
RTVSPropertyOp21
 70
     1
102
RTVSPropertyOp22
 70
     1
102
RTVSPropertyOp23
 70
     1
102
RTVSPropertyOp24
 70
     1
102
RTVSPropertyOp25
 70
     1
102
RTVSPropertyOp26
 70
     1
102
RTVSPropertyOp27
 70
     1
102
RTVSPropertyOp28
 70
     1
102
RTVSPropertyOp29
 70
     1
102
RTVSPropertyOp30
 70
     1
102
RTVSPropertyOp31
 70
     1
102
RTVSPropertyOp32
 70
     1
102
RTVSPropertyOp33
 70
     1
102
RTVSPropertyOp34
 70
     1
102
RTVSPropertyOp35
 70
     1
102
RTVSPropertyOp36
 70
     1
102
RTVSPropertyOp37
 70
     1
102
RTVSPropertyOp38
 70
     1
102
RTVSPropertyOp39
 70
     1
102
RTVSPropertyOp40
 70
     1
102
RTVSPropertyOp41
 70
     1
102
RTVSPropertyOp42
 70
     1
102
RTVSPropertyOp43
 70
     1
102
RTVSPropertyOp44
 70
     1
102
RTVSPropertyOp45
 70
     1
102
RTVSPropertyOp46
 70
     1
102
RTVSPropertyOp47
 70
     1
102
RTVSPropertyOp48
 70
     1
102
RTVSPropertyOp49
 70
     1
102
RTVSPropertyOp50
 70
     1
102
RTVSPropertyOp51
 70
     0
102
RTVSPropertyOp52
 70
     0
102
RTVSPropertyOp53
 70
     1
102
RTVSPropertyOp54
 70
     1
102
RTVSPropertyOp55
 70
     1
102
RTVSPropertyOp56
 70
     1
102
RTVSPropertyOp57
 70
     1
102
RTVSPropertyOp58
 70
     1
102
RTVSPropertyOp59
 70
     1
102
RTVSPropertyOp60
 70
     1
102
RTVSPropertyOp61
 70
     1
102
RTVSPropertyOp62
 70
     1
  0
XRECORD
  5
82BF
102
{ACAD_REACTORS
330
82BE
102
}
330
82BE
100
AcDbXrecord
280
     1
102
RTVSPost2010Prop28
280
     0
102
RTVSPost2010PropOp28
 70
     1
102
RTVSPost2010Prop29
280
     1
102
RTVSPost2010PropOp29
 70
     1
102
RTVSPost2010Prop30
280
     1
102
RTVSPost2010PropOp30
 70
     1
102
RTVSPost2010Prop31
280
     0
102
RTVSPost2010PropOp31
 70
     1
102
RTVSPost2010Prop32
280
     0
102
RTVSPost2010PropOp32
 70
     1
102
RTVSPost2010Prop33
280
     0
102
RTVSPost2010PropOp33
 70
     1
102
RTVSPost2010Prop34
280
     0
102
RTVSPost2010PropOp34
 70
     1
102
RTVSPost2010Prop35
280
     0
102
RTVSPost2010PropOp35
 70
     1
102
RTVSPost2010Prop36
280
     0
102
RTVSPost2010PropOp36
 70
     1
102
RTVSPost2010Prop37
 90
       50
102
RTVSPost2010PropOp37
 70
     1
102
RTVSPost2010Prop38
140
0.0
102
RTVSPost2010PropOp38
 70
     1
102
RTVSPost2010Prop39
140
1.0
102
RTVSPost2010PropOp39
 70
     1
102
RTVSPost2010Prop40
 90
        0
102
RTVSPost2010PropOp40
 70
     1
102
RTVSPost2010Prop41ColorIndex
 90
       18
102
RTVSPost2010Prop41ColorRGB
 90
        0
102
RTVSPost2010PropOp41
 70
     1
102
RTVSPost2010Prop42
 90
       50
102
RTVSPost2010PropOp42
 70
     1
102
RTVSPost2010Prop43
 90
        3
102
RTVSPost2010PropOp43
 70
     1
102
RTVSPost2010Prop44ColorIndex
 90
        5
102
RTVSPost2010Prop44ColorRGB
 90
      255
102
RTVSPost2010PropOp44
 70
     1
102
RTVSPost2010Prop45
280
     0
102
RTVSPost2010PropOp45
 70
     1
102
RTVSPost2010Prop46
 90
       50
102
RTVSPost2010PropOp46
 70
     1
102
RTVSPost2010Prop47
 90
       50
102
RTVSPost2010PropOp47
 70
     1
102
RTVSPost2010Prop48
 90
       50
102
RTVSPost2010PropOp48
 70
     1
102
RTVSPost2010Prop49
280
     0
102
RTVSPost2010PropOp49
 70
     1
102
RTVSPost2010Prop50
 90
       50
102
RTVSPost2010PropOp50
 70
     1
102
RTVSPost2010Prop51ColorIndex
 90
      256
102
RTVSPost2010Prop51ColorRGB
 90
-16777216
102
RTVSPost2010PropOp51
 70
     0
102
RTVSPost2010Prop52
140
1.0
102
RTVSPost2010PropOp52
 70
     0
102
RTVSPost2010Prop53
 90
        2
102
RTVSPost2010PropOp53
 70
     1
102
RTVSPost2010Prop54
  1
strokes_ogs.tif
102
RTVSPost2010PropOp54
 70
     1
102
RTVSPost2010Prop55
280
     0
102
RTVSPost2010PropOp55
 70
     1
102
RTVSPost2010Prop56
140
1.0
102
RTVSPost2010PropOp56
 70
     1
102
RTVSPost2010Prop57
140
1.0
102
RTVSPost2010PropOp57
 70
     1
102
RTVSPropertyOp0
 70
     1
102
RTVSPropertyOp1
 70
     1
102
RTVSPropertyOp2
 70
     1
102
RTVSPropertyOp3
 70
     1
102
RTVSPropertyOp4
 70
     1
102
RTVSPropertyOp5
 70
     1
102
RTVSPropertyOp6
 70
     1
102
RTVSPropertyOp7
 70
     1
102
RTVSPropertyOp8
 70
     1
102
RTVSPropertyOp9
 70
     1
102
RTVSPropertyOp10
 70
     1
102
RTVSPropertyOp11
 70
     1
102
RTVSPropertyOp12
 70
     1
102
RTVSPropertyOp13
 70
     1
102
RTVSPropertyOp14
 70
     1
102
RTVSPropertyOp15
 70
     1
102
RTVSPropertyOp16
 70
     1
102
RTVSPropertyOp17
 70
     1
102
RTVSPropertyOp18
 70
     1
102
RTVSPropertyOp19
 70
     1
102
RTVSPropertyOp20
 70
     1
102
RTVSPropertyOp21
 70
     1
102
RTVSPropertyOp22
 70
     1
102
RTVSPropertyOp23
 70
     1
102
RTVSPropertyOp24
 70
     1
102
RTVSPropertyOp25
 70
     1
102
RTVSPropertyOp26
 70
     1
102
RTVSPropertyOp27
 70
     1
102
RTVSPropertyOp28
 70
     1
102
RTVSPropertyOp29
 70
     1
102
RTVSPropertyOp30
 70
     1
102
RTVSPropertyOp31
 70
     1
102
RTVSPropertyOp32
 70
     1
102
RTVSPropertyOp33
 70
     1
102
RTVSPropertyOp34
 70
     1
102
RTVSPropertyOp35
 70
     1
102
RTVSPropertyOp36
 70
     1
102
RTVSPropertyOp37
 70
     1
102
RTVSPropertyOp38
 70
     1
102
RTVSPropertyOp39
 70
     1
102
RTVSPropertyOp40
 70
     1
102
RTVSPropertyOp41
 70
     1
102
RTVSPropertyOp42
 70
     1
102
RTVSPropertyOp43
 70
     1
102
RTVSPropertyOp44
 70
     1
102
RTVSPropertyOp45
 70
     1
102
RTVSPropertyOp46
 70
     1
102
RTVSPropertyOp47
 70
     1
102
RTVSPropertyOp48
 70
     1
102
RTVSPropertyOp49
 70
     1
102
RTVSPropertyOp50
 70
     1
102
RTVSPropertyOp51
 70
     0
102
RTVSPropertyOp52
 70
     0
102
RTVSPropertyOp53
 70
     1
102
RTVSPropertyOp54
 70
     1
102
RTVSPropertyOp55
 70
     1
102
RTVSPropertyOp56
 70
     1
102
RTVSPropertyOp57
 70
     1
102
RTVSPropertyOp58
 70
     1
102
RTVSPropertyOp59
 70
     1
102
RTVSPropertyOp60
 70
     1
102
RTVSPropertyOp61
 70
     1
102
RTVSPropertyOp62
 70
     1
  0
XRECORD
  5
82C7
102
{ACAD_REACTORS
330
82C6
102
}
330
82C6
100
AcDbXrecord
280
     1
102
RTVSPost2010Prop28
280
     0
102
RTVSPost2010PropOp28
 70
     1
102
RTVSPost2010Prop29
280
     1
102
RTVSPost2010PropOp29
 70
     1
102
RTVSPost2010Prop30
280
     1
102
RTVSPost2010PropOp30
 70
     1
102
RTVSPost2010Prop31
280
     0
102
RTVSPost2010PropOp31
 70
     1
102
RTVSPost2010Prop32
280
     0
102
RTVSPost2010PropOp32
 70
     1
102
RTVSPost2010Prop33
280
     0
102
RTVSPost2010PropOp33
 70
     1
102
RTVSPost2010Prop34
280
     0
102
RTVSPost2010PropOp34
 70
     1
102
RTVSPost2010Prop35
280
     0
102
RTVSPost2010PropOp35
 70
     1
102
RTVSPost2010Prop36
280
     0
102
RTVSPost2010PropOp36
 70
     1
102
RTVSPost2010Prop37
 90
       50
102
RTVSPost2010PropOp37
 70
     1
102
RTVSPost2010Prop38
140
0.0
102
RTVSPost2010PropOp38
 70
     1
102
RTVSPost2010Prop39
140
1.0
102
RTVSPost2010PropOp39
 70
     1
102
RTVSPost2010Prop40
 90
        0
102
RTVSPost2010PropOp40
 70
     1
102
RTVSPost2010Prop41ColorIndex
 90
       18
102
RTVSPost2010Prop41ColorRGB
 90
        0
102
RTVSPost2010PropOp41
 70
     1
102
RTVSPost2010Prop42
 90
       50
102
RTVSPost2010PropOp42
 70
     1
102
RTVSPost2010Prop43
 90
        3
102
RTVSPost2010PropOp43
 70
     1
102
RTVSPost2010Prop44ColorIndex
 90
        5
102
RTVSPost2010Prop44ColorRGB
 90
      255
102
RTVSPost2010PropOp44
 70
     1
102
RTVSPost2010Prop45
280
     0
102
RTVSPost2010PropOp45
 70
     1
102
RTVSPost2010Prop46
 90
       50
102
RTVSPost2010PropOp46
 70
     1
102
RTVSPost2010Prop47
 90
       50
102
RTVSPost2010PropOp47
 70
     1
102
RTVSPost2010Prop48
 90
       50
102
RTVSPost2010PropOp48
 70
     1
102
RTVSPost2010Prop49
280
     0
102
RTVSPost2010PropOp49
 70
     1
102
RTVSPost2010Prop50
 90
       50
102
RTVSPost2010PropOp50
 70
     1
102
RTVSPost2010Prop51ColorIndex
 90
      256
102
RTVSPost2010Prop51ColorRGB
 90
-16777216
102
RTVSPost2010PropOp51
 70
     0
102
RTVSPost2010Prop52
140
1.0
102
RTVSPost2010PropOp52
 70
     0
102
RTVSPost2010Prop53
 90
        2
102
RTVSPost2010PropOp53
 70
     1
102
RTVSPost2010Prop54
  1
strokes_ogs.tif
102
RTVSPost2010PropOp54
 70
     1
102
RTVSPost2010Prop55
280
     0
102
RTVSPost2010PropOp55
 70
     1
102
RTVSPost2010Prop56
140
1.0
102
RTVSPost2010PropOp56
 70
     1
102
RTVSPost2010Prop57
140
1.0
102
RTVSPost2010PropOp57
 70
     1
102
RTVSPropertyOp0
 70
     1
102
RTVSPropertyOp1
 70
     1
102
RTVSPropertyOp2
 70
     1
102
RTVSPropertyOp3
 70
     1
102
RTVSPropertyOp4
 70
     1
102
RTVSPropertyOp5
 70
     1
102
RTVSPropertyOp6
 70
     1
102
RTVSPropertyOp7
 70
     1
102
RTVSPropertyOp8
 70
     1
102
RTVSPropertyOp9
 70
     1
102
RTVSPropertyOp10
 70
     1
102
RTVSPropertyOp11
 70
     1
102
RTVSPropertyOp12
 70
     1
102
RTVSPropertyOp13
 70
     1
102
RTVSPropertyOp14
 70
     1
102
RTVSPropertyOp15
 70
     1
102
RTVSPropertyOp16
 70
     1
102
RTVSPropertyOp17
 70
     1
102
RTVSPropertyOp18
 70
     1
102
RTVSPropertyOp19
 70
     1
102
RTVSPropertyOp20
 70
     1
102
RTVSPropertyOp21
 70
     1
102
RTVSPropertyOp22
 70
     1
102
RTVSPropertyOp23
 70
     1
102
RTVSPropertyOp24
 70
     1
102
RTVSPropertyOp25
 70
     1
102
RTVSPropertyOp26
 70
     1
102
RTVSPropertyOp27
 70
     1
102
RTVSPropertyOp28
 70
     1
102
RTVSPropertyOp29
 70
     1
102
RTVSPropertyOp30
 70
     1
102
RTVSPropertyOp31
 70
     1
102
RTVSPropertyOp32
 70
     1
102
RTVSPropertyOp33
 70
     1
102
RTVSPropertyOp34
 70
     1
102
RTVSPropertyOp35
 70
     1
102
RTVSPropertyOp36
 70
     1
102
RTVSPropertyOp37
 70
     1
102
RTVSPropertyOp38
 70
     1
102
RTVSPropertyOp39
 70
     1
102
RTVSPropertyOp40
 70
     1
102
RTVSPropertyOp41
 70
     1
102
RTVSPropertyOp42
 70
     1
102
RTVSPropertyOp43
 70
     1
102
RTVSPropertyOp44
 70
     1
102
RTVSPropertyOp45
 70
     1
102
RTVSPropertyOp46
 70
     1
102
RTVSPropertyOp47
 70
     1
102
RTVSPropertyOp48
 70
     1
102
RTVSPropertyOp49
 70
     1
102
RTVSPropertyOp50
 70
     1
102
RTVSPropertyOp51
 70
     0
102
RTVSPropertyOp52
 70
     0
102
RTVSPropertyOp53
 70
     1
102
RTVSPropertyOp54
 70
     1
102
RTVSPropertyOp55
 70
     1
102
RTVSPropertyOp56
 70
     1
102
RTVSPropertyOp57
 70
     1
102
RTVSPropertyOp58
 70
     1
102
RTVSPropertyOp59
 70
     1
102
RTVSPropertyOp60
 70
     1
102
RTVSPropertyOp61
 70
     1
102
RTVSPropertyOp62
 70
     1
  0
XRECORD
  5
82E3
102
{ACAD_REACTORS
330
82E2
102
}
330
82E2
100
AcDbXrecord
280
     1
102
RTVSPost2010Prop28
280
     0
102
RTVSPost2010PropOp28
 70
     1
102
RTVSPost2010Prop29
280
     1
102
RTVSPost2010PropOp29
 70
     1
102
RTVSPost2010Prop30
280
     1
102
RTVSPost2010PropOp30
 70
     1
102
RTVSPost2010Prop31
280
     0
102
RTVSPost2010PropOp31
 70
     1
102
RTVSPost2010Prop32
280
     0
102
RTVSPost2010PropOp32
 70
     1
102
RTVSPost2010Prop33
280
     0
102
RTVSPost2010PropOp33
 70
     1
102
RTVSPost2010Prop34
280
     0
102
RTVSPost2010PropOp34
 70
     1
102
RTVSPost2010Prop35
280
     0
102
RTVSPost2010PropOp35
 70
     1
102
RTVSPost2010Prop36
280
     0
102
RTVSPost2010PropOp36
 70
     1
102
RTVSPost2010Prop37
 90
       50
102
RTVSPost2010PropOp37
 70
     0
102
RTVSPost2010Prop38
140
0.0
102
RTVSPost2010PropOp38
 70
     0
102
RTVSPost2010Prop39
140
1.0
102
RTVSPost2010PropOp39
 70
     0
102
RTVSPost2010Prop40
 90
        0
102
RTVSPost2010PropOp40
 70
     0
102
RTVSPost2010Prop41ColorIndex
 90
       18
102
RTVSPost2010Prop41ColorRGB
 90
        0
102
RTVSPost2010PropOp41
 70
     0
102
RTVSPost2010Prop42
 90
       50
102
RTVSPost2010PropOp42
 70
     0
102
RTVSPost2010Prop43
 90
        3
102
RTVSPost2010PropOp43
 70
     0
102
RTVSPost2010Prop44ColorIndex
 90
        5
102
RTVSPost2010Prop44ColorRGB
 90
      255
102
RTVSPost2010PropOp44
 70
     0
102
RTVSPost2010Prop45
280
     0
102
RTVSPost2010PropOp45
 70
     1
102
RTVSPost2010Prop46
 90
       50
102
RTVSPost2010PropOp46
 70
     0
102
RTVSPost2010Prop47
 90
       50
102
RTVSPost2010PropOp47
 70
     0
102
RTVSPost2010Prop48
 90
       50
102
RTVSPost2010PropOp48
 70
     0
102
RTVSPost2010Prop49
280
     0
102
RTVSPost2010PropOp49
 70
     1
102
RTVSPost2010Prop50
 90
       50
102
RTVSPost2010PropOp50
 70
     0
102
RTVSPost2010Prop51ColorIndex
 90
      256
102
RTVSPost2010Prop51ColorRGB
 90
-16777216
102
RTVSPost2010PropOp51
 70
     0
102
RTVSPost2010Prop52
140
1.0
102
RTVSPost2010PropOp52
 70
     0
102
RTVSPost2010Prop53
 90
        2
102
RTVSPost2010PropOp53
 70
     0
102
RTVSPost2010Prop54
  1
strokes_ogs.tif
102
RTVSPost2010PropOp54
 70
     0
102
RTVSPost2010Prop55
280
     0
102
RTVSPost2010PropOp55
 70
     1
102
RTVSPost2010Prop56
140
1.0
102
RTVSPost2010PropOp56
 70
     0
102
RTVSPost2010Prop57
140
1.0
102
RTVSPost2010PropOp57
 70
     0
102
RTVSPropertyOp0
 70
     0
102
RTVSPropertyOp1
 70
     0
102
RTVSPropertyOp2
 70
     0
102
RTVSPropertyOp3
 70
     0
102
RTVSPropertyOp4
 70
     0
102
RTVSPropertyOp5
 70
     0
102
RTVSPropertyOp6
 70
     0
102
RTVSPropertyOp7
 70
     0
102
RTVSPropertyOp8
 70
     0
102
RTVSPropertyOp9
 70
     0
102
RTVSPropertyOp10
 70
     0
102
RTVSPropertyOp11
 70
     0
102
RTVSPropertyOp12
 70
     0
102
RTVSPropertyOp13
 70
     0
102
RTVSPropertyOp14
 70
     2
102
RTVSPropertyOp15
 70
     0
102
RTVSPropertyOp16
 70
     0
102
RTVSPropertyOp17
 70
     0
102
RTVSPropertyOp18
 70
     0
102
RTVSPropertyOp19
 70
     0
102
RTVSPropertyOp20
 70
     0
102
RTVSPropertyOp21
 70
     0
102
RTVSPropertyOp22
 70
     0
102
RTVSPropertyOp23
 70
     0
102
RTVSPropertyOp24
 70
     0
102
RTVSPropertyOp25
 70
     0
102
RTVSPropertyOp26
 70
     0
102
RTVSPropertyOp27
 70
     0
102
RTVSPropertyOp28
 70
     1
102
RTVSPropertyOp29
 70
     1
102
RTVSPropertyOp30
 70
     1
102
RTVSPropertyOp31
 70
     1
102
RTVSPropertyOp32
 70
     1
102
RTVSPropertyOp33
 70
     1
102
RTVSPropertyOp34
 70
     1
102
RTVSPropertyOp35
 70
     1
102
RTVSPropertyOp36
 70
     1
102
RTVSPropertyOp37
 70
     0
102
RTVSPropertyOp38
 70
     0
102
RTVSPropertyOp39
 70
     0
102
RTVSPropertyOp40
 70
     0
102
RTVSPropertyOp41
 70
     0
102
RTVSPropertyOp42
 70
     0
102
RTVSPropertyOp43
 70
     0
102
RTVSPropertyOp44
 70
     0
102
RTVSPropertyOp45
 70
     1
102
RTVSPropertyOp46
 70
     0
102
RTVSPropertyOp47
 70
     0
102
RTVSPropertyOp48
 70
     0
102
RTVSPropertyOp49
 70
     1
102
RTVSPropertyOp50
 70
     0
102
RTVSPropertyOp51
 70
     0
102
RTVSPropertyOp52
 70
     0
102
RTVSPropertyOp53
 70
     0
102
RTVSPropertyOp54
 70
     0
102
RTVSPropertyOp55
 70
     1
102
RTVSPropertyOp56
 70
     0
102
RTVSPropertyOp57
 70
     0
102
RTVSPropertyOp58
 70
     0
102
RTVSPropertyOp59
 70
     0
102
RTVSPropertyOp60
 70
     0
102
RTVSPropertyOp61
 70
     0
102
RTVSPropertyOp62
 70
     0
  0
XRECORD
  5
82D3
102
{ACAD_REACTORS
330
82D2
102
}
330
82D2
100
AcDbXrecord
280
     1
102
RTVSPost2010Prop28
280
     0
102
RTVSPost2010PropOp28
 70
     1
102
RTVSPost2010Prop29
280
     1
102
RTVSPost2010PropOp29
 70
     1
102
RTVSPost2010Prop30
280
     1
102
RTVSPost2010PropOp30
 70
     1
102
RTVSPost2010Prop31
280
     0
102
RTVSPost2010PropOp31
 70
     1
102
RTVSPost2010Prop32
280
     0
102
RTVSPost2010PropOp32
 70
     1
102
RTVSPost2010Prop33
280
     0
102
RTVSPost2010PropOp33
 70
     1
102
RTVSPost2010Prop34
280
     0
102
RTVSPost2010PropOp34
 70
     1
102
RTVSPost2010Prop35
280
     0
102
RTVSPost2010PropOp35
 70
     1
102
RTVSPost2010Prop36
280
     0
102
RTVSPost2010PropOp36
 70
     1
102
RTVSPost2010Prop37
 90
       50
102
RTVSPost2010PropOp37
 70
     1
102
RTVSPost2010Prop38
140
0.0
102
RTVSPost2010PropOp38
 70
     1
102
RTVSPost2010Prop39
140
1.0
102
RTVSPost2010PropOp39
 70
     1
102
RTVSPost2010Prop40
 90
        0
102
RTVSPost2010PropOp40
 70
     1
102
RTVSPost2010Prop41ColorIndex
 90
       18
102
RTVSPost2010Prop41ColorRGB
 90
        0
102
RTVSPost2010PropOp41
 70
     1
102
RTVSPost2010Prop42
 90
       50
102
RTVSPost2010PropOp42
 70
     1
102
RTVSPost2010Prop43
 90
        3
102
RTVSPost2010PropOp43
 70
     1
102
RTVSPost2010Prop44ColorIndex
 90
        5
102
RTVSPost2010Prop44ColorRGB
 90
      255
102
RTVSPost2010PropOp44
 70
     1
102
RTVSPost2010Prop45
280
     0
102
RTVSPost2010PropOp45
 70
     1
102
RTVSPost2010Prop46
 90
       50
102
RTVSPost2010PropOp46
 70
     1
102
RTVSPost2010Prop47
 90
       50
102
RTVSPost2010PropOp47
 70
     1
102
RTVSPost2010Prop48
 90
       50
102
RTVSPost2010PropOp48
 70
     1
102
RTVSPost2010Prop49
280
     0
102
RTVSPost2010PropOp49
 70
     1
102
RTVSPost2010Prop50
 90
       50
102
RTVSPost2010PropOp50
 70
     1
102
RTVSPost2010Prop51ColorIndex
 90
      256
102
RTVSPost2010Prop51ColorRGB
 90
-16777216
102
RTVSPost2010PropOp51
 70
     0
102
RTVSPost2010Prop52
140
1.0
102
RTVSPost2010PropOp52
 70
     0
102
RTVSPost2010Prop53
 90
        2
102
RTVSPost2010PropOp53
 70
     1
102
RTVSPost2010Prop54
  1
strokes_ogs.tif
102
RTVSPost2010PropOp54
 70
     1
102
RTVSPost2010Prop55
280
     0
102
RTVSPost2010PropOp55
 70
     1
102
RTVSPost2010Prop56
140
1.0
102
RTVSPost2010PropOp56
 70
     1
102
RTVSPost2010Prop57
140
1.0
102
RTVSPost2010PropOp57
 70
     1
102
RTVSPropertyOp0
 70
     1
102
RTVSPropertyOp1
 70
     1
102
RTVSPropertyOp2
 70
     1
102
RTVSPropertyOp3
 70
     1
102
RTVSPropertyOp4
 70
     1
102
RTVSPropertyOp5
 70
     1
102
RTVSPropertyOp6
 70
     1
102
RTVSPropertyOp7
 70
     1
102
RTVSPropertyOp8
 70
     1
102
RTVSPropertyOp9
 70
     1
102
RTVSPropertyOp10
 70
     1
102
RTVSPropertyOp11
 70
     1
102
RTVSPropertyOp12
 70
     1
102
RTVSPropertyOp13
 70
     1
102
RTVSPropertyOp14
 70
     1
102
RTVSPropertyOp15
 70
     1
102
RTVSPropertyOp16
 70
     1
102
RTVSPropertyOp17
 70
     1
102
RTVSPropertyOp18
 70
     1
102
RTVSPropertyOp19
 70
     1
102
RTVSPropertyOp20
 70
     1
102
RTVSPropertyOp21
 70
     1
102
RTVSPropertyOp22
 70
     1
102
RTVSPropertyOp23
 70
     1
102
RTVSPropertyOp24
 70
     1
102
RTVSPropertyOp25
 70
     1
102
RTVSPropertyOp26
 70
     1
102
RTVSPropertyOp27
 70
     1
102
RTVSPropertyOp28
 70
     1
102
RTVSPropertyOp29
 70
     1
102
RTVSPropertyOp30
 70
     1
102
RTVSPropertyOp31
 70
     1
102
RTVSPropertyOp32
 70
     1
102
RTVSPropertyOp33
 70
     1
102
RTVSPropertyOp34
 70
     1
102
RTVSPropertyOp35
 70
     1
102
RTVSPropertyOp36
 70
     1
102
RTVSPropertyOp37
 70
     1
102
RTVSPropertyOp38
 70
     1
102
RTVSPropertyOp39
 70
     1
102
RTVSPropertyOp40
 70
     1
102
RTVSPropertyOp41
 70
     1
102
RTVSPropertyOp42
 70
     1
102
RTVSPropertyOp43
 70
     1
102
RTVSPropertyOp44
 70
     1
102
RTVSPropertyOp45
 70
     1
102
RTVSPropertyOp46
 70
     1
102
RTVSPropertyOp47
 70
     1
102
RTVSPropertyOp48
 70
     1
102
RTVSPropertyOp49
 70
     1
102
RTVSPropertyOp50
 70
     1
102
RTVSPropertyOp51
 70
     0
102
RTVSPropertyOp52
 70
     0
102
RTVSPropertyOp53
 70
     1
102
RTVSPropertyOp54
 70
     1
102
RTVSPropertyOp55
 70
     1
102
RTVSPropertyOp56
 70
     1
102
RTVSPropertyOp57
 70
     1
102
RTVSPropertyOp58
 70
     1
102
RTVSPropertyOp59
 70
     1
102
RTVSPropertyOp60
 70
     1
102
RTVSPropertyOp61
 70
     1
102
RTVSPropertyOp62
 70
     1
  0
XRECORD
  5
82E5
102
{ACAD_REACTORS
330
82E4
102
}
330
82E4
100
AcDbXrecord
280
     1
102
RTVSPost2010Prop28
280
     0
102
RTVSPost2010PropOp28
 70
     1
102
RTVSPost2010Prop29
280
     1
102
RTVSPost2010PropOp29
 70
     1
102
RTVSPost2010Prop30
280
     1
102
RTVSPost2010PropOp30
 70
     1
102
RTVSPost2010Prop31
280
     0
102
RTVSPost2010PropOp31
 70
     1
102
RTVSPost2010Prop32
280
     0
102
RTVSPost2010PropOp32
 70
     1
102
RTVSPost2010Prop33
280
     0
102
RTVSPost2010PropOp33
 70
     1
102
RTVSPost2010Prop34
280
     0
102
RTVSPost2010PropOp34
 70
     1
102
RTVSPost2010Prop35
280
     0
102
RTVSPost2010PropOp35
 70
     1
102
RTVSPost2010Prop36
280
     0
102
RTVSPost2010PropOp36
 70
     1
102
RTVSPost2010Prop37
 90
       50
102
RTVSPost2010PropOp37
 70
     0
102
RTVSPost2010Prop38
140
0.0
102
RTVSPost2010PropOp38
 70
     0
102
RTVSPost2010Prop39
140
1.0
102
RTVSPost2010PropOp39
 70
     0
102
RTVSPost2010Prop40
 90
        0
102
RTVSPost2010PropOp40
 70
     0
102
RTVSPost2010Prop41ColorIndex
 90
       18
102
RTVSPost2010Prop41ColorRGB
 90
        0
102
RTVSPost2010PropOp41
 70
     0
102
RTVSPost2010Prop42
 90
       50
102
RTVSPost2010PropOp42
 70
     0
102
RTVSPost2010Prop43
 90
        3
102
RTVSPost2010PropOp43
 70
     0
102
RTVSPost2010Prop44ColorIndex
 90
        5
102
RTVSPost2010Prop44ColorRGB
 90
      255
102
RTVSPost2010PropOp44
 70
     0
102
RTVSPost2010Prop45
280
     0
102
RTVSPost2010PropOp45
 70
     1
102
RTVSPost2010Prop46
 90
       50
102
RTVSPost2010PropOp46
 70
     0
102
RTVSPost2010Prop47
 90
       50
102
RTVSPost2010PropOp47
 70
     0
102
RTVSPost2010Prop48
 90
       50
102
RTVSPost2010PropOp48
 70
     0
102
RTVSPost2010Prop49
280
     0
102
RTVSPost2010PropOp49
 70
     1
102
RTVSPost2010Prop50
 90
       50
102
RTVSPost2010PropOp50
 70
     0
102
RTVSPost2010Prop51ColorIndex
 90
      256
102
RTVSPost2010Prop51ColorRGB
 90
-16777216
102
RTVSPost2010PropOp51
 70
     0
102
RTVSPost2010Prop52
140
1.0
102
RTVSPost2010PropOp52
 70
     0
102
RTVSPost2010Prop53
 90
        2
102
RTVSPost2010PropOp53
 70
     0
102
RTVSPost2010Prop54
  1
strokes_ogs.tif
102
RTVSPost2010PropOp54
 70
     0
102
RTVSPost2010Prop55
280
     0
102
RTVSPost2010PropOp55
 70
     1
102
RTVSPost2010Prop56
140
1.0
102
RTVSPost2010PropOp56
 70
     0
102
RTVSPost2010Prop57
140
1.0
102
RTVSPost2010PropOp57
 70
     0
102
RTVSPropertyOp0
 70
     0
102
RTVSPropertyOp1
 70
     0
102
RTVSPropertyOp2
 70
     0
102
RTVSPropertyOp3
 70
     0
102
RTVSPropertyOp4
 70
     0
102
RTVSPropertyOp5
 70
     0
102
RTVSPropertyOp6
 70
     0
102
RTVSPropertyOp7
 70
     0
102
RTVSPropertyOp8
 70
     0
102
RTVSPropertyOp9
 70
     0
102
RTVSPropertyOp10
 70
     0
102
RTVSPropertyOp11
 70
     0
102
RTVSPropertyOp12
 70
     0
102
RTVSPropertyOp13
 70
     0
102
RTVSPropertyOp14
 70
     2
102
RTVSPropertyOp15
 70
     0
102
RTVSPropertyOp16
 70
     0
102
RTVSPropertyOp17
 70
     0
102
RTVSPropertyOp18
 70
     0
102
RTVSPropertyOp19
 70
     0
102
RTVSPropertyOp20
 70
     0
102
RTVSPropertyOp21
 70
     0
102
RTVSPropertyOp22
 70
     0
102
RTVSPropertyOp23
 70
     0
102
RTVSPropertyOp24
 70
     0
102
RTVSPropertyOp25
 70
     0
102
RTVSPropertyOp26
 70
     0
102
RTVSPropertyOp27
 70
     0
102
RTVSPropertyOp28
 70
     1
102
RTVSPropertyOp29
 70
     1
102
RTVSPropertyOp30
 70
     1
102
RTVSPropertyOp31
 70
     1
102
RTVSPropertyOp32
 70
     1
102
RTVSPropertyOp33
 70
     1
102
RTVSPropertyOp34
 70
     1
102
RTVSPropertyOp35
 70
     1
102
RTVSPropertyOp36
 70
     1
102
RTVSPropertyOp37
 70
     0
102
RTVSPropertyOp38
 70
     0
102
RTVSPropertyOp39
 70
     0
102
RTVSPropertyOp40
 70
     0
102
RTVSPropertyOp41
 70
     0
102
RTVSPropertyOp42
 70
     0
102
RTVSPropertyOp43
 70
     0
102
RTVSPropertyOp44
 70
     0
102
RTVSPropertyOp45
 70
     1
102
RTVSPropertyOp46
 70
     0
102
RTVSPropertyOp47
 70
     0
102
RTVSPropertyOp48
 70
     0
102
RTVSPropertyOp49
 70
     1
102
RTVSPropertyOp50
 70
     0
102
RTVSPropertyOp51
 70
     0
102
RTVSPropertyOp52
 70
     0
102
RTVSPropertyOp53
 70
     0
102
RTVSPropertyOp54
 70
     0
102
RTVSPropertyOp55
 70
     1
102
RTVSPropertyOp56
 70
     0
102
RTVSPropertyOp57
 70
     0
102
RTVSPropertyOp58
 70
     0
102
RTVSPropertyOp59
 70
     0
102
RTVSPropertyOp60
 70
     0
102
RTVSPropertyOp61
 70
     0
102
RTVSPropertyOp62
 70
     0
  0
XRECORD
  5
82CB
102
{ACAD_REACTORS
330
82CA
102
}
330
82CA
100
AcDbXrecord
280
     1
102
RTVSPost2010Prop28
280
     0
102
RTVSPost2010PropOp28
 70
     1
102
RTVSPost2010Prop29
280
     1
102
RTVSPost2010PropOp29
 70
     1
102
RTVSPost2010Prop30
280
     1
102
RTVSPost2010PropOp30
 70
     1
102
RTVSPost2010Prop31
280
     0
102
RTVSPost2010PropOp31
 70
     1
102
RTVSPost2010Prop32
280
     0
102
RTVSPost2010PropOp32
 70
     1
102
RTVSPost2010Prop33
280
     0
102
RTVSPost2010PropOp33
 70
     1
102
RTVSPost2010Prop34
280
     0
102
RTVSPost2010PropOp34
 70
     1
102
RTVSPost2010Prop35
280
     0
102
RTVSPost2010PropOp35
 70
     1
102
RTVSPost2010Prop36
280
     0
102
RTVSPost2010PropOp36
 70
     1
102
RTVSPost2010Prop37
 90
       50
102
RTVSPost2010PropOp37
 70
     1
102
RTVSPost2010Prop38
140
0.0
102
RTVSPost2010PropOp38
 70
     1
102
RTVSPost2010Prop39
140
1.0
102
RTVSPost2010PropOp39
 70
     1
102
RTVSPost2010Prop40
 90
        0
102
RTVSPost2010PropOp40
 70
     1
102
RTVSPost2010Prop41ColorIndex
 90
       18
102
RTVSPost2010Prop41ColorRGB
 90
        0
102
RTVSPost2010PropOp41
 70
     1
102
RTVSPost2010Prop42
 90
       50
102
RTVSPost2010PropOp42
 70
     1
102
RTVSPost2010Prop43
 90
        3
102
RTVSPost2010PropOp43
 70
     1
102
RTVSPost2010Prop44ColorIndex
 90
        5
102
RTVSPost2010Prop44ColorRGB
 90
      255
102
RTVSPost2010PropOp44
 70
     1
102
RTVSPost2010Prop45
280
     0
102
RTVSPost2010PropOp45
 70
     1
102
RTVSPost2010Prop46
 90
       50
102
RTVSPost2010PropOp46
 70
     1
102
RTVSPost2010Prop47
 90
       50
102
RTVSPost2010PropOp47
 70
     1
102
RTVSPost2010Prop48
 90
       50
102
RTVSPost2010PropOp48
 70
     1
102
RTVSPost2010Prop49
280
     0
102
RTVSPost2010PropOp49
 70
     1
102
RTVSPost2010Prop50
 90
       50
102
RTVSPost2010PropOp50
 70
     1
102
RTVSPost2010Prop51ColorIndex
 90
      256
102
RTVSPost2010Prop51ColorRGB
 90
-16777216
102
RTVSPost2010PropOp51
 70
     0
102
RTVSPost2010Prop52
140
1.0
102
RTVSPost2010PropOp52
 70
     0
102
RTVSPost2010Prop53
 90
        2
102
RTVSPost2010PropOp53
 70
     1
102
RTVSPost2010Prop54
  1
strokes_ogs.tif
102
RTVSPost2010PropOp54
 70
     1
102
RTVSPost2010Prop55
280
     0
102
RTVSPost2010PropOp55
 70
     1
102
RTVSPost2010Prop56
140
1.0
102
RTVSPost2010PropOp56
 70
     1
102
RTVSPost2010Prop57
140
1.0
102
RTVSPost2010PropOp57
 70
     1
102
RTVSPropertyOp0
 70
     1
102
RTVSPropertyOp1
 70
     1
102
RTVSPropertyOp2
 70
     1
102
RTVSPropertyOp3
 70
     1
102
RTVSPropertyOp4
 70
     1
102
RTVSPropertyOp5
 70
     1
102
RTVSPropertyOp6
 70
     1
102
RTVSPropertyOp7
 70
     1
102
RTVSPropertyOp8
 70
     1
102
RTVSPropertyOp9
 70
     1
102
RTVSPropertyOp10
 70
     1
102
RTVSPropertyOp11
 70
     1
102
RTVSPropertyOp12
 70
     1
102
RTVSPropertyOp13
 70
     1
102
RTVSPropertyOp14
 70
     1
102
RTVSPropertyOp15
 70
     1
102
RTVSPropertyOp16
 70
     1
102
RTVSPropertyOp17
 70
     1
102
RTVSPropertyOp18
 70
     1
102
RTVSPropertyOp19
 70
     1
102
RTVSPropertyOp20
 70
     1
102
RTVSPropertyOp21
 70
     1
102
RTVSPropertyOp22
 70
     1
102
RTVSPropertyOp23
 70
     1
102
RTVSPropertyOp24
 70
     1
102
RTVSPropertyOp25
 70
     1
102
RTVSPropertyOp26
 70
     1
102
RTVSPropertyOp27
 70
     1
102
RTVSPropertyOp28
 70
     1
102
RTVSPropertyOp29
 70
     1
102
RTVSPropertyOp30
 70
     1
102
RTVSPropertyOp31
 70
     1
102
RTVSPropertyOp32
 70
     1
102
RTVSPropertyOp33
 70
     1
102
RTVSPropertyOp34
 70
     1
102
RTVSPropertyOp35
 70
     1
102
RTVSPropertyOp36
 70
     1
102
RTVSPropertyOp37
 70
     1
102
RTVSPropertyOp38
 70
     1
102
RTVSPropertyOp39
 70
     1
102
RTVSPropertyOp40
 70
     1
102
RTVSPropertyOp41
 70
     1
102
RTVSPropertyOp42
 70
     1
102
RTVSPropertyOp43
 70
     1
102
RTVSPropertyOp44
 70
     1
102
RTVSPropertyOp45
 70
     1
102
RTVSPropertyOp46
 70
     1
102
RTVSPropertyOp47
 70
     1
102
RTVSPropertyOp48
 70
     1
102
RTVSPropertyOp49
 70
     1
102
RTVSPropertyOp50
 70
     1
102
RTVSPropertyOp51
 70
     0
102
RTVSPropertyOp52
 70
     0
102
RTVSPropertyOp53
 70
     1
102
RTVSPropertyOp54
 70
     1
102
RTVSPropertyOp55
 70
     1
102
RTVSPropertyOp56
 70
     1
102
RTVSPropertyOp57
 70
     1
102
RTVSPropertyOp58
 70
     1
102
RTVSPropertyOp59
 70
     1
102
RTVSPropertyOp60
 70
     1
102
RTVSPropertyOp61
 70
     1
102
RTVSPropertyOp62
 70
     1
  0
XRECORD
  5
82E1
102
{ACAD_REACTORS
330
82E0
102
}
330
82E0
100
AcDbXrecord
280
     1
102
RTVSPost2010Prop28
280
     0
102
RTVSPost2010PropOp28
 70
     1
102
RTVSPost2010Prop29
280
     1
102
RTVSPost2010PropOp29
 70
     1
102
RTVSPost2010Prop30
280
     1
102
RTVSPost2010PropOp30
 70
     1
102
RTVSPost2010Prop31
280
     0
102
RTVSPost2010PropOp31
 70
     1
102
RTVSPost2010Prop32
280
     0
102
RTVSPost2010PropOp32
 70
     1
102
RTVSPost2010Prop33
280
     0
102
RTVSPost2010PropOp33
 70
     1
102
RTVSPost2010Prop34
280
     0
102
RTVSPost2010PropOp34
 70
     1
102
RTVSPost2010Prop35
280
     0
102
RTVSPost2010PropOp35
 70
     1
102
RTVSPost2010Prop36
280
     0
102
RTVSPost2010PropOp36
 70
     1
102
RTVSPost2010Prop37
 90
       50
102
RTVSPost2010PropOp37
 70
     1
102
RTVSPost2010Prop38
140
0.0
102
RTVSPost2010PropOp38
 70
     1
102
RTVSPost2010Prop39
140
1.0
102
RTVSPost2010PropOp39
 70
     1
102
RTVSPost2010Prop40
 90
        0
102
RTVSPost2010PropOp40
 70
     1
102
RTVSPost2010Prop41ColorIndex
 90
       18
102
RTVSPost2010Prop41ColorRGB
 90
        0
102
RTVSPost2010PropOp41
 70
     1
102
RTVSPost2010Prop42
 90
       50
102
RTVSPost2010PropOp42
 70
     1
102
RTVSPost2010Prop43
 90
        3
102
RTVSPost2010PropOp43
 70
     1
102
RTVSPost2010Prop44ColorIndex
 90
        5
102
RTVSPost2010Prop44ColorRGB
 90
      255
102
RTVSPost2010PropOp44
 70
     1
102
RTVSPost2010Prop45
280
     0
102
RTVSPost2010PropOp45
 70
     1
102
RTVSPost2010Prop46
 90
       50
102
RTVSPost2010PropOp46
 70
     1
102
RTVSPost2010Prop47
 90
       50
102
RTVSPost2010PropOp47
 70
     1
102
RTVSPost2010Prop48
 90
       50
102
RTVSPost2010PropOp48
 70
     1
102
RTVSPost2010Prop49
280
     0
102
RTVSPost2010PropOp49
 70
     1
102
RTVSPost2010Prop50
 90
       50
102
RTVSPost2010PropOp50
 70
     1
102
RTVSPost2010Prop51ColorIndex
 90
      256
102
RTVSPost2010Prop51ColorRGB
 90
-16777216
102
RTVSPost2010PropOp51
 70
     0
102
RTVSPost2010Prop52
140
1.0
102
RTVSPost2010PropOp52
 70
     0
102
RTVSPost2010Prop53
 90
        2
102
RTVSPost2010PropOp53
 70
     1
102
RTVSPost2010Prop54
  1
strokes_ogs.tif
102
RTVSPost2010PropOp54
 70
     1
102
RTVSPost2010Prop55
280
     0
102
RTVSPost2010PropOp55
 70
     1
102
RTVSPost2010Prop56
140
1.0
102
RTVSPost2010PropOp56
 70
     1
102
RTVSPost2010Prop57
140
1.0
102
RTVSPost2010PropOp57
 70
     1
102
RTVSPropertyOp0
 70
     1
102
RTVSPropertyOp1
 70
     1
102
RTVSPropertyOp2
 70
     1
102
RTVSPropertyOp3
 70
     1
102
RTVSPropertyOp4
 70
     1
102
RTVSPropertyOp5
 70
     1
102
RTVSPropertyOp6
 70
     1
102
RTVSPropertyOp7
 70
     1
102
RTVSPropertyOp8
 70
     1
102
RTVSPropertyOp9
 70
     1
102
RTVSPropertyOp10
 70
     1
102
RTVSPropertyOp11
 70
     1
102
RTVSPropertyOp12
 70
     1
102
RTVSPropertyOp13
 70
     1
102
RTVSPropertyOp14
 70
     1
102
RTVSPropertyOp15
 70
     1
102
RTVSPropertyOp16
 70
     1
102
RTVSPropertyOp17
 70
     1
102
RTVSPropertyOp18
 70
     1
102
RTVSPropertyOp19
 70
     1
102
RTVSPropertyOp20
 70
     1
102
RTVSPropertyOp21
 70
     1
102
RTVSPropertyOp22
 70
     1
102
RTVSPropertyOp23
 70
     1
102
RTVSPropertyOp24
 70
     1
102
RTVSPropertyOp25
 70
     1
102
RTVSPropertyOp26
 70
     1
102
RTVSPropertyOp27
 70
     1
102
RTVSPropertyOp28
 70
     1
102
RTVSPropertyOp29
 70
     1
102
RTVSPropertyOp30
 70
     1
102
RTVSPropertyOp31
 70
     1
102
RTVSPropertyOp32
 70
     1
102
RTVSPropertyOp33
 70
     1
102
RTVSPropertyOp34
 70
     1
102
RTVSPropertyOp35
 70
     1
102
RTVSPropertyOp36
 70
     1
102
RTVSPropertyOp37
 70
     1
102
RTVSPropertyOp38
 70
     1
102
RTVSPropertyOp39
 70
     1
102
RTVSPropertyOp40
 70
     1
102
RTVSPropertyOp41
 70
     1
102
RTVSPropertyOp42
 70
     1
102
RTVSPropertyOp43
 70
     1
102
RTVSPropertyOp44
 70
     1
102
RTVSPropertyOp45
 70
     1
102
RTVSPropertyOp46
 70
     1
102
RTVSPropertyOp47
 70
     1
102
RTVSPropertyOp48
 70
     1
102
RTVSPropertyOp49
 70
     1
102
RTVSPropertyOp50
 70
     1
102
RTVSPropertyOp51
 70
     0
102
RTVSPropertyOp52
 70
     0
102
RTVSPropertyOp53
 70
     1
102
RTVSPropertyOp54
 70
     1
102
RTVSPropertyOp55
 70
     1
102
RTVSPropertyOp56
 70
     1
102
RTVSPropertyOp57
 70
     1
102
RTVSPropertyOp58
 70
     1
102
RTVSPropertyOp59
 70
     1
102
RTVSPropertyOp60
 70
     1
102
RTVSPropertyOp61
 70
     1
102
RTVSPropertyOp62
 70
     1
  0
XRECORD
  5
82DF
102
{ACAD_REACTORS
330
82DE
102
}
330
82DE
100
AcDbXrecord
280
     1
102
RTVSPost2010Prop28
280
     0
102
RTVSPost2010PropOp28
 70
     1
102
RTVSPost2010Prop29
280
     1
102
RTVSPost2010PropOp29
 70
     1
102
RTVSPost2010Prop30
280
     1
102
RTVSPost2010PropOp30
 70
     1
102
RTVSPost2010Prop31
280
     0
102
RTVSPost2010PropOp31
 70
     1
102
RTVSPost2010Prop32
280
     0
102
RTVSPost2010PropOp32
 70
     1
102
RTVSPost2010Prop33
280
     0
102
RTVSPost2010PropOp33
 70
     1
102
RTVSPost2010Prop34
280
     0
102
RTVSPost2010PropOp34
 70
     1
102
RTVSPost2010Prop35
280
     0
102
RTVSPost2010PropOp35
 70
     1
102
RTVSPost2010Prop36
280
     0
102
RTVSPost2010PropOp36
 70
     1
102
RTVSPost2010Prop37
 90
       50
102
RTVSPost2010PropOp37
 70
     1
102
RTVSPost2010Prop38
140
0.0
102
RTVSPost2010PropOp38
 70
     1
102
RTVSPost2010Prop39
140
1.0
102
RTVSPost2010PropOp39
 70
     1
102
RTVSPost2010Prop40
 90
        0
102
RTVSPost2010PropOp40
 70
     1
102
RTVSPost2010Prop41ColorIndex
 90
       18
102
RTVSPost2010Prop41ColorRGB
 90
        0
102
RTVSPost2010PropOp41
 70
     1
102
RTVSPost2010Prop42
 90
       50
102
RTVSPost2010PropOp42
 70
     1
102
RTVSPost2010Prop43
 90
        3
102
RTVSPost2010PropOp43
 70
     1
102
RTVSPost2010Prop44ColorIndex
 90
        5
102
RTVSPost2010Prop44ColorRGB
 90
      255
102
RTVSPost2010PropOp44
 70
     1
102
RTVSPost2010Prop45
280
     0
102
RTVSPost2010PropOp45
 70
     1
102
RTVSPost2010Prop46
 90
       50
102
RTVSPost2010PropOp46
 70
     1
102
RTVSPost2010Prop47
 90
       50
102
RTVSPost2010PropOp47
 70
     1
102
RTVSPost2010Prop48
 90
       50
102
RTVSPost2010PropOp48
 70
     1
102
RTVSPost2010Prop49
280
     0
102
RTVSPost2010PropOp49
 70
     1
102
RTVSPost2010Prop50
 90
       50
102
RTVSPost2010PropOp50
 70
     1
102
RTVSPost2010Prop51ColorIndex
 90
      256
102
RTVSPost2010Prop51ColorRGB
 90
-16777216
102
RTVSPost2010PropOp51
 70
     0
102
RTVSPost2010Prop52
140
1.0
102
RTVSPost2010PropOp52
 70
     0
102
RTVSPost2010Prop53
 90
        2
102
RTVSPost2010PropOp53
 70
     1
102
RTVSPost2010Prop54
  1
strokes_ogs.tif
102
RTVSPost2010PropOp54
 70
     1
102
RTVSPost2010Prop55
280
     0
102
RTVSPost2010PropOp55
 70
     1
102
RTVSPost2010Prop56
140
1.0
102
RTVSPost2010PropOp56
 70
     1
102
RTVSPost2010Prop57
140
1.0
102
RTVSPost2010PropOp57
 70
     1
102
RTVSPropertyOp0
 70
     1
102
RTVSPropertyOp1
 70
     1
102
RTVSPropertyOp2
 70
     1
102
RTVSPropertyOp3
 70
     1
102
RTVSPropertyOp4
 70
     1
102
RTVSPropertyOp5
 70
     1
102
RTVSPropertyOp6
 70
     1
102
RTVSPropertyOp7
 70
     1
102
RTVSPropertyOp8
 70
     1
102
RTVSPropertyOp9
 70
     1
102
RTVSPropertyOp10
 70
     1
102
RTVSPropertyOp11
 70
     1
102
RTVSPropertyOp12
 70
     1
102
RTVSPropertyOp13
 70
     1
102
RTVSPropertyOp14
 70
     1
102
RTVSPropertyOp15
 70
     1
102
RTVSPropertyOp16
 70
     1
102
RTVSPropertyOp17
 70
     1
102
RTVSPropertyOp18
 70
     1
102
RTVSPropertyOp19
 70
     1
102
RTVSPropertyOp20
 70
     1
102
RTVSPropertyOp21
 70
     1
102
RTVSPropertyOp22
 70
     1
102
RTVSPropertyOp23
 70
     1
102
RTVSPropertyOp24
 70
     1
102
RTVSPropertyOp25
 70
     1
102
RTVSPropertyOp26
 70
     1
102
RTVSPropertyOp27
 70
     1
102
RTVSPropertyOp28
 70
     1
102
RTVSPropertyOp29
 70
     1
102
RTVSPropertyOp30
 70
     1
102
RTVSPropertyOp31
 70
     1
102
RTVSPropertyOp32
 70
     1
102
RTVSPropertyOp33
 70
     1
102
RTVSPropertyOp34
 70
     1
102
RTVSPropertyOp35
 70
     1
102
RTVSPropertyOp36
 70
     1
102
RTVSPropertyOp37
 70
     1
102
RTVSPropertyOp38
 70
     1
102
RTVSPropertyOp39
 70
     1
102
RTVSPropertyOp40
 70
     1
102
RTVSPropertyOp41
 70
     1
102
RTVSPropertyOp42
 70
     1
102
RTVSPropertyOp43
 70
     1
102
RTVSPropertyOp44
 70
     1
102
RTVSPropertyOp45
 70
     1
102
RTVSPropertyOp46
 70
     1
102
RTVSPropertyOp47
 70
     1
102
RTVSPropertyOp48
 70
     1
102
RTVSPropertyOp49
 70
     1
102
RTVSPropertyOp50
 70
     1
102
RTVSPropertyOp51
 70
     0
102
RTVSPropertyOp52
 70
     0
102
RTVSPropertyOp53
 70
     1
102
RTVSPropertyOp54
 70
     1
102
RTVSPropertyOp55
 70
     1
102
RTVSPropertyOp56
 70
     1
102
RTVSPropertyOp57
 70
     1
102
RTVSPropertyOp58
 70
     1
102
RTVSPropertyOp59
 70
     1
102
RTVSPropertyOp60
 70
     1
102
RTVSPropertyOp61
 70
     1
102
RTVSPropertyOp62
 70
     1
  0
XRECORD
  5
82D9
102
{ACAD_REACTORS
330
82D8
102
}
330
82D8
100
AcDbXrecord
280
     1
102
RTVSPost2010Prop28
280
     0
102
RTVSPost2010PropOp28
 70
     1
102
RTVSPost2010Prop29
280
     1
102
RTVSPost2010PropOp29
 70
     1
102
RTVSPost2010Prop30
280
     1
102
RTVSPost2010PropOp30
 70
     1
102
RTVSPost2010Prop31
280
     0
102
RTVSPost2010PropOp31
 70
     1
102
RTVSPost2010Prop32
280
     0
102
RTVSPost2010PropOp32
 70
     1
102
RTVSPost2010Prop33
280
     0
102
RTVSPost2010PropOp33
 70
     1
102
RTVSPost2010Prop34
280
     0
102
RTVSPost2010PropOp34
 70
     1
102
RTVSPost2010Prop35
280
     0
102
RTVSPost2010PropOp35
 70
     1
102
RTVSPost2010Prop36
280
     0
102
RTVSPost2010PropOp36
 70
     1
102
RTVSPost2010Prop37
 90
       50
102
RTVSPost2010PropOp37
 70
     1
102
RTVSPost2010Prop38
140
0.0
102
RTVSPost2010PropOp38
 70
     1
102
RTVSPost2010Prop39
140
1.0
102
RTVSPost2010PropOp39
 70
     1
102
RTVSPost2010Prop40
 90
        0
102
RTVSPost2010PropOp40
 70
     1
102
RTVSPost2010Prop41ColorIndex
 90
       18
102
RTVSPost2010Prop41ColorRGB
 90
        0
102
RTVSPost2010PropOp41
 70
     1
102
RTVSPost2010Prop42
 90
       50
102
RTVSPost2010PropOp42
 70
     1
102
RTVSPost2010Prop43
 90
        3
102
RTVSPost2010PropOp43
 70
     1
102
RTVSPost2010Prop44ColorIndex
 90
        5
102
RTVSPost2010Prop44ColorRGB
 90
      255
102
RTVSPost2010PropOp44
 70
     1
102
RTVSPost2010Prop45
280
     0
102
RTVSPost2010PropOp45
 70
     1
102
RTVSPost2010Prop46
 90
       50
102
RTVSPost2010PropOp46
 70
     1
102
RTVSPost2010Prop47
 90
       50
102
RTVSPost2010PropOp47
 70
     1
102
RTVSPost2010Prop48
 90
       50
102
RTVSPost2010PropOp48
 70
     1
102
RTVSPost2010Prop49
280
     0
102
RTVSPost2010PropOp49
 70
     1
102
RTVSPost2010Prop50
 90
       50
102
RTVSPost2010PropOp50
 70
     1
102
RTVSPost2010Prop51ColorIndex
 90
      256
102
RTVSPost2010Prop51ColorRGB
 90
-16777216
102
RTVSPost2010PropOp51
 70
     0
102
RTVSPost2010Prop52
140
1.0
102
RTVSPost2010PropOp52
 70
     0
102
RTVSPost2010Prop53
 90
        2
102
RTVSPost2010PropOp53
 70
     1
102
RTVSPost2010Prop54
  1
strokes_ogs.tif
102
RTVSPost2010PropOp54
 70
     1
102
RTVSPost2010Prop55
280
     0
102
RTVSPost2010PropOp55
 70
     1
102
RTVSPost2010Prop56
140
1.0
102
RTVSPost2010PropOp56
 70
     1
102
RTVSPost2010Prop57
140
1.0
102
RTVSPost2010PropOp57
 70
     1
102
RTVSPropertyOp0
 70
     1
102
RTVSPropertyOp1
 70
     1
102
RTVSPropertyOp2
 70
     1
102
RTVSPropertyOp3
 70
     1
102
RTVSPropertyOp4
 70
     1
102
RTVSPropertyOp5
 70
     1
102
RTVSPropertyOp6
 70
     1
102
RTVSPropertyOp7
 70
     1
102
RTVSPropertyOp8
 70
     1
102
RTVSPropertyOp9
 70
     1
102
RTVSPropertyOp10
 70
     1
102
RTVSPropertyOp11
 70
     1
102
RTVSPropertyOp12
 70
     1
102
RTVSPropertyOp13
 70
     1
102
RTVSPropertyOp14
 70
     1
102
RTVSPropertyOp15
 70
     1
102
RTVSPropertyOp16
 70
     1
102
RTVSPropertyOp17
 70
     1
102
RTVSPropertyOp18
 70
     1
102
RTVSPropertyOp19
 70
     1
102
RTVSPropertyOp20
 70
     1
102
RTVSPropertyOp21
 70
     1
102
RTVSPropertyOp22
 70
     1
102
RTVSPropertyOp23
 70
     1
102
RTVSPropertyOp24
 70
     1
102
RTVSPropertyOp25
 70
     1
102
RTVSPropertyOp26
 70
     1
102
RTVSPropertyOp27
 70
     1
102
RTVSPropertyOp28
 70
     1
102
RTVSPropertyOp29
 70
     1
102
RTVSPropertyOp30
 70
     1
102
RTVSPropertyOp31
 70
     1
102
RTVSPropertyOp32
 70
     1
102
RTVSPropertyOp33
 70
     1
102
RTVSPropertyOp34
 70
     1
102
RTVSPropertyOp35
 70
     1
102
RTVSPropertyOp36
 70
     1
102
RTVSPropertyOp37
 70
     1
102
RTVSPropertyOp38
 70
     1
102
RTVSPropertyOp39
 70
     1
102
RTVSPropertyOp40
 70
     1
102
RTVSPropertyOp41
 70
     1
102
RTVSPropertyOp42
 70
     1
102
RTVSPropertyOp43
 70
     1
102
RTVSPropertyOp44
 70
     1
102
RTVSPropertyOp45
 70
     1
102
RTVSPropertyOp46
 70
     1
102
RTVSPropertyOp47
 70
     1
102
RTVSPropertyOp48
 70
     1
102
RTVSPropertyOp49
 70
     1
102
RTVSPropertyOp50
 70
     1
102
RTVSPropertyOp51
 70
     0
102
RTVSPropertyOp52
 70
     0
102
RTVSPropertyOp53
 70
     1
102
RTVSPropertyOp54
 70
     1
102
RTVSPropertyOp55
 70
     1
102
RTVSPropertyOp56
 70
     1
102
RTVSPropertyOp57
 70
     1
102
RTVSPropertyOp58
 70
     1
102
RTVSPropertyOp59
 70
     1
102
RTVSPropertyOp60
 70
     1
102
RTVSPropertyOp61
 70
     1
102
RTVSPropertyOp62
 70
     1
  0
XRECORD
  5
82DB
102
{ACAD_REACTORS
330
82DA
102
}
330
82DA
100
AcDbXrecord
280
     1
102
RTVSPost2010Prop28
280
     0
102
RTVSPost2010PropOp28
 70
     1
102
RTVSPost2010Prop29
280
     1
102
RTVSPost2010PropOp29
 70
     1
102
RTVSPost2010Prop30
280
     1
102
RTVSPost2010PropOp30
 70
     1
102
RTVSPost2010Prop31
280
     0
102
RTVSPost2010PropOp31
 70
     1
102
RTVSPost2010Prop32
280
     0
102
RTVSPost2010PropOp32
 70
     1
102
RTVSPost2010Prop33
280
     0
102
RTVSPost2010PropOp33
 70
     1
102
RTVSPost2010Prop34
280
     0
102
RTVSPost2010PropOp34
 70
     1
102
RTVSPost2010Prop35
280
     0
102
RTVSPost2010PropOp35
 70
     1
102
RTVSPost2010Prop36
280
     0
102
RTVSPost2010PropOp36
 70
     1
102
RTVSPost2010Prop37
 90
       50
102
RTVSPost2010PropOp37
 70
     1
102
RTVSPost2010Prop38
140
0.0
102
RTVSPost2010PropOp38
 70
     1
102
RTVSPost2010Prop39
140
1.0
102
RTVSPost2010PropOp39
 70
     1
102
RTVSPost2010Prop40
 90
        0
102
RTVSPost2010PropOp40
 70
     1
102
RTVSPost2010Prop41ColorIndex
 90
       18
102
RTVSPost2010Prop41ColorRGB
 90
        0
102
RTVSPost2010PropOp41
 70
     1
102
RTVSPost2010Prop42
 90
       50
102
RTVSPost2010PropOp42
 70
     1
102
RTVSPost2010Prop43
 90
        3
102
RTVSPost2010PropOp43
 70
     1
102
RTVSPost2010Prop44ColorIndex
 90
        5
102
RTVSPost2010Prop44ColorRGB
 90
      255
102
RTVSPost2010PropOp44
 70
     1
102
RTVSPost2010Prop45
280
     0
102
RTVSPost2010PropOp45
 70
     1
102
RTVSPost2010Prop46
 90
       50
102
RTVSPost2010PropOp46
 70
     1
102
RTVSPost2010Prop47
 90
       50
102
RTVSPost2010PropOp47
 70
     1
102
RTVSPost2010Prop48
 90
       50
102
RTVSPost2010PropOp48
 70
     1
102
RTVSPost2010Prop49
280
     0
102
RTVSPost2010PropOp49
 70
     1
102
RTVSPost2010Prop50
 90
       50
102
RTVSPost2010PropOp50
 70
     1
102
RTVSPost2010Prop51ColorIndex
 90
      256
102
RTVSPost2010Prop51ColorRGB
 90
-16777216
102
RTVSPost2010PropOp51
 70
     0
102
RTVSPost2010Prop52
140
1.0
102
RTVSPost2010PropOp52
 70
     0
102
RTVSPost2010Prop53
 90
        2
102
RTVSPost2010PropOp53
 70
     1
102
RTVSPost2010Prop54
  1
strokes_ogs.tif
102
RTVSPost2010PropOp54
 70
     1
102
RTVSPost2010Prop55
280
     0
102
RTVSPost2010PropOp55
 70
     1
102
RTVSPost2010Prop56
140
1.0
102
RTVSPost2010PropOp56
 70
     1
102
RTVSPost2010Prop57
140
1.0
102
RTVSPost2010PropOp57
 70
     1
102
RTVSPropertyOp0
 70
     1
102
RTVSPropertyOp1
 70
     1
102
RTVSPropertyOp2
 70
     1
102
RTVSPropertyOp3
 70
     1
102
RTVSPropertyOp4
 70
     1
102
RTVSPropertyOp5
 70
     1
102
RTVSPropertyOp6
 70
     1
102
RTVSPropertyOp7
 70
     1
102
RTVSPropertyOp8
 70
     1
102
RTVSPropertyOp9
 70
     1
102
RTVSPropertyOp10
 70
     1
102
RTVSPropertyOp11
 70
     1
102
RTVSPropertyOp12
 70
     1
102
RTVSPropertyOp13
 70
     1
102
RTVSPropertyOp14
 70
     1
102
RTVSPropertyOp15
 70
     1
102
RTVSPropertyOp16
 70
     1
102
RTVSPropertyOp17
 70
     1
102
RTVSPropertyOp18
 70
     1
102
RTVSPropertyOp19
 70
     1
102
RTVSPropertyOp20
 70
     1
102
RTVSPropertyOp21
 70
     1
102
RTVSPropertyOp22
 70
     1
102
RTVSPropertyOp23
 70
     1
102
RTVSPropertyOp24
 70
     1
102
RTVSPropertyOp25
 70
     1
102
RTVSPropertyOp26
 70
     1
102
RTVSPropertyOp27
 70
     1
102
RTVSPropertyOp28
 70
     1
102
RTVSPropertyOp29
 70
     1
102
RTVSPropertyOp30
 70
     1
102
RTVSPropertyOp31
 70
     1
102
RTVSPropertyOp32
 70
     1
102
RTVSPropertyOp33
 70
     1
102
RTVSPropertyOp34
 70
     1
102
RTVSPropertyOp35
 70
     1
102
RTVSPropertyOp36
 70
     1
102
RTVSPropertyOp37
 70
     1
102
RTVSPropertyOp38
 70
     1
102
RTVSPropertyOp39
 70
     1
102
RTVSPropertyOp40
 70
     1
102
RTVSPropertyOp41
 70
     1
102
RTVSPropertyOp42
 70
     1
102
RTVSPropertyOp43
 70
     1
102
RTVSPropertyOp44
 70
     1
102
RTVSPropertyOp45
 70
     1
102
RTVSPropertyOp46
 70
     1
102
RTVSPropertyOp47
 70
     1
102
RTVSPropertyOp48
 70
     1
102
RTVSPropertyOp49
 70
     1
102
RTVSPropertyOp50
 70
     1
102
RTVSPropertyOp51
 70
     0
102
RTVSPropertyOp52
 70
     0
102
RTVSPropertyOp53
 70
     1
102
RTVSPropertyOp54
 70
     1
102
RTVSPropertyOp55
 70
     1
102
RTVSPropertyOp56
 70
     1
102
RTVSPropertyOp57
 70
     1
102
RTVSPropertyOp58
 70
     1
102
RTVSPropertyOp59
 70
     1
102
RTVSPropertyOp60
 70
     1
102
RTVSPropertyOp61
 70
     1
102
RTVSPropertyOp62
 70
     1
  0
XRECORD
  5
82D1
102
{ACAD_REACTORS
330
82D0
102
}
330
82D0
100
AcDbXrecord
280
     1
102
RTVSPost2010Prop28
280
     0
102
RTVSPost2010PropOp28
 70
     1
102
RTVSPost2010Prop29
280
     1
102
RTVSPost2010PropOp29
 70
     1
102
RTVSPost2010Prop30
280
     1
102
RTVSPost2010PropOp30
 70
     1
102
RTVSPost2010Prop31
280
     0
102
RTVSPost2010PropOp31
 70
     1
102
RTVSPost2010Prop32
280
     0
102
RTVSPost2010PropOp32
 70
     1
102
RTVSPost2010Prop33
280
     0
102
RTVSPost2010PropOp33
 70
     1
102
RTVSPost2010Prop34
280
     0
102
RTVSPost2010PropOp34
 70
     1
102
RTVSPost2010Prop35
280
     0
102
RTVSPost2010PropOp35
 70
     1
102
RTVSPost2010Prop36
280
     0
102
RTVSPost2010PropOp36
 70
     1
102
RTVSPost2010Prop37
 90
       50
102
RTVSPost2010PropOp37
 70
     1
102
RTVSPost2010Prop38
140
0.0
102
RTVSPost2010PropOp38
 70
     1
102
RTVSPost2010Prop39
140
1.0
102
RTVSPost2010PropOp39
 70
     1
102
RTVSPost2010Prop40
 90
        0
102
RTVSPost2010PropOp40
 70
     1
102
RTVSPost2010Prop41ColorIndex
 90
       18
102
RTVSPost2010Prop41ColorRGB
 90
        0
102
RTVSPost2010PropOp41
 70
     1
102
RTVSPost2010Prop42
 90
       50
102
RTVSPost2010PropOp42
 70
     1
102
RTVSPost2010Prop43
 90
        3
102
RTVSPost2010PropOp43
 70
     1
102
RTVSPost2010Prop44ColorIndex
 90
        5
102
RTVSPost2010Prop44ColorRGB
 90
      255
102
RTVSPost2010PropOp44
 70
     1
102
RTVSPost2010Prop45
280
     0
102
RTVSPost2010PropOp45
 70
     1
102
RTVSPost2010Prop46
 90
       50
102
RTVSPost2010PropOp46
 70
     1
102
RTVSPost2010Prop47
 90
       50
102
RTVSPost2010PropOp47
 70
     1
102
RTVSPost2010Prop48
 90
       50
102
RTVSPost2010PropOp48
 70
     1
102
RTVSPost2010Prop49
280
     0
102
RTVSPost2010PropOp49
 70
     1
102
RTVSPost2010Prop50
 90
       50
102
RTVSPost2010PropOp50
 70
     1
102
RTVSPost2010Prop51ColorIndex
 90
      256
102
RTVSPost2010Prop51ColorRGB
 90
-16777216
102
RTVSPost2010PropOp51
 70
     0
102
RTVSPost2010Prop52
140
1.0
102
RTVSPost2010PropOp52
 70
     0
102
RTVSPost2010Prop53
 90
        2
102
RTVSPost2010PropOp53
 70
     1
102
RTVSPost2010Prop54
  1
strokes_ogs.tif
102
RTVSPost2010PropOp54
 70
     1
102
RTVSPost2010Prop55
280
     0
102
RTVSPost2010PropOp55
 70
     1
102
RTVSPost2010Prop56
140
1.0
102
RTVSPost2010PropOp56
 70
     1
102
RTVSPost2010Prop57
140
1.0
102
RTVSPost2010PropOp57
 70
     1
102
RTVSPropertyOp0
 70
     1
102
RTVSPropertyOp1
 70
     1
102
RTVSPropertyOp2
 70
     1
102
RTVSPropertyOp3
 70
     1
102
RTVSPropertyOp4
 70
     1
102
RTVSPropertyOp5
 70
     1
102
RTVSPropertyOp6
 70
     1
102
RTVSPropertyOp7
 70
     1
102
RTVSPropertyOp8
 70
     1
102
RTVSPropertyOp9
 70
     1
102
RTVSPropertyOp10
 70
     1
102
RTVSPropertyOp11
 70
     1
102
RTVSPropertyOp12
 70
     1
102
RTVSPropertyOp13
 70
     1
102
RTVSPropertyOp14
 70
     1
102
RTVSPropertyOp15
 70
     1
102
RTVSPropertyOp16
 70
     1
102
RTVSPropertyOp17
 70
     1
102
RTVSPropertyOp18
 70
     1
102
RTVSPropertyOp19
 70
     1
102
RTVSPropertyOp20
 70
     1
102
RTVSPropertyOp21
 70
     1
102
RTVSPropertyOp22
 70
     1
102
RTVSPropertyOp23
 70
     1
102
RTVSPropertyOp24
 70
     1
102
RTVSPropertyOp25
 70
     1
102
RTVSPropertyOp26
 70
     1
102
RTVSPropertyOp27
 70
     1
102
RTVSPropertyOp28
 70
     1
102
RTVSPropertyOp29
 70
     1
102
RTVSPropertyOp30
 70
     1
102
RTVSPropertyOp31
 70
     1
102
RTVSPropertyOp32
 70
     1
102
RTVSPropertyOp33
 70
     1
102
RTVSPropertyOp34
 70
     1
102
RTVSPropertyOp35
 70
     1
102
RTVSPropertyOp36
 70
     1
102
RTVSPropertyOp37
 70
     1
102
RTVSPropertyOp38
 70
     1
102
RTVSPropertyOp39
 70
     1
102
RTVSPropertyOp40
 70
     1
102
RTVSPropertyOp41
 70
     1
102
RTVSPropertyOp42
 70
     1
102
RTVSPropertyOp43
 70
     1
102
RTVSPropertyOp44
 70
     1
102
RTVSPropertyOp45
 70
     1
102
RTVSPropertyOp46
 70
     1
102
RTVSPropertyOp47
 70
     1
102
RTVSPropertyOp48
 70
     1
102
RTVSPropertyOp49
 70
     1
102
RTVSPropertyOp50
 70
     1
102
RTVSPropertyOp51
 70
     0
102
RTVSPropertyOp52
 70
     0
102
RTVSPropertyOp53
 70
     1
102
RTVSPropertyOp54
 70
     1
102
RTVSPropertyOp55
 70
     1
102
RTVSPropertyOp56
 70
     1
102
RTVSPropertyOp57
 70
     1
102
RTVSPropertyOp58
 70
     1
102
RTVSPropertyOp59
 70
     1
102
RTVSPropertyOp60
 70
     1
102
RTVSPropertyOp61
 70
     1
102
RTVSPropertyOp62
 70
     1
  0
XRECORD
  5
82C5
102
{ACAD_REACTORS
330
82C4
102
}
330
82C4
100
AcDbXrecord
280
     1
102
RTVSPost2010Prop28
280
     0
102
RTVSPost2010PropOp28
 70
     1
102
RTVSPost2010Prop29
280
     1
102
RTVSPost2010PropOp29
 70
     1
102
RTVSPost2010Prop30
280
     1
102
RTVSPost2010PropOp30
 70
     1
102
RTVSPost2010Prop31
280
     0
102
RTVSPost2010PropOp31
 70
     1
102
RTVSPost2010Prop32
280
     0
102
RTVSPost2010PropOp32
 70
     1
102
RTVSPost2010Prop33
280
     0
102
RTVSPost2010PropOp33
 70
     1
102
RTVSPost2010Prop34
280
     0
102
RTVSPost2010PropOp34
 70
     1
102
RTVSPost2010Prop35
280
     0
102
RTVSPost2010PropOp35
 70
     1
102
RTVSPost2010Prop36
280
     0
102
RTVSPost2010PropOp36
 70
     1
102
RTVSPost2010Prop37
 90
       50
102
RTVSPost2010PropOp37
 70
     1
102
RTVSPost2010Prop38
140
0.0
102
RTVSPost2010PropOp38
 70
     1
102
RTVSPost2010Prop39
140
1.0
102
RTVSPost2010PropOp39
 70
     1
102
RTVSPost2010Prop40
 90
        0
102
RTVSPost2010PropOp40
 70
     1
102
RTVSPost2010Prop41ColorIndex
 90
       18
102
RTVSPost2010Prop41ColorRGB
 90
        0
102
RTVSPost2010PropOp41
 70
     1
102
RTVSPost2010Prop42
 90
       50
102
RTVSPost2010PropOp42
 70
     1
102
RTVSPost2010Prop43
 90
        3
102
RTVSPost2010PropOp43
 70
     1
102
RTVSPost2010Prop44ColorIndex
 90
        5
102
RTVSPost2010Prop44ColorRGB
 90
      255
102
RTVSPost2010PropOp44
 70
     1
102
RTVSPost2010Prop45
280
     0
102
RTVSPost2010PropOp45
 70
     1
102
RTVSPost2010Prop46
 90
       50
102
RTVSPost2010PropOp46
 70
     1
102
RTVSPost2010Prop47
 90
       50
102
RTVSPost2010PropOp47
 70
     1
102
RTVSPost2010Prop48
 90
       50
102
RTVSPost2010PropOp48
 70
     1
102
RTVSPost2010Prop49
280
     0
102
RTVSPost2010PropOp49
 70
     1
102
RTVSPost2010Prop50
 90
       50
102
RTVSPost2010PropOp50
 70
     1
102
RTVSPost2010Prop51ColorIndex
 90
      256
102
RTVSPost2010Prop51ColorRGB
 90
-16777216
102
RTVSPost2010PropOp51
 70
     0
102
RTVSPost2010Prop52
140
1.0
102
RTVSPost2010PropOp52
 70
     0
102
RTVSPost2010Prop53
 90
        2
102
RTVSPost2010PropOp53
 70
     1
102
RTVSPost2010Prop54
  1
strokes_ogs.tif
102
RTVSPost2010PropOp54
 70
     1
102
RTVSPost2010Prop55
280
     0
102
RTVSPost2010PropOp55
 70
     1
102
RTVSPost2010Prop56
140
1.0
102
RTVSPost2010PropOp56
 70
     1
102
RTVSPost2010Prop57
140
1.0
102
RTVSPost2010PropOp57
 70
     1
102
RTVSPropertyOp0
 70
     1
102
RTVSPropertyOp1
 70
     1
102
RTVSPropertyOp2
 70
     1
102
RTVSPropertyOp3
 70
     1
102
RTVSPropertyOp4
 70
     1
102
RTVSPropertyOp5
 70
     1
102
RTVSPropertyOp6
 70
     1
102
RTVSPropertyOp7
 70
     1
102
RTVSPropertyOp8
 70
     1
102
RTVSPropertyOp9
 70
     1
102
RTVSPropertyOp10
 70
     1
102
RTVSPropertyOp11
 70
     1
102
RTVSPropertyOp12
 70
     1
102
RTVSPropertyOp13
 70
     1
102
RTVSPropertyOp14
 70
     1
102
RTVSPropertyOp15
 70
     1
102
RTVSPropertyOp16
 70
     1
102
RTVSPropertyOp17
 70
     1
102
RTVSPropertyOp18
 70
     1
102
RTVSPropertyOp19
 70
     1
102
RTVSPropertyOp20
 70
     1
102
RTVSPropertyOp21
 70
     1
102
RTVSPropertyOp22
 70
     1
102
RTVSPropertyOp23
 70
     1
102
RTVSPropertyOp24
 70
     1
102
RTVSPropertyOp25
 70
     1
102
RTVSPropertyOp26
 70
     1
102
RTVSPropertyOp27
 70
     1
102
RTVSPropertyOp28
 70
     1
102
RTVSPropertyOp29
 70
     1
102
RTVSPropertyOp30
 70
     1
102
RTVSPropertyOp31
 70
     1
102
RTVSPropertyOp32
 70
     1
102
RTVSPropertyOp33
 70
     1
102
RTVSPropertyOp34
 70
     1
102
RTVSPropertyOp35
 70
     1
102
RTVSPropertyOp36
 70
     1
102
RTVSPropertyOp37
 70
     1
102
RTVSPropertyOp38
 70
     1
102
RTVSPropertyOp39
 70
     1
102
RTVSPropertyOp40
 70
     1
102
RTVSPropertyOp41
 70
     1
102
RTVSPropertyOp42
 70
     1
102
RTVSPropertyOp43
 70
     1
102
RTVSPropertyOp44
 70
     1
102
RTVSPropertyOp45
 70
     1
102
RTVSPropertyOp46
 70
     1
102
RTVSPropertyOp47
 70
     1
102
RTVSPropertyOp48
 70
     1
102
RTVSPropertyOp49
 70
     1
102
RTVSPropertyOp50
 70
     1
102
RTVSPropertyOp51
 70
     0
102
RTVSPropertyOp52
 70
     0
102
RTVSPropertyOp53
 70
     1
102
RTVSPropertyOp54
 70
     1
102
RTVSPropertyOp55
 70
     1
102
RTVSPropertyOp56
 70
     1
102
RTVSPropertyOp57
 70
     1
102
RTVSPropertyOp58
 70
     1
102
RTVSPropertyOp59
 70
     1
102
RTVSPropertyOp60
 70
     1
102
RTVSPropertyOp61
 70
     1
102
RTVSPropertyOp62
 70
     1
  0
XRECORD
  5
82DD
102
{ACAD_REACTORS
330
82DC
102
}
330
82DC
100
AcDbXrecord
280
     1
102
RTVSPost2010Prop28
280
     0
102
RTVSPost2010PropOp28
 70
     1
102
RTVSPost2010Prop29
280
     1
102
RTVSPost2010PropOp29
 70
     1
102
RTVSPost2010Prop30
280
     1
102
RTVSPost2010PropOp30
 70
     1
102
RTVSPost2010Prop31
280
     0
102
RTVSPost2010PropOp31
 70
     1
102
RTVSPost2010Prop32
280
     0
102
RTVSPost2010PropOp32
 70
     1
102
RTVSPost2010Prop33
280
     0
102
RTVSPost2010PropOp33
 70
     1
102
RTVSPost2010Prop34
280
     0
102
RTVSPost2010PropOp34
 70
     1
102
RTVSPost2010Prop35
280
     0
102
RTVSPost2010PropOp35
 70
     1
102
RTVSPost2010Prop36
280
     0
102
RTVSPost2010PropOp36
 70
     1
102
RTVSPost2010Prop37
 90
       50
102
RTVSPost2010PropOp37
 70
     1
102
RTVSPost2010Prop38
140
0.0
102
RTVSPost2010PropOp38
 70
     1
102
RTVSPost2010Prop39
140
1.0
102
RTVSPost2010PropOp39
 70
     1
102
RTVSPost2010Prop40
 90
        0
102
RTVSPost2010PropOp40
 70
     1
102
RTVSPost2010Prop41ColorIndex
 90
       18
102
RTVSPost2010Prop41ColorRGB
 90
        0
102
RTVSPost2010PropOp41
 70
     1
102
RTVSPost2010Prop42
 90
       50
102
RTVSPost2010PropOp42
 70
     1
102
RTVSPost2010Prop43
 90
        3
102
RTVSPost2010PropOp43
 70
     1
102
RTVSPost2010Prop44ColorIndex
 90
        5
102
RTVSPost2010Prop44ColorRGB
 90
      255
102
RTVSPost2010PropOp44
 70
     1
102
RTVSPost2010Prop45
280
     0
102
RTVSPost2010PropOp45
 70
     1
102
RTVSPost2010Prop46
 90
       50
102
RTVSPost2010PropOp46
 70
     1
102
RTVSPost2010Prop47
 90
       50
102
RTVSPost2010PropOp47
 70
     1
102
RTVSPost2010Prop48
 90
       50
102
RTVSPost2010PropOp48
 70
     1
102
RTVSPost2010Prop49
280
     0
102
RTVSPost2010PropOp49
 70
     1
102
RTVSPost2010Prop50
 90
       50
102
RTVSPost2010PropOp50
 70
     1
102
RTVSPost2010Prop51ColorIndex
 90
      256
102
RTVSPost2010Prop51ColorRGB
 90
-16777216
102
RTVSPost2010PropOp51
 70
     0
102
RTVSPost2010Prop52
140
1.0
102
RTVSPost2010PropOp52
 70
     0
102
RTVSPost2010Prop53
 90
        2
102
RTVSPost2010PropOp53
 70
     1
102
RTVSPost2010Prop54
  1
strokes_ogs.tif
102
RTVSPost2010PropOp54
 70
     1
102
RTVSPost2010Prop55
280
     0
102
RTVSPost2010PropOp55
 70
     1
102
RTVSPost2010Prop56
140
1.0
102
RTVSPost2010PropOp56
 70
     1
102
RTVSPost2010Prop57
140
1.0
102
RTVSPost2010PropOp57
 70
     1
102
RTVSPropertyOp0
 70
     1
102
RTVSPropertyOp1
 70
     1
102
RTVSPropertyOp2
 70
     1
102
RTVSPropertyOp3
 70
     1
102
RTVSPropertyOp4
 70
     1
102
RTVSPropertyOp5
 70
     1
102
RTVSPropertyOp6
 70
     1
102
RTVSPropertyOp7
 70
     1
102
RTVSPropertyOp8
 70
     1
102
RTVSPropertyOp9
 70
     1
102
RTVSPropertyOp10
 70
     1
102
RTVSPropertyOp11
 70
     1
102
RTVSPropertyOp12
 70
     1
102
RTVSPropertyOp13
 70
     1
102
RTVSPropertyOp14
 70
     1
102
RTVSPropertyOp15
 70
     1
102
RTVSPropertyOp16
 70
     1
102
RTVSPropertyOp17
 70
     1
102
RTVSPropertyOp18
 70
     1
102
RTVSPropertyOp19
 70
     1
102
RTVSPropertyOp20
 70
     1
102
RTVSPropertyOp21
 70
     1
102
RTVSPropertyOp22
 70
     1
102
RTVSPropertyOp23
 70
     1
102
RTVSPropertyOp24
 70
     1
102
RTVSPropertyOp25
 70
     1
102
RTVSPropertyOp26
 70
     1
102
RTVSPropertyOp27
 70
     1
102
RTVSPropertyOp28
 70
     1
102
RTVSPropertyOp29
 70
     1
102
RTVSPropertyOp30
 70
     1
102
RTVSPropertyOp31
 70
     1
102
RTVSPropertyOp32
 70
     1
102
RTVSPropertyOp33
 70
     1
102
RTVSPropertyOp34
 70
     1
102
RTVSPropertyOp35
 70
     1
102
RTVSPropertyOp36
 70
     1
102
RTVSPropertyOp37
 70
     1
102
RTVSPropertyOp38
 70
     1
102
RTVSPropertyOp39
 70
     1
102
RTVSPropertyOp40
 70
     1
102
RTVSPropertyOp41
 70
     1
102
RTVSPropertyOp42
 70
     1
102
RTVSPropertyOp43
 70
     1
102
RTVSPropertyOp44
 70
     1
102
RTVSPropertyOp45
 70
     1
102
RTVSPropertyOp46
 70
     1
102
RTVSPropertyOp47
 70
     1
102
RTVSPropertyOp48
 70
     1
102
RTVSPropertyOp49
 70
     1
102
RTVSPropertyOp50
 70
     1
102
RTVSPropertyOp51
 70
     0
102
RTVSPropertyOp52
 70
     0
102
RTVSPropertyOp53
 70
     1
102
RTVSPropertyOp54
 70
     1
102
RTVSPropertyOp55
 70
     1
102
RTVSPropertyOp56
 70
     1
102
RTVSPropertyOp57
 70
     1
102
RTVSPropertyOp58
 70
     1
102
RTVSPropertyOp59
 70
     1
102
RTVSPropertyOp60
 70
     1
102
RTVSPropertyOp61
 70
     1
102
RTVSPropertyOp62
 70
     1
  0
ENDSEC
  0
EOF
