  0
SECTION
  2
HEADER
  9
$ACADVER
  1
AC1015
  9
$ACADMAINTVER
 70
    20
  9
$DWGCODEPAGE
  3
ANSI_932
  9
$INSBASE
 10
0.0
 20
0.0
 30
0.0
  9
$EXTMIN
 10
-0.1602050617329951
 20
-0.22504996767384
 30
-0.0015258207003583
  9
$EXTMAX
 10
5250.160229508953
 20
7375.225084310193
 30
0.0000000349246037
  9
$LIMMIN
 10
0.0
 20
0.0
  9
$LIMMAX
 10
297.0
 20
210.0
  9
$ORTHOMODE
 70
     1
  9
$REGENMODE
 70
     1
  9
$FILLMODE
 70
     0
  9
$QTEXTMODE
 70
     0
  9
$MIRRTEXT
 70
     1
  9
$LTSCALE
 40
100.0
  9
$ATTMODE
 70
     1
  9
$TEXTSIZE
 40
180.0
  9
$TRACEWID
 40
0.05
  9
$TEXTSTYLE
  7
STANDARD
  9
$CLAYER
  8
3
  9
$CELTYPE
  6
ByLayer
  9
$CECOLOR
 62
   256
  9
$CELTSCALE
 40
1.0
  9
$DISPSILH
 70
     0
  9
$DIMSCALE
 40
25.0
  9
$DIMASZ
 40
2.0
  9
$DIMEXO
 40
1.0
  9
$DIMDLI
 40
10.0
  9
$DIMRND
 40
0.0
  9
$DIMDLE
 40
0.0
  9
$DIMEXE
 40
1.0
  9
$DIMTP
 40
1.0
  9
$DIMTM
 40
1.0
  9
$DIMTXT
 40
3.0
  9
$DIMCEN
 40
0.0
  9
$DIMTSZ
 40
0.0
  9
$DIMTOL
 70
     0
  9
$DIMLIM
 70
     0
  9
$DIMTIH
 70
     0
  9
$DIMTOH
 70
     0
  9
$DIMSE1
 70
     0
  9
$DIMSE2
 70
     0
  9
$DIMTAD
 70
     1
  9
$DIMZIN
 70
     8
  9
$DIMBLK
  1

  9
$DIMASO
 70
     1
  9
$DIMSHO
 70
     1
  9
$DIMPOST
  1

  9
$DIMAPOST
  1

  9
$DIMALT
 70
     0
  9
$DIMALTD
 70
     2
  9
$DIMALTF
 40
0.039
  9
$DIMLFAC
 40
1.0
  9
$DIMTOFL
 70
     1
  9
$DIMTVP
 40
0.0
  9
$DIMTIX
 70
     0
  9
$DIMSOXD
 70
     0
  9
$DIMSAH
 70
     1
  9
$DIMBLK1
  1
OPEN
  9
$DIMBLK2
  1
OPEN
  9
$DIMSTYLE
  2
IGA
  9
$DIMCLRD
 70
     0
  9
$DIMCLRE
 70
     0
  9
$DIMCLRT
 70
     0
  9
$DIMTFAC
 40
10.0
  9
$DIMGAP
 40
1.0
  9
$DIMJUST
 70
     0
  9
$DIMSD1
 70
     0
  9
$DIMSD2
 70
     0
  9
$DIMTOLJ
 70
     1
  9
$DIMTZIN
 70
     0
  9
$DIMALTZ
 70
     0
  9
$DIMALTTZ
 70
     0
  9
$DIMUPT
 70
     0
  9
$DIMDEC
 70
     4
  9
$DIMTDEC
 70
     4
  9
$DIMALTU
 70
     2
  9
$DIMALTTD
 70
     2
  9
$DIMTXSTY
  7
STANDARD
  9
$DIMAUNIT
 70
     0
  9
$DIMADEC
 70
     0
  9
$DIMALTRND
 40
0.0
  9
$DIMAZIN
 70
     0
  9
$DIMDSEP
 70
    46
  9
$DIMATFIT
 70
     3
  9
$DIMFRAC
 70
     0
  9
$DIMLDRBLK
  1
OPEN
  9
$DIMLUNIT
 70
     2
  9
$DIMLWD
 70
    -2
  9
$DIMLWE
 70
    -2
  9
$DIMTMOVE
 70
     0
  9
$LUNITS
 70
     2
  9
$LUPREC
 70
     3
  9
$SKETCHINC
 40
0.1
  9
$FILLETRAD
 40
50.0
  9
$AUNITS
 70
     0
  9
$AUPREC
 70
     0
  9
$MENU
  1
acad
  9
$ELEVATION
 40
0.0
  9
$PELEVATION
 40
0.0
  9
$THICKNESS
 40
0.0
  9
$LIMCHECK
 70
     0
  9
$CHAMFERA
 40
0.5
  9
$CHAMFERB
 40
0.5
  9
$CHAMFERC
 40
0.0
  9
$CHAMFERD
 40
0.0
  9
$SKPOLY
 70
     0
  9
$TDCREATE
 40
2451387.606533102
  9
$TDUCREATE
 40
2451387.231533102
  9
$TDUPDATE
 40
2460263.702760093
  9
$TDUUPDATE
 40
2460263.327760093
  9
$TDINDWG
 40
0.1060547569
  9
$TDUSRTIMER
 40
0.1060547338
  9
$USRTIMER
 70
     1
  9
$ANGBASE
 50
0.0
  9
$ANGDIR
 70
     0
  9
$PDMODE
 70
     0
  9
$PDSIZE
 40
0.0
  9
$PLINEWID
 40
0.0
  9
$SPLFRAME
 70
     0
  9
$SPLINETYPE
 70
     6
  9
$SPLINESEGS
 70
     8
  9
$HANDSEED
  5
880C
  9
$SURFTAB1
 70
     6
  9
$SURFTAB2
 70
     6
  9
$SURFTYPE
 70
     6
  9
$SURFU
 70
     6
  9
$SURFV
 70
     6
  9
$UCSBASE
  2

  9
$UCSNAME
  2

  9
$UCSORG
 10
0.0
 20
0.0
 30
0.0
  9
$UCSXDIR
 10
1.0
 20
0.0
 30
0.0
  9
$UCSYDIR
 10
0.0
 20
1.0
 30
0.0
  9
$UCSORTHOREF
  2

  9
$UCSORTHOVIEW
 70
     0
  9
$UCSORGTOP
 10
0.0
 20
0.0
 30
0.0
  9
$UCSORGBOTTOM
 10
0.0
 20
0.0
 30
0.0
  9
$UCSORGLEFT
 10
0.0
 20
0.0
 30
0.0
  9
$UCSORGRIGHT
 10
0.0
 20
0.0
 30
0.0
  9
$UCSORGFRONT
 10
0.0
 20
0.0
 30
0.0
  9
$UCSORGBACK
 10
0.0
 20
0.0
 30
0.0
  9
$PUCSBASE
  2

  9
$PUCSNAME
  2

  9
$PUCSORG
 10
0.0
 20
0.0
 30
0.0
  9
$PUCSXDIR
 10
1.0
 20
0.0
 30
0.0
  9
$PUCSYDIR
 10
0.0
 20
1.0
 30
0.0
  9
$PUCSORTHOREF
  2

  9
$PUCSORTHOVIEW
 70
     0
  9
$PUCSORGTOP
 10
0.0
 20
0.0
 30
0.0
  9
$PUCSORGBOTTOM
 10
0.0
 20
0.0
 30
0.0
  9
$PUCSORGLEFT
 10
0.0
 20
0.0
 30
0.0
  9
$PUCSORGRIGHT
 10
0.0
 20
0.0
 30
0.0
  9
$PUCSORGFRONT
 10
0.0
 20
0.0
 30
0.0
  9
$PUCSORGBACK
 10
0.0
 20
0.0
 30
0.0
  9
$USERI1
 70
     0
  9
$USERI2
 70
     0
  9
$USERI3
 70
     0
  9
$USERI4
 70
     0
  9
$USERI5
 70
     0
  9
$USERR1
 40
0.0
  9
$USERR2
 40
0.0
  9
$USERR3
 40
0.0
  9
$USERR4
 40
0.0
  9
$USERR5
 40
0.0
  9
$WORLDVIEW
 70
     1
  9
$SHADEDGE
 70
     3
  9
$SHADEDIF
 70
    70
  9
$TILEMODE
 70
     1
  9
$MAXACTVP
 70
    16
  9
$PINSBASE
 10
0.0
 20
0.0
 30
0.0
  9
$PLIMCHECK
 70
     0
  9
$PEXTMIN
 10
1.000000000000000E+20
 20
1.000000000000000E+20
 30
1.000000000000000E+20
  9
$PEXTMAX
 10
-1.000000000000000E+20
 20
-1.000000000000000E+20
 30
-1.000000000000000E+20
  9
$PLIMMIN
 10
0.0
 20
0.0
  9
$PLIMMAX
 10
12.0
 20
9.0
  9
$UNITMODE
 70
     0
  9
$VISRETAIN
 70
     0
  9
$PLINEGEN
 70
     0
  9
$PSLTSCALE
 70
     1
  9
$TREEDEPTH
 70
  3020
  9
$CMLSTYLE
  2
Standard
  9
$CMLJUST
 70
     0
  9
$CMLSCALE
 40
1.0
  9
$PROXYGRAPHICS
 70
     1
  9
$MEASUREMENT
 70
     0
  9
$CELWEIGHT
370
    -1
  9
$ENDCAPS
280
     0
  9
$JOINSTYLE
280
     0
  9
$LWDISPLAY
290
     0
  9
$INSUNITS
 70
     0
  9
$HYPERLINKBASE
  1

  9
$STYLESHEET
  1

  9
$XEDIT
290
     1
  9
$CEPSNTYPE
380
     0
  9
$PSTYLEMODE
290
     1
  9
$FINGERPRINTGUID
  2
{890F7975-2653-4E59-BBD6-582FDEF6D0C2}
  9
$VERSIONGUID
  2
{CB4111ED-29D2-425F-A453-3B040D8F6E73}
  9
$EXTNAMES
290
     1
  9
$PSVPSCALE
 40
0.0
  9
$OLESTARTUP
290
     0
  0
ENDSEC
  0
SECTION
  2
CLASSES
  0
CLASS
  1
ACDBDICTIONARYWDFLT
  2
AcDbDictionaryWithDefault
  3
ObjectDBX Classes
 90
        0
280
     0
281
     0
  0
CLASS
  1
MATERIAL
  2
AcDbMaterial
  3
ObjectDBX Classes
 90
     1153
280
     0
281
     0
  0
CLASS
  1
VISUALSTYLE
  2
AcDbVisualStyle
  3
ObjectDBX Classes
 90
     4095
280
     0
281
     0
  0
CLASS
  1
SCALE
  2
AcDbScale
  3
ObjectDBX Classes
 90
     1153
280
     0
281
     0
  0
CLASS
  1
TABLESTYLE
  2
AcDbTableStyle
  3
ObjectDBX Classes
 90
     4095
280
     0
281
     0
  0
CLASS
  1
MLEADERSTYLE
  2
AcDbMLeaderStyle
  3
ACDB_MLEADERSTYLE_CLASS
 90
     4095
280
     0
281
     0
  0
CLASS
  1
ACDBSECTIONVIEWSTYLE
  2
AcDbSectionViewStyle
  3
ObjectDBX Classes
 90
     1025
280
     0
281
     0
  0
CLASS
  1
ACDBDETAILVIEWSTYLE
  2
AcDbDetailViewStyle
  3
ObjectDBX Classes
 90
     1025
280
     0
281
     0
  0
CLASS
  1
DICTIONARYVAR
  2
AcDbDictionaryVar
  3
ObjectDBX Classes
 90
        0
280
     0
281
     0
  0
CLASS
  1
CELLSTYLEMAP
  2
AcDbCellStyleMap
  3
ObjectDBX Classes
 90
     1152
280
     0
281
     0
  0
CLASS
  1
SORTENTSTABLE
  2
AcDbSortentsTable
  3
ObjectDBX Classes
 90
        0
280
     0
281
     0
  0
CLASS
  1
ACDBPLACEHOLDER
  2
AcDbPlaceHolder
  3
ObjectDBX Classes
 90
        0
280
     0
281
     0
  0
CLASS
  1
LAYOUT
  2
AcDbLayout
  3
ObjectDBX Classes
 90
        0
280
     0
281
     0
  0
ENDSEC
  0
SECTION
  2
TABLES
  0
TABLE
  2
VPORT
  5
811A
330
0
100
AcDbSymbolTable
 70
     1
  0
VPORT
  5
8186
330
811A
100
AcDbSymbolTableRecord
100
AcDbViewportTableRecord
  2
*ACTIVE
 70
     0
 10
0.0
 20
0.0
 11
1.0
 21
1.0
 12
2625.00001222361
 22
3687.500017171259
 13
0.0
 23
0.0
 14
10.0
 24
10.0
 15
10.0
 25
10.0
 16
0.0
 26
0.0
 36
1.0
 17
0.0
 27
0.0
 37
0.0
 40
7422.678203440799
 41
2.050213675213675
 42
50.0
 43
0.0
 44
0.0
 50
0.0
 51
0.0
 71
     0
 72
   100
 73
     1
 74
     0
 75
     0
 76
     0
 77
     0
 78
     0
281
     0
 65
     1
110
0.0
120
0.0
130
0.0
111
1.0
121
0.0
131
0.0
112
0.0
122
1.0
132
0.0
 79
     0
146
0.0
1001
ACAD_NAV_VCDISPLAY
1070
     3
  0
ENDTAB
  0
TABLE
  2
LTYPE
  5
8117
330
0
100
AcDbSymbolTable
 70
     3
  0
LTYPE
  5
816C
330
8117
100
AcDbSymbolTableRecord
100
AcDbLinetypeTableRecord
  2
ByBlock
 70
     0
  3

 72
    65
 73
     0
 40
0.0
  0
LTYPE
  5
816D
330
8117
100
AcDbSymbolTableRecord
100
AcDbLinetypeTableRecord
  2
ByLayer
 70
     0
  3

 72
    65
 73
     0
 40
0.0
  0
LTYPE
  5
816E
330
8117
100
AcDbSymbolTableRecord
100
AcDbLinetypeTableRecord
  2
CONTINUOUS
 70
     0
  3
Solid line
 72
    65
 73
     0
 40
0.0
  0
LTYPE
  5
8187
330
8117
100
AcDbSymbolTableRecord
100
AcDbLinetypeTableRecord
  2
CENTER
 70
     0
  3
____ _ ____ _ ____ _ ____ _ ____ _ ____ _ ____ 
 72
    65
 73
     4
 40
2.0
 49
1.25
 74
     0
 49
-0.25
 74
     0
 49
0.25
 74
     0
 49
-0.25
 74
     0
  0
ENDTAB
  0
TABLE
  2
LAYER
  5
8114
102
{ACAD_XDICTIONARY
360
8337
102
}
330
0
100
AcDbSymbolTable
 70
     6
  0
LAYER
  5
8166
102
{ACAD_XDICTIONARY
360
8710
102
}
330
8114
100
AcDbSymbolTableRecord
100
AcDbLayerTableRecord
  2
0
 70
     0
 62
     7
  6
CONTINUOUS
370
    -3
390
8121
  0
LAYER
  5
8185
102
{ACAD_XDICTIONARY
360
8712
102
}
330
8114
100
AcDbSymbolTableRecord
100
AcDbLayerTableRecord
  2
3
 70
     0
 62
     2
  6
CONTINUOUS
370
    -3
390
8121
  0
LAYER
  5
8188
102
{ACAD_XDICTIONARY
360
8714
102
}
330
8114
100
AcDbSymbolTableRecord
100
AcDbLayerTableRecord
  2
2
 70
     0
 62
     3
  6
CENTER
370
    -3
390
8121
  0
LAYER
  5
8189
102
{ACAD_XDICTIONARY
360
8716
102
}
330
8114
100
AcDbSymbolTableRecord
100
AcDbLayerTableRecord
  2
1
 70
     0
 62
     4
  6
CONTINUOUS
370
    -3
390
8121
  0
LAYER
  5
818A
102
{ACAD_XDICTIONARY
360
8718
102
}
330
8114
100
AcDbSymbolTableRecord
100
AcDbLayerTableRecord
  2
4
 70
     0
 62
     7
  6
CONTINUOUS
370
    -3
390
8121
  0
LAYER
  5
818B
330
8114
100
AcDbSymbolTableRecord
100
AcDbLayerTableRecord
  2
DEFPOINTS
 70
     0
 62
     7
  6
CONTINUOUS
290
     0
370
    -3
390
8121
  0
ENDTAB
  0
TABLE
  2
STYLE
  5
8115
330
0
100
AcDbSymbolTable
 70
     2
  0
STYLE
  5
8167
330
8115
100
AcDbSymbolTableRecord
100
AcDbTextStyleTableRecord
  2
STANDARD
 70
     0
 40
0.0
 41
1.0
 50
0.0
 71
     0
 42
180.0
  3
simplex.shx
  4
extfont.shx
  0
STYLE
  5
816B
330
8115
100
AcDbSymbolTableRecord
100
AcDbTextStyleTableRecord
  2
Annotative
 70
     0
 40
0.0
 41
1.0
 50
0.0
 71
     0
 42
0.2
  3
txt
  4

1001
AcadAnnotative
1000
AnnotativeData
1002
{
1070
     1
1070
     1
1002
}
  0
ENDTAB
  0
TABLE
  2
VIEW
  5
8118
330
0
100
AcDbSymbolTable
 70
     0
  0
ENDTAB
  0
TABLE
  2
UCS
  5
8119
330
0
100
AcDbSymbolTable
 70
     0
  0
ENDTAB
  0
TABLE
  2
APPID
  5
811B
330
0
100
AcDbSymbolTable
 70
     7
  0
APPID
  5
8168
330
811B
100
AcDbSymbolTableRecord
100
AcDbRegAppTableRecord
  2
ACAD
 70
     0
  0
APPID
  5
816F
330
811B
100
AcDbSymbolTableRecord
100
AcDbRegAppTableRecord
  2
AcadAnnotative
 70
     0
  0
APPID
  5
81D2
330
811B
100
AcDbSymbolTableRecord
100
AcDbRegAppTableRecord
  2
ACAD_NAV_VCDISPLAY
 70
     0
  0
APPID
  5
8214
330
811B
100
AcDbSymbolTableRecord
100
AcDbRegAppTableRecord
  2
AcadAnnoMonitorAlertIconDisabled
 70
     0
  0
APPID
  5
8215
330
811B
100
AcDbSymbolTableRecord
100
AcDbRegAppTableRecord
  2
ACAD_EXEMPT_FROM_CAD_STANDARDS
 70
     0
  0
APPID
  5
8669
330
811B
100
AcDbSymbolTableRecord
100
AcDbRegAppTableRecord
  2
ACAD_DSTYLE_DIMRADIAL_EXTENSION
 70
     0
  0
APPID
  5
87FF
330
811B
100
AcDbSymbolTableRecord
100
AcDbRegAppTableRecord
  2
ACAD_MLEADERVER
 70
     0
  0
ENDTAB
  0
TABLE
  2
DIMSTYLE
  5
811C
330
0
100
AcDbSymbolTable
 70
     4
100
AcDbDimStyleTable
 71
     1
340
818C
  0
DIMSTYLE
105
8169
102
{ACAD_REACTORS
330
7C8C
330
7C8D
330
7C9B
330
7CAF
330
7CEB
330
7CEF
330
7CF1
330
7CF2
330
7CF3
330
7CF4
330
7CF9
330
808A
330
8097
330
80A4
330
80B1
330
80BE
102
}
330
811C
100
AcDbSymbolTableRecord
100
AcDbDimStyleTableRecord
  2
Standard
 70
     0
340
8167
  0
DIMSTYLE
105
816A
330
811C
100
AcDbSymbolTableRecord
100
AcDbDimStyleTableRecord
  2
Annotative
 70
     0
340
8167
1001
AcadAnnotative
1000
AnnotativeData
1002
{
1070
     1
1070
     1
1002
}
  0
DIMSTYLE
105
818C
102
{ACAD_REACTORS
330
8224
330
8231
330
8682
330
8703
102
}
330
811C
100
AcDbSymbolTableRecord
100
AcDbDimStyleTableRecord
  2
IGA
 70
     0
 40
2.0
 41
2.0
 42
0.5
 43
10.0
 44
1.0
 47
1.0
 48
1.0
 73
     0
 74
     0
 77
     1
 78
     8
140
3.0
141
0.0
143
0.03937
146
10.0
147
1.0
173
     1
271
     3
272
     3
279
     2
284
     8
285
     8
286
     8
340
8167
  0
DIMSTYLE
105
818D
330
811C
100
AcDbSymbolTableRecord
100
AcDbDimStyleTableRecord
  2
MATSU
 70
     0
 41
2.0
 42
1.0
 43
10.0
 44
1.0
 73
     0
 74
     0
 77
     1
 78
     8
140
3.0
141
0.0
143
0.03937
147
0.5
172
     1
173
     1
176
   256
177
   256
178
   256
271
     3
272
     3
279
     2
284
     8
285
     8
286
     8
340
8167
  0
ENDTAB
  0
TABLE
  2
BLOCK_RECORD
  5
8113
330
0
100
AcDbSymbolTable
 70
    75
  0
BLOCK_RECORD
  5
8181
102
{ACAD_XDICTIONARY
360
866E
102
}
330
8113
100
AcDbSymbolTableRecord
100
AcDbBlockTableRecord
  2
*Model_Space
340
8184
  0
BLOCK_RECORD
  5
817D
330
8113
100
AcDbSymbolTableRecord
100
AcDbBlockTableRecord
  2
*Paper_Space
340
8180
  0
BLOCK_RECORD
  5
8191
330
8113
100
AcDbSymbolTableRecord
100
AcDbBlockTableRecord
  2
$MODEL_SPACE
340
0
  0
BLOCK_RECORD
  5
8193
330
8113
100
AcDbSymbolTableRecord
100
AcDbBlockTableRecord
  2
$PAPER_SPACE
340
0
  0
BLOCK_RECORD
  5
8195
330
8113
100
AcDbSymbolTableRecord
100
AcDbBlockTableRecord
  2
_OPEN
340
0
102
{BLKREFS
331
827C
331
827D
331
8288
331
8289
331
8294
331
8295
331
82A0
331
82A1
331
82AC
331
82AD
331
82B8
331
82B9
331
82C4
331
82C5
331
82D0
331
82D1
331
82DC
331
82DD
331
7E5E
331
7E5F
331
7F5F
331
7F60
331
7E74
331
7E75
331
7E7F
331
7E80
331
7E95
331
7E96
331
7ECC
331
7ECD
331
7FF0
331
7FF1
331
8006
331
8007
331
7EED
331
7EEE
331
7EF8
331
7EF9
331
7F03
331
7F04
331
7F0E
331
7F0F
331
7F19
331
7F1A
331
7F24
331
7F25
331
7F54
331
7F55
331
8083
331
8084
331
8090
331
8091
331
809D
331
809E
331
80AA
331
80AB
331
80B7
331
80B8
331
824C
331
824D
331
8258
331
8259
331
8264
331
8265
331
8270
331
8271
331
82E8
331
82E9
331
82F4
331
82F5
331
8300
331
8301
331
830C
331
830D
331
8318
331
8319
331
8324
331
8325
331
8330
331
8331
331
86DE
331
86DF
331
86E7
331
86E8
331
86F0
331
86F1
331
870A
331
870B
331
8692
331
8693
102
}
  0
BLOCK_RECORD
  5
8197
330
8113
100
AcDbSymbolTableRecord
100
AcDbBlockTableRecord
  2
YA_N
340
0
102
{BLKREFS
331
7C36
331
7C55
331
7C93
331
7CCE
102
}
  0
BLOCK_RECORD
  5
8199
330
8113
100
AcDbSymbolTableRecord
100
AcDbBlockTableRecord
  2
*D4
340
0
  0
BLOCK_RECORD
  5
819B
330
8113
100
AcDbSymbolTableRecord
100
AcDbBlockTableRecord
  2
*D5
340
0
  0
BLOCK_RECORD
  5
819D
330
8113
100
AcDbSymbolTableRecord
100
AcDbBlockTableRecord
  2
*D6
340
0
  0
BLOCK_RECORD
  5
819F
330
8113
100
AcDbSymbolTableRecord
100
AcDbBlockTableRecord
  2
*D7
340
0
  0
BLOCK_RECORD
  5
81A1
330
8113
100
AcDbSymbolTableRecord
100
AcDbBlockTableRecord
  2
*D8
340
0
  0
BLOCK_RECORD
  5
81A3
330
8113
100
AcDbSymbolTableRecord
100
AcDbBlockTableRecord
  2
*D9
340
0
  0
BLOCK_RECORD
  5
81A5
330
8113
100
AcDbSymbolTableRecord
100
AcDbBlockTableRecord
  2
*D10
340
0
  0
BLOCK_RECORD
  5
81A7
330
8113
100
AcDbSymbolTableRecord
100
AcDbBlockTableRecord
  2
*U11
340
0
102
{BLKREFS
331
7FF2
102
}
  0
BLOCK_RECORD
  5
81A8
330
8113
100
AcDbSymbolTableRecord
100
AcDbBlockTableRecord
  2
*D12
340
0
  0
BLOCK_RECORD
  5
81AA
330
8113
100
AcDbSymbolTableRecord
100
AcDbBlockTableRecord
  2
*D13
340
0
  0
BLOCK_RECORD
  5
81AC
330
8113
100
AcDbSymbolTableRecord
100
AcDbBlockTableRecord
  2
*D14
340
0
  0
BLOCK_RECORD
  5
81AE
330
8113
100
AcDbSymbolTableRecord
100
AcDbBlockTableRecord
  2
*D15
340
0
  0
BLOCK_RECORD
  5
81B0
330
8113
100
AcDbSymbolTableRecord
100
AcDbBlockTableRecord
  2
*D16
340
0
  0
BLOCK_RECORD
  5
81B2
330
8113
100
AcDbSymbolTableRecord
100
AcDbBlockTableRecord
  2
*D17
340
0
  0
BLOCK_RECORD
  5
81B4
330
8113
100
AcDbSymbolTableRecord
100
AcDbBlockTableRecord
  2
*D18
340
0
  0
BLOCK_RECORD
  5
81B6
330
8113
100
AcDbSymbolTableRecord
100
AcDbBlockTableRecord
  2
*D19
340
0
  0
BLOCK_RECORD
  5
81B8
330
8113
100
AcDbSymbolTableRecord
100
AcDbBlockTableRecord
  2
_DOT
340
0
  0
BLOCK_RECORD
  5
81BA
330
8113
100
AcDbSymbolTableRecord
100
AcDbBlockTableRecord
  2
_NONE
340
0
  0
BLOCK_RECORD
  5
81BC
330
8113
100
AcDbSymbolTableRecord
100
AcDbBlockTableRecord
  2
*D22
340
0
  0
BLOCK_RECORD
  5
81BE
330
8113
100
AcDbSymbolTableRecord
100
AcDbBlockTableRecord
  2
*D23
340
0
  0
BLOCK_RECORD
  5
81C0
330
8113
100
AcDbSymbolTableRecord
100
AcDbBlockTableRecord
  2
*D24
340
0
  0
BLOCK_RECORD
  5
81C2
330
8113
100
AcDbSymbolTableRecord
100
AcDbBlockTableRecord
  2
*D25
340
0
  0
BLOCK_RECORD
  5
81C4
330
8113
100
AcDbSymbolTableRecord
100
AcDbBlockTableRecord
  2
*D26
340
0
  0
BLOCK_RECORD
  5
8217
330
8113
100
AcDbSymbolTableRecord
100
AcDbBlockTableRecord
  2
*D27
340
0
  0
BLOCK_RECORD
  5
8225
330
8113
100
AcDbSymbolTableRecord
100
AcDbBlockTableRecord
  2
*D28
340
0
  0
BLOCK_RECORD
  5
8232
330
8113
100
AcDbSymbolTableRecord
100
AcDbBlockTableRecord
  2
*D29
340
0
  0
BLOCK_RECORD
  5
8247
330
8113
100
AcDbSymbolTableRecord
100
AcDbBlockTableRecord
  2
*D30
340
0
  0
BLOCK_RECORD
  5
8253
330
8113
100
AcDbSymbolTableRecord
100
AcDbBlockTableRecord
  2
*D31
340
0
  0
BLOCK_RECORD
  5
825F
330
8113
100
AcDbSymbolTableRecord
100
AcDbBlockTableRecord
  2
*D32
340
0
  0
BLOCK_RECORD
  5
826B
330
8113
100
AcDbSymbolTableRecord
100
AcDbBlockTableRecord
  2
*D33
340
0
  0
BLOCK_RECORD
  5
8277
330
8113
100
AcDbSymbolTableRecord
100
AcDbBlockTableRecord
  2
*D34
340
0
  0
BLOCK_RECORD
  5
8283
330
8113
100
AcDbSymbolTableRecord
100
AcDbBlockTableRecord
  2
*D35
340
0
  0
BLOCK_RECORD
  5
828F
330
8113
100
AcDbSymbolTableRecord
100
AcDbBlockTableRecord
  2
*D36
340
0
  0
BLOCK_RECORD
  5
829B
330
8113
100
AcDbSymbolTableRecord
100
AcDbBlockTableRecord
  2
*D37
340
0
  0
BLOCK_RECORD
  5
82A7
330
8113
100
AcDbSymbolTableRecord
100
AcDbBlockTableRecord
  2
*D38
340
0
  0
BLOCK_RECORD
  5
82B3
330
8113
100
AcDbSymbolTableRecord
100
AcDbBlockTableRecord
  2
*D39
340
0
  0
BLOCK_RECORD
  5
82BF
330
8113
100
AcDbSymbolTableRecord
100
AcDbBlockTableRecord
  2
*D40
340
0
  0
BLOCK_RECORD
  5
82CB
330
8113
100
AcDbSymbolTableRecord
100
AcDbBlockTableRecord
  2
*D41
340
0
  0
BLOCK_RECORD
  5
82D7
330
8113
100
AcDbSymbolTableRecord
100
AcDbBlockTableRecord
  2
*D42
340
0
  0
BLOCK_RECORD
  5
82E3
330
8113
100
AcDbSymbolTableRecord
100
AcDbBlockTableRecord
  2
*D43
340
0
  0
BLOCK_RECORD
  5
82EF
330
8113
100
AcDbSymbolTableRecord
100
AcDbBlockTableRecord
  2
*D44
340
0
  0
BLOCK_RECORD
  5
82FB
330
8113
100
AcDbSymbolTableRecord
100
AcDbBlockTableRecord
  2
*D45
340
0
  0
BLOCK_RECORD
  5
8307
330
8113
100
AcDbSymbolTableRecord
100
AcDbBlockTableRecord
  2
*D46
340
0
  0
BLOCK_RECORD
  5
8313
330
8113
100
AcDbSymbolTableRecord
100
AcDbBlockTableRecord
  2
*D47
340
0
  0
BLOCK_RECORD
  5
831F
330
8113
100
AcDbSymbolTableRecord
100
AcDbBlockTableRecord
  2
*D48
340
0
  0
BLOCK_RECORD
  5
832B
330
8113
100
AcDbSymbolTableRecord
100
AcDbBlockTableRecord
  2
*D49
340
0
  0
BLOCK_RECORD
  5
84CC
330
8113
100
AcDbSymbolTableRecord
100
AcDbBlockTableRecord
  2
*D51
340
0
  0
BLOCK_RECORD
  5
84D8
330
8113
100
AcDbSymbolTableRecord
100
AcDbBlockTableRecord
  2
*D52
340
0
  0
BLOCK_RECORD
  5
84E4
330
8113
100
AcDbSymbolTableRecord
100
AcDbBlockTableRecord
  2
*D53
340
0
  0
BLOCK_RECORD
  5
84F0
330
8113
100
AcDbSymbolTableRecord
100
AcDbBlockTableRecord
  2
*D54
340
0
  0
BLOCK_RECORD
  5
84FC
330
8113
100
AcDbSymbolTableRecord
100
AcDbBlockTableRecord
  2
*D55
340
0
  0
BLOCK_RECORD
  5
8508
330
8113
100
AcDbSymbolTableRecord
100
AcDbBlockTableRecord
  2
*D56
340
0
  0
BLOCK_RECORD
  5
8514
330
8113
100
AcDbSymbolTableRecord
100
AcDbBlockTableRecord
  2
*D57
340
0
  0
BLOCK_RECORD
  5
8520
330
8113
100
AcDbSymbolTableRecord
100
AcDbBlockTableRecord
  2
*D58
340
0
  0
BLOCK_RECORD
  5
852B
330
8113
100
AcDbSymbolTableRecord
100
AcDbBlockTableRecord
  2
*D59
340
0
  0
BLOCK_RECORD
  5
8536
330
8113
100
AcDbSymbolTableRecord
100
AcDbBlockTableRecord
  2
*D60
340
0
  0
BLOCK_RECORD
  5
8541
330
8113
100
AcDbSymbolTableRecord
100
AcDbBlockTableRecord
  2
*D61
340
0
  0
BLOCK_RECORD
  5
854C
330
8113
100
AcDbSymbolTableRecord
100
AcDbBlockTableRecord
  2
*D62
340
0
  0
BLOCK_RECORD
  5
8557
330
8113
100
AcDbSymbolTableRecord
100
AcDbBlockTableRecord
  2
*D63
340
0
  0
BLOCK_RECORD
  5
8562
330
8113
100
AcDbSymbolTableRecord
100
AcDbBlockTableRecord
  2
*D64
340
0
  0
BLOCK_RECORD
  5
856D
330
8113
100
AcDbSymbolTableRecord
100
AcDbBlockTableRecord
  2
*D65
340
0
  0
BLOCK_RECORD
  5
8578
330
8113
100
AcDbSymbolTableRecord
100
AcDbBlockTableRecord
  2
*D66
340
0
  0
BLOCK_RECORD
  5
8583
330
8113
100
AcDbSymbolTableRecord
100
AcDbBlockTableRecord
  2
*D67
340
0
  0
BLOCK_RECORD
  5
858E
330
8113
100
AcDbSymbolTableRecord
100
AcDbBlockTableRecord
  2
*D68
340
0
  0
BLOCK_RECORD
  5
8599
330
8113
100
AcDbSymbolTableRecord
100
AcDbBlockTableRecord
  2
*D69
340
0
  0
BLOCK_RECORD
  5
85A4
330
8113
100
AcDbSymbolTableRecord
100
AcDbBlockTableRecord
  2
*D70
340
0
  0
BLOCK_RECORD
  5
8683
330
8113
100
AcDbSymbolTableRecord
100
AcDbBlockTableRecord
  2
*D71
340
0
  0
BLOCK_RECORD
  5
8699
330
8113
100
AcDbSymbolTableRecord
100
AcDbBlockTableRecord
  2
*D72
340
0
  0
BLOCK_RECORD
  5
86F6
330
8113
100
AcDbSymbolTableRecord
100
AcDbBlockTableRecord
  2
*D73
340
0
  0
BLOCK_RECORD
  5
8704
330
8113
100
AcDbSymbolTableRecord
100
AcDbBlockTableRecord
  2
*D74
340
0
  0
ENDTAB
  0
ENDSEC
  0
SECTION
  2
BLOCKS
  0
BLOCK
  5
8182
330
8181
100
AcDbEntity
  8
0
100
AcDbBlockBegin
  2
*Model_Space
 70
     0
 10
0.0
 20
0.0
 30
0.0
  3
*Model_Space
  1

  0
ENDBLK
  5
8183
330
8181
100
AcDbEntity
  8
0
100
AcDbBlockEnd
  0
BLOCK
  5
817E
330
817D
100
AcDbEntity
 67
     1
  8
0
100
AcDbBlockBegin
  2
*Paper_Space
 70
     0
 10
0.0
 20
0.0
 30
0.0
  3
*Paper_Space
  1

  0
ENDBLK
  5
817F
330
817D
100
AcDbEntity
 67
     1
  8
0
100
AcDbBlockEnd
  0
BLOCK
  5
8192
330
8191
100
AcDbEntity
  8
0
100
AcDbBlockBegin
  2
$MODEL_SPACE
 70
     0
 10
0.0
 20
0.0
 30
0.0
  3
$MODEL_SPACE
  1

  0
ENDBLK
  5
1B
330
8191
100
AcDbEntity
  8
0
100
AcDbBlockEnd
  0
BLOCK
  5
8194
330
8193
100
AcDbEntity
  8
0
100
AcDbBlockBegin
  2
$PAPER_SPACE
 70
     0
 10
0.0
 20
0.0
 30
0.0
  3
$PAPER_SPACE
  1

  0
ENDBLK
  5
18
330
8193
100
AcDbEntity
  8
0
100
AcDbBlockEnd
  0
BLOCK
  5
8196
330
8195
100
AcDbEntity
  8
0
100
AcDbBlockBegin
  2
_OPEN
 70
     0
 10
0.0
 20
0.0
 30
0.0
  3
_OPEN
  1

  0
LINE
  5
79FD
330
8195
100
AcDbEntity
  8
0
  6
ByBlock
 62
     0
100
AcDbLine
 10
-1.0
 20
0.1666666666666666
 30
0.0
 11
0.0
 21
0.0
 31
0.0
  0
LINE
  5
79FE
330
8195
100
AcDbEntity
  8
0
  6
ByBlock
 62
     0
100
AcDbLine
 10
0.0
 20
0.0
 30
0.0
 11
-1.0
 21
-0.1666666666666666
 31
0.0
  0
LINE
  5
79FF
330
8195
100
AcDbEntity
  8
0
  6
ByBlock
 62
     0
100
AcDbLine
 10
0.0
 20
0.0
 30
0.0
 11
-1.0
 21
0.0
 31
0.0
  0
ENDBLK
  5
7A01
330
8195
100
AcDbEntity
  8
0
100
AcDbBlockEnd
  0
BLOCK
  5
8198
330
8197
100
AcDbEntity
  8
0
100
AcDbBlockBegin
  2
YA_N
 70
     0
 10
0.0
 20
0.0
 30
0.0
  3
YA_N
  1

  0
ENDBLK
  5
7A0C
330
8197
100
AcDbEntity
  8
0
100
AcDbBlockEnd
  0
BLOCK
  5
819A
330
8199
100
AcDbEntity
  8
0
100
AcDbBlockBegin
  2
*D4
 70
     1
 10
0.0
 20
0.0
 30
0.0
  3
*D4
  1

  0
LINE
  5
7E5B
330
8199
100
AcDbEntity
  8
0
  6
ByBlock
100
AcDbLine
 10
93.06435467549272
 20
1267.593478221399
 30
0.0
 11
-55.94302910373335
 21
1267.593478221399
 31
0.0
  0
LINE
  5
7E5C
330
8199
100
AcDbEntity
  8
0
  6
ByBlock
100
AcDbLine
 10
93.06435467549178
 20
537.5934782213988
 30
0.0
 11
-55.94302910373335
 21
537.5934782213988
 31
0.0
  0
LINE
  5
7E5D
330
8199
100
AcDbEntity
  8
0
  6
ByBlock
100
AcDbLine
 10
-30.94302910373336
 20
1217.593478221399
 30
0.0
 11
-30.94302910373336
 21
587.5934782213988
 31
0.0
  0
INSERT
  5
7E5E
330
8199
100
AcDbEntity
  8
0
  6
ByBlock
100
AcDbBlockReference
  2
_OPEN
 10
-30.94302910373336
 20
1267.593478221399
 30
0.0
 41
50.0
 42
50.0
 43
50.0
 50
90.0
  0
INSERT
  5
7E5F
330
8199
100
AcDbEntity
  8
0
  6
ByBlock
100
AcDbBlockReference
  2
_OPEN
 10
-30.94302910373336
 20
537.5934782213988
 30
0.0
 41
50.0
 42
50.0
 43
50.0
 50
270.0
  0
TEXT
  5
7E60
330
8199
100
AcDbEntity
  8
3
100
AcDbText
 10
-43.44302910373335
 20
806.1649067928273
 30
0.0
 40
75.0
  1
730
 50
90.0
100
AcDbText
  0
POINT
  5
7E61
330
8199
100
AcDbEntity
  8
DEFPOINTS
  6
ByBlock
 62
     0
100
AcDbPoint
 10
118.0643546754926
 20
1267.593478221399
 30
0.0
  0
POINT
  5
7E62
330
8199
100
AcDbEntity
  8
DEFPOINTS
  6
ByBlock
 62
     0
100
AcDbPoint
 10
118.0643546754918
 20
537.5934782213988
 30
0.0
  0
POINT
  5
7E63
330
8199
100
AcDbEntity
  8
DEFPOINTS
  6
ByBlock
 62
     0
100
AcDbPoint
 10
-30.94302910373336
 20
537.5934782213988
 30
0.0
  0
ENDBLK
  5
7E64
330
8199
100
AcDbEntity
  8
0
100
AcDbBlockEnd
  0
BLOCK
  5
819C
330
819B
100
AcDbEntity
  8
0
100
AcDbBlockBegin
  2
*D5
 70
     1
 10
0.0
 20
0.0
 30
0.0
  3
*D5
  1

  0
LINE
  5
7F5C
330
819B
100
AcDbEntity
  8
0
  6
ByBlock
100
AcDbLine
 10
93.06435467549272
 20
1267.593478221399
 30
0.0
 11
-208.7518025773988
 21
1267.593478221399
 31
0.0
  0
LINE
  5
7F5D
330
819B
100
AcDbEntity
  8
0
  6
ByBlock
100
AcDbLine
 10
-29.20148412993695
 20
508.5934782213988
 30
0.0
 11
-208.7518025773988
 21
508.5934782213988
 31
0.0
  0
LINE
  5
7F5E
330
819B
100
AcDbEntity
  8
0
  6
ByBlock
100
AcDbLine
 10
-183.7518025773988
 20
1217.593478221399
 30
0.0
 11
-183.7518025773988
 21
558.5934782213988
 31
0.0
  0
INSERT
  5
7F5F
330
819B
100
AcDbEntity
  8
0
  6
ByBlock
100
AcDbBlockReference
  2
_OPEN
 10
-183.7518025773988
 20
1267.593478221399
 30
0.0
 41
50.0
 42
50.0
 43
50.0
 50
90.0
  0
INSERT
  5
7F60
330
819B
100
AcDbEntity
  8
0
  6
ByBlock
100
AcDbBlockReference
  2
_OPEN
 10
-183.7518025773988
 20
508.5934782213988
 30
0.0
 41
50.0
 42
50.0
 43
50.0
 50
270.0
  0
TEXT
  5
7F61
330
819B
100
AcDbEntity
  8
3
100
AcDbText
 10
-196.2518025773988
 20
793.4506210785417
 30
0.0
 40
75.0
  1
759
 50
90.0
100
AcDbText
  0
POINT
  5
7F62
330
819B
100
AcDbEntity
  8
DEFPOINTS
  6
ByBlock
 62
     0
100
AcDbPoint
 10
118.0643546754926
 20
1267.593478221399
 30
0.0
  0
POINT
  5
7F63
330
819B
100
AcDbEntity
  8
DEFPOINTS
  6
ByBlock
 62
     0
100
AcDbPoint
 10
-4.201484129936942
 20
508.5934782213988
 30
0.0
  0
POINT
  5
7F64
330
819B
100
AcDbEntity
  8
DEFPOINTS
  6
ByBlock
 62
     0
100
AcDbPoint
 10
-183.7518025773988
 20
508.5934782213988
 30
0.0
  0
ENDBLK
  5
7F65
330
819B
100
AcDbEntity
  8
0
100
AcDbBlockEnd
  0
BLOCK
  5
819E
330
819D
100
AcDbEntity
  8
0
100
AcDbBlockBegin
  2
*D6
 70
     1
 10
0.0
 20
0.0
 30
0.0
  3
*D6
  1

  0
LINE
  5
7E71
330
819D
100
AcDbEntity
  8
0
  6
ByBlock
100
AcDbLine
 10
118.0643546754926
 20
1334.593478221398
 30
0.0
 11
118.0643546754926
 21
1485.574010402429
 31
0.0
  0
LINE
  5
7E72
330
819D
100
AcDbEntity
  8
0
  6
ByBlock
100
AcDbLine
 10
618.0643546754928
 20
1363.64476267854
 30
0.0
 11
618.0643546754928
 21
1485.574010402429
 31
0.0
  0
LINE
  5
7E73
330
819D
100
AcDbEntity
  8
0
  6
ByBlock
100
AcDbLine
 10
168.0643546754927
 20
1460.57401040243
 30
0.0
 11
568.0643546754928
 21
1460.57401040243
 31
0.0
  0
INSERT
  5
7E74
330
819D
100
AcDbEntity
  8
0
  6
ByBlock
100
AcDbBlockReference
  2
_OPEN
 10
118.0643546754926
 20
1460.57401040243
 30
0.0
 41
50.0
 42
50.0
 43
50.0
 50
180.0
  0
INSERT
  5
7E75
330
819D
100
AcDbEntity
  8
0
  6
ByBlock
100
AcDbBlockReference
  2
_OPEN
 10
618.0643546754928
 20
1460.57401040243
 30
0.0
 41
50.0
 42
50.0
 43
50.0
  0
TEXT
  5
7E76
330
819D
100
AcDbEntity
  8
3
100
AcDbText
 10
271.6357832469213
 20
1473.07401040243
 30
0.0
 40
75.0
  1
500
100
AcDbText
  0
POINT
  5
7E77
330
819D
100
AcDbEntity
  8
DEFPOINTS
  6
ByBlock
 62
     0
100
AcDbPoint
 10
118.0643546754926
 20
1309.593478221398
 30
0.0
  0
POINT
  5
7E78
330
819D
100
AcDbEntity
  8
DEFPOINTS
  6
ByBlock
 62
     0
100
AcDbPoint
 10
618.0643546754928
 20
1338.64476267854
 30
0.0
  0
POINT
  5
7E79
330
819D
100
AcDbEntity
  8
DEFPOINTS
  6
ByBlock
 62
     0
100
AcDbPoint
 10
618.0643546754928
 20
1460.57401040243
 30
0.0
  0
ENDBLK
  5
7E7A
330
819D
100
AcDbEntity
  8
0
100
AcDbBlockEnd
  0
BLOCK
  5
81A0
330
819F
100
AcDbEntity
  8
0
100
AcDbBlockBegin
  2
*D7
 70
     1
 10
0.0
 20
0.0
 30
0.0
  3
*D7
  1

  0
LINE
  5
7E7C
330
819F
100
AcDbEntity
  8
0
  6
ByBlock
100
AcDbLine
 10
618.0643546754928
 20
1363.64476267854
 30
0.0
 11
618.0643546754928
 21
1485.574010402429
 31
0.0
  0
LINE
  5
7E7D
330
819F
100
AcDbEntity
  8
0
  6
ByBlock
100
AcDbLine
 10
1227.94896001793
 20
533.5934782213992
 30
0.0
 11
1227.94896001793
 21
1485.574010402429
 31
0.0
  0
LINE
  5
7E7E
330
819F
100
AcDbEntity
  8
0
  6
ByBlock
100
AcDbLine
 10
668.0643546754928
 20
1460.57401040243
 30
0.0
 11
1177.94896001793
 21
1460.57401040243
 31
0.0
  0
INSERT
  5
7E7F
330
819F
100
AcDbEntity
  8
0
  6
ByBlock
100
AcDbBlockReference
  2
_OPEN
 10
618.0643546754928
 20
1460.57401040243
 30
0.0
 41
50.0
 42
50.0
 43
50.0
 50
180.0
  0
INSERT
  5
7E80
330
819F
100
AcDbEntity
  8
0
  6
ByBlock
100
AcDbBlockReference
  2
_OPEN
 10
1227.94896001793
 20
1460.57401040243
 30
0.0
 41
50.0
 42
50.0
 43
50.0
  0
TEXT
  5
7E81
330
819F
100
AcDbEntity
  8
3
100
AcDbText
 10
833.7209430609973
 20
1473.07401040243
 30
0.0
 40
75.0
  1
612
100
AcDbText
  0
POINT
  5
7E82
330
819F
100
AcDbEntity
  8
DEFPOINTS
  6
ByBlock
 62
     0
100
AcDbPoint
 10
618.0643546754928
 20
1338.64476267854
 30
0.0
  0
POINT
  5
7E83
330
819F
100
AcDbEntity
  8
DEFPOINTS
  6
ByBlock
 62
     0
100
AcDbPoint
 10
1227.94896001793
 20
508.5934782213991
 30
0.0
  0
POINT
  5
7E84
330
819F
100
AcDbEntity
  8
DEFPOINTS
  6
ByBlock
 62
     0
100
AcDbPoint
 10
1227.94896001793
 20
1460.57401040243
 30
0.0
  0
ENDBLK
  5
7E85
330
819F
100
AcDbEntity
  8
0
100
AcDbBlockEnd
  0
BLOCK
  5
81A2
330
81A1
100
AcDbEntity
  8
0
100
AcDbBlockBegin
  2
*D8
 70
     1
 10
0.0
 20
0.0
 30
0.0
  3
*D8
  1

  0
LINE
  5
7E92
330
81A1
100
AcDbEntity
  8
0
  6
ByBlock
100
AcDbLine
 10
-29.20148412993695
 20
508.5934782213988
 30
0.0
 11
-207.6894596098227
 21
508.5934782213988
 31
0.0
  0
LINE
  5
7E93
330
81A1
100
AcDbEntity
  8
0
  6
ByBlock
100
AcDbLine
 10
143.0643546754927
 20
-36.40652177860101
 30
0.0
 11
-207.6894596098227
 21
-36.40652177860101
 31
0.0
  0
LINE
  5
7E94
330
81A1
100
AcDbEntity
  8
0
  6
ByBlock
100
AcDbLine
 10
-182.6894596098227
 20
458.5934782213988
 30
0.0
 11
-182.6894596098227
 21
13.59347822139898
 31
0.0
  0
INSERT
  5
7E95
330
81A1
100
AcDbEntity
  8
0
  6
ByBlock
100
AcDbBlockReference
  2
_OPEN
 10
-182.6894596098227
 20
508.5934782213988
 30
0.0
 41
50.0
 42
50.0
 43
50.0
 50
90.0
  0
INSERT
  5
7E96
330
81A1
100
AcDbEntity
  8
0
  6
ByBlock
100
AcDbBlockReference
  2
_OPEN
 10
-182.6894596098227
 20
-36.40652177860101
 30
0.0
 41
50.0
 42
50.0
 43
50.0
 50
270.0
  0
TEXT
  5
7E97
330
81A1
100
AcDbEntity
  8
3
100
AcDbText
 10
-195.1894596098227
 20
139.6649067928275
 30
0.0
 40
75.0
  1
545
 50
90.0
100
AcDbText
  0
POINT
  5
7E98
330
81A1
100
AcDbEntity
  8
DEFPOINTS
  6
ByBlock
 62
     0
100
AcDbPoint
 10
-4.201484129936942
 20
508.5934782213988
 30
0.0
  0
POINT
  5
7E99
330
81A1
100
AcDbEntity
  8
DEFPOINTS
  6
ByBlock
 62
     0
100
AcDbPoint
 10
168.0643546754927
 20
-36.40652177860101
 30
0.0
  0
POINT
  5
7E9A
330
81A1
100
AcDbEntity
  8
DEFPOINTS
  6
ByBlock
 62
     0
100
AcDbPoint
 10
-182.6894596098227
 20
-36.40652177860101
 30
0.0
  0
ENDBLK
  5
7E9B
330
81A1
100
AcDbEntity
  8
0
100
AcDbBlockEnd
  0
BLOCK
  5
81A4
330
81A3
100
AcDbEntity
  8
0
100
AcDbBlockBegin
  2
*D9
 70
     1
 10
0.0
 20
0.0
 30
0.0
  3
*D9
  1

  0
LINE
  5
7EC9
330
81A3
100
AcDbEntity
  8
0
  6
ByBlock
100
AcDbLine
 10
3394.272073930469
 20
1292.802367882948
 30
0.0
 11
3394.272073930469
 21
1484.407041015605
 31
0.0
  0
LINE
  5
7ECA
330
81A3
100
AcDbEntity
  8
0
  6
ByBlock
100
AcDbLine
 10
4294.27207393047
 20
1292.80235414594
 30
0.0
 11
4294.27207393047
 21
1484.407041015605
 31
0.0
  0
LINE
  5
7ECB
330
81A3
100
AcDbEntity
  8
0
  6
ByBlock
100
AcDbLine
 10
3444.272073930469
 20
1459.407041015604
 30
0.0
 11
4244.27207393047
 21
1459.407041015604
 31
0.0
  0
INSERT
  5
7ECC
330
81A3
100
AcDbEntity
  8
0
  6
ByBlock
100
AcDbBlockReference
  2
_OPEN
 10
3394.272073930469
 20
1459.407041015604
 30
0.0
 41
50.0
 42
50.0
 43
50.0
 50
180.0
  0
INSERT
  5
7ECD
330
81A3
100
AcDbEntity
  8
0
  6
ByBlock
100
AcDbBlockReference
  2
_OPEN
 10
4294.27207393047
 20
1459.407041015604
 30
0.0
 41
50.0
 42
50.0
 43
50.0
  0
TEXT
  5
7ECE
330
81A3
100
AcDbEntity
  8
3
100
AcDbText
 10
3747.843502501898
 20
1471.907041015605
 30
0.0
 40
75.0
  1
900
100
AcDbText
  0
POINT
  5
7ECF
330
81A3
100
AcDbEntity
  8
DEFPOINTS
  6
ByBlock
 62
     0
100
AcDbPoint
 10
3394.272073930469
 20
1267.802367882948
 30
0.0
  0
POINT
  5
7ED0
330
81A3
100
AcDbEntity
  8
DEFPOINTS
  6
ByBlock
 62
     0
100
AcDbPoint
 10
4294.27207393047
 20
1267.80235414594
 30
0.0
  0
POINT
  5
7ED1
330
81A3
100
AcDbEntity
  8
DEFPOINTS
  6
ByBlock
 62
     0
100
AcDbPoint
 10
4294.27207393047
 20
1459.407041015604
 30
0.0
  0
ENDBLK
  5
7ED2
330
81A3
100
AcDbEntity
  8
0
100
AcDbBlockEnd
  0
BLOCK
  5
81A6
330
81A5
100
AcDbEntity
  8
0
100
AcDbBlockBegin
  2
*D10
 70
     1
 10
0.0
 20
0.0
 30
0.0
  3
*D10
  1

  0
LINE
  5
7FED
330
81A5
100
AcDbEntity
  8
0
  6
ByBlock
100
AcDbLine
 10
3178.266996014719
 20
2702.648447497555
 30
0.0
 11
3178.266996014719
 21
3523.715676899058
 31
0.0
  0
LINE
  5
7FEE
330
81A5
100
AcDbEntity
  8
0
  6
ByBlock
100
AcDbLine
 10
3933.266996014715
 20
3508.420243801976
 30
0.0
 11
3933.266996014715
 21
3523.715676899058
 31
0.0
  0
LINE
  5
7FEF
330
81A5
100
AcDbEntity
  8
0
  6
ByBlock
100
AcDbLine
 10
3228.266996014719
 20
3498.715676899058
 30
0.0
 11
3883.266996014715
 21
3498.715676899058
 31
0.0
  0
INSERT
  5
7FF0
330
81A5
100
AcDbEntity
  8
0
  6
ByBlock
100
AcDbBlockReference
  2
_OPEN
 10
3178.266996014719
 20
3498.715676899058
 30
0.0
 41
50.0
 42
50.0
 43
50.0
 50
180.0
  0
INSERT
  5
7FF1
330
81A5
100
AcDbEntity
  8
0
  6
ByBlock
100
AcDbBlockReference
  2
_OPEN
 10
3933.266996014715
 20
3498.715676899058
 30
0.0
 41
50.0
 42
50.0
 43
50.0
  0
INSERT
  5
7FF2
330
81A5
100
AcDbEntity
  8
3
100
AcDbBlockReference
  2
*U11
 10
0.0
 20
0.0
 30
0.0
  0
POINT
  5
7FF3
330
81A5
100
AcDbEntity
  8
DEFPOINTS
  6
ByBlock
 62
     0
100
AcDbPoint
 10
3178.266996014719
 20
2677.648447497555
 30
0.0
  0
POINT
  5
7FF4
330
81A5
100
AcDbEntity
  8
DEFPOINTS
  6
ByBlock
 62
     0
100
AcDbPoint
 10
3933.266996014715
 20
3483.420243801976
 30
0.0
  0
POINT
  5
7FF5
330
81A5
100
AcDbEntity
  8
DEFPOINTS
  6
ByBlock
 62
     0
100
AcDbPoint
 10
3933.266996014715
 20
3498.715676899058
 30
0.0
  0
ENDBLK
  5
7FF6
330
81A5
100
AcDbEntity
  8
0
100
AcDbBlockEnd
  0
BLOCK
  5
81C6
330
81A7
100
AcDbEntity
  8
0
100
AcDbBlockBegin
  2
*U11
 70
     1
 10
0.0
 20
0.0
 30
0.0
  3
*U11
  1

  0
TEXT
  5
810F
330
81A7
100
AcDbEntity
  8
3
100
AcDbText
 10
3448.624138871861
 20
3636.215676899059
 30
0.0
 40
75.0
  1
MAX
100
AcDbText
  0
TEXT
  5
8110
330
81A7
100
AcDbEntity
  8
3
100
AcDbText
 10
3459.338424586146
 20
3511.215676899059
 30
0.0
 40
75.0
  1
780
100
AcDbText
  0
ENDBLK
  5
8112
330
81A7
100
AcDbEntity
  8
0
100
AcDbBlockEnd
  0
BLOCK
  5
81A9
330
81A8
100
AcDbEntity
  8
0
100
AcDbBlockBegin
  2
*D12
 70
     1
 10
0.0
 20
0.0
 30
0.0
  3
*D12
  1

  0
LINE
  5
8003
330
81A8
100
AcDbEntity
  8
0
  6
ByBlock
100
AcDbLine
 10
3933.266996014715
 20
3470.899470513359
 30
0.0
 11
3933.266996014715
 21
3523.715676899058
 31
0.0
  0
LINE
  5
8004
330
81A8
100
AcDbEntity
  8
0
  6
ByBlock
100
AcDbLine
 10
4485.766996014716
 20
2397.448447497553
 30
0.0
 11
4485.766996014716
 21
3523.715676899058
 31
0.0
  0
LINE
  5
8005
330
81A8
100
AcDbEntity
  8
0
  6
ByBlock
100
AcDbLine
 10
3983.266996014716
 20
3498.715676899058
 30
0.0
 11
4435.766996014717
 21
3498.715676899058
 31
0.0
  0
INSERT
  5
8006
330
81A8
100
AcDbEntity
  8
0
  6
ByBlock
100
AcDbBlockReference
  2
_OPEN
 10
3933.266996014715
 20
3498.715676899058
 30
0.0
 41
50.0
 42
50.0
 43
50.0
 50
180.0
  0
INSERT
  5
8007
330
81A8
100
AcDbEntity
  8
0
  6
ByBlock
100
AcDbBlockReference
  2
_OPEN
 10
4485.766996014716
 20
3498.715676899058
 30
0.0
 41
50.0
 42
50.0
 43
50.0
  0
TEXT
  5
8008
330
81A8
100
AcDbEntity
  8
3
100
AcDbText
 10
4064.874138871856
 20
3543.358534041916
 30
0.0
 40
75.0
  1
(560)
100
AcDbText
  0
POINT
  5
8009
330
81A8
100
AcDbEntity
  8
DEFPOINTS
  6
ByBlock
 62
     0
100
AcDbPoint
 10
3933.266996014715
 20
3445.899470513359
 30
0.0
  0
POINT
  5
800A
330
81A8
100
AcDbEntity
  8
DEFPOINTS
  6
ByBlock
 62
     0
100
AcDbPoint
 10
4485.766996014716
 20
2372.448447497554
 30
0.0
  0
POINT
  5
800B
330
81A8
100
AcDbEntity
  8
DEFPOINTS
  6
ByBlock
 62
     0
100
AcDbPoint
 10
4485.766996014716
 20
3498.715676899058
 30
0.0
  0
ENDBLK
  5
800C
330
81A8
100
AcDbEntity
  8
0
100
AcDbBlockEnd
  0
BLOCK
  5
81AB
330
81AA
100
AcDbEntity
  8
0
100
AcDbBlockBegin
  2
*D13
 70
     1
 10
0.0
 20
0.0
 30
0.0
  3
*D13
  1

  0
LINE
  5
7EEA
330
81AA
100
AcDbEntity
  8
0
  6
ByBlock
100
AcDbLine
 10
4321.57207393047
 20
133.5934782213989
 30
0.0
 11
4597.054208885889
 21
133.5934782213989
 31
0.0
  0
LINE
  5
7EEB
330
81AA
100
AcDbEntity
  8
0
  6
ByBlock
100
AcDbLine
 10
4321.57207393047
 20
883.5934782213987
 30
0.0
 11
4597.054208885889
 21
883.5934782213987
 31
0.0
  0
LINE
  5
7EEC
330
81AA
100
AcDbEntity
  8
0
  6
ByBlock
100
AcDbLine
 10
4572.054208885889
 20
183.5934782213989
 30
0.0
 11
4572.054208885889
 21
833.5934782213987
 31
0.0
  0
INSERT
  5
7EED
330
81AA
100
AcDbEntity
  8
0
  6
ByBlock
100
AcDbBlockReference
  2
_OPEN
 10
4572.054208885889
 20
133.5934782213989
 30
0.0
 41
50.0
 42
50.0
 43
50.0
 50
270.0
  0
INSERT
  5
7EEE
330
81AA
100
AcDbEntity
  8
0
  6
ByBlock
100
AcDbBlockReference
  2
_OPEN
 10
4572.054208885889
 20
883.5934782213987
 30
0.0
 41
50.0
 42
50.0
 43
50.0
 50
90.0
  0
TEXT
  5
7EEF
330
81AA
100
AcDbEntity
  8
3
100
AcDbText
 10
4559.554208885889
 20
374.6649067928275
 30
0.0
 40
75.0
  1
\U+03C6750
 50
90.0
100
AcDbText
  0
POINT
  5
7EF0
330
81AA
100
AcDbEntity
  8
DEFPOINTS
  6
ByBlock
 62
     0
100
AcDbPoint
 10
4296.57207393047
 20
133.5934782213989
 30
0.0
  0
POINT
  5
7EF1
330
81AA
100
AcDbEntity
  8
DEFPOINTS
  6
ByBlock
 62
     0
100
AcDbPoint
 10
4296.57207393047
 20
883.5934782213987
 30
0.0
  0
POINT
  5
7EF2
330
81AA
100
AcDbEntity
  8
DEFPOINTS
  6
ByBlock
 62
     0
100
AcDbPoint
 10
4572.054208885889
 20
883.5934782213987
 30
0.0
  0
ENDBLK
  5
7EF3
330
81AA
100
AcDbEntity
  8
0
100
AcDbBlockEnd
  0
BLOCK
  5
81AD
330
81AC
100
AcDbEntity
  8
0
100
AcDbBlockBegin
  2
*D14
 70
     1
 10
0.0
 20
0.0
 30
0.0
  3
*D14
  1

  0
LINE
  5
7EF5
330
81AC
100
AcDbEntity
  8
0
  6
ByBlock
100
AcDbLine
 10
1768.064354675493
 20
2748.533310535339
 30
0.0
 11
1768.064354675493
 21
2485.350850711191
 31
0.0
  0
LINE
  5
7EF6
330
81AC
100
AcDbEntity
  8
0
  6
ByBlock
100
AcDbLine
 10
168.0643546754927
 20
2748.533310535338
 30
0.0
 11
168.0643546754927
 21
2485.350850711191
 31
0.0
  0
LINE
  5
7EF7
330
81AC
100
AcDbEntity
  8
0
  6
ByBlock
100
AcDbLine
 10
1718.064354675493
 20
2510.350850711191
 30
0.0
 11
218.0643546754927
 21
2510.350850711191
 31
0.0
  0
INSERT
  5
7EF8
330
81AC
100
AcDbEntity
  8
0
  6
ByBlock
100
AcDbBlockReference
  2
_OPEN
 10
1768.064354675493
 20
2510.350850711191
 30
0.0
 41
50.0
 42
50.0
 43
50.0
  0
INSERT
  5
7EF9
330
81AC
100
AcDbEntity
  8
0
  6
ByBlock
100
AcDbBlockReference
  2
_OPEN
 10
168.0643546754927
 20
2510.350850711191
 30
0.0
 41
50.0
 42
50.0
 43
50.0
 50
180.0
  0
TEXT
  5
7EFA
330
81AC
100
AcDbEntity
  8
3
100
AcDbText
 10
843.0643546754925
 20
2522.850850711191
 30
0.0
 40
75.0
  1
1600
100
AcDbText
  0
POINT
  5
7EFB
330
81AC
100
AcDbEntity
  8
DEFPOINTS
  6
ByBlock
 62
     0
100
AcDbPoint
 10
1768.064354675493
 20
2773.533310535339
 30
0.0
  0
POINT
  5
7EFC
330
81AC
100
AcDbEntity
  8
DEFPOINTS
  6
ByBlock
 62
     0
100
AcDbPoint
 10
168.0643546754927
 20
2773.533310535337
 30
0.0
  0
POINT
  5
7EFD
330
81AC
100
AcDbEntity
  8
DEFPOINTS
  6
ByBlock
 62
     0
100
AcDbPoint
 10
168.0643546754927
 20
2510.350850711191
 30
0.0
  0
ENDBLK
  5
7EFE
330
81AC
100
AcDbEntity
  8
0
100
AcDbBlockEnd
  0
BLOCK
  5
81AF
330
81AE
100
AcDbEntity
  8
0
100
AcDbBlockBegin
  2
*D15
 70
     1
 10
0.0
 20
0.0
 30
0.0
  3
*D15
  1

  0
LINE
  5
7F00
330
81AE
100
AcDbEntity
  8
0
  6
ByBlock
100
AcDbLine
 10
1793.064354675492
 20
2773.533310535339
 30
0.0
 11
2093.934859510582
 21
2773.533310535339
 31
0.0
  0
LINE
  5
7F01
330
81AE
100
AcDbEntity
  8
0
  6
ByBlock
100
AcDbLine
 10
1793.064354675492
 20
3443.53331053534
 30
0.0
 11
2093.934859510582
 21
3443.53331053534
 31
0.0
  0
LINE
  5
7F02
330
81AE
100
AcDbEntity
  8
0
  6
ByBlock
100
AcDbLine
 10
2068.934859510582
 20
2823.533310535339
 30
0.0
 11
2068.934859510582
 21
3393.53331053534
 31
0.0
  0
INSERT
  5
7F03
330
81AE
100
AcDbEntity
  8
0
  6
ByBlock
100
AcDbBlockReference
  2
_OPEN
 10
2068.934859510582
 20
2773.533310535339
 30
0.0
 41
50.0
 42
50.0
 43
50.0
 50
270.0
  0
INSERT
  5
7F04
330
81AE
100
AcDbEntity
  8
0
  6
ByBlock
100
AcDbBlockReference
  2
_OPEN
 10
2068.934859510582
 20
3443.53331053534
 30
0.0
 41
50.0
 42
50.0
 43
50.0
 50
90.0
  0
TEXT
  5
7F05
330
81AE
100
AcDbEntity
  8
3
100
AcDbText
 10
2056.434859510583
 20
3012.104739106767
 30
0.0
 40
75.0
  1
670
 50
90.0
100
AcDbText
  0
POINT
  5
7F06
330
81AE
100
AcDbEntity
  8
DEFPOINTS
  6
ByBlock
 62
     0
100
AcDbPoint
 10
1768.064354675493
 20
2773.533310535339
 30
0.0
  0
POINT
  5
7F07
330
81AE
100
AcDbEntity
  8
DEFPOINTS
  6
ByBlock
 62
     0
100
AcDbPoint
 10
1768.064354675493
 20
3443.53331053534
 30
0.0
  0
POINT
  5
7F08
330
81AE
100
AcDbEntity
  8
DEFPOINTS
  6
ByBlock
 62
     0
100
AcDbPoint
 10
2068.934859510582
 20
3443.53331053534
 30
0.0
  0
ENDBLK
  5
7F09
330
81AE
100
AcDbEntity
  8
0
100
AcDbBlockEnd
  0
BLOCK
  5
81B1
330
81B0
100
AcDbEntity
  8
0
100
AcDbBlockBegin
  2
*D16
 70
     1
 10
0.0
 20
0.0
 30
0.0
  3
*D16
  1

  0
LINE
  5
7F0B
330
81B0
100
AcDbEntity
  8
0
  6
ByBlock
100
AcDbLine
 10
1068.064354675492
 20
3953.533310535338
 30
0.0
 11
1068.064354675492
 21
4255.16536493951
 31
0.0
  0
LINE
  5
7F0C
330
81B0
100
AcDbEntity
  8
0
  6
ByBlock
100
AcDbLine
 10
168.0643546754927
 20
3953.533310535338
 30
0.0
 11
168.0643546754927
 21
4255.16536493951
 31
0.0
  0
LINE
  5
7F0D
330
81B0
100
AcDbEntity
  8
0
  6
ByBlock
100
AcDbLine
 10
1018.064354675492
 20
4230.165364939511
 30
0.0
 11
218.0643546754927
 21
4230.165364939511
 31
0.0
  0
INSERT
  5
7F0E
330
81B0
100
AcDbEntity
  8
0
  6
ByBlock
100
AcDbBlockReference
  2
_OPEN
 10
1068.064354675492
 20
4230.165364939511
 30
0.0
 41
50.0
 42
50.0
 43
50.0
  0
INSERT
  5
7F0F
330
81B0
100
AcDbEntity
  8
0
  6
ByBlock
100
AcDbBlockReference
  2
_OPEN
 10
168.0643546754927
 20
4230.165364939511
 30
0.0
 41
50.0
 42
50.0
 43
50.0
 50
180.0
  0
TEXT
  5
7F10
330
81B0
100
AcDbEntity
  8
3
100
AcDbText
 10
521.6357832469213
 20
4242.665364939511
 30
0.0
 40
75.0
  1
900
100
AcDbText
  0
POINT
  5
7F11
330
81B0
100
AcDbEntity
  8
DEFPOINTS
  6
ByBlock
 62
     0
100
AcDbPoint
 10
1068.064354675492
 20
3928.533310535339
 30
0.0
  0
POINT
  5
7F12
330
81B0
100
AcDbEntity
  8
DEFPOINTS
  6
ByBlock
 62
     0
100
AcDbPoint
 10
168.0643546754927
 20
3928.533310535338
 30
0.0
  0
POINT
  5
7F13
330
81B0
100
AcDbEntity
  8
DEFPOINTS
  6
ByBlock
 62
     0
100
AcDbPoint
 10
168.0643546754927
 20
4230.165364939511
 30
0.0
  0
ENDBLK
  5
7F14
330
81B0
100
AcDbEntity
  8
0
100
AcDbBlockEnd
  0
BLOCK
  5
81B3
330
81B2
100
AcDbEntity
  8
0
100
AcDbBlockBegin
  2
*D17
 70
     1
 10
0.0
 20
0.0
 30
0.0
  3
*D17
  1

  0
LINE
  5
7F16
330
81B2
100
AcDbEntity
  8
0
  6
ByBlock
100
AcDbLine
 10
1768.064354675493
 20
3468.53331053534
 30
0.0
 11
1768.064354675493
 21
4255.16536493951
 31
0.0
  0
LINE
  5
7F17
330
81B2
100
AcDbEntity
  8
0
  6
ByBlock
100
AcDbLine
 10
1068.064354675492
 20
3953.533310535338
 30
0.0
 11
1068.064354675492
 21
4255.16536493951
 31
0.0
  0
LINE
  5
7F18
330
81B2
100
AcDbEntity
  8
0
  6
ByBlock
100
AcDbLine
 10
1718.064354675493
 20
4230.165364939511
 30
0.0
 11
1118.064354675492
 21
4230.165364939511
 31
0.0
  0
INSERT
  5
7F19
330
81B2
100
AcDbEntity
  8
0
  6
ByBlock
100
AcDbBlockReference
  2
_OPEN
 10
1768.064354675493
 20
4230.165364939511
 30
0.0
 41
50.0
 42
50.0
 43
50.0
  0
INSERT
  5
7F1A
330
81B2
100
AcDbEntity
  8
0
  6
ByBlock
100
AcDbBlockReference
  2
_OPEN
 10
1068.064354675492
 20
4230.165364939511
 30
0.0
 41
50.0
 42
50.0
 43
50.0
 50
180.0
  0
TEXT
  5
7F1B
330
81B2
100
AcDbEntity
  8
3
100
AcDbText
 10
1321.63578324692
 20
4242.665364939511
 30
0.0
 40
75.0
  1
700
100
AcDbText
  0
POINT
  5
7F1C
330
81B2
100
AcDbEntity
  8
DEFPOINTS
  6
ByBlock
 62
     0
100
AcDbPoint
 10
1768.064354675493
 20
3443.53331053534
 30
0.0
  0
POINT
  5
7F1D
330
81B2
100
AcDbEntity
  8
DEFPOINTS
  6
ByBlock
 62
     0
100
AcDbPoint
 10
1068.064354675492
 20
3928.533310535339
 30
0.0
  0
POINT
  5
7F1E
330
81B2
100
AcDbEntity
  8
DEFPOINTS
  6
ByBlock
 62
     0
100
AcDbPoint
 10
1068.064354675492
 20
4230.165364939511
 30
0.0
  0
ENDBLK
  5
7F1F
330
81B2
100
AcDbEntity
  8
0
100
AcDbBlockEnd
  0
BLOCK
  5
81B5
330
81B4
100
AcDbEntity
  8
0
100
AcDbBlockBegin
  2
*D18
 70
     1
 10
0.0
 20
0.0
 30
0.0
  3
*D18
  1

  0
LINE
  5
7F21
330
81B4
100
AcDbEntity
  8
0
  6
ByBlock
100
AcDbLine
 10
143.0643546754927
 20
2773.533310535337
 30
0.0
 11
-158.3328534657648
 21
2773.533310535337
 31
0.0
  0
LINE
  5
7F22
330
81B4
100
AcDbEntity
  8
0
  6
ByBlock
100
AcDbLine
 10
143.0643546754927
 20
3928.533310535338
 30
0.0
 11
-158.3328534657648
 21
3928.533310535338
 31
0.0
  0
LINE
  5
7F23
330
81B4
100
AcDbEntity
  8
0
  6
ByBlock
100
AcDbLine
 10
-133.3328534657648
 20
2823.533310535337
 30
0.0
 11
-133.3328534657648
 21
3878.533310535337
 31
0.0
  0
INSERT
  5
7F24
330
81B4
100
AcDbEntity
  8
0
  6
ByBlock
100
AcDbBlockReference
  2
_OPEN
 10
-133.3328534657648
 20
2773.533310535337
 30
0.0
 41
50.0
 42
50.0
 43
50.0
 50
270.0
  0
INSERT
  5
7F25
330
81B4
100
AcDbEntity
  8
0
  6
ByBlock
100
AcDbBlockReference
  2
_OPEN
 10
-133.3328534657648
 20
3928.533310535338
 30
0.0
 41
50.0
 42
50.0
 43
50.0
 50
90.0
  0
TEXT
  5
7F26
330
81B4
100
AcDbEntity
  8
3
100
AcDbText
 10
-145.8328534657648
 20
3233.176167678195
 30
0.0
 40
75.0
  1
1155
 50
90.0
100
AcDbText
  0
POINT
  5
7F27
330
81B4
100
AcDbEntity
  8
DEFPOINTS
  6
ByBlock
 62
     0
100
AcDbPoint
 10
168.0643546754927
 20
2773.533310535337
 30
0.0
  0
POINT
  5
7F28
330
81B4
100
AcDbEntity
  8
DEFPOINTS
  6
ByBlock
 62
     0
100
AcDbPoint
 10
168.0643546754927
 20
3928.533310535338
 30
0.0
  0
POINT
  5
7F29
330
81B4
100
AcDbEntity
  8
DEFPOINTS
  6
ByBlock
 62
     0
100
AcDbPoint
 10
-133.3328534657648
 20
3928.533310535338
 30
0.0
  0
ENDBLK
  5
7F2A
330
81B4
100
AcDbEntity
  8
0
100
AcDbBlockEnd
  0
BLOCK
  5
81B7
330
81B6
100
AcDbEntity
  8
0
100
AcDbBlockBegin
  2
*D19
 70
     1
 10
0.0
 20
0.0
 30
0.0
  3
*D19
  1

  0
LINE
  5
7F51
330
81B6
100
AcDbEntity
  8
0
  6
ByBlock
100
AcDbLine
 10
118.0643546754926
 20
1334.593478221398
 30
0.0
 11
118.0643546754926
 21
1654.359497277424
 31
0.0
  0
LINE
  5
7F52
330
81B6
100
AcDbEntity
  8
0
  6
ByBlock
100
AcDbLine
 10
1768.064354675493
 20
88.59347822139898
 30
0.0
 11
1768.064354675493
 21
1654.359497277424
 31
0.0
  0
LINE
  5
7F53
330
81B6
100
AcDbEntity
  8
0
  6
ByBlock
100
AcDbLine
 10
168.0643546754927
 20
1629.359497277424
 30
0.0
 11
1718.064354675493
 21
1629.359497277424
 31
0.0
  0
INSERT
  5
7F54
330
81B6
100
AcDbEntity
  8
0
  6
ByBlock
100
AcDbBlockReference
  2
_OPEN
 10
118.0643546754926
 20
1629.359497277424
 30
0.0
 41
50.0
 42
50.0
 43
50.0
 50
180.0
  0
INSERT
  5
7F55
330
81B6
100
AcDbEntity
  8
0
  6
ByBlock
100
AcDbBlockReference
  2
_OPEN
 10
1768.064354675493
 20
1629.359497277424
 30
0.0
 41
50.0
 42
50.0
 43
50.0
  0
TEXT
  5
7F56
330
81B6
100
AcDbEntity
  8
3
100
AcDbText
 10
818.0643546754925
 20
1641.859497277424
 30
0.0
 40
75.0
  1
1650
100
AcDbText
  0
POINT
  5
7F57
330
81B6
100
AcDbEntity
  8
DEFPOINTS
  6
ByBlock
 62
     0
100
AcDbPoint
 10
118.0643546754926
 20
1309.593478221398
 30
0.0
  0
POINT
  5
7F58
330
81B6
100
AcDbEntity
  8
DEFPOINTS
  6
ByBlock
 62
     0
100
AcDbPoint
 10
1768.064354675493
 20
63.59347822139898
 30
0.0
  0
POINT
  5
7F59
330
81B6
100
AcDbEntity
  8
DEFPOINTS
  6
ByBlock
 62
     0
100
AcDbPoint
 10
1768.064354675493
 20
1629.359497277424
 30
0.0
  0
ENDBLK
  5
7F5A
330
81B6
100
AcDbEntity
  8
0
100
AcDbBlockEnd
  0
BLOCK
  5
81B9
330
81B8
100
AcDbEntity
  8
0
100
AcDbBlockBegin
  2
_DOT
 70
     0
 10
0.0
 20
0.0
 30
0.0
  3
_DOT
  1

  0
LWPOLYLINE
  5
7FDB
330
81B8
100
AcDbEntity
  8
0
  6
ByBlock
 62
     0
100
AcDbPolyline
 90
        2
 70
     1
 43
0.25
 10
-0.125
 20
0.0
 42
1.0
 10
0.125
 20
0.0
 42
1.0
  0
LINE
  5
7FDF
330
81B8
100
AcDbEntity
  8
0
  6
ByBlock
 62
     0
100
AcDbLine
 10
-0.25
 20
0.0
 30
0.0
 11
-1.0
 21
0.0
 31
0.0
  0
ENDBLK
  5
7FBE
330
81B8
100
AcDbEntity
  8
0
100
AcDbBlockEnd
  0
BLOCK
  5
81BB
330
81BA
100
AcDbEntity
  8
0
100
AcDbBlockBegin
  2
_NONE
 70
     0
 10
0.0
 20
0.0
 30
0.0
  3
_NONE
  1

  0
CIRCLE
  5
804B
330
81BA
100
AcDbEntity
  8
0
  6
ByBlock
 62
     0
100
AcDbCircle
 10
0.0
 20
0.0
 30
0.0
 40
0.25
  0
ENDBLK
  5
804C
330
81BA
100
AcDbEntity
  8
0
100
AcDbBlockEnd
  0
BLOCK
  5
81BD
330
81BC
100
AcDbEntity
  8
0
100
AcDbBlockBegin
  2
*D22
 70
     1
 10
0.0
 20
0.0
 30
0.0
  3
*D22
  1

  0
LINE
  5
8080
330
81BC
100
AcDbEntity
  8
0
  6
ByBlock
 62
     0
100
AcDbLine
 10
1220.739022619682
 20
1827.648447497555
 30
0.0
 11
1220.739022619682
 21
1668.292171204961
 31
0.0
  0
LINE
  5
8081
330
81BC
100
AcDbEntity
  8
0
  6
ByBlock
 62
     0
100
AcDbLine
 10
1670.739022619682
 20
1827.648447497555
 30
0.0
 11
1670.739022619682
 21
1668.292171204961
 31
0.0
  0
LINE
  5
8082
330
81BC
100
AcDbEntity
  8
0
  6
ByBlock
 62
     0
100
AcDbLine
 10
1270.739022619682
 20
1693.292171204961
 30
0.0
 11
1620.739022619682
 21
1693.292171204961
 31
0.0
  0
INSERT
  5
8083
330
81BC
100
AcDbEntity
  8
0
  6
ByBlock
 62
     0
100
AcDbBlockReference
  2
_OPEN
 10
1220.739022619682
 20
1693.292171204961
 30
0.0
 41
50.0
 42
50.0
 43
50.0
 50
180.0
  0
INSERT
  5
8084
330
81BC
100
AcDbEntity
  8
0
  6
ByBlock
 62
     0
100
AcDbBlockReference
  2
_OPEN
 10
1670.739022619682
 20
1693.292171204961
 30
0.0
 41
50.0
 42
50.0
 43
50.0
  0
TEXT
  5
8085
330
81BC
100
AcDbEntity
  8
3
 62
     0
100
AcDbText
 10
1349.310451191111
 20
1718.292171204961
 30
0.0
 40
75.0
  1
450
100
AcDbText
  0
POINT
  5
8086
330
81BC
100
AcDbEntity
  8
DEFPOINTS
  6
ByBlock
 62
     0
100
AcDbPoint
 10
1220.739022619682
 20
1852.648447497555
 30
0.0
  0
POINT
  5
8087
330
81BC
100
AcDbEntity
  8
DEFPOINTS
  6
ByBlock
 62
     0
100
AcDbPoint
 10
1670.739022619682
 20
1852.648447497555
 30
0.0
  0
POINT
  5
8088
330
81BC
100
AcDbEntity
  8
DEFPOINTS
  6
ByBlock
 62
     0
100
AcDbPoint
 10
1670.739022619682
 20
1693.292171204961
 30
0.0
  0
ENDBLK
  5
8089
330
81BC
100
AcDbEntity
  8
0
100
AcDbBlockEnd
  0
BLOCK
  5
81BF
330
81BE
100
AcDbEntity
  8
0
100
AcDbBlockBegin
  2
*D23
 70
     1
 10
0.0
 20
0.0
 30
0.0
  3
*D23
  1

  0
LINE
  5
808D
330
81BE
100
AcDbEntity
  8
0
  6
ByBlock
 62
     0
100
AcDbLine
 10
1670.739022619682
 20
1827.648447497555
 30
0.0
 11
1670.739022619682
 21
1668.292171204961
 31
0.0
  0
LINE
  5
808E
330
81BE
100
AcDbEntity
  8
0
  6
ByBlock
 62
     0
100
AcDbLine
 10
2820.739022619682
 20
1827.648447497555
 30
0.0
 11
2820.739022619682
 21
1668.292171204961
 31
0.0
  0
LINE
  5
808F
330
81BE
100
AcDbEntity
  8
0
  6
ByBlock
 62
     0
100
AcDbLine
 10
1720.739022619682
 20
1693.292171204961
 30
0.0
 11
2770.739022619682
 21
1693.292171204961
 31
0.0
  0
INSERT
  5
8090
330
81BE
100
AcDbEntity
  8
0
  6
ByBlock
 62
     0
100
AcDbBlockReference
  2
_OPEN
 10
1670.739022619682
 20
1693.292171204961
 30
0.0
 41
50.0
 42
50.0
 43
50.0
 50
180.0
  0
INSERT
  5
8091
330
81BE
100
AcDbEntity
  8
0
  6
ByBlock
 62
     0
100
AcDbBlockReference
  2
_OPEN
 10
2820.739022619682
 20
1693.292171204961
 30
0.0
 41
50.0
 42
50.0
 43
50.0
  0
TEXT
  5
8092
330
81BE
100
AcDbEntity
  8
3
 62
     0
100
AcDbText
 10
2127.881879762539
 20
1718.292171204961
 30
0.0
 40
75.0
  1
1150
100
AcDbText
  0
POINT
  5
8093
330
81BE
100
AcDbEntity
  8
DEFPOINTS
  6
ByBlock
 62
     0
100
AcDbPoint
 10
1670.739022619682
 20
1852.648447497555
 30
0.0
  0
POINT
  5
8094
330
81BE
100
AcDbEntity
  8
DEFPOINTS
  6
ByBlock
 62
     0
100
AcDbPoint
 10
2820.739022619682
 20
1852.648447497555
 30
0.0
  0
POINT
  5
8095
330
81BE
100
AcDbEntity
  8
DEFPOINTS
  6
ByBlock
 62
     0
100
AcDbPoint
 10
2820.739022619682
 20
1693.292171204961
 30
0.0
  0
ENDBLK
  5
8096
330
81BE
100
AcDbEntity
  8
0
100
AcDbBlockEnd
  0
BLOCK
  5
81C1
330
81C0
100
AcDbEntity
  8
0
100
AcDbBlockBegin
  2
*D24
 70
     1
 10
0.0
 20
0.0
 30
0.0
  3
*D24
  1

  0
LINE
  5
809A
330
81C0
100
AcDbEntity
  8
0
  6
ByBlock
 62
     0
100
AcDbLine
 10
3281.266996014715
 20
1827.648447497555
 30
0.0
 11
3281.266996014715
 21
1668.292171204961
 31
0.0
  0
LINE
  5
809B
330
81C0
100
AcDbEntity
  8
0
  6
ByBlock
 62
     0
100
AcDbLine
 10
3933.266996014717
 20
1827.648447497555
 30
0.0
 11
3933.266996014717
 21
1668.292171204961
 31
0.0
  0
LINE
  5
809C
330
81C0
100
AcDbEntity
  8
0
  6
ByBlock
 62
     0
100
AcDbLine
 10
3331.266996014715
 20
1693.292171204961
 30
0.0
 11
3883.266996014717
 21
1693.292171204961
 31
0.0
  0
INSERT
  5
809D
330
81C0
100
AcDbEntity
  8
0
  6
ByBlock
 62
     0
100
AcDbBlockReference
  2
_OPEN
 10
3281.266996014715
 20
1693.292171204961
 30
0.0
 41
50.0
 42
50.0
 43
50.0
 50
180.0
  0
INSERT
  5
809E
330
81C0
100
AcDbEntity
  8
0
  6
ByBlock
 62
     0
100
AcDbBlockReference
  2
_OPEN
 10
3933.266996014717
 20
1693.292171204961
 30
0.0
 41
50.0
 42
50.0
 43
50.0
  0
TEXT
  5
809F
330
81C0
100
AcDbEntity
  8
3
 62
     0
100
AcDbText
 10
3510.838424586144
 20
1718.292171204961
 30
0.0
 40
75.0
  1
652
100
AcDbText
  0
POINT
  5
80A0
330
81C0
100
AcDbEntity
  8
DEFPOINTS
  6
ByBlock
 62
     0
100
AcDbPoint
 10
3281.266996014715
 20
1852.648447497555
 30
0.0
  0
POINT
  5
80A1
330
81C0
100
AcDbEntity
  8
DEFPOINTS
  6
ByBlock
 62
     0
100
AcDbPoint
 10
3933.266996014717
 20
1852.648447497555
 30
0.0
  0
POINT
  5
80A2
330
81C0
100
AcDbEntity
  8
DEFPOINTS
  6
ByBlock
 62
     0
100
AcDbPoint
 10
3933.266996014717
 20
1693.292171204961
 30
0.0
  0
ENDBLK
  5
80A3
330
81C0
100
AcDbEntity
  8
0
100
AcDbBlockEnd
  0
BLOCK
  5
81C3
330
81C2
100
AcDbEntity
  8
0
100
AcDbBlockBegin
  2
*D25
 70
     1
 10
0.0
 20
0.0
 30
0.0
  3
*D25
  1

  0
LINE
  5
80A7
330
81C2
100
AcDbEntity
  8
0
  6
ByBlock
 62
     0
100
AcDbLine
 10
3933.266996014717
 20
1827.648447497555
 30
0.0
 11
3933.266996014717
 21
1668.292171204961
 31
0.0
  0
LINE
  5
80A8
330
81C2
100
AcDbEntity
  8
0
  6
ByBlock
 62
     0
100
AcDbLine
 10
4436.266996014714
 20
1827.648447497555
 30
0.0
 11
4436.266996014714
 21
1668.292171204961
 31
0.0
  0
LINE
  5
80A9
330
81C2
100
AcDbEntity
  8
0
  6
ByBlock
 62
     0
100
AcDbLine
 10
3983.266996014717
 20
1693.292171204961
 30
0.0
 11
4386.266996014716
 21
1693.292171204961
 31
0.0
  0
INSERT
  5
80AA
330
81C2
100
AcDbEntity
  8
0
  6
ByBlock
 62
     0
100
AcDbBlockReference
  2
_OPEN
 10
3933.266996014717
 20
1693.292171204961
 30
0.0
 41
50.0
 42
50.0
 43
50.0
 50
180.0
  0
INSERT
  5
80AB
330
81C2
100
AcDbEntity
  8
0
  6
ByBlock
 62
     0
100
AcDbBlockReference
  2
_OPEN
 10
4436.266996014714
 20
1693.292171204961
 30
0.0
 41
50.0
 42
50.0
 43
50.0
  0
TEXT
  5
80AC
330
81C2
100
AcDbEntity
  8
3
 62
     0
100
AcDbText
 10
4088.338424586144
 20
1718.292171204961
 30
0.0
 40
75.0
  1
503
100
AcDbText
  0
POINT
  5
80AD
330
81C2
100
AcDbEntity
  8
DEFPOINTS
  6
ByBlock
 62
     0
100
AcDbPoint
 10
3933.266996014717
 20
1852.648447497555
 30
0.0
  0
POINT
  5
80AE
330
81C2
100
AcDbEntity
  8
DEFPOINTS
  6
ByBlock
 62
     0
100
AcDbPoint
 10
4436.266996014714
 20
1852.648447497555
 30
0.0
  0
POINT
  5
80AF
330
81C2
100
AcDbEntity
  8
DEFPOINTS
  6
ByBlock
 62
     0
100
AcDbPoint
 10
4436.266996014714
 20
1693.292171204961
 30
0.0
  0
ENDBLK
  5
80B0
330
81C2
100
AcDbEntity
  8
0
100
AcDbBlockEnd
  0
BLOCK
  5
81C5
330
81C4
100
AcDbEntity
  8
0
100
AcDbBlockBegin
  2
*D26
 70
     1
 10
0.0
 20
0.0
 30
0.0
  3
*D26
  1

  0
LINE
  5
80B4
330
81C4
100
AcDbEntity
  8
0
  6
ByBlock
 62
     0
100
AcDbLine
 10
1195.739022619682
 20
1852.648447497555
 30
0.0
 11
695.7208073707842
 21
1852.648447497555
 31
0.0
  0
LINE
  5
80B5
330
81C4
100
AcDbEntity
  8
0
  6
ByBlock
 62
     0
100
AcDbLine
 10
1120.739022619682
 20
3156.648447497555
 30
0.0
 11
695.7208073707842
 21
3156.648447497555
 31
0.0
  0
LINE
  5
80B6
330
81C4
100
AcDbEntity
  8
0
  6
ByBlock
 62
     0
100
AcDbLine
 10
720.7208073707842
 20
1902.648447497555
 30
0.0
 11
720.7208073707842
 21
3106.648447497555
 31
0.0
  0
INSERT
  5
80B7
330
81C4
100
AcDbEntity
  8
0
  6
ByBlock
 62
     0
100
AcDbBlockReference
  2
_OPEN
 10
720.7208073707842
 20
1852.648447497555
 30
0.0
 41
50.0
 42
50.0
 43
50.0
 50
270.0
  0
INSERT
  5
80B8
330
81C4
100
AcDbEntity
  8
0
  6
ByBlock
 62
     0
100
AcDbBlockReference
  2
_OPEN
 10
720.7208073707842
 20
3156.648447497555
 30
0.0
 41
50.0
 42
50.0
 43
50.0
 50
90.0
  0
TEXT
  5
80B9
330
81C4
100
AcDbEntity
  8
3
 62
     0
100
AcDbText
 10
695.7208073707842
 20
2377.86273321184
 30
0.0
 40
75.0
  1
1304
 50
90.0
100
AcDbText
  0
POINT
  5
80BA
330
81C4
100
AcDbEntity
  8
DEFPOINTS
  6
ByBlock
 62
     0
100
AcDbPoint
 10
1220.739022619682
 20
1852.648447497555
 30
0.0
  0
POINT
  5
80BB
330
81C4
100
AcDbEntity
  8
DEFPOINTS
  6
ByBlock
 62
     0
100
AcDbPoint
 10
1145.739022619682
 20
3156.648447497555
 30
0.0
  0
POINT
  5
80BC
330
81C4
100
AcDbEntity
  8
DEFPOINTS
  6
ByBlock
 62
     0
100
AcDbPoint
 10
720.7208073707842
 20
3156.648447497555
 30
0.0
  0
ENDBLK
  5
80BD
330
81C4
100
AcDbEntity
  8
0
100
AcDbBlockEnd
  0
BLOCK
  5
8218
330
8217
100
AcDbEntity
  8
0
100
AcDbBlockBegin
  2
*D27
 70
     1
 10
0.0
 20
0.0
 30
0.0
  3
*D27
  1

  0
LINE
  5
821A
330
8217
100
AcDbEntity
  8
3
 62
     0
370
    -2
100
AcDbLine
 10
3178.266996014719
 20
2679.210947497555
 30
0.0
 11
3178.266996014719
 21
3503.215676899058
 31
0.0
  0
LINE
  5
821B
330
8217
100
AcDbEntity
  8
3
 62
     0
370
    -2
100
AcDbLine
 10
3933.266996014715
 20
3484.982743801976
 30
0.0
 11
3933.266996014715
 21
3503.215676899058
 31
0.0
  0
LINE
  5
821C
330
8217
100
AcDbEntity
  8
3
 62
     0
370
    -2
100
AcDbLine
 10
3182.766996014719
 20
3498.715676899058
 30
0.0
 11
3547.088424586146
 21
3498.715676899058
 31
0.0
  0
LINE
  5
821D
330
8217
100
AcDbEntity
  8
3
 62
     0
370
    -2
100
AcDbLine
 10
3928.766996014715
 20
3498.715676899058
 30
0.0
 11
3564.445567443288
 21
3498.715676899058
 31
0.0
  0
SOLID
  5
821E
330
8217
100
AcDbEntity
  8
3
 62
     0
100
AcDbTrace
 10
3182.766996014719
 20
3499.465676899058
 30
0.0
 11
3182.766996014719
 21
3497.965676899058
 31
0.0
 12
3178.266996014719
 22
3498.715676899058
 32
0.0
 13
3178.266996014719
 23
3498.715676899058
 33
0.0
  0
SOLID
  5
821F
330
8217
100
AcDbEntity
  8
3
 62
     0
100
AcDbTrace
 10
3928.766996014715
 20
3499.465676899058
 30
0.0
 11
3928.766996014715
 21
3497.965676899058
 31
0.0
 12
3933.266996014715
 22
3498.715676899058
 32
0.0
 13
3933.266996014715
 23
3498.715676899058
 33
0.0
  0
MTEXT
  5
8220
330
8217
100
AcDbEntity
  8
3
 62
     0
100
AcDbMText
 10
3555.766996014717
 20
3498.715676899058
 30
0.0
 40
4.5
 41
0.0
 71
     5
 72
     1
  1
\A1;MAX\P780
 73
     1
 44
1.0
1001
ACAD
1000
MTEXTBEGIN
1070
    73
1070
     1
1070
    44
1040
1.0
1070
    74
1070
     0
1000
MTEXTEND
  0
POINT
  5
8221
330
8217
100
AcDbEntity
  8
DEFPOINTS
 62
     0
100
AcDbPoint
 10
3178.266996014719
 20
2677.648447497555
 30
0.0
  0
POINT
  5
8222
330
8217
100
AcDbEntity
  8
DEFPOINTS
 62
     0
100
AcDbPoint
 10
3933.266996014715
 20
3483.420243801976
 30
0.0
  0
POINT
  5
8223
330
8217
100
AcDbEntity
  8
DEFPOINTS
 62
     0
100
AcDbPoint
 10
3933.266996014715
 20
3498.715676899058
 30
0.0
  0
ENDBLK
  5
8219
330
8217
100
AcDbEntity
  8
0
100
AcDbBlockEnd
  0
BLOCK
  5
8226
330
8225
100
AcDbEntity
  8
0
100
AcDbBlockBegin
  2
*D28
 70
     1
 10
0.0
 20
0.0
 30
0.0
  3
*D28
  1

  0
LINE
  5
86DB
330
8225
100
AcDbEntity
  8
3
 62
     0
370
    -2
100
AcDbLine
 10
3093.266996014719
 20
2702.648447497555
 30
0.0
 11
3093.266996014719
 21
3545.815796221505
 31
0.0
  0
LINE
  5
86DC
330
8225
100
AcDbEntity
  8
3
 62
     0
370
    -2
100
AcDbLine
 10
3933.266996014717
 20
3460.962010291761
 30
0.0
 11
3933.266996014717
 21
3545.815796221505
 31
0.0
  0
LINE
  5
86DD
330
8225
100
AcDbEntity
  8
3
 62
     0
370
    -2
100
AcDbLine
 10
3143.266996014719
 20
3520.815796221505
 30
0.0
 11
3883.266996014717
 21
3520.815796221505
 31
0.0
  0
INSERT
  5
86DE
330
8225
100
AcDbEntity
  8
3
 62
     0
370
    -2
100
AcDbBlockReference
  2
_OPEN
 10
3093.266996014719
 20
3520.815796221505
 30
0.0
 41
50.0
 42
50.0
 43
50.0
 50
180.0
  0
INSERT
  5
86DF
330
8225
100
AcDbEntity
  8
3
 62
     0
370
    -2
100
AcDbBlockReference
  2
_OPEN
 10
3933.266996014717
 20
3520.815796221505
 30
0.0
 41
50.0
 42
50.0
 43
50.0
  0
MTEXT
  5
86E0
330
8225
100
AcDbEntity
  8
3
 62
     0
100
AcDbMText
 10
3513.266996014718
 20
3602.958653364362
 30
0.0
 40
75.0
 41
0.0
 71
     5
 72
     1
  1
\A1;(840)
 73
     1
 44
1.0
1001
ACAD
1000
MTEXTBEGIN
1070
    73
1070
     1
1070
    44
1040
1.0
1070
    74
1070
     0
1000
MTEXTEND
  0
POINT
  5
86E1
330
8225
100
AcDbEntity
  8
DEFPOINTS
 62
     0
100
AcDbPoint
 10
3093.266996014719
 20
2677.648447497555
 30
0.0
  0
POINT
  5
86E2
330
8225
100
AcDbEntity
  8
DEFPOINTS
 62
     0
100
AcDbPoint
 10
3933.266996014717
 20
3435.962010291761
 30
0.0
  0
POINT
  5
86E3
330
8225
100
AcDbEntity
  8
DEFPOINTS
 62
     0
100
AcDbPoint
 10
3933.266996014717
 20
3520.815796221505
 30
0.0
  0
ENDBLK
  5
8227
330
8225
100
AcDbEntity
  8
0
100
AcDbBlockEnd
  0
BLOCK
  5
8233
330
8232
100
AcDbEntity
  8
0
100
AcDbBlockBegin
  2
*D29
 70
     1
 10
0.0
 20
0.0
 30
0.0
  3
*D29
  1

  0
LINE
  5
86E4
330
8232
100
AcDbEntity
  8
3
 62
     0
370
    -2
100
AcDbLine
 10
3933.266996014717
 20
3460.962010291761
 30
0.0
 11
3933.266996014717
 21
3545.815796221505
 31
0.0
  0
LINE
  5
86E5
330
8232
100
AcDbEntity
  8
3
 62
     0
370
    -2
100
AcDbLine
 10
4493.266996014716
 20
2397.448447497553
 30
0.0
 11
4493.266996014716
 21
3545.815796221505
 31
0.0
  0
LINE
  5
86E6
330
8232
100
AcDbEntity
  8
3
 62
     0
370
    -2
100
AcDbLine
 10
3983.266996014717
 20
3520.815796221505
 30
0.0
 11
4443.266996014716
 21
3520.815796221505
 31
0.0
  0
INSERT
  5
86E7
330
8232
100
AcDbEntity
  8
3
 62
     0
370
    -2
100
AcDbBlockReference
  2
_OPEN
 10
3933.266996014717
 20
3520.815796221505
 30
0.0
 41
50.0
 42
50.0
 43
50.0
 50
180.0
  0
INSERT
  5
86E8
330
8232
100
AcDbEntity
  8
3
 62
     0
370
    -2
100
AcDbBlockReference
  2
_OPEN
 10
4493.266996014716
 20
3520.815796221505
 30
0.0
 41
50.0
 42
50.0
 43
50.0
  0
MTEXT
  5
86E9
330
8232
100
AcDbEntity
  8
3
 62
     0
100
AcDbMText
 10
4213.266996014715
 20
3602.958653364362
 30
0.0
 40
75.0
 41
0.0
 71
     5
 72
     1
  1
\A1;(560)
 73
     1
 44
1.0
1001
ACAD
1000
MTEXTBEGIN
1070
    73
1070
     1
1070
    44
1040
1.0
1070
    74
1070
     0
1000
MTEXTEND
  0
POINT
  5
86EA
330
8232
100
AcDbEntity
  8
DEFPOINTS
 62
     0
100
AcDbPoint
 10
3933.266996014717
 20
3435.962010291761
 30
0.0
  0
POINT
  5
86EB
330
8232
100
AcDbEntity
  8
DEFPOINTS
 62
     0
100
AcDbPoint
 10
4493.266996014716
 20
2372.448447497554
 30
0.0
  0
POINT
  5
86EC
330
8232
100
AcDbEntity
  8
DEFPOINTS
 62
     0
100
AcDbPoint
 10
4493.266996014716
 20
3520.815796221505
 30
0.0
  0
ENDBLK
  5
8234
330
8232
100
AcDbEntity
  8
0
100
AcDbBlockEnd
  0
BLOCK
  5
8248
330
8247
100
AcDbEntity
  8
0
100
AcDbBlockBegin
  2
*D30
 70
     1
 10
0.0
 20
0.0
 30
0.0
  3
*D30
  1

  0
LINE
  5
8249
330
8247
100
AcDbEntity
  8
0
  6
ByBlock
100
AcDbLine
 10
110.6032242090332
 20
1267.593478221399
 30
0.0
 11
-38.40415957019286
 21
1267.593478221399
 31
0.0
  0
LINE
  5
824A
330
8247
100
AcDbEntity
  8
0
  6
ByBlock
100
AcDbLine
 10
110.6032242090323
 20
537.5934782213989
 30
0.0
 11
-38.40415957019286
 21
537.5934782213989
 31
0.0
  0
LINE
  5
824B
330
8247
100
AcDbEntity
  8
0
  6
ByBlock
100
AcDbLine
 10
-13.40415957019286
 20
1217.593478221399
 30
0.0
 11
-13.40415957019286
 21
587.5934782213989
 31
0.0
  0
INSERT
  5
824C
330
8247
100
AcDbEntity
  8
0
  6
ByBlock
100
AcDbBlockReference
  2
_OPEN
 10
-13.40415957019286
 20
1267.593478221399
 30
0.0
 41
50.0
 42
50.0
 43
50.0
 50
90.0
  0
INSERT
  5
824D
330
8247
100
AcDbEntity
  8
0
  6
ByBlock
100
AcDbBlockReference
  2
_OPEN
 10
-13.40415957019286
 20
537.5934782213989
 30
0.0
 41
50.0
 42
50.0
 43
50.0
 50
270.0
  0
MTEXT
  5
824E
330
8247
100
AcDbEntity
  8
0
  6
ByBlock
100
AcDbMText
 10
-63.40415957019286
 20
902.593478221399
 30
0.0
 40
75.0
 41
0.0
 71
     5
 72
     5
  1
\A1;730
 11
0.0
 21
1.0
 31
0.0
 73
     1
 44
1.0
1001
ACAD
1000
MTEXTBEGIN
1070
    73
1070
     1
1070
    44
1040
1.0
1070
    74
1070
     0
1000
MTEXTEND
  0
POINT
  5
824F
330
8247
100
AcDbEntity
  8
DEFPOINTS
  6
ByBlock
 62
     0
100
AcDbPoint
 10
135.6032242090332
 20
1267.593478221399
 30
0.0
  0
POINT
  5
8250
330
8247
100
AcDbEntity
  8
DEFPOINTS
  6
ByBlock
 62
     0
100
AcDbPoint
 10
135.6032242090323
 20
537.5934782213989
 30
0.0
  0
POINT
  5
8251
330
8247
100
AcDbEntity
  8
DEFPOINTS
  6
ByBlock
 62
     0
100
AcDbPoint
 10
-13.40415957019286
 20
537.5934782213989
 30
0.0
  0
ENDBLK
  5
8252
330
8247
100
AcDbEntity
  8
0
100
AcDbBlockEnd
  0
BLOCK
  5
8254
330
8253
100
AcDbEntity
  8
0
100
AcDbBlockBegin
  2
*D31
 70
     1
 10
0.0
 20
0.0
 30
0.0
  3
*D31
  1

  0
LINE
  5
8255
330
8253
100
AcDbEntity
  8
0
  6
ByBlock
100
AcDbLine
 10
110.6032242090332
 20
1267.593478221399
 30
0.0
 11
-191.2129330438583
 21
1267.593478221399
 31
0.0
  0
LINE
  5
8256
330
8253
100
AcDbEntity
  8
0
  6
ByBlock
100
AcDbLine
 10
-11.66261459639645
 20
508.5934782213989
 30
0.0
 11
-191.2129330438583
 21
508.5934782213989
 31
0.0
  0
LINE
  5
8257
330
8253
100
AcDbEntity
  8
0
  6
ByBlock
100
AcDbLine
 10
-166.2129330438583
 20
1217.593478221399
 30
0.0
 11
-166.2129330438583
 21
558.5934782213989
 31
0.0
  0
INSERT
  5
8258
330
8253
100
AcDbEntity
  8
0
  6
ByBlock
100
AcDbBlockReference
  2
_OPEN
 10
-166.2129330438583
 20
1267.593478221399
 30
0.0
 41
50.0
 42
50.0
 43
50.0
 50
90.0
  0
INSERT
  5
8259
330
8253
100
AcDbEntity
  8
0
  6
ByBlock
100
AcDbBlockReference
  2
_OPEN
 10
-166.2129330438583
 20
508.5934782213989
 30
0.0
 41
50.0
 42
50.0
 43
50.0
 50
270.0
  0
MTEXT
  5
825A
330
8253
100
AcDbEntity
  8
0
  6
ByBlock
100
AcDbMText
 10
-216.2129330438584
 20
888.0934782213989
 30
0.0
 40
75.0
 41
0.0
 71
     5
 72
     5
  1
\A1;759
 11
0.0
 21
1.0
 31
0.0
 73
     1
 44
1.0
1001
ACAD
1000
MTEXTBEGIN
1070
    73
1070
     1
1070
    44
1040
1.0
1070
    74
1070
     0
1000
MTEXTEND
  0
POINT
  5
825B
330
8253
100
AcDbEntity
  8
DEFPOINTS
  6
ByBlock
 62
     0
100
AcDbPoint
 10
135.6032242090332
 20
1267.593478221399
 30
0.0
  0
POINT
  5
825C
330
8253
100
AcDbEntity
  8
DEFPOINTS
  6
ByBlock
 62
     0
100
AcDbPoint
 10
13.33738540360355
 20
508.5934782213989
 30
0.0
  0
POINT
  5
825D
330
8253
100
AcDbEntity
  8
DEFPOINTS
  6
ByBlock
 62
     0
100
AcDbPoint
 10
-166.2129330438583
 20
508.5934782213989
 30
0.0
  0
ENDBLK
  5
825E
330
8253
100
AcDbEntity
  8
0
100
AcDbBlockEnd
  0
BLOCK
  5
8260
330
825F
100
AcDbEntity
  8
0
100
AcDbBlockBegin
  2
*D32
 70
     1
 10
0.0
 20
0.0
 30
0.0
  3
*D32
  1

  0
LINE
  5
8261
330
825F
100
AcDbEntity
  8
0
  6
ByBlock
100
AcDbLine
 10
135.6032242090332
 20
1334.593478221398
 30
0.0
 11
135.6032242090332
 21
1485.57401040243
 31
0.0
  0
LINE
  5
8262
330
825F
100
AcDbEntity
  8
0
  6
ByBlock
100
AcDbLine
 10
635.6032242090332
 20
1363.644762678541
 30
0.0
 11
635.6032242090332
 21
1485.57401040243
 31
0.0
  0
LINE
  5
8263
330
825F
100
AcDbEntity
  8
0
  6
ByBlock
100
AcDbLine
 10
185.6032242090332
 20
1460.57401040243
 30
0.0
 11
585.6032242090332
 21
1460.57401040243
 31
0.0
  0
INSERT
  5
8264
330
825F
100
AcDbEntity
  8
0
  6
ByBlock
100
AcDbBlockReference
  2
_OPEN
 10
135.6032242090332
 20
1460.57401040243
 30
0.0
 41
50.0
 42
50.0
 43
50.0
 50
180.0
  0
INSERT
  5
8265
330
825F
100
AcDbEntity
  8
0
  6
ByBlock
100
AcDbBlockReference
  2
_OPEN
 10
635.6032242090332
 20
1460.57401040243
 30
0.0
 41
50.0
 42
50.0
 43
50.0
  0
MTEXT
  5
8266
330
825F
100
AcDbEntity
  8
0
  6
ByBlock
100
AcDbMText
 10
385.6032242090332
 20
1510.57401040243
 30
0.0
 40
75.0
 41
0.0
 71
     5
 72
     5
  1
\A1;500
 73
     1
 44
1.0
1001
ACAD
1000
MTEXTBEGIN
1070
    73
1070
     1
1070
    44
1040
1.0
1070
    74
1070
     0
1000
MTEXTEND
  0
POINT
  5
8267
330
825F
100
AcDbEntity
  8
DEFPOINTS
  6
ByBlock
 62
     0
100
AcDbPoint
 10
135.6032242090332
 20
1309.593478221398
 30
0.0
  0
POINT
  5
8268
330
825F
100
AcDbEntity
  8
DEFPOINTS
  6
ByBlock
 62
     0
100
AcDbPoint
 10
635.6032242090332
 20
1338.644762678541
 30
0.0
  0
POINT
  5
8269
330
825F
100
AcDbEntity
  8
DEFPOINTS
  6
ByBlock
 62
     0
100
AcDbPoint
 10
635.6032242090332
 20
1460.57401040243
 30
0.0
  0
ENDBLK
  5
826A
330
825F
100
AcDbEntity
  8
0
100
AcDbBlockEnd
  0
BLOCK
  5
826C
330
826B
100
AcDbEntity
  8
0
100
AcDbBlockBegin
  2
*D33
 70
     1
 10
0.0
 20
0.0
 30
0.0
  3
*D33
  1

  0
LINE
  5
826D
330
826B
100
AcDbEntity
  8
0
  6
ByBlock
100
AcDbLine
 10
3369.27207393047
 20
1334.593478221399
 30
0.0
 11
3369.27207393047
 21
1484.934978527817
 31
0.0
  0
LINE
  5
826E
330
826B
100
AcDbEntity
  8
0
  6
ByBlock
100
AcDbLine
 10
4319.272073930469
 20
1334.593478221399
 30
0.0
 11
4319.272073930469
 21
1484.934978527817
 31
0.0
  0
LINE
  5
826F
330
826B
100
AcDbEntity
  8
0
  6
ByBlock
100
AcDbLine
 10
3419.27207393047
 20
1459.934978527817
 30
0.0
 11
4269.272073930469
 21
1459.934978527817
 31
0.0
  0
INSERT
  5
8270
330
826B
100
AcDbEntity
  8
0
  6
ByBlock
100
AcDbBlockReference
  2
_OPEN
 10
3369.27207393047
 20
1459.934978527817
 30
0.0
 41
50.0
 42
50.0
 43
50.0
 50
180.0
  0
INSERT
  5
8271
330
826B
100
AcDbEntity
  8
0
  6
ByBlock
100
AcDbBlockReference
  2
_OPEN
 10
4319.272073930469
 20
1459.934978527817
 30
0.0
 41
50.0
 42
50.0
 43
50.0
  0
MTEXT
  5
8272
330
826B
100
AcDbEntity
  8
0
  6
ByBlock
100
AcDbMText
 10
3844.27207393047
 20
1509.934978527817
 30
0.0
 40
75.0
 41
0.0
 71
     5
 72
     5
  1
\A1;950
 73
     1
 44
1.0
1001
ACAD
1000
MTEXTBEGIN
1070
    73
1070
     1
1070
    44
1040
1.0
1070
    74
1070
     0
1000
MTEXTEND
  0
POINT
  5
8273
330
826B
100
AcDbEntity
  8
DEFPOINTS
  6
ByBlock
 62
     0
100
AcDbPoint
 10
3369.27207393047
 20
1309.593478221399
 30
0.0
  0
POINT
  5
8274
330
826B
100
AcDbEntity
  8
DEFPOINTS
  6
ByBlock
 62
     0
100
AcDbPoint
 10
4319.272073930469
 20
1309.593478221399
 30
0.0
  0
POINT
  5
8275
330
826B
100
AcDbEntity
  8
DEFPOINTS
  6
ByBlock
 62
     0
100
AcDbPoint
 10
4319.272073930469
 20
1459.934978527817
 30
0.0
  0
ENDBLK
  5
8276
330
826B
100
AcDbEntity
  8
0
100
AcDbBlockEnd
  0
BLOCK
  5
8278
330
8277
100
AcDbEntity
  8
0
100
AcDbBlockBegin
  2
*D34
 70
     1
 10
0.0
 20
0.0
 30
0.0
  3
*D34
  1

  0
LINE
  5
8279
330
8277
100
AcDbEntity
  8
0
  6
ByBlock
100
AcDbLine
 10
4349.772073930469
 20
153.593478221399
 30
0.0
 11
4596.274084275781
 21
153.593478221399
 31
0.0
  0
LINE
  5
827A
330
8277
100
AcDbEntity
  8
0
  6
ByBlock
100
AcDbLine
 10
4349.772073930469
 20
863.593478221399
 30
0.0
 11
4596.274084275781
 21
863.593478221399
 31
0.0
  0
LINE
  5
827B
330
8277
100
AcDbEntity
  8
0
  6
ByBlock
100
AcDbLine
 10
4571.27408427578
 20
203.593478221399
 30
0.0
 11
4571.27408427578
 21
813.593478221399
 31
0.0
  0
INSERT
  5
827C
330
8277
100
AcDbEntity
  8
0
  6
ByBlock
100
AcDbBlockReference
  2
_OPEN
 10
4571.27408427578
 20
153.593478221399
 30
0.0
 41
50.0
 42
50.0
 43
50.0
 50
270.0
  0
INSERT
  5
827D
330
8277
100
AcDbEntity
  8
0
  6
ByBlock
100
AcDbBlockReference
  2
_OPEN
 10
4571.27408427578
 20
863.593478221399
 30
0.0
 41
50.0
 42
50.0
 43
50.0
 50
90.0
  0
MTEXT
  5
827E
330
8277
100
AcDbEntity
  8
0
  6
ByBlock
100
AcDbMText
 10
4521.274084275781
 20
508.5934782213989
 30
0.0
 40
75.0
 41
0.0
 71
     5
 72
     5
  1
\A1;\U+03C6710
 11
0.0
 21
1.0
 31
0.0
 73
     1
 44
1.0
1001
ACAD
1000
MTEXTBEGIN
1070
    73
1070
     1
1070
    44
1040
1.0
1070
    74
1070
     0
1000
MTEXTEND
  0
POINT
  5
827F
330
8277
100
AcDbEntity
  8
DEFPOINTS
  6
ByBlock
 62
     0
100
AcDbPoint
 10
4324.772073930469
 20
153.593478221399
 30
0.0
  0
POINT
  5
8280
330
8277
100
AcDbEntity
  8
DEFPOINTS
  6
ByBlock
 62
     0
100
AcDbPoint
 10
4324.772073930469
 20
863.593478221399
 30
0.0
  0
POINT
  5
8281
330
8277
100
AcDbEntity
  8
DEFPOINTS
  6
ByBlock
 62
     0
100
AcDbPoint
 10
4571.27408427578
 20
863.593478221399
 30
0.0
  0
ENDBLK
  5
8282
330
8277
100
AcDbEntity
  8
0
100
AcDbBlockEnd
  0
BLOCK
  5
8284
330
8283
100
AcDbEntity
  8
0
100
AcDbBlockBegin
  2
*D35
 70
     1
 10
0.0
 20
0.0
 30
0.0
  3
*D35
  1

  0
LINE
  5
8285
330
8283
100
AcDbEntity
  8
0
  6
ByBlock
100
AcDbLine
 10
1717.719751513126
 20
5445.797394839574
 30
0.0
 11
1717.719751513126
 21
5653.282608033805
 31
0.0
  0
LINE
  5
8286
330
8283
100
AcDbEntity
  8
0
  6
ByBlock
100
AcDbLine
 10
817.7197515131265
 20
5445.797394839573
 30
0.0
 11
817.7197515131265
 21
5653.282608033805
 31
0.0
  0
LINE
  5
8287
330
8283
100
AcDbEntity
  8
0
  6
ByBlock
100
AcDbLine
 10
1667.719751513126
 20
5628.282608033805
 30
0.0
 11
867.7197515131265
 21
5628.282608033805
 31
0.0
  0
INSERT
  5
8288
330
8283
100
AcDbEntity
  8
0
  6
ByBlock
100
AcDbBlockReference
  2
_OPEN
 10
1717.719751513126
 20
5628.282608033805
 30
0.0
 41
50.0
 42
50.0
 43
50.0
  0
INSERT
  5
8289
330
8283
100
AcDbEntity
  8
0
  6
ByBlock
100
AcDbBlockReference
  2
_OPEN
 10
817.7197515131265
 20
5628.282608033805
 30
0.0
 41
50.0
 42
50.0
 43
50.0
 50
180.0
  0
MTEXT
  5
828A
330
8283
100
AcDbEntity
  8
0
  6
ByBlock
100
AcDbMText
 10
1267.719751513126
 20
5678.282608033805
 30
0.0
 40
75.0
 41
0.0
 71
     5
 72
     5
  1
\A1;900
 73
     1
 44
1.0
1001
ACAD
1000
MTEXTBEGIN
1070
    73
1070
     1
1070
    44
1040
1.0
1070
    74
1070
     0
1000
MTEXTEND
  0
POINT
  5
828B
330
8283
100
AcDbEntity
  8
DEFPOINTS
  6
ByBlock
 62
     0
100
AcDbPoint
 10
1717.719751513126
 20
5420.797394839574
 30
0.0
  0
POINT
  5
828C
330
8283
100
AcDbEntity
  8
DEFPOINTS
  6
ByBlock
 62
     0
100
AcDbPoint
 10
817.7197515131265
 20
5420.797394839573
 30
0.0
  0
POINT
  5
828D
330
8283
100
AcDbEntity
  8
DEFPOINTS
  6
ByBlock
 62
     0
100
AcDbPoint
 10
817.7197515131265
 20
5628.282608033805
 30
0.0
  0
ENDBLK
  5
828E
330
8283
100
AcDbEntity
  8
0
100
AcDbBlockEnd
  0
BLOCK
  5
8290
330
828F
100
AcDbEntity
  8
0
100
AcDbBlockBegin
  2
*D36
 70
     1
 10
0.0
 20
0.0
 30
0.0
  3
*D36
  1

  0
LINE
  5
8291
330
828F
100
AcDbEntity
  8
0
  6
ByBlock
100
AcDbLine
 10
160.6032242090332
 20
3953.533310535338
 30
0.0
 11
-138.0354924402527
 21
3953.533310535338
 31
0.0
  0
LINE
  5
8292
330
828F
100
AcDbEntity
  8
0
  6
ByBlock
100
AcDbLine
 10
160.6032242090332
 20
2773.533310535338
 30
0.0
 11
-138.0354924402527
 21
2773.533310535338
 31
0.0
  0
LINE
  5
8293
330
828F
100
AcDbEntity
  8
0
  6
ByBlock
100
AcDbLine
 10
-113.0354924402527
 20
3903.533310535337
 30
0.0
 11
-113.0354924402527
 21
2823.533310535338
 31
0.0
  0
INSERT
  5
8294
330
828F
100
AcDbEntity
  8
0
  6
ByBlock
100
AcDbBlockReference
  2
_OPEN
 10
-113.0354924402527
 20
3953.533310535338
 30
0.0
 41
50.0
 42
50.0
 43
50.0
 50
90.0
  0
INSERT
  5
8295
330
828F
100
AcDbEntity
  8
0
  6
ByBlock
100
AcDbBlockReference
  2
_OPEN
 10
-113.0354924402527
 20
2773.533310535338
 30
0.0
 41
50.0
 42
50.0
 43
50.0
 50
270.0
  0
MTEXT
  5
8296
330
828F
100
AcDbEntity
  8
0
  6
ByBlock
100
AcDbMText
 10
-163.0354924402527
 20
3363.533310535338
 30
0.0
 40
75.0
 41
0.0
 71
     5
 72
     5
  1
\A1;1180
 11
0.0
 21
1.0
 31
0.0
 73
     1
 44
1.0
1001
ACAD
1000
MTEXTBEGIN
1070
    73
1070
     1
1070
    44
1040
1.0
1070
    74
1070
     0
1000
MTEXTEND
  0
POINT
  5
8297
330
828F
100
AcDbEntity
  8
DEFPOINTS
  6
ByBlock
 62
     0
100
AcDbPoint
 10
185.6032242090332
 20
3953.533310535338
 30
0.0
  0
POINT
  5
8298
330
828F
100
AcDbEntity
  8
DEFPOINTS
  6
ByBlock
 62
     0
100
AcDbPoint
 10
185.6032242090332
 20
2773.533310535338
 30
0.0
  0
POINT
  5
8299
330
828F
100
AcDbEntity
  8
DEFPOINTS
  6
ByBlock
 62
     0
100
AcDbPoint
 10
-113.0354924402527
 20
2773.533310535338
 30
0.0
  0
ENDBLK
  5
829A
330
828F
100
AcDbEntity
  8
0
100
AcDbBlockEnd
  0
BLOCK
  5
829C
330
829B
100
AcDbEntity
  8
0
100
AcDbBlockBegin
  2
*D37
 70
     1
 10
0.0
 20
0.0
 30
0.0
  3
*D37
  1

  0
LINE
  5
829D
330
829B
100
AcDbEntity
  8
0
  6
ByBlock
100
AcDbLine
 10
1910.603224209032
 20
3523.533310535339
 30
0.0
 11
2209.208975315931
 21
3523.533310535339
 31
0.0
  0
LINE
  5
829E
330
829B
100
AcDbEntity
  8
0
  6
ByBlock
100
AcDbLine
 10
1910.603224209033
 20
2773.53331053534
 30
0.0
 11
2209.208975315931
 21
2773.53331053534
 31
0.0
  0
LINE
  5
829F
330
829B
100
AcDbEntity
  8
0
  6
ByBlock
100
AcDbLine
 10
2184.208975315931
 20
3473.533310535339
 30
0.0
 11
2184.208975315931
 21
2823.533310535339
 31
0.0
  0
INSERT
  5
82A0
330
829B
100
AcDbEntity
  8
0
  6
ByBlock
100
AcDbBlockReference
  2
_OPEN
 10
2184.208975315931
 20
3523.533310535339
 30
0.0
 41
50.0
 42
50.0
 43
50.0
 50
90.0
  0
INSERT
  5
82A1
330
829B
100
AcDbEntity
  8
0
  6
ByBlock
100
AcDbBlockReference
  2
_OPEN
 10
2184.208975315931
 20
2773.53331053534
 30
0.0
 41
50.0
 42
50.0
 43
50.0
 50
270.0
  0
MTEXT
  5
82A2
330
829B
100
AcDbEntity
  8
0
  6
ByBlock
100
AcDbMText
 10
2134.208975315931
 20
3148.53331053534
 30
0.0
 40
75.0
 41
0.0
 71
     5
 72
     5
  1
\A1;750
 11
0.0
 21
1.0
 31
0.0
 73
     1
 44
1.0
1001
ACAD
1000
MTEXTBEGIN
1070
    73
1070
     1
1070
    44
1040
1.0
1070
    74
1070
     0
1000
MTEXTEND
  0
POINT
  5
82A3
330
829B
100
AcDbEntity
  8
DEFPOINTS
  6
ByBlock
 62
     0
100
AcDbPoint
 10
1885.603224209032
 20
3523.533310535339
 30
0.0
  0
POINT
  5
82A4
330
829B
100
AcDbEntity
  8
DEFPOINTS
  6
ByBlock
 62
     0
100
AcDbPoint
 10
1885.603224209033
 20
2773.53331053534
 30
0.0
  0
POINT
  5
82A5
330
829B
100
AcDbEntity
  8
DEFPOINTS
  6
ByBlock
 62
     0
100
AcDbPoint
 10
2184.208975315931
 20
2773.53331053534
 30
0.0
  0
ENDBLK
  5
82A6
330
829B
100
AcDbEntity
  8
0
100
AcDbBlockEnd
  0
BLOCK
  5
82A8
330
82A7
100
AcDbEntity
  8
0
100
AcDbBlockBegin
  2
*D38
 70
     1
 10
0.0
 20
0.0
 30
0.0
  3
*D38
  1

  0
LINE
  5
82A9
330
82A7
100
AcDbEntity
  8
0
  6
ByBlock
100
AcDbLine
 10
1885.603224209033
 20
2748.53331053534
 30
0.0
 11
1885.603224209033
 21
2326.612722814356
 31
0.0
  0
LINE
  5
82AA
330
82A7
100
AcDbEntity
  8
0
  6
ByBlock
100
AcDbLine
 10
185.6032242090332
 20
2748.533310535338
 30
0.0
 11
185.6032242090332
 21
2326.612722814356
 31
0.0
  0
LINE
  5
82AB
330
82A7
100
AcDbEntity
  8
0
  6
ByBlock
100
AcDbLine
 10
1835.603224209033
 20
2351.612722814356
 30
0.0
 11
235.6032242090332
 21
2351.612722814356
 31
0.0
  0
INSERT
  5
82AC
330
82A7
100
AcDbEntity
  8
0
  6
ByBlock
100
AcDbBlockReference
  2
_OPEN
 10
1885.603224209033
 20
2351.612722814356
 30
0.0
 41
50.0
 42
50.0
 43
50.0
  0
INSERT
  5
82AD
330
82A7
100
AcDbEntity
  8
0
  6
ByBlock
100
AcDbBlockReference
  2
_OPEN
 10
185.6032242090332
 20
2351.612722814356
 30
0.0
 41
50.0
 42
50.0
 43
50.0
 50
180.0
  0
MTEXT
  5
82AE
330
82A7
100
AcDbEntity
  8
0
  6
ByBlock
100
AcDbMText
 10
1035.603224209033
 20
2401.612722814356
 30
0.0
 40
75.0
 41
0.0
 71
     5
 72
     5
  1
\A1;1700
 73
     1
 44
1.0
1001
ACAD
1000
MTEXTBEGIN
1070
    73
1070
     1
1070
    44
1040
1.0
1070
    74
1070
     0
1000
MTEXTEND
  0
POINT
  5
82AF
330
82A7
100
AcDbEntity
  8
DEFPOINTS
  6
ByBlock
 62
     0
100
AcDbPoint
 10
1885.603224209033
 20
2773.53331053534
 30
0.0
  0
POINT
  5
82B0
330
82A7
100
AcDbEntity
  8
DEFPOINTS
  6
ByBlock
 62
     0
100
AcDbPoint
 10
185.6032242090332
 20
2773.533310535338
 30
0.0
  0
POINT
  5
82B1
330
82A7
100
AcDbEntity
  8
DEFPOINTS
  6
ByBlock
 62
     0
100
AcDbPoint
 10
185.6032242090332
 20
2351.612722814356
 30
0.0
  0
ENDBLK
  5
82B2
330
82A7
100
AcDbEntity
  8
0
100
AcDbBlockEnd
  0
BLOCK
  5
82B4
330
82B3
100
AcDbEntity
  8
0
100
AcDbBlockBegin
  2
*D39
 70
     1
 10
0.0
 20
0.0
 30
0.0
  3
*D39
  1

  0
LINE
  5
82B5
330
82B3
100
AcDbEntity
  8
0
  6
ByBlock
100
AcDbLine
 10
2517.719751513126
 20
5015.797394839575
 30
0.0
 11
2517.719751513126
 21
5653.282608033805
 31
0.0
  0
LINE
  5
82B6
330
82B3
100
AcDbEntity
  8
0
  6
ByBlock
100
AcDbLine
 10
1717.719751513126
 20
5445.797394839574
 30
0.0
 11
1717.719751513126
 21
5653.282608033805
 31
0.0
  0
LINE
  5
82B7
330
82B3
100
AcDbEntity
  8
0
  6
ByBlock
100
AcDbLine
 10
2467.719751513126
 20
5628.282608033805
 30
0.0
 11
1767.719751513126
 21
5628.282608033805
 31
0.0
  0
INSERT
  5
82B8
330
82B3
100
AcDbEntity
  8
0
  6
ByBlock
100
AcDbBlockReference
  2
_OPEN
 10
2517.719751513126
 20
5628.282608033805
 30
0.0
 41
50.0
 42
50.0
 43
50.0
  0
INSERT
  5
82B9
330
82B3
100
AcDbEntity
  8
0
  6
ByBlock
100
AcDbBlockReference
  2
_OPEN
 10
1717.719751513126
 20
5628.282608033805
 30
0.0
 41
50.0
 42
50.0
 43
50.0
 50
180.0
  0
MTEXT
  5
82BA
330
82B3
100
AcDbEntity
  8
0
  6
ByBlock
100
AcDbMText
 10
2117.719751513126
 20
5678.282608033805
 30
0.0
 40
75.0
 41
0.0
 71
     5
 72
     5
  1
\A1;800
 73
     1
 44
1.0
1001
ACAD
1000
MTEXTBEGIN
1070
    73
1070
     1
1070
    44
1040
1.0
1070
    74
1070
     0
1000
MTEXTEND
  0
POINT
  5
82BB
330
82B3
100
AcDbEntity
  8
DEFPOINTS
  6
ByBlock
 62
     0
100
AcDbPoint
 10
2517.719751513126
 20
4990.797394839574
 30
0.0
  0
POINT
  5
82BC
330
82B3
100
AcDbEntity
  8
DEFPOINTS
  6
ByBlock
 62
     0
100
AcDbPoint
 10
1717.719751513126
 20
5420.797394839574
 30
0.0
  0
POINT
  5
82BD
330
82B3
100
AcDbEntity
  8
DEFPOINTS
  6
ByBlock
 62
     0
100
AcDbPoint
 10
1717.719751513126
 20
5628.282608033805
 30
0.0
  0
ENDBLK
  5
82BE
330
82B3
100
AcDbEntity
  8
0
100
AcDbBlockEnd
  0
BLOCK
  5
82C0
330
82BF
100
AcDbEntity
  8
0
100
AcDbBlockBegin
  2
*D40
 70
     1
 10
0.0
 20
0.0
 30
0.0
  3
*D40
  1

  0
LINE
  5
82C1
330
82BF
100
AcDbEntity
  8
0
  6
ByBlock
100
AcDbLine
 10
-11.66261459639645
 20
508.5934782213989
 30
0.0
 11
-190.1505900762822
 21
508.5934782213989
 31
0.0
  0
LINE
  5
82C2
330
82BF
100
AcDbEntity
  8
0
  6
ByBlock
100
AcDbLine
 10
160.6032242090332
 20
-36.40652177860102
 30
0.0
 11
-190.1505900762822
 21
-36.40652177860102
 31
0.0
  0
LINE
  5
82C3
330
82BF
100
AcDbEntity
  8
0
  6
ByBlock
100
AcDbLine
 10
-165.1505900762822
 20
458.5934782213989
 30
0.0
 11
-165.1505900762822
 21
13.59347822139898
 31
0.0
  0
INSERT
  5
82C4
330
82BF
100
AcDbEntity
  8
0
  6
ByBlock
100
AcDbBlockReference
  2
_OPEN
 10
-165.1505900762822
 20
508.5934782213989
 30
0.0
 41
50.0
 42
50.0
 43
50.0
 50
90.0
  0
INSERT
  5
82C5
330
82BF
100
AcDbEntity
  8
0
  6
ByBlock
100
AcDbBlockReference
  2
_OPEN
 10
-165.1505900762822
 20
-36.40652177860102
 30
0.0
 41
50.0
 42
50.0
 43
50.0
 50
270.0
  0
MTEXT
  5
82C6
330
82BF
100
AcDbEntity
  8
0
  6
ByBlock
100
AcDbMText
 10
-215.1505900762822
 20
236.093478221399
 30
0.0
 40
75.0
 41
0.0
 71
     5
 72
     5
  1
\A1;545
 11
0.0
 21
1.0
 31
0.0
 73
     1
 44
1.0
1001
ACAD
1000
MTEXTBEGIN
1070
    73
1070
     1
1070
    44
1040
1.0
1070
    74
1070
     0
1000
MTEXTEND
  0
POINT
  5
82C7
330
82BF
100
AcDbEntity
  8
DEFPOINTS
  6
ByBlock
 62
     0
100
AcDbPoint
 10
13.33738540360355
 20
508.5934782213989
 30
0.0
  0
POINT
  5
82C8
330
82BF
100
AcDbEntity
  8
DEFPOINTS
  6
ByBlock
 62
     0
100
AcDbPoint
 10
185.6032242090332
 20
-36.40652177860102
 30
0.0
  0
POINT
  5
82C9
330
82BF
100
AcDbEntity
  8
DEFPOINTS
  6
ByBlock
 62
     0
100
AcDbPoint
 10
-165.1505900762822
 20
-36.40652177860102
 30
0.0
  0
ENDBLK
  5
82CA
330
82BF
100
AcDbEntity
  8
0
100
AcDbBlockEnd
  0
BLOCK
  5
82CC
330
82CB
100
AcDbEntity
  8
0
100
AcDbBlockBegin
  2
*D41
 70
     1
 10
0.0
 20
0.0
 30
0.0
  3
*D41
  1

  0
LINE
  5
82CD
330
82CB
100
AcDbEntity
  8
0
  6
ByBlock
100
AcDbLine
 10
4421.77207393047
 20
508.3934782213988
 30
0.0
 11
4421.77207393047
 21
1624.322439612884
 31
0.0
  0
LINE
  5
82CE
330
82CB
100
AcDbEntity
  8
0
  6
ByBlock
100
AcDbLine
 10
3844.27207393047
 20
1595.434008648137
 30
0.0
 11
3844.27207393047
 21
1624.322439612884
 31
0.0
  0
LINE
  5
82CF
330
82CB
100
AcDbEntity
  8
0
  6
ByBlock
100
AcDbLine
 10
4371.77207393047
 20
1599.322439612884
 30
0.0
 11
3894.27207393047
 21
1599.322439612884
 31
0.0
  0
INSERT
  5
82D0
330
82CB
100
AcDbEntity
  8
0
  6
ByBlock
100
AcDbBlockReference
  2
_OPEN
 10
4421.77207393047
 20
1599.322439612884
 30
0.0
 41
50.0
 42
50.0
 43
50.0
  0
INSERT
  5
82D1
330
82CB
100
AcDbEntity
  8
0
  6
ByBlock
100
AcDbBlockReference
  2
_OPEN
 10
3844.27207393047
 20
1599.322439612884
 30
0.0
 41
50.0
 42
50.0
 43
50.0
 50
180.0
  0
MTEXT
  5
82D2
330
82CB
100
AcDbEntity
  8
0
  6
ByBlock
100
AcDbMText
 10
4133.02207393047
 20
1668.965296755741
 30
0.0
 40
75.0
 41
0.0
 71
     5
 72
     5
  1
\A1;(620)
 73
     1
 44
1.0
1001
ACAD
1000
MTEXTBEGIN
1070
    73
1070
     1
1070
    44
1040
1.0
1070
    74
1070
     0
1000
MTEXTEND
  0
POINT
  5
82D3
330
82CB
100
AcDbEntity
  8
DEFPOINTS
  6
ByBlock
 62
     0
100
AcDbPoint
 10
4421.77207393047
 20
483.3934782213988
 30
0.0
  0
POINT
  5
82D4
330
82CB
100
AcDbEntity
  8
DEFPOINTS
  6
ByBlock
 62
     0
100
AcDbPoint
 10
3844.27207393047
 20
1570.434008648137
 30
0.0
  0
POINT
  5
82D5
330
82CB
100
AcDbEntity
  8
DEFPOINTS
  6
ByBlock
 62
     0
100
AcDbPoint
 10
3844.27207393047
 20
1599.322439612884
 30
0.0
  0
ENDBLK
  5
82D6
330
82CB
100
AcDbEntity
  8
0
100
AcDbBlockEnd
  0
BLOCK
  5
82D8
330
82D7
100
AcDbEntity
  8
0
100
AcDbBlockBegin
  2
*D42
 70
     1
 10
0.0
 20
0.0
 30
0.0
  3
*D42
  1

  0
LINE
  5
82D9
330
82D7
100
AcDbEntity
  8
0
  6
ByBlock
100
AcDbLine
 10
135.6032242090332
 20
1292.593478221399
 30
0.0
 11
135.6032242090332
 21
1634.05136648725
 31
0.0
  0
LINE
  5
82DA
330
82D7
100
AcDbEntity
  8
0
  6
ByBlock
100
AcDbLine
 10
1885.603224209033
 20
88.59347822139898
 30
0.0
 11
1885.603224209033
 21
1634.05136648725
 31
0.0
  0
LINE
  5
82DB
330
82D7
100
AcDbEntity
  8
0
  6
ByBlock
100
AcDbLine
 10
185.6032242090332
 20
1609.051366487251
 30
0.0
 11
1835.603224209033
 21
1609.051366487251
 31
0.0
  0
INSERT
  5
82DC
330
82D7
100
AcDbEntity
  8
0
  6
ByBlock
100
AcDbBlockReference
  2
_OPEN
 10
135.6032242090332
 20
1609.051366487251
 30
0.0
 41
50.0
 42
50.0
 43
50.0
 50
180.0
  0
INSERT
  5
82DD
330
82D7
100
AcDbEntity
  8
0
  6
ByBlock
100
AcDbBlockReference
  2
_OPEN
 10
1885.603224209033
 20
1609.051366487251
 30
0.0
 41
50.0
 42
50.0
 43
50.0
  0
MTEXT
  5
82DE
330
82D7
100
AcDbEntity
  8
0
  6
ByBlock
100
AcDbMText
 10
1010.603224209033
 20
1659.051366487251
 30
0.0
 40
75.0
 41
0.0
 71
     5
 72
     5
  1
\A1;1750
 73
     1
 44
1.0
1001
ACAD
1000
MTEXTBEGIN
1070
    73
1070
     1
1070
    44
1040
1.0
1070
    74
1070
     0
1000
MTEXTEND
  0
POINT
  5
82DF
330
82D7
100
AcDbEntity
  8
DEFPOINTS
  6
ByBlock
 62
     0
100
AcDbPoint
 10
135.6032242090332
 20
1267.593478221399
 30
0.0
  0
POINT
  5
82E0
330
82D7
100
AcDbEntity
  8
DEFPOINTS
  6
ByBlock
 62
     0
100
AcDbPoint
 10
1885.603224209033
 20
63.59347822139898
 30
0.0
  0
POINT
  5
82E1
330
82D7
100
AcDbEntity
  8
DEFPOINTS
  6
ByBlock
 62
     0
100
AcDbPoint
 10
1885.603224209033
 20
1609.051366487251
 30
0.0
  0
ENDBLK
  5
82E2
330
82D7
100
AcDbEntity
  8
0
100
AcDbBlockEnd
  0
BLOCK
  5
82E4
330
82E3
100
AcDbEntity
  8
0
100
AcDbBlockBegin
  2
*D43
 70
     1
 10
0.0
 20
0.0
 30
0.0
  3
*D43
  1

  0
LINE
  5
82E5
330
82E3
100
AcDbEntity
  8
0
  6
ByBlock
 62
     0
100
AcDbLine
 10
1094.942697238013
 20
1805.552246342122
 30
0.0
 11
1094.942697238013
 21
1622.581899355933
 31
0.0
  0
LINE
  5
82E6
330
82E3
100
AcDbEntity
  8
0
  6
ByBlock
 62
     0
100
AcDbLine
 10
1544.942697238013
 20
1805.552246342123
 30
0.0
 11
1544.942697238013
 21
1622.581899355933
 31
0.0
  0
LINE
  5
82E7
330
82E3
100
AcDbEntity
  8
0
  6
ByBlock
 62
     0
100
AcDbLine
 10
1144.942697238013
 20
1647.581899355933
 30
0.0
 11
1494.942697238013
 21
1647.581899355933
 31
0.0
  0
INSERT
  5
82E8
330
82E3
100
AcDbEntity
  8
0
  6
ByBlock
 62
     0
100
AcDbBlockReference
  2
_OPEN
 10
1094.942697238013
 20
1647.581899355933
 30
0.0
 41
50.0
 42
50.0
 43
50.0
 50
180.0
  0
INSERT
  5
82E9
330
82E3
100
AcDbEntity
  8
0
  6
ByBlock
 62
     0
100
AcDbBlockReference
  2
_OPEN
 10
1544.942697238013
 20
1647.581899355933
 30
0.0
 41
50.0
 42
50.0
 43
50.0
  0
MTEXT
  5
82EA
330
82E3
100
AcDbEntity
  8
0
  6
ByBlock
 62
     0
100
AcDbMText
 10
1319.942697238013
 20
1710.081899355933
 30
0.0
 40
75.0
 41
0.0
 71
     5
 72
     5
  1
\A1;450
 73
     1
 44
1.0
1001
ACAD
1000
MTEXTBEGIN
1070
    73
1070
     1
1070
    44
1040
1.0
1070
    74
1070
     0
1000
MTEXTEND
  0
POINT
  5
82EB
330
82E3
100
AcDbEntity
  8
DEFPOINTS
  6
ByBlock
 62
     0
100
AcDbPoint
 10
1094.942697238013
 20
1818.052246342122
 30
0.0
  0
POINT
  5
82EC
330
82E3
100
AcDbEntity
  8
DEFPOINTS
  6
ByBlock
 62
     0
100
AcDbPoint
 10
1544.942697238013
 20
1818.052246342123
 30
0.0
  0
POINT
  5
82ED
330
82E3
100
AcDbEntity
  8
DEFPOINTS
  6
ByBlock
 62
     0
100
AcDbPoint
 10
1544.942697238013
 20
1647.581899355933
 30
0.0
  0
ENDBLK
  5
82EE
330
82E3
100
AcDbEntity
  8
0
100
AcDbBlockEnd
  0
BLOCK
  5
82F0
330
82EF
100
AcDbEntity
  8
0
100
AcDbBlockBegin
  2
*D44
 70
     1
 10
0.0
 20
0.0
 30
0.0
  3
*D44
  1

  0
LINE
  5
82F1
330
82EF
100
AcDbEntity
  8
0
  6
ByBlock
 62
     0
100
AcDbLine
 10
1544.942697238013
 20
1805.552246342123
 30
0.0
 11
1544.942697238013
 21
1622.581899355933
 31
0.0
  0
LINE
  5
82F2
330
82EF
100
AcDbEntity
  8
0
  6
ByBlock
 62
     0
100
AcDbLine
 10
2794.942697238014
 20
1805.552246342122
 30
0.0
 11
2794.942697238014
 21
1622.581899355933
 31
0.0
  0
LINE
  5
82F3
330
82EF
100
AcDbEntity
  8
0
  6
ByBlock
 62
     0
100
AcDbLine
 10
1594.942697238013
 20
1647.581899355933
 30
0.0
 11
2744.942697238013
 21
1647.581899355933
 31
0.0
  0
INSERT
  5
82F4
330
82EF
100
AcDbEntity
  8
0
  6
ByBlock
 62
     0
100
AcDbBlockReference
  2
_OPEN
 10
1544.942697238013
 20
1647.581899355933
 30
0.0
 41
50.0
 42
50.0
 43
50.0
 50
180.0
  0
INSERT
  5
82F5
330
82EF
100
AcDbEntity
  8
0
  6
ByBlock
 62
     0
100
AcDbBlockReference
  2
_OPEN
 10
2794.942697238014
 20
1647.581899355933
 30
0.0
 41
50.0
 42
50.0
 43
50.0
  0
MTEXT
  5
82F6
330
82EF
100
AcDbEntity
  8
0
  6
ByBlock
 62
     0
100
AcDbMText
 10
2169.942697238013
 20
1710.081899355933
 30
0.0
 40
75.0
 41
0.0
 71
     5
 72
     5
  1
\A1;1250
 73
     1
 44
1.0
1001
ACAD
1000
MTEXTBEGIN
1070
    73
1070
     1
1070
    44
1040
1.0
1070
    74
1070
     0
1000
MTEXTEND
  0
POINT
  5
82F7
330
82EF
100
AcDbEntity
  8
DEFPOINTS
  6
ByBlock
 62
     0
100
AcDbPoint
 10
1544.942697238013
 20
1818.052246342123
 30
0.0
  0
POINT
  5
82F8
330
82EF
100
AcDbEntity
  8
DEFPOINTS
  6
ByBlock
 62
     0
100
AcDbPoint
 10
2794.942697238014
 20
1818.052246342122
 30
0.0
  0
POINT
  5
82F9
330
82EF
100
AcDbEntity
  8
DEFPOINTS
  6
ByBlock
 62
     0
100
AcDbPoint
 10
2794.942697238014
 20
1647.581899355933
 30
0.0
  0
ENDBLK
  5
82FA
330
82EF
100
AcDbEntity
  8
0
100
AcDbBlockEnd
  0
BLOCK
  5
82FC
330
82FB
100
AcDbEntity
  8
0
100
AcDbBlockBegin
  2
*D45
 70
     1
 10
0.0
 20
0.0
 30
0.0
  3
*D45
  1

  0
LINE
  5
82FD
330
82FB
100
AcDbEntity
  8
0
  6
ByBlock
 62
     0
100
AcDbLine
 10
3264.825569861673
 20
1805.552246342122
 30
0.0
 11
3264.825569861673
 21
1622.581899355933
 31
0.0
  0
LINE
  5
82FE
330
82FB
100
AcDbEntity
  8
0
  6
ByBlock
 62
     0
100
AcDbLine
 10
3916.82556986167
 20
1805.552246342122
 30
0.0
 11
3916.82556986167
 21
1622.581899355933
 31
0.0
  0
LINE
  5
82FF
330
82FB
100
AcDbEntity
  8
0
  6
ByBlock
 62
     0
100
AcDbLine
 10
3314.825569861672
 20
1647.581899355933
 30
0.0
 11
3866.825569861671
 21
1647.581899355933
 31
0.0
  0
INSERT
  5
8300
330
82FB
100
AcDbEntity
  8
0
  6
ByBlock
 62
     0
100
AcDbBlockReference
  2
_OPEN
 10
3264.825569861673
 20
1647.581899355933
 30
0.0
 41
50.0
 42
50.0
 43
50.0
 50
180.0
  0
INSERT
  5
8301
330
82FB
100
AcDbEntity
  8
0
  6
ByBlock
 62
     0
100
AcDbBlockReference
  2
_OPEN
 10
3916.82556986167
 20
1647.581899355933
 30
0.0
 41
50.0
 42
50.0
 43
50.0
  0
MTEXT
  5
8302
330
82FB
100
AcDbEntity
  8
0
  6
ByBlock
 62
     0
100
AcDbMText
 10
3590.825569861671
 20
1710.081899355933
 30
0.0
 40
75.0
 41
0.0
 71
     5
 72
     5
  1
\A1;652
 73
     1
 44
1.0
1001
ACAD
1000
MTEXTBEGIN
1070
    73
1070
     1
1070
    44
1040
1.0
1070
    74
1070
     0
1000
MTEXTEND
  0
POINT
  5
8303
330
82FB
100
AcDbEntity
  8
DEFPOINTS
  6
ByBlock
 62
     0
100
AcDbPoint
 10
3264.825569861673
 20
1818.052246342122
 30
0.0
  0
POINT
  5
8304
330
82FB
100
AcDbEntity
  8
DEFPOINTS
  6
ByBlock
 62
     0
100
AcDbPoint
 10
3916.82556986167
 20
1818.052246342122
 30
0.0
  0
POINT
  5
8305
330
82FB
100
AcDbEntity
  8
DEFPOINTS
  6
ByBlock
 62
     0
100
AcDbPoint
 10
3916.82556986167
 20
1647.581899355933
 30
0.0
  0
ENDBLK
  5
8306
330
82FB
100
AcDbEntity
  8
0
100
AcDbBlockEnd
  0
BLOCK
  5
8308
330
8307
100
AcDbEntity
  8
0
100
AcDbBlockBegin
  2
*D46
 70
     1
 10
0.0
 20
0.0
 30
0.0
  3
*D46
  1

  0
LINE
  5
8309
330
8307
100
AcDbEntity
  8
0
  6
ByBlock
 62
     0
100
AcDbLine
 10
3916.82556986167
 20
1805.552246342122
 30
0.0
 11
3916.82556986167
 21
1622.581899355933
 31
0.0
  0
LINE
  5
830A
330
8307
100
AcDbEntity
  8
0
  6
ByBlock
 62
     0
100
AcDbLine
 10
4444.825569861672
 20
1805.552246342122
 30
0.0
 11
4444.825569861672
 21
1622.581899355933
 31
0.0
  0
LINE
  5
830B
330
8307
100
AcDbEntity
  8
0
  6
ByBlock
 62
     0
100
AcDbLine
 10
3966.825569861671
 20
1647.581899355933
 30
0.0
 11
4394.825569861672
 21
1647.581899355933
 31
0.0
  0
INSERT
  5
830C
330
8307
100
AcDbEntity
  8
0
  6
ByBlock
 62
     0
100
AcDbBlockReference
  2
_OPEN
 10
3916.82556986167
 20
1647.581899355933
 30
0.0
 41
50.0
 42
50.0
 43
50.0
 50
180.0
  0
INSERT
  5
830D
330
8307
100
AcDbEntity
  8
0
  6
ByBlock
 62
     0
100
AcDbBlockReference
  2
_OPEN
 10
4444.825569861672
 20
1647.581899355933
 30
0.0
 41
50.0
 42
50.0
 43
50.0
  0
MTEXT
  5
830E
330
8307
100
AcDbEntity
  8
0
  6
ByBlock
 62
     0
100
AcDbMText
 10
4180.825569861671
 20
1710.081899355933
 30
0.0
 40
75.0
 41
0.0
 71
     5
 72
     5
  1
\A1;528
 73
     1
 44
1.0
1001
ACAD
1000
MTEXTBEGIN
1070
    73
1070
     1
1070
    44
1040
1.0
1070
    74
1070
     0
1000
MTEXTEND
  0
POINT
  5
830F
330
8307
100
AcDbEntity
  8
DEFPOINTS
  6
ByBlock
 62
     0
100
AcDbPoint
 10
3916.82556986167
 20
1818.052246342122
 30
0.0
  0
POINT
  5
8310
330
8307
100
AcDbEntity
  8
DEFPOINTS
  6
ByBlock
 62
     0
100
AcDbPoint
 10
4444.825569861672
 20
1818.052246342122
 30
0.0
  0
POINT
  5
8311
330
8307
100
AcDbEntity
  8
DEFPOINTS
  6
ByBlock
 62
     0
100
AcDbPoint
 10
4444.825569861672
 20
1647.581899355933
 30
0.0
  0
ENDBLK
  5
8312
330
8307
100
AcDbEntity
  8
0
100
AcDbBlockEnd
  0
BLOCK
  5
8314
330
8313
100
AcDbEntity
  8
0
100
AcDbBlockBegin
  2
*D47
 70
     1
 10
0.0
 20
0.0
 30
0.0
  3
*D47
  1

  0
LINE
  5
8315
330
8313
100
AcDbEntity
  8
0
  6
ByBlock
 62
     0
100
AcDbLine
 10
1032.442697238013
 20
3122.052246342122
 30
0.0
 11
580.1539312735003
 21
3122.052246342122
 31
0.0
  0
LINE
  5
8316
330
8313
100
AcDbEntity
  8
0
  6
ByBlock
 62
     0
100
AcDbLine
 10
1082.442697238013
 20
1818.052246342122
 30
0.0
 11
580.1539312735003
 21
1818.052246342122
 31
0.0
  0
LINE
  5
8317
330
8313
100
AcDbEntity
  8
0
  6
ByBlock
 62
     0
100
AcDbLine
 10
605.1539312735003
 20
3072.052246342122
 30
0.0
 11
605.1539312735003
 21
1868.052246342122
 31
0.0
  0
INSERT
  5
8318
330
8313
100
AcDbEntity
  8
0
  6
ByBlock
 62
     0
100
AcDbBlockReference
  2
_OPEN
 10
605.1539312735003
 20
3122.052246342122
 30
0.0
 41
50.0
 42
50.0
 43
50.0
 50
90.0
  0
INSERT
  5
8319
330
8313
100
AcDbEntity
  8
0
  6
ByBlock
 62
     0
100
AcDbBlockReference
  2
_OPEN
 10
605.1539312735003
 20
1818.052246342122
 30
0.0
 41
50.0
 42
50.0
 43
50.0
 50
270.0
  0
MTEXT
  5
831A
330
8313
100
AcDbEntity
  8
0
  6
ByBlock
 62
     0
100
AcDbMText
 10
542.6539312735003
 20
2470.052246342123
 30
0.0
 40
75.0
 41
0.0
 71
     5
 72
     5
  1
\A1;1304
 11
0.0
 21
1.0
 31
0.0
 73
     1
 44
1.0
1001
ACAD
1000
MTEXTBEGIN
1070
    73
1070
     1
1070
    44
1040
1.0
1070
    74
1070
     0
1000
MTEXTEND
  0
POINT
  5
831B
330
8313
100
AcDbEntity
  8
DEFPOINTS
  6
ByBlock
 62
     0
100
AcDbPoint
 10
1044.942697238013
 20
3122.052246342122
 30
0.0
  0
POINT
  5
831C
330
8313
100
AcDbEntity
  8
DEFPOINTS
  6
ByBlock
 62
     0
100
AcDbPoint
 10
1094.942697238013
 20
1818.052246342122
 30
0.0
  0
POINT
  5
831D
330
8313
100
AcDbEntity
  8
DEFPOINTS
  6
ByBlock
 62
     0
100
AcDbPoint
 10
605.1539312735003
 20
1818.052246342122
 30
0.0
  0
ENDBLK
  5
831E
330
8313
100
AcDbEntity
  8
0
100
AcDbBlockEnd
  0
BLOCK
  5
8320
330
831F
100
AcDbEntity
  8
0
100
AcDbBlockBegin
  2
*D48
 70
     1
 10
0.0
 20
0.0
 30
0.0
  3
*D48
  1

  0
LINE
  5
8321
330
831F
100
AcDbEntity
  8
3
 62
     0
370
    -2
100
AcDbLine
 10
3076.825569861672
 20
2595.552246342122
 30
0.0
 11
3076.825569861672
 21
3478.781207733608
 31
0.0
  0
LINE
  5
8322
330
831F
100
AcDbEntity
  8
3
 62
     0
370
    -2
100
AcDbLine
 10
3916.825569861673
 20
3466.281207733608
 30
0.0
 11
3916.825569861673
 21
3478.781207733608
 31
0.0
  0
LINE
  5
8323
330
831F
100
AcDbEntity
  8
3
 62
     0
370
    -2
100
AcDbLine
 10
3126.825569861673
 20
3453.781207733608
 30
0.0
 11
3866.825569861673
 21
3453.781207733608
 31
0.0
  0
INSERT
  5
8324
330
831F
100
AcDbEntity
  8
3
 62
     0
370
    -2
100
AcDbBlockReference
  2
_OPEN
 10
3076.825569861672
 20
3453.781207733608
 30
0.0
 41
50.0
 42
50.0
 43
50.0
 50
180.0
  0
INSERT
  5
8325
330
831F
100
AcDbEntity
  8
3
 62
     0
370
    -2
100
AcDbBlockReference
  2
_OPEN
 10
3916.825569861673
 20
3453.781207733608
 30
0.0
 41
50.0
 42
50.0
 43
50.0
  0
MTEXT
  5
8326
330
831F
100
AcDbEntity
  8
3
 62
     0
100
AcDbMText
 10
3496.825569861672
 20
3535.924064876465
 30
0.0
 40
75.0
 41
0.0
 71
     5
 72
     1
  1
\A1;(840)
 73
     1
 44
1.0
1001
ACAD
1000
MTEXTBEGIN
1070
    73
1070
     1
1070
    44
1040
1.0
1070
    74
1070
     0
1000
MTEXTEND
  0
POINT
  5
8327
330
831F
100
AcDbEntity
  8
DEFPOINTS
 62
     0
100
AcDbPoint
 10
3076.825569861672
 20
2583.052246342122
 30
0.0
  0
POINT
  5
8328
330
831F
100
AcDbEntity
  8
DEFPOINTS
 62
     0
100
AcDbPoint
 10
3916.825569861673
 20
3453.781207733608
 30
0.0
  0
POINT
  5
8329
330
831F
100
AcDbEntity
  8
DEFPOINTS
 62
     0
100
AcDbPoint
 10
3916.825569861673
 20
3453.781207733608
 30
0.0
  0
ENDBLK
  5
832A
330
831F
100
AcDbEntity
  8
0
100
AcDbBlockEnd
  0
BLOCK
  5
832C
330
832B
100
AcDbEntity
  8
0
100
AcDbBlockBegin
  2
*D49
 70
     1
 10
0.0
 20
0.0
 30
0.0
  3
*D49
  1

  0
LINE
  5
832D
330
832B
100
AcDbEntity
  8
3
 62
     0
370
    -2
100
AcDbLine
 10
1544.942697238013
 20
3327.532778523153
 30
0.0
 11
1544.942697238013
 21
3340.032778523153
 31
0.0
  0
LINE
  5
832E
330
832B
100
AcDbEntity
  8
3
 62
     0
370
    -2
100
AcDbLine
 10
2139.942697238012
 20
2428.552246342122
 30
0.0
 11
2139.942697238012
 21
3340.032778523153
 31
0.0
  0
LINE
  5
832F
330
832B
100
AcDbEntity
  8
3
 62
     0
370
    -2
100
AcDbLine
 10
1594.942697238013
 20
3315.032778523153
 30
0.0
 11
2089.942697238011
 21
3315.032778523153
 31
0.0
  0
INSERT
  5
8330
330
832B
100
AcDbEntity
  8
3
 62
     0
370
    -2
100
AcDbBlockReference
  2
_OPEN
 10
1544.942697238013
 20
3315.032778523153
 30
0.0
 41
50.0
 42
50.0
 43
50.0
 50
180.0
  0
INSERT
  5
8331
330
832B
100
AcDbEntity
  8
3
 62
     0
370
    -2
100
AcDbBlockReference
  2
_OPEN
 10
2139.942697238012
 20
3315.032778523153
 30
0.0
 41
50.0
 42
50.0
 43
50.0
  0
MTEXT
  5
8332
330
832B
100
AcDbEntity
  8
3
 62
     0
100
AcDbMText
 10
1842.442697238012
 20
3377.532778523153
 30
0.0
 40
75.0
 41
0.0
 71
     5
 72
     1
  1
\A1;595
 73
     1
 44
1.0
1001
ACAD
1000
MTEXTBEGIN
1070
    73
1070
     1
1070
    44
1040
1.0
1070
    74
1070
     0
1000
MTEXTEND
  0
POINT
  5
8333
330
832B
100
AcDbEntity
  8
DEFPOINTS
 62
     0
100
AcDbPoint
 10
1544.942697238013
 20
3315.032778523153
 30
0.0
  0
POINT
  5
8334
330
832B
100
AcDbEntity
  8
DEFPOINTS
 62
     0
100
AcDbPoint
 10
2139.942697238012
 20
2416.052246342122
 30
0.0
  0
POINT
  5
8335
330
832B
100
AcDbEntity
  8
DEFPOINTS
 62
     0
100
AcDbPoint
 10
2139.942697238012
 20
3315.032778523153
 30
0.0
  0
ENDBLK
  5
8336
330
832B
100
AcDbEntity
  8
0
100
AcDbBlockEnd
  0
BLOCK
  5
84CD
330
84CC
100
AcDbEntity
  8
0
100
AcDbBlockBegin
  2
*D51
 70
     1
 10
0.0
 20
0.0
 30
0.0
  3
*D51
  1

  0
LINE
  5
85AF
330
84CC
100
AcDbEntity
  8
3
 62
     0
370
    -2
100
AcDbLine
 10
-6052.051233531063
 20
3150.172154392414
 30
0.0
 11
-6052.051233531063
 21
2967.201807406226
 31
0.0
  0
LINE
  5
85B0
330
84CC
100
AcDbEntity
  8
3
 62
     0
370
    -2
100
AcDbLine
 10
-5602.051233531064
 20
3150.172154392415
 30
0.0
 11
-5602.051233531064
 21
2967.201807406226
 31
0.0
  0
LINE
  5
85B1
330
84CC
100
AcDbEntity
  8
3
 62
     0
370
    -2
100
AcDbLine
 10
-6002.051233531063
 20
2992.201807406225
 30
0.0
 11
-5652.051233531063
 21
2992.201807406225
 31
0.0
  0
SOLID
  5
85B2
330
84CC
100
AcDbEntity
  8
3
 62
     0
100
AcDbTrace
 10
-6002.051233531063
 20
3000.535140739559
 30
0.0
 11
-6002.051233531063
 21
2983.868474072892
 31
0.0
 12
-6052.051233531063
 22
2992.201807406225
 32
0.0
 13
-6052.051233531063
 23
2992.201807406225
 33
0.0
  0
SOLID
  5
85B3
330
84CC
100
AcDbEntity
  8
3
 62
     0
100
AcDbTrace
 10
-5652.051233531063
 20
3000.535140739559
 30
0.0
 11
-5652.051233531063
 21
2983.868474072892
 31
0.0
 12
-5602.051233531064
 22
2992.201807406225
 32
0.0
 13
-5602.051233531064
 23
2992.201807406225
 33
0.0
  0
MTEXT
  5
85B4
330
84CC
100
AcDbEntity
  8
3
 62
     0
100
AcDbMText
 10
-5827.051233531063
 20
3054.701807406225
 30
0.0
 40
75.0
 41
0.0
 71
     5
 72
     1
  1
\A1;450
 73
     1
 44
1.0
1001
ACAD
1000
MTEXTBEGIN
1070
    73
1070
     1
1070
    44
1040
1.0
1070
    74
1070
     0
1000
MTEXTEND
  0
POINT
  5
85B5
330
84CC
100
AcDbEntity
  8
DEFPOINTS
 62
     0
100
AcDbPoint
 10
-6052.051233531063
 20
3162.672154392414
 30
0.0
  0
POINT
  5
85B6
330
84CC
100
AcDbEntity
  8
DEFPOINTS
 62
     0
100
AcDbPoint
 10
-5602.051233531064
 20
3162.672154392415
 30
0.0
  0
POINT
  5
85B7
330
84CC
100
AcDbEntity
  8
DEFPOINTS
 62
     0
100
AcDbPoint
 10
-5602.051233531064
 20
2992.201807406225
 30
0.0
  0
ENDBLK
  5
84CE
330
84CC
100
AcDbEntity
  8
0
100
AcDbBlockEnd
  0
BLOCK
  5
84D9
330
84D8
100
AcDbEntity
  8
0
100
AcDbBlockBegin
  2
*D52
 70
     1
 10
0.0
 20
0.0
 30
0.0
  3
*D52
  1

  0
LINE
  5
85B8
330
84D8
100
AcDbEntity
  8
3
 62
     0
370
    -2
100
AcDbLine
 10
-5602.051233531064
 20
3150.172154392415
 30
0.0
 11
-5602.051233531064
 21
2967.201807406226
 31
0.0
  0
LINE
  5
85B9
330
84D8
100
AcDbEntity
  8
3
 62
     0
370
    -2
100
AcDbLine
 10
-4352.051233531063
 20
3150.172154392414
 30
0.0
 11
-4352.051233531063
 21
2967.201807406226
 31
0.0
  0
LINE
  5
85BA
330
84D8
100
AcDbEntity
  8
3
 62
     0
370
    -2
100
AcDbLine
 10
-5552.051233531063
 20
2992.201807406225
 30
0.0
 11
-4402.051233531063
 21
2992.201807406225
 31
0.0
  0
SOLID
  5
85BB
330
84D8
100
AcDbEntity
  8
3
 62
     0
100
AcDbTrace
 10
-5552.051233531063
 20
3000.535140739559
 30
0.0
 11
-5552.051233531063
 21
2983.868474072892
 31
0.0
 12
-5602.051233531064
 22
2992.201807406225
 32
0.0
 13
-5602.051233531064
 23
2992.201807406225
 33
0.0
  0
SOLID
  5
85BC
330
84D8
100
AcDbEntity
  8
3
 62
     0
100
AcDbTrace
 10
-4402.051233531063
 20
3000.535140739559
 30
0.0
 11
-4402.051233531063
 21
2983.868474072892
 31
0.0
 12
-4352.051233531063
 22
2992.201807406225
 32
0.0
 13
-4352.051233531063
 23
2992.201807406225
 33
0.0
  0
MTEXT
  5
85BD
330
84D8
100
AcDbEntity
  8
3
 62
     0
100
AcDbMText
 10
-4977.051233531064
 20
3054.701807406225
 30
0.0
 40
75.0
 41
0.0
 71
     5
 72
     1
  1
\A1;1250
 73
     1
 44
1.0
1001
ACAD
1000
MTEXTBEGIN
1070
    73
1070
     1
1070
    44
1040
1.0
1070
    74
1070
     0
1000
MTEXTEND
  0
POINT
  5
85BE
330
84D8
100
AcDbEntity
  8
DEFPOINTS
 62
     0
100
AcDbPoint
 10
-5602.051233531064
 20
3162.672154392415
 30
0.0
  0
POINT
  5
85BF
330
84D8
100
AcDbEntity
  8
DEFPOINTS
 62
     0
100
AcDbPoint
 10
-4352.051233531063
 20
3162.672154392414
 30
0.0
  0
POINT
  5
85C0
330
84D8
100
AcDbEntity
  8
DEFPOINTS
 62
     0
100
AcDbPoint
 10
-4352.051233531063
 20
2992.201807406225
 30
0.0
  0
ENDBLK
  5
84DA
330
84D8
100
AcDbEntity
  8
0
100
AcDbBlockEnd
  0
BLOCK
  5
84E5
330
84E4
100
AcDbEntity
  8
0
100
AcDbBlockBegin
  2
*D53
 70
     1
 10
0.0
 20
0.0
 30
0.0
  3
*D53
  1

  0
LINE
  5
85C1
330
84E4
100
AcDbEntity
  8
3
 62
     0
370
    -2
100
AcDbLine
 10
-3882.168360907405
 20
3150.172154392414
 30
0.0
 11
-3882.168360907405
 21
2967.201807406226
 31
0.0
  0
LINE
  5
85C2
330
84E4
100
AcDbEntity
  8
3
 62
     0
370
    -2
100
AcDbLine
 10
-3230.168360907406
 20
3150.172154392414
 30
0.0
 11
-3230.168360907406
 21
2967.201807406226
 31
0.0
  0
LINE
  5
85C3
330
84E4
100
AcDbEntity
  8
3
 62
     0
370
    -2
100
AcDbLine
 10
-3832.168360907405
 20
2992.201807406225
 30
0.0
 11
-3280.168360907406
 21
2992.201807406225
 31
0.0
  0
SOLID
  5
85C4
330
84E4
100
AcDbEntity
  8
3
 62
     0
100
AcDbTrace
 10
-3832.168360907405
 20
3000.535140739559
 30
0.0
 11
-3832.168360907405
 21
2983.868474072892
 31
0.0
 12
-3882.168360907405
 22
2992.201807406225
 32
0.0
 13
-3882.168360907405
 23
2992.201807406225
 33
0.0
  0
SOLID
  5
85C5
330
84E4
100
AcDbEntity
  8
3
 62
     0
100
AcDbTrace
 10
-3280.168360907406
 20
3000.535140739559
 30
0.0
 11
-3280.168360907406
 21
2983.868474072892
 31
0.0
 12
-3230.168360907406
 22
2992.201807406225
 32
0.0
 13
-3230.168360907406
 23
2992.201807406225
 33
0.0
  0
MTEXT
  5
85C6
330
84E4
100
AcDbEntity
  8
3
 62
     0
100
AcDbMText
 10
-3556.168360907405
 20
3054.701807406225
 30
0.0
 40
75.0
 41
0.0
 71
     5
 72
     1
  1
\A1;652
 73
     1
 44
1.0
1001
ACAD
1000
MTEXTBEGIN
1070
    73
1070
     1
1070
    44
1040
1.0
1070
    74
1070
     0
1000
MTEXTEND
  0
POINT
  5
85C7
330
84E4
100
AcDbEntity
  8
DEFPOINTS
 62
     0
100
AcDbPoint
 10
-3882.168360907405
 20
3162.672154392414
 30
0.0
  0
POINT
  5
85C8
330
84E4
100
AcDbEntity
  8
DEFPOINTS
 62
     0
100
AcDbPoint
 10
-3230.168360907406
 20
3162.672154392414
 30
0.0
  0
POINT
  5
85C9
330
84E4
100
AcDbEntity
  8
DEFPOINTS
 62
     0
100
AcDbPoint
 10
-3230.168360907406
 20
2992.201807406225
 30
0.0
  0
ENDBLK
  5
84E6
330
84E4
100
AcDbEntity
  8
0
100
AcDbBlockEnd
  0
BLOCK
  5
84F1
330
84F0
100
AcDbEntity
  8
0
100
AcDbBlockBegin
  2
*D54
 70
     1
 10
0.0
 20
0.0
 30
0.0
  3
*D54
  1

  0
LINE
  5
85CA
330
84F0
100
AcDbEntity
  8
3
 62
     0
370
    -2
100
AcDbLine
 10
-3230.168360907406
 20
3150.172154392414
 30
0.0
 11
-3230.168360907406
 21
2967.201807406226
 31
0.0
  0
LINE
  5
85CB
330
84F0
100
AcDbEntity
  8
3
 62
     0
370
    -2
100
AcDbLine
 10
-2702.168360907405
 20
3150.172154392414
 30
0.0
 11
-2702.168360907405
 21
2967.201807406226
 31
0.0
  0
LINE
  5
85CC
330
84F0
100
AcDbEntity
  8
3
 62
     0
370
    -2
100
AcDbLine
 10
-3180.168360907406
 20
2992.201807406225
 30
0.0
 11
-2752.168360907405
 21
2992.201807406225
 31
0.0
  0
SOLID
  5
85CD
330
84F0
100
AcDbEntity
  8
3
 62
     0
100
AcDbTrace
 10
-3180.168360907406
 20
3000.535140739559
 30
0.0
 11
-3180.168360907406
 21
2983.868474072892
 31
0.0
 12
-3230.168360907406
 22
2992.201807406225
 32
0.0
 13
-3230.168360907406
 23
2992.201807406225
 33
0.0
  0
SOLID
  5
85CE
330
84F0
100
AcDbEntity
  8
3
 62
     0
100
AcDbTrace
 10
-2752.168360907405
 20
3000.535140739559
 30
0.0
 11
-2752.168360907405
 21
2983.868474072892
 31
0.0
 12
-2702.168360907405
 22
2992.201807406225
 32
0.0
 13
-2702.168360907405
 23
2992.201807406225
 33
0.0
  0
MTEXT
  5
85CF
330
84F0
100
AcDbEntity
  8
3
 62
     0
100
AcDbMText
 10
-2966.168360907405
 20
3054.701807406225
 30
0.0
 40
75.0
 41
0.0
 71
     5
 72
     1
  1
\A1;528
 73
     1
 44
1.0
1001
ACAD
1000
MTEXTBEGIN
1070
    73
1070
     1
1070
    44
1040
1.0
1070
    74
1070
     0
1000
MTEXTEND
  0
POINT
  5
85D0
330
84F0
100
AcDbEntity
  8
DEFPOINTS
 62
     0
100
AcDbPoint
 10
-3230.168360907406
 20
3162.672154392414
 30
0.0
  0
POINT
  5
85D1
330
84F0
100
AcDbEntity
  8
DEFPOINTS
 62
     0
100
AcDbPoint
 10
-2702.168360907405
 20
3162.672154392414
 30
0.0
  0
POINT
  5
85D2
330
84F0
100
AcDbEntity
  8
DEFPOINTS
 62
     0
100
AcDbPoint
 10
-2702.168360907405
 20
2992.201807406225
 30
0.0
  0
ENDBLK
  5
84F2
330
84F0
100
AcDbEntity
  8
0
100
AcDbBlockEnd
  0
BLOCK
  5
84FD
330
84FC
100
AcDbEntity
  8
0
100
AcDbBlockBegin
  2
*D55
 70
     1
 10
0.0
 20
0.0
 30
0.0
  3
*D55
  1

  0
LINE
  5
85D3
330
84FC
100
AcDbEntity
  8
3
 62
     0
370
    -2
100
AcDbLine
 10
-6114.551233531063
 20
4466.672154392414
 30
0.0
 11
-6566.839999495576
 21
4466.672154392415
 31
0.0
  0
LINE
  5
85D4
330
84FC
100
AcDbEntity
  8
3
 62
     0
370
    -2
100
AcDbLine
 10
-6064.551233531063
 20
3162.672154392414
 30
0.0
 11
-6566.839999495576
 21
3162.672154392414
 31
0.0
  0
LINE
  5
85D5
330
84FC
100
AcDbEntity
  8
3
 62
     0
370
    -2
100
AcDbLine
 10
-6541.839999495576
 20
4416.672154392414
 30
0.0
 11
-6541.839999495576
 21
3212.672154392414
 31
0.0
  0
SOLID
  5
85D6
330
84FC
100
AcDbEntity
  8
3
 62
     0
100
AcDbTrace
 10
-6550.173332828909
 20
4416.672154392414
 30
0.0
 11
-6533.506666162243
 21
4416.672154392414
 31
0.0
 12
-6541.839999495576
 22
4466.672154392415
 32
0.0
 13
-6541.839999495576
 23
4466.672154392415
 33
0.0
  0
SOLID
  5
85D7
330
84FC
100
AcDbEntity
  8
3
 62
     0
100
AcDbTrace
 10
-6550.173332828909
 20
3212.672154392414
 30
0.0
 11
-6533.506666162243
 21
3212.672154392414
 31
0.0
 12
-6541.839999495576
 22
3162.672154392414
 32
0.0
 13
-6541.839999495576
 23
3162.672154392414
 33
0.0
  0
MTEXT
  5
85D8
330
84FC
100
AcDbEntity
  8
3
 62
     0
100
AcDbMText
 10
-6604.339999495578
 20
3814.672154392414
 30
0.0
 40
75.0
 41
0.0
 71
     5
 72
     1
  1
\A1;1304
 11
0.0000000000000001
 21
1.0
 31
0.0
 73
     1
 44
1.0
1001
ACAD
1000
MTEXTBEGIN
1070
    73
1070
     1
1070
    44
1040
1.0
1070
    74
1070
     0
1000
MTEXTEND
  0
POINT
  5
85D9
330
84FC
100
AcDbEntity
  8
DEFPOINTS
 62
     0
100
AcDbPoint
 10
-6102.051233531064
 20
4466.672154392414
 30
0.0
  0
POINT
  5
85DA
330
84FC
100
AcDbEntity
  8
DEFPOINTS
 62
     0
100
AcDbPoint
 10
-6052.051233531063
 20
3162.672154392414
 30
0.0
  0
POINT
  5
85DB
330
84FC
100
AcDbEntity
  8
DEFPOINTS
 62
     0
100
AcDbPoint
 10
-6541.839999495576
 20
3162.672154392414
 30
0.0
  0
ENDBLK
  5
84FE
330
84FC
100
AcDbEntity
  8
0
100
AcDbBlockEnd
  0
BLOCK
  5
8509
330
8508
100
AcDbEntity
  8
0
100
AcDbBlockBegin
  2
*D56
 70
     1
 10
0.0
 20
0.0
 30
0.0
  3
*D56
  1

  0
LINE
  5
85DC
330
8508
100
AcDbEntity
  8
3
 62
     0
370
    -2
100
AcDbLine
 10
-4070.168360907405
 20
3940.172154392414
 30
0.0
 11
-4070.168360907405
 21
4823.4011157839
 31
0.0
  0
LINE
  5
85DD
330
8508
100
AcDbEntity
  8
3
 62
     0
370
    -2
100
AcDbLine
 10
-3230.168360907405
 20
4810.9011157839
 30
0.0
 11
-3230.168360907405
 21
4823.4011157839
 31
0.0
  0
LINE
  5
85DE
330
8508
100
AcDbEntity
  8
3
 62
     0
370
    -2
100
AcDbLine
 10
-4020.168360907404
 20
4798.401115783899
 30
0.0
 11
-3280.168360907405
 21
4798.401115783899
 31
0.0
  0
SOLID
  5
85DF
330
8508
100
AcDbEntity
  8
3
 62
     0
100
AcDbTrace
 10
-4020.168360907404
 20
4806.734449117232
 30
0.0
 11
-4020.168360907404
 21
4790.067782450566
 31
0.0
 12
-4070.168360907405
 22
4798.401115783899
 32
0.0
 13
-4070.168360907405
 23
4798.401115783899
 33
0.0
  0
SOLID
  5
85E0
330
8508
100
AcDbEntity
  8
3
 62
     0
100
AcDbTrace
 10
-3280.168360907405
 20
4806.734449117232
 30
0.0
 11
-3280.168360907405
 21
4790.067782450566
 31
0.0
 12
-3230.168360907405
 22
4798.401115783899
 32
0.0
 13
-3230.168360907405
 23
4798.401115783899
 33
0.0
  0
MTEXT
  5
85E1
330
8508
100
AcDbEntity
  8
3
 62
     0
100
AcDbMText
 10
-3650.168360907404
 20
4880.543972926756
 30
0.0
 40
75.0
 41
0.0
 71
     5
 72
     1
  1
\A1;(840)
 73
     1
 44
1.0
1001
ACAD
1000
MTEXTBEGIN
1070
    73
1070
     1
1070
    44
1040
1.0
1070
    74
1070
     0
1000
MTEXTEND
  0
POINT
  5
85E2
330
8508
100
AcDbEntity
  8
DEFPOINTS
 62
     0
100
AcDbPoint
 10
-4070.168360907405
 20
3927.672154392414
 30
0.0
  0
POINT
  5
85E3
330
8508
100
AcDbEntity
  8
DEFPOINTS
 62
     0
100
AcDbPoint
 10
-3230.168360907405
 20
4798.401115783899
 30
0.0
  0
POINT
  5
85E4
330
8508
100
AcDbEntity
  8
DEFPOINTS
 62
     0
100
AcDbPoint
 10
-3230.168360907405
 20
4798.401115783899
 30
0.0
  0
ENDBLK
  5
850A
330
8508
100
AcDbEntity
  8
0
100
AcDbBlockEnd
  0
BLOCK
  5
8515
330
8514
100
AcDbEntity
  8
0
100
AcDbBlockBegin
  2
*D57
 70
     1
 10
0.0
 20
0.0
 30
0.0
  3
*D57
  1

  0
LINE
  5
85E5
330
8514
100
AcDbEntity
  8
3
 62
     0
370
    -2
100
AcDbLine
 10
-5602.051233531064
 20
4672.152686573445
 30
0.0
 11
-5602.051233531064
 21
4684.652686573445
 31
0.0
  0
LINE
  5
85E6
330
8514
100
AcDbEntity
  8
3
 62
     0
370
    -2
100
AcDbLine
 10
-5007.051233531065
 20
3773.172154392414
 30
0.0
 11
-5007.051233531065
 21
4684.652686573445
 31
0.0
  0
LINE
  5
85E7
330
8514
100
AcDbEntity
  8
3
 62
     0
370
    -2
100
AcDbLine
 10
-5552.051233531063
 20
4659.652686573445
 30
0.0
 11
-5057.051233531066
 21
4659.652686573445
 31
0.0
  0
SOLID
  5
85E8
330
8514
100
AcDbEntity
  8
3
 62
     0
100
AcDbTrace
 10
-5552.051233531063
 20
4667.986019906778
 30
0.0
 11
-5552.051233531063
 21
4651.319353240111
 31
0.0
 12
-5602.051233531064
 22
4659.652686573445
 32
0.0
 13
-5602.051233531064
 23
4659.652686573445
 33
0.0
  0
SOLID
  5
85E9
330
8514
100
AcDbEntity
  8
3
 62
     0
100
AcDbTrace
 10
-5057.051233531066
 20
4667.986019906778
 30
0.0
 11
-5057.051233531066
 21
4651.319353240111
 31
0.0
 12
-5007.051233531065
 22
4659.652686573445
 32
0.0
 13
-5007.051233531065
 23
4659.652686573445
 33
0.0
  0
MTEXT
  5
85EA
330
8514
100
AcDbEntity
  8
3
 62
     0
100
AcDbMText
 10
-5304.551233531064
 20
4722.152686573445
 30
0.0
 40
75.0
 41
0.0
 71
     5
 72
     1
  1
\A1;595
 73
     1
 44
1.0
1001
ACAD
1000
MTEXTBEGIN
1070
    73
1070
     1
1070
    44
1040
1.0
1070
    74
1070
     0
1000
MTEXTEND
  0
POINT
  5
85EB
330
8514
100
AcDbEntity
  8
DEFPOINTS
 62
     0
100
AcDbPoint
 10
-5602.051233531064
 20
4659.652686573445
 30
0.0
  0
POINT
  5
85EC
330
8514
100
AcDbEntity
  8
DEFPOINTS
 62
     0
100
AcDbPoint
 10
-5007.051233531065
 20
3760.672154392414
 30
0.0
  0
POINT
  5
85ED
330
8514
100
AcDbEntity
  8
DEFPOINTS
 62
     0
100
AcDbPoint
 10
-5007.051233531065
 20
4659.652686573445
 30
0.0
  0
ENDBLK
  5
8516
330
8514
100
AcDbEntity
  8
0
100
AcDbBlockEnd
  0
BLOCK
  5
8521
330
8520
100
AcDbEntity
  8
0
100
AcDbBlockBegin
  2
*D58
 70
     1
 10
0.0
 20
0.0
 30
0.0
  3
*D58
  1

  0
LINE
  5
85EE
330
8520
100
AcDbEntity
  8
3
370
    -2
100
AcDbLine
 10
-6127.051233531063
 20
4466.672154392414
 30
0.0
 11
-6276.058617310289
 21
4466.672154392415
 31
0.0
  0
LINE
  5
85EF
330
8520
100
AcDbEntity
  8
3
370
    -2
100
AcDbLine
 10
-6127.051233531064
 20
3736.672154392414
 30
0.0
 11
-6276.058617310289
 21
3736.672154392414
 31
0.0
  0
LINE
  5
85F0
330
8520
100
AcDbEntity
  8
3
370
    -2
100
AcDbLine
 10
-6251.058617310289
 20
4416.672154392414
 30
0.0
 11
-6251.058617310289
 21
3992.743582963843
 31
0.0
  0
SOLID
  5
85F1
330
8520
100
AcDbEntity
  8
3
100
AcDbTrace
 10
-6259.391950643622
 20
4416.672154392414
 30
0.0
 11
-6242.725283976956
 21
4416.672154392414
 31
0.0
 12
-6251.058617310289
 22
4466.672154392415
 32
0.0
 13
-6251.058617310289
 23
4466.672154392415
 33
0.0
  0
MTEXT
  5
85F2
330
8520
100
AcDbEntity
  8
3
100
AcDbMText
 10
-6301.05861731029
 20
4101.672154392413
 30
0.0
 40
75.0
 41
0.0
 71
     5
 72
     1
  1
\A1;730
 11
0.0000000000000001
 21
1.0
 31
0.0
 73
     1
 44
1.0
1001
ACAD
1000
MTEXTBEGIN
1070
    73
1070
     1
1070
    44
1040
1.0
1070
    74
1070
     0
1000
MTEXTEND
  0
POINT
  5
85F3
330
8520
100
AcDbEntity
  8
DEFPOINTS
 62
     0
100
AcDbPoint
 10
-6102.051233531064
 20
4466.672154392414
 30
0.0
  0
POINT
  5
85F4
330
8520
100
AcDbEntity
  8
DEFPOINTS
 62
     0
100
AcDbPoint
 10
-6102.051233531064
 20
3736.672154392414
 30
0.0
  0
POINT
  5
85F5
330
8520
100
AcDbEntity
  8
DEFPOINTS
 62
     0
100
AcDbPoint
 10
-6251.058617310289
 20
3736.672154392414
 30
0.0
  0
ENDBLK
  5
8522
330
8520
100
AcDbEntity
  8
0
100
AcDbBlockEnd
  0
BLOCK
  5
852C
330
852B
100
AcDbEntity
  8
0
100
AcDbBlockBegin
  2
*D59
 70
     1
 10
0.0
 20
0.0
 30
0.0
  3
*D59
  1

  0
LINE
  5
85F6
330
852B
100
AcDbEntity
  8
3
370
    -2
100
AcDbLine
 10
-6127.051233531063
 20
4466.672154392414
 30
0.0
 11
-6428.867390783955
 21
4466.672154392415
 31
0.0
  0
LINE
  5
85F7
330
852B
100
AcDbEntity
  8
3
370
    -2
100
AcDbLine
 10
-6249.317072336493
 20
3707.672154392414
 30
0.0
 11
-6428.867390783955
 21
3707.672154392414
 31
0.0
  0
LINE
  5
85F8
330
852B
100
AcDbEntity
  8
3
370
    -2
100
AcDbLine
 10
-6403.867390783955
 20
4416.672154392414
 30
0.0
 11
-6403.867390783955
 21
3980.029297249558
 31
0.0
  0
SOLID
  5
85F9
330
852B
100
AcDbEntity
  8
3
100
AcDbTrace
 10
-6412.200724117288
 20
4416.672154392414
 30
0.0
 11
-6395.534057450621
 21
4416.672154392414
 31
0.0
 12
-6403.867390783955
 22
4466.672154392415
 32
0.0
 13
-6403.867390783955
 23
4466.672154392415
 33
0.0
  0
MTEXT
  5
85FA
330
852B
100
AcDbEntity
  8
3
100
AcDbMText
 10
-6453.867390783955
 20
4087.172154392414
 30
0.0
 40
75.0
 41
0.0
 71
     5
 72
     1
  1
\A1;759
 11
0.0000000000000001
 21
1.0
 31
0.0
 73
     1
 44
1.0
1001
ACAD
1000
MTEXTBEGIN
1070
    73
1070
     1
1070
    44
1040
1.0
1070
    74
1070
     0
1000
MTEXTEND
  0
POINT
  5
85FB
330
852B
100
AcDbEntity
  8
DEFPOINTS
 62
     0
100
AcDbPoint
 10
-6102.051233531064
 20
4466.672154392414
 30
0.0
  0
POINT
  5
85FC
330
852B
100
AcDbEntity
  8
DEFPOINTS
 62
     0
100
AcDbPoint
 10
-6224.317072336493
 20
3707.672154392414
 30
0.0
  0
POINT
  5
85FD
330
852B
100
AcDbEntity
  8
DEFPOINTS
 62
     0
100
AcDbPoint
 10
-6403.867390783955
 20
3707.672154392414
 30
0.0
  0
ENDBLK
  5
852D
330
852B
100
AcDbEntity
  8
0
100
AcDbBlockEnd
  0
BLOCK
  5
8537
330
8536
100
AcDbEntity
  8
0
100
AcDbBlockBegin
  2
*D60
 70
     1
 10
0.0
 20
0.0
 30
0.0
  3
*D60
  1

  0
LINE
  5
85FE
330
8536
100
AcDbEntity
  8
3
370
    -2
100
AcDbLine
 10
-6102.051233531064
 20
4533.672154392414
 30
0.0
 11
-6102.051233531064
 21
4684.652686573445
 31
0.0
  0
LINE
  5
85FF
330
8536
100
AcDbEntity
  8
3
370
    -2
100
AcDbLine
 10
-5602.051233531064
 20
4562.723438849556
 30
0.0
 11
-5602.051233531064
 21
4684.652686573445
 31
0.0
  0
LINE
  5
8600
330
8536
100
AcDbEntity
  8
3
370
    -2
100
AcDbLine
 10
-6052.051233531063
 20
4659.652686573445
 30
0.0
 11
-5743.122662102492
 21
4659.652686573445
 31
0.0
  0
SOLID
  5
8601
330
8536
100
AcDbEntity
  8
3
100
AcDbTrace
 10
-6052.051233531063
 20
4667.986019906778
 30
0.0
 11
-6052.051233531063
 21
4651.319353240111
 31
0.0
 12
-6102.051233531064
 22
4659.652686573445
 32
0.0
 13
-6102.051233531064
 23
4659.652686573445
 33
0.0
  0
MTEXT
  5
8602
330
8536
100
AcDbEntity
  8
3
100
AcDbMText
 10
-5852.051233531064
 20
4709.652686573445
 30
0.0
 40
75.0
 41
0.0
 71
     5
 72
     1
  1
\A1;500
 73
     1
 44
1.0
1001
ACAD
1000
MTEXTBEGIN
1070
    73
1070
     1
1070
    44
1040
1.0
1070
    74
1070
     0
1000
MTEXTEND
  0
POINT
  5
8603
330
8536
100
AcDbEntity
  8
DEFPOINTS
 62
     0
100
AcDbPoint
 10
-6102.051233531064
 20
4508.672154392414
 30
0.0
  0
POINT
  5
8604
330
8536
100
AcDbEntity
  8
DEFPOINTS
 62
     0
100
AcDbPoint
 10
-5602.051233531064
 20
4537.723438849556
 30
0.0
  0
POINT
  5
8605
330
8536
100
AcDbEntity
  8
DEFPOINTS
 62
     0
100
AcDbPoint
 10
-5602.051233531064
 20
4659.652686573445
 30
0.0
  0
ENDBLK
  5
8538
330
8536
100
AcDbEntity
  8
0
100
AcDbBlockEnd
  0
BLOCK
  5
8542
330
8541
100
AcDbEntity
  8
0
100
AcDbBlockBegin
  2
*D61
 70
     1
 10
0.0
 20
0.0
 30
0.0
  3
*D61
  1

  0
LINE
  5
8606
330
8541
100
AcDbEntity
  8
3
370
    -2
100
AcDbLine
 10
-3705.168360907405
 20
4533.672154392414
 30
0.0
 11
-3705.168360907405
 21
4684.013654698833
 31
0.0
  0
LINE
  5
8607
330
8541
100
AcDbEntity
  8
3
370
    -2
100
AcDbLine
 10
-2755.168360907405
 20
4533.672154392414
 30
0.0
 11
-2755.168360907405
 21
4684.013654698833
 31
0.0
  0
LINE
  5
8608
330
8541
100
AcDbEntity
  8
3
370
    -2
100
AcDbLine
 10
-3655.168360907405
 20
4659.013654698832
 30
0.0
 11
-3121.239789478833
 21
4659.013654698832
 31
0.0
  0
SOLID
  5
8609
330
8541
100
AcDbEntity
  8
3
100
AcDbTrace
 10
-3655.168360907405
 20
4667.346988032165
 30
0.0
 11
-3655.168360907405
 21
4650.680321365499
 31
0.0
 12
-3705.168360907405
 22
4659.013654698832
 32
0.0
 13
-3705.168360907405
 23
4659.013654698832
 33
0.0
  0
MTEXT
  5
860A
330
8541
100
AcDbEntity
  8
3
100
AcDbMText
 10
-3230.168360907405
 20
4709.013654698832
 30
0.0
 40
75.0
 41
0.0
 71
     5
 72
     1
  1
\A1;950
 73
     1
 44
1.0
1001
ACAD
1000
MTEXTBEGIN
1070
    73
1070
     1
1070
    44
1040
1.0
1070
    74
1070
     0
1000
MTEXTEND
  0
POINT
  5
860B
330
8541
100
AcDbEntity
  8
DEFPOINTS
 62
     0
100
AcDbPoint
 10
-3705.168360907405
 20
4508.672154392414
 30
0.0
  0
POINT
  5
860C
330
8541
100
AcDbEntity
  8
DEFPOINTS
 62
     0
100
AcDbPoint
 10
-2755.168360907405
 20
4508.672154392414
 30
0.0
  0
POINT
  5
860D
330
8541
100
AcDbEntity
  8
DEFPOINTS
 62
     0
100
AcDbPoint
 10
-2755.168360907405
 20
4659.013654698832
 30
0.0
  0
ENDBLK
  5
8543
330
8541
100
AcDbEntity
  8
0
100
AcDbBlockEnd
  0
BLOCK
  5
854D
330
854C
100
AcDbEntity
  8
0
100
AcDbBlockBegin
  2
*D62
 70
     1
 10
0.0
 20
0.0
 30
0.0
  3
*D62
  1

  0
LINE
  5
860E
330
854C
100
AcDbEntity
  8
3
370
    -2
100
AcDbLine
 10
-2724.668360907406
 20
3352.672154392414
 30
0.0
 11
-2478.166350562093
 21
3352.672154392414
 31
0.0
  0
LINE
  5
860F
330
854C
100
AcDbEntity
  8
3
370
    -2
100
AcDbLine
 10
-2724.668360907406
 20
4062.672154392414
 30
0.0
 11
-2478.166350562093
 21
4062.672154392414
 31
0.0
  0
LINE
  5
8610
330
854C
100
AcDbEntity
  8
3
370
    -2
100
AcDbLine
 10
-2503.166350562093
 20
3402.672154392414
 30
0.0
 11
-2503.166350562093
 21
3846.957868678128
 31
0.0
  0
SOLID
  5
8611
330
854C
100
AcDbEntity
  8
3
100
AcDbTrace
 10
-2511.499683895426
 20
3402.672154392414
 30
0.0
 11
-2494.83301722876
 21
3402.672154392414
 31
0.0
 12
-2503.166350562093
 22
3352.672154392414
 32
0.0
 13
-2503.166350562093
 23
3352.672154392414
 33
0.0
  0
MTEXT
  5
8612
330
854C
100
AcDbEntity
  8
3
100
AcDbMText
 10
-2553.166350562094
 20
3707.672154392414
 30
0.0
 40
75.0
 41
0.0
 71
     5
 72
     1
  1
\A1;\U+03C6710
 11
0.0000000000000001
 21
1.0
 31
0.0
 73
     1
 44
1.0
1001
ACAD
1000
MTEXTBEGIN
1070
    73
1070
     1
1070
    44
1040
1.0
1070
    74
1070
     0
1000
MTEXTEND
  0
POINT
  5
8613
330
854C
100
AcDbEntity
  8
DEFPOINTS
 62
     0
100
AcDbPoint
 10
-2749.668360907405
 20
3352.672154392414
 30
0.0
  0
POINT
  5
8614
330
854C
100
AcDbEntity
  8
DEFPOINTS
 62
     0
100
AcDbPoint
 10
-2749.668360907405
 20
4062.672154392414
 30
0.0
  0
POINT
  5
8615
330
854C
100
AcDbEntity
  8
DEFPOINTS
 62
     0
100
AcDbPoint
 10
-2503.166350562093
 20
4062.672154392414
 30
0.0
  0
ENDBLK
  5
854E
330
854C
100
AcDbEntity
  8
0
100
AcDbBlockEnd
  0
BLOCK
  5
8558
330
8557
100
AcDbEntity
  8
0
100
AcDbBlockBegin
  2
*D63
 70
     1
 10
0.0
 20
0.0
 30
0.0
  3
*D63
  1

  0
LINE
  5
8616
330
8557
100
AcDbEntity
  8
3
370
    -2
100
AcDbLine
 10
-5152.051233531063
 20
6790.417302889865
 30
0.0
 11
-5152.051233531063
 21
6997.902516084097
 31
0.0
  0
LINE
  5
8617
330
8557
100
AcDbEntity
  8
3
370
    -2
100
AcDbLine
 10
-6052.051233531063
 20
6790.417302889865
 30
0.0
 11
-6052.051233531063
 21
6997.902516084097
 31
0.0
  0
LINE
  5
8618
330
8557
100
AcDbEntity
  8
3
370
    -2
100
AcDbLine
 10
-5202.051233531063
 20
6972.902516084097
 30
0.0
 11
-5710.979804959634
 21
6972.902516084097
 31
0.0
  0
SOLID
  5
8619
330
8557
100
AcDbEntity
  8
3
100
AcDbTrace
 10
-5202.051233531063
 20
6981.23584941743
 30
0.0
 11
-5202.051233531063
 21
6964.569182750764
 31
0.0
 12
-5152.051233531063
 22
6972.902516084097
 32
0.0
 13
-5152.051233531063
 23
6972.902516084097
 33
0.0
  0
MTEXT
  5
861A
330
8557
100
AcDbEntity
  8
3
100
AcDbMText
 10
-5602.051233531064
 20
7022.902516084098
 30
0.0
 40
75.0
 41
0.0
 71
     5
 72
     1
  1
\A1;900
 73
     1
 44
1.0
1001
ACAD
1000
MTEXTBEGIN
1070
    73
1070
     1
1070
    44
1040
1.0
1070
    74
1070
     0
1000
MTEXTEND
  0
POINT
  5
861B
330
8557
100
AcDbEntity
  8
DEFPOINTS
 62
     0
100
AcDbPoint
 10
-5152.051233531063
 20
6765.417302889865
 30
0.0
  0
POINT
  5
861C
330
8557
100
AcDbEntity
  8
DEFPOINTS
 62
     0
100
AcDbPoint
 10
-6052.051233531063
 20
6765.417302889865
 30
0.0
  0
POINT
  5
861D
330
8557
100
AcDbEntity
  8
DEFPOINTS
 62
     0
100
AcDbPoint
 10
-6052.051233531063
 20
6972.902516084097
 30
0.0
  0
ENDBLK
  5
8559
330
8557
100
AcDbEntity
  8
0
100
AcDbBlockEnd
  0
BLOCK
  5
8563
330
8562
100
AcDbEntity
  8
0
100
AcDbBlockBegin
  2
*D64
 70
     1
 10
0.0
 20
0.0
 30
0.0
  3
*D64
  1

  0
LINE
  5
861E
330
8562
100
AcDbEntity
  8
3
370
    -2
100
AcDbLine
 10
-6077.051233531063
 20
6765.417302889865
 30
0.0
 11
-6375.689950180348
 21
6765.417302889865
 31
0.0
  0
LINE
  5
861F
330
8562
100
AcDbEntity
  8
3
370
    -2
100
AcDbLine
 10
-6077.051233531063
 20
5585.417302889865
 30
0.0
 11
-6375.689950180349
 21
5585.417302889865
 31
0.0
  0
LINE
  5
8620
330
8562
100
AcDbEntity
  8
3
370
    -2
100
AcDbLine
 10
-6350.689950180348
 20
6715.417302889865
 30
0.0
 11
-6350.689950180349
 21
6045.060160032722
 31
0.0
  0
SOLID
  5
8621
330
8562
100
AcDbEntity
  8
3
100
AcDbTrace
 10
-6359.023283513682
 20
6715.417302889865
 30
0.0
 11
-6342.356616847015
 21
6715.417302889865
 31
0.0
 12
-6350.689950180348
 22
6765.417302889865
 32
0.0
 13
-6350.689950180348
 23
6765.417302889865
 33
0.0
  0
MTEXT
  5
8622
330
8562
100
AcDbEntity
  8
3
100
AcDbMText
 10
-6400.68995018035
 20
6175.417302889864
 30
0.0
 40
75.0
 41
0.0
 71
     5
 72
     1
  1
\A1;1180
 11
0.0000000000000001
 21
1.0
 31
0.0
 73
     1
 44
1.0
1001
ACAD
1000
MTEXTBEGIN
1070
    73
1070
     1
1070
    44
1040
1.0
1070
    74
1070
     0
1000
MTEXTEND
  0
POINT
  5
8623
330
8562
100
AcDbEntity
  8
DEFPOINTS
 62
     0
100
AcDbPoint
 10
-6052.051233531063
 20
6765.417302889865
 30
0.0
  0
POINT
  5
8624
330
8562
100
AcDbEntity
  8
DEFPOINTS
 62
     0
100
AcDbPoint
 10
-6052.051233531063
 20
5585.417302889865
 30
0.0
  0
POINT
  5
8625
330
8562
100
AcDbEntity
  8
DEFPOINTS
 62
     0
100
AcDbPoint
 10
-6350.689950180349
 20
5585.417302889865
 30
0.0
  0
ENDBLK
  5
8564
330
8562
100
AcDbEntity
  8
0
100
AcDbBlockEnd
  0
BLOCK
  5
856E
330
856D
100
AcDbEntity
  8
0
100
AcDbBlockBegin
  2
*D65
 70
     1
 10
0.0
 20
0.0
 30
0.0
  3
*D65
  1

  0
LINE
  5
8626
330
856D
100
AcDbEntity
  8
3
370
    -2
100
AcDbLine
 10
-4327.051233531064
 20
6335.417302889867
 30
0.0
 11
-4028.445482424166
 21
6335.417302889867
 31
0.0
  0
LINE
  5
8627
330
856D
100
AcDbEntity
  8
3
370
    -2
100
AcDbLine
 10
-4327.051233531063
 20
5585.417302889867
 30
0.0
 11
-4028.445482424166
 21
5585.417302889867
 31
0.0
  0
LINE
  5
8628
330
856D
100
AcDbEntity
  8
3
370
    -2
100
AcDbLine
 10
-4053.445482424165
 20
6285.417302889867
 30
0.0
 11
-4053.445482424165
 21
5851.488731461295
 31
0.0
  0
SOLID
  5
8629
330
856D
100
AcDbEntity
  8
3
100
AcDbTrace
 10
-4061.778815757499
 20
6285.417302889867
 30
0.0
 11
-4045.112149090832
 21
6285.417302889867
 31
0.0
 12
-4053.445482424165
 22
6335.417302889867
 32
0.0
 13
-4053.445482424165
 23
6335.417302889867
 33
0.0
  0
MTEXT
  5
862A
330
856D
100
AcDbEntity
  8
3
100
AcDbMText
 10
-4103.445482424167
 20
5960.417302889865
 30
0.0
 40
75.0
 41
0.0
 71
     5
 72
     1
  1
\A1;750
 11
0.0000000000000001
 21
1.0
 31
0.0
 73
     1
 44
1.0
1001
ACAD
1000
MTEXTBEGIN
1070
    73
1070
     1
1070
    44
1040
1.0
1070
    74
1070
     0
1000
MTEXTEND
  0
POINT
  5
862B
330
856D
100
AcDbEntity
  8
DEFPOINTS
 62
     0
100
AcDbPoint
 10
-4352.051233531064
 20
6335.417302889867
 30
0.0
  0
POINT
  5
862C
330
856D
100
AcDbEntity
  8
DEFPOINTS
 62
     0
100
AcDbPoint
 10
-4352.051233531063
 20
5585.417302889867
 30
0.0
  0
POINT
  5
862D
330
856D
100
AcDbEntity
  8
DEFPOINTS
 62
     0
100
AcDbPoint
 10
-4053.445482424165
 20
5585.417302889867
 30
0.0
  0
ENDBLK
  5
856F
330
856D
100
AcDbEntity
  8
0
100
AcDbBlockEnd
  0
BLOCK
  5
8579
330
8578
100
AcDbEntity
  8
0
100
AcDbBlockBegin
  2
*D66
 70
     1
 10
0.0
 20
0.0
 30
0.0
  3
*D66
  1

  0
LINE
  5
862E
330
8578
100
AcDbEntity
  8
3
370
    -2
100
AcDbLine
 10
-4352.051233531063
 20
5560.417302889867
 30
0.0
 11
-4352.051233531063
 21
5138.496715168884
 31
0.0
  0
LINE
  5
862F
330
8578
100
AcDbEntity
  8
3
370
    -2
100
AcDbLine
 10
-6052.051233531063
 20
5560.417302889865
 30
0.0
 11
-6052.051233531063
 21
5138.496715168884
 31
0.0
  0
LINE
  5
8630
330
8578
100
AcDbEntity
  8
3
370
    -2
100
AcDbLine
 10
-4402.051233531063
 20
5163.496715168883
 30
0.0
 11
-5064.551233531063
 21
5163.496715168883
 31
0.0
  0
MTEXT
  5
8631
330
8578
100
AcDbEntity
  8
3
100
AcDbMText
 10
-5202.051233531063
 20
5163.496715168883
 30
0.0
 40
75.0
 41
0.0
 71
     5
 72
     1
  1
\A1;1700
 73
     1
 44
1.0
1001
ACAD
1000
MTEXTBEGIN
1070
    73
1070
     1
1070
    44
1040
1.0
1070
    74
1070
     0
1000
MTEXTEND
  0
SOLID
  5
8632
330
8578
100
AcDbEntity
  8
3
100
AcDbTrace
 10
-4402.051233531063
 20
5171.830048502216
 30
0.0
 11
-4402.051233531063
 21
5155.16338183555
 31
0.0
 12
-4352.051233531063
 22
5163.496715168883
 32
0.0
 13
-4352.051233531063
 23
5163.496715168883
 33
0.0
  0
POINT
  5
8633
330
8578
100
AcDbEntity
  8
DEFPOINTS
 62
     0
100
AcDbPoint
 10
-4352.051233531063
 20
5585.417302889867
 30
0.0
  0
POINT
  5
8634
330
8578
100
AcDbEntity
  8
DEFPOINTS
 62
     0
100
AcDbPoint
 10
-6052.051233531063
 20
5585.417302889865
 30
0.0
  0
POINT
  5
8635
330
8578
100
AcDbEntity
  8
DEFPOINTS
 62
     0
100
AcDbPoint
 10
-6052.051233531063
 20
5163.496715168883
 30
0.0
  0
ENDBLK
  5
857A
330
8578
100
AcDbEntity
  8
0
100
AcDbBlockEnd
  0
BLOCK
  5
8584
330
8583
100
AcDbEntity
  8
0
100
AcDbBlockBegin
  2
*D67
 70
     1
 10
0.0
 20
0.0
 30
0.0
  3
*D67
  1

  0
LINE
  5
8636
330
8583
100
AcDbEntity
  8
3
370
    -2
100
AcDbLine
 10
-4352.051233531064
 20
6360.417302889867
 30
0.0
 11
-4352.051233531064
 21
6997.902516084097
 31
0.0
  0
LINE
  5
8637
330
8583
100
AcDbEntity
  8
3
370
    -2
100
AcDbLine
 10
-5152.051233531063
 20
6790.417302889865
 30
0.0
 11
-5152.051233531063
 21
6997.902516084097
 31
0.0
  0
LINE
  5
8638
330
8583
100
AcDbEntity
  8
3
370
    -2
100
AcDbLine
 10
-4402.051233531063
 20
6972.902516084097
 30
0.0
 11
-4860.979804959635
 21
6972.902516084097
 31
0.0
  0
SOLID
  5
8639
330
8583
100
AcDbEntity
  8
3
100
AcDbTrace
 10
-4402.051233531063
 20
6981.23584941743
 30
0.0
 11
-4402.051233531063
 21
6964.569182750764
 31
0.0
 12
-4352.051233531064
 22
6972.902516084097
 32
0.0
 13
-4352.051233531064
 23
6972.902516084097
 33
0.0
  0
MTEXT
  5
863A
330
8583
100
AcDbEntity
  8
3
100
AcDbMText
 10
-4752.051233531063
 20
7022.902516084098
 30
0.0
 40
75.0
 41
0.0
 71
     5
 72
     1
  1
\A1;800
 73
     1
 44
1.0
1001
ACAD
1000
MTEXTBEGIN
1070
    73
1070
     1
1070
    44
1040
1.0
1070
    74
1070
     0
1000
MTEXTEND
  0
POINT
  5
863B
330
8583
100
AcDbEntity
  8
DEFPOINTS
 62
     0
100
AcDbPoint
 10
-4352.051233531064
 20
6335.417302889867
 30
0.0
  0
POINT
  5
863C
330
8583
100
AcDbEntity
  8
DEFPOINTS
 62
     0
100
AcDbPoint
 10
-5152.051233531063
 20
6765.417302889865
 30
0.0
  0
POINT
  5
863D
330
8583
100
AcDbEntity
  8
DEFPOINTS
 62
     0
100
AcDbPoint
 10
-5152.051233531063
 20
6972.902516084097
 30
0.0
  0
ENDBLK
  5
8585
330
8583
100
AcDbEntity
  8
0
100
AcDbBlockEnd
  0
BLOCK
  5
858F
330
858E
100
AcDbEntity
  8
0
100
AcDbBlockBegin
  2
*D68
 70
     1
 10
0.0
 20
0.0
 30
0.0
  3
*D68
  1

  0
LINE
  5
863E
330
858E
100
AcDbEntity
  8
3
370
    -2
100
AcDbLine
 10
-6249.317072336493
 20
3707.672154392414
 30
0.0
 11
-6427.805047816379
 21
3707.672154392414
 31
0.0
  0
LINE
  5
863F
330
858E
100
AcDbEntity
  8
3
370
    -2
100
AcDbLine
 10
-6077.051233531063
 20
3162.672154392414
 30
0.0
 11
-6427.805047816379
 21
3162.672154392414
 31
0.0
  0
LINE
  5
8640
330
858E
100
AcDbEntity
  8
3
370
    -2
100
AcDbLine
 10
-6402.805047816379
 20
3657.672154392415
 30
0.0
 11
-6402.805047816379
 21
3326.243582963843
 31
0.0
  0
SOLID
  5
8641
330
858E
100
AcDbEntity
  8
3
100
AcDbTrace
 10
-6411.138381149712
 20
3657.672154392415
 30
0.0
 11
-6394.471714483046
 21
3657.672154392415
 31
0.0
 12
-6402.805047816379
 22
3707.672154392414
 32
0.0
 13
-6402.805047816379
 23
3707.672154392414
 33
0.0
  0
MTEXT
  5
8642
330
858E
100
AcDbEntity
  8
3
100
AcDbMText
 10
-6452.805047816379
 20
3435.172154392414
 30
0.0
 40
75.0
 41
0.0
 71
     5
 72
     1
  1
\A1;545
 11
0.0000000000000001
 21
1.0
 31
0.0
 73
     1
 44
1.0
1001
ACAD
1000
MTEXTBEGIN
1070
    73
1070
     1
1070
    44
1040
1.0
1070
    74
1070
     0
1000
MTEXTEND
  0
POINT
  5
8643
330
858E
100
AcDbEntity
  8
DEFPOINTS
 62
     0
100
AcDbPoint
 10
-6224.317072336493
 20
3707.672154392414
 30
0.0
  0
POINT
  5
8644
330
858E
100
AcDbEntity
  8
DEFPOINTS
 62
     0
100
AcDbPoint
 10
-6052.051233531063
 20
3162.672154392414
 30
0.0
  0
POINT
  5
8645
330
858E
100
AcDbEntity
  8
DEFPOINTS
 62
     0
100
AcDbPoint
 10
-6402.805047816379
 20
3162.672154392414
 30
0.0
  0
ENDBLK
  5
8590
330
858E
100
AcDbEntity
  8
0
100
AcDbBlockEnd
  0
BLOCK
  5
859A
330
8599
100
AcDbEntity
  8
0
100
AcDbBlockBegin
  2
*D69
 70
     1
 10
0.0
 20
0.0
 30
0.0
  3
*D69
  1

  0
LINE
  5
8646
330
8599
100
AcDbEntity
  8
3
370
    -2
100
AcDbLine
 10
-2652.668360907404
 20
3707.472154392414
 30
0.0
 11
-2652.668360907404
 21
4823.4011157839
 31
0.0
  0
LINE
  5
8647
330
8599
100
AcDbEntity
  8
3
370
    -2
100
AcDbLine
 10
-3230.168360907405
 20
4794.512684819152
 30
0.0
 11
-3230.168360907405
 21
4823.4011157839
 31
0.0
  0
LINE
  5
8648
330
8599
100
AcDbEntity
  8
3
370
    -2
100
AcDbLine
 10
-2702.668360907404
 20
4798.401115783899
 30
0.0
 11
-3098.561218050261
 21
4798.401115783899
 31
0.0
  0
SOLID
  5
8649
330
8599
100
AcDbEntity
  8
3
100
AcDbTrace
 10
-2702.668360907404
 20
4806.734449117232
 30
0.0
 11
-2702.668360907404
 21
4790.067782450566
 31
0.0
 12
-2652.668360907404
 22
4798.401115783899
 32
0.0
 13
-2652.668360907404
 23
4798.401115783899
 33
0.0
  0
MTEXT
  5
864A
330
8599
100
AcDbEntity
  8
3
100
AcDbMText
 10
-2941.418360907404
 20
4868.043972926756
 30
0.0
 40
75.0
 41
0.0
 71
     5
 72
     1
  1
\A1;(620)
 73
     1
 44
1.0
1001
ACAD
1000
MTEXTBEGIN
1070
    73
1070
     1
1070
    44
1040
1.0
1070
    74
1070
     0
1000
MTEXTEND
  0
POINT
  5
864B
330
8599
100
AcDbEntity
  8
DEFPOINTS
 62
     0
100
AcDbPoint
 10
-2652.668360907404
 20
3682.472154392414
 30
0.0
  0
POINT
  5
864C
330
8599
100
AcDbEntity
  8
DEFPOINTS
 62
     0
100
AcDbPoint
 10
-3230.168360907405
 20
4769.512684819152
 30
0.0
  0
POINT
  5
864D
330
8599
100
AcDbEntity
  8
DEFPOINTS
 62
     0
100
AcDbPoint
 10
-3230.168360907405
 20
4798.401115783899
 30
0.0
  0
ENDBLK
  5
859B
330
8599
100
AcDbEntity
  8
0
100
AcDbBlockEnd
  0
BLOCK
  5
85A5
330
85A4
100
AcDbEntity
  8
0
100
AcDbBlockBegin
  2
*D70
 70
     1
 10
0.0
 20
0.0
 30
0.0
  3
*D70
  1

  0
LINE
  5
864E
330
85A4
100
AcDbEntity
  8
3
370
    -2
100
AcDbLine
 10
-6102.051233531064
 20
4491.672154392413
 30
0.0
 11
-6102.051233531064
 21
4833.130042658265
 31
0.0
  0
LINE
  5
864F
330
85A4
100
AcDbEntity
  8
3
370
    -2
100
AcDbLine
 10
-4352.051233531063
 20
3287.672154392414
 30
0.0
 11
-4352.051233531063
 21
4833.130042658265
 31
0.0
  0
LINE
  5
8650
330
85A4
100
AcDbEntity
  8
3
370
    -2
100
AcDbLine
 10
-6052.051233531063
 20
4808.130042658266
 30
0.0
 11
-5089.551233531063
 21
4808.130042658266
 31
0.0
  0
SOLID
  5
8651
330
85A4
100
AcDbEntity
  8
3
100
AcDbTrace
 10
-6052.051233531063
 20
4816.463375991599
 30
0.0
 11
-6052.051233531063
 21
4799.796709324932
 31
0.0
 12
-6102.051233531064
 22
4808.130042658266
 32
0.0
 13
-6102.051233531064
 23
4808.130042658266
 33
0.0
  0
MTEXT
  5
8652
330
85A4
100
AcDbEntity
  8
3
100
AcDbMText
 10
-5227.051233531064
 20
4858.130042658266
 30
0.0
 40
75.0
 41
0.0
 71
     5
 72
     1
  1
\A1;1750
 73
     1
 44
1.0
1001
ACAD
1000
MTEXTBEGIN
1070
    73
1070
     1
1070
    44
1040
1.0
1070
    74
1070
     0
1000
MTEXTEND
  0
POINT
  5
8653
330
85A4
100
AcDbEntity
  8
DEFPOINTS
 62
     0
100
AcDbPoint
 10
-6102.051233531064
 20
4466.672154392414
 30
0.0
  0
POINT
  5
8654
330
85A4
100
AcDbEntity
  8
DEFPOINTS
 62
     0
100
AcDbPoint
 10
-4352.051233531063
 20
3262.672154392414
 30
0.0
  0
POINT
  5
8655
330
85A4
100
AcDbEntity
  8
DEFPOINTS
 62
     0
100
AcDbPoint
 10
-4352.051233531063
 20
4808.130042658266
 30
0.0
  0
ENDBLK
  5
85A6
330
85A4
100
AcDbEntity
  8
0
100
AcDbBlockEnd
  0
BLOCK
  5
8684
330
8683
100
AcDbEntity
  8
0
100
AcDbBlockBegin
  2
*D71
 70
     1
 10
0.0
 20
0.0
 30
0.0
  3
*D71
  1

  0
LINE
  5
868F
330
8683
100
AcDbEntity
  8
3
 62
     0
370
    -2
100
AcDbLine
 10
1670.739022619682
 20
3252.699731954696
 30
0.0
 11
1670.739022619682
 21
3374.628979678586
 31
0.0
  0
LINE
  5
8690
330
8683
100
AcDbEntity
  8
3
 62
     0
370
    -2
100
AcDbLine
 10
2265.73902261968
 20
2475.648447497555
 30
0.0
 11
2265.73902261968
 21
3374.628979678586
 31
0.0
  0
LINE
  5
8691
330
8683
100
AcDbEntity
  8
3
 62
     0
370
    -2
100
AcDbLine
 10
1720.739022619682
 20
3349.628979678586
 30
0.0
 11
2215.73902261968
 21
3349.628979678586
 31
0.0
  0
INSERT
  5
8692
330
8683
100
AcDbEntity
  8
3
 62
     0
370
    -2
100
AcDbBlockReference
  2
_OPEN
 10
1670.739022619682
 20
3349.628979678586
 30
0.0
 41
50.0
 42
50.0
 43
50.0
 50
180.0
  0
INSERT
  5
8693
330
8683
100
AcDbEntity
  8
3
 62
     0
370
    -2
100
AcDbBlockReference
  2
_OPEN
 10
2265.73902261968
 20
3349.628979678586
 30
0.0
 41
50.0
 42
50.0
 43
50.0
  0
MTEXT
  5
8694
330
8683
100
AcDbEntity
  8
3
 62
     0
100
AcDbMText
 10
1968.239022619681
 20
3412.128979678586
 30
0.0
 40
75.0
 41
0.0
 71
     5
 72
     1
  1
\A1;595
 73
     1
 44
1.0
1001
ACAD
1000
MTEXTBEGIN
1070
    73
1070
     1
1070
    44
1040
1.0
1070
    74
1070
     0
1000
MTEXTEND
  0
POINT
  5
8695
330
8683
100
AcDbEntity
  8
DEFPOINTS
 62
     0
100
AcDbPoint
 10
1670.739022619682
 20
3227.699731954696
 30
0.0
  0
POINT
  5
8696
330
8683
100
AcDbEntity
  8
DEFPOINTS
 62
     0
100
AcDbPoint
 10
2265.73902261968
 20
2450.648447497555
 30
0.0
  0
POINT
  5
8697
330
8683
100
AcDbEntity
  8
DEFPOINTS
 62
     0
100
AcDbPoint
 10
2265.73902261968
 20
3349.628979678586
 30
0.0
  0
ENDBLK
  5
8685
330
8683
100
AcDbEntity
  8
0
100
AcDbBlockEnd
  0
BLOCK
  5
869A
330
8699
100
AcDbEntity
  8
0
100
AcDbBlockBegin
  2
*D72
 70
     1
 10
0.0
 20
0.0
 30
0.0
  3
*D72
  1

  0
LINE
  5
86ED
330
8699
100
AcDbEntity
  8
3
 62
     0
370
    -2
100
AcDbLine
 10
1048.540825591602
 20
4720.894181494282
 30
0.0
 11
286.2037937958595
 21
4720.894181494282
 31
0.0
  0
LINE
  5
86EE
330
8699
100
AcDbEntity
  8
3
 62
     0
370
    -2
100
AcDbLine
 10
1365.739022619682
 20
3880.894181494284
 30
0.0
 11
286.2037937958593
 21
3880.894181494285
 31
0.0
  0
LINE
  5
86EF
330
8699
100
AcDbEntity
  8
3
 62
     0
370
    -2
100
AcDbLine
 10
311.2037937958594
 20
4670.894181494282
 30
0.0
 11
311.2037937958593
 21
3930.894181494285
 31
0.0
  0
INSERT
  5
86F0
330
8699
100
AcDbEntity
  8
3
 62
     0
370
    -2
100
AcDbBlockReference
  2
_OPEN
 10
311.2037937958594
 20
4720.894181494282
 30
0.0
 41
50.0
 42
50.0
 43
50.0
 50
90.0
  0
INSERT
  5
86F1
330
8699
100
AcDbEntity
  8
3
 62
     0
370
    -2
100
AcDbBlockReference
  2
_OPEN
 10
311.2037937958593
 20
3880.894181494285
 30
0.0
 41
50.0
 42
50.0
 43
50.0
 50
270.0
  0
MTEXT
  5
86F2
330
8699
100
AcDbEntity
  8
3
 62
     0
100
AcDbMText
 10
248.7037937958587
 20
4300.894181494283
 30
0.0
 40
75.0
 41
0.0
 71
     5
 72
     1
  1
\A1;840
 11
0.0000000000000001
 21
1.0
 31
0.0
 73
     1
 44
1.0
1001
ACAD
1000
MTEXTBEGIN
1070
    73
1070
     1
1070
    44
1040
1.0
1070
    74
1070
     0
1000
MTEXTEND
  0
POINT
  5
86F3
330
8699
100
AcDbEntity
  8
DEFPOINTS
 62
     0
100
AcDbPoint
 10
1073.540825591602
 20
4720.894181494282
 30
0.0
  0
POINT
  5
86F4
330
8699
100
AcDbEntity
  8
DEFPOINTS
 62
     0
100
AcDbPoint
 10
1390.739022619682
 20
3880.894181494284
 30
0.0
  0
POINT
  5
86F5
330
8699
100
AcDbEntity
  8
DEFPOINTS
 62
     0
100
AcDbPoint
 10
311.2037937958593
 20
3880.894181494285
 30
0.0
  0
ENDBLK
  5
869B
330
8699
100
AcDbEntity
  8
0
100
AcDbBlockEnd
  0
BLOCK
  5
86F7
330
86F6
100
AcDbEntity
  8
0
100
AcDbBlockBegin
  2
*D73
 70
     1
 10
0.0
 20
0.0
 30
0.0
  3
*D73
  1

  0
LINE
  5
86F9
330
86F6
100
AcDbEntity
  8
3
 62
     0
370
    -2
100
AcDbLine
 10
2820.739022619682
 20
4067.331681494284
 30
0.0
 11
2820.739022619682
 21
3705.457454450014
 31
0.0
  0
LINE
  5
86FA
330
86F6
100
AcDbEntity
  8
3
 62
     0
370
    -2
100
AcDbLine
 10
1220.739022619682
 20
4067.331681494283
 30
0.0
 11
1220.739022619682
 21
3705.457454450014
 31
0.0
  0
LINE
  5
86FB
330
86F6
100
AcDbEntity
  8
3
 62
     0
370
    -2
100
AcDbLine
 10
2816.239022619683
 20
3709.957454450014
 30
0.0
 11
2040.131879762538
 21
3709.957454450014
 31
0.0
  0
LINE
  5
86FC
330
86F6
100
AcDbEntity
  8
3
 62
     0
370
    -2
100
AcDbLine
 10
1225.239022619682
 20
3709.957454450014
 30
0.0
 11
2001.346165476824
 21
3709.957454450014
 31
0.0
  0
SOLID
  5
86FD
330
86F6
100
AcDbEntity
  8
3
 62
     0
100
AcDbTrace
 10
2816.239022619683
 20
3710.707454450014
 30
0.0
 11
2816.239022619683
 21
3709.207454450014
 31
0.0
 12
2820.739022619682
 22
3709.957454450014
 32
0.0
 13
2820.739022619682
 23
3709.957454450014
 33
0.0
  0
SOLID
  5
86FE
330
86F6
100
AcDbEntity
  8
3
 62
     0
100
AcDbTrace
 10
1225.239022619682
 20
3710.707454450014
 30
0.0
 11
1225.239022619682
 21
3709.207454450014
 31
0.0
 12
1220.739022619682
 22
3709.957454450014
 32
0.0
 13
1220.739022619682
 23
3709.957454450014
 33
0.0
  0
MTEXT
  5
86FF
330
86F6
100
AcDbEntity
  8
3
 62
     0
100
AcDbMText
 10
2020.739022619681
 20
3709.957454450014
 30
0.0
 40
4.5
 41
0.0
 71
     5
 72
     1
  1
\A1;1600.0000
 73
     1
 44
1.0
1001
ACAD
1000
MTEXTBEGIN
1070
    73
1070
     1
1070
    44
1040
1.0
1070
    74
1070
     0
1000
MTEXTEND
  0
POINT
  5
8700
330
86F6
100
AcDbEntity
  8
DEFPOINTS
 62
     0
100
AcDbPoint
 10
2820.739022619682
 20
4068.894181494284
 30
0.0
  0
POINT
  5
8701
330
86F6
100
AcDbEntity
  8
DEFPOINTS
 62
     0
100
AcDbPoint
 10
1220.739022619682
 20
4068.894181494282
 30
0.0
  0
POINT
  5
8702
330
86F6
100
AcDbEntity
  8
DEFPOINTS
 62
     0
100
AcDbPoint
 10
1220.739022619682
 20
3709.957454450014
 30
0.0
  0
ENDBLK
  5
86F8
330
86F6
100
AcDbEntity
  8
0
100
AcDbBlockEnd
  0
BLOCK
  5
8705
330
8704
100
AcDbEntity
  8
0
100
AcDbBlockBegin
  2
*D74
 70
     1
 10
0.0
 20
0.0
 30
0.0
  3
*D74
  1

  0
LINE
  5
8707
330
8704
100
AcDbEntity
  8
3
 62
     0
370
    -2
100
AcDbLine
 10
1220.739022619682
 20
4043.894181494283
 30
0.0
 11
1220.739022619682
 21
3677.267407291652
 31
0.0
  0
LINE
  5
8708
330
8704
100
AcDbEntity
  8
3
 62
     0
370
    -2
100
AcDbLine
 10
2820.739022619682
 20
4043.894181494284
 30
0.0
 11
2820.739022619682
 21
3677.267407291652
 31
0.0
  0
LINE
  5
8709
330
8704
100
AcDbEntity
  8
3
 62
     0
370
    -2
100
AcDbLine
 10
1270.739022619682
 20
3702.267407291652
 30
0.0
 11
2770.739022619682
 21
3702.267407291652
 31
0.0
  0
INSERT
  5
870A
330
8704
100
AcDbEntity
  8
3
 62
     0
370
    -2
100
AcDbBlockReference
  2
_OPEN
 10
1220.739022619682
 20
3702.267407291652
 30
0.0
 41
50.0
 42
50.0
 43
50.0
 50
180.0
  0
INSERT
  5
870B
330
8704
100
AcDbEntity
  8
3
 62
     0
370
    -2
100
AcDbBlockReference
  2
_OPEN
 10
2820.739022619682
 20
3702.267407291652
 30
0.0
 41
50.0
 42
50.0
 43
50.0
  0
MTEXT
  5
870C
330
8704
100
AcDbEntity
  8
3
 62
     0
100
AcDbMText
 10
2020.739022619682
 20
3764.767407291652
 30
0.0
 40
75.0
 41
0.0
 71
     5
 72
     1
  1
\A1;1600
 73
     1
 44
1.0
1001
ACAD
1000
MTEXTBEGIN
1070
    73
1070
     1
1070
    44
1040
1.0
1070
    74
1070
     0
1000
MTEXTEND
  0
POINT
  5
870D
330
8704
100
AcDbEntity
  8
DEFPOINTS
 62
     0
100
AcDbPoint
 10
1220.739022619682
 20
4068.894181494282
 30
0.0
  0
POINT
  5
870E
330
8704
100
AcDbEntity
  8
DEFPOINTS
 62
     0
100
AcDbPoint
 10
2820.739022619682
 20
4068.894181494284
 30
0.0
  0
POINT
  5
870F
330
8704
100
AcDbEntity
  8
DEFPOINTS
 62
     0
100
AcDbPoint
 10
2820.739022619682
 20
3702.267407291652
 30
0.0
  0
ENDBLK
  5
8706
330
8704
100
AcDbEntity
  8
0
100
AcDbBlockEnd
  0
ENDSEC
  0
SECTION
  2
ENTITIES
  0
INSERT
  5
7C36
330
8181
100
AcDbEntity
  8
0
100
AcDbBlockReference
  2
YA_N
 10
6.0
 20
5.0
 30
0.0
  0
LINE
  5
7C42
330
8181
100
AcDbEntity
  8
2
100
AcDbLine
 10
1670.739022619682
 20
1852.648447497555
 30
0.0
 11
1670.739022619682
 21
3227.699731954696
 31
0.0
  0
LINE
  5
7C43
330
8181
100
AcDbEntity
  8
2
100
AcDbLine
 10
1048.473183814252
 20
2397.648447497555
 30
0.0
 11
2345.765500122286
 21
2397.648447497555
 31
0.0
  0
LINE
  5
7C44
330
8181
100
AcDbEntity
  8
1
100
AcDbLine
 10
2367.739022619681
 20
1992.648447497553
 30
0.0
 11
2773.739022619682
 21
1992.648447497553
 31
0.0
  0
LINE
  5
7C45
330
8181
100
AcDbEntity
  8
1
100
AcDbLine
 10
2370.739022619682
 20
1952.648447497555
 30
0.0
 11
2370.739022619682
 21
1992.648447497553
 31
0.0
  0
LINE
  5
7C4A
330
8181
100
AcDbEntity
  8
2
100
AcDbLine
 10
3933.266996014717
 20
1852.648447497555
 30
0.0
 11
3933.266996014717
 21
3333.01515415295
 31
0.0
  0
LINE
  5
7C4B
330
8181
100
AcDbEntity
  8
2
100
AcDbLine
 10
3080.856542651913
 20
2397.648447497555
 30
0.0
 11
4519.54935441003
 21
2397.648447497555
 31
0.0
  0
LINE
  5
7C4E
330
8181
100
AcDbEntity
  8
2
100
AcDbLine
 10
1670.739022619682
 20
5305.784185108803
 30
0.0
 11
1670.739022619682
 21
3850.002981244318
 31
0.0
  0
LINE
  5
7C4F
330
8181
100
AcDbEntity
  8
2
100
AcDbLine
 10
2570.739022619682
 20
4691.805113493521
 30
0.0
 11
2570.739022619682
 21
3850.002981244318
 31
0.0
  0
LINE
  5
7C50
330
8181
100
AcDbEntity
  8
2
100
AcDbLine
 10
1073.540825591602
 20
4720.894181494282
 30
0.0
 11
3013.265491564553
 21
4720.894181494285
 31
0.0
  0
LINE
  5
7C51
330
8181
100
AcDbEntity
  8
2
100
AcDbLine
 10
3211.299896816806
 20
2202.648447497554
 30
0.0
 11
3852.988804828707
 21
2202.648447497554
 31
0.0
  0
LINE
  5
7C52
330
8181
100
AcDbEntity
  8
1
100
AcDbLine
 10
4383.266996014715
 20
1952.648447497555
 30
0.0
 11
4383.266996014715
 21
2397.648447497555
 31
0.0
  0
INSERT
  5
7C55
330
8181
100
AcDbEntity
  8
0
100
AcDbBlockReference
  2
YA_N
 10
-1092.024831295133
 20
-1095.319682135705
 30
0.0
 41
20.0
 42
20.0
 43
20.0
  0
LINE
  5
7C57
330
8181
100
AcDbEntity
  8
1
100
AcDbLine
 10
2724.739022619682
 20
2058.648447497554
 30
0.0
 11
2705.306522619681
 21
2112.038447497555
 31
0.0
  0
LINE
  5
7C58
330
8181
100
AcDbEntity
  8
1
100
AcDbLine
 10
2416.739022619682
 20
2058.648447497554
 30
0.0
 11
2436.171622619682
 21
2112.038447497555
 31
0.0
  0
ARC
  5
7C59
330
8181
100
AcDbEntity
  8
1
100
AcDbCircle
 10
2570.739022619682
 20
2202.648447497554
 30
0.0
 40
162.0
100
AcDbArc
 50
285.6481
 51
0.0
  0
ARC
  5
7C5A
330
8181
100
AcDbEntity
  8
1
100
AcDbCircle
 10
2570.739022619682
 20
2202.648447497554
 30
0.0
 40
162.0
100
AcDbArc
 50
0.0
 51
254.5427
  0
LINE
  5
7C5B
330
8181
100
AcDbEntity
  8
2
100
AcDbLine
 10
2570.739022619682
 20
2451.884447497555
 30
0.0
 11
2570.739022619682
 21
1852.648447497555
 31
0.0
  0
LINE
  5
7C5C
330
8181
100
AcDbEntity
  8
1
100
AcDbLine
 10
2527.058422619682
 20
2046.648447497555
 30
0.0
 11
2614.419722619682
 21
2046.648447497555
 31
0.0
  0
LINE
  5
7C5D
330
8181
100
AcDbEntity
  8
1
100
AcDbLine
 10
2485.795122619681
 20
2064.704447497555
 30
0.0
 11
2477.617722619682
 21
2056.526447497553
 31
0.0
  0
LINE
  5
7C5E
330
8181
100
AcDbEntity
  8
1
100
AcDbLine
 10
2463.525822619682
 20
2060.648447497555
 30
0.0
 11
2418.739022619682
 21
2060.648447497555
 31
0.0
  0
ARC
  5
7C60
330
8181
100
AcDbEntity
  8
1
100
AcDbCircle
 10
2418.739022619682
 20
2058.648447497554
 30
0.0
 40
2.0
100
AcDbArc
 50
90.0
 51
180.0
  0
LINE
  5
7C62
330
8181
100
AcDbEntity
  8
1
100
AcDbLine
 10
2416.739022619682
 20
2042.648447497553
 30
0.0
 11
2416.739022619682
 21
2058.648447497554
 31
0.0
  0
ARC
  5
7C64
330
8181
100
AcDbEntity
  8
1
100
AcDbCircle
 10
2479.739022619682
 20
2054.405447497555
 30
0.0
 40
3.0
100
AcDbArc
 50
135.0
 51
180.0
  0
LINE
  5
7C65
330
8181
100
AcDbEntity
  8
1
100
AcDbLine
 10
2476.739022619682
 20
2042.648447497553
 30
0.0
 11
2476.739022619682
 21
2054.405447497555
 31
0.0
  0
ARC
  5
7C6A
330
8181
100
AcDbEntity
  8
1
100
AcDbCircle
 10
2463.525822619682
 20
2063.648447497555
 30
0.0
 40
3.0
100
AcDbArc
 50
270.0
 51
315.0
  0
LINE
  5
7C6B
330
8181
100
AcDbEntity
  8
1
100
AcDbLine
 10
2475.627822619681
 20
2071.507447497554
 30
0.0
 11
2465.647222619682
 21
2061.526447497553
 31
0.0
  0
LINE
  5
7C6D
330
8181
100
AcDbEntity
  8
1
100
AcDbLine
 10
2677.952222619682
 20
2060.648447497555
 30
0.0
 11
2722.739022619682
 21
2060.648447497555
 31
0.0
  0
LINE
  5
7C6E
330
8181
100
AcDbEntity
  8
1
100
AcDbLine
 10
2655.682922619682
 20
2064.704447497555
 30
0.0
 11
2663.860422619682
 21
2056.526447497553
 31
0.0
  0
ARC
  5
7C6F
330
8181
100
AcDbEntity
  8
1
100
AcDbCircle
 10
2661.739022619682
 20
2054.405447497555
 30
0.0
 40
3.0
100
AcDbArc
 50
0.0
 51
45.0
  0
LINE
  5
7C70
330
8181
100
AcDbEntity
  8
1
100
AcDbLine
 10
2664.739022619682
 20
2042.648447497553
 30
0.0
 11
2664.739022619682
 21
2054.405447497555
 31
0.0
  0
ARC
  5
7C71
330
8181
100
AcDbEntity
  8
1
100
AcDbCircle
 10
2677.952222619682
 20
2063.648447497555
 30
0.0
 40
3.0
100
AcDbArc
 50
225.0
 51
270.0
  0
LINE
  5
7C72
330
8181
100
AcDbEntity
  8
1
100
AcDbLine
 10
2675.941222619682
 20
2061.416447497554
 30
0.0
 11
2665.850222619682
 21
2071.507447497554
 31
0.0
  0
ARC
  5
7C79
330
8181
100
AcDbEntity
  8
1
100
AcDbCircle
 10
2722.739022619682
 20
2058.648447497554
 30
0.0
 40
2.0
100
AcDbArc
 50
0.0
 51
90.0
  0
LINE
  5
7C7A
330
8181
100
AcDbEntity
  8
1
100
AcDbLine
 10
2724.739022619682
 20
2042.648447497553
 30
0.0
 11
2724.739022619682
 21
2058.648447497554
 31
0.0
  0
LINE
  5
7C7B
330
8181
100
AcDbEntity
  8
2
100
AcDbLine
 10
2377.882147720158
 20
2202.648447497554
 30
0.0
 11
2768.497949838352
 21
2202.648447497554
 31
0.0
  0
LINE
  5
7C7C
330
8181
100
AcDbEntity
  8
1
100
AcDbLine
 10
2380.779555249423
 20
2042.648447497553
 30
0.0
 11
2510.739022619683
 21
2042.648447497553
 31
0.0
  0
LINE
  5
7C7D
330
8181
100
AcDbEntity
  8
1
100
AcDbLine
 10
2367.739022619681
 20
1992.648447497553
 30
0.0
 11
2380.779555249423
 21
2042.648447497553
 31
0.0
  0
LINE
  5
7C7E
330
8181
100
AcDbEntity
  8
1
100
AcDbLine
 10
2773.739022619682
 20
1992.648447497553
 30
0.0
 11
2760.357581710749
 21
2042.648447497553
 31
0.0
  0
LINE
  5
7C7F
330
8181
100
AcDbEntity
  8
1
100
AcDbLine
 10
2630.739022619682
 20
2042.648447497553
 30
0.0
 11
2630.739022619682
 21
2037.648447497555
 31
0.0
  0
LINE
  5
7C80
330
8181
100
AcDbEntity
  8
1
100
AcDbLine
 10
2510.739022619683
 20
2042.648447497553
 30
0.0
 11
2510.739022619683
 21
2037.648447497555
 31
0.0
  0
LINE
  5
7C81
330
8181
100
AcDbEntity
  8
1
100
AcDbLine
 10
2510.739022619683
 20
2037.648447497555
 30
0.0
 11
2630.739022619682
 21
2037.648447497555
 31
0.0
  0
LINE
  5
7C83
330
8181
100
AcDbEntity
  8
1
100
AcDbLine
 10
2630.739022619682
 20
2042.648447497553
 30
0.0
 11
2760.357581710749
 21
2042.648447497553
 31
0.0
  0
DIMENSION
  5
7C8C
330
8181
100
AcDbEntity
  8
3
100
AcDbDimension
  2
*D4
 10
1021.731638840456
 20
2426.648447497556
 30
0.0
 11
971.731638840456
 21
2791.648447497555
 31
0.0
 12
1052.674667944189
 22
1889.054969276156
 32
0.0
 71
     5
 42
-1.0
  3
Standard
100
AcDbAlignedDimension
 13
1170.739022619682
 23
3156.648447497555
 33
0.0
 14
1170.739022619681
 24
2426.648447497556
 34
0.0
 50
90.0
100
AcDbRotatedDimension
1001
ACAD
1000
DSTYLE
1002
{
1070
    40
1040
25.0
1002
}
  0
DIMENSION
  5
7C8D
330
8181
100
AcDbEntity
  8
3
100
AcDbDimension
  2
*D5
 10
868.9228653667903
 20
2397.648447497555
 30
0.0
 11
818.9228653667903
 21
2777.148447497555
 31
0.0
 12
1052.674667944189
 22
1889.054969276156
 32
0.0
 71
     5
 42
-1.0
  3
Standard
100
AcDbAlignedDimension
 13
1170.739022619682
 23
3156.648447497555
 33
0.0
 14
1048.473183814252
 24
2397.648447497555
 34
0.0
 50
90.0
100
AcDbRotatedDimension
1001
ACAD
1000
DSTYLE
1002
{
1070
    40
1040
25.0
1002
}
  0
INSERT
  5
7C93
330
8181
100
AcDbEntity
  8
0
100
AcDbBlockReference
  2
YA_N
 10
-1018.773193578214
 20
-860.9217325598891
 30
0.0
 41
20.0
 42
20.0
 43
20.0
  0
LINE
  5
7C98
330
8181
100
AcDbEntity
  8
1
100
AcDbLine
 10
3483.266996014716
 20
3156.648447497555
 30
0.0
 11
4383.266996014715
 21
3156.648447497555
 31
0.0
  0
LINE
  5
7C99
330
8181
100
AcDbEntity
  8
1
100
AcDbLine
 10
4383.266996014715
 20
2397.648447497555
 30
0.0
 11
4383.266996014715
 21
3156.648447497555
 31
0.0
  0
DIMENSION
  5
7C9B
330
8181
100
AcDbEntity
  8
3
100
AcDbDimension
  2
*D6
 10
1670.739022619682
 20
3349.628979678585
 30
0.0
 11
1420.739022619682
 21
3399.628979678585
 31
0.0
 12
1052.674667944189
 22
1889.054969276156
 32
0.0
 71
     5
 42
-1.0
  3
Standard
100
AcDbAlignedDimension
 13
1170.739022619682
 23
3198.648447497554
 33
0.0
 14
1670.739022619682
 24
3227.699731954696
 34
0.0
100
AcDbRotatedDimension
1001
ACAD
1000
DSTYLE
1002
{
1070
    40
1040
25.0
1002
}
  0
LINE
  5
7C9D
330
8181
100
AcDbEntity
  8
1
100
AcDbLine
 10
3483.266996014716
 20
2397.648447497555
 30
0.0
 11
3483.266996014716
 21
3156.648447497555
 31
0.0
  0
LINE
  5
7C9F
330
8181
100
AcDbEntity
  8
1
100
AcDbLine
 10
4395.766996014715
 20
2262.448447497555
 30
0.0
 11
4395.766996014716
 21
2382.448447497555
 31
0.0
  0
LINE
  5
7CA0
330
8181
100
AcDbEntity
  8
1
100
AcDbLine
 10
4493.266996014714
 20
2272.448447497553
 30
0.0
 11
4493.266996014716
 21
2372.448447497554
 31
0.0
  0
LINE
  5
7CA1
330
8181
100
AcDbEntity
  8
1
100
AcDbLine
 10
4395.766996014716
 20
2382.448447497555
 30
0.0
 11
4443.066996014716
 21
2382.448447497555
 31
0.0
  0
LINE
  5
7CA2
330
8181
100
AcDbEntity
  8
1
100
AcDbLine
 10
4395.766996014715
 20
2262.448447497555
 30
0.0
 11
4443.066996014716
 21
2262.448447497555
 31
0.0
  0
ARC
  5
7CA3
330
8181
100
AcDbEntity
  8
1
100
AcDbCircle
 10
4483.266996014717
 20
2372.448447497555
 30
0.0
 40
10.0
100
AcDbArc
 50
359.9999999999982
 51
90.0
  0
ARC
  5
7CA4
330
8181
100
AcDbEntity
  8
1
100
AcDbCircle
 10
4483.266996014715
 20
2272.448447497555
 30
0.0
 40
10.0
100
AcDbArc
 50
270.0
 51
359.9999999999982
  0
LINE
  5
7CA5
330
8181
100
AcDbEntity
  8
1
100
AcDbLine
 10
4443.066996014716
 20
2262.448447497555
 30
0.0
 11
4483.266996014715
 21
2262.448447497555
 31
0.0
  0
LINE
  5
7CA6
330
8181
100
AcDbEntity
  8
1
100
AcDbLine
 10
4443.066996014716
 20
2382.448447497555
 30
0.0
 11
4483.266996014717
 21
2382.448447497555
 31
0.0
  0
LINE
  5
7CA7
330
8181
100
AcDbEntity
  8
1
100
AcDbLine
 10
2770.739022619682
 20
1952.648447497555
 30
0.0
 11
2770.739022619682
 21
1992.648447497553
 31
0.0
  0
POINT
  5
7CA8
330
8181
100
AcDbEntity
  8
1
100
AcDbPoint
 10
4493.266996014716
 20
2372.448447497554
 30
0.0
  0
LINE
  5
7CA9
330
8181
100
AcDbEntity
  8
1
100
AcDbLine
 10
1220.739022619682
 20
5223.894181494284
 30
0.0
 11
2120.739022619682
 21
5223.894181494284
 31
0.0
  0
LINE
  5
7CAA
330
8181
100
AcDbEntity
  8
1
100
AcDbLine
 10
1220.739022619682
 20
4068.894181494282
 30
0.0
 11
2820.739022619682
 21
4068.894181494284
 31
0.0
  0
LINE
  5
7CAB
330
8181
100
AcDbEntity
  8
1
100
AcDbLine
 10
1220.739022619682
 20
5223.894181494284
 30
0.0
 11
1220.739022619682
 21
5170.894181494284
 31
0.0
  0
LINE
  5
7CAC
330
8181
100
AcDbEntity
  8
1
100
AcDbLine
 10
2120.739022619682
 20
5223.894181494284
 30
0.0
 11
2120.739022619682
 21
5170.894181494285
 31
0.0
  0
LINE
  5
7CAD
330
8181
100
AcDbEntity
  8
1
100
AcDbLine
 10
2820.739022619682
 20
4738.894181494287
 30
0.0
 11
2820.739022619682
 21
4068.894181494285
 31
0.0
  0
LINE
  5
7CAE
330
8181
100
AcDbEntity
  8
1
100
AcDbLine
 10
2282.739022619682
 20
4738.894181494283
 30
0.0
 11
2820.739022619682
 21
4738.894181494287
 31
0.0
  0
DIMENSION
  5
7CAF
330
8181
100
AcDbEntity
  8
3
100
AcDbDimension
  2
*D8
 10
869.9852083343667
 20
1852.648447497555
 30
0.0
 11
819.9852083343667
 21
2125.148447497555
 31
0.0
 12
1052.674667944189
 22
1889.054969276156
 32
0.0
 71
     5
 42
-1.0
  3
Standard
100
AcDbAlignedDimension
 13
1048.473183814252
 23
2397.648447497555
 33
0.0
 14
1220.739022619682
 24
1852.648447497555
 34
0.0
 50
270.0
100
AcDbRotatedDimension
1001
ACAD
1000
DSTYLE
1002
{
1070
    40
1040
25.0
1002
}
  0
LINE
  5
7CB3
330
8181
100
AcDbEntity
  8
1
100
AcDbLine
 10
1220.739022619682
 20
1852.648447497555
 30
0.0
 11
2820.739022619682
 21
1852.648447497555
 31
0.0
1001
ACAD
1000
ASC_BOUNDS
1002
{
1070
    19
1002
}
  0
LINE
  5
7CB4
330
8181
100
AcDbEntity
  8
1
100
AcDbLine
 10
1220.739022619682
 20
1952.648447497555
 30
0.0
 11
2820.739022619682
 21
1952.648447497555
 31
0.0
1001
ACAD
1000
ASC_BOUNDS
1002
{
1070
    19
1005
0
1002
}
  0
LINE
  5
7CB5
330
8181
100
AcDbEntity
  8
1
100
AcDbLine
 10
2820.739022619682
 20
1952.648447497555
 30
0.0
 11
2820.739022619682
 21
1852.648447497555
 31
0.0
  0
LINE
  5
7CB6
330
8181
100
AcDbEntity
  8
1
100
AcDbLine
 10
1220.739022619682
 20
1952.648447497555
 30
0.0
 11
1220.739022619682
 21
1852.648447497555
 31
0.0
  0
POINT
  5
7CB7
330
8181
100
AcDbEntity
  8
1
100
AcDbPoint
 10
1220.739022619682
 20
1952.648447497555
 30
0.0
  0
POINT
  5
7CB8
330
8181
100
AcDbEntity
  8
1
100
AcDbPoint
 10
1220.739022619682
 20
1952.648447497555
 30
0.0
  0
POINT
  5
7CB9
330
8181
100
AcDbEntity
  8
1
100
AcDbPoint
 10
1220.739022619682
 20
1952.648447497555
 30
0.0
  0
POINT
  5
7CBA
330
8181
100
AcDbEntity
  8
1
100
AcDbPoint
 10
1220.739022619682
 20
1952.648447497555
 30
0.0
  0
POINT
  5
7CC0
330
8181
100
AcDbEntity
  8
1
100
AcDbPoint
 10
1220.739022619682
 20
1852.648447497555
 30
0.0
  0
CIRCLE
  5
7CC6
330
8181
100
AcDbEntity
  8
1
100
AcDbCircle
 10
2570.739022619682
 20
2202.648447497554
 30
0.0
 40
79.0
  0
CIRCLE
  5
7CC7
330
8181
100
AcDbEntity
  8
1
100
AcDbCircle
 10
1670.739022619682
 20
2397.648447497555
 30
0.0
 40
203.2
  0
LINE
  5
7CC8
330
8181
100
AcDbEntity
  8
1
100
AcDbLine
 10
1740.158392090735
 20
2588.622768133187
 30
0.0
 11
2597.727852286086
 21
2276.895353650187
 31
0.0
  0
LINE
  5
7CC9
330
8181
100
AcDbEntity
  8
1
100
AcDbLine
 10
1654.888111625678
 20
2195.067627525228
 30
0.0
 11
2564.576512932053
 21
2123.889172016188
 31
0.0
  0
ARC
  5
7CCA
330
8181
100
AcDbEntity
  8
1
100
AcDbCircle
 10
1670.739022619682
 20
2397.648447497555
 30
0.0
 40
280.0
100
AcDbArc
 50
69.65938634983065
 51
265.8903682986978
  0
ARC
  5
7CCB
330
8181
100
AcDbEntity
  8
1
100
AcDbCircle
 10
2570.739022619682
 20
2202.648447497554
 30
0.0
 40
150.0
100
AcDbArc
 50
265.8903682986978
 51
69.65938634983065
  0
LINE
  5
7CCC
330
8181
100
AcDbEntity
  8
1
100
AcDbLine
 10
1768.067128836997
 20
2660.188424910807
 30
0.0
 11
2622.879079521815
 21
2343.294863968941
 31
0.0
  0
LINE
  5
7CCD
330
8181
100
AcDbEntity
  8
1
100
AcDbLine
 10
1650.672789578275
 20
2118.368397562856
 30
0.0
 11
2559.989254918928
 21
2053.034135032536
 31
0.0
  0
INSERT
  5
7CCE
330
8181
100
AcDbEntity
  8
0
100
AcDbBlockReference
  2
YA_N
 10
2545.878788900856
 20
-1567.120050791241
 30
0.0
  0
LINE
  5
7CD0
330
8181
100
AcDbEntity
  8
1
100
AcDbLine
 10
3281.266996014716
 20
1952.648447497555
 30
0.0
 11
4436.266996014714
 21
1952.648447497555
 31
0.0
1001
ACAD
1000
ASC_BOUNDS
1002
{
1070
    19
1002
}
  0
LINE
  5
7CD2
330
8181
100
AcDbEntity
  8
1
100
AcDbLine
 10
3281.266996014716
 20
1852.648447497555
 30
0.0
 11
4436.266996014714
 21
1852.648447497555
 31
0.0
  0
LINE
  5
7CD6
330
8181
100
AcDbEntity
  8
1
100
AcDbLine
 10
3430.966996014713
 20
2374.448447497555
 30
0.0
 11
3390.766996014713
 21
2374.448447497555
 31
0.0
  0
LINE
  5
7CD7
330
8181
100
AcDbEntity
  8
1
100
AcDbLine
 10
3470.766996014714
 20
2364.648447497559
 30
0.0
 11
3470.766996014714
 21
2374.448447497555
 31
0.0
  0
LINE
  5
7CD8
330
8181
100
AcDbEntity
  8
1
100
AcDbLine
 10
3470.766996014714
 20
2374.448447497555
 30
0.0
 11
3430.966996014713
 21
2374.448447497555
 31
0.0
  0
ARC
  5
7CD9
330
8181
100
AcDbEntity
  8
1
100
AcDbCircle
 10
3390.766996014713
 20
2364.448447497555
 30
0.0
 40
10.0
100
AcDbArc
 50
90.0
 51
180.0000000000016
  0
POINT
  5
7CDA
330
8181
100
AcDbEntity
  8
1
100
AcDbPoint
 10
3380.766996014714
 20
2364.448447497554
 30
0.0
  0
LINE
  5
7CDB
330
8181
100
AcDbEntity
  8
1
100
AcDbLine
 10
3353.266996014716
 20
2372.648447497554
 30
0.0
 11
3353.266996014717
 21
2422.648447497555
 31
0.0
  0
LINE
  5
7CDC
330
8181
100
AcDbEntity
  8
1
100
AcDbLine
 10
3353.266996014717
 20
2422.648447497555
 30
0.0
 11
3483.266996014716
 21
2422.648447497554
 31
0.0
  0
LINE
  5
7CDD
330
8181
100
AcDbEntity
  8
1
100
AcDbLine
 10
3353.266996014717
 20
2372.648447497554
 30
0.0
 11
3385.166996014715
 21
2372.648447497554
 31
0.0
  0
LINE
  5
7CDE
330
8181
100
AcDbEntity
  8
1
100
AcDbLine
 10
3329.266996014716
 20
2418.648447497555
 30
0.0
 11
3353.266996014716
 21
2418.648447497555
 31
0.0
  0
LINE
  5
7CDF
330
8181
100
AcDbEntity
  8
1
100
AcDbLine
 10
3329.266996014715
 20
2376.648447497555
 30
0.0
 11
3353.266996014716
 21
2376.648447497555
 31
0.0
  0
LINE
  5
7CE0
330
8181
100
AcDbEntity
  8
1
100
AcDbLine
 10
3329.266996014712
 20
2123.648447497555
 30
0.0
 11
3329.266996014719
 21
2600.848447497555
 31
0.0
  0
LINE
  5
7CE1
330
8181
100
AcDbEntity
  8
1
100
AcDbLine
 10
3228.266996014717
 20
2600.848447497555
 30
0.0
 11
3329.266996014719
 21
2600.848447497555
 31
0.0
  0
LINE
  5
7CE2
330
8181
100
AcDbEntity
  8
1
100
AcDbLine
 10
3228.266996014712
 20
2194.448447497555
 30
0.0
 11
3329.266996014712
 21
2194.448447497555
 31
0.0
  0
LINE
  5
7CE3
330
8181
100
AcDbEntity
  8
1
100
AcDbLine
 10
3228.266996014712
 20
2123.648447497555
 30
0.0
 11
3228.266996014717
 21
2600.848447497556
 31
0.0
  0
LINE
  5
7CE4
330
8181
100
AcDbEntity
  8
1
100
AcDbLine
 10
3228.266996014713
 20
2281.648447497555
 30
0.0
 11
3329.266996014714
 21
2281.648447497555
 31
0.0
  0
LINE
  5
7CE5
330
8181
100
AcDbEntity
  8
1
100
AcDbLine
 10
3228.266996014712
 20
2123.648447497555
 30
0.0
 11
3329.266996014712
 21
2123.648447497555
 31
0.0
  0
LINE
  5
7CE6
330
8181
100
AcDbEntity
  8
1
100
AcDbLine
 10
3093.266996014719
 20
2677.648447497555
 30
0.0
 11
3379.266996014719
 21
2677.648447497555
 31
0.0
  0
LINE
  5
7CE7
330
8181
100
AcDbEntity
  8
1
100
AcDbLine
 10
3093.266996014711
 20
2052.648447497555
 30
0.0
 11
3379.26699601471
 21
2052.648447497555
 31
0.0
  0
LINE
  5
7CE8
330
8181
100
AcDbEntity
  8
1
100
AcDbLine
 10
3379.266996014712
 20
2052.648447497555
 30
0.0
 11
3379.266996014712
 21
2072.648447497555
 31
0.0
  0
LINE
  5
7CE9
330
8181
100
AcDbEntity
  8
1
100
AcDbLine
 10
3093.266996014711
 20
2052.648447497555
 30
0.0
 11
3093.266996014719
 21
2677.648447497555
 31
0.0
  0
LINE
  5
7CEA
330
8181
100
AcDbEntity
  8
1
100
AcDbLine
 10
3379.266996014719
 20
2657.648447497555
 30
0.0
 11
3379.266996014719
 21
2677.648447497555
 31
0.0
  0
DIMENSION
  5
7CEB
330
8181
100
AcDbEntity
  8
3
100
AcDbDimension
  2
*D9
 10
4383.266996014715
 20
3348.462010291761
 30
0.0
 11
3933.266996014715
 21
3398.462010291761
 31
0.0
 12
88.99492208424636
 22
1889.054969276156
 32
0.0
 71
     5
 42
-1.0
  3
Standard
100
AcDbAlignedDimension
 13
3483.266996014716
 23
3156.857337159105
 33
0.0
 14
4383.266996014715
 24
3156.857323422096
 34
0.0
100
AcDbRotatedDimension
1001
ACAD
1000
DSTYLE
1002
{
1070
    40
1040
25.0
1002
}
  0
DIMENSION
  5
7CEF
330
8181
100
AcDbEntity
  8
3
100
AcDbDimension
  2
*D13
 10
4661.049130970137
 20
2772.648447497555
 30
0.0
 11
4611.049130970136
 21
2397.648447497555
 31
0.0
 12
88.99492208424636
 22
1889.054969276156
 32
0.0
  1
\U+03C6<>
 71
     5
 42
-1.0
  3
Standard
100
AcDbAlignedDimension
 13
4385.566996014715
 23
2022.648447497555
 33
0.0
 14
4385.566996014715
 24
2772.648447497555
 34
0.0
 50
90.0
100
AcDbRotatedDimension
1001
ACAD
1000
DSTYLE
1002
{
1070
    40
1040
25.0
1002
}
  0
DIMENSION
  5
7CF1
330
8181
100
AcDbEntity
  8
3
100
AcDbDimension
  2
*D15
 10
3121.609527454771
 20
4738.894181494287
 30
0.0
 11
3071.609527454771
 21
4403.894181494285
 31
0.0
 12
1052.674667944189
 22
1295.360870958946
 32
0.0
 71
     5
 42
-1.0
  3
Standard
100
AcDbAlignedDimension
 13
2820.739022619682
 23
4068.894181494284
 33
0.0
 14
2820.739022619682
 24
4738.894181494287
 34
0.0
 50
270.0
100
AcDbRotatedDimension
1001
ACAD
1000
DSTYLE
1002
{
1070
    40
1040
25.0
1002
}
  0
DIMENSION
  5
7CF2
330
8181
100
AcDbEntity
  8
3
100
AcDbDimension
  2
*D16
 10
1220.739022619682
 20
5525.526235898457
 30
0.0
 11
1670.739022619682
 21
5575.526235898458
 31
0.0
 12
1052.674667944189
 22
1295.360870958946
 32
0.0
 71
     5
 42
-1.0
  3
Standard
100
AcDbAlignedDimension
 13
2120.739022619682
 23
5223.894181494284
 33
0.0
 14
1220.739022619682
 24
5223.894181494284
 34
0.0
100
AcDbRotatedDimension
1001
ACAD
1000
DSTYLE
1002
{
1070
    40
1040
25.0
1002
}
  0
DIMENSION
  5
7CF3
330
8181
100
AcDbEntity
  8
3
100
AcDbDimension
  2
*D17
 10
2120.739022619682
 20
5525.526235898457
 30
0.0
 11
2470.739022619682
 21
5575.526235898458
 31
0.0
 12
1052.674667944189
 22
1295.360870958946
 32
0.0
 71
     5
 42
-1.0
  3
Standard
100
AcDbAlignedDimension
 13
2820.739022619682
 23
4738.894181494287
 33
0.0
 14
2120.739022619682
 24
5223.894181494284
 34
0.0
100
AcDbRotatedDimension
1001
ACAD
1000
DSTYLE
1002
{
1070
    40
1040
25.0
1002
}
  0
DIMENSION
  5
7CF4
330
8181
100
AcDbEntity
  8
3
100
AcDbDimension
  2
*D18
 10
919.3418144784244
 20
5223.894181494284
 30
0.0
 11
869.3418144784246
 21
4646.394181494282
 31
0.0
 12
1052.674667944189
 22
1295.360870958946
 32
0.0
 71
     5
 42
-1.0
  3
Standard
100
AcDbAlignedDimension
 13
1220.739022619682
 23
4068.894181494282
 33
0.0
 14
1220.739022619682
 24
5223.894181494284
 34
0.0
 50
270.0
100
AcDbRotatedDimension
1001
ACAD
1000
DSTYLE
1002
{
1070
    40
1040
25.0
1002
}
  0
LINE
  5
7CF5
330
8181
100
AcDbEntity
  8
1
100
AcDbLine
 10
3281.266996014715
 20
1852.648447497555
 30
0.0
 11
3281.266996014716
 21
1952.648447497555
 31
0.0
  0
DIMENSION
  5
7CF9
330
8181
100
AcDbEntity
  8
3
100
AcDbDimension
  2
*D19
 10
2820.739022619682
 20
3518.414466553581
 30
0.0
 11
1995.739022619681
 21
3568.41446655358
 31
0.0
 12
1052.674667944189
 22
1889.054969276156
 32
0.0
 71
     5
 42
-1.0
  3
Standard
100
AcDbAlignedDimension
 13
1170.739022619682
 23
3198.648447497554
 33
0.0
 14
2820.739022619682
 24
1952.648447497555
 34
0.0
100
AcDbRotatedDimension
1001
ACAD
1000
DSTYLE
1002
{
1070
    40
1040
25.0
1002
}
  0
LINE
  5
7CFA
330
8181
100
AcDbEntity
  8
1
100
AcDbLine
 10
1390.739022619682
 20
3880.894181494284
 30
0.0
 11
1390.739022619682
 21
4165.894181494286
 31
0.0
  0
LINE
  5
7CFB
330
8181
100
AcDbEntity
  8
1
100
AcDbLine
 10
2720.739022619682
 20
3880.894181494284
 30
0.0
 11
2720.739022619682
 21
4165.894181494286
 31
0.0
  0
LINE
  5
7CFC
330
8181
100
AcDbEntity
  8
1
100
AcDbLine
 10
1467.539022619681
 20
4015.894181494284
 30
0.0
 11
1467.539022619681
 21
4115.894181494286
 31
0.0
  0
LINE
  5
7CFD
330
8181
100
AcDbEntity
  8
1
100
AcDbLine
 10
1873.939022619682
 20
4015.894181494284
 30
0.0
 11
1873.939022619682
 21
4115.894181494286
 31
0.0
  0
LINE
  5
7CFE
330
8181
100
AcDbEntity
  8
1
100
AcDbLine
 10
2491.739022619682
 20
4015.894181494284
 30
0.0
 11
2491.739022619682
 21
4115.894181494286
 31
0.0
  0
LINE
  5
7CFF
330
8181
100
AcDbEntity
  8
1
100
AcDbLine
 10
2649.739022619682
 20
4015.894181494284
 30
0.0
 11
2649.739022619682
 21
4115.894181494286
 31
0.0
  0
LINE
  5
7D00
330
8181
100
AcDbEntity
  8
1
100
AcDbLine
 10
1390.739022619682
 20
3880.894181494284
 30
0.0
 11
2720.739022619682
 21
3880.894181494284
 31
0.0
  0
LINE
  5
7D01
330
8181
100
AcDbEntity
  8
1
100
AcDbLine
 10
1390.739022619681
 20
4165.894181494286
 30
0.0
 11
2720.739022619682
 21
4165.894181494286
 31
0.0
  0
LINE
  5
7D02
330
8181
100
AcDbEntity
  8
1
100
AcDbLine
 10
1467.539022619681
 20
4115.894181494286
 30
0.0
 11
1873.939022619682
 21
4115.894181494286
 31
0.0
  0
LINE
  5
7D03
330
8181
100
AcDbEntity
  8
1
100
AcDbLine
 10
1467.539022619681
 20
4015.894181494284
 30
0.0
 11
1873.939022619682
 21
4015.894181494284
 31
0.0
  0
LINE
  5
7D04
330
8181
100
AcDbEntity
  8
1
100
AcDbLine
 10
2491.739022619682
 20
4115.894181494286
 30
0.0
 11
2649.739022619682
 21
4115.894181494286
 31
0.0
  0
LINE
  5
7D05
330
8181
100
AcDbEntity
  8
1
100
AcDbLine
 10
2491.739022619682
 20
4015.894181494284
 30
0.0
 11
2649.739022619682
 21
4015.894181494284
 31
0.0
  0
LINE
  5
7D06
330
8181
100
AcDbEntity
  8
1
100
AcDbLine
 10
1170.739022619682
 20
4270.894181494282
 30
0.0
 11
2282.739022619682
 21
4270.894181494283
 31
0.0
  0
LINE
  5
7D07
330
8181
100
AcDbEntity
  8
1
100
AcDbLine
 10
1170.739022619682
 20
5170.894181494284
 30
0.0
 11
2282.739022619682
 21
5170.894181494285
 31
0.0
  0
LINE
  5
7D08
330
8181
100
AcDbEntity
  8
1
100
AcDbLine
 10
1170.739022619682
 20
5210.894181494284
 30
0.0
 11
1170.739022619682
 21
4230.894181494281
 31
0.0
  0
LINE
  5
7D09
330
8181
100
AcDbEntity
  8
1
100
AcDbLine
 10
2282.739022619682
 20
5170.894181494285
 30
0.0
 11
2282.739022619682
 21
4270.894181494283
 31
0.0
  0
LINE
  5
7D0A
330
8181
100
AcDbEntity
  8
1
100
AcDbLine
 10
1170.739022619682
 20
5210.894181494284
 30
0.0
 11
1173.739022619682
 21
5210.894181494284
 31
0.0
  0
LINE
  5
7D0B
330
8181
100
AcDbEntity
  8
1
100
AcDbLine
 10
1170.739022619682
 20
4230.894181494281
 30
0.0
 11
1173.739022619682
 21
4230.894181494281
 31
0.0
  0
LINE
  5
7D0C
330
8181
100
AcDbEntity
  8
1
100
AcDbLine
 10
1173.739022619682
 20
5210.894181494284
 30
0.0
 11
1173.739022619682
 21
4230.894181494281
 31
0.0
  0
LINE
  5
7D0D
330
8181
100
AcDbEntity
  8
1
100
AcDbLine
 10
1645.739022619682
 20
4270.894181494282
 30
0.0
 11
1645.739022619682
 21
4115.894181494286
 31
0.0
  0
LINE
  5
7D0E
330
8181
100
AcDbEntity
  8
1
100
AcDbLine
 10
1695.739022619681
 20
4270.894181494283
 30
0.0
 11
1695.739022619681
 21
4115.894181494286
 31
0.0
  0
LINE
  5
7D12
330
8181
100
AcDbEntity
  8
1
100
AcDbLine
 10
2408.739022619682
 20
4133.894181494286
 30
0.0
 11
2408.739022619682
 21
4618.894181494283
 31
0.0
  0
LINE
  5
7D13
330
8181
100
AcDbEntity
  8
1
100
AcDbLine
 10
2732.739022619683
 20
4133.894181494286
 30
0.0
 11
2732.739022619683
 21
4618.894181494283
 31
0.0
  0
LINE
  5
7D14
330
8181
100
AcDbEntity
  8
1
100
AcDbLine
 10
2408.739022619682
 20
4618.894181494283
 30
0.0
 11
2732.739022619683
 21
4618.894181494283
 31
0.0
  0
LINE
  5
7D15
330
8181
100
AcDbEntity
  8
1
100
AcDbLine
 10
2408.739022619682
 20
4133.894181494286
 30
0.0
 11
2732.739022619683
 21
4133.894181494286
 31
0.0
  0
LINE
  5
7D16
330
8181
100
AcDbEntity
  8
1
100
AcDbLine
 10
2549.739022619682
 20
4133.894181494286
 30
0.0
 11
2549.739022619682
 21
4115.894181494286
 31
0.0
  0
LINE
  5
7D17
330
8181
100
AcDbEntity
  8
1
100
AcDbLine
 10
2591.739022619683
 20
4133.894181494286
 30
0.0
 11
2591.739022619683
 21
4115.894181494286
 31
0.0
  0
LINE
  5
7D18
330
8181
100
AcDbEntity
  8
1
100
AcDbLine
 10
3347.266996014713
 20
2364.648447497559
 30
0.0
 11
3832.266996014713
 21
2364.648447497559
 31
0.0
  0
LINE
  5
7D19
330
8181
100
AcDbEntity
  8
1
100
AcDbLine
 10
3347.266996014713
 20
2040.648447497558
 30
0.0
 11
3832.266996014712
 21
2040.648447497558
 31
0.0
  0
LINE
  5
7D1A
330
8181
100
AcDbEntity
  8
1
100
AcDbLine
 10
3347.266996014713
 20
2040.648447497558
 30
0.0
 11
3347.266996014713
 21
2364.648447497559
 31
0.0
  0
LINE
  5
7D1B
330
8181
100
AcDbEntity
  8
1
100
AcDbLine
 10
3347.266996014712
 20
2181.648447497557
 30
0.0
 11
3329.266996014712
 21
2181.648447497557
 31
0.0
  0
LINE
  5
7D1C
330
8181
100
AcDbEntity
  8
1
100
AcDbLine
 10
3347.266996014712
 20
2223.648447497557
 30
0.0
 11
3329.266996014712
 21
2223.648447497557
 31
0.0
  0
LINE
  5
7D1D
330
8181
100
AcDbEntity
  8
1
100
AcDbLine
 10
3470.766996014714
 20
2364.648447497559
 30
0.0
 11
3483.266996014715
 21
2364.648447497559
 31
0.0
  0
LINE
  5
7D24
330
8181
100
AcDbEntity
  8
1
100
AcDbLine
 10
4436.266996014714
 20
1852.648447497555
 30
0.0
 11
4436.266996014714
 21
1952.648447497555
 31
0.0
  0
LINE
  5
7D25
330
8181
100
AcDbEntity
  8
1
100
AcDbLine
 10
1220.739022619682
 20
4270.894181494282
 30
0.0
 11
1220.739022619682
 21
4068.894181494284
 31
0.0
  0
LINE
  5
7D26
330
8181
100
AcDbEntity
  8
1
100
AcDbLine
 10
3832.266996014712
 20
2040.648447497558
 30
0.0
 11
3832.266996014712
 21
2364.648447497559
 31
0.0
  0
LINE
  5
7D27
330
8181
100
AcDbEntity
  8
1
100
AcDbLine
 10
3483.266996014716
 20
2364.648447497559
 30
0.0
 11
3483.266996014716
 21
2397.648447497555
 31
0.0
  0
LINE
  5
7D28
330
8181
100
AcDbEntity
  8
1
100
AcDbLine
 10
3413.875671079507
 20
1992.648447497553
 30
0.0
 11
3757.863845874028
 21
1992.648447497553
 31
0.0
  0
LINE
  5
7D29
330
8181
100
AcDbEntity
  8
1
100
AcDbLine
 10
3757.863845874028
 20
2040.648447497558
 30
0.0
 11
3757.863845874028
 21
1952.648447497555
 31
0.0
  0
LINE
  5
7D2A
330
8181
100
AcDbEntity
  8
1
100
AcDbLine
 10
3413.875671079505
 20
2040.648447497558
 30
0.0
 11
3413.875671079505
 21
1952.648447497555
 31
0.0
  0
LINE
  5
7F66
330
8181
100
AcDbEntity
  8
4
100
AcDbLine
 10
4625.0
 20
1250.0
 30
0.0
 11
4625.0
 21
750.0
 31
0.0
  0
LINE
  5
7F67
330
8181
100
AcDbEntity
  8
4
100
AcDbLine
 10
2875.0
 20
1250.0
 30
0.0
 11
2875.0
 21
750.0
 31
0.0
  0
LINE
  5
7F68
330
8181
100
AcDbEntity
  8
4
100
AcDbLine
 10
1625.0
 20
1250.0
 30
0.0
 11
1625.0
 21
750.0
 31
0.0
  0
LINE
  5
7F6B
330
8181
100
AcDbEntity
  8
4
100
AcDbLine
 10
1625.0
 20
750.0
 30
0.0
 11
4625.0
 21
750.0
 31
0.0
  0
LINE
  5
7F6C
330
8181
100
AcDbEntity
  8
4
100
AcDbLine
 10
1625.0
 20
1000.0
 30
0.0
 11
4625.0
 21
1000.0
 31
0.0
  0
TEXT
  5
7F6D
330
8181
100
AcDbEntity
  8
4
100
AcDbText
 10
1721.255202117253
 20
1078.857564666532
 30
0.0
 40
125.0
  1
機器名称
100
AcDbText
  0
TEXT
  5
7F6E
330
8181
100
AcDbEntity
  8
4
100
AcDbText
 10
1715.645265061993
 20
804.1128918300273
 30
0.0
 40
125.0
  1
機器型番
100
AcDbText
  0
TEXT
  5
7F6F
330
8181
100
AcDbEntity
  8
4
100
AcDbText
 10
2944.196863719162
 20
1056.429422393921
 30
0.0
 40
125.0
  1
ミツヤ多翼送風機
100
AcDbText
  0
TEXT
  5
7F70
330
8181
100
AcDbEntity
  8
4
100
AcDbText
 10
2966.636238963701
 20
792.8989606998584
 30
0.0
 40
125.0
  1
MF#4 1/2-5
100
AcDbText
  0
TEXT
  5
7F72
330
8181
100
AcDbEntity
  8
4
100
AcDbText
 10
1958.339281192402
 20
5958.572103331289
 30
0.0
 40
135.0
  1
床置ベット
100
AcDbText
  0
TEXT
  5
7F73
330
8181
100
AcDbEntity
  8
4
100
AcDbText
 10
790.4189833236158
 20
6334.702440498245
 30
0.0
 40
180.0
  1
遠心式両吸込両持多翼ファン
100
AcDbText
  0
LINE
  5
7F74
330
8181
100
AcDbEntity
  8
4
100
AcDbLine
 10
625.0
 20
6173.521885662012
 30
0.0
 11
4625.0
 21
6173.521885662012
 31
0.0
  0
LINE
  5
7F75
330
8181
100
AcDbEntity
  8
4
100
AcDbLine
 10
625.0
 20
6673.521885662011
 30
0.0
 11
4625.0
 21
6673.521885662011
 31
0.0
  0
LINE
  5
7F76
330
8181
100
AcDbEntity
  8
4
100
AcDbLine
 10
1625.0
 20
1250.0
 30
0.0
 11
4625.0
 21
1250.0
 31
0.0
  0
LINE
  5
7F77
330
8181
100
AcDbEntity
  8
4
100
AcDbLine
 10
625.0
 20
6673.521885662011
 30
0.0
 11
625.0
 21
6173.521885662012
 31
0.0
  0
TEXT
  5
7F78
330
8181
100
AcDbEntity
  8
4
100
AcDbText
 10
868.6922005856468
 20
5955.798693865858
 30
0.0
 40
135.0
  1
左回転左横向
100
AcDbText
  0
TEXT
  5
7F79
330
8181
100
AcDbEntity
  8
4
100
AcDbText
 10
3672.423898123224
 20
6765.15270373827
 30
0.0
 40
140.0
  1
No.
100
AcDbText
  0
TEXT
  5
7F7A
330
8181
100
AcDbEntity
  8
4
100
AcDbText
 10
3278.240156500032
 20
5958.572103331289
 30
0.0
 40
135.0
  1
縮尺：1/25
100
AcDbText
  0
LINE
  5
7F7B
330
8181
100
AcDbEntity
  8
4
100
AcDbLine
 10
4625.0
 20
6673.521885662011
 30
0.0
 11
4625.0
 21
6173.521885662012
 31
0.0
  0
LINE
  5
7F7C
330
8181
100
AcDbEntity
  8
4
100
AcDbLine
 10
5250.0
 20
7375.0
 30
0.0
 11
5250.0
 21
7375.0
 31
0.0
  0
LINE
  5
7F7D
330
8181
100
AcDbEntity
  8
4
100
AcDbLine
 10
3601.543555899662
 20
6703.158957813504
 30
0.0
 11
3601.543555899662
 21
6966.630653874381
 31
0.0
  0
LINE
  5
7F7E
330
8181
100
AcDbEntity
  8
4
100
AcDbLine
 10
3601.543555899662
 20
6966.630653874381
 30
0.0
 11
4625.0
 21
6966.630653874381
 31
0.0
  0
LINE
  5
7F7F
330
8181
100
AcDbEntity
  8
4
100
AcDbLine
 10
4625.0
 20
6966.630653874381
 30
0.0
 11
4625.0
 21
6703.158957813504
 31
0.0
  0
LINE
  5
7F80
330
8181
100
AcDbEntity
  8
4
100
AcDbLine
 10
4625.0
 20
6703.158957813504
 30
0.0
 11
3601.543555899662
 21
6703.158957813504
 31
0.0
  0
LINE
  5
7F81
330
8181
100
AcDbEntity
  8
4
100
AcDbLine
 10
0.0
 20
0.0
 30
0.0
 11
0.0
 21
7375.0
 31
0.0
  0
LINE
  5
7F82
330
8181
100
AcDbEntity
  8
4
100
AcDbLine
 10
0.0
 20
7375.0
 30
0.0
 11
5250.0
 21
7375.0
 31
0.0
  0
LINE
  5
7F83
330
8181
100
AcDbEntity
  8
4
100
AcDbLine
 10
5250.0
 20
7375.0
 30
0.0
 11
5250.0
 21
0.0
 31
0.0
  0
LINE
  5
7F84
330
8181
100
AcDbEntity
  8
4
100
AcDbLine
 10
5250.0
 20
0.0
 30
0.0
 11
0.0
 21
0.0
 31
0.0
  0
DIMENSION
  5
808A
330
8181
100
AcDbEntity
  8
3
100
AcDbDimension
  2
*D22
 10
1670.739022619682
 20
1693.292171204961
 30
0.0
 11
1445.739022619682
 21
1755.792171204961
 31
0.0
 71
     5
 42
-1.0
  3
Standard
100
AcDbAlignedDimension
 13
1220.739022619682
 23
1852.648447497555
 33
0.0
 14
1670.739022619682
 24
1852.648447497555
 34
0.0
100
AcDbRotatedDimension
1001
ACAD
1000
DSTYLE
1002
{
1070
   172
1070
     1
1070
    40
1040
25.0
1070
    42
1040
1.0
1070
   271
1070
     0
1070
   143
1040
0.039
1002
}
  0
DIMENSION
  5
8097
330
8181
100
AcDbEntity
  8
3
100
AcDbDimension
  2
*D23
 10
2820.739022619682
 20
1693.292171204961
 30
0.0
 11
2245.739022619682
 21
1755.792171204961
 31
0.0
 71
     5
 42
-1.0
  3
Standard
100
AcDbAlignedDimension
 13
1670.739022619682
 23
1852.648447497555
 33
0.0
 14
2820.739022619682
 24
1852.648447497555
 34
0.0
100
AcDbRotatedDimension
1001
ACAD
1000
DSTYLE
1002
{
1070
   172
1070
     1
1070
    40
1040
25.0
1070
    42
1040
1.0
1070
   271
1070
     0
1070
   143
1040
0.039
1002
}
  0
DIMENSION
  5
80A4
330
8181
100
AcDbEntity
  8
3
100
AcDbDimension
  2
*D24
 10
3933.266996014717
 20
1693.292171204961
 30
0.0
 11
3607.266996014717
 21
1755.792171204961
 31
0.0
 71
     5
 42
-1.0
  3
Standard
100
AcDbAlignedDimension
 13
3281.266996014715
 23
1852.648447497555
 33
0.0
 14
3933.266996014717
 24
1852.648447497555
 34
0.0
100
AcDbRotatedDimension
1001
ACAD
1000
DSTYLE
1002
{
1070
   172
1070
     1
1070
    40
1040
25.0
1070
    42
1040
1.0
1070
   271
1070
     0
1070
   143
1040
0.039
1002
}
  0
DIMENSION
  5
80B1
330
8181
100
AcDbEntity
  8
3
100
AcDbDimension
  2
*D25
 10
4436.266996014714
 20
1693.292171204961
 30
0.0
 11
4184.766996014714
 21
1755.792171204961
 31
0.0
 71
     5
 42
-1.0
  3
Standard
100
AcDbAlignedDimension
 13
3933.266996014717
 23
1852.648447497555
 33
0.0
 14
4436.266996014714
 24
1852.648447497555
 34
0.0
100
AcDbRotatedDimension
1001
ACAD
1000
DSTYLE
1002
{
1070
   172
1070
     1
1070
    40
1040
25.0
1070
    42
1040
1.0
1070
   271
1070
     0
1070
   143
1040
0.039
1002
}
  0
DIMENSION
  5
80BE
330
8181
100
AcDbEntity
  8
3
100
AcDbDimension
  2
*D26
 10
720.7208073707842
 20
3156.648447497555
 30
0.0
 11
658.2208073707842
 21
2504.648447497554
 31
0.0
 71
     5
 42
-1.0
  3
Standard
100
AcDbAlignedDimension
 13
1220.739022619682
 23
1852.648447497555
 33
0.0
 14
1145.739022619682
 24
3156.648447497555
 34
0.0
 50
90.0
100
AcDbRotatedDimension
1001
ACAD
1000
DSTYLE
1002
{
1070
   172
1070
     1
1070
    40
1040
25.0
1070
    42
1040
1.0
1070
   271
1070
     0
1070
   143
1040
0.039
1002
}
  0
DIMENSION
  5
8224
330
8181
100
AcDbEntity
  8
3
100
AcDbDimension
  2
*D28
 10
3933.266996014717
 20
3520.815796221505
 30
0.0
 11
3513.266996014718
 21
3602.958653364362
 31
0.0
 70
    32
  1
(<>)
 71
     5
 42
839.9999999999977
  3
IGA
100
AcDbAlignedDimension
 13
3093.266996014719
 23
2677.648447497555
 33
0.0
 14
3933.266996014717
 24
3435.962010291761
 34
0.0
100
AcDbRotatedDimension
1001
ACAD
1000
DSTYLE
1002
{
1070
    40
1040
25.0
1070
    42
1040
1.0
1070
   143
1040
0.039
1070
   172
1070
     1
1070
   271
1070
     4
1070
   272
1070
     4
1070
   279
1070
     0
1070
   284
1070
     0
1070
   285
1070
     0
1070
   286
1070
     0
1070
   341
1005
8195
1070
   343
1005
8195
1070
   344
1005
8195
1002
}
  0
DIMENSION
  5
8231
330
8181
100
AcDbEntity
  8
3
100
AcDbDimension
  2
*D29
 10
4493.266996014716
 20
3520.815796221505
 30
0.0
 11
4213.266996014715
 21
3602.958653364362
 31
0.0
 70
    32
  1
(<>)
 71
     5
 42
559.999999999999
  3
IGA
100
AcDbAlignedDimension
 13
3933.266996014717
 23
3435.962010291761
 33
0.0
 14
4493.266996014716
 24
2372.448447497554
 34
0.0
100
AcDbRotatedDimension
1001
ACAD
1000
DSTYLE
1002
{
1070
    40
1040
25.0
1070
    42
1040
1.0
1070
   143
1040
0.039
1070
   172
1070
     1
1070
   271
1070
     4
1070
   272
1070
     4
1070
   279
1070
     1
1070
   284
1070
     0
1070
   285
1070
     0
1070
   286
1070
     0
1070
   341
1005
8195
1070
   343
1005
8195
1070
   344
1005
8195
1002
}
  0
LINE
  5
8673
330
8181
100
AcDbEntity
  8
1
100
AcDbLine
 10
1173.739022619682
 20
3156.289937874375
 30
0.0
 11
1700.648259775624
 21
3093.322593853404
 31
0.0
  0
ARC
  5
8674
330
8181
100
AcDbEntity
  8
1
100
AcDbCircle
 10
1617.73902261968
 20
2450.648447497555
 30
0.0
 40
648.0
100
AcDbArc
 50
0.0
 51
82.64906398247061
  0
ARC
  5
8675
330
8181
100
AcDbEntity
  8
1
100
AcDbCircle
 10
1723.73902261968
 20
2450.648447497555
 30
0.0
 40
541.9999999999998
100
AcDbArc
 50
293.245938743557
 51
0.0
  0
ARC
  5
8676
330
8181
100
AcDbEntity
  8
1
100
AcDbCircle
 10
1711.73902261968
 20
2356.648447497555
 30
0.0
 40
448.0
100
AcDbArc
 50
180.0
 51
244.3937932836091
  0
ARC
  5
8677
330
8181
100
AcDbEntity
  8
1
100
AcDbCircle
 10
1629.73902261968
 20
2356.648447497555
 30
0.0
 40
366.0
100
AcDbArc
 50
168.9738595187091
 51
180.0
  0
LINE
  5
8678
330
8181
100
AcDbEntity
  8
1
100
AcDbLine
 10
1170.73902261968
 20
2426.648447497556
 30
0.0
 11
1270.495372710597
 21
2426.648447497556
 31
0.0
  0
LINE
  5
8679
330
8181
100
AcDbEntity
  8
1
100
AcDbLine
 10
1170.739022619682
 20
3198.648447497555
 30
0.0
 11
1170.73902261968
 21
2384.648447497555
 31
0.0
  0
LINE
  5
867A
330
8181
100
AcDbEntity
  8
1
100
AcDbLine
 10
1170.739022619682
 20
3198.648447497555
 30
0.0
 11
1173.739022619682
 21
3198.648447497555
 31
0.0
  0
LINE
  5
867B
330
8181
100
AcDbEntity
  8
1
100
AcDbLine
 10
1170.73902261968
 20
2384.648447497555
 30
0.0
 11
1173.739022619682
 21
2384.648447497555
 31
0.0
  0
LINE
  5
867C
330
8181
100
AcDbEntity
  8
1
100
AcDbLine
 10
1210.739022619682
 20
3153.199215924951
 30
0.0
 11
1210.739022619682
 21
2426.648447497556
 31
0.0
  0
LINE
  5
867D
330
8181
100
AcDbEntity
  8
1
100
AcDbLine
 10
1173.739022619682
 20
3198.648447497555
 30
0.0
 11
1173.739022619682
 21
2384.648447497555
 31
0.0
  0
POINT
  5
867E
330
8181
100
AcDbEntity
  8
1
100
AcDbPoint
 10
1210.556450155231
 20
2397.648447497555
 30
0.0
  0
LINE
  5
867F
330
8181
100
AcDbEntity
  8
1
100
AcDbLine
 10
1167.257216987189
 20
2397.648447497555
 30
0.0
 11
1151.583911570873
 21
2397.648447497555
 31
0.0
  0
CIRCLE
  5
8680
330
8181
100
AcDbEntity
  8
1
100
AcDbCircle
 10
1670.739022619682
 20
2397.648447497555
 30
0.0
 40
375.0
  0
CIRCLE
  5
8681
330
8181
100
AcDbEntity
  8
1
100
AcDbCircle
 10
1670.739022619682
 20
2397.648447497555
 30
0.0
 40
415.0
  0
DIMENSION
  5
8682
330
8181
100
AcDbEntity
  8
3
100
AcDbDimension
  2
*D71
 10
2265.73902261968
 20
3349.628979678586
 30
0.0
 11
1968.239022619681
 21
3412.128979678586
 31
0.0
 70
    32
 71
     5
 42
594.9999999999984
  3
IGA
100
AcDbAlignedDimension
 13
1670.739022619682
 23
3227.699731954696
 33
0.0
 14
2265.73902261968
 24
2450.648447497555
 34
0.0
100
AcDbRotatedDimension
1001
ACAD
1000
DSTYLE
1002
{
1070
    40
1040
25.0
1070
    42
1040
1.0
1070
   143
1040
0.039
1070
   172
1070
     1
1070
   271
1070
     4
1070
   272
1070
     4
1070
   279
1070
     0
1070
   284
1070
     0
1070
   285
1070
     0
1070
   286
1070
     0
1070
   341
1005
8195
1070
   343
1005
8195
1070
   344
1005
8195
1002
}
  0
DIMENSION
  5
8703
330
8181
100
AcDbEntity
  8
3
100
AcDbDimension
  2
*D74
 10
2820.739022619682
 20
3702.267407291652
 30
0.0
 11
2020.739022619682
 21
3764.767407291652
 31
0.0
 70
    32
 71
     5
 42
1600.0
  3
IGA
100
AcDbAlignedDimension
 13
1220.739022619682
 23
4068.894181494282
 33
0.0
 14
2820.739022619682
 24
4068.894181494284
 34
0.0
100
AcDbRotatedDimension
1001
ACAD
1000
DSTYLE
1002
{
1070
    40
1040
25.0
1070
    42
1040
1.0
1070
   143
1040
0.039
1070
   172
1070
     1
1070
   271
1070
     4
1070
   272
1070
     4
1070
   279
1070
     0
1070
   284
1070
     0
1070
   285
1070
     0
1070
   286
1070
     0
1070
   341
1005
8195
1070
   343
1005
8195
1070
   344
1005
8195
1002
}
  0
ENDSEC
  0
SECTION
  2
OBJECTS
  0
DICTIONARY
  5
811E
330
0
100
AcDbDictionary
281
     1
  3
ACAD_CIP_PREVIOUS_PRODUCT_INFO
350
81C7
  3
ACAD_COLOR
350
8174
  3
ACAD_DETAILVIEWSTYLE
350
817B
  3
ACAD_GROUP
350
811F
  3
ACAD_LAYOUT
350
8173
  3
ACAD_MATERIAL
350
8122
  3
ACAD_MLEADERSTYLE
350
8177
  3
ACAD_MLINESTYLE
350
8170
  3
ACAD_PLOTSETTINGS
350
8172
  3
ACAD_PLOTSTYLENAME
350
8120
  3
ACAD_SCALELIST
350
8154
  3
ACAD_SECTIONVIEWSTYLE
350
8179
  3
ACAD_TABLESTYLE
350
8175
  3
ACAD_VISUALSTYLE
350
813B
  3
ACDB_RECOMPOSE_DATA
350
87C9
  3
AcDbVariableDictionary
350
81C8
  3
DWGPROPS
350
87CA
  0
DICTIONARY
  5
8337
330
8114
100
AcDbDictionary
280
     1
281
     1
  3
ACAD_LAYERSTATES
360
8338
  0
DICTIONARY
  5
8710
330
8166
100
AcDbDictionary
280
     1
281
     1
  3
ADSK_XREC_LAYER_RECONCILED
360
8711
  0
DICTIONARY
  5
8712
330
8185
100
AcDbDictionary
280
     1
281
     1
  3
ADSK_XREC_LAYER_RECONCILED
360
8713
  0
DICTIONARY
  5
8714
330
8188
100
AcDbDictionary
280
     1
281
     1
  3
ADSK_XREC_LAYER_RECONCILED
360
8715
  0
DICTIONARY
  5
8716
330
8189
100
AcDbDictionary
280
     1
281
     1
  3
ADSK_XREC_LAYER_RECONCILED
360
8717
  0
DICTIONARY
  5
8718
330
818A
100
AcDbDictionary
280
     1
281
     1
  3
ADSK_XREC_LAYER_RECONCILED
360
8719
  0
DICTIONARY
  5
866E
330
8181
100
AcDbDictionary
280
     1
281
     1
  3
ACAD_SORTENTS
360
866F
  0
XRECORD
  5
81C7
102
{ACAD_REACTORS
330
811E
102
}
330
811E
100
AcDbXrecord
280
     1
300
ACDLT
300
2015
300
INVLTS_F_S
  0
DICTIONARY
  5
8174
102
{ACAD_REACTORS
330
811E
102
}
330
811E
100
AcDbDictionary
281
     1
  0
DICTIONARY
  5
817B
102
{ACAD_REACTORS
330
811E
102
}
330
811E
100
AcDbDictionary
281
     1
  3
Imperial24
350
817C
  3
Metric50
350
833A
  0
DICTIONARY
  5
811F
102
{ACAD_REACTORS
330
811E
102
}
330
811E
100
AcDbDictionary
281
     1
  0
DICTIONARY
  5
8173
102
{ACAD_REACTORS
330
811E
102
}
330
811E
100
AcDbDictionary
281
     1
  3
Model
350
8184
  3
レイアウト1
350
8180
  0
DICTIONARY
  5
8122
102
{ACAD_REACTORS
330
811E
102
}
330
811E
100
AcDbDictionary
281
     1
  3
ByBlock
350
812B
  3
ByLayer
350
8123
  3
Global
350
8133
  0
DICTIONARY
  5
8177
102
{ACAD_REACTORS
330
811E
102
}
330
811E
100
AcDbDictionary
281
     1
  3
Standard
350
8178
  0
DICTIONARY
  5
8170
102
{ACAD_REACTORS
330
811E
102
}
330
811E
100
AcDbDictionary
281
     1
  3
Standard
350
8171
  0
DICTIONARY
  5
8172
102
{ACAD_REACTORS
330
811E
102
}
330
811E
100
AcDbDictionary
281
     1
  0
ACDBDICTIONARYWDFLT
  5
8120
102
{ACAD_REACTORS
330
811E
102
}
330
811E
100
AcDbDictionary
281
     1
  3
Normal
350
8121
100
AcDbDictionaryWithDefault
340
8121
  0
DICTIONARY
  5
8154
102
{ACAD_REACTORS
330
811E
102
}
330
811E
100
AcDbDictionary
281
     1
  3
A0
350
8155
  3
A1
350
8156
  3
A2
350
8157
  3
A3
350
8158
  3
A4
350
8159
  3
A5
350
815A
  3
A6
350
815B
  3
A7
350
815C
  3
A8
350
815D
  3
A9
350
815E
  3
B0
350
815F
  3
B1
350
8160
  3
B2
350
8161
  3
B3
350
8162
  3
B4
350
8163
  3
B5
350
8164
  3
B6
350
8165
  0
DICTIONARY
  5
8179
102
{ACAD_REACTORS
330
811E
102
}
330
811E
100
AcDbDictionary
281
     1
  3
Imperial24
350
817A
  3
Metric50
350
8339
  0
DICTIONARY
  5
8175
102
{ACAD_REACTORS
330
811E
102
}
330
811E
100
AcDbDictionary
281
     1
  3
Standard
350
8176
  0
DICTIONARY
  5
813B
102
{ACAD_REACTORS
330
811E
102
}
330
811E
100
AcDbDictionary
281
     1
  3
2dWireframe
350
8141
  3
Basic
350
8140
  3
Brighten
350
8147
  3
ColorChange
350
814B
  3
Conceptual
350
8144
  3
Dim
350
8146
  3
EdgeColorOff
350
8153
  3
Facepattern
350
814A
  3
Flat
350
813C
  3
FlatWithEdges
350
813D
  3
Gouraud
350
813E
  3
GouraudWithEdges
350
813F
  3
Hidden
350
8143
  3
JitterOff
350
8151
  3
Linepattern
350
8149
  3
OverhangOff
350
8152
  3
Realistic
350
8145
  3
Shaded
350
8150
  3
Shaded with edges
350
814F
  3
Shades of Gray
350
814C
  3
Sketchy
350
814D
  3
Thicken
350
8148
  3
Wireframe
350
8142
  3
X-Ray
350
814E
  0
XRECORD
  5
87C9
102
{ACAD_REACTORS
330
811E
102
}
330
811E
100
AcDbXrecord
280
     1
 90
        1
330
8176
  0
DICTIONARY
  5
81C8
102
{ACAD_REACTORS
330
811E
102
}
330
811E
100
AcDbDictionary
281
     1
  3
CANNOSCALE
350
81CD
  3
CMLEADERSTYLE
350
81CA
  3
CTABLESTYLE
350
81C9
  3
CVIEWDETAILSTYLE
350
81CB
  3
CVIEWSECTIONSTYLE
350
81CC
  3
DIMASSOC
350
81D0
  3
INDEXCTL
350
81CF
  3
SORTENTS
350
81CE
  3
XCLIPFRAME
350
81D1
  0
XRECORD
  5
87CA
102
{ACAD_REACTORS
330
811E
102
}
330
811E
100
AcDbXrecord
280
     1
  1
DWGPROPS COOKIE
  2

  3

  4

  6

  7

  8
yasukiyo.ogawa
  9

300
=
301
=
302
=
303
=
304
=
305
=
306
=
307
=
308
=
309
=
 40
0.1060538078703704
 41
2451387.606533102
 42
2460263.702760093
  1

 90
        0
  0
DICTIONARY
  5
8338
102
{ACAD_REACTORS
330
8337
102
}
330
8337
100
AcDbDictionary
281
     1
  0
XRECORD
  5
8711
102
{ACAD_REACTORS
330
8710
102
}
330
8710
100
AcDbXrecord
280
     1
290
     1
  0
XRECORD
  5
8713
102
{ACAD_REACTORS
330
8712
102
}
330
8712
100
AcDbXrecord
280
     1
290
     1
  0
XRECORD
  5
8715
102
{ACAD_REACTORS
330
8714
102
}
330
8714
100
AcDbXrecord
280
     1
290
     1
  0
XRECORD
  5
8717
102
{ACAD_REACTORS
330
8716
102
}
330
8716
100
AcDbXrecord
280
     1
290
     1
  0
XRECORD
  5
8719
102
{ACAD_REACTORS
330
8718
102
}
330
8718
100
AcDbXrecord
280
     1
290
     1
  0
SORTENTSTABLE
  5
866F
102
{ACAD_REACTORS
330
866E
102
}
330
866E
100
AcDbSortentsTable
330
8181
331
7CA8
  5
7CA8
331
7F82
  5
7F82
331
7D28
  5
7D28
331
7D0E
  5
7D0E
331
7CFD
  5
7CFD
331
7CDB
  5
7CDB
331
7CCA
  5
7CCA
331
7CB9
  5
7CB9
331
7CA1
  5
7CA1
331
7C7F
  5
7C7F
331
7C6E
  5
7C6E
331
7C5D
  5
7C5D
331
7CA9
  5
7CA9
331
808A
  5
808A
331
7F83
  5
7F83
331
7F72
  5
7F72
331
7D29
  5
7D29
331
7CFE
  5
7CFE
331
7CDC
  5
7CDC
331
7CCB
  5
7CCB
331
7CBA
  5
7CBA
331
7CA2
  5
7CA2
331
7C80
  5
7C80
331
80A4
  5
80A4
331
7C6F
  5
7C6F
331
7C5E
  5
7C5E
331
7CAA
  5
7CAA
331
7F84
  5
7F84
331
7F73
  5
7F73
331
7D2A
  5
7D2A
331
7CFF
  5
7CFF
331
7CDD
  5
7CDD
331
7CCC
  5
7CCC
331
7CA3
  5
7CA3
331
7C81
  5
7C81
331
7C70
  5
7C70
331
7C4E
  5
7C4E
331
7CAB
  5
7CAB
331
7F74
  5
7F74
331
7D00
  5
7D00
331
7CEF
  5
7CEF
331
7CDE
  5
7CDE
331
7CCD
  5
7CCD
331
7CA4
  5
7CA4
331
7C93
  5
7C93
331
7C71
  5
7C71
331
7C60
  5
7C60
331
7C4F
  5
7C4F
331
7CAC
  5
7CAC
331
7F75
  5
7F75
331
7D12
  5
7D12
331
7D01
  5
7D01
331
7CDF
  5
7CDF
331
7CCE
  5
7CCE
331
7CA5
  5
7CA5
331
7C83
  5
7C83
331
7C72
  5
7C72
331
7C50
  5
7C50
331
7CAD
  5
7CAD
331
7F76
  5
7F76
331
7D13
  5
7D13
331
7D02
  5
7D02
331
7CF1
  5
7CF1
331
7CE0
  5
7CE0
331
7CA6
  5
7CA6
331
7C62
  5
7C62
331
7C51
  5
7C51
331
7CAE
  5
7CAE
331
7F77
  5
7F77
331
7D14
  5
7D14
331
7D03
  5
7D03
331
7CF2
  5
7CF2
331
7CE1
  5
7CE1
331
7CD0
  5
7CD0
331
7CA7
  5
7CA7
331
7C52
  5
7C52
331
7F78
  5
7F78
331
7D15
  5
7D15
331
7D04
  5
7D04
331
7CF3
  5
7CF3
331
7CE2
  5
7CE2
331
7CC0
  5
7CC0
331
7CAF
  5
7CAF
331
7C64
  5
7C64
331
7C42
  5
7C42
331
7F79
  5
7F79
331
7F68
  5
7F68
331
7D16
  5
7D16
331
7D05
  5
7D05
331
7CF4
  5
7CF4
331
7CE3
  5
7CE3
331
7CD2
  5
7CD2
331
7C98
  5
7C98
331
7C65
  5
7C65
331
7C43
  5
7C43
331
7F7A
  5
7F7A
331
7D17
  5
7D17
331
7D06
  5
7D06
331
7CF5
  5
7CF5
331
7CE4
  5
7CE4
331
7C99
  5
7C99
331
7C55
  5
7C55
331
7C44
  5
7C44
331
7F7B
  5
7F7B
331
7D18
  5
7D18
331
7F66
  5
7F66
331
7D07
  5
7D07
331
7CE5
  5
7CE5
331
7C45
  5
7C45
331
7F7C
  5
7F7C
331
7F6B
  5
7F6B
331
7D19
  5
7D19
331
7D08
  5
7D08
331
7F67
  5
7F67
331
80BE
  5
80BE
331
7CE6
  5
7CE6
331
7CB3
  5
7CB3
331
7C9B
  5
7C9B
331
7C79
  5
7C79
331
7C57
  5
7C57
331
8231
  5
8231
331
7F7D
  5
7F7D
331
7F6C
  5
7F6C
331
7D1A
  5
7D1A
331
7D09
  5
7D09
331
7CE7
  5
7CE7
331
7CD6
  5
7CD6
331
7CB4
  5
7CB4
331
7C7A
  5
7C7A
331
7C58
  5
7C58
331
7C36
  5
7C36
331
7F7E
  5
7F7E
331
7F6D
  5
7F6D
331
7D24
  5
7D24
331
7D1B
  5
7D1B
331
7D0A
  5
7D0A
331
7CF9
  5
7CF9
331
7CE8
  5
7CE8
331
7CD7
  5
7CD7
331
7CC6
  5
7CC6
331
7CB5
  5
7CB5
331
7C9D
  5
7C9D
331
7C8C
  5
7C8C
331
7C7B
  5
7C7B
331
7C6A
  5
7C6A
331
7C59
  5
7C59
331
8097
  5
8097
331
7F7F
  5
7F7F
331
7F6E
  5
7F6E
331
7D25
  5
7D25
331
7D1C
  5
7D1C
331
7D0B
  5
7D0B
331
7CFA
  5
7CFA
331
7CE9
  5
7CE9
331
7CD8
  5
7CD8
331
7CC7
  5
7CC7
331
7CB6
  5
7CB6
331
7C8D
  5
7C8D
331
7C7C
  5
7C7C
331
7C6B
  5
7C6B
331
7C5A
  5
7C5A
331
80B1
  5
80B1
331
7F80
  5
7F80
331
7F6F
  5
7F6F
331
7D26
  5
7D26
331
7D1D
  5
7D1D
331
7D0C
  5
7D0C
331
7CFB
  5
7CFB
331
7CEA
  5
7CEA
331
7CD9
  5
7CD9
331
7CC8
  5
7CC8
331
7CB7
  5
7CB7
331
7C9F
  5
7C9F
331
7C7D
  5
7C7D
331
7C5B
  5
7C5B
331
7C4A
  5
7C4A
331
8224
  5
8224
331
7F81
  5
7F81
331
7F70
  5
7F70
331
7D27
  5
7D27
331
7D0D
  5
7D0D
331
7CFC
  5
7CFC
331
7CEB
  5
7CEB
331
7CDA
  5
7CDA
331
7CC9
  5
7CC9
331
7CB8
  5
7CB8
331
7CA0
  5
7CA0
331
7C7E
  5
7C7E
331
7C6D
  5
7C6D
331
7C5C
  5
7C5C
331
7C4B
  5
7C4B
  0
ACDBDETAILVIEWSTYLE
  5
817C
102
{ACAD_XDICTIONARY
360
8802
102
}
102
{ACAD_REACTORS
330
817B
102
}
330
817B
100
AcDbModelDocViewStyle
 70
     0
  3
Imperial24
290
     0
100
AcDbDetailViewStyle
 70
     0
 71
     0
 90
        3
 71
     1
340
8167
 40
0.24
340
0
 40
0.24
300

 40
0.36
280
     3
 71
     2
340
816E
 90
       25
 71
     3
340
8167
 40
0.24
 90
        1
 40
0.75
 90
        1
300
%<\AcVar ViewType \f "%tc1">% %<\AcVar ViewDetailId>%\PSCALE %<\AcVar ViewScale \f "%sn">%
 71
     4
340
816E
 90
       25
340
816E
 90
       25
280
     0
  0
ACDBDETAILVIEWSTYLE
  5
833A
102
{ACAD_XDICTIONARY
360
880A
102
}
102
{ACAD_REACTORS
330
817B
102
}
330
817B
100
AcDbModelDocViewStyle
 70
     0
  3
Metric50
290
     0
100
AcDbDetailViewStyle
 70
     0
 71
     0
 90
        3
 71
     1
340
8167
 40
5.0
340
0
 40
5.0
300

 40
0.0
280
     1
 71
     2
340
816E
 90
       25
 71
     3
340
8167
 40
5.0
 90
        0
 40
15.0
 90
        1
300
%<\AcVar ViewDetailId>% (%<\AcVar ViewScale \f "%sn">%)
 71
     4
340
816E
 90
       25
340
816E
 90
       25
280
     0
  0
LAYOUT
  5
8184
102
{ACAD_XDICTIONARY
360
8806
102
}
102
{ACAD_REACTORS
330
8173
102
}
330
8173
100
AcDbPlotSettings
  1

  2
RICOH imagio MP W3600 RPCS
  4

  6

 40
0.0
 41
0.0
 42
0.0
 43
0.0
 44
0.0
 45
0.0
 46
0.0
 47
0.0
 48
0.0
 49
0.0
140
0.0
141
0.0
142
1.0
143
1.0
 70
  1712
 72
     0
 73
     0
 74
     0
  7

 75
     0
147
1.0
148
0.0
149
0.0
100
AcDbLayout
  1
Model
 70
     1
 71
     0
 10
0.0
 20
0.0
 11
12.0
 21
9.0
 12
0.0
 22
0.0
 32
0.0
 14
0.0
 24
0.0
 34
0.0
 15
0.0
 25
0.0
 35
0.0
146
0.0
 13
0.0
 23
0.0
 33
0.0
 16
1.0
 26
0.0
 36
0.0
 17
0.0
 27
1.0
 37
0.0
 76
     0
330
8181
331
8186
  0
LAYOUT
  5
8180
102
{ACAD_XDICTIONARY
360
8804
102
}
102
{ACAD_REACTORS
330
8173
102
}
330
8173
100
AcDbPlotSettings
  1

  2
RICOH imagio MP W3600 RPCS
  4

  6

 40
0.0
 41
0.0
 42
0.0
 43
0.0
 44
0.0
 45
0.0
 46
0.0
 47
0.0
 48
0.0
 49
0.0
140
0.0
141
0.0
142
1.0
143
1.0
 70
   688
 72
     0
 73
     0
 74
     5
  7

 75
    16
147
1.0
148
0.0
149
0.0
100
AcDbLayout
  1
レイアウト1
 70
     1
 71
     1
 10
0.0
 20
0.0
 11
12.0
 21
9.0
 12
0.0
 22
0.0
 32
0.0
 14
1.000000000000000E+20
 24
1.000000000000000E+20
 34
1.000000000000000E+20
 15
-1.000000000000000E+20
 25
-1.000000000000000E+20
 35
-1.000000000000000E+20
146
0.0
 13
0.0
 23
0.0
 33
0.0
 16
1.0
 26
0.0
 36
0.0
 17
0.0
 27
1.0
 37
0.0
 76
     0
330
817D
  0
MATERIAL
  5
812B
102
{ACAD_XDICTIONARY
360
812C
102
}
102
{ACAD_REACTORS
330
8122
102
}
330
8122
100
AcDbMaterial
  1
ByBlock
 72
     0
 43
0.0208333333333333
 43
0.0
 43
0.0
 43
0.0
 43
0.0
 43
0.0208333333333333
 43
0.0
 43
0.0
 43
0.0
 43
0.0
 43
1.0
 43
0.0
 43
0.0
 43
0.0
 43
0.0
 43
1.0
 77
     0
 47
0.0208333333333333
 47
0.0
 47
0.0
 47
0.0
 47
0.0
 47
0.0208333333333333
 47
0.0
 47
0.0
 47
0.0
 47
0.0
 47
1.0
 47
0.0
 47
0.0
 47
0.0
 47
0.0
 47
1.0
171
     0
 49
0.0208333333333333
 49
0.0
 49
0.0
 49
0.0
 49
0.0
 49
0.0208333333333333
 49
0.0
 49
0.0
 49
0.0
 49
0.0
 49
1.0
 49
0.0
 49
0.0
 49
0.0
 49
0.0
 49
1.0
175
     0
142
0.0208333333333333
142
0.0
142
0.0
142
0.0
142
0.0
142
0.0208333333333333
142
0.0
142
0.0
142
0.0
142
0.0
142
1.0
142
0.0
142
0.0
142
0.0
142
0.0
142
1.0
179
     0
144
0.0208333333333333
144
0.0
144
0.0
144
0.0
144
0.0
144
0.0208333333333333
144
0.0
144
0.0
144
0.0
144
0.0
144
1.0
144
0.0
144
0.0
144
0.0
144
0.0
144
1.0
147
0.0208333333333333
147
0.0
147
0.0
147
0.0
147
0.0
147
0.0208333333333333
147
0.0
147
0.0
147
0.0
147
0.0
147
1.0
147
0.0
147
0.0
147
0.0
147
0.0
147
1.0
  0
MATERIAL
  5
8123
102
{ACAD_XDICTIONARY
360
8124
102
}
102
{ACAD_REACTORS
330
8122
102
}
330
8122
100
AcDbMaterial
  1
ByLayer
 72
     0
 43
0.0208333333333333
 43
0.0
 43
0.0
 43
0.0
 43
0.0
 43
0.0208333333333333
 43
0.0
 43
0.0
 43
0.0
 43
0.0
 43
1.0
 43
0.0
 43
0.0
 43
0.0
 43
0.0
 43
1.0
 77
     0
 47
0.0208333333333333
 47
0.0
 47
0.0
 47
0.0
 47
0.0
 47
0.0208333333333333
 47
0.0
 47
0.0
 47
0.0
 47
0.0
 47
1.0
 47
0.0
 47
0.0
 47
0.0
 47
0.0
 47
1.0
171
     0
 49
0.0208333333333333
 49
0.0
 49
0.0
 49
0.0
 49
0.0
 49
0.0208333333333333
 49
0.0
 49
0.0
 49
0.0
 49
0.0
 49
1.0
 49
0.0
 49
0.0
 49
0.0
 49
0.0
 49
1.0
175
     0
142
0.0208333333333333
142
0.0
142
0.0
142
0.0
142
0.0
142
0.0208333333333333
142
0.0
142
0.0
142
0.0
142
0.0
142
1.0
142
0.0
142
0.0
142
0.0
142
0.0
142
1.0
179
     0
144
0.0208333333333333
144
0.0
144
0.0
144
0.0
144
0.0
144
0.0208333333333333
144
0.0
144
0.0
144
0.0
144
0.0
144
1.0
144
0.0
144
0.0
144
0.0
144
0.0
144
1.0
147
0.0208333333333333
147
0.0
147
0.0
147
0.0
147
0.0
147
0.0208333333333333
147
0.0
147
0.0
147
0.0
147
0.0
147
1.0
147
0.0
147
0.0
147
0.0
147
0.0
147
1.0
  0
MATERIAL
  5
8133
102
{ACAD_XDICTIONARY
360
8134
102
}
102
{ACAD_REACTORS
330
8122
102
}
330
8122
100
AcDbMaterial
  1
Global
 72
     0
 43
0.0208333333333333
 43
0.0
 43
0.0
 43
0.0
 43
0.0
 43
0.0208333333333333
 43
0.0
 43
0.0
 43
0.0
 43
0.0
 43
1.0
 43
0.0
 43
0.0
 43
0.0
 43
0.0
 43
1.0
 77
     0
 47
0.0208333333333333
 47
0.0
 47
0.0
 47
0.0
 47
0.0
 47
0.0208333333333333
 47
0.0
 47
0.0
 47
0.0
 47
0.0
 47
1.0
 47
0.0
 47
0.0
 47
0.0
 47
0.0
 47
1.0
171
     0
 49
0.0208333333333333
 49
0.0
 49
0.0
 49
0.0
 49
0.0
 49
0.0208333333333333
 49
0.0
 49
0.0
 49
0.0
 49
0.0
 49
1.0
 49
0.0
 49
0.0
 49
0.0
 49
0.0
 49
1.0
175
     0
142
0.0208333333333333
142
0.0
142
0.0
142
0.0
142
0.0
142
0.0208333333333333
142
0.0
142
0.0
142
0.0
142
0.0
142
1.0
142
0.0
142
0.0
142
0.0
142
0.0
142
1.0
179
     0
144
0.0208333333333333
144
0.0
144
0.0
144
0.0
144
0.0
144
0.0208333333333333
144
0.0
144
0.0
144
0.0
144
0.0
144
1.0
144
0.0
144
0.0
144
0.0
144
0.0
144
1.0
147
0.0208333333333333
147
0.0
147
0.0
147
0.0
147
0.0
147
0.0208333333333333
147
0.0
147
0.0
147
0.0
147
0.0
147
1.0
147
0.0
147
0.0
147
0.0
147
0.0
147
1.0
  0
MLEADERSTYLE
  5
8178
102
{ACAD_REACTORS
330
8177
102
}
330
8177
100
AcDbMLeaderStyle
170
     2
171
     1
172
     0
 90
        2
 40
0.0
 41
0.0
173
     1
 91
-1056964608
340
816C
 92
       -2
290
     1
 42
0.09
291
     1
 43
0.36
  3
Standard
 44
0.18
300

342
8167
174
     1
178
     6
175
     1
176
     0
 93
-1056964608
 45
0.18
292
     0
297
     0
 46
0.18
 94
-1056964608
 47
1.0
 49
1.0
140
1.0
293
     1
141
0.0
294
     1
177
     0
142
1.0
295
     0
296
     0
143
0.125
1001
ACAD_MLEADERVER
1070
     2
  0
MLINESTYLE
  5
8171
102
{ACAD_REACTORS
330
8170
102
}
330
8170
100
AcDbMlineStyle
  2
STANDARD
 70
     0
  3

 62
   256
 51
90.0
 52
90.0
 71
     2
 49
0.5
 62
   256
  6
BYLAYER
 49
-0.5
 62
   256
  6
BYLAYER
  0
ACDBPLACEHOLDER
  5
8121
102
{ACAD_REACTORS
330
8120
102
}
330
8120
  0
SCALE
  5
8155
102
{ACAD_REACTORS
330
8154
102
}
330
8154
100
AcDbScale
 70
     0
300
1:1
140
1.0
141
1.0
290
     1
  0
SCALE
  5
8156
102
{ACAD_REACTORS
330
8154
102
}
330
8154
100
AcDbScale
 70
     0
300
1/128" = 1'-0"
140
0.0078125
141
12.0
290
     0
  0
SCALE
  5
8157
102
{ACAD_REACTORS
330
8154
102
}
330
8154
100
AcDbScale
 70
     0
300
1/64" = 1'-0"
140
0.015625
141
12.0
290
     0
  0
SCALE
  5
8158
102
{ACAD_REACTORS
330
8154
102
}
330
8154
100
AcDbScale
 70
     0
300
1/32" = 1'-0"
140
0.03125
141
12.0
290
     0
  0
SCALE
  5
8159
102
{ACAD_REACTORS
330
8154
102
}
330
8154
100
AcDbScale
 70
     0
300
1/16" = 1'-0"
140
0.0625
141
12.0
290
     0
  0
SCALE
  5
815A
102
{ACAD_REACTORS
330
8154
102
}
330
8154
100
AcDbScale
 70
     0
300
3/32" = 1'-0"
140
0.09375
141
12.0
290
     0
  0
SCALE
  5
815B
102
{ACAD_REACTORS
330
8154
102
}
330
8154
100
AcDbScale
 70
     0
300
1/8" = 1'-0"
140
0.125
141
12.0
290
     0
  0
SCALE
  5
815C
102
{ACAD_REACTORS
330
8154
102
}
330
8154
100
AcDbScale
 70
     0
300
3/16" = 1'-0"
140
0.1875
141
12.0
290
     0
  0
SCALE
  5
815D
102
{ACAD_REACTORS
330
8154
102
}
330
8154
100
AcDbScale
 70
     0
300
1/4" = 1'-0"
140
0.25
141
12.0
290
     0
  0
SCALE
  5
815E
102
{ACAD_REACTORS
330
8154
102
}
330
8154
100
AcDbScale
 70
     0
300
3/8" = 1'-0"
140
0.375
141
12.0
290
     0
  0
SCALE
  5
815F
102
{ACAD_REACTORS
330
8154
102
}
330
8154
100
AcDbScale
 70
     0
300
1/2" = 1'-0"
140
0.5
141
12.0
290
     0
  0
SCALE
  5
8160
102
{ACAD_REACTORS
330
8154
102
}
330
8154
100
AcDbScale
 70
     0
300
3/4" = 1'-0"
140
0.75
141
12.0
290
     0
  0
SCALE
  5
8161
102
{ACAD_REACTORS
330
8154
102
}
330
8154
100
AcDbScale
 70
     0
300
1" = 1'-0"
140
1.0
141
12.0
290
     0
  0
SCALE
  5
8162
102
{ACAD_REACTORS
330
8154
102
}
330
8154
100
AcDbScale
 70
     0
300
1-1/2" = 1'-0"
140
1.5
141
12.0
290
     0
  0
SCALE
  5
8163
102
{ACAD_REACTORS
330
8154
102
}
330
8154
100
AcDbScale
 70
     0
300
3" = 1'-0"
140
3.0
141
12.0
290
     0
  0
SCALE
  5
8164
102
{ACAD_REACTORS
330
8154
102
}
330
8154
100
AcDbScale
 70
     0
300
6" = 1'-0"
140
6.0
141
12.0
290
     0
  0
SCALE
  5
8165
102
{ACAD_REACTORS
330
8154
102
}
330
8154
100
AcDbScale
 70
     0
300
1'-0" = 1'-0"
140
12.0
141
12.0
290
     0
  0
ACDBSECTIONVIEWSTYLE
  5
817A
102
{ACAD_XDICTIONARY
360
8800
102
}
102
{ACAD_REACTORS
330
8179
102
}
330
8179
100
AcDbModelDocViewStyle
 70
     0
  3
Imperial24
290
     0
100
AcDbSectionViewStyle
 70
     0
 71
     0
 90
       78
 71
     1
340
8167
 40
0.24
340
0
340
0
 40
0.24
300
I, O, Q, S, X, Z
 40
0.48
 90
        3
 40
0.18
 90
        1
 71
     2
340
816E
 90
       25
340
816E
 90
       50
 40
0.24
 40
0.0
 40
0.24
 71
     3
340
8167
 40
0.24
 90
        1
 40
0.75
 90
        1
300
%<\AcVar ViewType \f "%tc1">% %<\AcVar ViewSectionStartId>%-%<\AcVar ViewSectionEndId>%\PSCALE %<\AcVar ViewScale \f "%sn">%
 71
     4
300
ANSI31
 40
1.0
 90
        0
290
     0
290
     0
 90
        6
 40
0.0
 40
1.570796326794896
 40
0.2617993877991494
 40
1.308996938995747
 40
-0.2617993877991494
 40
1.832595714594046
  0
ACDBSECTIONVIEWSTYLE
  5
8339
102
{ACAD_XDICTIONARY
360
8808
102
}
102
{ACAD_REACTORS
330
8179
102
}
330
8179
100
AcDbModelDocViewStyle
 70
     0
  3
Metric50
290
     0
100
AcDbSectionViewStyle
 70
     0
 71
     0
 90
      102
 71
     1
340
8167
 40
5.0
340
0
340
0
 40
5.0
300
I, O, Q, S, X, Z
 40
10.0
 90
        0
 40
2.5
 90
        0
 71
     2
340
816E
 90
       25
340
816E
 90
       50
 40
5.0
 40
2.5
 40
5.0
 71
     3
340
8167
 40
5.0
 90
        0
 40
15.0
 90
        1
300
%<\AcVar ViewSectionStartId>%-%<\AcVar ViewSectionEndId>% (%<\AcVar ViewScale \f "%sn">%)
 71
     4
300
ANSI31
 40
1.0
 90
        0
290
     0
290
     0
 90
        6
 40
0.0
 40
1.570796326794896
 40
0.2617993877991494
 40
1.308996938995747
 40
-0.2617993877991494
 40
1.832595714594046
  0
TABLESTYLE
  5
8176
102
{ACAD_XDICTIONARY
360
87C7
102
}
102
{ACAD_REACTORS
330
8175
102
}
330
8175
100
AcDbTableStyle
  3
Standard
 70
     0
 71
     0
 40
0.06
 41
0.06
280
     0
281
     0
  7
STANDARD
140
0.18
170
     2
 62
     0
 63
     7
283
     0
274
    -2
284
     1
 64
     0
275
    -2
285
     1
 65
     0
276
    -2
286
     1
 66
     0
277
    -2
287
     1
 67
     0
278
    -2
288
     1
 68
     0
279
    -2
289
     1
 69
     0
  7
STANDARD
140
0.25
170
     5
 62
     0
 63
     7
283
     0
274
    -2
284
     1
 64
     0
275
    -2
285
     1
 65
     0
276
    -2
286
     1
 66
     0
277
    -2
287
     1
 67
     0
278
    -2
288
     1
 68
     0
279
    -2
289
     1
 69
     0
  7
STANDARD
140
0.18
170
     5
 62
     0
 63
     7
283
     0
274
    -2
284
     1
 64
     0
275
    -2
285
     1
 65
     0
276
    -2
286
     1
 66
     0
277
    -2
287
     1
 67
     0
278
    -2
288
     1
 68
     0
279
    -2
289
     1
 69
     0
  0
VISUALSTYLE
  5
8141
102
{ACAD_XDICTIONARY
360
87D8
102
}
102
{ACAD_REACTORS
330
813B
102
}
330
813B
100
AcDbVisualStyle
  2
2dWireframe
 70
     4
 71
     0
 72
     2
 73
     0
 90
        0
 40
-0.6
 41
-30.0
 62
     5
 63
     7
 74
     1
 91
        4
 64
     7
 65
   257
 75
     1
175
     1
 42
1.0
 92
        0
 66
   257
 43
1.0
 76
     1
 77
     6
 78
     2
 67
     7
 79
     5
170
     0
171
     0
290
     0
174
     0
 93
        1
 44
0.0
173
     0
291
     0
 45
0.0
1001
ACAD
1000
AcDbSavedByObjectVersion
1070
     0
  0
VISUALSTYLE
  5
8140
102
{ACAD_XDICTIONARY
360
87D6
102
}
102
{ACAD_REACTORS
330
813B
102
}
330
813B
100
AcDbVisualStyle
  2
Basic
 70
     7
 71
     1
 72
     0
 73
     1
 90
        0
 40
-0.6
 41
-30.0
 62
     5
 63
     7
 74
     0
 91
        4
 64
     7
 65
   257
 75
     1
175
     1
 42
1.0
 92
        8
 66
     7
 43
1.0
 76
     1
 77
     6
 78
     2
 67
     7
 79
     5
170
     0
171
     0
290
     0
174
     0
 93
        1
 44
0.0
173
     0
291
     1
 45
0.0
1001
ACAD
1000
AcDbSavedByObjectVersion
1070
     0
  0
VISUALSTYLE
  5
8147
102
{ACAD_XDICTIONARY
360
87E4
102
}
102
{ACAD_REACTORS
330
813B
102
}
330
813B
100
AcDbVisualStyle
  2
Brighten
 70
    12
 71
     2
 72
     2
 73
     0
 90
        0
 40
-0.6
 41
-30.0
 62
     5
 63
     7
 74
     1
 91
        4
 64
     7
 65
   257
 75
     1
175
     1
 42
1.0
 92
        8
 66
     7
 43
1.0
 76
     1
 77
     6
 78
     2
 67
     7
 79
     5
170
     0
171
     0
290
     0
174
     0
 93
        1
 44
50.0
173
     0
291
     1
 45
0.0
1001
ACAD
1000
AcDbSavedByObjectVersion
1070
     0
  0
VISUALSTYLE
  5
814B
102
{ACAD_XDICTIONARY
360
87EC
102
}
102
{ACAD_REACTORS
330
813B
102
}
330
813B
100
AcDbVisualStyle
  2
ColorChange
 70
    16
 71
     2
 72
     2
 73
     3
 90
        0
 40
-0.6
 41
-30.0
 62
     5
 63
     8
 74
     1
 91
        4
 64
     7
 65
   257
 75
     1
175
     1
 42
1.0
 92
        8
 66
     8
 43
1.0
 76
     1
 77
     6
 78
     2
 67
     7
 79
     5
170
     0
171
     0
290
     0
174
     0
 93
        1
 44
0.0
173
     0
291
     1
 45
0.0
1001
ACAD
1000
AcDbSavedByObjectVersion
1070
     0
  0
VISUALSTYLE
  5
8144
102
{ACAD_XDICTIONARY
360
87DE
102
}
102
{ACAD_REACTORS
330
813B
102
}
330
813B
100
AcDbVisualStyle
  2
Conceptual
 70
     9
 71
     3
 72
     2
 73
     0
 90
        0
 40
-0.6
 41
-30.0
 62
     5
 63
     7
 74
     2
 91
        2
 64
     7
 65
   257
 75
     1
175
     1
 42
179.0
 92
        8
 66
     7
 43
1.0
 76
     1
 77
     6
 78
     2
 67
     7
 79
     3
170
     0
171
     0
290
     0
174
     0
 93
        1
 44
0.0
173
     0
291
     0
 45
0.0
1001
ACAD
1000
AcDbSavedByObjectVersion
1070
     0
  0
VISUALSTYLE
  5
8146
102
{ACAD_XDICTIONARY
360
87E2
102
}
102
{ACAD_REACTORS
330
813B
102
}
330
813B
100
AcDbVisualStyle
  2
Dim
 70
    11
 71
     2
 72
     2
 73
     0
 90
        0
 40
-0.6
 41
-30.0
 62
     5
 63
     7
 74
     1
 91
        4
 64
     7
 65
   257
 75
     1
175
     1
 42
1.0
 92
        8
 66
     7
 43
1.0
 76
     1
 77
     6
 78
     2
 67
     7
 79
     5
170
     0
171
     0
290
     0
174
     0
 93
        1
 44
-50.0
173
     0
291
     1
 45
0.0
1001
ACAD
1000
AcDbSavedByObjectVersion
1070
     0
  0
VISUALSTYLE
  5
8153
102
{ACAD_XDICTIONARY
360
87FC
102
}
102
{ACAD_REACTORS
330
813B
102
}
330
813B
100
AcDbVisualStyle
  2
EdgeColorOff
 70
    22
 71
     2
 72
     2
 73
     0
 90
        0
 40
-0.6
 41
-30.0
 62
     5
 63
     7
 74
     1
 91
        4
 64
     7
 65
   257
 75
     1
175
     1
 42
1.0
 92
        8
 66
     7
 43
1.0
 76
     1
 77
     6
 78
     2
 67
     7
 79
     5
170
     0
171
     0
290
     0
174
     0
 93
        1
 44
0.0
173
     0
291
     1
 45
0.0
1001
ACAD
1000
AcDbSavedByObjectVersion
1070
     0
  0
VISUALSTYLE
  5
814A
102
{ACAD_XDICTIONARY
360
87EA
102
}
102
{ACAD_REACTORS
330
813B
102
}
330
813B
100
AcDbVisualStyle
  2
Facepattern
 70
    15
 71
     2
 72
     2
 73
     0
 90
        0
 40
-0.6
 41
-30.0
 62
     5
 63
     7
 74
     1
 91
        4
 64
     7
 65
   257
 75
     1
175
     1
 42
1.0
 92
        8
 66
     7
 43
1.0
 76
     1
 77
     6
 78
     2
 67
     7
 79
     5
170
     0
171
     0
290
     0
174
     0
 93
        1
 44
0.0
173
     0
291
     1
 45
0.0
1001
ACAD
1000
AcDbSavedByObjectVersion
1070
     0
  0
VISUALSTYLE
  5
813C
102
{ACAD_XDICTIONARY
360
87CE
102
}
102
{ACAD_REACTORS
330
813B
102
}
330
813B
100
AcDbVisualStyle
  2
Flat
 70
     0
 71
     2
 72
     1
 73
     1
 90
        2
 40
-0.6
 41
30.0
 62
     5
 63
     7
 74
     0
 91
        0
 64
     7
 65
   257
 75
     1
175
     1
 42
1.0
 92
        8
 66
     7
 43
1.0
 76
     1
 77
     6
 78
     2
 67
     7
 79
     5
170
     0
171
     0
290
     0
174
     0
 93
       13
 44
0.0
173
     0
291
     1
 45
0.0
1001
ACAD
1000
AcDbSavedByObjectVersion
1070
     0
  0
VISUALSTYLE
  5
813D
102
{ACAD_XDICTIONARY
360
87D0
102
}
102
{ACAD_REACTORS
330
813B
102
}
330
813B
100
AcDbVisualStyle
  2
FlatWithEdges
 70
     1
 71
     2
 72
     1
 73
     1
 90
        2
 40
-0.6
 41
30.0
 62
     5
 63
     7
 74
     1
 91
        0
 64
     7
 65
   257
 75
     1
175
     1
 42
1.0
 92
        0
 66
   257
 43
1.0
 76
     1
 77
     6
 78
     2
 67
     7
 79
     5
170
     0
171
     0
290
     0
174
     0
 93
       13
 44
0.0
173
     0
291
     1
 45
0.0
1001
ACAD
1000
AcDbSavedByObjectVersion
1070
     0
  0
VISUALSTYLE
  5
813E
102
{ACAD_XDICTIONARY
360
87D2
102
}
102
{ACAD_REACTORS
330
813B
102
}
330
813B
100
AcDbVisualStyle
  2
Gouraud
 70
     2
 71
     2
 72
     2
 73
     1
 90
        2
 40
-0.6
 41
30.0
 62
     5
 63
     7
 74
     0
 91
        0
 64
     7
 65
   257
 75
     1
175
     1
 42
1.0
 92
        0
 66
     7
 43
1.0
 76
     1
 77
     6
 78
     2
 67
     7
 79
     5
170
     0
171
     0
290
     0
174
     0
 93
       13
 44
0.0
173
     0
291
     1
 45
0.0
1001
ACAD
1000
AcDbSavedByObjectVersion
1070
     0
  0
VISUALSTYLE
  5
813F
102
{ACAD_XDICTIONARY
360
87D4
102
}
102
{ACAD_REACTORS
330
813B
102
}
330
813B
100
AcDbVisualStyle
  2
GouraudWithEdges
 70
     3
 71
     2
 72
     2
 73
     1
 90
        2
 40
-0.6
 41
30.0
 62
     5
 63
     7
 74
     1
 91
        0
 64
     7
 65
   257
 75
     1
175
     1
 42
1.0
 92
        0
 66
   257
 43
1.0
 76
     1
 77
     6
 78
     2
 67
     7
 79
     5
170
     0
171
     0
290
     0
174
     0
 93
       13
 44
0.0
173
     0
291
     1
 45
0.0
1001
ACAD
1000
AcDbSavedByObjectVersion
1070
     0
  0
VISUALSTYLE
  5
8143
102
{ACAD_XDICTIONARY
360
87DC
102
}
102
{ACAD_REACTORS
330
813B
102
}
330
813B
100
AcDbVisualStyle
  2
Hidden
 70
     6
 71
     1
 72
     2
 73
     2
 90
        0
 40
-0.6
 41
-30.0
 62
     5
 63
     7
 74
     2
 91
        2
 64
     7
 65
   257
 75
     2
175
     1
 42
40.0
 92
        0
 66
   257
 43
1.0
 76
     1
 77
     6
 78
     2
 67
     7
 79
     3
170
     0
171
     0
290
     0
174
     0
 93
        1
 44
0.0
173
     0
291
     0
 45
0.0
1001
ACAD
1000
AcDbSavedByObjectVersion
1070
     0
  0
VISUALSTYLE
  5
8151
102
{ACAD_XDICTIONARY
360
87F8
102
}
102
{ACAD_REACTORS
330
813B
102
}
330
813B
100
AcDbVisualStyle
  2
JitterOff
 70
    20
 71
     2
 72
     2
 73
     0
 90
        0
 40
-0.6
 41
-30.0
 62
     5
 63
     7
 74
     1
 91
        4
 64
     7
 65
   257
 75
     1
175
     1
 42
1.0
 92
       10
 66
     7
 43
1.0
 76
     1
 77
     6
 78
     2
 67
     7
 79
     5
170
     0
171
     0
290
     0
174
     0
 93
        1
 44
0.0
173
     0
291
     1
 45
0.0
1001
ACAD
1000
AcDbSavedByObjectVersion
1070
     0
  0
VISUALSTYLE
  5
8149
102
{ACAD_XDICTIONARY
360
87E8
102
}
102
{ACAD_REACTORS
330
813B
102
}
330
813B
100
AcDbVisualStyle
  2
Linepattern
 70
    14
 71
     2
 72
     2
 73
     0
 90
        0
 40
-0.6
 41
-30.0
 62
     5
 63
     7
 74
     1
 91
        4
 64
     7
 65
   257
 75
     7
175
     7
 42
1.0
 92
        8
 66
     7
 43
1.0
 76
     1
 77
     6
 78
     2
 67
     7
 79
     5
170
     0
171
     0
290
     0
174
     0
 93
        1
 44
0.0
173
     0
291
     1
 45
0.0
1001
ACAD
1000
AcDbSavedByObjectVersion
1070
     0
  0
VISUALSTYLE
  5
8152
102
{ACAD_XDICTIONARY
360
87FA
102
}
102
{ACAD_REACTORS
330
813B
102
}
330
813B
100
AcDbVisualStyle
  2
OverhangOff
 70
    21
 71
     2
 72
     2
 73
     0
 90
        0
 40
-0.6
 41
-30.0
 62
     5
 63
     7
 74
     1
 91
        4
 64
     7
 65
   257
 75
     1
175
     1
 42
1.0
 92
        9
 66
     7
 43
1.0
 76
     1
 77
     6
 78
     2
 67
     7
 79
     5
170
     0
171
     0
290
     0
174
     0
 93
        1
 44
0.0
173
     0
291
     1
 45
0.0
1001
ACAD
1000
AcDbSavedByObjectVersion
1070
     0
  0
VISUALSTYLE
  5
8145
102
{ACAD_XDICTIONARY
360
87E0
102
}
102
{ACAD_REACTORS
330
813B
102
}
330
813B
100
AcDbVisualStyle
  2
Realistic
 70
     8
 71
     2
 72
     3
 73
     0
 90
        2
 40
-0.6
 41
30.0
 62
     5
 63
     7
 74
     0
 91
        0
 64
     7
 65
   257
 75
     1
175
     1
 42
1.0
 92
        8
 66
   257
 43
1.0
 76
     1
 77
     6
 78
     2
 67
     7
 79
     3
170
     0
171
     0
290
     0
174
     0
 93
       13
 44
0.0
173
     0
291
     0
 45
0.0
1001
ACAD
1000
AcDbSavedByObjectVersion
1070
     0
  0
VISUALSTYLE
  5
8150
102
{ACAD_XDICTIONARY
360
87F6
102
}
102
{ACAD_REACTORS
330
813B
102
}
330
813B
100
AcDbVisualStyle
  2
Shaded
 70
    27
 71
     2
 72
     2
 73
     1
 90
        2
 40
-0.6
 41
30.0
 62
     5
 63
     7
 74
     0
 91
        4
 64
     7
 65
   257
 75
     1
175
     1
 42
1.0
 92
        8
 66
   257
 43
1.0
 76
     1
 77
     6
 78
     2
 67
     8
 79
     3
170
     0
171
     0
290
     0
174
     0
 93
        5
 44
0.0
173
     0
291
     0
 45
0.0
1001
ACAD
1000
AcDbSavedByObjectVersion
1070
     0
  0
VISUALSTYLE
  5
814F
102
{ACAD_XDICTIONARY
360
87F4
102
}
102
{ACAD_REACTORS
330
813B
102
}
330
813B
100
AcDbVisualStyle
  2
Shaded with edges
 70
    26
 71
     2
 72
     2
 73
     1
 90
        2
 40
-0.6
 41
30.0
 62
     5
 63
     7
 74
     1
 91
       10
 64
     7
 65
   257
 75
     2
175
     1
 42
1.0
 92
        8
 66
   257
 43
1.0
 76
     1
 77
     6
 78
     2
 67
     7
 79
     3
170
     0
171
     0
290
     0
174
     0
 93
        5
 44
0.0
173
     0
291
     0
 45
0.0
1001
ACAD
1000
AcDbSavedByObjectVersion
1070
     0
  0
VISUALSTYLE
  5
814C
102
{ACAD_XDICTIONARY
360
87EE
102
}
102
{ACAD_REACTORS
330
813B
102
}
330
813B
100
AcDbVisualStyle
  2
Shades of Gray
 70
    23
 71
     2
 72
     2
 73
     3
 90
        0
 40
-0.6
 41
-30.0
 62
     5
 63
     7
 74
     2
 91
        2
 64
     7
 65
     7
 75
     1
175
     1
 42
40.0
 92
        8
 66
     7
 43
1.0
 76
     1
 77
     6
 78
     2
 67
     7
 79
     3
170
     0
171
     0
290
     0
174
     0
 93
        1
 44
0.0
173
     0
291
     0
 45
0.0
1001
ACAD
1000
AcDbSavedByObjectVersion
1070
     0
  0
VISUALSTYLE
  5
814D
102
{ACAD_XDICTIONARY
360
87F0
102
}
102
{ACAD_REACTORS
330
813B
102
}
330
813B
100
AcDbVisualStyle
  2
Sketchy
 70
    24
 71
     1
 72
     2
 73
     2
 90
        0
 40
-0.6
 41
-30.0
 62
     5
 63
     7
 74
     2
 91
        2
 64
     7
 65
     7
 75
     1
175
     1
 42
40.0
 92
       11
 66
     7
 43
1.0
 76
     1
 77
     6
 78
     2
 67
     7
 79
     6
170
     0
171
     0
290
     0
174
     0
 93
        1
 44
0.0
173
     0
291
     0
 45
0.0
1001
ACAD
1000
AcDbSavedByObjectVersion
1070
     0
  0
VISUALSTYLE
  5
8148
102
{ACAD_XDICTIONARY
360
87E6
102
}
102
{ACAD_REACTORS
330
813B
102
}
330
813B
100
AcDbVisualStyle
  2
Thicken
 70
    13
 71
     2
 72
     2
 73
     0
 90
        0
 40
-0.6
 41
-30.0
 62
     5
 63
     7
 74
     1
 91
        4
 64
     7
 65
   257
 75
     1
175
     1
 42
1.0
 92
       12
 66
     7
 43
1.0
 76
     1
 77
     6
 78
     2
 67
     7
 79
     5
170
     0
171
     0
290
     0
174
     0
 93
        1
 44
0.0
173
     0
291
     1
 45
0.0
1001
ACAD
1000
AcDbSavedByObjectVersion
1070
     0
  0
VISUALSTYLE
  5
8142
102
{ACAD_XDICTIONARY
360
87DA
102
}
102
{ACAD_REACTORS
330
813B
102
}
330
813B
100
AcDbVisualStyle
  2
Wireframe
 70
     5
 71
     0
 72
     2
 73
     0
 90
        0
 40
-0.6
 41
-30.0
 62
     5
 63
     7
 74
     1
 91
        4
 64
     7
 65
   257
 75
     1
175
     1
 42
1.0
 92
        0
 66
   257
 43
1.0
 76
     1
 77
     6
 78
     2
 67
     7
 79
     3
170
     0
171
     0
290
     0
174
     0
 93
        1
 44
0.0
173
     0
291
     0
 45
0.0
1001
ACAD
1000
AcDbSavedByObjectVersion
1070
     0
  0
VISUALSTYLE
  5
814E
102
{ACAD_XDICTIONARY
360
87F2
102
}
102
{ACAD_REACTORS
330
813B
102
}
330
813B
100
AcDbVisualStyle
  2
X-Ray
 70
    25
 71
     2
 72
     2
 73
     1
 90
        1
 40
0.5
 41
-30.0
 62
     5
 63
     7
 74
     1
 91
        0
 64
     7
 65
   257
 75
     1
175
     1
 42
1.0
 92
        8
 66
     7
 43
1.0
 76
     1
 77
     6
 78
     2
 67
     7
 79
     3
170
     0
171
     0
290
     0
174
     0
 93
       13
 44
0.0
173
     0
291
     0
 45
0.0
1001
ACAD
1000
AcDbSavedByObjectVersion
1070
     0
  0
DICTIONARYVAR
  5
81CD
102
{ACAD_REACTORS
330
81C8
102
}
330
81C8
100
DictionaryVariables
280
     0
  1
1:1
  0
DICTIONARYVAR
  5
81CA
102
{ACAD_REACTORS
330
81C8
102
}
330
81C8
100
DictionaryVariables
280
     0
  1
STANDARD
  0
DICTIONARYVAR
  5
81C9
102
{ACAD_REACTORS
330
81C8
102
}
330
81C8
100
DictionaryVariables
280
     0
  1
STANDARD
  0
DICTIONARYVAR
  5
81CB
102
{ACAD_REACTORS
330
81C8
102
}
330
81C8
100
DictionaryVariables
280
     0
  1
Imperial24
  0
DICTIONARYVAR
  5
81CC
102
{ACAD_REACTORS
330
81C8
102
}
330
81C8
100
DictionaryVariables
280
     0
  1
Imperial24
  0
DICTIONARYVAR
  5
81D0
102
{ACAD_REACTORS
330
81C8
102
}
330
81C8
100
DictionaryVariables
280
     0
  1
1
  0
DICTIONARYVAR
  5
81CF
102
{ACAD_REACTORS
330
81C8
102
}
330
81C8
100
DictionaryVariables
280
     0
  1
0
  0
DICTIONARYVAR
  5
81CE
102
{ACAD_REACTORS
330
81C8
102
}
330
81C8
100
DictionaryVariables
280
     0
  1
127
  0
DICTIONARYVAR
  5
81D1
102
{ACAD_REACTORS
330
81C8
102
}
330
81C8
100
DictionaryVariables
280
     0
  1
2
  0
DICTIONARY
  5
8802
330
817C
100
AcDbDictionary
280
     1
281
     1
  3
ACAD_XREC_ROUNDTRIP
360
8803
  0
DICTIONARY
  5
880A
330
833A
100
AcDbDictionary
280
     1
281
     1
  3
ACAD_XREC_ROUNDTRIP
360
880B
  0
DICTIONARY
  5
8806
330
8184
100
AcDbDictionary
280
     1
281
     1
  3
ACAD_XREC_ROUNDTRIP
360
8807
  0
DICTIONARY
  5
8804
330
8180
100
AcDbDictionary
280
     1
281
     1
  3
ACAD_XREC_ROUNDTRIP
360
8805
  0
DICTIONARY
  5
812C
330
812B
100
AcDbDictionary
280
     1
281
     1
  3
ACAD_XREC_ROUNDTRIP
360
87CC
  3
BUMPTILE
360
812E
  3
DIFFUSETILE
360
812D
  3
OPACITYTILE
360
8131
  3
REFLECTIONTILE
360
8130
  3
REFRACTIONTILE
360
8132
  3
SPECULARTILE
360
812F
  0
DICTIONARY
  5
8124
330
8123
100
AcDbDictionary
280
     1
281
     1
  3
ACAD_XREC_ROUNDTRIP
360
87CB
  3
BUMPTILE
360
8126
  3
DIFFUSETILE
360
8125
  3
OPACITYTILE
360
8129
  3
REFLECTIONTILE
360
8128
  3
REFRACTIONTILE
360
812A
  3
SPECULARTILE
360
8127
  0
DICTIONARY
  5
8134
330
8133
100
AcDbDictionary
280
     1
281
     1
  3
ACAD_XREC_ROUNDTRIP
360
87CD
  3
BUMPTILE
360
8136
  3
DIFFUSETILE
360
8135
  3
OPACITYTILE
360
8139
  3
REFLECTIONTILE
360
8138
  3
REFRACTIONTILE
360
813A
  3
SPECULARTILE
360
8137
  0
DICTIONARY
  5
8800
330
817A
100
AcDbDictionary
280
     1
281
     1
  3
ACAD_XREC_ROUNDTRIP
360
8801
  0
DICTIONARY
  5
8808
330
8339
100
AcDbDictionary
280
     1
281
     1
  3
ACAD_XREC_ROUNDTRIP
360
8809
  0
DICTIONARY
  5
87C7
330
8176
100
AcDbDictionary
280
     1
281
     1
  3
ACAD_ROUNDTRIP_2008_TABLESTYLE_CELLSTYLEMAP
360
87C8
  3
ACAD_XREC_ROUNDTRIP
360
87FE
  0
DICTIONARY
  5
87D8
330
8141
100
AcDbDictionary
280
     1
281
     1
  3
ACAD_XREC_ROUNDTRIP
360
87D9
  0
DICTIONARY
  5
87D6
330
8140
100
AcDbDictionary
280
     1
281
     1
  3
ACAD_XREC_ROUNDTRIP
360
87D7
  0
DICTIONARY
  5
87E4
330
8147
100
AcDbDictionary
280
     1
281
     1
  3
ACAD_XREC_ROUNDTRIP
360
87E5
  0
DICTIONARY
  5
87EC
330
814B
100
AcDbDictionary
280
     1
281
     1
  3
ACAD_XREC_ROUNDTRIP
360
87ED
  0
DICTIONARY
  5
87DE
330
8144
100
AcDbDictionary
280
     1
281
     1
  3
ACAD_XREC_ROUNDTRIP
360
87DF
  0
DICTIONARY
  5
87E2
330
8146
100
AcDbDictionary
280
     1
281
     1
  3
ACAD_XREC_ROUNDTRIP
360
87E3
  0
DICTIONARY
  5
87FC
330
8153
100
AcDbDictionary
280
     1
281
     1
  3
ACAD_XREC_ROUNDTRIP
360
87FD
  0
DICTIONARY
  5
87EA
330
814A
100
AcDbDictionary
280
     1
281
     1
  3
ACAD_XREC_ROUNDTRIP
360
87EB
  0
DICTIONARY
  5
87CE
330
813C
100
AcDbDictionary
280
     1
281
     1
  3
ACAD_XREC_ROUNDTRIP
360
87CF
  0
DICTIONARY
  5
87D0
330
813D
100
AcDbDictionary
280
     1
281
     1
  3
ACAD_XREC_ROUNDTRIP
360
87D1
  0
DICTIONARY
  5
87D2
330
813E
100
AcDbDictionary
280
     1
281
     1
  3
ACAD_XREC_ROUNDTRIP
360
87D3
  0
DICTIONARY
  5
87D4
330
813F
100
AcDbDictionary
280
     1
281
     1
  3
ACAD_XREC_ROUNDTRIP
360
87D5
  0
DICTIONARY
  5
87DC
330
8143
100
AcDbDictionary
280
     1
281
     1
  3
ACAD_XREC_ROUNDTRIP
360
87DD
  0
DICTIONARY
  5
87F8
330
8151
100
AcDbDictionary
280
     1
281
     1
  3
ACAD_XREC_ROUNDTRIP
360
87F9
  0
DICTIONARY
  5
87E8
330
8149
100
AcDbDictionary
280
     1
281
     1
  3
ACAD_XREC_ROUNDTRIP
360
87E9
  0
DICTIONARY
  5
87FA
330
8152
100
AcDbDictionary
280
     1
281
     1
  3
ACAD_XREC_ROUNDTRIP
360
87FB
  0
DICTIONARY
  5
87E0
330
8145
100
AcDbDictionary
280
     1
281
     1
  3
ACAD_XREC_ROUNDTRIP
360
87E1
  0
DICTIONARY
  5
87F6
330
8150
100
AcDbDictionary
280
     1
281
     1
  3
ACAD_XREC_ROUNDTRIP
360
87F7
  0
DICTIONARY
  5
87F4
330
814F
100
AcDbDictionary
280
     1
281
     1
  3
ACAD_XREC_ROUNDTRIP
360
87F5
  0
DICTIONARY
  5
87EE
330
814C
100
AcDbDictionary
280
     1
281
     1
  3
ACAD_XREC_ROUNDTRIP
360
87EF
  0
DICTIONARY
  5
87F0
330
814D
100
AcDbDictionary
280
     1
281
     1
  3
ACAD_XREC_ROUNDTRIP
360
87F1
  0
DICTIONARY
  5
87E6
330
8148
100
AcDbDictionary
280
     1
281
     1
  3
ACAD_XREC_ROUNDTRIP
360
87E7
  0
DICTIONARY
  5
87DA
330
8142
100
AcDbDictionary
280
     1
281
     1
  3
ACAD_XREC_ROUNDTRIP
360
87DB
  0
DICTIONARY
  5
87F2
330
814E
100
AcDbDictionary
280
     1
281
     1
  3
ACAD_XREC_ROUNDTRIP
360
87F3
  0
XRECORD
  5
8803
102
{ACAD_REACTORS
330
8802
102
}
330
8802
100
AcDbXrecord
280
     1
102
DISPLAYNAME
  1
Imperial24
102
FLAGS
 90
        0
  0
XRECORD
  5
880B
102
{ACAD_REACTORS
330
880A
102
}
330
880A
100
AcDbXrecord
280
     1
102
DISPLAYNAME
  1
Metric50
102
FLAGS
 90
        0
  0
XRECORD
  5
8807
102
{ACAD_REACTORS
330
8806
102
}
330
8806
100
AcDbXrecord
280
     1
102
SHADEPLOT
 70
     0
102
SHADEPLOTRESLEVEL
 70
     2
102
SHADEPLOTCUSTOMDPI
 70
   300
  0
XRECORD
  5
8805
102
{ACAD_REACTORS
330
8804
102
}
330
8804
100
AcDbXrecord
280
     1
102
SHADEPLOT
 70
     0
102
SHADEPLOTRESLEVEL
 70
     2
102
SHADEPLOTCUSTOMDPI
 70
   300
  0
XRECORD
  5
87CC
102
{ACAD_REACTORS
330
812C
102
}
330
812C
100
AcDbXrecord
280
     1
102
MATERIAL
148
0.0
149
0.0
149
0.0
 93
        0
 94
      127
282
     0
 72
     0
 77
     0
171
     0
175
     0
179
     0
273
     0
  0
XRECORD
  5
812E
102
{ACAD_REACTORS
330
812C
102
}
330
812C
100
AcDbXrecord
280
     1
270
     1
271
     1
  0
XRECORD
  5
812D
102
{ACAD_REACTORS
330
812C
102
}
330
812C
100
AcDbXrecord
280
     1
270
     1
271
     1
  0
XRECORD
  5
8131
102
{ACAD_REACTORS
330
812C
102
}
330
812C
100
AcDbXrecord
280
     1
270
     1
271
     1
  0
XRECORD
  5
8130
102
{ACAD_REACTORS
330
812C
102
}
330
812C
100
AcDbXrecord
280
     1
270
     1
271
     1
  0
XRECORD
  5
8132
102
{ACAD_REACTORS
330
812C
102
}
330
812C
100
AcDbXrecord
280
     1
270
     1
271
     1
  0
XRECORD
  5
812F
102
{ACAD_REACTORS
330
812C
102
}
330
812C
100
AcDbXrecord
280
     1
270
     1
271
     1
  0
XRECORD
  5
87CB
102
{ACAD_REACTORS
330
8124
102
}
330
8124
100
AcDbXrecord
280
     1
102
MATERIAL
148
0.0
149
0.0
149
0.0
 93
        0
 94
      127
282
     0
 72
     0
 77
     0
171
     0
175
     0
179
     0
273
     0
  0
XRECORD
  5
8126
102
{ACAD_REACTORS
330
8124
102
}
330
8124
100
AcDbXrecord
280
     1
270
     1
271
     1
  0
XRECORD
  5
8125
102
{ACAD_REACTORS
330
8124
102
}
330
8124
100
AcDbXrecord
280
     1
270
     1
271
     1
  0
XRECORD
  5
8129
102
{ACAD_REACTORS
330
8124
102
}
330
8124
100
AcDbXrecord
280
     1
270
     1
271
     1
  0
XRECORD
  5
8128
102
{ACAD_REACTORS
330
8124
102
}
330
8124
100
AcDbXrecord
280
     1
270
     1
271
     1
  0
XRECORD
  5
812A
102
{ACAD_REACTORS
330
8124
102
}
330
8124
100
AcDbXrecord
280
     1
270
     1
271
     1
  0
XRECORD
  5
8127
102
{ACAD_REACTORS
330
8124
102
}
330
8124
100
AcDbXrecord
280
     1
270
     1
271
     1
  0
XRECORD
  5
87CD
102
{ACAD_REACTORS
330
8134
102
}
330
8134
100
AcDbXrecord
280
     1
102
MATERIAL
148
0.0
149
0.0
149
0.0
 93
        0
 94
      127
282
     0
 72
     0
 77
     0
171
     0
175
     0
179
     0
273
     0
  0
XRECORD
  5
8136
102
{ACAD_REACTORS
330
8134
102
}
330
8134
100
AcDbXrecord
280
     1
270
     1
271
     1
  0
XRECORD
  5
8135
102
{ACAD_REACTORS
330
8134
102
}
330
8134
100
AcDbXrecord
280
     1
270
     1
271
     1
  0
XRECORD
  5
8139
102
{ACAD_REACTORS
330
8134
102
}
330
8134
100
AcDbXrecord
280
     1
270
     1
271
     1
  0
XRECORD
  5
8138
102
{ACAD_REACTORS
330
8134
102
}
330
8134
100
AcDbXrecord
280
     1
270
     1
271
     1
  0
XRECORD
  5
813A
102
{ACAD_REACTORS
330
8134
102
}
330
8134
100
AcDbXrecord
280
     1
270
     1
271
     1
  0
XRECORD
  5
8137
102
{ACAD_REACTORS
330
8134
102
}
330
8134
100
AcDbXrecord
280
     1
270
     1
271
     1
  0
XRECORD
  5
8801
102
{ACAD_REACTORS
330
8800
102
}
330
8800
100
AcDbXrecord
280
     1
102
DISPLAYNAME
  1
Imperial24
102
FLAGS
 90
        0
  0
XRECORD
  5
8809
102
{ACAD_REACTORS
330
8808
102
}
330
8808
100
AcDbXrecord
280
     1
102
DISPLAYNAME
  1
Metric50
102
FLAGS
 90
        0
  0
CELLSTYLEMAP
  5
87C8
102
{ACAD_REACTORS
330
87C7
102
}
330
87C7
100
AcDbCellStyleMap
 90
        3
300
CELLSTYLE
  1
TABLEFORMAT_BEGIN
 90
        5
170
     1
 91
        0
 92
    32768
 62
   257
 93
        1
300
CONTENTFORMAT
  1
CONTENTFORMAT_BEGIN
 90
        0
 91
        0
 92
      512
 93
        0
300

 40
0.0
140
1.0
 94
        5
 62
     0
340
8167
144
0.25
309
CONTENTFORMAT_END
171
     0
 94
        0
309
TABLEFORMAT_END
  1
CELLSTYLE_BEGIN
 90
        1
 91
        1
300
_TITLE
309
CELLSTYLE_END
300
CELLSTYLE
  1
TABLEFORMAT_BEGIN
 90
        5
170
     1
 91
        0
 92
        0
 62
   257
 93
        1
300
CONTENTFORMAT
  1
CONTENTFORMAT_BEGIN
 90
        0
 91
        0
 92
      512
 93
        0
300

 40
0.0
140
1.0
 94
        5
 62
     0
340
8167
144
0.18
309
CONTENTFORMAT_END
171
     0
 94
        0
309
TABLEFORMAT_END
  1
CELLSTYLE_BEGIN
 90
        2
 91
        1
300
_HEADER
309
CELLSTYLE_END
300
CELLSTYLE
  1
TABLEFORMAT_BEGIN
 90
        5
170
     1
 91
        0
 92
        0
 62
   257
 93
        1
300
CONTENTFORMAT
  1
CONTENTFORMAT_BEGIN
 90
        0
 91
        0
 92
      512
 93
        0
300

 40
0.0
140
1.0
 94
        2
 62
     0
340
8167
144
0.18
309
CONTENTFORMAT_END
171
     0
 94
        0
309
TABLEFORMAT_END
  1
CELLSTYLE_BEGIN
 90
        3
 91
        2
300
_DATA
309
CELLSTYLE_END
  0
XRECORD
  5
87FE
102
{ACAD_REACTORS
330
87C7
102
}
330
87C7
100
AcDbXrecord
280
     1
102
ACAD_ROUNDTRIP_PRE2007_TABLESTYLE
 90
      512
 91
        0
  1

 92
      512
 93
        0
  2

 94
      512
 95
        0
  3

  0
XRECORD
  5
87D9
102
{ACAD_REACTORS
330
87D8
102
}
330
87D8
100
AcDbXrecord
280
     1
102
RTVSPost2010Prop28
280
     1
102
RTVSPost2010PropOp28
 70
     1
102
RTVSPost2010Prop29
280
     1
102
RTVSPost2010PropOp29
 70
     1
102
RTVSPost2010Prop30
280
     0
102
RTVSPost2010PropOp30
 70
     1
102
RTVSPost2010Prop31
280
     0
102
RTVSPost2010PropOp31
 70
     1
102
RTVSPost2010Prop32
280
     0
102
RTVSPost2010PropOp32
 70
     1
102
RTVSPost2010Prop33
280
     0
102
RTVSPost2010PropOp33
 70
     1
102
RTVSPost2010Prop34
280
     0
102
RTVSPost2010PropOp34
 70
     1
102
RTVSPost2010Prop35
280
     0
102
RTVSPost2010PropOp35
 70
     1
102
RTVSPost2010Prop36
280
     0
102
RTVSPost2010PropOp36
 70
     1
102
RTVSPost2010Prop37
 90
       50
102
RTVSPost2010PropOp37
 70
     1
102
RTVSPost2010Prop38
140
0.0
102
RTVSPost2010PropOp38
 70
     1
102
RTVSPost2010Prop39
140
1.0
102
RTVSPost2010PropOp39
 70
     1
102
RTVSPost2010Prop40
 90
        0
102
RTVSPost2010PropOp40
 70
     1
102
RTVSPost2010Prop41ColorIndex
 90
       18
102
RTVSPost2010Prop41ColorRGB
 90
        0
102
RTVSPost2010PropOp41
 70
     1
102
RTVSPost2010Prop42
 90
       50
102
RTVSPost2010PropOp42
 70
     1
102
RTVSPost2010Prop43
 90
        3
102
RTVSPost2010PropOp43
 70
     1
102
RTVSPost2010Prop44ColorIndex
 90
        5
102
RTVSPost2010Prop44ColorRGB
 90
      255
102
RTVSPost2010PropOp44
 70
     1
102
RTVSPost2010Prop45
280
     0
102
RTVSPost2010PropOp45
 70
     1
102
RTVSPost2010Prop46
 90
       50
102
RTVSPost2010PropOp46
 70
     1
102
RTVSPost2010Prop47
 90
       50
102
RTVSPost2010PropOp47
 70
     1
102
RTVSPost2010Prop48
 90
       50
102
RTVSPost2010PropOp48
 70
     1
102
RTVSPost2010Prop49
280
     0
102
RTVSPost2010PropOp49
 70
     1
102
RTVSPost2010Prop50
 90
       50
102
RTVSPost2010PropOp50
 70
     1
102
RTVSPost2010Prop51ColorIndex
 90
      256
102
RTVSPost2010Prop51ColorRGB
 90
-16777216
102
RTVSPost2010PropOp51
 70
     0
102
RTVSPost2010Prop52
140
1.0
102
RTVSPost2010PropOp52
 70
     0
102
RTVSPost2010Prop53
 90
        2
102
RTVSPost2010PropOp53
 70
     1
102
RTVSPost2010Prop54
  1
strokes_ogs.tif
102
RTVSPost2010PropOp54
 70
     1
102
RTVSPost2010Prop55
280
     0
102
RTVSPost2010PropOp55
 70
     1
102
RTVSPost2010Prop56
140
1.0
102
RTVSPost2010PropOp56
 70
     1
102
RTVSPost2010Prop57
140
1.0
102
RTVSPost2010PropOp57
 70
     1
102
RTVSPropertyOp0
 70
     1
102
RTVSPropertyOp1
 70
     1
102
RTVSPropertyOp2
 70
     1
102
RTVSPropertyOp3
 70
     1
102
RTVSPropertyOp4
 70
     1
102
RTVSPropertyOp5
 70
     1
102
RTVSPropertyOp6
 70
     1
102
RTVSPropertyOp7
 70
     1
102
RTVSPropertyOp8
 70
     1
102
RTVSPropertyOp9
 70
     1
102
RTVSPropertyOp10
 70
     1
102
RTVSPropertyOp11
 70
     1
102
RTVSPropertyOp12
 70
     1
102
RTVSPropertyOp13
 70
     1
102
RTVSPropertyOp14
 70
     1
102
RTVSPropertyOp15
 70
     1
102
RTVSPropertyOp16
 70
     1
102
RTVSPropertyOp17
 70
     1
102
RTVSPropertyOp18
 70
     1
102
RTVSPropertyOp19
 70
     1
102
RTVSPropertyOp20
 70
     1
102
RTVSPropertyOp21
 70
     1
102
RTVSPropertyOp22
 70
     1
102
RTVSPropertyOp23
 70
     1
102
RTVSPropertyOp24
 70
     1
102
RTVSPropertyOp25
 70
     1
102
RTVSPropertyOp26
 70
     1
102
RTVSPropertyOp27
 70
     1
102
RTVSPropertyOp28
 70
     1
102
RTVSPropertyOp29
 70
     1
102
RTVSPropertyOp30
 70
     1
102
RTVSPropertyOp31
 70
     1
102
RTVSPropertyOp32
 70
     1
102
RTVSPropertyOp33
 70
     1
102
RTVSPropertyOp34
 70
     1
102
RTVSPropertyOp35
 70
     1
102
RTVSPropertyOp36
 70
     1
102
RTVSPropertyOp37
 70
     1
102
RTVSPropertyOp38
 70
     1
102
RTVSPropertyOp39
 70
     1
102
RTVSPropertyOp40
 70
     1
102
RTVSPropertyOp41
 70
     1
102
RTVSPropertyOp42
 70
     1
102
RTVSPropertyOp43
 70
     1
102
RTVSPropertyOp44
 70
     1
102
RTVSPropertyOp45
 70
     1
102
RTVSPropertyOp46
 70
     1
102
RTVSPropertyOp47
 70
     1
102
RTVSPropertyOp48
 70
     1
102
RTVSPropertyOp49
 70
     1
102
RTVSPropertyOp50
 70
     1
102
RTVSPropertyOp51
 70
     0
102
RTVSPropertyOp52
 70
     0
102
RTVSPropertyOp53
 70
     1
102
RTVSPropertyOp54
 70
     1
102
RTVSPropertyOp55
 70
     1
102
RTVSPropertyOp56
 70
     1
102
RTVSPropertyOp57
 70
     1
102
RTVSPropertyOp58
 70
     1
102
RTVSPropertyOp59
 70
     1
102
RTVSPropertyOp60
 70
     1
102
RTVSPropertyOp61
 70
     1
102
RTVSPropertyOp62
 70
     1
  0
XRECORD
  5
87D7
102
{ACAD_REACTORS
330
87D6
102
}
330
87D6
100
AcDbXrecord
280
     1
102
RTVSPost2010Prop28
280
     0
102
RTVSPost2010PropOp28
 70
     1
102
RTVSPost2010Prop29
280
     1
102
RTVSPost2010PropOp29
 70
     1
102
RTVSPost2010Prop30
280
     1
102
RTVSPost2010PropOp30
 70
     1
102
RTVSPost2010Prop31
280
     0
102
RTVSPost2010PropOp31
 70
     1
102
RTVSPost2010Prop32
280
     0
102
RTVSPost2010PropOp32
 70
     1
102
RTVSPost2010Prop33
280
     0
102
RTVSPost2010PropOp33
 70
     1
102
RTVSPost2010Prop34
280
     0
102
RTVSPost2010PropOp34
 70
     1
102
RTVSPost2010Prop35
280
     0
102
RTVSPost2010PropOp35
 70
     1
102
RTVSPost2010Prop36
280
     0
102
RTVSPost2010PropOp36
 70
     1
102
RTVSPost2010Prop37
 90
       50
102
RTVSPost2010PropOp37
 70
     1
102
RTVSPost2010Prop38
140
0.0
102
RTVSPost2010PropOp38
 70
     1
102
RTVSPost2010Prop39
140
1.0
102
RTVSPost2010PropOp39
 70
     1
102
RTVSPost2010Prop40
 90
        0
102
RTVSPost2010PropOp40
 70
     1
102
RTVSPost2010Prop41ColorIndex
 90
       18
102
RTVSPost2010Prop41ColorRGB
 90
        0
102
RTVSPost2010PropOp41
 70
     1
102
RTVSPost2010Prop42
 90
       50
102
RTVSPost2010PropOp42
 70
     1
102
RTVSPost2010Prop43
 90
        3
102
RTVSPost2010PropOp43
 70
     1
102
RTVSPost2010Prop44ColorIndex
 90
        5
102
RTVSPost2010Prop44ColorRGB
 90
      255
102
RTVSPost2010PropOp44
 70
     1
102
RTVSPost2010Prop45
280
     0
102
RTVSPost2010PropOp45
 70
     1
102
RTVSPost2010Prop46
 90
       50
102
RTVSPost2010PropOp46
 70
     1
102
RTVSPost2010Prop47
 90
       50
102
RTVSPost2010PropOp47
 70
     1
102
RTVSPost2010Prop48
 90
       50
102
RTVSPost2010PropOp48
 70
     1
102
RTVSPost2010Prop49
280
     0
102
RTVSPost2010PropOp49
 70
     1
102
RTVSPost2010Prop50
 90
       50
102
RTVSPost2010PropOp50
 70
     1
102
RTVSPost2010Prop51ColorIndex
 90
      256
102
RTVSPost2010Prop51ColorRGB
 90
-16777216
102
RTVSPost2010PropOp51
 70
     0
102
RTVSPost2010Prop52
140
1.0
102
RTVSPost2010PropOp52
 70
     0
102
RTVSPost2010Prop53
 90
        2
102
RTVSPost2010PropOp53
 70
     1
102
RTVSPost2010Prop54
  1
strokes_ogs.tif
102
RTVSPost2010PropOp54
 70
     1
102
RTVSPost2010Prop55
280
     0
102
RTVSPost2010PropOp55
 70
     1
102
RTVSPost2010Prop56
140
1.0
102
RTVSPost2010PropOp56
 70
     1
102
RTVSPost2010Prop57
140
1.0
102
RTVSPost2010PropOp57
 70
     1
102
RTVSPropertyOp0
 70
     1
102
RTVSPropertyOp1
 70
     1
102
RTVSPropertyOp2
 70
     1
102
RTVSPropertyOp3
 70
     1
102
RTVSPropertyOp4
 70
     1
102
RTVSPropertyOp5
 70
     1
102
RTVSPropertyOp6
 70
     1
102
RTVSPropertyOp7
 70
     1
102
RTVSPropertyOp8
 70
     1
102
RTVSPropertyOp9
 70
     1
102
RTVSPropertyOp10
 70
     1
102
RTVSPropertyOp11
 70
     1
102
RTVSPropertyOp12
 70
     1
102
RTVSPropertyOp13
 70
     1
102
RTVSPropertyOp14
 70
     1
102
RTVSPropertyOp15
 70
     1
102
RTVSPropertyOp16
 70
     1
102
RTVSPropertyOp17
 70
     1
102
RTVSPropertyOp18
 70
     1
102
RTVSPropertyOp19
 70
     1
102
RTVSPropertyOp20
 70
     1
102
RTVSPropertyOp21
 70
     1
102
RTVSPropertyOp22
 70
     1
102
RTVSPropertyOp23
 70
     1
102
RTVSPropertyOp24
 70
     1
102
RTVSPropertyOp25
 70
     1
102
RTVSPropertyOp26
 70
     1
102
RTVSPropertyOp27
 70
     1
102
RTVSPropertyOp28
 70
     1
102
RTVSPropertyOp29
 70
     1
102
RTVSPropertyOp30
 70
     1
102
RTVSPropertyOp31
 70
     1
102
RTVSPropertyOp32
 70
     1
102
RTVSPropertyOp33
 70
     1
102
RTVSPropertyOp34
 70
     1
102
RTVSPropertyOp35
 70
     1
102
RTVSPropertyOp36
 70
     1
102
RTVSPropertyOp37
 70
     1
102
RTVSPropertyOp38
 70
     1
102
RTVSPropertyOp39
 70
     1
102
RTVSPropertyOp40
 70
     1
102
RTVSPropertyOp41
 70
     1
102
RTVSPropertyOp42
 70
     1
102
RTVSPropertyOp43
 70
     1
102
RTVSPropertyOp44
 70
     1
102
RTVSPropertyOp45
 70
     1
102
RTVSPropertyOp46
 70
     1
102
RTVSPropertyOp47
 70
     1
102
RTVSPropertyOp48
 70
     1
102
RTVSPropertyOp49
 70
     1
102
RTVSPropertyOp50
 70
     1
102
RTVSPropertyOp51
 70
     0
102
RTVSPropertyOp52
 70
     0
102
RTVSPropertyOp53
 70
     1
102
RTVSPropertyOp54
 70
     1
102
RTVSPropertyOp55
 70
     1
102
RTVSPropertyOp56
 70
     1
102
RTVSPropertyOp57
 70
     1
102
RTVSPropertyOp58
 70
     1
102
RTVSPropertyOp59
 70
     1
102
RTVSPropertyOp60
 70
     1
102
RTVSPropertyOp61
 70
     1
102
RTVSPropertyOp62
 70
     1
  0
XRECORD
  5
87E5
102
{ACAD_REACTORS
330
87E4
102
}
330
87E4
100
AcDbXrecord
280
     1
102
RTVSPost2010Prop28
280
     0
102
RTVSPost2010PropOp28
 70
     1
102
RTVSPost2010Prop29
280
     1
102
RTVSPost2010PropOp29
 70
     1
102
RTVSPost2010Prop30
280
     1
102
RTVSPost2010PropOp30
 70
     1
102
RTVSPost2010Prop31
280
     0
102
RTVSPost2010PropOp31
 70
     1
102
RTVSPost2010Prop32
280
     0
102
RTVSPost2010PropOp32
 70
     1
102
RTVSPost2010Prop33
280
     0
102
RTVSPost2010PropOp33
 70
     1
102
RTVSPost2010Prop34
280
     0
102
RTVSPost2010PropOp34
 70
     1
102
RTVSPost2010Prop35
280
     0
102
RTVSPost2010PropOp35
 70
     1
102
RTVSPost2010Prop36
280
     0
102
RTVSPost2010PropOp36
 70
     1
102
RTVSPost2010Prop37
 90
       50
102
RTVSPost2010PropOp37
 70
     1
102
RTVSPost2010Prop38
140
0.0
102
RTVSPost2010PropOp38
 70
     1
102
RTVSPost2010Prop39
140
1.0
102
RTVSPost2010PropOp39
 70
     1
102
RTVSPost2010Prop40
 90
        0
102
RTVSPost2010PropOp40
 70
     1
102
RTVSPost2010Prop41ColorIndex
 90
       18
102
RTVSPost2010Prop41ColorRGB
 90
        0
102
RTVSPost2010PropOp41
 70
     1
102
RTVSPost2010Prop42
 90
       50
102
RTVSPost2010PropOp42
 70
     1
102
RTVSPost2010Prop43
 90
        3
102
RTVSPost2010PropOp43
 70
     1
102
RTVSPost2010Prop44ColorIndex
 90
        5
102
RTVSPost2010Prop44ColorRGB
 90
      255
102
RTVSPost2010PropOp44
 70
     1
102
RTVSPost2010Prop45
280
     0
102
RTVSPost2010PropOp45
 70
     1
102
RTVSPost2010Prop46
 90
       50
102
RTVSPost2010PropOp46
 70
     1
102
RTVSPost2010Prop47
 90
       50
102
RTVSPost2010PropOp47
 70
     1
102
RTVSPost2010Prop48
 90
       50
102
RTVSPost2010PropOp48
 70
     1
102
RTVSPost2010Prop49
280
     0
102
RTVSPost2010PropOp49
 70
     1
102
RTVSPost2010Prop50
 90
       50
102
RTVSPost2010PropOp50
 70
     1
102
RTVSPost2010Prop51ColorIndex
 90
      256
102
RTVSPost2010Prop51ColorRGB
 90
-16777216
102
RTVSPost2010PropOp51
 70
     0
102
RTVSPost2010Prop52
140
1.0
102
RTVSPost2010PropOp52
 70
     0
102
RTVSPost2010Prop53
 90
        2
102
RTVSPost2010PropOp53
 70
     1
102
RTVSPost2010Prop54
  1
strokes_ogs.tif
102
RTVSPost2010PropOp54
 70
     1
102
RTVSPost2010Prop55
280
     0
102
RTVSPost2010PropOp55
 70
     1
102
RTVSPost2010Prop56
140
1.0
102
RTVSPost2010PropOp56
 70
     1
102
RTVSPost2010Prop57
140
1.0
102
RTVSPost2010PropOp57
 70
     1
102
RTVSPropertyOp0
 70
     1
102
RTVSPropertyOp1
 70
     1
102
RTVSPropertyOp2
 70
     1
102
RTVSPropertyOp3
 70
     1
102
RTVSPropertyOp4
 70
     1
102
RTVSPropertyOp5
 70
     1
102
RTVSPropertyOp6
 70
     1
102
RTVSPropertyOp7
 70
     1
102
RTVSPropertyOp8
 70
     1
102
RTVSPropertyOp9
 70
     1
102
RTVSPropertyOp10
 70
     1
102
RTVSPropertyOp11
 70
     1
102
RTVSPropertyOp12
 70
     1
102
RTVSPropertyOp13
 70
     1
102
RTVSPropertyOp14
 70
     1
102
RTVSPropertyOp15
 70
     1
102
RTVSPropertyOp16
 70
     1
102
RTVSPropertyOp17
 70
     1
102
RTVSPropertyOp18
 70
     1
102
RTVSPropertyOp19
 70
     1
102
RTVSPropertyOp20
 70
     1
102
RTVSPropertyOp21
 70
     1
102
RTVSPropertyOp22
 70
     1
102
RTVSPropertyOp23
 70
     1
102
RTVSPropertyOp24
 70
     1
102
RTVSPropertyOp25
 70
     1
102
RTVSPropertyOp26
 70
     1
102
RTVSPropertyOp27
 70
     1
102
RTVSPropertyOp28
 70
     1
102
RTVSPropertyOp29
 70
     1
102
RTVSPropertyOp30
 70
     1
102
RTVSPropertyOp31
 70
     1
102
RTVSPropertyOp32
 70
     1
102
RTVSPropertyOp33
 70
     1
102
RTVSPropertyOp34
 70
     1
102
RTVSPropertyOp35
 70
     1
102
RTVSPropertyOp36
 70
     1
102
RTVSPropertyOp37
 70
     1
102
RTVSPropertyOp38
 70
     1
102
RTVSPropertyOp39
 70
     1
102
RTVSPropertyOp40
 70
     1
102
RTVSPropertyOp41
 70
     1
102
RTVSPropertyOp42
 70
     1
102
RTVSPropertyOp43
 70
     1
102
RTVSPropertyOp44
 70
     1
102
RTVSPropertyOp45
 70
     1
102
RTVSPropertyOp46
 70
     1
102
RTVSPropertyOp47
 70
     1
102
RTVSPropertyOp48
 70
     1
102
RTVSPropertyOp49
 70
     1
102
RTVSPropertyOp50
 70
     1
102
RTVSPropertyOp51
 70
     0
102
RTVSPropertyOp52
 70
     0
102
RTVSPropertyOp53
 70
     1
102
RTVSPropertyOp54
 70
     1
102
RTVSPropertyOp55
 70
     1
102
RTVSPropertyOp56
 70
     1
102
RTVSPropertyOp57
 70
     1
102
RTVSPropertyOp58
 70
     1
102
RTVSPropertyOp59
 70
     1
102
RTVSPropertyOp60
 70
     1
102
RTVSPropertyOp61
 70
     1
102
RTVSPropertyOp62
 70
     1
  0
XRECORD
  5
87ED
102
{ACAD_REACTORS
330
87EC
102
}
330
87EC
100
AcDbXrecord
280
     1
102
RTVSPost2010Prop28
280
     0
102
RTVSPost2010PropOp28
 70
     1
102
RTVSPost2010Prop29
280
     1
102
RTVSPost2010PropOp29
 70
     1
102
RTVSPost2010Prop30
280
     1
102
RTVSPost2010PropOp30
 70
     1
102
RTVSPost2010Prop31
280
     0
102
RTVSPost2010PropOp31
 70
     1
102
RTVSPost2010Prop32
280
     0
102
RTVSPost2010PropOp32
 70
     1
102
RTVSPost2010Prop33
280
     0
102
RTVSPost2010PropOp33
 70
     1
102
RTVSPost2010Prop34
280
     0
102
RTVSPost2010PropOp34
 70
     1
102
RTVSPost2010Prop35
280
     0
102
RTVSPost2010PropOp35
 70
     1
102
RTVSPost2010Prop36
280
     0
102
RTVSPost2010PropOp36
 70
     1
102
RTVSPost2010Prop37
 90
       50
102
RTVSPost2010PropOp37
 70
     1
102
RTVSPost2010Prop38
140
0.0
102
RTVSPost2010PropOp38
 70
     1
102
RTVSPost2010Prop39
140
1.0
102
RTVSPost2010PropOp39
 70
     1
102
RTVSPost2010Prop40
 90
        0
102
RTVSPost2010PropOp40
 70
     1
102
RTVSPost2010Prop41ColorIndex
 90
       18
102
RTVSPost2010Prop41ColorRGB
 90
        0
102
RTVSPost2010PropOp41
 70
     1
102
RTVSPost2010Prop42
 90
       50
102
RTVSPost2010PropOp42
 70
     1
102
RTVSPost2010Prop43
 90
        3
102
RTVSPost2010PropOp43
 70
     1
102
RTVSPost2010Prop44ColorIndex
 90
        5
102
RTVSPost2010Prop44ColorRGB
 90
      255
102
RTVSPost2010PropOp44
 70
     1
102
RTVSPost2010Prop45
280
     0
102
RTVSPost2010PropOp45
 70
     1
102
RTVSPost2010Prop46
 90
       50
102
RTVSPost2010PropOp46
 70
     1
102
RTVSPost2010Prop47
 90
       50
102
RTVSPost2010PropOp47
 70
     1
102
RTVSPost2010Prop48
 90
       50
102
RTVSPost2010PropOp48
 70
     1
102
RTVSPost2010Prop49
280
     0
102
RTVSPost2010PropOp49
 70
     1
102
RTVSPost2010Prop50
 90
       50
102
RTVSPost2010PropOp50
 70
     1
102
RTVSPost2010Prop51ColorIndex
 90
      256
102
RTVSPost2010Prop51ColorRGB
 90
-16777216
102
RTVSPost2010PropOp51
 70
     0
102
RTVSPost2010Prop52
140
1.0
102
RTVSPost2010PropOp52
 70
     0
102
RTVSPost2010Prop53
 90
        2
102
RTVSPost2010PropOp53
 70
     1
102
RTVSPost2010Prop54
  1
strokes_ogs.tif
102
RTVSPost2010PropOp54
 70
     1
102
RTVSPost2010Prop55
280
     0
102
RTVSPost2010PropOp55
 70
     1
102
RTVSPost2010Prop56
140
1.0
102
RTVSPost2010PropOp56
 70
     1
102
RTVSPost2010Prop57
140
1.0
102
RTVSPost2010PropOp57
 70
     1
102
RTVSPropertyOp0
 70
     1
102
RTVSPropertyOp1
 70
     1
102
RTVSPropertyOp2
 70
     1
102
RTVSPropertyOp3
 70
     1
102
RTVSPropertyOp4
 70
     1
102
RTVSPropertyOp5
 70
     1
102
RTVSPropertyOp6
 70
     1
102
RTVSPropertyOp7
 70
     1
102
RTVSPropertyOp8
 70
     1
102
RTVSPropertyOp9
 70
     1
102
RTVSPropertyOp10
 70
     1
102
RTVSPropertyOp11
 70
     1
102
RTVSPropertyOp12
 70
     1
102
RTVSPropertyOp13
 70
     1
102
RTVSPropertyOp14
 70
     1
102
RTVSPropertyOp15
 70
     1
102
RTVSPropertyOp16
 70
     1
102
RTVSPropertyOp17
 70
     1
102
RTVSPropertyOp18
 70
     1
102
RTVSPropertyOp19
 70
     1
102
RTVSPropertyOp20
 70
     1
102
RTVSPropertyOp21
 70
     1
102
RTVSPropertyOp22
 70
     1
102
RTVSPropertyOp23
 70
     1
102
RTVSPropertyOp24
 70
     1
102
RTVSPropertyOp25
 70
     1
102
RTVSPropertyOp26
 70
     1
102
RTVSPropertyOp27
 70
     1
102
RTVSPropertyOp28
 70
     1
102
RTVSPropertyOp29
 70
     1
102
RTVSPropertyOp30
 70
     1
102
RTVSPropertyOp31
 70
     1
102
RTVSPropertyOp32
 70
     1
102
RTVSPropertyOp33
 70
     1
102
RTVSPropertyOp34
 70
     1
102
RTVSPropertyOp35
 70
     1
102
RTVSPropertyOp36
 70
     1
102
RTVSPropertyOp37
 70
     1
102
RTVSPropertyOp38
 70
     1
102
RTVSPropertyOp39
 70
     1
102
RTVSPropertyOp40
 70
     1
102
RTVSPropertyOp41
 70
     1
102
RTVSPropertyOp42
 70
     1
102
RTVSPropertyOp43
 70
     1
102
RTVSPropertyOp44
 70
     1
102
RTVSPropertyOp45
 70
     1
102
RTVSPropertyOp46
 70
     1
102
RTVSPropertyOp47
 70
     1
102
RTVSPropertyOp48
 70
     1
102
RTVSPropertyOp49
 70
     1
102
RTVSPropertyOp50
 70
     1
102
RTVSPropertyOp51
 70
     0
102
RTVSPropertyOp52
 70
     0
102
RTVSPropertyOp53
 70
     1
102
RTVSPropertyOp54
 70
     1
102
RTVSPropertyOp55
 70
     1
102
RTVSPropertyOp56
 70
     1
102
RTVSPropertyOp57
 70
     1
102
RTVSPropertyOp58
 70
     1
102
RTVSPropertyOp59
 70
     1
102
RTVSPropertyOp60
 70
     1
102
RTVSPropertyOp61
 70
     1
102
RTVSPropertyOp62
 70
     1
  0
XRECORD
  5
87DF
102
{ACAD_REACTORS
330
87DE
102
}
330
87DE
100
AcDbXrecord
280
     1
102
RTVSPost2010Prop28
280
     0
102
RTVSPost2010PropOp28
 70
     1
102
RTVSPost2010Prop29
280
     1
102
RTVSPost2010PropOp29
 70
     1
102
RTVSPost2010Prop30
280
     1
102
RTVSPost2010PropOp30
 70
     1
102
RTVSPost2010Prop31
280
     0
102
RTVSPost2010PropOp31
 70
     1
102
RTVSPost2010Prop32
280
     0
102
RTVSPost2010PropOp32
 70
     1
102
RTVSPost2010Prop33
280
     0
102
RTVSPost2010PropOp33
 70
     1
102
RTVSPost2010Prop34
280
     0
102
RTVSPost2010PropOp34
 70
     1
102
RTVSPost2010Prop35
280
     0
102
RTVSPost2010PropOp35
 70
     1
102
RTVSPost2010Prop36
280
     0
102
RTVSPost2010PropOp36
 70
     1
102
RTVSPost2010Prop37
 90
       50
102
RTVSPost2010PropOp37
 70
     1
102
RTVSPost2010Prop38
140
0.0
102
RTVSPost2010PropOp38
 70
     1
102
RTVSPost2010Prop39
140
1.0
102
RTVSPost2010PropOp39
 70
     1
102
RTVSPost2010Prop40
 90
        0
102
RTVSPost2010PropOp40
 70
     1
102
RTVSPost2010Prop41ColorIndex
 90
       18
102
RTVSPost2010Prop41ColorRGB
 90
        0
102
RTVSPost2010PropOp41
 70
     1
102
RTVSPost2010Prop42
 90
       50
102
RTVSPost2010PropOp42
 70
     1
102
RTVSPost2010Prop43
 90
        3
102
RTVSPost2010PropOp43
 70
     1
102
RTVSPost2010Prop44ColorIndex
 90
        5
102
RTVSPost2010Prop44ColorRGB
 90
      255
102
RTVSPost2010PropOp44
 70
     1
102
RTVSPost2010Prop45
280
     0
102
RTVSPost2010PropOp45
 70
     1
102
RTVSPost2010Prop46
 90
       50
102
RTVSPost2010PropOp46
 70
     1
102
RTVSPost2010Prop47
 90
       50
102
RTVSPost2010PropOp47
 70
     1
102
RTVSPost2010Prop48
 90
       50
102
RTVSPost2010PropOp48
 70
     1
102
RTVSPost2010Prop49
280
     0
102
RTVSPost2010PropOp49
 70
     1
102
RTVSPost2010Prop50
 90
       50
102
RTVSPost2010PropOp50
 70
     1
102
RTVSPost2010Prop51ColorIndex
 90
      256
102
RTVSPost2010Prop51ColorRGB
 90
-16777216
102
RTVSPost2010PropOp51
 70
     0
102
RTVSPost2010Prop52
140
1.0
102
RTVSPost2010PropOp52
 70
     0
102
RTVSPost2010Prop53
 90
        2
102
RTVSPost2010PropOp53
 70
     1
102
RTVSPost2010Prop54
  1
strokes_ogs.tif
102
RTVSPost2010PropOp54
 70
     1
102
RTVSPost2010Prop55
280
     0
102
RTVSPost2010PropOp55
 70
     1
102
RTVSPost2010Prop56
140
1.0
102
RTVSPost2010PropOp56
 70
     1
102
RTVSPost2010Prop57
140
1.0
102
RTVSPost2010PropOp57
 70
     1
102
RTVSPropertyOp0
 70
     1
102
RTVSPropertyOp1
 70
     1
102
RTVSPropertyOp2
 70
     1
102
RTVSPropertyOp3
 70
     1
102
RTVSPropertyOp4
 70
     1
102
RTVSPropertyOp5
 70
     1
102
RTVSPropertyOp6
 70
     1
102
RTVSPropertyOp7
 70
     1
102
RTVSPropertyOp8
 70
     1
102
RTVSPropertyOp9
 70
     1
102
RTVSPropertyOp10
 70
     1
102
RTVSPropertyOp11
 70
     1
102
RTVSPropertyOp12
 70
     1
102
RTVSPropertyOp13
 70
     1
102
RTVSPropertyOp14
 70
     1
102
RTVSPropertyOp15
 70
     1
102
RTVSPropertyOp16
 70
     1
102
RTVSPropertyOp17
 70
     1
102
RTVSPropertyOp18
 70
     1
102
RTVSPropertyOp19
 70
     1
102
RTVSPropertyOp20
 70
     1
102
RTVSPropertyOp21
 70
     1
102
RTVSPropertyOp22
 70
     1
102
RTVSPropertyOp23
 70
     1
102
RTVSPropertyOp24
 70
     1
102
RTVSPropertyOp25
 70
     1
102
RTVSPropertyOp26
 70
     1
102
RTVSPropertyOp27
 70
     1
102
RTVSPropertyOp28
 70
     1
102
RTVSPropertyOp29
 70
     1
102
RTVSPropertyOp30
 70
     1
102
RTVSPropertyOp31
 70
     1
102
RTVSPropertyOp32
 70
     1
102
RTVSPropertyOp33
 70
     1
102
RTVSPropertyOp34
 70
     1
102
RTVSPropertyOp35
 70
     1
102
RTVSPropertyOp36
 70
     1
102
RTVSPropertyOp37
 70
     1
102
RTVSPropertyOp38
 70
     1
102
RTVSPropertyOp39
 70
     1
102
RTVSPropertyOp40
 70
     1
102
RTVSPropertyOp41
 70
     1
102
RTVSPropertyOp42
 70
     1
102
RTVSPropertyOp43
 70
     1
102
RTVSPropertyOp44
 70
     1
102
RTVSPropertyOp45
 70
     1
102
RTVSPropertyOp46
 70
     1
102
RTVSPropertyOp47
 70
     1
102
RTVSPropertyOp48
 70
     1
102
RTVSPropertyOp49
 70
     1
102
RTVSPropertyOp50
 70
     1
102
RTVSPropertyOp51
 70
     0
102
RTVSPropertyOp52
 70
     0
102
RTVSPropertyOp53
 70
     1
102
RTVSPropertyOp54
 70
     1
102
RTVSPropertyOp55
 70
     1
102
RTVSPropertyOp56
 70
     1
102
RTVSPropertyOp57
 70
     1
102
RTVSPropertyOp58
 70
     1
102
RTVSPropertyOp59
 70
     1
102
RTVSPropertyOp60
 70
     1
102
RTVSPropertyOp61
 70
     1
102
RTVSPropertyOp62
 70
     1
  0
XRECORD
  5
87E3
102
{ACAD_REACTORS
330
87E2
102
}
330
87E2
100
AcDbXrecord
280
     1
102
RTVSPost2010Prop28
280
     0
102
RTVSPost2010PropOp28
 70
     1
102
RTVSPost2010Prop29
280
     1
102
RTVSPost2010PropOp29
 70
     1
102
RTVSPost2010Prop30
280
     1
102
RTVSPost2010PropOp30
 70
     1
102
RTVSPost2010Prop31
280
     0
102
RTVSPost2010PropOp31
 70
     1
102
RTVSPost2010Prop32
280
     0
102
RTVSPost2010PropOp32
 70
     1
102
RTVSPost2010Prop33
280
     0
102
RTVSPost2010PropOp33
 70
     1
102
RTVSPost2010Prop34
280
     0
102
RTVSPost2010PropOp34
 70
     1
102
RTVSPost2010Prop35
280
     0
102
RTVSPost2010PropOp35
 70
     1
102
RTVSPost2010Prop36
280
     0
102
RTVSPost2010PropOp36
 70
     1
102
RTVSPost2010Prop37
 90
       50
102
RTVSPost2010PropOp37
 70
     1
102
RTVSPost2010Prop38
140
0.0
102
RTVSPost2010PropOp38
 70
     1
102
RTVSPost2010Prop39
140
1.0
102
RTVSPost2010PropOp39
 70
     1
102
RTVSPost2010Prop40
 90
        0
102
RTVSPost2010PropOp40
 70
     1
102
RTVSPost2010Prop41ColorIndex
 90
       18
102
RTVSPost2010Prop41ColorRGB
 90
        0
102
RTVSPost2010PropOp41
 70
     1
102
RTVSPost2010Prop42
 90
       50
102
RTVSPost2010PropOp42
 70
     1
102
RTVSPost2010Prop43
 90
        3
102
RTVSPost2010PropOp43
 70
     1
102
RTVSPost2010Prop44ColorIndex
 90
        5
102
RTVSPost2010Prop44ColorRGB
 90
      255
102
RTVSPost2010PropOp44
 70
     1
102
RTVSPost2010Prop45
280
     0
102
RTVSPost2010PropOp45
 70
     1
102
RTVSPost2010Prop46
 90
       50
102
RTVSPost2010PropOp46
 70
     1
102
RTVSPost2010Prop47
 90
       50
102
RTVSPost2010PropOp47
 70
     1
102
RTVSPost2010Prop48
 90
       50
102
RTVSPost2010PropOp48
 70
     1
102
RTVSPost2010Prop49
280
     0
102
RTVSPost2010PropOp49
 70
     1
102
RTVSPost2010Prop50
 90
       50
102
RTVSPost2010PropOp50
 70
     1
102
RTVSPost2010Prop51ColorIndex
 90
      256
102
RTVSPost2010Prop51ColorRGB
 90
-16777216
102
RTVSPost2010PropOp51
 70
     0
102
RTVSPost2010Prop52
140
1.0
102
RTVSPost2010PropOp52
 70
     0
102
RTVSPost2010Prop53
 90
        2
102
RTVSPost2010PropOp53
 70
     1
102
RTVSPost2010Prop54
  1
strokes_ogs.tif
102
RTVSPost2010PropOp54
 70
     1
102
RTVSPost2010Prop55
280
     0
102
RTVSPost2010PropOp55
 70
     1
102
RTVSPost2010Prop56
140
1.0
102
RTVSPost2010PropOp56
 70
     1
102
RTVSPost2010Prop57
140
1.0
102
RTVSPost2010PropOp57
 70
     1
102
RTVSPropertyOp0
 70
     1
102
RTVSPropertyOp1
 70
     1
102
RTVSPropertyOp2
 70
     1
102
RTVSPropertyOp3
 70
     1
102
RTVSPropertyOp4
 70
     1
102
RTVSPropertyOp5
 70
     1
102
RTVSPropertyOp6
 70
     1
102
RTVSPropertyOp7
 70
     1
102
RTVSPropertyOp8
 70
     1
102
RTVSPropertyOp9
 70
     1
102
RTVSPropertyOp10
 70
     1
102
RTVSPropertyOp11
 70
     1
102
RTVSPropertyOp12
 70
     1
102
RTVSPropertyOp13
 70
     1
102
RTVSPropertyOp14
 70
     1
102
RTVSPropertyOp15
 70
     1
102
RTVSPropertyOp16
 70
     1
102
RTVSPropertyOp17
 70
     1
102
RTVSPropertyOp18
 70
     1
102
RTVSPropertyOp19
 70
     1
102
RTVSPropertyOp20
 70
     1
102
RTVSPropertyOp21
 70
     1
102
RTVSPropertyOp22
 70
     1
102
RTVSPropertyOp23
 70
     1
102
RTVSPropertyOp24
 70
     1
102
RTVSPropertyOp25
 70
     1
102
RTVSPropertyOp26
 70
     1
102
RTVSPropertyOp27
 70
     1
102
RTVSPropertyOp28
 70
     1
102
RTVSPropertyOp29
 70
     1
102
RTVSPropertyOp30
 70
     1
102
RTVSPropertyOp31
 70
     1
102
RTVSPropertyOp32
 70
     1
102
RTVSPropertyOp33
 70
     1
102
RTVSPropertyOp34
 70
     1
102
RTVSPropertyOp35
 70
     1
102
RTVSPropertyOp36
 70
     1
102
RTVSPropertyOp37
 70
     1
102
RTVSPropertyOp38
 70
     1
102
RTVSPropertyOp39
 70
     1
102
RTVSPropertyOp40
 70
     1
102
RTVSPropertyOp41
 70
     1
102
RTVSPropertyOp42
 70
     1
102
RTVSPropertyOp43
 70
     1
102
RTVSPropertyOp44
 70
     1
102
RTVSPropertyOp45
 70
     1
102
RTVSPropertyOp46
 70
     1
102
RTVSPropertyOp47
 70
     1
102
RTVSPropertyOp48
 70
     1
102
RTVSPropertyOp49
 70
     1
102
RTVSPropertyOp50
 70
     1
102
RTVSPropertyOp51
 70
     0
102
RTVSPropertyOp52
 70
     0
102
RTVSPropertyOp53
 70
     1
102
RTVSPropertyOp54
 70
     1
102
RTVSPropertyOp55
 70
     1
102
RTVSPropertyOp56
 70
     1
102
RTVSPropertyOp57
 70
     1
102
RTVSPropertyOp58
 70
     1
102
RTVSPropertyOp59
 70
     1
102
RTVSPropertyOp60
 70
     1
102
RTVSPropertyOp61
 70
     1
102
RTVSPropertyOp62
 70
     1
  0
XRECORD
  5
87FD
102
{ACAD_REACTORS
330
87FC
102
}
330
87FC
100
AcDbXrecord
280
     1
102
RTVSPost2010Prop28
280
     0
102
RTVSPost2010PropOp28
 70
     1
102
RTVSPost2010Prop29
280
     1
102
RTVSPost2010PropOp29
 70
     1
102
RTVSPost2010Prop30
280
     1
102
RTVSPost2010PropOp30
 70
     1
102
RTVSPost2010Prop31
280
     0
102
RTVSPost2010PropOp31
 70
     1
102
RTVSPost2010Prop32
280
     0
102
RTVSPost2010PropOp32
 70
     1
102
RTVSPost2010Prop33
280
     0
102
RTVSPost2010PropOp33
 70
     1
102
RTVSPost2010Prop34
280
     0
102
RTVSPost2010PropOp34
 70
     1
102
RTVSPost2010Prop35
280
     0
102
RTVSPost2010PropOp35
 70
     1
102
RTVSPost2010Prop36
280
     0
102
RTVSPost2010PropOp36
 70
     1
102
RTVSPost2010Prop37
 90
       50
102
RTVSPost2010PropOp37
 70
     0
102
RTVSPost2010Prop38
140
0.0
102
RTVSPost2010PropOp38
 70
     0
102
RTVSPost2010Prop39
140
1.0
102
RTVSPost2010PropOp39
 70
     0
102
RTVSPost2010Prop40
 90
        0
102
RTVSPost2010PropOp40
 70
     0
102
RTVSPost2010Prop41ColorIndex
 90
       18
102
RTVSPost2010Prop41ColorRGB
 90
        0
102
RTVSPost2010PropOp41
 70
     0
102
RTVSPost2010Prop42
 90
       50
102
RTVSPost2010PropOp42
 70
     0
102
RTVSPost2010Prop43
 90
        3
102
RTVSPost2010PropOp43
 70
     0
102
RTVSPost2010Prop44ColorIndex
 90
        5
102
RTVSPost2010Prop44ColorRGB
 90
      255
102
RTVSPost2010PropOp44
 70
     0
102
RTVSPost2010Prop45
280
     0
102
RTVSPost2010PropOp45
 70
     1
102
RTVSPost2010Prop46
 90
       50
102
RTVSPost2010PropOp46
 70
     0
102
RTVSPost2010Prop47
 90
       50
102
RTVSPost2010PropOp47
 70
     0
102
RTVSPost2010Prop48
 90
       50
102
RTVSPost2010PropOp48
 70
     0
102
RTVSPost2010Prop49
280
     0
102
RTVSPost2010PropOp49
 70
     1
102
RTVSPost2010Prop50
 90
       50
102
RTVSPost2010PropOp50
 70
     0
102
RTVSPost2010Prop51ColorIndex
 90
      256
102
RTVSPost2010Prop51ColorRGB
 90
-16777216
102
RTVSPost2010PropOp51
 70
     0
102
RTVSPost2010Prop52
140
1.0
102
RTVSPost2010PropOp52
 70
     0
102
RTVSPost2010Prop53
 90
        2
102
RTVSPost2010PropOp53
 70
     0
102
RTVSPost2010Prop54
  1
strokes_ogs.tif
102
RTVSPost2010PropOp54
 70
     0
102
RTVSPost2010Prop55
280
     0
102
RTVSPost2010PropOp55
 70
     1
102
RTVSPost2010Prop56
140
1.0
102
RTVSPost2010PropOp56
 70
     0
102
RTVSPost2010Prop57
140
1.0
102
RTVSPost2010PropOp57
 70
     0
102
RTVSPropertyOp0
 70
     0
102
RTVSPropertyOp1
 70
     0
102
RTVSPropertyOp2
 70
     0
102
RTVSPropertyOp3
 70
     0
102
RTVSPropertyOp4
 70
     0
102
RTVSPropertyOp5
 70
     0
102
RTVSPropertyOp6
 70
     0
102
RTVSPropertyOp7
 70
     0
102
RTVSPropertyOp8
 70
     0
102
RTVSPropertyOp9
 70
     0
102
RTVSPropertyOp10
 70
     0
102
RTVSPropertyOp11
 70
     0
102
RTVSPropertyOp12
 70
     0
102
RTVSPropertyOp13
 70
     0
102
RTVSPropertyOp14
 70
     2
102
RTVSPropertyOp15
 70
     0
102
RTVSPropertyOp16
 70
     0
102
RTVSPropertyOp17
 70
     0
102
RTVSPropertyOp18
 70
     0
102
RTVSPropertyOp19
 70
     0
102
RTVSPropertyOp20
 70
     0
102
RTVSPropertyOp21
 70
     0
102
RTVSPropertyOp22
 70
     0
102
RTVSPropertyOp23
 70
     0
102
RTVSPropertyOp24
 70
     0
102
RTVSPropertyOp25
 70
     0
102
RTVSPropertyOp26
 70
     0
102
RTVSPropertyOp27
 70
     0
102
RTVSPropertyOp28
 70
     1
102
RTVSPropertyOp29
 70
     1
102
RTVSPropertyOp30
 70
     1
102
RTVSPropertyOp31
 70
     1
102
RTVSPropertyOp32
 70
     1
102
RTVSPropertyOp33
 70
     1
102
RTVSPropertyOp34
 70
     1
102
RTVSPropertyOp35
 70
     1
102
RTVSPropertyOp36
 70
     1
102
RTVSPropertyOp37
 70
     0
102
RTVSPropertyOp38
 70
     0
102
RTVSPropertyOp39
 70
     0
102
RTVSPropertyOp40
 70
     0
102
RTVSPropertyOp41
 70
     0
102
RTVSPropertyOp42
 70
     0
102
RTVSPropertyOp43
 70
     0
102
RTVSPropertyOp44
 70
     0
102
RTVSPropertyOp45
 70
     1
102
RTVSPropertyOp46
 70
     0
102
RTVSPropertyOp47
 70
     0
102
RTVSPropertyOp48
 70
     0
102
RTVSPropertyOp49
 70
     1
102
RTVSPropertyOp50
 70
     0
102
RTVSPropertyOp51
 70
     0
102
RTVSPropertyOp52
 70
     0
102
RTVSPropertyOp53
 70
     0
102
RTVSPropertyOp54
 70
     0
102
RTVSPropertyOp55
 70
     1
102
RTVSPropertyOp56
 70
     0
102
RTVSPropertyOp57
 70
     0
102
RTVSPropertyOp58
 70
     0
102
RTVSPropertyOp59
 70
     0
102
RTVSPropertyOp60
 70
     0
102
RTVSPropertyOp61
 70
     0
102
RTVSPropertyOp62
 70
     0
  0
XRECORD
  5
87EB
102
{ACAD_REACTORS
330
87EA
102
}
330
87EA
100
AcDbXrecord
280
     1
102
RTVSPost2010Prop28
280
     0
102
RTVSPost2010PropOp28
 70
     1
102
RTVSPost2010Prop29
280
     1
102
RTVSPost2010PropOp29
 70
     1
102
RTVSPost2010Prop30
280
     1
102
RTVSPost2010PropOp30
 70
     1
102
RTVSPost2010Prop31
280
     0
102
RTVSPost2010PropOp31
 70
     1
102
RTVSPost2010Prop32
280
     0
102
RTVSPost2010PropOp32
 70
     1
102
RTVSPost2010Prop33
280
     0
102
RTVSPost2010PropOp33
 70
     1
102
RTVSPost2010Prop34
280
     0
102
RTVSPost2010PropOp34
 70
     1
102
RTVSPost2010Prop35
280
     0
102
RTVSPost2010PropOp35
 70
     1
102
RTVSPost2010Prop36
280
     0
102
RTVSPost2010PropOp36
 70
     1
102
RTVSPost2010Prop37
 90
       50
102
RTVSPost2010PropOp37
 70
     1
102
RTVSPost2010Prop38
140
0.0
102
RTVSPost2010PropOp38
 70
     1
102
RTVSPost2010Prop39
140
1.0
102
RTVSPost2010PropOp39
 70
     1
102
RTVSPost2010Prop40
 90
        0
102
RTVSPost2010PropOp40
 70
     1
102
RTVSPost2010Prop41ColorIndex
 90
       18
102
RTVSPost2010Prop41ColorRGB
 90
        0
102
RTVSPost2010PropOp41
 70
     1
102
RTVSPost2010Prop42
 90
       50
102
RTVSPost2010PropOp42
 70
     1
102
RTVSPost2010Prop43
 90
        3
102
RTVSPost2010PropOp43
 70
     1
102
RTVSPost2010Prop44ColorIndex
 90
        5
102
RTVSPost2010Prop44ColorRGB
 90
      255
102
RTVSPost2010PropOp44
 70
     1
102
RTVSPost2010Prop45
280
     0
102
RTVSPost2010PropOp45
 70
     1
102
RTVSPost2010Prop46
 90
       50
102
RTVSPost2010PropOp46
 70
     1
102
RTVSPost2010Prop47
 90
       50
102
RTVSPost2010PropOp47
 70
     1
102
RTVSPost2010Prop48
 90
       50
102
RTVSPost2010PropOp48
 70
     1
102
RTVSPost2010Prop49
280
     0
102
RTVSPost2010PropOp49
 70
     1
102
RTVSPost2010Prop50
 90
       50
102
RTVSPost2010PropOp50
 70
     1
102
RTVSPost2010Prop51ColorIndex
 90
      256
102
RTVSPost2010Prop51ColorRGB
 90
-16777216
102
RTVSPost2010PropOp51
 70
     0
102
RTVSPost2010Prop52
140
1.0
102
RTVSPost2010PropOp52
 70
     0
102
RTVSPost2010Prop53
 90
        2
102
RTVSPost2010PropOp53
 70
     1
102
RTVSPost2010Prop54
  1
strokes_ogs.tif
102
RTVSPost2010PropOp54
 70
     1
102
RTVSPost2010Prop55
280
     0
102
RTVSPost2010PropOp55
 70
     1
102
RTVSPost2010Prop56
140
1.0
102
RTVSPost2010PropOp56
 70
     1
102
RTVSPost2010Prop57
140
1.0
102
RTVSPost2010PropOp57
 70
     1
102
RTVSPropertyOp0
 70
     1
102
RTVSPropertyOp1
 70
     1
102
RTVSPropertyOp2
 70
     1
102
RTVSPropertyOp3
 70
     1
102
RTVSPropertyOp4
 70
     1
102
RTVSPropertyOp5
 70
     1
102
RTVSPropertyOp6
 70
     1
102
RTVSPropertyOp7
 70
     1
102
RTVSPropertyOp8
 70
     1
102
RTVSPropertyOp9
 70
     1
102
RTVSPropertyOp10
 70
     1
102
RTVSPropertyOp11
 70
     1
102
RTVSPropertyOp12
 70
     1
102
RTVSPropertyOp13
 70
     1
102
RTVSPropertyOp14
 70
     1
102
RTVSPropertyOp15
 70
     1
102
RTVSPropertyOp16
 70
     1
102
RTVSPropertyOp17
 70
     1
102
RTVSPropertyOp18
 70
     1
102
RTVSPropertyOp19
 70
     1
102
RTVSPropertyOp20
 70
     1
102
RTVSPropertyOp21
 70
     1
102
RTVSPropertyOp22
 70
     1
102
RTVSPropertyOp23
 70
     1
102
RTVSPropertyOp24
 70
     1
102
RTVSPropertyOp25
 70
     1
102
RTVSPropertyOp26
 70
     1
102
RTVSPropertyOp27
 70
     1
102
RTVSPropertyOp28
 70
     1
102
RTVSPropertyOp29
 70
     1
102
RTVSPropertyOp30
 70
     1
102
RTVSPropertyOp31
 70
     1
102
RTVSPropertyOp32
 70
     1
102
RTVSPropertyOp33
 70
     1
102
RTVSPropertyOp34
 70
     1
102
RTVSPropertyOp35
 70
     1
102
RTVSPropertyOp36
 70
     1
102
RTVSPropertyOp37
 70
     1
102
RTVSPropertyOp38
 70
     1
102
RTVSPropertyOp39
 70
     1
102
RTVSPropertyOp40
 70
     1
102
RTVSPropertyOp41
 70
     1
102
RTVSPropertyOp42
 70
     1
102
RTVSPropertyOp43
 70
     1
102
RTVSPropertyOp44
 70
     1
102
RTVSPropertyOp45
 70
     1
102
RTVSPropertyOp46
 70
     1
102
RTVSPropertyOp47
 70
     1
102
RTVSPropertyOp48
 70
     1
102
RTVSPropertyOp49
 70
     1
102
RTVSPropertyOp50
 70
     1
102
RTVSPropertyOp51
 70
     0
102
RTVSPropertyOp52
 70
     0
102
RTVSPropertyOp53
 70
     1
102
RTVSPropertyOp54
 70
     1
102
RTVSPropertyOp55
 70
     1
102
RTVSPropertyOp56
 70
     1
102
RTVSPropertyOp57
 70
     1
102
RTVSPropertyOp58
 70
     1
102
RTVSPropertyOp59
 70
     1
102
RTVSPropertyOp60
 70
     1
102
RTVSPropertyOp61
 70
     1
102
RTVSPropertyOp62
 70
     1
  0
XRECORD
  5
87CF
102
{ACAD_REACTORS
330
87CE
102
}
330
87CE
100
AcDbXrecord
280
     1
102
RTVSPost2010Prop28
280
     0
102
RTVSPost2010PropOp28
 70
     1
102
RTVSPost2010Prop29
280
     1
102
RTVSPost2010PropOp29
 70
     1
102
RTVSPost2010Prop30
280
     1
102
RTVSPost2010PropOp30
 70
     1
102
RTVSPost2010Prop31
280
     0
102
RTVSPost2010PropOp31
 70
     1
102
RTVSPost2010Prop32
280
     0
102
RTVSPost2010PropOp32
 70
     1
102
RTVSPost2010Prop33
280
     0
102
RTVSPost2010PropOp33
 70
     1
102
RTVSPost2010Prop34
280
     0
102
RTVSPost2010PropOp34
 70
     1
102
RTVSPost2010Prop35
280
     0
102
RTVSPost2010PropOp35
 70
     1
102
RTVSPost2010Prop36
280
     0
102
RTVSPost2010PropOp36
 70
     1
102
RTVSPost2010Prop37
 90
       50
102
RTVSPost2010PropOp37
 70
     1
102
RTVSPost2010Prop38
140
0.0
102
RTVSPost2010PropOp38
 70
     1
102
RTVSPost2010Prop39
140
1.0
102
RTVSPost2010PropOp39
 70
     1
102
RTVSPost2010Prop40
 90
        0
102
RTVSPost2010PropOp40
 70
     1
102
RTVSPost2010Prop41ColorIndex
 90
       18
102
RTVSPost2010Prop41ColorRGB
 90
        0
102
RTVSPost2010PropOp41
 70
     1
102
RTVSPost2010Prop42
 90
       50
102
RTVSPost2010PropOp42
 70
     1
102
RTVSPost2010Prop43
 90
        3
102
RTVSPost2010PropOp43
 70
     1
102
RTVSPost2010Prop44ColorIndex
 90
        5
102
RTVSPost2010Prop44ColorRGB
 90
      255
102
RTVSPost2010PropOp44
 70
     1
102
RTVSPost2010Prop45
280
     0
102
RTVSPost2010PropOp45
 70
     1
102
RTVSPost2010Prop46
 90
       50
102
RTVSPost2010PropOp46
 70
     1
102
RTVSPost2010Prop47
 90
       50
102
RTVSPost2010PropOp47
 70
     1
102
RTVSPost2010Prop48
 90
       50
102
RTVSPost2010PropOp48
 70
     1
102
RTVSPost2010Prop49
280
     0
102
RTVSPost2010PropOp49
 70
     1
102
RTVSPost2010Prop50
 90
       50
102
RTVSPost2010PropOp50
 70
     1
102
RTVSPost2010Prop51ColorIndex
 90
      256
102
RTVSPost2010Prop51ColorRGB
 90
-16777216
102
RTVSPost2010PropOp51
 70
     0
102
RTVSPost2010Prop52
140
1.0
102
RTVSPost2010PropOp52
 70
     0
102
RTVSPost2010Prop53
 90
        2
102
RTVSPost2010PropOp53
 70
     1
102
RTVSPost2010Prop54
  1
strokes_ogs.tif
102
RTVSPost2010PropOp54
 70
     1
102
RTVSPost2010Prop55
280
     0
102
RTVSPost2010PropOp55
 70
     1
102
RTVSPost2010Prop56
140
1.0
102
RTVSPost2010PropOp56
 70
     1
102
RTVSPost2010Prop57
140
1.0
102
RTVSPost2010PropOp57
 70
     1
102
RTVSPropertyOp0
 70
     1
102
RTVSPropertyOp1
 70
     1
102
RTVSPropertyOp2
 70
     1
102
RTVSPropertyOp3
 70
     1
102
RTVSPropertyOp4
 70
     1
102
RTVSPropertyOp5
 70
     1
102
RTVSPropertyOp6
 70
     1
102
RTVSPropertyOp7
 70
     1
102
RTVSPropertyOp8
 70
     1
102
RTVSPropertyOp9
 70
     1
102
RTVSPropertyOp10
 70
     1
102
RTVSPropertyOp11
 70
     1
102
RTVSPropertyOp12
 70
     1
102
RTVSPropertyOp13
 70
     1
102
RTVSPropertyOp14
 70
     1
102
RTVSPropertyOp15
 70
     1
102
RTVSPropertyOp16
 70
     1
102
RTVSPropertyOp17
 70
     1
102
RTVSPropertyOp18
 70
     1
102
RTVSPropertyOp19
 70
     1
102
RTVSPropertyOp20
 70
     1
102
RTVSPropertyOp21
 70
     1
102
RTVSPropertyOp22
 70
     1
102
RTVSPropertyOp23
 70
     1
102
RTVSPropertyOp24
 70
     1
102
RTVSPropertyOp25
 70
     1
102
RTVSPropertyOp26
 70
     1
102
RTVSPropertyOp27
 70
     1
102
RTVSPropertyOp28
 70
     1
102
RTVSPropertyOp29
 70
     1
102
RTVSPropertyOp30
 70
     1
102
RTVSPropertyOp31
 70
     1
102
RTVSPropertyOp32
 70
     1
102
RTVSPropertyOp33
 70
     1
102
RTVSPropertyOp34
 70
     1
102
RTVSPropertyOp35
 70
     1
102
RTVSPropertyOp36
 70
     1
102
RTVSPropertyOp37
 70
     1
102
RTVSPropertyOp38
 70
     1
102
RTVSPropertyOp39
 70
     1
102
RTVSPropertyOp40
 70
     1
102
RTVSPropertyOp41
 70
     1
102
RTVSPropertyOp42
 70
     1
102
RTVSPropertyOp43
 70
     1
102
RTVSPropertyOp44
 70
     1
102
RTVSPropertyOp45
 70
     1
102
RTVSPropertyOp46
 70
     1
102
RTVSPropertyOp47
 70
     1
102
RTVSPropertyOp48
 70
     1
102
RTVSPropertyOp49
 70
     1
102
RTVSPropertyOp50
 70
     1
102
RTVSPropertyOp51
 70
     0
102
RTVSPropertyOp52
 70
     0
102
RTVSPropertyOp53
 70
     1
102
RTVSPropertyOp54
 70
     1
102
RTVSPropertyOp55
 70
     1
102
RTVSPropertyOp56
 70
     1
102
RTVSPropertyOp57
 70
     1
102
RTVSPropertyOp58
 70
     1
102
RTVSPropertyOp59
 70
     1
102
RTVSPropertyOp60
 70
     1
102
RTVSPropertyOp61
 70
     1
102
RTVSPropertyOp62
 70
     1
  0
XRECORD
  5
87D1
102
{ACAD_REACTORS
330
87D0
102
}
330
87D0
100
AcDbXrecord
280
     1
102
RTVSPost2010Prop28
280
     0
102
RTVSPost2010PropOp28
 70
     1
102
RTVSPost2010Prop29
280
     1
102
RTVSPost2010PropOp29
 70
     1
102
RTVSPost2010Prop30
280
     1
102
RTVSPost2010PropOp30
 70
     1
102
RTVSPost2010Prop31
280
     0
102
RTVSPost2010PropOp31
 70
     1
102
RTVSPost2010Prop32
280
     0
102
RTVSPost2010PropOp32
 70
     1
102
RTVSPost2010Prop33
280
     0
102
RTVSPost2010PropOp33
 70
     1
102
RTVSPost2010Prop34
280
     0
102
RTVSPost2010PropOp34
 70
     1
102
RTVSPost2010Prop35
280
     0
102
RTVSPost2010PropOp35
 70
     1
102
RTVSPost2010Prop36
280
     0
102
RTVSPost2010PropOp36
 70
     1
102
RTVSPost2010Prop37
 90
       50
102
RTVSPost2010PropOp37
 70
     1
102
RTVSPost2010Prop38
140
0.0
102
RTVSPost2010PropOp38
 70
     1
102
RTVSPost2010Prop39
140
1.0
102
RTVSPost2010PropOp39
 70
     1
102
RTVSPost2010Prop40
 90
        0
102
RTVSPost2010PropOp40
 70
     1
102
RTVSPost2010Prop41ColorIndex
 90
       18
102
RTVSPost2010Prop41ColorRGB
 90
        0
102
RTVSPost2010PropOp41
 70
     1
102
RTVSPost2010Prop42
 90
       50
102
RTVSPost2010PropOp42
 70
     1
102
RTVSPost2010Prop43
 90
        3
102
RTVSPost2010PropOp43
 70
     1
102
RTVSPost2010Prop44ColorIndex
 90
        5
102
RTVSPost2010Prop44ColorRGB
 90
      255
102
RTVSPost2010PropOp44
 70
     1
102
RTVSPost2010Prop45
280
     0
102
RTVSPost2010PropOp45
 70
     1
102
RTVSPost2010Prop46
 90
       50
102
RTVSPost2010PropOp46
 70
     1
102
RTVSPost2010Prop47
 90
       50
102
RTVSPost2010PropOp47
 70
     1
102
RTVSPost2010Prop48
 90
       50
102
RTVSPost2010PropOp48
 70
     1
102
RTVSPost2010Prop49
280
     0
102
RTVSPost2010PropOp49
 70
     1
102
RTVSPost2010Prop50
 90
       50
102
RTVSPost2010PropOp50
 70
     1
102
RTVSPost2010Prop51ColorIndex
 90
      256
102
RTVSPost2010Prop51ColorRGB
 90
-16777216
102
RTVSPost2010PropOp51
 70
     0
102
RTVSPost2010Prop52
140
1.0
102
RTVSPost2010PropOp52
 70
     0
102
RTVSPost2010Prop53
 90
        2
102
RTVSPost2010PropOp53
 70
     1
102
RTVSPost2010Prop54
  1
strokes_ogs.tif
102
RTVSPost2010PropOp54
 70
     1
102
RTVSPost2010Prop55
280
     0
102
RTVSPost2010PropOp55
 70
     1
102
RTVSPost2010Prop56
140
1.0
102
RTVSPost2010PropOp56
 70
     1
102
RTVSPost2010Prop57
140
1.0
102
RTVSPost2010PropOp57
 70
     1
102
RTVSPropertyOp0
 70
     1
102
RTVSPropertyOp1
 70
     1
102
RTVSPropertyOp2
 70
     1
102
RTVSPropertyOp3
 70
     1
102
RTVSPropertyOp4
 70
     1
102
RTVSPropertyOp5
 70
     1
102
RTVSPropertyOp6
 70
     1
102
RTVSPropertyOp7
 70
     1
102
RTVSPropertyOp8
 70
     1
102
RTVSPropertyOp9
 70
     1
102
RTVSPropertyOp10
 70
     1
102
RTVSPropertyOp11
 70
     1
102
RTVSPropertyOp12
 70
     1
102
RTVSPropertyOp13
 70
     1
102
RTVSPropertyOp14
 70
     1
102
RTVSPropertyOp15
 70
     1
102
RTVSPropertyOp16
 70
     1
102
RTVSPropertyOp17
 70
     1
102
RTVSPropertyOp18
 70
     1
102
RTVSPropertyOp19
 70
     1
102
RTVSPropertyOp20
 70
     1
102
RTVSPropertyOp21
 70
     1
102
RTVSPropertyOp22
 70
     1
102
RTVSPropertyOp23
 70
     1
102
RTVSPropertyOp24
 70
     1
102
RTVSPropertyOp25
 70
     1
102
RTVSPropertyOp26
 70
     1
102
RTVSPropertyOp27
 70
     1
102
RTVSPropertyOp28
 70
     1
102
RTVSPropertyOp29
 70
     1
102
RTVSPropertyOp30
 70
     1
102
RTVSPropertyOp31
 70
     1
102
RTVSPropertyOp32
 70
     1
102
RTVSPropertyOp33
 70
     1
102
RTVSPropertyOp34
 70
     1
102
RTVSPropertyOp35
 70
     1
102
RTVSPropertyOp36
 70
     1
102
RTVSPropertyOp37
 70
     1
102
RTVSPropertyOp38
 70
     1
102
RTVSPropertyOp39
 70
     1
102
RTVSPropertyOp40
 70
     1
102
RTVSPropertyOp41
 70
     1
102
RTVSPropertyOp42
 70
     1
102
RTVSPropertyOp43
 70
     1
102
RTVSPropertyOp44
 70
     1
102
RTVSPropertyOp45
 70
     1
102
RTVSPropertyOp46
 70
     1
102
RTVSPropertyOp47
 70
     1
102
RTVSPropertyOp48
 70
     1
102
RTVSPropertyOp49
 70
     1
102
RTVSPropertyOp50
 70
     1
102
RTVSPropertyOp51
 70
     0
102
RTVSPropertyOp52
 70
     0
102
RTVSPropertyOp53
 70
     1
102
RTVSPropertyOp54
 70
     1
102
RTVSPropertyOp55
 70
     1
102
RTVSPropertyOp56
 70
     1
102
RTVSPropertyOp57
 70
     1
102
RTVSPropertyOp58
 70
     1
102
RTVSPropertyOp59
 70
     1
102
RTVSPropertyOp60
 70
     1
102
RTVSPropertyOp61
 70
     1
102
RTVSPropertyOp62
 70
     1
  0
XRECORD
  5
87D3
102
{ACAD_REACTORS
330
87D2
102
}
330
87D2
100
AcDbXrecord
280
     1
102
RTVSPost2010Prop28
280
     0
102
RTVSPost2010PropOp28
 70
     1
102
RTVSPost2010Prop29
280
     1
102
RTVSPost2010PropOp29
 70
     1
102
RTVSPost2010Prop30
280
     1
102
RTVSPost2010PropOp30
 70
     1
102
RTVSPost2010Prop31
280
     0
102
RTVSPost2010PropOp31
 70
     1
102
RTVSPost2010Prop32
280
     0
102
RTVSPost2010PropOp32
 70
     1
102
RTVSPost2010Prop33
280
     0
102
RTVSPost2010PropOp33
 70
     1
102
RTVSPost2010Prop34
280
     0
102
RTVSPost2010PropOp34
 70
     1
102
RTVSPost2010Prop35
280
     0
102
RTVSPost2010PropOp35
 70
     1
102
RTVSPost2010Prop36
280
     0
102
RTVSPost2010PropOp36
 70
     1
102
RTVSPost2010Prop37
 90
       50
102
RTVSPost2010PropOp37
 70
     1
102
RTVSPost2010Prop38
140
0.0
102
RTVSPost2010PropOp38
 70
     1
102
RTVSPost2010Prop39
140
1.0
102
RTVSPost2010PropOp39
 70
     1
102
RTVSPost2010Prop40
 90
        0
102
RTVSPost2010PropOp40
 70
     1
102
RTVSPost2010Prop41ColorIndex
 90
       18
102
RTVSPost2010Prop41ColorRGB
 90
        0
102
RTVSPost2010PropOp41
 70
     1
102
RTVSPost2010Prop42
 90
       50
102
RTVSPost2010PropOp42
 70
     1
102
RTVSPost2010Prop43
 90
        3
102
RTVSPost2010PropOp43
 70
     1
102
RTVSPost2010Prop44ColorIndex
 90
        5
102
RTVSPost2010Prop44ColorRGB
 90
      255
102
RTVSPost2010PropOp44
 70
     1
102
RTVSPost2010Prop45
280
     0
102
RTVSPost2010PropOp45
 70
     1
102
RTVSPost2010Prop46
 90
       50
102
RTVSPost2010PropOp46
 70
     1
102
RTVSPost2010Prop47
 90
       50
102
RTVSPost2010PropOp47
 70
     1
102
RTVSPost2010Prop48
 90
       50
102
RTVSPost2010PropOp48
 70
     1
102
RTVSPost2010Prop49
280
     0
102
RTVSPost2010PropOp49
 70
     1
102
RTVSPost2010Prop50
 90
       50
102
RTVSPost2010PropOp50
 70
     1
102
RTVSPost2010Prop51ColorIndex
 90
      256
102
RTVSPost2010Prop51ColorRGB
 90
-16777216
102
RTVSPost2010PropOp51
 70
     0
102
RTVSPost2010Prop52
140
1.0
102
RTVSPost2010PropOp52
 70
     0
102
RTVSPost2010Prop53
 90
        2
102
RTVSPost2010PropOp53
 70
     1
102
RTVSPost2010Prop54
  1
strokes_ogs.tif
102
RTVSPost2010PropOp54
 70
     1
102
RTVSPost2010Prop55
280
     0
102
RTVSPost2010PropOp55
 70
     1
102
RTVSPost2010Prop56
140
1.0
102
RTVSPost2010PropOp56
 70
     1
102
RTVSPost2010Prop57
140
1.0
102
RTVSPost2010PropOp57
 70
     1
102
RTVSPropertyOp0
 70
     1
102
RTVSPropertyOp1
 70
     1
102
RTVSPropertyOp2
 70
     1
102
RTVSPropertyOp3
 70
     1
102
RTVSPropertyOp4
 70
     1
102
RTVSPropertyOp5
 70
     1
102
RTVSPropertyOp6
 70
     1
102
RTVSPropertyOp7
 70
     1
102
RTVSPropertyOp8
 70
     1
102
RTVSPropertyOp9
 70
     1
102
RTVSPropertyOp10
 70
     1
102
RTVSPropertyOp11
 70
     1
102
RTVSPropertyOp12
 70
     1
102
RTVSPropertyOp13
 70
     1
102
RTVSPropertyOp14
 70
     1
102
RTVSPropertyOp15
 70
     1
102
RTVSPropertyOp16
 70
     1
102
RTVSPropertyOp17
 70
     1
102
RTVSPropertyOp18
 70
     1
102
RTVSPropertyOp19
 70
     1
102
RTVSPropertyOp20
 70
     1
102
RTVSPropertyOp21
 70
     1
102
RTVSPropertyOp22
 70
     1
102
RTVSPropertyOp23
 70
     1
102
RTVSPropertyOp24
 70
     1
102
RTVSPropertyOp25
 70
     1
102
RTVSPropertyOp26
 70
     1
102
RTVSPropertyOp27
 70
     1
102
RTVSPropertyOp28
 70
     1
102
RTVSPropertyOp29
 70
     1
102
RTVSPropertyOp30
 70
     1
102
RTVSPropertyOp31
 70
     1
102
RTVSPropertyOp32
 70
     1
102
RTVSPropertyOp33
 70
     1
102
RTVSPropertyOp34
 70
     1
102
RTVSPropertyOp35
 70
     1
102
RTVSPropertyOp36
 70
     1
102
RTVSPropertyOp37
 70
     1
102
RTVSPropertyOp38
 70
     1
102
RTVSPropertyOp39
 70
     1
102
RTVSPropertyOp40
 70
     1
102
RTVSPropertyOp41
 70
     1
102
RTVSPropertyOp42
 70
     1
102
RTVSPropertyOp43
 70
     1
102
RTVSPropertyOp44
 70
     1
102
RTVSPropertyOp45
 70
     1
102
RTVSPropertyOp46
 70
     1
102
RTVSPropertyOp47
 70
     1
102
RTVSPropertyOp48
 70
     1
102
RTVSPropertyOp49
 70
     1
102
RTVSPropertyOp50
 70
     1
102
RTVSPropertyOp51
 70
     0
102
RTVSPropertyOp52
 70
     0
102
RTVSPropertyOp53
 70
     1
102
RTVSPropertyOp54
 70
     1
102
RTVSPropertyOp55
 70
     1
102
RTVSPropertyOp56
 70
     1
102
RTVSPropertyOp57
 70
     1
102
RTVSPropertyOp58
 70
     1
102
RTVSPropertyOp59
 70
     1
102
RTVSPropertyOp60
 70
     1
102
RTVSPropertyOp61
 70
     1
102
RTVSPropertyOp62
 70
     1
  0
XRECORD
  5
87D5
102
{ACAD_REACTORS
330
87D4
102
}
330
87D4
100
AcDbXrecord
280
     1
102
RTVSPost2010Prop28
280
     0
102
RTVSPost2010PropOp28
 70
     1
102
RTVSPost2010Prop29
280
     1
102
RTVSPost2010PropOp29
 70
     1
102
RTVSPost2010Prop30
280
     1
102
RTVSPost2010PropOp30
 70
     1
102
RTVSPost2010Prop31
280
     0
102
RTVSPost2010PropOp31
 70
     1
102
RTVSPost2010Prop32
280
     0
102
RTVSPost2010PropOp32
 70
     1
102
RTVSPost2010Prop33
280
     0
102
RTVSPost2010PropOp33
 70
     1
102
RTVSPost2010Prop34
280
     0
102
RTVSPost2010PropOp34
 70
     1
102
RTVSPost2010Prop35
280
     0
102
RTVSPost2010PropOp35
 70
     1
102
RTVSPost2010Prop36
280
     0
102
RTVSPost2010PropOp36
 70
     1
102
RTVSPost2010Prop37
 90
       50
102
RTVSPost2010PropOp37
 70
     1
102
RTVSPost2010Prop38
140
0.0
102
RTVSPost2010PropOp38
 70
     1
102
RTVSPost2010Prop39
140
1.0
102
RTVSPost2010PropOp39
 70
     1
102
RTVSPost2010Prop40
 90
        0
102
RTVSPost2010PropOp40
 70
     1
102
RTVSPost2010Prop41ColorIndex
 90
       18
102
RTVSPost2010Prop41ColorRGB
 90
        0
102
RTVSPost2010PropOp41
 70
     1
102
RTVSPost2010Prop42
 90
       50
102
RTVSPost2010PropOp42
 70
     1
102
RTVSPost2010Prop43
 90
        3
102
RTVSPost2010PropOp43
 70
     1
102
RTVSPost2010Prop44ColorIndex
 90
        5
102
RTVSPost2010Prop44ColorRGB
 90
      255
102
RTVSPost2010PropOp44
 70
     1
102
RTVSPost2010Prop45
280
     0
102
RTVSPost2010PropOp45
 70
     1
102
RTVSPost2010Prop46
 90
       50
102
RTVSPost2010PropOp46
 70
     1
102
RTVSPost2010Prop47
 90
       50
102
RTVSPost2010PropOp47
 70
     1
102
RTVSPost2010Prop48
 90
       50
102
RTVSPost2010PropOp48
 70
     1
102
RTVSPost2010Prop49
280
     0
102
RTVSPost2010PropOp49
 70
     1
102
RTVSPost2010Prop50
 90
       50
102
RTVSPost2010PropOp50
 70
     1
102
RTVSPost2010Prop51ColorIndex
 90
      256
102
RTVSPost2010Prop51ColorRGB
 90
-16777216
102
RTVSPost2010PropOp51
 70
     0
102
RTVSPost2010Prop52
140
1.0
102
RTVSPost2010PropOp52
 70
     0
102
RTVSPost2010Prop53
 90
        2
102
RTVSPost2010PropOp53
 70
     1
102
RTVSPost2010Prop54
  1
strokes_ogs.tif
102
RTVSPost2010PropOp54
 70
     1
102
RTVSPost2010Prop55
280
     0
102
RTVSPost2010PropOp55
 70
     1
102
RTVSPost2010Prop56
140
1.0
102
RTVSPost2010PropOp56
 70
     1
102
RTVSPost2010Prop57
140
1.0
102
RTVSPost2010PropOp57
 70
     1
102
RTVSPropertyOp0
 70
     1
102
RTVSPropertyOp1
 70
     1
102
RTVSPropertyOp2
 70
     1
102
RTVSPropertyOp3
 70
     1
102
RTVSPropertyOp4
 70
     1
102
RTVSPropertyOp5
 70
     1
102
RTVSPropertyOp6
 70
     1
102
RTVSPropertyOp7
 70
     1
102
RTVSPropertyOp8
 70
     1
102
RTVSPropertyOp9
 70
     1
102
RTVSPropertyOp10
 70
     1
102
RTVSPropertyOp11
 70
     1
102
RTVSPropertyOp12
 70
     1
102
RTVSPropertyOp13
 70
     1
102
RTVSPropertyOp14
 70
     1
102
RTVSPropertyOp15
 70
     1
102
RTVSPropertyOp16
 70
     1
102
RTVSPropertyOp17
 70
     1
102
RTVSPropertyOp18
 70
     1
102
RTVSPropertyOp19
 70
     1
102
RTVSPropertyOp20
 70
     1
102
RTVSPropertyOp21
 70
     1
102
RTVSPropertyOp22
 70
     1
102
RTVSPropertyOp23
 70
     1
102
RTVSPropertyOp24
 70
     1
102
RTVSPropertyOp25
 70
     1
102
RTVSPropertyOp26
 70
     1
102
RTVSPropertyOp27
 70
     1
102
RTVSPropertyOp28
 70
     1
102
RTVSPropertyOp29
 70
     1
102
RTVSPropertyOp30
 70
     1
102
RTVSPropertyOp31
 70
     1
102
RTVSPropertyOp32
 70
     1
102
RTVSPropertyOp33
 70
     1
102
RTVSPropertyOp34
 70
     1
102
RTVSPropertyOp35
 70
     1
102
RTVSPropertyOp36
 70
     1
102
RTVSPropertyOp37
 70
     1
102
RTVSPropertyOp38
 70
     1
102
RTVSPropertyOp39
 70
     1
102
RTVSPropertyOp40
 70
     1
102
RTVSPropertyOp41
 70
     1
102
RTVSPropertyOp42
 70
     1
102
RTVSPropertyOp43
 70
     1
102
RTVSPropertyOp44
 70
     1
102
RTVSPropertyOp45
 70
     1
102
RTVSPropertyOp46
 70
     1
102
RTVSPropertyOp47
 70
     1
102
RTVSPropertyOp48
 70
     1
102
RTVSPropertyOp49
 70
     1
102
RTVSPropertyOp50
 70
     1
102
RTVSPropertyOp51
 70
     0
102
RTVSPropertyOp52
 70
     0
102
RTVSPropertyOp53
 70
     1
102
RTVSPropertyOp54
 70
     1
102
RTVSPropertyOp55
 70
     1
102
RTVSPropertyOp56
 70
     1
102
RTVSPropertyOp57
 70
     1
102
RTVSPropertyOp58
 70
     1
102
RTVSPropertyOp59
 70
     1
102
RTVSPropertyOp60
 70
     1
102
RTVSPropertyOp61
 70
     1
102
RTVSPropertyOp62
 70
     1
  0
XRECORD
  5
87DD
102
{ACAD_REACTORS
330
87DC
102
}
330
87DC
100
AcDbXrecord
280
     1
102
RTVSPost2010Prop28
280
     0
102
RTVSPost2010PropOp28
 70
     1
102
RTVSPost2010Prop29
280
     1
102
RTVSPost2010PropOp29
 70
     1
102
RTVSPost2010Prop30
280
     1
102
RTVSPost2010PropOp30
 70
     1
102
RTVSPost2010Prop31
280
     0
102
RTVSPost2010PropOp31
 70
     1
102
RTVSPost2010Prop32
280
     0
102
RTVSPost2010PropOp32
 70
     1
102
RTVSPost2010Prop33
280
     0
102
RTVSPost2010PropOp33
 70
     1
102
RTVSPost2010Prop34
280
     0
102
RTVSPost2010PropOp34
 70
     1
102
RTVSPost2010Prop35
280
     0
102
RTVSPost2010PropOp35
 70
     1
102
RTVSPost2010Prop36
280
     0
102
RTVSPost2010PropOp36
 70
     1
102
RTVSPost2010Prop37
 90
       50
102
RTVSPost2010PropOp37
 70
     1
102
RTVSPost2010Prop38
140
0.0
102
RTVSPost2010PropOp38
 70
     1
102
RTVSPost2010Prop39
140
1.0
102
RTVSPost2010PropOp39
 70
     1
102
RTVSPost2010Prop40
 90
        0
102
RTVSPost2010PropOp40
 70
     1
102
RTVSPost2010Prop41ColorIndex
 90
       18
102
RTVSPost2010Prop41ColorRGB
 90
        0
102
RTVSPost2010PropOp41
 70
     1
102
RTVSPost2010Prop42
 90
       50
102
RTVSPost2010PropOp42
 70
     1
102
RTVSPost2010Prop43
 90
        3
102
RTVSPost2010PropOp43
 70
     1
102
RTVSPost2010Prop44ColorIndex
 90
        5
102
RTVSPost2010Prop44ColorRGB
 90
      255
102
RTVSPost2010PropOp44
 70
     1
102
RTVSPost2010Prop45
280
     0
102
RTVSPost2010PropOp45
 70
     1
102
RTVSPost2010Prop46
 90
       50
102
RTVSPost2010PropOp46
 70
     1
102
RTVSPost2010Prop47
 90
       50
102
RTVSPost2010PropOp47
 70
     1
102
RTVSPost2010Prop48
 90
       50
102
RTVSPost2010PropOp48
 70
     1
102
RTVSPost2010Prop49
280
     0
102
RTVSPost2010PropOp49
 70
     1
102
RTVSPost2010Prop50
 90
       50
102
RTVSPost2010PropOp50
 70
     1
102
RTVSPost2010Prop51ColorIndex
 90
      256
102
RTVSPost2010Prop51ColorRGB
 90
-16777216
102
RTVSPost2010PropOp51
 70
     0
102
RTVSPost2010Prop52
140
1.0
102
RTVSPost2010PropOp52
 70
     0
102
RTVSPost2010Prop53
 90
        2
102
RTVSPost2010PropOp53
 70
     1
102
RTVSPost2010Prop54
  1
strokes_ogs.tif
102
RTVSPost2010PropOp54
 70
     1
102
RTVSPost2010Prop55
280
     0
102
RTVSPost2010PropOp55
 70
     1
102
RTVSPost2010Prop56
140
1.0
102
RTVSPost2010PropOp56
 70
     1
102
RTVSPost2010Prop57
140
1.0
102
RTVSPost2010PropOp57
 70
     1
102
RTVSPropertyOp0
 70
     1
102
RTVSPropertyOp1
 70
     1
102
RTVSPropertyOp2
 70
     1
102
RTVSPropertyOp3
 70
     1
102
RTVSPropertyOp4
 70
     1
102
RTVSPropertyOp5
 70
     1
102
RTVSPropertyOp6
 70
     1
102
RTVSPropertyOp7
 70
     1
102
RTVSPropertyOp8
 70
     1
102
RTVSPropertyOp9
 70
     1
102
RTVSPropertyOp10
 70
     1
102
RTVSPropertyOp11
 70
     1
102
RTVSPropertyOp12
 70
     1
102
RTVSPropertyOp13
 70
     1
102
RTVSPropertyOp14
 70
     1
102
RTVSPropertyOp15
 70
     1
102
RTVSPropertyOp16
 70
     1
102
RTVSPropertyOp17
 70
     1
102
RTVSPropertyOp18
 70
     1
102
RTVSPropertyOp19
 70
     1
102
RTVSPropertyOp20
 70
     1
102
RTVSPropertyOp21
 70
     1
102
RTVSPropertyOp22
 70
     1
102
RTVSPropertyOp23
 70
     1
102
RTVSPropertyOp24
 70
     1
102
RTVSPropertyOp25
 70
     1
102
RTVSPropertyOp26
 70
     1
102
RTVSPropertyOp27
 70
     1
102
RTVSPropertyOp28
 70
     1
102
RTVSPropertyOp29
 70
     1
102
RTVSPropertyOp30
 70
     1
102
RTVSPropertyOp31
 70
     1
102
RTVSPropertyOp32
 70
     1
102
RTVSPropertyOp33
 70
     1
102
RTVSPropertyOp34
 70
     1
102
RTVSPropertyOp35
 70
     1
102
RTVSPropertyOp36
 70
     1
102
RTVSPropertyOp37
 70
     1
102
RTVSPropertyOp38
 70
     1
102
RTVSPropertyOp39
 70
     1
102
RTVSPropertyOp40
 70
     1
102
RTVSPropertyOp41
 70
     1
102
RTVSPropertyOp42
 70
     1
102
RTVSPropertyOp43
 70
     1
102
RTVSPropertyOp44
 70
     1
102
RTVSPropertyOp45
 70
     1
102
RTVSPropertyOp46
 70
     1
102
RTVSPropertyOp47
 70
     1
102
RTVSPropertyOp48
 70
     1
102
RTVSPropertyOp49
 70
     1
102
RTVSPropertyOp50
 70
     1
102
RTVSPropertyOp51
 70
     0
102
RTVSPropertyOp52
 70
     0
102
RTVSPropertyOp53
 70
     1
102
RTVSPropertyOp54
 70
     1
102
RTVSPropertyOp55
 70
     1
102
RTVSPropertyOp56
 70
     1
102
RTVSPropertyOp57
 70
     1
102
RTVSPropertyOp58
 70
     1
102
RTVSPropertyOp59
 70
     1
102
RTVSPropertyOp60
 70
     1
102
RTVSPropertyOp61
 70
     1
102
RTVSPropertyOp62
 70
     1
  0
XRECORD
  5
87F9
102
{ACAD_REACTORS
330
87F8
102
}
330
87F8
100
AcDbXrecord
280
     1
102
RTVSPost2010Prop28
280
     0
102
RTVSPost2010PropOp28
 70
     1
102
RTVSPost2010Prop29
280
     1
102
RTVSPost2010PropOp29
 70
     1
102
RTVSPost2010Prop30
280
     1
102
RTVSPost2010PropOp30
 70
     1
102
RTVSPost2010Prop31
280
     0
102
RTVSPost2010PropOp31
 70
     1
102
RTVSPost2010Prop32
280
     0
102
RTVSPost2010PropOp32
 70
     1
102
RTVSPost2010Prop33
280
     0
102
RTVSPost2010PropOp33
 70
     1
102
RTVSPost2010Prop34
280
     0
102
RTVSPost2010PropOp34
 70
     1
102
RTVSPost2010Prop35
280
     0
102
RTVSPost2010PropOp35
 70
     1
102
RTVSPost2010Prop36
280
     0
102
RTVSPost2010PropOp36
 70
     1
102
RTVSPost2010Prop37
 90
       50
102
RTVSPost2010PropOp37
 70
     0
102
RTVSPost2010Prop38
140
0.0
102
RTVSPost2010PropOp38
 70
     0
102
RTVSPost2010Prop39
140
1.0
102
RTVSPost2010PropOp39
 70
     0
102
RTVSPost2010Prop40
 90
        0
102
RTVSPost2010PropOp40
 70
     0
102
RTVSPost2010Prop41ColorIndex
 90
       18
102
RTVSPost2010Prop41ColorRGB
 90
        0
102
RTVSPost2010PropOp41
 70
     0
102
RTVSPost2010Prop42
 90
       50
102
RTVSPost2010PropOp42
 70
     0
102
RTVSPost2010Prop43
 90
        3
102
RTVSPost2010PropOp43
 70
     0
102
RTVSPost2010Prop44ColorIndex
 90
        5
102
RTVSPost2010Prop44ColorRGB
 90
      255
102
RTVSPost2010PropOp44
 70
     0
102
RTVSPost2010Prop45
280
     0
102
RTVSPost2010PropOp45
 70
     1
102
RTVSPost2010Prop46
 90
       50
102
RTVSPost2010PropOp46
 70
     0
102
RTVSPost2010Prop47
 90
       50
102
RTVSPost2010PropOp47
 70
     0
102
RTVSPost2010Prop48
 90
       50
102
RTVSPost2010PropOp48
 70
     0
102
RTVSPost2010Prop49
280
     0
102
RTVSPost2010PropOp49
 70
     1
102
RTVSPost2010Prop50
 90
       50
102
RTVSPost2010PropOp50
 70
     0
102
RTVSPost2010Prop51ColorIndex
 90
      256
102
RTVSPost2010Prop51ColorRGB
 90
-16777216
102
RTVSPost2010PropOp51
 70
     0
102
RTVSPost2010Prop52
140
1.0
102
RTVSPost2010PropOp52
 70
     0
102
RTVSPost2010Prop53
 90
        2
102
RTVSPost2010PropOp53
 70
     0
102
RTVSPost2010Prop54
  1
strokes_ogs.tif
102
RTVSPost2010PropOp54
 70
     0
102
RTVSPost2010Prop55
280
     0
102
RTVSPost2010PropOp55
 70
     1
102
RTVSPost2010Prop56
140
1.0
102
RTVSPost2010PropOp56
 70
     0
102
RTVSPost2010Prop57
140
1.0
102
RTVSPost2010PropOp57
 70
     0
102
RTVSPropertyOp0
 70
     0
102
RTVSPropertyOp1
 70
     0
102
RTVSPropertyOp2
 70
     0
102
RTVSPropertyOp3
 70
     0
102
RTVSPropertyOp4
 70
     0
102
RTVSPropertyOp5
 70
     0
102
RTVSPropertyOp6
 70
     0
102
RTVSPropertyOp7
 70
     0
102
RTVSPropertyOp8
 70
     0
102
RTVSPropertyOp9
 70
     0
102
RTVSPropertyOp10
 70
     0
102
RTVSPropertyOp11
 70
     0
102
RTVSPropertyOp12
 70
     0
102
RTVSPropertyOp13
 70
     0
102
RTVSPropertyOp14
 70
     2
102
RTVSPropertyOp15
 70
     0
102
RTVSPropertyOp16
 70
     0
102
RTVSPropertyOp17
 70
     0
102
RTVSPropertyOp18
 70
     0
102
RTVSPropertyOp19
 70
     0
102
RTVSPropertyOp20
 70
     0
102
RTVSPropertyOp21
 70
     0
102
RTVSPropertyOp22
 70
     0
102
RTVSPropertyOp23
 70
     0
102
RTVSPropertyOp24
 70
     0
102
RTVSPropertyOp25
 70
     0
102
RTVSPropertyOp26
 70
     0
102
RTVSPropertyOp27
 70
     0
102
RTVSPropertyOp28
 70
     1
102
RTVSPropertyOp29
 70
     1
102
RTVSPropertyOp30
 70
     1
102
RTVSPropertyOp31
 70
     1
102
RTVSPropertyOp32
 70
     1
102
RTVSPropertyOp33
 70
     1
102
RTVSPropertyOp34
 70
     1
102
RTVSPropertyOp35
 70
     1
102
RTVSPropertyOp36
 70
     1
102
RTVSPropertyOp37
 70
     0
102
RTVSPropertyOp38
 70
     0
102
RTVSPropertyOp39
 70
     0
102
RTVSPropertyOp40
 70
     0
102
RTVSPropertyOp41
 70
     0
102
RTVSPropertyOp42
 70
     0
102
RTVSPropertyOp43
 70
     0
102
RTVSPropertyOp44
 70
     0
102
RTVSPropertyOp45
 70
     1
102
RTVSPropertyOp46
 70
     0
102
RTVSPropertyOp47
 70
     0
102
RTVSPropertyOp48
 70
     0
102
RTVSPropertyOp49
 70
     1
102
RTVSPropertyOp50
 70
     0
102
RTVSPropertyOp51
 70
     0
102
RTVSPropertyOp52
 70
     0
102
RTVSPropertyOp53
 70
     0
102
RTVSPropertyOp54
 70
     0
102
RTVSPropertyOp55
 70
     1
102
RTVSPropertyOp56
 70
     0
102
RTVSPropertyOp57
 70
     0
102
RTVSPropertyOp58
 70
     0
102
RTVSPropertyOp59
 70
     0
102
RTVSPropertyOp60
 70
     0
102
RTVSPropertyOp61
 70
     0
102
RTVSPropertyOp62
 70
     0
  0
XRECORD
  5
87E9
102
{ACAD_REACTORS
330
87E8
102
}
330
87E8
100
AcDbXrecord
280
     1
102
RTVSPost2010Prop28
280
     0
102
RTVSPost2010PropOp28
 70
     1
102
RTVSPost2010Prop29
280
     1
102
RTVSPost2010PropOp29
 70
     1
102
RTVSPost2010Prop30
280
     1
102
RTVSPost2010PropOp30
 70
     1
102
RTVSPost2010Prop31
280
     0
102
RTVSPost2010PropOp31
 70
     1
102
RTVSPost2010Prop32
280
     0
102
RTVSPost2010PropOp32
 70
     1
102
RTVSPost2010Prop33
280
     0
102
RTVSPost2010PropOp33
 70
     1
102
RTVSPost2010Prop34
280
     0
102
RTVSPost2010PropOp34
 70
     1
102
RTVSPost2010Prop35
280
     0
102
RTVSPost2010PropOp35
 70
     1
102
RTVSPost2010Prop36
280
     0
102
RTVSPost2010PropOp36
 70
     1
102
RTVSPost2010Prop37
 90
       50
102
RTVSPost2010PropOp37
 70
     1
102
RTVSPost2010Prop38
140
0.0
102
RTVSPost2010PropOp38
 70
     1
102
RTVSPost2010Prop39
140
1.0
102
RTVSPost2010PropOp39
 70
     1
102
RTVSPost2010Prop40
 90
        0
102
RTVSPost2010PropOp40
 70
     1
102
RTVSPost2010Prop41ColorIndex
 90
       18
102
RTVSPost2010Prop41ColorRGB
 90
        0
102
RTVSPost2010PropOp41
 70
     1
102
RTVSPost2010Prop42
 90
       50
102
RTVSPost2010PropOp42
 70
     1
102
RTVSPost2010Prop43
 90
        3
102
RTVSPost2010PropOp43
 70
     1
102
RTVSPost2010Prop44ColorIndex
 90
        5
102
RTVSPost2010Prop44ColorRGB
 90
      255
102
RTVSPost2010PropOp44
 70
     1
102
RTVSPost2010Prop45
280
     0
102
RTVSPost2010PropOp45
 70
     1
102
RTVSPost2010Prop46
 90
       50
102
RTVSPost2010PropOp46
 70
     1
102
RTVSPost2010Prop47
 90
       50
102
RTVSPost2010PropOp47
 70
     1
102
RTVSPost2010Prop48
 90
       50
102
RTVSPost2010PropOp48
 70
     1
102
RTVSPost2010Prop49
280
     0
102
RTVSPost2010PropOp49
 70
     1
102
RTVSPost2010Prop50
 90
       50
102
RTVSPost2010PropOp50
 70
     1
102
RTVSPost2010Prop51ColorIndex
 90
      256
102
RTVSPost2010Prop51ColorRGB
 90
-16777216
102
RTVSPost2010PropOp51
 70
     0
102
RTVSPost2010Prop52
140
1.0
102
RTVSPost2010PropOp52
 70
     0
102
RTVSPost2010Prop53
 90
        2
102
RTVSPost2010PropOp53
 70
     1
102
RTVSPost2010Prop54
  1
strokes_ogs.tif
102
RTVSPost2010PropOp54
 70
     1
102
RTVSPost2010Prop55
280
     0
102
RTVSPost2010PropOp55
 70
     1
102
RTVSPost2010Prop56
140
1.0
102
RTVSPost2010PropOp56
 70
     1
102
RTVSPost2010Prop57
140
1.0
102
RTVSPost2010PropOp57
 70
     1
102
RTVSPropertyOp0
 70
     1
102
RTVSPropertyOp1
 70
     1
102
RTVSPropertyOp2
 70
     1
102
RTVSPropertyOp3
 70
     1
102
RTVSPropertyOp4
 70
     1
102
RTVSPropertyOp5
 70
     1
102
RTVSPropertyOp6
 70
     1
102
RTVSPropertyOp7
 70
     1
102
RTVSPropertyOp8
 70
     1
102
RTVSPropertyOp9
 70
     1
102
RTVSPropertyOp10
 70
     1
102
RTVSPropertyOp11
 70
     1
102
RTVSPropertyOp12
 70
     1
102
RTVSPropertyOp13
 70
     1
102
RTVSPropertyOp14
 70
     1
102
RTVSPropertyOp15
 70
     1
102
RTVSPropertyOp16
 70
     1
102
RTVSPropertyOp17
 70
     1
102
RTVSPropertyOp18
 70
     1
102
RTVSPropertyOp19
 70
     1
102
RTVSPropertyOp20
 70
     1
102
RTVSPropertyOp21
 70
     1
102
RTVSPropertyOp22
 70
     1
102
RTVSPropertyOp23
 70
     1
102
RTVSPropertyOp24
 70
     1
102
RTVSPropertyOp25
 70
     1
102
RTVSPropertyOp26
 70
     1
102
RTVSPropertyOp27
 70
     1
102
RTVSPropertyOp28
 70
     1
102
RTVSPropertyOp29
 70
     1
102
RTVSPropertyOp30
 70
     1
102
RTVSPropertyOp31
 70
     1
102
RTVSPropertyOp32
 70
     1
102
RTVSPropertyOp33
 70
     1
102
RTVSPropertyOp34
 70
     1
102
RTVSPropertyOp35
 70
     1
102
RTVSPropertyOp36
 70
     1
102
RTVSPropertyOp37
 70
     1
102
RTVSPropertyOp38
 70
     1
102
RTVSPropertyOp39
 70
     1
102
RTVSPropertyOp40
 70
     1
102
RTVSPropertyOp41
 70
     1
102
RTVSPropertyOp42
 70
     1
102
RTVSPropertyOp43
 70
     1
102
RTVSPropertyOp44
 70
     1
102
RTVSPropertyOp45
 70
     1
102
RTVSPropertyOp46
 70
     1
102
RTVSPropertyOp47
 70
     1
102
RTVSPropertyOp48
 70
     1
102
RTVSPropertyOp49
 70
     1
102
RTVSPropertyOp50
 70
     1
102
RTVSPropertyOp51
 70
     0
102
RTVSPropertyOp52
 70
     0
102
RTVSPropertyOp53
 70
     1
102
RTVSPropertyOp54
 70
     1
102
RTVSPropertyOp55
 70
     1
102
RTVSPropertyOp56
 70
     1
102
RTVSPropertyOp57
 70
     1
102
RTVSPropertyOp58
 70
     1
102
RTVSPropertyOp59
 70
     1
102
RTVSPropertyOp60
 70
     1
102
RTVSPropertyOp61
 70
     1
102
RTVSPropertyOp62
 70
     1
  0
XRECORD
  5
87FB
102
{ACAD_REACTORS
330
87FA
102
}
330
87FA
100
AcDbXrecord
280
     1
102
RTVSPost2010Prop28
280
     0
102
RTVSPost2010PropOp28
 70
     1
102
RTVSPost2010Prop29
280
     1
102
RTVSPost2010PropOp29
 70
     1
102
RTVSPost2010Prop30
280
     1
102
RTVSPost2010PropOp30
 70
     1
102
RTVSPost2010Prop31
280
     0
102
RTVSPost2010PropOp31
 70
     1
102
RTVSPost2010Prop32
280
     0
102
RTVSPost2010PropOp32
 70
     1
102
RTVSPost2010Prop33
280
     0
102
RTVSPost2010PropOp33
 70
     1
102
RTVSPost2010Prop34
280
     0
102
RTVSPost2010PropOp34
 70
     1
102
RTVSPost2010Prop35
280
     0
102
RTVSPost2010PropOp35
 70
     1
102
RTVSPost2010Prop36
280
     0
102
RTVSPost2010PropOp36
 70
     1
102
RTVSPost2010Prop37
 90
       50
102
RTVSPost2010PropOp37
 70
     0
102
RTVSPost2010Prop38
140
0.0
102
RTVSPost2010PropOp38
 70
     0
102
RTVSPost2010Prop39
140
1.0
102
RTVSPost2010PropOp39
 70
     0
102
RTVSPost2010Prop40
 90
        0
102
RTVSPost2010PropOp40
 70
     0
102
RTVSPost2010Prop41ColorIndex
 90
       18
102
RTVSPost2010Prop41ColorRGB
 90
        0
102
RTVSPost2010PropOp41
 70
     0
102
RTVSPost2010Prop42
 90
       50
102
RTVSPost2010PropOp42
 70
     0
102
RTVSPost2010Prop43
 90
        3
102
RTVSPost2010PropOp43
 70
     0
102
RTVSPost2010Prop44ColorIndex
 90
        5
102
RTVSPost2010Prop44ColorRGB
 90
      255
102
RTVSPost2010PropOp44
 70
     0
102
RTVSPost2010Prop45
280
     0
102
RTVSPost2010PropOp45
 70
     1
102
RTVSPost2010Prop46
 90
       50
102
RTVSPost2010PropOp46
 70
     0
102
RTVSPost2010Prop47
 90
       50
102
RTVSPost2010PropOp47
 70
     0
102
RTVSPost2010Prop48
 90
       50
102
RTVSPost2010PropOp48
 70
     0
102
RTVSPost2010Prop49
280
     0
102
RTVSPost2010PropOp49
 70
     1
102
RTVSPost2010Prop50
 90
       50
102
RTVSPost2010PropOp50
 70
     0
102
RTVSPost2010Prop51ColorIndex
 90
      256
102
RTVSPost2010Prop51ColorRGB
 90
-16777216
102
RTVSPost2010PropOp51
 70
     0
102
RTVSPost2010Prop52
140
1.0
102
RTVSPost2010PropOp52
 70
     0
102
RTVSPost2010Prop53
 90
        2
102
RTVSPost2010PropOp53
 70
     0
102
RTVSPost2010Prop54
  1
strokes_ogs.tif
102
RTVSPost2010PropOp54
 70
     0
102
RTVSPost2010Prop55
280
     0
102
RTVSPost2010PropOp55
 70
     1
102
RTVSPost2010Prop56
140
1.0
102
RTVSPost2010PropOp56
 70
     0
102
RTVSPost2010Prop57
140
1.0
102
RTVSPost2010PropOp57
 70
     0
102
RTVSPropertyOp0
 70
     0
102
RTVSPropertyOp1
 70
     0
102
RTVSPropertyOp2
 70
     0
102
RTVSPropertyOp3
 70
     0
102
RTVSPropertyOp4
 70
     0
102
RTVSPropertyOp5
 70
     0
102
RTVSPropertyOp6
 70
     0
102
RTVSPropertyOp7
 70
     0
102
RTVSPropertyOp8
 70
     0
102
RTVSPropertyOp9
 70
     0
102
RTVSPropertyOp10
 70
     0
102
RTVSPropertyOp11
 70
     0
102
RTVSPropertyOp12
 70
     0
102
RTVSPropertyOp13
 70
     0
102
RTVSPropertyOp14
 70
     2
102
RTVSPropertyOp15
 70
     0
102
RTVSPropertyOp16
 70
     0
102
RTVSPropertyOp17
 70
     0
102
RTVSPropertyOp18
 70
     0
102
RTVSPropertyOp19
 70
     0
102
RTVSPropertyOp20
 70
     0
102
RTVSPropertyOp21
 70
     0
102
RTVSPropertyOp22
 70
     0
102
RTVSPropertyOp23
 70
     0
102
RTVSPropertyOp24
 70
     0
102
RTVSPropertyOp25
 70
     0
102
RTVSPropertyOp26
 70
     0
102
RTVSPropertyOp27
 70
     0
102
RTVSPropertyOp28
 70
     1
102
RTVSPropertyOp29
 70
     1
102
RTVSPropertyOp30
 70
     1
102
RTVSPropertyOp31
 70
     1
102
RTVSPropertyOp32
 70
     1
102
RTVSPropertyOp33
 70
     1
102
RTVSPropertyOp34
 70
     1
102
RTVSPropertyOp35
 70
     1
102
RTVSPropertyOp36
 70
     1
102
RTVSPropertyOp37
 70
     0
102
RTVSPropertyOp38
 70
     0
102
RTVSPropertyOp39
 70
     0
102
RTVSPropertyOp40
 70
     0
102
RTVSPropertyOp41
 70
     0
102
RTVSPropertyOp42
 70
     0
102
RTVSPropertyOp43
 70
     0
102
RTVSPropertyOp44
 70
     0
102
RTVSPropertyOp45
 70
     1
102
RTVSPropertyOp46
 70
     0
102
RTVSPropertyOp47
 70
     0
102
RTVSPropertyOp48
 70
     0
102
RTVSPropertyOp49
 70
     1
102
RTVSPropertyOp50
 70
     0
102
RTVSPropertyOp51
 70
     0
102
RTVSPropertyOp52
 70
     0
102
RTVSPropertyOp53
 70
     0
102
RTVSPropertyOp54
 70
     0
102
RTVSPropertyOp55
 70
     1
102
RTVSPropertyOp56
 70
     0
102
RTVSPropertyOp57
 70
     0
102
RTVSPropertyOp58
 70
     0
102
RTVSPropertyOp59
 70
     0
102
RTVSPropertyOp60
 70
     0
102
RTVSPropertyOp61
 70
     0
102
RTVSPropertyOp62
 70
     0
  0
XRECORD
  5
87E1
102
{ACAD_REACTORS
330
87E0
102
}
330
87E0
100
AcDbXrecord
280
     1
102
RTVSPost2010Prop28
280
     0
102
RTVSPost2010PropOp28
 70
     1
102
RTVSPost2010Prop29
280
     1
102
RTVSPost2010PropOp29
 70
     1
102
RTVSPost2010Prop30
280
     1
102
RTVSPost2010PropOp30
 70
     1
102
RTVSPost2010Prop31
280
     0
102
RTVSPost2010PropOp31
 70
     1
102
RTVSPost2010Prop32
280
     0
102
RTVSPost2010PropOp32
 70
     1
102
RTVSPost2010Prop33
280
     0
102
RTVSPost2010PropOp33
 70
     1
102
RTVSPost2010Prop34
280
     0
102
RTVSPost2010PropOp34
 70
     1
102
RTVSPost2010Prop35
280
     0
102
RTVSPost2010PropOp35
 70
     1
102
RTVSPost2010Prop36
280
     0
102
RTVSPost2010PropOp36
 70
     1
102
RTVSPost2010Prop37
 90
       50
102
RTVSPost2010PropOp37
 70
     1
102
RTVSPost2010Prop38
140
0.0
102
RTVSPost2010PropOp38
 70
     1
102
RTVSPost2010Prop39
140
1.0
102
RTVSPost2010PropOp39
 70
     1
102
RTVSPost2010Prop40
 90
        0
102
RTVSPost2010PropOp40
 70
     1
102
RTVSPost2010Prop41ColorIndex
 90
       18
102
RTVSPost2010Prop41ColorRGB
 90
        0
102
RTVSPost2010PropOp41
 70
     1
102
RTVSPost2010Prop42
 90
       50
102
RTVSPost2010PropOp42
 70
     1
102
RTVSPost2010Prop43
 90
        3
102
RTVSPost2010PropOp43
 70
     1
102
RTVSPost2010Prop44ColorIndex
 90
        5
102
RTVSPost2010Prop44ColorRGB
 90
      255
102
RTVSPost2010PropOp44
 70
     1
102
RTVSPost2010Prop45
280
     0
102
RTVSPost2010PropOp45
 70
     1
102
RTVSPost2010Prop46
 90
       50
102
RTVSPost2010PropOp46
 70
     1
102
RTVSPost2010Prop47
 90
       50
102
RTVSPost2010PropOp47
 70
     1
102
RTVSPost2010Prop48
 90
       50
102
RTVSPost2010PropOp48
 70
     1
102
RTVSPost2010Prop49
280
     0
102
RTVSPost2010PropOp49
 70
     1
102
RTVSPost2010Prop50
 90
       50
102
RTVSPost2010PropOp50
 70
     1
102
RTVSPost2010Prop51ColorIndex
 90
      256
102
RTVSPost2010Prop51ColorRGB
 90
-16777216
102
RTVSPost2010PropOp51
 70
     0
102
RTVSPost2010Prop52
140
1.0
102
RTVSPost2010PropOp52
 70
     0
102
RTVSPost2010Prop53
 90
        2
102
RTVSPost2010PropOp53
 70
     1
102
RTVSPost2010Prop54
  1
strokes_ogs.tif
102
RTVSPost2010PropOp54
 70
     1
102
RTVSPost2010Prop55
280
     0
102
RTVSPost2010PropOp55
 70
     1
102
RTVSPost2010Prop56
140
1.0
102
RTVSPost2010PropOp56
 70
     1
102
RTVSPost2010Prop57
140
1.0
102
RTVSPost2010PropOp57
 70
     1
102
RTVSPropertyOp0
 70
     1
102
RTVSPropertyOp1
 70
     1
102
RTVSPropertyOp2
 70
     1
102
RTVSPropertyOp3
 70
     1
102
RTVSPropertyOp4
 70
     1
102
RTVSPropertyOp5
 70
     1
102
RTVSPropertyOp6
 70
     1
102
RTVSPropertyOp7
 70
     1
102
RTVSPropertyOp8
 70
     1
102
RTVSPropertyOp9
 70
     1
102
RTVSPropertyOp10
 70
     1
102
RTVSPropertyOp11
 70
     1
102
RTVSPropertyOp12
 70
     1
102
RTVSPropertyOp13
 70
     1
102
RTVSPropertyOp14
 70
     1
102
RTVSPropertyOp15
 70
     1
102
RTVSPropertyOp16
 70
     1
102
RTVSPropertyOp17
 70
     1
102
RTVSPropertyOp18
 70
     1
102
RTVSPropertyOp19
 70
     1
102
RTVSPropertyOp20
 70
     1
102
RTVSPropertyOp21
 70
     1
102
RTVSPropertyOp22
 70
     1
102
RTVSPropertyOp23
 70
     1
102
RTVSPropertyOp24
 70
     1
102
RTVSPropertyOp25
 70
     1
102
RTVSPropertyOp26
 70
     1
102
RTVSPropertyOp27
 70
     1
102
RTVSPropertyOp28
 70
     1
102
RTVSPropertyOp29
 70
     1
102
RTVSPropertyOp30
 70
     1
102
RTVSPropertyOp31
 70
     1
102
RTVSPropertyOp32
 70
     1
102
RTVSPropertyOp33
 70
     1
102
RTVSPropertyOp34
 70
     1
102
RTVSPropertyOp35
 70
     1
102
RTVSPropertyOp36
 70
     1
102
RTVSPropertyOp37
 70
     1
102
RTVSPropertyOp38
 70
     1
102
RTVSPropertyOp39
 70
     1
102
RTVSPropertyOp40
 70
     1
102
RTVSPropertyOp41
 70
     1
102
RTVSPropertyOp42
 70
     1
102
RTVSPropertyOp43
 70
     1
102
RTVSPropertyOp44
 70
     1
102
RTVSPropertyOp45
 70
     1
102
RTVSPropertyOp46
 70
     1
102
RTVSPropertyOp47
 70
     1
102
RTVSPropertyOp48
 70
     1
102
RTVSPropertyOp49
 70
     1
102
RTVSPropertyOp50
 70
     1
102
RTVSPropertyOp51
 70
     0
102
RTVSPropertyOp52
 70
     0
102
RTVSPropertyOp53
 70
     1
102
RTVSPropertyOp54
 70
     1
102
RTVSPropertyOp55
 70
     1
102
RTVSPropertyOp56
 70
     1
102
RTVSPropertyOp57
 70
     1
102
RTVSPropertyOp58
 70
     1
102
RTVSPropertyOp59
 70
     1
102
RTVSPropertyOp60
 70
     1
102
RTVSPropertyOp61
 70
     1
102
RTVSPropertyOp62
 70
     1
  0
XRECORD
  5
87F7
102
{ACAD_REACTORS
330
87F6
102
}
330
87F6
100
AcDbXrecord
280
     1
102
RTVSPost2010Prop28
280
     0
102
RTVSPost2010PropOp28
 70
     1
102
RTVSPost2010Prop29
280
     1
102
RTVSPost2010PropOp29
 70
     1
102
RTVSPost2010Prop30
280
     1
102
RTVSPost2010PropOp30
 70
     1
102
RTVSPost2010Prop31
280
     0
102
RTVSPost2010PropOp31
 70
     1
102
RTVSPost2010Prop32
280
     0
102
RTVSPost2010PropOp32
 70
     1
102
RTVSPost2010Prop33
280
     0
102
RTVSPost2010PropOp33
 70
     1
102
RTVSPost2010Prop34
280
     0
102
RTVSPost2010PropOp34
 70
     1
102
RTVSPost2010Prop35
280
     0
102
RTVSPost2010PropOp35
 70
     1
102
RTVSPost2010Prop36
280
     0
102
RTVSPost2010PropOp36
 70
     1
102
RTVSPost2010Prop37
 90
       50
102
RTVSPost2010PropOp37
 70
     1
102
RTVSPost2010Prop38
140
0.0
102
RTVSPost2010PropOp38
 70
     1
102
RTVSPost2010Prop39
140
1.0
102
RTVSPost2010PropOp39
 70
     1
102
RTVSPost2010Prop40
 90
        0
102
RTVSPost2010PropOp40
 70
     1
102
RTVSPost2010Prop41ColorIndex
 90
       18
102
RTVSPost2010Prop41ColorRGB
 90
        0
102
RTVSPost2010PropOp41
 70
     1
102
RTVSPost2010Prop42
 90
       50
102
RTVSPost2010PropOp42
 70
     1
102
RTVSPost2010Prop43
 90
        3
102
RTVSPost2010PropOp43
 70
     1
102
RTVSPost2010Prop44ColorIndex
 90
        5
102
RTVSPost2010Prop44ColorRGB
 90
      255
102
RTVSPost2010PropOp44
 70
     1
102
RTVSPost2010Prop45
280
     0
102
RTVSPost2010PropOp45
 70
     1
102
RTVSPost2010Prop46
 90
       50
102
RTVSPost2010PropOp46
 70
     1
102
RTVSPost2010Prop47
 90
       50
102
RTVSPost2010PropOp47
 70
     1
102
RTVSPost2010Prop48
 90
       50
102
RTVSPost2010PropOp48
 70
     1
102
RTVSPost2010Prop49
280
     0
102
RTVSPost2010PropOp49
 70
     1
102
RTVSPost2010Prop50
 90
       50
102
RTVSPost2010PropOp50
 70
     1
102
RTVSPost2010Prop51ColorIndex
 90
      256
102
RTVSPost2010Prop51ColorRGB
 90
-16777216
102
RTVSPost2010PropOp51
 70
     0
102
RTVSPost2010Prop52
140
1.0
102
RTVSPost2010PropOp52
 70
     0
102
RTVSPost2010Prop53
 90
        2
102
RTVSPost2010PropOp53
 70
     1
102
RTVSPost2010Prop54
  1
strokes_ogs.tif
102
RTVSPost2010PropOp54
 70
     1
102
RTVSPost2010Prop55
280
     0
102
RTVSPost2010PropOp55
 70
     1
102
RTVSPost2010Prop56
140
1.0
102
RTVSPost2010PropOp56
 70
     1
102
RTVSPost2010Prop57
140
1.0
102
RTVSPost2010PropOp57
 70
     1
102
RTVSPropertyOp0
 70
     1
102
RTVSPropertyOp1
 70
     1
102
RTVSPropertyOp2
 70
     1
102
RTVSPropertyOp3
 70
     1
102
RTVSPropertyOp4
 70
     1
102
RTVSPropertyOp5
 70
     1
102
RTVSPropertyOp6
 70
     1
102
RTVSPropertyOp7
 70
     1
102
RTVSPropertyOp8
 70
     1
102
RTVSPropertyOp9
 70
     1
102
RTVSPropertyOp10
 70
     1
102
RTVSPropertyOp11
 70
     1
102
RTVSPropertyOp12
 70
     1
102
RTVSPropertyOp13
 70
     1
102
RTVSPropertyOp14
 70
     1
102
RTVSPropertyOp15
 70
     1
102
RTVSPropertyOp16
 70
     1
102
RTVSPropertyOp17
 70
     1
102
RTVSPropertyOp18
 70
     1
102
RTVSPropertyOp19
 70
     1
102
RTVSPropertyOp20
 70
     1
102
RTVSPropertyOp21
 70
     1
102
RTVSPropertyOp22
 70
     1
102
RTVSPropertyOp23
 70
     1
102
RTVSPropertyOp24
 70
     1
102
RTVSPropertyOp25
 70
     1
102
RTVSPropertyOp26
 70
     1
102
RTVSPropertyOp27
 70
     1
102
RTVSPropertyOp28
 70
     1
102
RTVSPropertyOp29
 70
     1
102
RTVSPropertyOp30
 70
     1
102
RTVSPropertyOp31
 70
     1
102
RTVSPropertyOp32
 70
     1
102
RTVSPropertyOp33
 70
     1
102
RTVSPropertyOp34
 70
     1
102
RTVSPropertyOp35
 70
     1
102
RTVSPropertyOp36
 70
     1
102
RTVSPropertyOp37
 70
     1
102
RTVSPropertyOp38
 70
     1
102
RTVSPropertyOp39
 70
     1
102
RTVSPropertyOp40
 70
     1
102
RTVSPropertyOp41
 70
     1
102
RTVSPropertyOp42
 70
     1
102
RTVSPropertyOp43
 70
     1
102
RTVSPropertyOp44
 70
     1
102
RTVSPropertyOp45
 70
     1
102
RTVSPropertyOp46
 70
     1
102
RTVSPropertyOp47
 70
     1
102
RTVSPropertyOp48
 70
     1
102
RTVSPropertyOp49
 70
     1
102
RTVSPropertyOp50
 70
     1
102
RTVSPropertyOp51
 70
     0
102
RTVSPropertyOp52
 70
     0
102
RTVSPropertyOp53
 70
     1
102
RTVSPropertyOp54
 70
     1
102
RTVSPropertyOp55
 70
     1
102
RTVSPropertyOp56
 70
     1
102
RTVSPropertyOp57
 70
     1
102
RTVSPropertyOp58
 70
     1
102
RTVSPropertyOp59
 70
     1
102
RTVSPropertyOp60
 70
     1
102
RTVSPropertyOp61
 70
     1
102
RTVSPropertyOp62
 70
     1
  0
XRECORD
  5
87F5
102
{ACAD_REACTORS
330
87F4
102
}
330
87F4
100
AcDbXrecord
280
     1
102
RTVSPost2010Prop28
280
     0
102
RTVSPost2010PropOp28
 70
     1
102
RTVSPost2010Prop29
280
     1
102
RTVSPost2010PropOp29
 70
     1
102
RTVSPost2010Prop30
280
     1
102
RTVSPost2010PropOp30
 70
     1
102
RTVSPost2010Prop31
280
     0
102
RTVSPost2010PropOp31
 70
     1
102
RTVSPost2010Prop32
280
     0
102
RTVSPost2010PropOp32
 70
     1
102
RTVSPost2010Prop33
280
     0
102
RTVSPost2010PropOp33
 70
     1
102
RTVSPost2010Prop34
280
     0
102
RTVSPost2010PropOp34
 70
     1
102
RTVSPost2010Prop35
280
     0
102
RTVSPost2010PropOp35
 70
     1
102
RTVSPost2010Prop36
280
     0
102
RTVSPost2010PropOp36
 70
     1
102
RTVSPost2010Prop37
 90
       50
102
RTVSPost2010PropOp37
 70
     1
102
RTVSPost2010Prop38
140
0.0
102
RTVSPost2010PropOp38
 70
     1
102
RTVSPost2010Prop39
140
1.0
102
RTVSPost2010PropOp39
 70
     1
102
RTVSPost2010Prop40
 90
        0
102
RTVSPost2010PropOp40
 70
     1
102
RTVSPost2010Prop41ColorIndex
 90
       18
102
RTVSPost2010Prop41ColorRGB
 90
        0
102
RTVSPost2010PropOp41
 70
     1
102
RTVSPost2010Prop42
 90
       50
102
RTVSPost2010PropOp42
 70
     1
102
RTVSPost2010Prop43
 90
        3
102
RTVSPost2010PropOp43
 70
     1
102
RTVSPost2010Prop44ColorIndex
 90
        5
102
RTVSPost2010Prop44ColorRGB
 90
      255
102
RTVSPost2010PropOp44
 70
     1
102
RTVSPost2010Prop45
280
     0
102
RTVSPost2010PropOp45
 70
     1
102
RTVSPost2010Prop46
 90
       50
102
RTVSPost2010PropOp46
 70
     1
102
RTVSPost2010Prop47
 90
       50
102
RTVSPost2010PropOp47
 70
     1
102
RTVSPost2010Prop48
 90
       50
102
RTVSPost2010PropOp48
 70
     1
102
RTVSPost2010Prop49
280
     0
102
RTVSPost2010PropOp49
 70
     1
102
RTVSPost2010Prop50
 90
       50
102
RTVSPost2010PropOp50
 70
     1
102
RTVSPost2010Prop51ColorIndex
 90
      256
102
RTVSPost2010Prop51ColorRGB
 90
-16777216
102
RTVSPost2010PropOp51
 70
     0
102
RTVSPost2010Prop52
140
1.0
102
RTVSPost2010PropOp52
 70
     0
102
RTVSPost2010Prop53
 90
        2
102
RTVSPost2010PropOp53
 70
     1
102
RTVSPost2010Prop54
  1
strokes_ogs.tif
102
RTVSPost2010PropOp54
 70
     1
102
RTVSPost2010Prop55
280
     0
102
RTVSPost2010PropOp55
 70
     1
102
RTVSPost2010Prop56
140
1.0
102
RTVSPost2010PropOp56
 70
     1
102
RTVSPost2010Prop57
140
1.0
102
RTVSPost2010PropOp57
 70
     1
102
RTVSPropertyOp0
 70
     1
102
RTVSPropertyOp1
 70
     1
102
RTVSPropertyOp2
 70
     1
102
RTVSPropertyOp3
 70
     1
102
RTVSPropertyOp4
 70
     1
102
RTVSPropertyOp5
 70
     1
102
RTVSPropertyOp6
 70
     1
102
RTVSPropertyOp7
 70
     1
102
RTVSPropertyOp8
 70
     1
102
RTVSPropertyOp9
 70
     1
102
RTVSPropertyOp10
 70
     1
102
RTVSPropertyOp11
 70
     1
102
RTVSPropertyOp12
 70
     1
102
RTVSPropertyOp13
 70
     1
102
RTVSPropertyOp14
 70
     1
102
RTVSPropertyOp15
 70
     1
102
RTVSPropertyOp16
 70
     1
102
RTVSPropertyOp17
 70
     1
102
RTVSPropertyOp18
 70
     1
102
RTVSPropertyOp19
 70
     1
102
RTVSPropertyOp20
 70
     1
102
RTVSPropertyOp21
 70
     1
102
RTVSPropertyOp22
 70
     1
102
RTVSPropertyOp23
 70
     1
102
RTVSPropertyOp24
 70
     1
102
RTVSPropertyOp25
 70
     1
102
RTVSPropertyOp26
 70
     1
102
RTVSPropertyOp27
 70
     1
102
RTVSPropertyOp28
 70
     1
102
RTVSPropertyOp29
 70
     1
102
RTVSPropertyOp30
 70
     1
102
RTVSPropertyOp31
 70
     1
102
RTVSPropertyOp32
 70
     1
102
RTVSPropertyOp33
 70
     1
102
RTVSPropertyOp34
 70
     1
102
RTVSPropertyOp35
 70
     1
102
RTVSPropertyOp36
 70
     1
102
RTVSPropertyOp37
 70
     1
102
RTVSPropertyOp38
 70
     1
102
RTVSPropertyOp39
 70
     1
102
RTVSPropertyOp40
 70
     1
102
RTVSPropertyOp41
 70
     1
102
RTVSPropertyOp42
 70
     1
102
RTVSPropertyOp43
 70
     1
102
RTVSPropertyOp44
 70
     1
102
RTVSPropertyOp45
 70
     1
102
RTVSPropertyOp46
 70
     1
102
RTVSPropertyOp47
 70
     1
102
RTVSPropertyOp48
 70
     1
102
RTVSPropertyOp49
 70
     1
102
RTVSPropertyOp50
 70
     1
102
RTVSPropertyOp51
 70
     0
102
RTVSPropertyOp52
 70
     0
102
RTVSPropertyOp53
 70
     1
102
RTVSPropertyOp54
 70
     1
102
RTVSPropertyOp55
 70
     1
102
RTVSPropertyOp56
 70
     1
102
RTVSPropertyOp57
 70
     1
102
RTVSPropertyOp58
 70
     1
102
RTVSPropertyOp59
 70
     1
102
RTVSPropertyOp60
 70
     1
102
RTVSPropertyOp61
 70
     1
102
RTVSPropertyOp62
 70
     1
  0
XRECORD
  5
87EF
102
{ACAD_REACTORS
330
87EE
102
}
330
87EE
100
AcDbXrecord
280
     1
102
RTVSPost2010Prop28
280
     0
102
RTVSPost2010PropOp28
 70
     1
102
RTVSPost2010Prop29
280
     1
102
RTVSPost2010PropOp29
 70
     1
102
RTVSPost2010Prop30
280
     1
102
RTVSPost2010PropOp30
 70
     1
102
RTVSPost2010Prop31
280
     0
102
RTVSPost2010PropOp31
 70
     1
102
RTVSPost2010Prop32
280
     0
102
RTVSPost2010PropOp32
 70
     1
102
RTVSPost2010Prop33
280
     0
102
RTVSPost2010PropOp33
 70
     1
102
RTVSPost2010Prop34
280
     0
102
RTVSPost2010PropOp34
 70
     1
102
RTVSPost2010Prop35
280
     0
102
RTVSPost2010PropOp35
 70
     1
102
RTVSPost2010Prop36
280
     0
102
RTVSPost2010PropOp36
 70
     1
102
RTVSPost2010Prop37
 90
       50
102
RTVSPost2010PropOp37
 70
     1
102
RTVSPost2010Prop38
140
0.0
102
RTVSPost2010PropOp38
 70
     1
102
RTVSPost2010Prop39
140
1.0
102
RTVSPost2010PropOp39
 70
     1
102
RTVSPost2010Prop40
 90
        0
102
RTVSPost2010PropOp40
 70
     1
102
RTVSPost2010Prop41ColorIndex
 90
       18
102
RTVSPost2010Prop41ColorRGB
 90
        0
102
RTVSPost2010PropOp41
 70
     1
102
RTVSPost2010Prop42
 90
       50
102
RTVSPost2010PropOp42
 70
     1
102
RTVSPost2010Prop43
 90
        3
102
RTVSPost2010PropOp43
 70
     1
102
RTVSPost2010Prop44ColorIndex
 90
        5
102
RTVSPost2010Prop44ColorRGB
 90
      255
102
RTVSPost2010PropOp44
 70
     1
102
RTVSPost2010Prop45
280
     0
102
RTVSPost2010PropOp45
 70
     1
102
RTVSPost2010Prop46
 90
       50
102
RTVSPost2010PropOp46
 70
     1
102
RTVSPost2010Prop47
 90
       50
102
RTVSPost2010PropOp47
 70
     1
102
RTVSPost2010Prop48
 90
       50
102
RTVSPost2010PropOp48
 70
     1
102
RTVSPost2010Prop49
280
     0
102
RTVSPost2010PropOp49
 70
     1
102
RTVSPost2010Prop50
 90
       50
102
RTVSPost2010PropOp50
 70
     1
102
RTVSPost2010Prop51ColorIndex
 90
      256
102
RTVSPost2010Prop51ColorRGB
 90
-16777216
102
RTVSPost2010PropOp51
 70
     0
102
RTVSPost2010Prop52
140
1.0
102
RTVSPost2010PropOp52
 70
     0
102
RTVSPost2010Prop53
 90
        2
102
RTVSPost2010PropOp53
 70
     1
102
RTVSPost2010Prop54
  1
strokes_ogs.tif
102
RTVSPost2010PropOp54
 70
     1
102
RTVSPost2010Prop55
280
     0
102
RTVSPost2010PropOp55
 70
     1
102
RTVSPost2010Prop56
140
1.0
102
RTVSPost2010PropOp56
 70
     1
102
RTVSPost2010Prop57
140
1.0
102
RTVSPost2010PropOp57
 70
     1
102
RTVSPropertyOp0
 70
     1
102
RTVSPropertyOp1
 70
     1
102
RTVSPropertyOp2
 70
     1
102
RTVSPropertyOp3
 70
     1
102
RTVSPropertyOp4
 70
     1
102
RTVSPropertyOp5
 70
     1
102
RTVSPropertyOp6
 70
     1
102
RTVSPropertyOp7
 70
     1
102
RTVSPropertyOp8
 70
     1
102
RTVSPropertyOp9
 70
     1
102
RTVSPropertyOp10
 70
     1
102
RTVSPropertyOp11
 70
     1
102
RTVSPropertyOp12
 70
     1
102
RTVSPropertyOp13
 70
     1
102
RTVSPropertyOp14
 70
     1
102
RTVSPropertyOp15
 70
     1
102
RTVSPropertyOp16
 70
     1
102
RTVSPropertyOp17
 70
     1
102
RTVSPropertyOp18
 70
     1
102
RTVSPropertyOp19
 70
     1
102
RTVSPropertyOp20
 70
     1
102
RTVSPropertyOp21
 70
     1
102
RTVSPropertyOp22
 70
     1
102
RTVSPropertyOp23
 70
     1
102
RTVSPropertyOp24
 70
     1
102
RTVSPropertyOp25
 70
     1
102
RTVSPropertyOp26
 70
     1
102
RTVSPropertyOp27
 70
     1
102
RTVSPropertyOp28
 70
     1
102
RTVSPropertyOp29
 70
     1
102
RTVSPropertyOp30
 70
     1
102
RTVSPropertyOp31
 70
     1
102
RTVSPropertyOp32
 70
     1
102
RTVSPropertyOp33
 70
     1
102
RTVSPropertyOp34
 70
     1
102
RTVSPropertyOp35
 70
     1
102
RTVSPropertyOp36
 70
     1
102
RTVSPropertyOp37
 70
     1
102
RTVSPropertyOp38
 70
     1
102
RTVSPropertyOp39
 70
     1
102
RTVSPropertyOp40
 70
     1
102
RTVSPropertyOp41
 70
     1
102
RTVSPropertyOp42
 70
     1
102
RTVSPropertyOp43
 70
     1
102
RTVSPropertyOp44
 70
     1
102
RTVSPropertyOp45
 70
     1
102
RTVSPropertyOp46
 70
     1
102
RTVSPropertyOp47
 70
     1
102
RTVSPropertyOp48
 70
     1
102
RTVSPropertyOp49
 70
     1
102
RTVSPropertyOp50
 70
     1
102
RTVSPropertyOp51
 70
     0
102
RTVSPropertyOp52
 70
     0
102
RTVSPropertyOp53
 70
     1
102
RTVSPropertyOp54
 70
     1
102
RTVSPropertyOp55
 70
     1
102
RTVSPropertyOp56
 70
     1
102
RTVSPropertyOp57
 70
     1
102
RTVSPropertyOp58
 70
     1
102
RTVSPropertyOp59
 70
     1
102
RTVSPropertyOp60
 70
     1
102
RTVSPropertyOp61
 70
     1
102
RTVSPropertyOp62
 70
     1
  0
XRECORD
  5
87F1
102
{ACAD_REACTORS
330
87F0
102
}
330
87F0
100
AcDbXrecord
280
     1
102
RTVSPost2010Prop28
280
     0
102
RTVSPost2010PropOp28
 70
     1
102
RTVSPost2010Prop29
280
     1
102
RTVSPost2010PropOp29
 70
     1
102
RTVSPost2010Prop30
280
     1
102
RTVSPost2010PropOp30
 70
     1
102
RTVSPost2010Prop31
280
     0
102
RTVSPost2010PropOp31
 70
     1
102
RTVSPost2010Prop32
280
     0
102
RTVSPost2010PropOp32
 70
     1
102
RTVSPost2010Prop33
280
     0
102
RTVSPost2010PropOp33
 70
     1
102
RTVSPost2010Prop34
280
     0
102
RTVSPost2010PropOp34
 70
     1
102
RTVSPost2010Prop35
280
     0
102
RTVSPost2010PropOp35
 70
     1
102
RTVSPost2010Prop36
280
     0
102
RTVSPost2010PropOp36
 70
     1
102
RTVSPost2010Prop37
 90
       50
102
RTVSPost2010PropOp37
 70
     1
102
RTVSPost2010Prop38
140
0.0
102
RTVSPost2010PropOp38
 70
     1
102
RTVSPost2010Prop39
140
1.0
102
RTVSPost2010PropOp39
 70
     1
102
RTVSPost2010Prop40
 90
        0
102
RTVSPost2010PropOp40
 70
     1
102
RTVSPost2010Prop41ColorIndex
 90
       18
102
RTVSPost2010Prop41ColorRGB
 90
        0
102
RTVSPost2010PropOp41
 70
     1
102
RTVSPost2010Prop42
 90
       50
102
RTVSPost2010PropOp42
 70
     1
102
RTVSPost2010Prop43
 90
        3
102
RTVSPost2010PropOp43
 70
     1
102
RTVSPost2010Prop44ColorIndex
 90
        5
102
RTVSPost2010Prop44ColorRGB
 90
      255
102
RTVSPost2010PropOp44
 70
     1
102
RTVSPost2010Prop45
280
     0
102
RTVSPost2010PropOp45
 70
     1
102
RTVSPost2010Prop46
 90
       50
102
RTVSPost2010PropOp46
 70
     1
102
RTVSPost2010Prop47
 90
       50
102
RTVSPost2010PropOp47
 70
     1
102
RTVSPost2010Prop48
 90
       50
102
RTVSPost2010PropOp48
 70
     1
102
RTVSPost2010Prop49
280
     0
102
RTVSPost2010PropOp49
 70
     1
102
RTVSPost2010Prop50
 90
       50
102
RTVSPost2010PropOp50
 70
     1
102
RTVSPost2010Prop51ColorIndex
 90
      256
102
RTVSPost2010Prop51ColorRGB
 90
-16777216
102
RTVSPost2010PropOp51
 70
     0
102
RTVSPost2010Prop52
140
1.0
102
RTVSPost2010PropOp52
 70
     0
102
RTVSPost2010Prop53
 90
        2
102
RTVSPost2010PropOp53
 70
     1
102
RTVSPost2010Prop54
  1
strokes_ogs.tif
102
RTVSPost2010PropOp54
 70
     1
102
RTVSPost2010Prop55
280
     0
102
RTVSPost2010PropOp55
 70
     1
102
RTVSPost2010Prop56
140
1.0
102
RTVSPost2010PropOp56
 70
     1
102
RTVSPost2010Prop57
140
1.0
102
RTVSPost2010PropOp57
 70
     1
102
RTVSPropertyOp0
 70
     1
102
RTVSPropertyOp1
 70
     1
102
RTVSPropertyOp2
 70
     1
102
RTVSPropertyOp3
 70
     1
102
RTVSPropertyOp4
 70
     1
102
RTVSPropertyOp5
 70
     1
102
RTVSPropertyOp6
 70
     1
102
RTVSPropertyOp7
 70
     1
102
RTVSPropertyOp8
 70
     1
102
RTVSPropertyOp9
 70
     1
102
RTVSPropertyOp10
 70
     1
102
RTVSPropertyOp11
 70
     1
102
RTVSPropertyOp12
 70
     1
102
RTVSPropertyOp13
 70
     1
102
RTVSPropertyOp14
 70
     1
102
RTVSPropertyOp15
 70
     1
102
RTVSPropertyOp16
 70
     1
102
RTVSPropertyOp17
 70
     1
102
RTVSPropertyOp18
 70
     1
102
RTVSPropertyOp19
 70
     1
102
RTVSPropertyOp20
 70
     1
102
RTVSPropertyOp21
 70
     1
102
RTVSPropertyOp22
 70
     1
102
RTVSPropertyOp23
 70
     1
102
RTVSPropertyOp24
 70
     1
102
RTVSPropertyOp25
 70
     1
102
RTVSPropertyOp26
 70
     1
102
RTVSPropertyOp27
 70
     1
102
RTVSPropertyOp28
 70
     1
102
RTVSPropertyOp29
 70
     1
102
RTVSPropertyOp30
 70
     1
102
RTVSPropertyOp31
 70
     1
102
RTVSPropertyOp32
 70
     1
102
RTVSPropertyOp33
 70
     1
102
RTVSPropertyOp34
 70
     1
102
RTVSPropertyOp35
 70
     1
102
RTVSPropertyOp36
 70
     1
102
RTVSPropertyOp37
 70
     1
102
RTVSPropertyOp38
 70
     1
102
RTVSPropertyOp39
 70
     1
102
RTVSPropertyOp40
 70
     1
102
RTVSPropertyOp41
 70
     1
102
RTVSPropertyOp42
 70
     1
102
RTVSPropertyOp43
 70
     1
102
RTVSPropertyOp44
 70
     1
102
RTVSPropertyOp45
 70
     1
102
RTVSPropertyOp46
 70
     1
102
RTVSPropertyOp47
 70
     1
102
RTVSPropertyOp48
 70
     1
102
RTVSPropertyOp49
 70
     1
102
RTVSPropertyOp50
 70
     1
102
RTVSPropertyOp51
 70
     0
102
RTVSPropertyOp52
 70
     0
102
RTVSPropertyOp53
 70
     1
102
RTVSPropertyOp54
 70
     1
102
RTVSPropertyOp55
 70
     1
102
RTVSPropertyOp56
 70
     1
102
RTVSPropertyOp57
 70
     1
102
RTVSPropertyOp58
 70
     1
102
RTVSPropertyOp59
 70
     1
102
RTVSPropertyOp60
 70
     1
102
RTVSPropertyOp61
 70
     1
102
RTVSPropertyOp62
 70
     1
  0
XRECORD
  5
87E7
102
{ACAD_REACTORS
330
87E6
102
}
330
87E6
100
AcDbXrecord
280
     1
102
RTVSPost2010Prop28
280
     0
102
RTVSPost2010PropOp28
 70
     1
102
RTVSPost2010Prop29
280
     1
102
RTVSPost2010PropOp29
 70
     1
102
RTVSPost2010Prop30
280
     1
102
RTVSPost2010PropOp30
 70
     1
102
RTVSPost2010Prop31
280
     0
102
RTVSPost2010PropOp31
 70
     1
102
RTVSPost2010Prop32
280
     0
102
RTVSPost2010PropOp32
 70
     1
102
RTVSPost2010Prop33
280
     0
102
RTVSPost2010PropOp33
 70
     1
102
RTVSPost2010Prop34
280
     0
102
RTVSPost2010PropOp34
 70
     1
102
RTVSPost2010Prop35
280
     0
102
RTVSPost2010PropOp35
 70
     1
102
RTVSPost2010Prop36
280
     0
102
RTVSPost2010PropOp36
 70
     1
102
RTVSPost2010Prop37
 90
       50
102
RTVSPost2010PropOp37
 70
     1
102
RTVSPost2010Prop38
140
0.0
102
RTVSPost2010PropOp38
 70
     1
102
RTVSPost2010Prop39
140
1.0
102
RTVSPost2010PropOp39
 70
     1
102
RTVSPost2010Prop40
 90
        0
102
RTVSPost2010PropOp40
 70
     1
102
RTVSPost2010Prop41ColorIndex
 90
       18
102
RTVSPost2010Prop41ColorRGB
 90
        0
102
RTVSPost2010PropOp41
 70
     1
102
RTVSPost2010Prop42
 90
       50
102
RTVSPost2010PropOp42
 70
     1
102
RTVSPost2010Prop43
 90
        3
102
RTVSPost2010PropOp43
 70
     1
102
RTVSPost2010Prop44ColorIndex
 90
        5
102
RTVSPost2010Prop44ColorRGB
 90
      255
102
RTVSPost2010PropOp44
 70
     1
102
RTVSPost2010Prop45
280
     0
102
RTVSPost2010PropOp45
 70
     1
102
RTVSPost2010Prop46
 90
       50
102
RTVSPost2010PropOp46
 70
     1
102
RTVSPost2010Prop47
 90
       50
102
RTVSPost2010PropOp47
 70
     1
102
RTVSPost2010Prop48
 90
       50
102
RTVSPost2010PropOp48
 70
     1
102
RTVSPost2010Prop49
280
     0
102
RTVSPost2010PropOp49
 70
     1
102
RTVSPost2010Prop50
 90
       50
102
RTVSPost2010PropOp50
 70
     1
102
RTVSPost2010Prop51ColorIndex
 90
      256
102
RTVSPost2010Prop51ColorRGB
 90
-16777216
102
RTVSPost2010PropOp51
 70
     0
102
RTVSPost2010Prop52
140
1.0
102
RTVSPost2010PropOp52
 70
     0
102
RTVSPost2010Prop53
 90
        2
102
RTVSPost2010PropOp53
 70
     1
102
RTVSPost2010Prop54
  1
strokes_ogs.tif
102
RTVSPost2010PropOp54
 70
     1
102
RTVSPost2010Prop55
280
     0
102
RTVSPost2010PropOp55
 70
     1
102
RTVSPost2010Prop56
140
1.0
102
RTVSPost2010PropOp56
 70
     1
102
RTVSPost2010Prop57
140
1.0
102
RTVSPost2010PropOp57
 70
     1
102
RTVSPropertyOp0
 70
     1
102
RTVSPropertyOp1
 70
     1
102
RTVSPropertyOp2
 70
     1
102
RTVSPropertyOp3
 70
     1
102
RTVSPropertyOp4
 70
     1
102
RTVSPropertyOp5
 70
     1
102
RTVSPropertyOp6
 70
     1
102
RTVSPropertyOp7
 70
     1
102
RTVSPropertyOp8
 70
     1
102
RTVSPropertyOp9
 70
     1
102
RTVSPropertyOp10
 70
     1
102
RTVSPropertyOp11
 70
     1
102
RTVSPropertyOp12
 70
     1
102
RTVSPropertyOp13
 70
     1
102
RTVSPropertyOp14
 70
     1
102
RTVSPropertyOp15
 70
     1
102
RTVSPropertyOp16
 70
     1
102
RTVSPropertyOp17
 70
     1
102
RTVSPropertyOp18
 70
     1
102
RTVSPropertyOp19
 70
     1
102
RTVSPropertyOp20
 70
     1
102
RTVSPropertyOp21
 70
     1
102
RTVSPropertyOp22
 70
     1
102
RTVSPropertyOp23
 70
     1
102
RTVSPropertyOp24
 70
     1
102
RTVSPropertyOp25
 70
     1
102
RTVSPropertyOp26
 70
     1
102
RTVSPropertyOp27
 70
     1
102
RTVSPropertyOp28
 70
     1
102
RTVSPropertyOp29
 70
     1
102
RTVSPropertyOp30
 70
     1
102
RTVSPropertyOp31
 70
     1
102
RTVSPropertyOp32
 70
     1
102
RTVSPropertyOp33
 70
     1
102
RTVSPropertyOp34
 70
     1
102
RTVSPropertyOp35
 70
     1
102
RTVSPropertyOp36
 70
     1
102
RTVSPropertyOp37
 70
     1
102
RTVSPropertyOp38
 70
     1
102
RTVSPropertyOp39
 70
     1
102
RTVSPropertyOp40
 70
     1
102
RTVSPropertyOp41
 70
     1
102
RTVSPropertyOp42
 70
     1
102
RTVSPropertyOp43
 70
     1
102
RTVSPropertyOp44
 70
     1
102
RTVSPropertyOp45
 70
     1
102
RTVSPropertyOp46
 70
     1
102
RTVSPropertyOp47
 70
     1
102
RTVSPropertyOp48
 70
     1
102
RTVSPropertyOp49
 70
     1
102
RTVSPropertyOp50
 70
     1
102
RTVSPropertyOp51
 70
     0
102
RTVSPropertyOp52
 70
     0
102
RTVSPropertyOp53
 70
     1
102
RTVSPropertyOp54
 70
     1
102
RTVSPropertyOp55
 70
     1
102
RTVSPropertyOp56
 70
     1
102
RTVSPropertyOp57
 70
     1
102
RTVSPropertyOp58
 70
     1
102
RTVSPropertyOp59
 70
     1
102
RTVSPropertyOp60
 70
     1
102
RTVSPropertyOp61
 70
     1
102
RTVSPropertyOp62
 70
     1
  0
XRECORD
  5
87DB
102
{ACAD_REACTORS
330
87DA
102
}
330
87DA
100
AcDbXrecord
280
     1
102
RTVSPost2010Prop28
280
     0
102
RTVSPost2010PropOp28
 70
     1
102
RTVSPost2010Prop29
280
     1
102
RTVSPost2010PropOp29
 70
     1
102
RTVSPost2010Prop30
280
     1
102
RTVSPost2010PropOp30
 70
     1
102
RTVSPost2010Prop31
280
     0
102
RTVSPost2010PropOp31
 70
     1
102
RTVSPost2010Prop32
280
     0
102
RTVSPost2010PropOp32
 70
     1
102
RTVSPost2010Prop33
280
     0
102
RTVSPost2010PropOp33
 70
     1
102
RTVSPost2010Prop34
280
     0
102
RTVSPost2010PropOp34
 70
     1
102
RTVSPost2010Prop35
280
     0
102
RTVSPost2010PropOp35
 70
     1
102
RTVSPost2010Prop36
280
     0
102
RTVSPost2010PropOp36
 70
     1
102
RTVSPost2010Prop37
 90
       50
102
RTVSPost2010PropOp37
 70
     1
102
RTVSPost2010Prop38
140
0.0
102
RTVSPost2010PropOp38
 70
     1
102
RTVSPost2010Prop39
140
1.0
102
RTVSPost2010PropOp39
 70
     1
102
RTVSPost2010Prop40
 90
        0
102
RTVSPost2010PropOp40
 70
     1
102
RTVSPost2010Prop41ColorIndex
 90
       18
102
RTVSPost2010Prop41ColorRGB
 90
        0
102
RTVSPost2010PropOp41
 70
     1
102
RTVSPost2010Prop42
 90
       50
102
RTVSPost2010PropOp42
 70
     1
102
RTVSPost2010Prop43
 90
        3
102
RTVSPost2010PropOp43
 70
     1
102
RTVSPost2010Prop44ColorIndex
 90
        5
102
RTVSPost2010Prop44ColorRGB
 90
      255
102
RTVSPost2010PropOp44
 70
     1
102
RTVSPost2010Prop45
280
     0
102
RTVSPost2010PropOp45
 70
     1
102
RTVSPost2010Prop46
 90
       50
102
RTVSPost2010PropOp46
 70
     1
102
RTVSPost2010Prop47
 90
       50
102
RTVSPost2010PropOp47
 70
     1
102
RTVSPost2010Prop48
 90
       50
102
RTVSPost2010PropOp48
 70
     1
102
RTVSPost2010Prop49
280
     0
102
RTVSPost2010PropOp49
 70
     1
102
RTVSPost2010Prop50
 90
       50
102
RTVSPost2010PropOp50
 70
     1
102
RTVSPost2010Prop51ColorIndex
 90
      256
102
RTVSPost2010Prop51ColorRGB
 90
-16777216
102
RTVSPost2010PropOp51
 70
     0
102
RTVSPost2010Prop52
140
1.0
102
RTVSPost2010PropOp52
 70
     0
102
RTVSPost2010Prop53
 90
        2
102
RTVSPost2010PropOp53
 70
     1
102
RTVSPost2010Prop54
  1
strokes_ogs.tif
102
RTVSPost2010PropOp54
 70
     1
102
RTVSPost2010Prop55
280
     0
102
RTVSPost2010PropOp55
 70
     1
102
RTVSPost2010Prop56
140
1.0
102
RTVSPost2010PropOp56
 70
     1
102
RTVSPost2010Prop57
140
1.0
102
RTVSPost2010PropOp57
 70
     1
102
RTVSPropertyOp0
 70
     1
102
RTVSPropertyOp1
 70
     1
102
RTVSPropertyOp2
 70
     1
102
RTVSPropertyOp3
 70
     1
102
RTVSPropertyOp4
 70
     1
102
RTVSPropertyOp5
 70
     1
102
RTVSPropertyOp6
 70
     1
102
RTVSPropertyOp7
 70
     1
102
RTVSPropertyOp8
 70
     1
102
RTVSPropertyOp9
 70
     1
102
RTVSPropertyOp10
 70
     1
102
RTVSPropertyOp11
 70
     1
102
RTVSPropertyOp12
 70
     1
102
RTVSPropertyOp13
 70
     1
102
RTVSPropertyOp14
 70
     1
102
RTVSPropertyOp15
 70
     1
102
RTVSPropertyOp16
 70
     1
102
RTVSPropertyOp17
 70
     1
102
RTVSPropertyOp18
 70
     1
102
RTVSPropertyOp19
 70
     1
102
RTVSPropertyOp20
 70
     1
102
RTVSPropertyOp21
 70
     1
102
RTVSPropertyOp22
 70
     1
102
RTVSPropertyOp23
 70
     1
102
RTVSPropertyOp24
 70
     1
102
RTVSPropertyOp25
 70
     1
102
RTVSPropertyOp26
 70
     1
102
RTVSPropertyOp27
 70
     1
102
RTVSPropertyOp28
 70
     1
102
RTVSPropertyOp29
 70
     1
102
RTVSPropertyOp30
 70
     1
102
RTVSPropertyOp31
 70
     1
102
RTVSPropertyOp32
 70
     1
102
RTVSPropertyOp33
 70
     1
102
RTVSPropertyOp34
 70
     1
102
RTVSPropertyOp35
 70
     1
102
RTVSPropertyOp36
 70
     1
102
RTVSPropertyOp37
 70
     1
102
RTVSPropertyOp38
 70
     1
102
RTVSPropertyOp39
 70
     1
102
RTVSPropertyOp40
 70
     1
102
RTVSPropertyOp41
 70
     1
102
RTVSPropertyOp42
 70
     1
102
RTVSPropertyOp43
 70
     1
102
RTVSPropertyOp44
 70
     1
102
RTVSPropertyOp45
 70
     1
102
RTVSPropertyOp46
 70
     1
102
RTVSPropertyOp47
 70
     1
102
RTVSPropertyOp48
 70
     1
102
RTVSPropertyOp49
 70
     1
102
RTVSPropertyOp50
 70
     1
102
RTVSPropertyOp51
 70
     0
102
RTVSPropertyOp52
 70
     0
102
RTVSPropertyOp53
 70
     1
102
RTVSPropertyOp54
 70
     1
102
RTVSPropertyOp55
 70
     1
102
RTVSPropertyOp56
 70
     1
102
RTVSPropertyOp57
 70
     1
102
RTVSPropertyOp58
 70
     1
102
RTVSPropertyOp59
 70
     1
102
RTVSPropertyOp60
 70
     1
102
RTVSPropertyOp61
 70
     1
102
RTVSPropertyOp62
 70
     1
  0
XRECORD
  5
87F3
102
{ACAD_REACTORS
330
87F2
102
}
330
87F2
100
AcDbXrecord
280
     1
102
RTVSPost2010Prop28
280
     0
102
RTVSPost2010PropOp28
 70
     1
102
RTVSPost2010Prop29
280
     1
102
RTVSPost2010PropOp29
 70
     1
102
RTVSPost2010Prop30
280
     1
102
RTVSPost2010PropOp30
 70
     1
102
RTVSPost2010Prop31
280
     0
102
RTVSPost2010PropOp31
 70
     1
102
RTVSPost2010Prop32
280
     0
102
RTVSPost2010PropOp32
 70
     1
102
RTVSPost2010Prop33
280
     0
102
RTVSPost2010PropOp33
 70
     1
102
RTVSPost2010Prop34
280
     0
102
RTVSPost2010PropOp34
 70
     1
102
RTVSPost2010Prop35
280
     0
102
RTVSPost2010PropOp35
 70
     1
102
RTVSPost2010Prop36
280
     0
102
RTVSPost2010PropOp36
 70
     1
102
RTVSPost2010Prop37
 90
       50
102
RTVSPost2010PropOp37
 70
     1
102
RTVSPost2010Prop38
140
0.0
102
RTVSPost2010PropOp38
 70
     1
102
RTVSPost2010Prop39
140
1.0
102
RTVSPost2010PropOp39
 70
     1
102
RTVSPost2010Prop40
 90
        0
102
RTVSPost2010PropOp40
 70
     1
102
RTVSPost2010Prop41ColorIndex
 90
       18
102
RTVSPost2010Prop41ColorRGB
 90
        0
102
RTVSPost2010PropOp41
 70
     1
102
RTVSPost2010Prop42
 90
       50
102
RTVSPost2010PropOp42
 70
     1
102
RTVSPost2010Prop43
 90
        3
102
RTVSPost2010PropOp43
 70
     1
102
RTVSPost2010Prop44ColorIndex
 90
        5
102
RTVSPost2010Prop44ColorRGB
 90
      255
102
RTVSPost2010PropOp44
 70
     1
102
RTVSPost2010Prop45
280
     0
102
RTVSPost2010PropOp45
 70
     1
102
RTVSPost2010Prop46
 90
       50
102
RTVSPost2010PropOp46
 70
     1
102
RTVSPost2010Prop47
 90
       50
102
RTVSPost2010PropOp47
 70
     1
102
RTVSPost2010Prop48
 90
       50
102
RTVSPost2010PropOp48
 70
     1
102
RTVSPost2010Prop49
280
     0
102
RTVSPost2010PropOp49
 70
     1
102
RTVSPost2010Prop50
 90
       50
102
RTVSPost2010PropOp50
 70
     1
102
RTVSPost2010Prop51ColorIndex
 90
      256
102
RTVSPost2010Prop51ColorRGB
 90
-16777216
102
RTVSPost2010PropOp51
 70
     0
102
RTVSPost2010Prop52
140
1.0
102
RTVSPost2010PropOp52
 70
     0
102
RTVSPost2010Prop53
 90
        2
102
RTVSPost2010PropOp53
 70
     1
102
RTVSPost2010Prop54
  1
strokes_ogs.tif
102
RTVSPost2010PropOp54
 70
     1
102
RTVSPost2010Prop55
280
     0
102
RTVSPost2010PropOp55
 70
     1
102
RTVSPost2010Prop56
140
1.0
102
RTVSPost2010PropOp56
 70
     1
102
RTVSPost2010Prop57
140
1.0
102
RTVSPost2010PropOp57
 70
     1
102
RTVSPropertyOp0
 70
     1
102
RTVSPropertyOp1
 70
     1
102
RTVSPropertyOp2
 70
     1
102
RTVSPropertyOp3
 70
     1
102
RTVSPropertyOp4
 70
     1
102
RTVSPropertyOp5
 70
     1
102
RTVSPropertyOp6
 70
     1
102
RTVSPropertyOp7
 70
     1
102
RTVSPropertyOp8
 70
     1
102
RTVSPropertyOp9
 70
     1
102
RTVSPropertyOp10
 70
     1
102
RTVSPropertyOp11
 70
     1
102
RTVSPropertyOp12
 70
     1
102
RTVSPropertyOp13
 70
     1
102
RTVSPropertyOp14
 70
     1
102
RTVSPropertyOp15
 70
     1
102
RTVSPropertyOp16
 70
     1
102
RTVSPropertyOp17
 70
     1
102
RTVSPropertyOp18
 70
     1
102
RTVSPropertyOp19
 70
     1
102
RTVSPropertyOp20
 70
     1
102
RTVSPropertyOp21
 70
     1
102
RTVSPropertyOp22
 70
     1
102
RTVSPropertyOp23
 70
     1
102
RTVSPropertyOp24
 70
     1
102
RTVSPropertyOp25
 70
     1
102
RTVSPropertyOp26
 70
     1
102
RTVSPropertyOp27
 70
     1
102
RTVSPropertyOp28
 70
     1
102
RTVSPropertyOp29
 70
     1
102
RTVSPropertyOp30
 70
     1
102
RTVSPropertyOp31
 70
     1
102
RTVSPropertyOp32
 70
     1
102
RTVSPropertyOp33
 70
     1
102
RTVSPropertyOp34
 70
     1
102
RTVSPropertyOp35
 70
     1
102
RTVSPropertyOp36
 70
     1
102
RTVSPropertyOp37
 70
     1
102
RTVSPropertyOp38
 70
     1
102
RTVSPropertyOp39
 70
     1
102
RTVSPropertyOp40
 70
     1
102
RTVSPropertyOp41
 70
     1
102
RTVSPropertyOp42
 70
     1
102
RTVSPropertyOp43
 70
     1
102
RTVSPropertyOp44
 70
     1
102
RTVSPropertyOp45
 70
     1
102
RTVSPropertyOp46
 70
     1
102
RTVSPropertyOp47
 70
     1
102
RTVSPropertyOp48
 70
     1
102
RTVSPropertyOp49
 70
     1
102
RTVSPropertyOp50
 70
     1
102
RTVSPropertyOp51
 70
     0
102
RTVSPropertyOp52
 70
     0
102
RTVSPropertyOp53
 70
     1
102
RTVSPropertyOp54
 70
     1
102
RTVSPropertyOp55
 70
     1
102
RTVSPropertyOp56
 70
     1
102
RTVSPropertyOp57
 70
     1
102
RTVSPropertyOp58
 70
     1
102
RTVSPropertyOp59
 70
     1
102
RTVSPropertyOp60
 70
     1
102
RTVSPropertyOp61
 70
     1
102
RTVSPropertyOp62
 70
     1
  0
ENDSEC
  0
EOF
