  0
SECTION
  2
HEADER
  9
$ACADVER
  1
AC1009
  9
$INSBASE
 10
0.0
 20
0.0
 30
0.0
  9
$EXTMIN
 10
750.0
 20
900.0
 30
0.0
  9
$EXTMAX
 10
5550.0
 20
8359.9567849999985
 30
0.0
  9
$LIMMIN
 10
0.0
 20
0.0
  9
$LIMMAX
 10
297.0
 20
210.0
  9
$ORTHOMODE
 70
     0
  9
$REGENMODE
 70
     1
  9
$FILLMODE
 70
     0
  9
$QTEXTMODE
 70
     0
  9
$MIRRTEXT
 70
     1
  9
$DRAGMODE
 70
     2
  9
$LTSCALE
 40
100.0
  9
$OSMODE
 70
    37
  9
$ATTMODE
 70
     1
  9
$TEXTSIZE
 40
180.0
  9
$TRACEWID
 40
0.05
  9
$TEXTSTYLE
  7
STANDARD
  9
$CLAYER
  8
3
  9
$CELTYPE
  6
BYLAYER
  9
$CECOLOR
 62
   256
  9
$DIMSCALE
 40
30.0
  9
$DIMASZ
 40
2.0
  9
$DIMEXO
 40
0.5
  9
$DIMDLI
 40
10.0
  9
$DIMRND
 40
0.0
  9
$DIMDLE
 40
0.0
  9
$DIMEXE
 40
1.0
  9
$DIMTP
 40
1.0
  9
$DIMTM
 40
1.0
  9
$DIMTXT
 40
3.0
  9
$DIMCEN
 40
0.0
  9
$DIMTSZ
 40
0.0
  9
$DIMTOL
 70
     0
  9
$DIMLIM
 70
     0
  9
$DIMTIH
 70
     0
  9
$DIMTOH
 70
     0
  9
$DIMSE1
 70
     0
  9
$DIMSE2
 70
     0
  9
$DIMTAD
 70
     1
  9
$DIMZIN
 70
     8
  9
$DIMBLK
  1

  9
$DIMASO
 70
     1
  9
$DIMSHO
 70
     1
  9
$DIMPOST
  1
(<>)
  9
$DIMAPOST
  1

  9
$DIMALT
 70
     0
  9
$DIMALTD
 70
     2
  9
$DIMALTF
 40
0.039
  9
$DIMLFAC
 40
1.0
  9
$DIMTOFL
 70
     1
  9
$DIMTVP
 40
0.0
  9
$DIMTIX
 70
     0
  9
$DIMSOXD
 70
     0
  9
$DIMSAH
 70
     1
  9
$DIMBLK1
  1
DOT
  9
$DIMBLK2
  1
OPEN
  9
$DIMSTYLE
  2
IGA
  9
$DIMCLRD
 70
     0
  9
$DIMCLRE
 70
     0
  9
$DIMCLRT
 70
     0
  9
$DIMTFAC
 40
10.0
  9
$DIMGAP
 40
1.0
  9
$LUNITS
 70
     2
  9
$LUPREC
 70
     3
  9
$SKETCHINC
 40
0.1
  9
$FILLETRAD
 40
0.0
  9
$AUNITS
 70
     0
  9
$AUPREC
 70
     0
  9
$MENU
  1
acad
  9
$ELEVATION
 40
0.0
  9
$PELEVATION
 40
0.0
  9
$THICKNESS
 40
0.0
  9
$LIMCHECK
 70
     0
  9
$BLIPMODE
 70
     0
  9
$CHAMFERA
 40
0.5
  9
$CHAMFERB
 40
0.5
  9
$SKPOLY
 70
     0
  9
$TDCREATE
 40
2450743.5696815969
  9
$TDUPDATE
 40
2454953.7739695371
  9
$TDINDWG
 40
0.0094896181
  9
$TDUSRTIMER
 40
0.0094896181
  9
$USRTIMER
 70
     1
  9
$ANGBASE
 50
0.0
  9
$ANGDIR
 70
     0
  9
$PDMODE
 70
     0
  9
$PDSIZE
 40
0.0
  9
$PLINEWID
 40
0.0
  9
$COORDS
 70
     1
  9
$SPLFRAME
 70
     0
  9
$SPLINETYPE
 70
     6
  9
$SPLINESEGS
 70
     8
  9
$ATTDIA
 70
     0
  9
$ATTREQ
 70
     1
  9
$HANDLING
 70
 10241
  9
$HANDSEED
  5
7E79
  9
$SURFTAB1
 70
     6
  9
$SURFTAB2
 70
     6
  9
$SURFTYPE
 70
     6
  9
$SURFU
 70
     6
  9
$SURFV
 70
     6
  9
$UCSNAME
  2

  9
$UCSORG
 10
0.0
 20
0.0
 30
0.0
  9
$UCSXDIR
 10
1.0
 20
0.0
 30
0.0
  9
$UCSYDIR
 10
0.0
 20
1.0
 30
0.0
  9
$PUCSNAME
  2

  9
$PUCSORG
 10
0.0
 20
0.0
 30
0.0
  9
$PUCSXDIR
 10
1.0
 20
0.0
 30
0.0
  9
$PUCSYDIR
 10
0.0
 20
1.0
 30
0.0
  9
$USERI1
 70
     0
  9
$USERI2
 70
     0
  9
$USERI3
 70
     0
  9
$USERI4
 70
     0
  9
$USERI5
 70
     0
  9
$USERR1
 40
0.0
  9
$USERR2
 40
0.0
  9
$USERR3
 40
0.0
  9
$USERR4
 40
0.0
  9
$USERR5
 40
0.0
  9
$WORLDVIEW
 70
     1
  9
$SHADEDGE
 70
     3
  9
$SHADEDIF
 70
    70
  9
$TILEMODE
 70
     1
  9
$MAXACTVP
 70
    16
  9
$PLIMCHECK
 70
     0
  9
$PEXTMIN
 10
1.0000000000000000E+020
 20
1.0000000000000000E+020
 30
1.0000000000000000E+020
  9
$PEXTMAX
 10
-1.0000000000000000E+020
 20
-1.0000000000000000E+020
 30
-1.0000000000000000E+020
  9
$PLIMMIN
 10
0.0
 20
0.0
  9
$PLIMMAX
 10
12.0
 20
9.0
  9
$UNITMODE
 70
     0
  9
$VISRETAIN
 70
     0
  9
$PLINEGEN
 70
     0
  9
$PSLTSCALE
 70
     1
  0
ENDSEC
  0
SECTION
  2
TABLES
  0
TABLE
  2
VPORT
 70
     2
  0
VPORT
  2
*ACTIVE
 70
     0
 10
0.0
 20
0.0
 11
1.0
 21
1.0
 12
9437.9954746499006
 22
4629.9199394653269
 13
0.0
 23
0.0
 14
10.0
 24
10.0
 15
10.0
 25
10.0
 16
0.0
 26
0.0
 36
1.0
 17
0.0
 27
0.0
 37
0.0
 40
7517.061441529765
 41
3.1666666666666661
 42
50.0
 43
0.0
 44
0.0
 50
0.0
 51
0.0
 71
     0
 72
   100
 73
     1
 74
     0
 75
     0
 76
     0
 77
     0
 78
     0
  0
ENDTAB
  0
TABLE
  2
LTYPE
 70
     2
  0
LTYPE
  2
CONTINUOUS
 70
     0
  3
Solid line
 72
    65
 73
     0
 40
0.0
  0
LTYPE
  2
CENTER
 70
     0
  3
____ _ ____ _ ____ _ ____ _ ____ _ ____ _ ____ 
 72
    65
 73
     4
 40
2.0
 49
1.25
 49
-0.25
 49
0.25
 49
-0.25
  0
ENDTAB
  0
TABLE
  2
LAYER
 70
     6
  0
LAYER
  2
0
 70
     0
 62
     7
  6
CONTINUOUS
  0
LAYER
  2
3
 70
     0
 62
     2
  6
CONTINUOUS
  0
LAYER
  2
2
 70
     0
 62
     3
  6
CENTER
  0
LAYER
  2
1
 70
     0
 62
     4
  6
CONTINUOUS
  0
LAYER
  2
4
 70
     0
 62
     7
  6
CONTINUOUS
  0
LAYER
  2
DEFPOINTS
 70
     0
 62
     7
  6
CONTINUOUS
  0
ENDTAB
  0
TABLE
  2
STYLE
 70
     1
  0
STYLE
  2
STANDARD
 70
     0
 40
0.0
 41
1.0
 50
0.0
 71
     0
 42
180.0
  3
simplex.shx
  4
extfont.shx
  0
ENDTAB
  0
TABLE
  2
VIEW
 70
     0
  0
ENDTAB
  0
TABLE
  2
UCS
 70
     0
  0
ENDTAB
  0
TABLE
  2
APPID
 70
     1
  0
APPID
  2
ACAD
 70
     0
  0
ENDTAB
  0
TABLE
  2
DIMSTYLE
 70
     1
  0
DIMSTYLE
  2
IGA
 70
     0
  3

  4

  5

  6
OPEN
  7
OPEN
 40
2.0
 41
2.0
 42
0.5
 43
10.0
 44
1.0
 45
0.0
 46
0.0
 47
1.0
 48
1.0
140
3.0
141
0.0
142
0.0
143
0.03937
144
1.0
145
0.0
146
10.0
147
1.0
 71
     0
 72
     0
 73
     0
 74
     0
 75
     0
 76
     0
 77
     1
 78
     8
170
     0
171
     2
172
     0
173
     1
174
     0
175
     0
176
     0
177
     0
178
     0
  0
ENDTAB
  0
ENDSEC
  0
SECTION
  2
BLOCKS
  0
BLOCK
  8
0
  2
$MODEL_SPACE
 70
     0
 10
0.0
 20
0.0
 30
0.0
  3
$MODEL_SPACE
  1

  0
ENDBLK
  5
1B
  8
0
  0
BLOCK
 67
     1
  8
0
  2
$PAPER_SPACE
 70
     0
 10
0.0
 20
0.0
 30
0.0
  3
$PAPER_SPACE
  1

  0
ENDBLK
  5
18
 67
     1
  8
0
  0
BLOCK
  8
0
  2
_OPEN
 70
     0
 10
0.0
 20
0.0
 30
0.0
  3
_OPEN
  1

  0
LINE
  5
7ADB
  8
0
  6
BYBLOCK
 62
     0
 10
-1.0
 20
0.166667
 30
0.0
 11
0.0
 21
0.0
 31
0.0
  0
LINE
  5
7ADC
  8
0
  6
BYBLOCK
 62
     0
 10
0.0
 20
0.0
 30
0.0
 11
-1.0
 21
-0.166667
 31
0.0
  0
LINE
  5
7ADD
  8
0
  6
BYBLOCK
 62
     0
 10
0.0
 20
0.0
 30
0.0
 11
-1.0
 21
0.0
 31
0.0
  0
ENDBLK
  5
7ADE
  8
0
  0
BLOCK
  8
0
  2
*D1
 70
     1
 10
0.0
 20
0.0
 30
0.0
  3
*D1
  1

  0
LINE
  5
7DE0
  8
3
  6
CONTINUOUS
 62
     0
 10
1521.6068760000001
 20
3989.3584229999992
 30
0.0
 11
1521.6068760000001
 21
4182.958149
 31
0.0
  0
LINE
  5
7DE1
  8
3
  6
CONTINUOUS
 62
     0
 10
2251.6068759999998
 20
3989.3584229999992
 30
0.0
 11
2251.6068759999998
 21
4182.958149
 31
0.0
  0
LINE
  5
7DE2
  8
3
  6
CONTINUOUS
 62
     0
 10
1581.6068760000001
 20
4152.9581489999991
 30
0.0
 11
2191.6068759999998
 21
4152.9581489999991
 31
0.0
  0
INSERT
  5
7DE3
  8
3
  6
CONTINUOUS
 62
     0
  2
_OPEN
 10
1521.6068760000001
 20
4152.9581489999991
 30
0.0
 41
60.0
 42
60.0
 43
60.0
 50
180.0
  0
INSERT
  5
7DE4
  8
3
  6
CONTINUOUS
 62
     0
  2
_OPEN
 10
2251.6068759999998
 20
4152.9581489999991
 30
0.0
 41
60.0
 42
60.0
 43
60.0
  0
TEXT
  8
3
  40
90
  5
7E69
  62
0
  72
0
  71
0
 10
1703.07
 20
4068.66
 30
0.000000
  1
730
  0
POINT
  5
7DE6
  8
DEFPOINTS
  6
CONTINUOUS
 62
     0
 10
1521.6068760000001
 20
3974.3584229999992
 30
0.0
  0
POINT
  5
7DE7
  8
DEFPOINTS
  6
CONTINUOUS
 62
     0
 10
2251.6068759999998
 20
3974.3584229999992
 30
0.0
  0
POINT
  5
7DE8
  8
DEFPOINTS
  6
CONTINUOUS
 62
     0
 10
2251.6068759999998
 20
4152.9581489999991
 30
0.0
  0
ENDBLK
  5
7C57
  8
0
  0
BLOCK
  8
0
  2
*D2
 70
     1
 10
0.0
 20
0.0
 30
0.0
  3
*D2
  1

  0
LINE
  5
7DE9
  8
3
  6
CONTINUOUS
 62
     0
 10
1521.6068760000001
 20
3989.3584229999992
 30
0.0
 11
1521.6068760000001
 21
4378.1666919999989
 31
0.0
  0
LINE
  5
7DEA
  8
3
  6
CONTINUOUS
 62
     0
 10
2217.6068759999998
 20
4288.4590669999998
 30
0.0
 11
2217.6068759999998
 21
4378.1666919999989
 31
0.0
  0
LINE
  5
7DEB
  8
3
  6
CONTINUOUS
 62
     0
 10
1581.6068760000001
 20
4348.1666919999998
 30
0.0
 11
2157.6068759999998
 21
4348.1666919999998
 31
0.0
  0
INSERT
  5
7DEC
  8
3
  6
CONTINUOUS
 62
     0
  2
_OPEN
 10
1521.6068760000001
 20
4348.1666919999998
 30
0.0
 41
60.0
 42
60.0
 43
60.0
 50
180.0
  0
INSERT
  5
7DED
  8
3
  6
CONTINUOUS
 62
     0
  2
_OPEN
 10
2217.6068759999998
 20
4348.1666919999998
 30
0.0
 41
60.0
 42
60.0
 43
60.0
  0
TEXT
  8
3
  40
90
  5
7E6A
  62
0
  72
0
  71
0
 10
1703.07
 20
4263.87
 30
0.000000
  1
696
  0
POINT
  5
7DEF
  8
DEFPOINTS
  6
CONTINUOUS
 62
     0
 10
1521.6068760000001
 20
3974.3584229999992
 30
0.0
  0
POINT
  5
7DF0
  8
DEFPOINTS
  6
CONTINUOUS
 62
     0
 10
2217.6068759999998
 20
4273.4590669999998
 30
0.0
  0
POINT
  5
7DF1
  8
DEFPOINTS
  6
CONTINUOUS
 62
     0
 10
2217.6068759999998
 20
4348.1666919999998
 30
0.0
  0
ENDBLK
  5
7C4C
  8
0
  0
BLOCK
  8
0
  2
*D3
 70
     1
 10
0.0
 20
0.0
 30
0.0
  3
*D3
  1

  0
LINE
  5
7DF2
  8
3
  6
CONTINUOUS
 62
     0
 10
2306.6068759999998
 20
3974.3584229999992
 30
0.0
 11
3104.0851580000008
 21
3974.3584229999992
 31
0.0
  0
LINE
  5
7DF3
  8
3
  6
CONTINUOUS
 62
     0
 10
3015.0493699999988
 20
3439.3584229999992
 30
0.0
 11
3104.0851580000008
 21
3439.3584229999992
 31
0.0
  0
LINE
  5
7DF4
  8
3
  6
CONTINUOUS
 62
     0
 10
3074.0851579999999
 20
3914.3584229999992
 30
0.0
 11
3074.0851579999999
 21
3499.3584229999992
 31
0.0
  0
INSERT
  5
7DF5
  8
3
  6
CONTINUOUS
 62
     0
  2
_OPEN
 10
3074.0851579999999
 20
3974.3584229999992
 30
0.0
 41
60.0
 42
60.0
 43
60.0
 50
90.0
  0
INSERT
  5
7DF6
  8
3
  6
CONTINUOUS
 62
     0
  2
_OPEN
 10
3074.0851579999999
 20
3439.3584229999992
 30
0.0
 41
60.0
 42
60.0
 43
60.0
 50
270.0
  0
TEXT
  8
3
  40
90
  5
7E6B
  62
0
  72
0
  71
0
 10
2819.09
 20
3541.28
 30
0.000000
  1
535
  0
POINT
  5
7DF8
  8
DEFPOINTS
  6
CONTINUOUS
 62
     0
 10
2291.6068759999998
 20
3974.3584229999992
 30
0.0
  0
POINT
  5
7DF9
  8
DEFPOINTS
  6
CONTINUOUS
 62
     0
 10
3000.0493699999988
 20
3439.3584229999992
 30
0.0
  0
POINT
  5
7DFA
  8
DEFPOINTS
  6
CONTINUOUS
 62
     0
 10
3074.0851579999999
 20
3439.3584229999992
 30
0.0
  0
ENDBLK
  5
7C2C
  8
0
  0
BLOCK
  8
0
  2
*D4
 70
     1
 10
0.0
 20
0.0
 30
0.0
  3
*D4
  1

  0
LINE
  5
7DFB
  8
3
  6
CONTINUOUS
 62
     0
 10
2702.6068759999998
 20
2814.3584230000001
 30
0.0
 11
3104.0851579999999
 21
2814.3584229999992
 31
0.0
  0
LINE
  5
7DFC
  8
3
  6
CONTINUOUS
 62
     0
 10
3074.0851579999999
 20
3379.3584229999992
 30
0.0
 11
3074.0851579999999
 21
2874.3584229999992
 31
0.0
  0
INSERT
  5
7DFD
  8
3
  6
CONTINUOUS
 62
     0
  2
_OPEN
 10
3074.0851579999999
 20
3439.3584229999992
 30
0.0
 41
60.0
 42
60.0
 43
60.0
 50
90.0
  0
INSERT
  5
7DFE
  8
3
  6
CONTINUOUS
 62
     0
  2
_OPEN
 10
3074.0851579999999
 20
2814.3584229999992
 30
0.0
 41
60.0
 42
60.0
 43
60.0
 50
270.0
  0
TEXT
  8
3
  40
90
  5
7E6C
  62
0
  72
0
  71
0
 10
2819.09
 20
2967.56
 30
0.000000
  1
625
  0
POINT
  5
7E00
  8
DEFPOINTS
  6
CONTINUOUS
 62
     0
 10
3000.0493699999988
 20
3439.3584229999992
 30
0.0
  0
POINT
  5
7E01
  8
DEFPOINTS
  6
CONTINUOUS
 62
     0
 10
2687.6068759999998
 20
2814.3584230000001
 30
0.0
  0
POINT
  5
7E02
  8
DEFPOINTS
  6
CONTINUOUS
 62
     0
 10
3074.0851579999999
 20
2814.3584229999992
 30
0.0
  0
ENDBLK
  5
7C21
  8
0
  0
BLOCK
  8
0
  2
*D5
 70
     1
 10
0.0
 20
0.0
 30
0.0
  3
*D5
  1

  0
LINE
  5
7E03
  8
3
  6
CONTINUOUS
 62
     0
 10
4419.5382090000003
 20
3989.3584229999992
 30
0.0
 11
4419.5382090000003
 21
4190.7121059999999
 31
0.0
  0
LINE
  5
7E04
  8
3
  6
CONTINUOUS
 62
     0
 10
4949.5382090000003
 20
3989.3584229999992
 30
0.0
 11
4949.5382090000003
 21
4190.7121059999999
 31
0.0
  0
LINE
  5
7E05
  8
3
  6
CONTINUOUS
 62
     0
 10
4479.5382090000003
 20
4160.7121059999999
 30
0.0
 11
4889.5382090000012
 21
4160.7121059999999
 31
0.0
  0
INSERT
  5
7E06
  8
3
  6
CONTINUOUS
 62
     0
  2
_OPEN
 10
4419.5382090000003
 20
4160.7121059999999
 30
0.0
 41
60.0
 42
60.0
 43
60.0
 50
180.0
  0
INSERT
  5
7E07
  8
3
  6
CONTINUOUS
 62
     0
  2
_OPEN
 10
4949.5382090000003
 20
4160.7121059999999
 30
0.0
 41
60.0
 42
60.0
 43
60.0
  0
TEXT
  8
3
  40
90
  5
7E6D
  62
0
  72
0
  71
0
 10
4495.52
 20
4076.41
 30
0.000000
  1
530
  0
POINT
  5
7E09
  8
DEFPOINTS
  6
CONTINUOUS
 62
     0
 10
4419.5382090000003
 20
3974.3584229999992
 30
0.0
  0
POINT
  5
7E0A
  8
DEFPOINTS
  6
CONTINUOUS
 62
     0
 10
4949.5382090000003
 20
3974.3584229999992
 30
0.0
  0
POINT
  5
7E0B
  8
DEFPOINTS
  6
CONTINUOUS
 62
     0
 10
4949.5382090000003
 20
4160.7121059999999
 30
0.0
  0
ENDBLK
  5
7B6D
  8
0
  0
BLOCK
  8
0
  2
*D6
 70
     1
 10
0.0
 20
0.0
 30
0.0
  3
*D6
  1

  0
LINE
  5
7E0C
  8
3
  6
CONTINUOUS
 62
     0
 10
4966.5382090000003
 20
3816.3584230000001
 30
0.0
 11
5242.8411969999997
 21
3816.3584229999992
 31
0.0
  0
LINE
  5
7E0D
  8
3
  6
CONTINUOUS
 62
     0
 10
4966.5382090000003
 20
3062.3584230000001
 30
0.0
 11
5242.8411969999997
 21
3062.3584230000001
 31
0.0
  0
LINE
  5
7E0E
  8
3
  6
CONTINUOUS
 62
     0
 10
5212.8411970000006
 20
3756.3584230000001
 30
0.0
 11
5212.8411970000006
 21
3122.3584229999992
 31
0.0
  0
INSERT
  5
7E0F
  8
3
  6
CONTINUOUS
 62
     0
  2
_OPEN
 10
5212.8411970000006
 20
3816.3584229999992
 30
0.0
 41
60.0
 42
60.0
 43
60.0
 50
90.0
  0
INSERT
  5
7E10
  8
3
  6
CONTINUOUS
 62
     0
  2
_OPEN
 10
5212.8411970000006
 20
3062.3584230000001
 30
0.0
 41
60.0
 42
60.0
 43
60.0
 50
270.0
  0
TEXT
  8
3
  40
90
  5
7E6E
  62
0
  72
0
  71
0
 10
4957.84
 20
3297.27
 30
0.000000
  1
φ754
  0
POINT
  5
7E12
  8
DEFPOINTS
  6
CONTINUOUS
 62
     0
 10
4951.5382090000003
 20
3816.3584230000001
 30
0.0
  0
POINT
  5
7E13
  8
DEFPOINTS
  6
CONTINUOUS
 62
     0
 10
4951.5382090000003
 20
3062.3584230000001
 30
0.0
  0
POINT
  5
7E14
  8
DEFPOINTS
  6
CONTINUOUS
 62
     0
 10
5212.8411970000006
 20
3062.3584230000001
 30
0.0
  0
ENDBLK
  5
7D09
  8
0
  0
BLOCK
  8
0
  2
*D7
 70
     1
 10
0.0
 20
0.0
 30
0.0
  3
*D7
  1

  0
LINE
  5
7D20
  8
0
  6
BYBLOCK
 62
     0
 10
4951.5382090000003
 20
3831.3584229999992
 30
0.0
 11
4951.5382090000003
 21
4374.5229369999997
 31
0.0
  0
LINE
  5
7D21
  8
0
  6
BYBLOCK
 62
     0
 10
4684.5382090000003
 20
4319.2594810000001
 30
0.0
 11
4684.5382090000003
 21
4374.5229369999997
 31
0.0
  0
LINE
  5
7D22
  8
0
  6
BYBLOCK
 62
     0
 10
4891.5382090000003
 20
4344.5229369999988
 30
0.0
 11
4744.5382090000003
 21
4344.5229369999988
 31
0.0
  0
TEXT
  5
7D23
  8
3
 62
     0
 10
4723.1776702063471
 20
4389.7407249764474
 30
0.0
 40
90.0
  1
267
  0
INSERT
  5
7D24
  8
0
  6
BYBLOCK
 62
     0
  2
_OPEN
 10
4951.5382090000003
 20
4344.5229369999988
 30
0.0
 41
60.0
 42
60.0
 43
60.0
  0
INSERT
  5
7D25
  8
0
  6
BYBLOCK
 62
     0
  2
_OPEN
 10
4684.5382090000003
 20
4344.5229369999988
 30
0.0
 41
60.0
 42
60.0
 43
60.0
 50
180.0
  0
POINT
  5
7D26
  8
DEFPOINTS
  6
BYBLOCK
 62
     0
 10
4951.5382090000003
 20
3816.3584230000001
 30
0.0
  0
POINT
  5
7D27
  8
DEFPOINTS
  6
BYBLOCK
 62
     0
 10
4684.5382090000003
 20
4304.2594810000001
 30
0.0
  0
POINT
  5
7D28
  8
DEFPOINTS
  6
BYBLOCK
 62
     0
 10
4684.5382090000003
 20
4344.5229369999988
 30
0.0
  0
ENDBLK
  5
7D29
  8
0
  0
BLOCK
  8
0
  2
*D8
 70
     1
 10
0.0
 20
0.0
 30
0.0
  3
*D8
  1

  0
LINE
  5
7E15
  8
3
  6
CONTINUOUS
 62
     0
 10
4184.5382090000003
 20
4069.3584229999992
 30
0.0
 11
4184.5382090000003
 21
4374.5229369999997
 31
0.0
  0
LINE
  5
7E16
  8
3
  6
CONTINUOUS
 62
     0
 10
4624.5382090000003
 20
4344.5229369999988
 30
0.0
 11
4244.5382090000003
 21
4344.5229369999988
 31
0.0
  0
INSERT
  5
7E17
  8
3
  6
CONTINUOUS
 62
     0
  2
_OPEN
 10
4684.5382090000003
 20
4344.5229369999988
 30
0.0
 41
60.0
 42
60.0
 43
60.0
  0
INSERT
  5
7E18
  8
3
  6
CONTINUOUS
 62
     0
  2
_OPEN
 10
4184.5382090000003
 20
4344.5229369999988
 30
0.0
 41
60.0
 42
60.0
 43
60.0
 50
180.0
  0
TEXT
  8
3
  40
90
  5
7E6F
  62
0
  72
0
  71
0
 10
4254.54
 20
4335.22
 30
0.000000
  1
MAX
  0
TEXT
  8
3
  40
90
  5
7E70
  62
0
  72
0
  71
0
 10
4254.54
 20
4218.22
 30
0.000000
  1
560
  0
POINT
  5
7E1A
  8
DEFPOINTS
  6
CONTINUOUS
 62
     0
 10
4684.5382090000003
 20
4304.2594810000001
 30
0.0
  0
POINT
  5
7E1B
  8
DEFPOINTS
  6
CONTINUOUS
 62
     0
 10
4184.5382090000003
 20
4054.3584230000001
 30
0.0
  0
POINT
  5
7E1C
  8
DEFPOINTS
  6
CONTINUOUS
 62
     0
 10
4184.5382090000003
 20
4344.5229369999988
 30
0.0
  0
ENDBLK
  5
7D13
  8
0
  0
BLOCK
  8
0
  2
*D9
 70
     1
 10
0.0
 20
0.0
 30
0.0
  3
*D9
  1

  0
LINE
  5
7E1D
  8
3
  6
CONTINUOUS
 62
     0
 10
1187.6068760000001
 20
6117.9698900000012
 30
0.0
 11
1187.6068760000001
 21
6357.8939179999998
 31
0.0
  0
LINE
  5
7E1E
  8
3
  6
CONTINUOUS
 62
     0
 10
2687.6068759999998
 20
6117.9698900000012
 30
0.0
 11
2687.6068759999998
 21
6357.8939179999998
 31
0.0
  0
LINE
  5
7E1F
  8
3
  6
CONTINUOUS
 62
     0
 10
1247.6068760000001
 20
6327.8939179999998
 30
0.0
 11
2627.6068759999998
 21
6327.8939179999998
 31
0.0
  0
INSERT
  5
7E20
  8
3
  6
CONTINUOUS
 62
     0
  2
_OPEN
 10
1187.6068760000001
 20
6327.8939179999998
 30
0.0
 41
60.0
 42
60.0
 43
60.0
 50
180.0
  0
INSERT
  5
7E21
  8
3
  6
CONTINUOUS
 62
     0
  2
_OPEN
 10
2687.6068759999998
 20
6327.8939179999998
 30
0.0
 41
60.0
 42
60.0
 43
60.0
  0
TEXT
  8
3
  40
90
  5
7E71
  62
0
  72
0
  71
0
 10
1730.98
 20
6243.59
 30
0.000000
  1
1500
  0
POINT
  5
7E23
  8
DEFPOINTS
  6
CONTINUOUS
 62
     0
 10
1187.6068760000001
 20
6102.9698900000003
 30
0.0
  0
POINT
  5
7E24
  8
DEFPOINTS
  6
CONTINUOUS
 62
     0
 10
2687.6068759999998
 20
6102.9698900000003
 30
0.0
  0
POINT
  5
7E25
  8
DEFPOINTS
  6
CONTINUOUS
 62
     0
 10
2687.6068759999998
 20
6327.8939179999998
 30
0.0
  0
ENDBLK
  5
7BBF
  8
0
  0
BLOCK
  8
0
  2
*D10
 70
     1
 10
0.0
 20
0.0
 30
0.0
  3
*D10
  1

  0
LINE
  5
7E26
  8
3
  6
CONTINUOUS
 62
     0
 10
2702.6068759999998
 20
6102.9698900000003
 30
0.0
 11
3015.633694000001
 21
6102.9698900000003
 31
0.0
  0
LINE
  5
7E27
  8
3
  6
CONTINUOUS
 62
     0
 10
2702.6068759999998
 20
5342.9698900000003
 30
0.0
 11
3015.633694000001
 21
5342.9698900000003
 31
0.0
  0
LINE
  5
7E28
  8
3
  6
CONTINUOUS
 62
     0
 10
2985.6336940000001
 20
6042.9698900000012
 30
0.0
 11
2985.6336940000001
 21
5402.9698900000012
 31
0.0
  0
INSERT
  5
7E29
  8
3
  6
CONTINUOUS
 62
     0
  2
_OPEN
 10
2985.6336940000001
 20
6102.9698900000003
 30
0.0
 41
60.0
 42
60.0
 43
60.0
 50
90.0
  0
INSERT
  5
7E2A
  8
3
  6
CONTINUOUS
 62
     0
  2
_OPEN
 10
2985.6336940000001
 20
5342.9698900000003
 30
0.0
 41
60.0
 42
60.0
 43
60.0
 50
270.0
  0
TEXT
  8
3
  40
90
  5
7E72
  62
0
  72
0
  71
0
 10
2730.63
 20
5610.86
 30
0.000000
  1
760
  0
POINT
  5
7E2C
  8
DEFPOINTS
  6
CONTINUOUS
 62
     0
 10
2687.6068759999998
 20
6102.9698900000003
 30
0.0
  0
POINT
  5
7E2D
  8
DEFPOINTS
  6
CONTINUOUS
 62
     0
 10
2687.6068759999998
 20
5342.9698900000003
 30
0.0
  0
POINT
  5
7E2E
  8
DEFPOINTS
  6
CONTINUOUS
 62
     0
 10
2985.6336940000001
 20
5342.9698900000003
 30
0.0
  0
ENDBLK
  5
7BCC
  8
0
  0
BLOCK
  8
0
  2
*D11
 70
     1
 10
0.0
 20
0.0
 30
0.0
  3
*D11
  1

  0
LINE
  5
7E2F
  8
3
  6
CONTINUOUS
 62
     0
 10
2725.8540521959599
 20
3454.3584230000001
 30
0.0
 11
2725.8540521959599
 21
4378.1666919999989
 31
0.0
  0
LINE
  5
7E30
  8
3
  6
CONTINUOUS
 62
     0
 10
2277.6068759999998
 20
4348.1666919999998
 30
0.0
 11
2665.8540521959599
 21
4348.1666919999998
 31
0.0
  0
INSERT
  5
7E31
  8
3
  6
CONTINUOUS
 62
     0
  2
_OPEN
 10
2217.6068759999998
 20
4348.1666919999998
 30
0.0
 41
60.0
 42
60.0
 43
60.0
 50
180.0
  0
INSERT
  5
7E32
  8
3
  6
CONTINUOUS
 62
     0
  2
_OPEN
 10
2725.8540521959599
 20
4348.1666919999998
 30
0.0
 41
60.0
 42
60.0
 43
60.0
  0
TEXT
  8
3
  40
90
  5
7E73
  62
0
  72
0
  71
0
 10
2291.73
 20
4263.87
 30
0.000000
  1
508
  0
POINT
  5
7E34
  8
DEFPOINTS
  6
CONTINUOUS
 62
     0
 10
2217.6068759999998
 20
4273.4590669999998
 30
0.0
  0
POINT
  5
7E35
  8
DEFPOINTS
  6
CONTINUOUS
 62
     0
 10
2725.8540521959599
 20
3439.3584230000001
 30
0.0
  0
POINT
  5
7E36
  8
DEFPOINTS
  6
CONTINUOUS
 62
     0
 10
2725.8540521959599
 20
4348.1666919999998
 30
0.0
  0
ENDBLK
  5
7D34
  8
0
  0
BLOCK
  8
0
  2
*D12
 70
     1
 10
0.0
 20
0.0
 30
0.0
  3
*D12
  1

  0
LINE
  5
7E37
  8
3
 62
     0
 10
1187.6068760000001
 20
2604.3584230000001
 30
0.0
 11
1187.6068760000001
 21
2367.6733921997329
 31
0.0
  0
LINE
  5
7E38
  8
3
 62
     0
 10
2217.6068759999998
 20
2604.3584230000001
 30
0.0
 11
2217.6068759999998
 21
2367.6733921997329
 31
0.0
  0
LINE
  5
7E39
  8
3
 62
     0
 10
1247.6068759999989
 20
2397.673392199732
 30
0.0
 11
2157.6068759999998
 21
2397.673392199732
 31
0.0
  0
INSERT
  5
7E3A
  8
3
 62
     0
  2
_OPEN
 10
1187.6068760000001
 20
2397.673392199732
 30
0.0
 41
60.0
 42
60.0
 43
60.0
 50
180.0
  0
INSERT
  5
7E3B
  8
3
 62
     0
  2
_OPEN
 10
2217.6068759999998
 20
2397.673392199732
 30
0.0
 41
60.0
 42
60.0
 43
60.0
  0
TEXT
  8
3
  40
90
  5
7E74
  62
0
  72
0
  71
0
 10
1522.61
 20
2313.37
 30
0.000000
  1
1030
  0
POINT
  5
7E3D
  8
DEFPOINTS
 62
     0
 10
1187.6068760000001
 20
2619.3584230000001
 30
0.0
  0
POINT
  5
7E3E
  8
DEFPOINTS
 62
     0
 10
2217.6068759999998
 20
2619.3584230000001
 30
0.0
  0
POINT
  5
7E3F
  8
DEFPOINTS
 62
     0
 10
2217.6068759999998
 20
2397.673392199732
 30
0.0
  0
ENDBLK
  5
7D55
  8
0
  0
BLOCK
  8
0
  2
*D13
 70
     1
 10
0.0
 20
0.0
 30
0.0
  3
*D13
  1

  0
LINE
  5
7E40
  8
3
 62
     0
 10
2217.6068759999998
 20
2604.3584230000001
 30
0.0
 11
2217.6068759999998
 21
2367.6733921997329
 31
0.0
  0
LINE
  5
7E41
  8
3
 62
     0
 10
2687.6068759999998
 20
2604.3584230000001
 30
0.0
 11
2687.6068759999998
 21
2367.6733921997329
 31
0.0
  0
LINE
  5
7E42
  8
3
 62
     0
 10
2277.6068759999998
 20
2397.673392199732
 30
0.0
 11
2627.6068759999998
 21
2397.673392199732
 31
0.0
  0
INSERT
  5
7E43
  8
3
 62
     0
  2
_OPEN
 10
2217.6068759999998
 20
2397.673392199732
 30
0.0
 41
60.0
 42
60.0
 43
60.0
 50
180.0
  0
INSERT
  5
7E44
  8
3
 62
     0
  2
_OPEN
 10
2687.6068759999998
 20
2397.673392199732
 30
0.0
 41
60.0
 42
60.0
 43
60.0
  0
TEXT
  8
3
  40
90
  5
7E75
  62
0
  72
0
  71
0
 10
2272.61
 20
2313.37
 30
0.000000
  1
470
  0
POINT
  5
7E46
  8
DEFPOINTS
 62
     0
 10
2217.6068759999998
 20
2619.3584230000001
 30
0.0
  0
POINT
  5
7E47
  8
DEFPOINTS
 62
     0
 10
2687.6068759999998
 20
2619.3584230000001
 30
0.0
  0
POINT
  5
7E48
  8
DEFPOINTS
 62
     0
 10
2687.6068759999998
 20
2397.673392199732
 30
0.0
  0
ENDBLK
  5
7D62
  8
0
  0
BLOCK
  8
0
  2
*D14
 70
     1
 10
0.0
 20
0.0
 30
0.0
  3
*D14
  1

  0
LINE
  5
7E49
  8
3
 62
     0
 10
4241.5382090000003
 20
2604.3584230000001
 30
0.0
 11
4241.5382090000003
 21
2367.6733921997329
 31
0.0
  0
LINE
  5
7E4A
  8
3
 62
     0
 10
4684.5382090000003
 20
2604.3584229999992
 30
0.0
 11
4684.5382090000003
 21
2367.6733921997329
 31
0.0
  0
LINE
  5
7E4B
  8
3
 62
     0
 10
4301.5382090000003
 20
2397.673392199732
 30
0.0
 11
4624.5382090000003
 21
2397.673392199732
 31
0.0
  0
INSERT
  5
7E4C
  8
3
 62
     0
  2
_OPEN
 10
4241.5382090000003
 20
2397.673392199732
 30
0.0
 41
60.0
 42
60.0
 43
60.0
 50
180.0
  0
INSERT
  5
7E4D
  8
3
 62
     0
  2
_OPEN
 10
4684.5382090000003
 20
2397.673392199732
 30
0.0
 41
60.0
 42
60.0
 43
60.0
  0
TEXT
  8
3
  40
90
  5
7E76
  62
0
  72
0
  71
0
 10
4283.04
 20
2313.37
 30
0.000000
  1
443
  0
POINT
  5
7E4F
  8
DEFPOINTS
 62
     0
 10
4241.5382090000003
 20
2619.3584230000001
 30
0.0
  0
POINT
  5
7E50
  8
DEFPOINTS
 62
     0
 10
4684.5382090000003
 20
2619.3584229999992
 30
0.0
  0
POINT
  5
7E51
  8
DEFPOINTS
 62
     0
 10
4684.5382090000003
 20
2397.673392199732
 30
0.0
  0
ENDBLK
  5
7D6F
  8
0
  0
BLOCK
  8
0
  2
*D15
 70
     1
 10
0.0
 20
0.0
 30
0.0
  3
*D15
  1

  0
LINE
  5
7E52
  8
3
 62
     0
 10
4684.5382090000003
 20
2604.3584229999992
 30
0.0
 11
4684.5382090000003
 21
2367.6733921997329
 31
0.0
  0
LINE
  5
7E53
  8
3
 62
     0
 10
5001.5382090000003
 20
2604.3584230000001
 30
0.0
 11
5001.5382090000003
 21
2367.6733921997329
 31
0.0
  0
LINE
  5
7E54
  8
3
 62
     0
 10
4744.5382090000003
 20
2397.673392199732
 30
0.0
 11
4941.5382090000003
 21
2397.673392199732
 31
0.0
  0
INSERT
  5
7E55
  8
3
 62
     0
  2
_OPEN
 10
4684.5382090000003
 20
2397.673392199732
 30
0.0
 41
60.0
 42
60.0
 43
60.0
 50
180.0
  0
INSERT
  5
7E56
  8
3
 62
     0
  2
_OPEN
 10
5001.5382090000003
 20
2397.673392199732
 30
0.0
 41
60.0
 42
60.0
 43
60.0
  0
TEXT
  8
3
  40
90
  5
7E77
  62
0
  72
0
  71
0
 10
4663.04
 20
2313.37
 30
0.000000
  1
317
  0
POINT
  5
7E58
  8
DEFPOINTS
 62
     0
 10
4684.5382090000003
 20
2619.3584229999992
 30
0.0
  0
POINT
  5
7E59
  8
DEFPOINTS
 62
     0
 10
5001.5382090000003
 20
2619.3584230000001
 30
0.0
  0
POINT
  5
7E5A
  8
DEFPOINTS
 62
     0
 10
5001.5382090000003
 20
2397.673392199732
 30
0.0
  0
ENDBLK
  5
7D7E
  8
0
  0
BLOCK
  8
0
  2
_DOT
 70
     0
 10
0.0
 20
0.0
 30
0.0
  3
_DOT
  1

  0
POLYLINE
  5
7D82
  8
0
  6
BYBLOCK
 62
     0
 66
     1
 10
0.0
 20
0.0
 30
0.0
 70
     1
 40
0.5
 41
0.5
  0
VERTEX
  5
7E5B
  8
0
  6
BYBLOCK
 62
     0
 10
-0.25
 20
0.0
 30
0.0
 42
1.0
  0
VERTEX
  5
7E5C
  8
0
  6
BYBLOCK
 62
     0
 10
0.25
 20
0.0
 30
0.0
 42
1.0
  0
SEQEND
  5
7E5D
  8
0
  6
BYBLOCK
 62
     0
  0
LINE
  5
7D86
  8
0
  6
BYBLOCK
 62
     0
 10
-0.5
 20
0.0
 30
0.0
 11
-1.0
 21
0.0
 31
0.0
  0
ENDBLK
  5
7D87
  8
0
  0
BLOCK
  8
0
  2
*D17
 70
     1
 10
0.0
 20
0.0
 30
0.0
  3
*D17
  1

  0
LINE
  5
7E5E
  8
3
 62
     0
 10
2702.6068759999998
 20
2719.3584230000001
 30
0.0
 11
3104.9862740718409
 21
2719.3584230000001
 31
0.0
  0
LINE
  5
7E5F
  8
3
 62
     0
 10
2702.6068759999998
 20
2619.3584230000001
 30
0.0
 11
3104.9862740718409
 21
2619.3584229999992
 31
0.0
  0
LINE
  5
7E60
  8
3
 62
     0
 10
3074.9862740718409
 20
2779.3584229999992
 30
0.0
 11
3074.9862740718409
 21
2839.3584230000001
 31
0.0
  0
LINE
  5
7E61
  8
3
 62
     0
 10
3074.9862740718409
 20
2559.3584229999992
 30
0.0
 11
3074.9862740718409
 21
2225.072708714285
 31
0.0
  0
LINE
  5
7E62
  8
3
 62
     0
 10
3074.9862740718409
 20
2719.3584230000001
 30
0.0
 11
3074.9862740718409
 21
2619.3584229999992
 31
0.0
  0
INSERT
  5
7E63
  8
3
 62
     0
  2
_DOT
 10
3074.9862740718409
 20
2719.3584230000001
 30
0.0
 41
60.0
 42
60.0
 43
60.0
 50
270.0
  0
INSERT
  5
7E64
  8
3
 62
     0
  2
_OPEN
 10
3074.9862740718409
 20
2619.3584229999992
 30
0.0
 41
60.0
 42
60.0
 43
60.0
 50
90.0
  0
TEXT
  8
3
  40
90
  5
7E78
  62
0
  72
0
  71
0
 10
2819.99
 20
2202.92
 30
0.000000
  1
100
  0
POINT
  5
7E66
  8
DEFPOINTS
 62
     0
 10
2687.6068759999998
 20
2719.3584230000001
 30
0.0
  0
POINT
  5
7E67
  8
DEFPOINTS
 62
     0
 10
2687.6068759999998
 20
2619.3584230000001
 30
0.0
  0
POINT
  5
7E68
  8
DEFPOINTS
 62
     0
 10
3074.9862740718409
 20
2619.3584229999992
 30
0.0
  0
ENDBLK
  5
7D95
  8
0
  0
BLOCK
  8
0
  2
*D18
 70
     1
 10
0.0
 20
0.0
 30
0.0
  3
*D18
  1

  0
LINE
  5
7D99
  8
0
  6
BYBLOCK
 62
     0
 10
2702.6068759999998
 20
2719.3584230000001
 30
0.0
 11
3104.9862740718409
 21
2719.3584230000001
 31
0.0
  0
LINE
  5
7D9A
  8
0
  6
BYBLOCK
 62
     0
 10
2702.6068759999998
 20
2814.3584230000001
 30
0.0
 11
3104.9862740718409
 21
2814.3584230000001
 31
0.0
  0
LINE
  5
7D9B
  8
0
  6
BYBLOCK
 62
     0
 10
3074.9862740718409
 20
2659.3584230000001
 30
0.0
 11
3074.9862740718409
 21
2599.3584230000001
 31
0.0
  0
LINE
  5
7D9C
  8
0
  6
BYBLOCK
 62
     0
 10
3074.9862740718409
 20
2874.3584230000001
 30
0.0
 11
3074.9862740718409
 21
2934.3584230000001
 31
0.0
  0
TEXT
  5
7D9D
  8
3
 62
     0
 10
3248.5577026432702
 20
2636.1441372857139
 30
0.0
 40
90.0
  1
(95)
 50
90.0
  0
LINE
  5
7D9E
  8
0
  6
BYBLOCK
 62
     0
 10
3074.9862740718409
 20
2719.3584230000001
 30
0.0
 11
3074.9862740718409
 21
2814.3584230000001
 31
0.0
  0
INSERT
  5
7D9F
  8
0
  6
BYBLOCK
 62
     0
  2
_DOT
 10
3074.9862740718409
 20
2719.3584230000001
 30
0.0
 41
60.0
 42
60.0
 43
60.0
 50
90.0
  0
INSERT
  5
7DA0
  8
0
  6
BYBLOCK
 62
     0
  2
_OPEN
 10
3074.9862740718409
 20
2814.3584230000001
 30
0.0
 41
60.0
 42
60.0
 43
60.0
 50
270.0
  0
POINT
  5
7DA1
  8
DEFPOINTS
  6
BYBLOCK
 62
     0
 10
2687.6068759999998
 20
2719.3584230000001
 30
0.0
  0
POINT
  5
7DA2
  8
DEFPOINTS
  6
BYBLOCK
 62
     0
 10
2687.6068759999998
 20
2814.3584230000001
 30
0.0
  0
POINT
  5
7DA3
  8
DEFPOINTS
  6
BYBLOCK
 62
     0
 10
3074.9862740718409
 20
2814.3584230000001
 30
0.0
  0
ENDBLK
  5
7DA4
  8
0
  0
ENDSEC
  0
SECTION
  2
ENTITIES
  0
LINE
  5
7A6D
  8
1
  6
CONTINUOUS
 10
5001.5382090000003
 20
2719.3584230000001
 30
0.0
 11
4241.5382090000003
 21
2719.3584230000001
 31
0.0
  0
LINE
  5
7A6E
  8
1
  6
CONTINUOUS
 10
5001.5382090000003
 20
2619.3584230000001
 30
0.0
 11
4241.5382090000003
 21
2619.3584230000001
 31
0.0
  0
LINE
  5
7A6F
  8
1
  6
CONTINUOUS
 10
4989.5382090000003
 20
3974.3584229999992
 30
0.0
 11
4379.5382090000003
 21
3974.3584229999992
 31
0.0
  0
LINE
  5
7A70
  8
1
  6
CONTINUOUS
 10
5001.5382090000003
 20
2814.3584230000001
 30
0.0
 11
4241.5382090000003
 21
2814.3584230000001
 31
0.0
  0
LINE
  5
7A71
  8
1
  6
CONTINUOUS
 10
5001.5382090000003
 20
2914.3584230000001
 30
0.0
 11
4184.5382090000003
 21
2914.3584230000001
 31
0.0
  0
LINE
  5
7A73
  8
1
  6
CONTINUOUS
 10
4419.5382090000003
 20
3974.3584229999992
 30
0.0
 11
4419.5382090000003
 21
2914.3584230000001
 31
0.0
  0
LINE
  5
7A74
  8
1
  6
CONTINUOUS
 10
2587.6068759999998
 20
2914.3584230000001
 30
0.0
 11
2587.6068759999998
 21
4054.3584230000001
 31
0.0
  0
CIRCLE
  5
7A75
  8
1
  6
CONTINUOUS
 10
2217.6068759999998
 20
3439.3584229999992
 30
0.0
 40
150.0
  0
LINE
  5
7A76
  8
1
  6
CONTINUOUS
 10
2067.6068759999998
 20
4054.3584230000001
 30
0.0
 11
1227.6068760000001
 21
3214.3584230000001
 31
0.0
  0
LINE
  5
7A77
  8
1
  6
CONTINUOUS
 10
4184.5382090000003
 20
4054.3584230000001
 30
0.0
 11
4184.5382090000003
 21
2914.3584230000001
 31
0.0
  0
LINE
  5
7A78
  8
1
  6
CONTINUOUS
 10
4324.5382090000003
 20
4054.3584230000001
 30
0.0
 11
4324.5382090000003
 21
2914.3584230000001
 31
0.0
  0
LINE
  5
7A79
  8
1
  6
CONTINUOUS
 10
4294.5382090000003
 20
3289.3584230000001
 30
0.0
 11
4294.5382090000003
 21
3589.3584229999992
 31
0.0
  0
LINE
  5
7A7A
  8
1
  6
CONTINUOUS
 10
4214.5382090000003
 20
3289.3584230000001
 30
0.0
 11
4214.5382090000003
 21
3589.3584229999992
 31
0.0
  0
LINE
  5
7A7B
  8
2
  6
CENTER
 10
2217.6068759999998
 20
6234.8452229999994
 30
0.0
 11
2217.6068759999998
 21
5164.3279030000003
 31
0.0
  0
POLYLINE
  5
7A7C
  8
1
  6
CONTINUOUS
 66
     1
 10
0.0
 20
0.0
 30
0.0
  0
VERTEX
  5
7DDA
  8
1
  6
CONTINUOUS
 10
1521.6068760000001
 20
3974.3584229999992
 30
0.0
  0
VERTEX
  5
7DDB
  8
1
  6
CONTINUOUS
 10
1537.6068760000001
 20
3439.3584229999992
 30
0.0
 42
0.4200000000000001
  0
VERTEX
  5
7DDC
  8
1
  6
CONTINUOUS
 10
2229.3968759999998
 20
2854.3384230000001
 30
0.0
 42
0.43
  0
VERTEX
  5
7DDD
  8
1
  6
CONTINUOUS
 10
2722.3768759999998
 20
3471.2784229999988
 30
0.0
 42
0.37
  0
VERTEX
  5
7DDE
  8
1
  6
CONTINUOUS
 10
2251.6068759999998
 20
3888.1284229999992
 30
0.0
 42
0.34
  0
SEQEND
  5
7DDF
  8
1
  6
CONTINUOUS
  0
LINE
  5
7A86
  8
1
  6
CONTINUOUS
 10
2150.866876
 20
3573.6884229999991
 30
0.0
 11
1370.5368759999999
 21
3185.998423
 31
0.0
  0
LINE
  5
7A87
  8
1
  6
CONTINUOUS
 10
2687.6068759999998
 20
2719.3584230000001
 30
0.0
 11
1187.6068760000001
 21
2719.3584230000001
 31
0.0
  0
LINE
  5
7A88
  8
1
  6
CONTINUOUS
 10
2687.6068759999998
 20
2619.3584230000001
 30
0.0
 11
1187.6068760000001
 21
2619.3584230000001
 31
0.0
  0
LINE
  5
7A89
  8
1
  6
CONTINUOUS
 10
2687.6068759999998
 20
2914.3584229999992
 30
0.0
 11
1187.6068760000001
 21
2914.3584230000001
 31
0.0
  0
LINE
  5
7A8A
  8
1
  6
CONTINUOUS
 10
2687.6068759999998
 20
2814.3584230000001
 30
0.0
 11
1187.6068760000001
 21
2814.3584230000001
 31
0.0
  0
LINE
  5
7A8B
  8
1
  6
CONTINUOUS
 10
2262.0468759999999
 20
3296.0884230000001
 30
0.0
 11
1429.8368760000001
 21
3037.9484229999998
 31
0.0
  0
LINE
  5
7A8C
  8
1
  6
CONTINUOUS
 10
1187.6068760000001
 20
2719.3584230000001
 30
0.0
 11
1187.6068760000001
 21
2619.3584230000001
 31
0.0
  0
LINE
  5
7A8D
  8
1
  6
CONTINUOUS
 10
1560.1268759999989
 20
2972.3584230000001
 30
0.0
 11
1538.7868759999999
 21
3021.3684229999999
 31
0.0
  0
LINE
  5
7A8E
  8
1
  6
CONTINUOUS
 10
1560.1268759999989
 20
2914.3584230000001
 30
0.0
 11
1560.1268759999989
 21
2972.3584230000001
 31
0.0
  0
LINE
  5
7A8F
  8
2
  6
CENTER
 10
1406.126876
 20
3034.3584230000001
 30
0.0
 11
1406.126876
 21
3194.3584230000001
 31
0.0
  0
LINE
  5
7A90
  8
2
  6
CENTER
 10
1326.126876
 20
3114.3584230000001
 30
0.0
 11
1486.126876
 21
3114.3584230000001
 31
0.0
  0
LINE
  5
7A91
  8
1
  6
CONTINUOUS
 10
1252.126876
 20
2914.3584230000001
 30
0.0
 11
1252.126876
 21
2972.3584230000001
 31
0.0
  0
LINE
  5
7A92
  8
1
  6
CONTINUOUS
 10
1252.126876
 20
2972.3584230000001
 30
0.0
 11
1273.4768759999999
 21
3021.3684229999999
 31
0.0
  0
ARC
  5
7A93
  8
1
  6
CONTINUOUS
 10
1406.126876
 20
3114.3584230000001
 30
0.0
 40
162.0
 50
324.97000000000003
 51
215.02999999999989
  0
CIRCLE
  5
7A94
  8
1
  6
CONTINUOUS
 10
1406.126876
 20
3114.3584230000001
 30
0.0
 40
80.0
  0
LINE
  5
7A95
  8
1
  6
CONTINUOUS
 10
1227.6068760000001
 20
2914.3584230000001
 30
0.0
 11
1227.6068760000001
 21
3214.3584230000001
 31
0.0
  0
LINE
  5
7A96
  8
1
  6
CONTINUOUS
 10
1187.6068760000001
 20
2914.3584230000001
 30
0.0
 11
1187.6068760000001
 21
2814.3584230000001
 31
0.0
  0
LINE
  5
7A97
  8
1
  6
CONTINUOUS
 10
2687.6068759999998
 20
2719.3584230000001
 30
0.0
 11
2687.6068759999998
 21
2619.3584230000001
 31
0.0
  0
LINE
  5
7A98
  8
1
  6
CONTINUOUS
 10
2687.6068759999998
 20
2914.3584230000001
 30
0.0
 11
2687.6068759999998
 21
2814.3584230000001
 31
0.0
  0
LINE
  5
7A9D
  8
1
  6
CONTINUOUS
 10
4241.5382090000003
 20
2719.3584230000001
 30
0.0
 11
4241.5382090000003
 21
2619.3584230000001
 31
0.0
  0
LINE
  5
7A9E
  8
1
  6
CONTINUOUS
 10
4241.5382090000003
 20
2914.3584230000001
 30
0.0
 11
4241.5382090000003
 21
2814.3584230000001
 31
0.0
  0
LINE
  5
7A9F
  8
1
  6
CONTINUOUS
 10
4294.5382090000003
 20
2994.3584230000001
 30
0.0
 11
4294.5382090000003
 21
3154.3584230000001
 31
0.0
  0
LINE
  5
7AA0
  8
1
  6
CONTINUOUS
 10
4214.5382090000003
 20
2994.3584230000001
 30
0.0
 11
4214.5382090000003
 21
3154.3584230000001
 31
0.0
  0
LINE
  5
7AA1
  8
1
  6
CONTINUOUS
 10
4214.5382090000003
 20
3289.3584230000001
 30
0.0
 11
4294.5382090000003
 21
3289.3584230000001
 31
0.0
  0
LINE
  5
7AA2
  8
1
  6
CONTINUOUS
 10
4214.5382090000003
 20
2994.3584230000001
 30
0.0
 11
4294.5382090000003
 21
2994.3584230000001
 31
0.0
  0
LINE
  5
7AA3
  8
1
  6
CONTINUOUS
 10
4214.5382090000003
 20
3154.3584230000001
 30
0.0
 11
4294.5382090000003
 21
3154.3584230000001
 31
0.0
  0
LINE
  5
7AA4
  8
1
  6
CONTINUOUS
 10
4294.5382090000003
 20
3095.3584230000001
 30
0.0
 11
4419.5382090000003
 21
3095.3584230000001
 31
0.0
  0
LINE
  5
7AA5
  8
1
  6
CONTINUOUS
 10
4294.5382090000003
 20
3053.3584230000001
 30
0.0
 11
4419.5382090000003
 21
3053.3584230000001
 31
0.0
  0
LINE
  5
7AA6
  8
1
  6
CONTINUOUS
 10
2067.6068759999998
 20
5342.9698900000003
 30
0.0
 11
1486.126876
 21
5342.9698900000003
 31
0.0
  0
LINE
  5
7AA7
  8
1
  6
CONTINUOUS
 10
2687.6068759999998
 20
6102.9698900000003
 30
0.0
 11
1187.6068760000001
 21
6102.9698900000003
 31
0.0
  0
LINE
  5
7AA8
  8
1
  6
CONTINUOUS
 10
2587.6068759999998
 20
5285.9698900000003
 30
0.0
 11
1227.6068760000001
 21
5285.9698900000003
 31
0.0
  0
LINE
  5
7AA9
  8
1
  6
CONTINUOUS
 10
2587.6068759999998
 20
5425.9698900000012
 30
0.0
 11
1227.6068760000001
 21
5425.9698900000012
 31
0.0
  0
LINE
  5
7AAA
  8
1
  6
CONTINUOUS
 10
1527.566875999999
 20
5520.9698900000003
 30
0.0
 11
2726.9768760000002
 21
5520.9698900000003
 31
0.0
  0
LINE
  5
7AAB
  8
1
  6
CONTINUOUS
 10
1527.566875999999
 20
6050.9698900000012
 30
0.0
 11
2726.9768760000002
 21
6050.9698900000012
 31
0.0
  0
LINE
  5
7AAC
  8
1
  6
CONTINUOUS
 10
2251.6068759999998
 20
3944.3584230000001
 30
0.0
 11
1522.5068759999999
 21
3944.3584230000001
 31
0.0
  0
LINE
  5
7AAD
  8
1
  6
CONTINUOUS
 10
2291.6068759999998
 20
3974.3584229999992
 30
0.0
 11
1481.6068760000001
 21
3974.3584229999992
 31
0.0
  0
LINE
  5
7AAF
  8
1
  6
CONTINUOUS
 10
1527.566875999999
 20
6050.9698900000012
 30
0.0
 11
2257.5668759999999
 21
5520.9698900000003
 31
0.0
  0
LINE
  5
7AB0
  8
1
  6
CONTINUOUS
 10
1527.566875999999
 20
5520.9698900000003
 30
0.0
 11
2257.5668759999999
 21
6050.9698900000012
 31
0.0
  0
LINE
  5
7AB1
  8
1
  6
CONTINUOUS
 10
1326.126876
 20
5342.9698900000003
 30
0.0
 11
1187.6068760000001
 21
5342.9698900000003
 31
0.0
  0
LINE
  5
7AB2
  8
1
  6
CONTINUOUS
 10
1239.146876
 20
5941.1798899999994
 30
0.0
 11
1527.566875999999
 21
5941.1798899999994
 31
0.0
  0
LINE
  5
7AB3
  8
1
  6
CONTINUOUS
 10
1427.1268759999989
 20
5395.9698900000003
 30
0.0
 11
1427.1268759999989
 21
5485.2398899999989
 31
0.0
  0
LINE
  5
7AB4
  8
1
  6
CONTINUOUS
 10
1385.126876
 20
5395.9698900000003
 30
0.0
 11
1385.126876
 21
5485.2398899999989
 31
0.0
  0
LINE
  5
7AB5
  8
1
  6
CONTINUOUS
 10
1239.146876
 20
5485.2398899999989
 30
0.0
 11
1568.126876
 21
5485.2398899999989
 31
0.0
  0
LINE
  5
7AB6
  8
1
  6
CONTINUOUS
 10
1568.126876
 20
5485.2398899999989
 30
0.0
 11
1568.126876
 21
5520.9698900000003
 31
0.0
  0
LINE
  5
7AB7
  8
1
  6
CONTINUOUS
 10
1239.146876
 20
5485.2398899999989
 30
0.0
 11
1239.146876
 21
5941.1798899999994
 31
0.0
  0
LINE
  5
7AB8
  8
1
  6
CONTINUOUS
 10
1187.6068760000001
 20
6102.9698900000003
 30
0.0
 11
1187.6068760000001
 21
5342.9698900000003
 31
0.0
  0
LINE
  5
7AB9
  8
1
  6
CONTINUOUS
 10
1227.6068760000001
 20
5285.9698900000003
 30
0.0
 11
1227.6068760000001
 21
5425.9698900000012
 31
0.0
  0
LINE
  5
7ABA
  8
1
  6
CONTINUOUS
 10
1326.126876
 20
5315.9698900000003
 30
0.0
 11
1326.126876
 21
5395.9698900000003
 31
0.0
  0
LINE
  5
7ABB
  8
1
  6
CONTINUOUS
 10
1486.126876
 20
5315.9698900000003
 30
0.0
 11
1486.126876
 21
5395.9698900000003
 31
0.0
  0
LINE
  5
7ABC
  8
1
  6
CONTINUOUS
 10
1486.126876
 20
5315.9698900000003
 30
0.0
 11
1326.126876
 21
5315.9698900000003
 31
0.0
  0
LINE
  5
7ABD
  8
1
  6
CONTINUOUS
 10
1486.126876
 20
5395.9698900000003
 30
0.0
 11
1326.126876
 21
5395.9698900000003
 31
0.0
  0
LINE
  5
7ABE
  8
1
  6
CONTINUOUS
 10
1527.566875999999
 20
5520.9698900000003
 30
0.0
 11
1527.566875999999
 21
6050.9698900000012
 31
0.0
  0
LINE
  5
7ABF
  8
1
  6
CONTINUOUS
 10
2587.6068759999998
 20
4054.3584230000001
 30
0.0
 11
2067.6068759999998
 21
4054.3584230000001
 31
0.0
  0
LINE
  5
7AC0
  8
1
  6
CONTINUOUS
 10
2251.6068759999998
 20
3888.1284229999992
 30
0.0
 11
2251.6068759999998
 21
3974.3584229999992
 31
0.0
  0
LINE
  5
7AC1
  8
2
  6
CENTER
 10
5038.3850920000014
 20
3439.3584229999992
 30
0.0
 11
4059.5431389999999
 21
3439.3584229999992
 31
0.0
  0
LINE
  5
7AC2
  8
1
  6
CONTINUOUS
 10
4324.5382090000003
 20
4054.3584230000001
 30
0.0
 11
4184.5382090000003
 21
4054.3584230000001
 31
0.0
  0
LINE
  5
7AC3
  8
1
  6
CONTINUOUS
 10
4214.5382090000003
 20
3589.3584229999992
 30
0.0
 11
4294.5382090000003
 21
3589.3584229999992
 31
0.0
  0
LINE
  5
7AC4
  8
1
  6
CONTINUOUS
 10
4294.5382090000003
 20
3418.3584230000001
 30
0.0
 11
4419.5382090000003
 21
3418.3584230000001
 31
0.0
  0
LINE
  5
7AC5
  8
1
  6
CONTINUOUS
 10
4294.5382090000003
 20
3460.3584229999992
 30
0.0
 11
4419.5382090000003
 21
3460.3584229999992
 31
0.0
  0
LINE
  5
7AC6
  8
1
  6
CONTINUOUS
 10
2687.6068759999998
 20
5520.9698900000003
 30
0.0
 11
2687.6068759999998
 21
5342.9698900000003
 31
0.0
  0
LINE
  5
7AC7
  8
1
  6
CONTINUOUS
 10
2726.9768760000002
 20
5520.9698900000003
 30
0.0
 11
2726.9768760000002
 21
6050.9698900000012
 31
0.0
  0
LINE
  5
7AC8
  8
1
  6
CONTINUOUS
 10
2687.6068759999998
 20
5342.9698900000003
 30
0.0
 11
2367.6068759999998
 21
5342.9698900000003
 31
0.0
  0
LINE
  5
7AC9
  8
1
  6
CONTINUOUS
 10
2687.6068759999998
 20
6102.9698900000003
 30
0.0
 11
2687.6068759999998
 21
6050.9698900000012
 31
0.0
  0
LINE
  5
7ACA
  8
1
  6
CONTINUOUS
 10
2587.6068759999998
 20
5285.9698900000003
 30
0.0
 11
2587.6068759999998
 21
5425.9698900000012
 31
0.0
  0
LINE
  5
7ACB
  8
1
  6
CONTINUOUS
 10
2067.6068759999998
 20
5315.9698900000003
 30
0.0
 11
2067.6068759999998
 21
5395.9698900000003
 31
0.0
  0
LINE
  5
7ACC
  8
1
  6
CONTINUOUS
 10
2367.6068759999998
 20
5315.9698900000003
 30
0.0
 11
2367.6068759999998
 21
5395.9698900000003
 31
0.0
  0
LINE
  5
7ACD
  8
1
  6
CONTINUOUS
 10
2367.6068759999998
 20
5315.9698900000003
 30
0.0
 11
2067.6068759999998
 21
5315.9698900000003
 31
0.0
  0
LINE
  5
7ACE
  8
1
  6
CONTINUOUS
 10
2367.6068759999998
 20
5395.9698900000003
 30
0.0
 11
2067.6068759999998
 21
5395.9698900000003
 31
0.0
  0
LINE
  5
7ACF
  8
1
  6
CONTINUOUS
 10
2196.6068759999998
 20
5395.9698900000003
 30
0.0
 11
2196.6068759999998
 21
5520.9698900000003
 31
0.0
  0
LINE
  5
7AD0
  8
1
  6
CONTINUOUS
 10
2238.6068759999998
 20
5395.9698900000003
 30
0.0
 11
2238.6068759999998
 21
5520.9698900000003
 31
0.0
  0
LINE
  5
7AD1
  8
1
  6
CONTINUOUS
 10
2257.5668759999999
 20
5520.9698900000003
 30
0.0
 11
2257.5668759999999
 21
6050.9698900000012
 31
0.0
  0
LINE
  5
7AD2
  8
1
  6
CONTINUOUS
 10
4949.5382090000003
 20
3974.3584229999992
 30
0.0
 11
4949.5382090000003
 21
2914.3584230000001
 31
0.0
  0
LINE
  5
7AD3
  8
1
  6
CONTINUOUS
 10
5001.5382090000003
 20
2719.3584230000001
 30
0.0
 11
5001.5382090000003
 21
2619.3584230000001
 31
0.0
  0
LINE
  5
7AD4
  8
1
  6
CONTINUOUS
 10
5001.5382090000003
 20
2914.3584230000001
 30
0.0
 11
5001.5382090000003
 21
2814.3584230000001
 31
0.0
  0
LINE
  5
7AD5
  8
2
  6
CENTER
 10
4684.5382090000003
 20
4098.2347309999996
 30
0.0
 11
4684.5382090000003
 21
2619.3584229999992
 31
0.0
  0
LINE
  5
7AD6
  8
2
  6
CENTER
 10
1092.748358999999
 20
5785.9698900000003
 30
0.0
 11
2847.2209440000001
 21
5785.9698900000003
 31
0.0
  0
LINE
  5
7AD7
  8
2
  6
CENTER
 10
2217.6068759999998
 20
4273.4590669999998
 30
0.0
 11
2217.6068759999998
 21
2619.3584230000001
 31
0.0
  0
LINE
  5
7AD8
  8
2
  6
CENTER
 10
3000.0493699999988
 20
3439.3584229999992
 30
0.0
 11
1415.379083
 21
3439.3584229999992
 31
0.0
  0
DIMENSION
  5
7AEC
  8
3
  6
CONTINUOUS
  2
*D1
 10
2251.6068759999998
 20
4152.9581489999991
 30
0.0
 11
1883.0710999999999
 21
4152.9581489999991
 31
0.0
 70
   128
 13
1521.6068760000001
 23
3974.3584229999992
 33
0.0
 14
2251.6068759999998
 24
3974.3584229999992
 34
0.0
1001
ACAD
1000
DSTYLE
1002
{
1070
   287
1070
     3
1070
    40
1040
30.0
1070
   143
1040
0.039
1070
   172
1070
     1
1070
   271
1070
     0
1070
   279
1070
     0
1070
   288
1070
     1
1002
}
  0
DIMENSION
  5
7AF9
  8
3
  6
CONTINUOUS
  2
*D2
 10
2217.6068759999998
 20
4348.1666919999998
 30
0.0
 11
1883.0710999999999
 21
4348.1666919999998
 31
0.0
 70
   128
 13
1521.6068760000001
 23
3974.3584229999992
 33
0.0
 14
2217.6068759999998
 24
4273.4590669999998
 34
0.0
1001
ACAD
1000
DSTYLE
1002
{
1070
   287
1070
     3
1070
    40
1040
30.0
1070
   143
1040
0.039
1070
   172
1070
     1
1070
   271
1070
     0
1070
   279
1070
     0
1070
   288
1070
     1
1002
}
  0
DIMENSION
  5
7B12
  8
3
  6
CONTINUOUS
  2
*D3
 10
3074.0851579999999
 20
3439.3584229999992
 30
0.0
 11
3074.0851579999999
 21
3700.5777130000001
 31
0.0
 70
   128
 13
2291.6068759999998
 23
3974.3584229999992
 33
0.0
 14
3000.0493699999988
 24
3439.3584229999992
 34
0.0
 50
90.0
1001
ACAD
1000
DSTYLE
1002
{
1070
   287
1070
     3
1070
    40
1040
30.0
1070
   143
1040
0.039
1070
   172
1070
     1
1070
   271
1070
     0
1070
   279
1070
     0
1070
   288
1070
     1
1002
}
  0
DIMENSION
  5
7B1E
  8
3
  6
CONTINUOUS
  2
*D4
 10
3074.0851579999999
 20
2814.3584229999992
 30
0.0
 11
2999.085157999999
 21
3126.8584230000001
 31
0.0
 70
     0
 13
3000.0493699999988
 23
3439.3584229999992
 33
0.0
 14
2687.6068759999998
 24
2814.3584230000001
 34
0.0
 50
90.0
1001
ACAD
1000
DSTYLE
1002
{
1070
   287
1070
     4
1070
    40
1040
30.0
1070
    75
1070
     1
1070
   143
1040
0.039
1070
   172
1070
     1
1070
   271
1070
     0
1070
   279
1070
     1
1070
   288
1070
     1
1002
}
  0
DIMENSION
  5
7B6E
  8
3
  6
CONTINUOUS
  2
*D5
 10
4949.5382090000003
 20
4160.7121059999999
 30
0.0
 11
4675.5164000000013
 21
4160.7121059999999
 31
0.0
 70
   128
 13
4419.5382090000003
 23
3974.3584229999992
 33
0.0
 14
4949.5382090000003
 24
3974.3584229999992
 34
0.0
1001
ACAD
1000
DSTYLE
1002
{
1070
   287
1070
     3
1070
    40
1040
30.0
1070
   143
1040
0.039
1070
   172
1070
     1
1070
   271
1070
     0
1070
   279
1070
     0
1070
   288
1070
     1
1002
}
  0
LINE
  5
7B6F
  8
1
  6
CONTINUOUS
 10
4951.5382090000003
 20
3816.3584230000001
 30
0.0
 11
4951.5382090000003
 21
3062.3584230000001
 31
0.0
  0
DIMENSION
  5
7B7E
  8
3
  6
CONTINUOUS
  2
*D6
 10
5212.8411970000006
 20
3062.3584230000001
 30
0.0
 11
5212.8411969999997
 21
3456.5670540000001
 31
0.0
 70
   128
 13
4951.5382090000003
 23
3816.3584230000001
 33
0.0
 14
4951.5382090000003
 24
3062.3584230000001
 34
0.0
 50
90.0
1001
ACAD
1000
DSTYLE
1002
{
1070
   287
1070
     3
1070
     3
1000
φ<>
1070
    40
1040
30.0
1070
   143
1040
0.039
1070
   172
1070
     1
1070
   271
1070
     0
1070
   279
1070
     0
1070
   288
1070
     1
1002
}
  0
DIMENSION
  5
7B8C
  8
3
  6
CONTINUOUS
  2
*D7
 10
4684.5382090000003
 20
4344.5229369999988
 30
0.0
 11
4838.8919559206333
 21
4434.7407249764474
 31
0.0
 70
   128
 13
4951.5382090000003
 23
3816.3584230000001
 33
0.0
 14
4684.5382090000003
 24
4304.2594810000001
 34
0.0
1001
ACAD
1000
DSTYLE
1002
{
1070
   288
1070
     1
1070
   172
1070
     1
1070
    40
1040
30.0
1070
   271
1070
     0
1070
   143
1040
0.039
1002
}
  0
DIMENSION
  5
7B98
  8
3
  6
CONTINUOUS
  2
*D8
 10
4184.5382090000003
 20
4344.5229369999988
 30
0.0
 11
4434.5382090000003
 21
4494.5229369999997
 31
0.0
 70
     0
  1
MAX\P560
 13
4684.5382090000003
 23
4304.2594810000001
 33
0.0
 14
4184.5382090000003
 24
4054.3584230000001
 34
0.0
1001
ACAD
1000
DSTYLE
1002
{
1070
   287
1070
     4
1070
    40
1040
30.0
1070
    75
1070
     1
1070
   143
1040
0.039
1070
   172
1070
     1
1070
   271
1070
     0
1070
   279
1070
     1
1070
   288
1070
     1
1002
}
  0
DIMENSION
  5
7BC0
  8
3
  6
CONTINUOUS
  2
*D9
 10
2687.6068759999998
 20
6327.8939179999998
 30
0.0
 11
1910.9840619999991
 21
6327.8939179999998
 31
0.0
 70
   128
 13
1187.6068760000001
 23
6102.9698900000003
 33
0.0
 14
2687.6068759999998
 24
6102.9698900000003
 34
0.0
1001
ACAD
1000
DSTYLE
1002
{
1070
   287
1070
     3
1070
    40
1040
30.0
1070
   143
1040
0.039
1070
   172
1070
     1
1070
   271
1070
     0
1070
   279
1070
     0
1070
   288
1070
     1
1002
}
  0
DIMENSION
  5
7BCD
  8
3
  6
CONTINUOUS
  2
*D10
 10
2985.6336940000001
 20
5342.9698900000003
 30
0.0
 11
2985.6336940000001
 21
5770.1552730000003
 31
0.0
 70
   128
 13
2687.6068759999998
 23
6102.9698900000003
 33
0.0
 14
2687.6068759999998
 24
5342.9698900000003
 34
0.0
 50
90.0
1001
ACAD
1000
DSTYLE
1002
{
1070
   287
1070
     3
1070
    40
1040
30.0
1070
   143
1040
0.039
1070
   172
1070
     1
1070
   271
1070
     0
1070
   279
1070
     0
1070
   288
1070
     1
1002
}
  0
LINE
  5
7BCE
  8
4
  6
CONTINUOUS
 10
5550.0
 20
1500.0
 30
0.0
 11
5550.0
 21
900.0
 31
0.0
  0
LINE
  5
7BCF
  8
4
  6
CONTINUOUS
 10
3450.0
 20
1500.0
 30
0.0
 11
3450.0
 21
900.0
 31
0.0
  0
LINE
  5
7BD0
  8
4
  6
CONTINUOUS
 10
1950.0
 20
1500.0
 30
0.0
 11
1950.0
 21
900.0
 31
0.0
  0
LINE
  5
7BD3
  8
4
  6
CONTINUOUS
 10
1950.0
 20
900.0
 30
0.0
 11
5550.0
 21
900.0
 31
0.0
  0
LINE
  5
7BD4
  8
4
  6
CONTINUOUS
 10
1950.0
 20
1200.0
 30
0.0
 11
5550.0
 21
1200.0
 31
0.0
  0
TEXT
  5
7BD5
  8
4
  6
CONTINUOUS
 10
2065.5062429999989
 20
1294.6290779999999
 30
0.0
 40
150.0
  1
機器名称
  0
TEXT
  5
7BD6
  8
4
  6
CONTINUOUS
 10
2058.7743179999989
 20
964.9354699999999
 30
0.0
 40
150.0
  1
機器型番
  0
TEXT
  5
7BD7
  8
4
  6
CONTINUOUS
 10
3533.0362359999999
 20
1267.7153069999999
 30
0.0
 40
150.0
  1
ミツヤ多翼送風機
  0
TEXT
  5
7BD8
  8
4
  6
CONTINUOUS
 10
3559.9634869999991
 20
951.47875299999987
 30
0.0
 40
150.0
  1
MF#4 1/2-4
  0
TEXT
  5
7BDA
  8
4
  6
CONTINUOUS
 10
2432.0426000000002
 20
7150.2865239999992
 30
0.0
 40
162.0
  1
床置防振ベット
  0
TEXT
  5
7BDB
  8
4
  6
CONTINUOUS
 10
948.50278000000014
 20
7601.6429289999996
 30
0.0
 40
216.0
  1
ベルト駆動式片吸込両持多翼ファン
  0
LINE
  5
7BDC
  8
4
  6
CONTINUOUS
 10
750.0
 20
7408.2262629999996
 30
0.0
 11
5550.0
 21
7408.2262629999996
 31
0.0
  0
LINE
  5
7BDD
  8
4
  6
CONTINUOUS
 10
750.0
 20
8008.2262629999996
 30
0.0
 11
5550.0
 21
8008.2262629999996
 31
0.0
  0
LINE
  5
7BDE
  8
4
  6
CONTINUOUS
 10
1950.0
 20
1500.0
 30
0.0
 11
5550.0
 21
1500.0
 31
0.0
  0
LINE
  5
7BDF
  8
4
  6
CONTINUOUS
 10
750.0
 20
8008.2262629999996
 30
0.0
 11
750.0
 21
7408.2262629999996
 31
0.0
  0
TEXT
  5
7BE0
  8
4
  6
CONTINUOUS
 10
1124.466103
 20
7146.9584329999998
 30
0.0
 40
162.0
  1
右回転上向
  0
TEXT
  5
7BE1
  8
4
  6
CONTINUOUS
 10
4406.9086779999989
 20
8118.1832439999989
 30
0.0
 40
168.0
  1
No.
  0
TEXT
  5
7BE2
  8
4
  6
CONTINUOUS
 10
4070.6710343735672
 20
7150.2865239999992
 30
0.0
 40
162.0
  1
縮尺：1/30
  0
LINE
  5
7BE3
  8
4
  6
CONTINUOUS
 10
5550.0
 20
8008.2262629999996
 30
0.0
 11
5550.0
 21
7408.2262629999996
 31
0.0
  0
LINE
  5
7BE5
  8
4
  6
CONTINUOUS
 10
4321.8522670000002
 20
8043.7907490000007
 30
0.0
 11
4321.8522670000002
 21
8359.9567849999985
 31
0.0
  0
LINE
  5
7BE6
  8
4
  6
CONTINUOUS
 10
4321.8522670000002
 20
8359.9567849999985
 30
0.0
 11
5550.0
 21
8359.9567849999985
 31
0.0
  0
LINE
  5
7BE7
  8
4
  6
CONTINUOUS
 10
5550.0
 20
8359.9567849999985
 30
0.0
 11
5550.0
 21
8043.7907490000007
 31
0.0
  0
LINE
  5
7BE8
  8
4
  6
CONTINUOUS
 10
5550.0
 20
8043.7907490000007
 30
0.0
 11
4321.8522670000002
 21
8043.7907490000007
 31
0.0
  0
DIMENSION
  5
7C6D
  8
3
  6
CONTINUOUS
  2
*D11
 10
2725.8540521959599
 20
4348.1666919999998
 30
0.0
 11
2471.7304640979801
 21
4423.1666919999998
 31
0.0
 70
     0
 13
2217.6068759999998
 23
4273.4590669999998
 33
0.0
 14
2725.8540521959599
 24
3439.3584230000001
 34
0.0
1001
ACAD
1000
DSTYLE
1002
{
1070
   287
1070
     4
1070
    40
1040
30.0
1070
    75
1070
     1
1070
   143
1040
0.039
1070
   172
1070
     1
1070
   271
1070
     0
1070
   279
1070
     1
1070
   288
1070
     1
1002
}
  0
DIMENSION
  5
7D56
  8
3
  2
*D12
 10
2217.6068759999998
 20
2397.673392199732
 30
0.0
 11
1702.6068760000001
 21
2472.6733921997329
 31
0.0
 70
     0
 13
1187.6068760000001
 23
2619.3584230000001
 33
0.0
 14
2217.6068759999998
 24
2619.3584230000001
 34
0.0
1001
ACAD
1000
DSTYLE
1002
{
1070
   287
1070
     3
1070
    40
1040
30.0
1070
   143
1040
0.039
1070
   172
1070
     1
1070
   271
1070
     0
1070
   279
1070
     0
1002
}
  0
DIMENSION
  5
7D63
  8
3
  2
*D13
 10
2687.6068759999998
 20
2397.673392199732
 30
0.0
 11
2452.6068759999998
 21
2472.6733921997329
 31
0.0
 70
     0
 13
2217.6068759999998
 23
2619.3584230000001
 33
0.0
 14
2687.6068759999998
 24
2619.3584230000001
 34
0.0
1001
ACAD
1000
DSTYLE
1002
{
1070
   287
1070
     3
1070
    40
1040
30.0
1070
   143
1040
0.039
1070
   172
1070
     1
1070
   271
1070
     0
1070
   279
1070
     0
1002
}
  0
DIMENSION
  5
7D70
  8
3
  2
*D14
 10
4684.5382090000003
 20
2397.673392199732
 30
0.0
 11
4463.0382090000003
 21
2472.6733921997329
 31
0.0
 70
     0
 13
4241.5382090000003
 23
2619.3584230000001
 33
0.0
 14
4684.5382090000003
 24
2619.3584229999992
 34
0.0
1001
ACAD
1000
DSTYLE
1002
{
1070
   287
1070
     3
1070
    40
1040
30.0
1070
   143
1040
0.039
1070
   172
1070
     1
1070
   271
1070
     0
1070
   279
1070
     0
1002
}
  0
DIMENSION
  5
7D7F
  8
3
  2
*D15
 10
5001.5382090000003
 20
2397.673392199732
 30
0.0
 11
4843.0382090000003
 21
2472.6733921997329
 31
0.0
 70
     0
 13
4684.5382090000003
 23
2619.3584229999992
 33
0.0
 14
5001.5382090000003
 24
2619.3584230000001
 34
0.0
1001
ACAD
1000
DSTYLE
1002
{
1070
   287
1070
     3
1070
    40
1040
30.0
1070
   143
1040
0.039
1070
   172
1070
     1
1070
   271
1070
     0
1070
   279
1070
     0
1002
}
  0
DIMENSION
  5
7D96
  8
3
  2
*D17
 10
3074.9862740718409
 20
2619.3584229999992
 30
0.0
 11
2999.9862740718409
 21
2362.2155658571428
 31
0.0
 70
     0
 13
2687.6068759999998
 23
2719.3584230000001
 33
0.0
 14
2687.6068759999998
 24
2619.3584230000001
 34
0.0
 50
90.0
1001
ACAD
1000
DSTYLE
1002
{
1070
   287
1070
     3
1070
    40
1040
30.0
1070
   143
1040
0.039
1070
   172
1070
     1
1070
   271
1070
     0
1070
   279
1070
     0
1070
     6
1000
DOT
1002
}
  0
DIMENSION
  5
7DA5
  8
3
  2
*D18
 10
3074.9862740718409
 20
2814.3584230000001
 30
0.0
 11
3218.5577026432702
 21
2766.8584230000001
 31
0.0
 70
     0
 13
2687.6068759999998
 23
2719.3584230000001
 33
0.0
 14
2687.6068759999998
 24
2814.3584230000001
 34
0.0
 50
90.0
1001
ACAD
1000
DSTYLE
1002
{
1070
   172
1070
     1
1070
    40
1040
30.0
1070
     3
1000
(<>)
1070
   271
1070
     0
1070
     6
1000
_DOT
1070
   143
1040
0.039
1002
}
  0
LINE
  5
7DBB
  8
1
 10
1757.6068760000001
 20
3834.3584230000001
 30
0.0
 11
1757.6068760000001
 21
2914.3584230000001
 31
0.0
  0
LINE
  5
7DBC
  8
1
 10
2677.6068759999998
 20
3834.3584230000001
 30
0.0
 11
2677.6068759999998
 21
2914.3584230000001
 31
0.0
  0
LINE
  5
7DBD
  8
1
  6
CONTINUOUS
 10
2677.6068759999998
 20
3834.3584230000001
 30
0.0
 11
1757.6068760000001
 21
3834.3584230000001
 31
0.0
  0
ENDSEC
  0
EOF
