  0
SECTION
  2
HEADER
  9
$ACADVER
  1
AC1009
  9
$INSBASE
 10
0.0
 20
0.0
 30
0.0
  9
$EXTMIN
 10
750.0
 20
900.0
 30
0.0
  9
$EXTMAX
 10
5550.0
 20
8359.9567849999985
 30
0.0
  9
$LIMMIN
 10
0.0
 20
0.0
  9
$LIMMAX
 10
297.0
 20
210.0
  9
$ORTHOMODE
 70
     0
  9
$REGENMODE
 70
     1
  9
$FILLMODE
 70
     0
  9
$QTEXTMODE
 70
     0
  9
$MIRRTEXT
 70
     1
  9
$DRAGMODE
 70
     2
  9
$LTSCALE
 40
100.0
  9
$OSMODE
 70
    37
  9
$ATTMODE
 70
     1
  9
$TEXTSIZE
 40
180.0
  9
$TRACEWID
 40
0.05
  9
$TEXTSTYLE
  7
STANDARD
  9
$CLAYER
  8
3
  9
$CELTYPE
  6
BYLAYER
  9
$CECOLOR
 62
   256
  9
$DIMSCALE
 40
30.0
  9
$DIMASZ
 40
2.0
  9
$DIMEXO
 40
0.5
  9
$DIMDLI
 40
10.0
  9
$DIMRND
 40
0.0
  9
$DIMDLE
 40
0.0
  9
$DIMEXE
 40
1.0
  9
$DIMTP
 40
1.0
  9
$DIMTM
 40
1.0
  9
$DIMTXT
 40
3.0
  9
$DIMCEN
 40
0.0
  9
$DIMTSZ
 40
0.0
  9
$DIMTOL
 70
     0
  9
$DIMLIM
 70
     0
  9
$DIMTIH
 70
     0
  9
$DIMTOH
 70
     0
  9
$DIMSE1
 70
     0
  9
$DIMSE2
 70
     0
  9
$DIMTAD
 70
     1
  9
$DIMZIN
 70
     8
  9
$DIMBLK
  1

  9
$DIMASO
 70
     1
  9
$DIMSHO
 70
     1
  9
$DIMPOST
  1
(<>)
  9
$DIMAPOST
  1

  9
$DIMALT
 70
     0
  9
$DIMALTD
 70
     2
  9
$DIMALTF
 40
0.039
  9
$DIMLFAC
 40
1.0
  9
$DIMTOFL
 70
     1
  9
$DIMTVP
 40
0.0
  9
$DIMTIX
 70
     0
  9
$DIMSOXD
 70
     0
  9
$DIMSAH
 70
     1
  9
$DIMBLK1
  1
DOT
  9
$DIMBLK2
  1
OPEN
  9
$DIMSTYLE
  2
IGA
  9
$DIMCLRD
 70
     0
  9
$DIMCLRE
 70
     0
  9
$DIMCLRT
 70
     0
  9
$DIMTFAC
 40
10.0
  9
$DIMGAP
 40
1.0
  9
$LUNITS
 70
     2
  9
$LUPREC
 70
     3
  9
$SKETCHINC
 40
0.1
  9
$FILLETRAD
 40
0.0
  9
$AUNITS
 70
     0
  9
$AUPREC
 70
     0
  9
$MENU
  1
acad
  9
$ELEVATION
 40
0.0
  9
$PELEVATION
 40
0.0
  9
$THICKNESS
 40
0.0
  9
$LIMCHECK
 70
     0
  9
$BLIPMODE
 70
     0
  9
$CHAMFERA
 40
0.5
  9
$CHAMFERB
 40
0.5
  9
$SKPOLY
 70
     0
  9
$TDCREATE
 40
2450743.4671508102
  9
$TDUPDATE
 40
2454953.773915289
  9
$TDINDWG
 40
0.0106285301
  9
$TDUSRTIMER
 40
0.0106285301
  9
$USRTIMER
 70
     1
  9
$ANGBASE
 50
0.0
  9
$ANGDIR
 70
     0
  9
$PDMODE
 70
     0
  9
$PDSIZE
 40
0.0
  9
$PLINEWID
 40
0.0
  9
$COORDS
 70
     1
  9
$SPLFRAME
 70
     0
  9
$SPLINETYPE
 70
     6
  9
$SPLINESEGS
 70
     8
  9
$ATTDIA
 70
     0
  9
$ATTREQ
 70
     1
  9
$HANDLING
 70
 10241
  9
$HANDSEED
  5
7E1A
  9
$SURFTAB1
 70
     6
  9
$SURFTAB2
 70
     6
  9
$SURFTYPE
 70
     6
  9
$SURFU
 70
     6
  9
$SURFV
 70
     6
  9
$UCSNAME
  2

  9
$UCSORG
 10
0.0
 20
0.0
 30
0.0
  9
$UCSXDIR
 10
1.0
 20
0.0
 30
0.0
  9
$UCSYDIR
 10
0.0
 20
1.0
 30
0.0
  9
$PUCSNAME
  2

  9
$PUCSORG
 10
0.0
 20
0.0
 30
0.0
  9
$PUCSXDIR
 10
1.0
 20
0.0
 30
0.0
  9
$PUCSYDIR
 10
0.0
 20
1.0
 30
0.0
  9
$USERI1
 70
     0
  9
$USERI2
 70
     0
  9
$USERI3
 70
     0
  9
$USERI4
 70
     0
  9
$USERI5
 70
     0
  9
$USERR1
 40
0.0
  9
$USERR2
 40
0.0
  9
$USERR3
 40
0.0
  9
$USERR4
 40
0.0
  9
$USERR5
 40
0.0
  9
$WORLDVIEW
 70
     1
  9
$SHADEDGE
 70
     3
  9
$SHADEDIF
 70
    70
  9
$TILEMODE
 70
     1
  9
$MAXACTVP
 70
    16
  9
$PLIMCHECK
 70
     0
  9
$PEXTMIN
 10
1.0000000000000000E+020
 20
1.0000000000000000E+020
 30
1.0000000000000000E+020
  9
$PEXTMAX
 10
-1.0000000000000000E+020
 20
-1.0000000000000000E+020
 30
-1.0000000000000000E+020
  9
$PLIMMIN
 10
0.0
 20
0.0
  9
$PLIMMAX
 10
12.0
 20
9.0
  9
$UNITMODE
 70
     0
  9
$VISRETAIN
 70
     0
  9
$PLINEGEN
 70
     0
  9
$PSLTSCALE
 70
     1
  0
ENDSEC
  0
SECTION
  2
TABLES
  0
TABLE
  2
VPORT
 70
     2
  0
VPORT
  2
*ACTIVE
 70
     0
 10
0.0
 20
0.0
 11
1.0
 21
1.0
 12
9437.9954746499006
 22
4629.9199394653269
 13
0.0
 23
0.0
 14
10.0
 24
10.0
 15
10.0
 25
10.0
 16
0.0
 26
0.0
 36
1.0
 17
0.0
 27
0.0
 37
0.0
 40
7517.061441529765
 41
3.1666666666666661
 42
50.0
 43
0.0
 44
0.0
 50
0.0
 51
0.0
 71
     0
 72
   100
 73
     1
 74
     0
 75
     0
 76
     0
 77
     0
 78
     0
  0
ENDTAB
  0
TABLE
  2
LTYPE
 70
     2
  0
LTYPE
  2
CONTINUOUS
 70
     0
  3
Solid line
 72
    65
 73
     0
 40
0.0
  0
LTYPE
  2
CENTER
 70
     0
  3
____ _ ____ _ ____ _ ____ _ ____ _ ____ _ ____ 
 72
    65
 73
     4
 40
2.0
 49
1.25
 49
-0.25
 49
0.25
 49
-0.25
  0
ENDTAB
  0
TABLE
  2
LAYER
 70
     6
  0
LAYER
  2
0
 70
     0
 62
     7
  6
CONTINUOUS
  0
LAYER
  2
3
 70
     0
 62
     2
  6
CONTINUOUS
  0
LAYER
  2
2
 70
     0
 62
     3
  6
CENTER
  0
LAYER
  2
1
 70
     0
 62
     4
  6
CONTINUOUS
  0
LAYER
  2
4
 70
     0
 62
     7
  6
CONTINUOUS
  0
LAYER
  2
DEFPOINTS
 70
     0
 62
     7
  6
CONTINUOUS
  0
ENDTAB
  0
TABLE
  2
STYLE
 70
     1
  0
STYLE
  2
STANDARD
 70
     0
 40
0.0
 41
1.0
 50
0.0
 71
     0
 42
180.0
  3
simplex.shx
  4
extfont.shx
  0
ENDTAB
  0
TABLE
  2
VIEW
 70
     0
  0
ENDTAB
  0
TABLE
  2
UCS
 70
     0
  0
ENDTAB
  0
TABLE
  2
APPID
 70
     1
  0
APPID
  2
ACAD
 70
     0
  0
ENDTAB
  0
TABLE
  2
DIMSTYLE
 70
     1
  0
DIMSTYLE
  2
IGA
 70
     0
  3

  4

  5

  6
OPEN
  7
OPEN
 40
2.0
 41
2.0
 42
0.5
 43
10.0
 44
1.0
 45
0.0
 46
0.0
 47
1.0
 48
1.0
140
3.0
141
0.0
142
0.0
143
0.03937
144
1.0
145
0.0
146
10.0
147
1.0
 71
     0
 72
     0
 73
     0
 74
     0
 75
     0
 76
     0
 77
     1
 78
     8
170
     0
171
     2
172
     0
173
     1
174
     0
175
     0
176
     0
177
     0
178
     0
  0
ENDTAB
  0
ENDSEC
  0
SECTION
  2
BLOCKS
  0
BLOCK
  8
0
  2
$MODEL_SPACE
 70
     0
 10
0.0
 20
0.0
 30
0.0
  3
$MODEL_SPACE
  1

  0
ENDBLK
  5
1B
  8
0
  0
BLOCK
 67
     1
  8
0
  2
$PAPER_SPACE
 70
     0
 10
0.0
 20
0.0
 30
0.0
  3
$PAPER_SPACE
  1

  0
ENDBLK
  5
18
 67
     1
  8
0
  0
BLOCK
  8
0
  2
_OPEN
 70
     0
 10
0.0
 20
0.0
 30
0.0
  3
_OPEN
  1

  0
LINE
  5
7AD6
  8
0
  6
BYBLOCK
 62
     0
 10
-1.0
 20
0.166667
 30
0.0
 11
0.0
 21
0.0
 31
0.0
  0
LINE
  5
7AD7
  8
0
  6
BYBLOCK
 62
     0
 10
0.0
 20
0.0
 30
0.0
 11
-1.0
 21
-0.166667
 31
0.0
  0
LINE
  5
7AD8
  8
0
  6
BYBLOCK
 62
     0
 10
0.0
 20
0.0
 30
0.0
 11
-1.0
 21
0.0
 31
0.0
  0
ENDBLK
  5
7AD9
  8
0
  0
BLOCK
  8
0
  2
*D1
 70
     1
 10
0.0
 20
0.0
 30
0.0
  3
*D1
  1

  0
LINE
  5
7D81
  8
3
  6
CONTINUOUS
 62
     0
 10
2629.6159109999999
 20
3972.6671827679561
 30
0.0
 11
2837.5615269999998
 21
3972.6671827679561
 31
0.0
  0
LINE
  5
7D82
  8
3
  6
CONTINUOUS
 62
     0
 10
2629.6159109999999
 20
3242.6671827679552
 30
0.0
 11
2837.5615269999998
 21
3242.6671827679552
 31
0.0
  0
LINE
  5
7D83
  8
3
  6
CONTINUOUS
 62
     0
 10
2807.5615269999998
 20
3912.6671827679561
 30
0.0
 11
2807.5615269999998
 21
3302.6671827679552
 31
0.0
  0
INSERT
  5
7D84
  8
3
  6
CONTINUOUS
 62
     0
  2
_OPEN
 10
2807.5615269999998
 20
3972.6671827679561
 30
0.0
 41
60.0
 42
60.0
 43
60.0
 50
90.0
  0
INSERT
  5
7D85
  8
3
  6
CONTINUOUS
 62
     0
  2
_OPEN
 10
2807.5615269999998
 20
3242.6671827679552
 30
0.0
 41
60.0
 42
60.0
 43
60.0
 50
270.0
  0
TEXT
  8
3
  40
90
  5
7E0A
  62
0
  72
0
  71
0
 10
2552.56
 20
3452.38
 30
0.000000
  1
730
  0
POINT
  5
7D87
  8
DEFPOINTS
  6
CONTINUOUS
 62
     0
 10
2614.6159109999999
 20
3972.6671827679561
 30
0.0
  0
POINT
  5
7D88
  8
DEFPOINTS
  6
CONTINUOUS
 62
     0
 10
2614.6159109999999
 20
3242.6671827679552
 30
0.0
  0
POINT
  5
7D89
  8
DEFPOINTS
  6
CONTINUOUS
 62
     0
 10
2807.5615269999998
 20
3242.6671827679552
 30
0.0
  0
ENDBLK
  5
7AE6
  8
0
  0
BLOCK
  8
0
  2
*D2
 70
     1
 10
0.0
 20
0.0
 30
0.0
  3
*D2
  1

  0
LINE
  5
7D8A
  8
3
  6
CONTINUOUS
 62
     0
 10
2629.6159109999999
 20
3972.6671827679561
 30
0.0
 11
3006.113628000001
 21
3972.6671827679561
 31
0.0
  0
LINE
  5
7D8B
  8
3
  6
CONTINUOUS
 62
     0
 10
2777.3316
 20
3276.6671827679561
 30
0.0
 11
3006.113628000001
 21
3276.6671827679561
 31
0.0
  0
LINE
  5
7D8C
  8
3
  6
CONTINUOUS
 62
     0
 10
2976.113628000001
 20
3912.6671827679561
 30
0.0
 11
2976.113628000001
 21
3336.6671827679552
 31
0.0
  0
INSERT
  5
7D8D
  8
3
  6
CONTINUOUS
 62
     0
  2
_OPEN
 10
2976.113628000001
 20
3972.6671827679561
 30
0.0
 41
60.0
 42
60.0
 43
60.0
 50
90.0
  0
INSERT
  5
7D8E
  8
3
  6
CONTINUOUS
 62
     0
  2
_OPEN
 10
2976.113628000001
 20
3276.6671827679561
 30
0.0
 41
60.0
 42
60.0
 43
60.0
 50
270.0
  0
TEXT
  8
3
  40
90
  5
7E0B
  62
0
  72
0
  71
0
 10
2721.11
 20
3459.12
 30
0.000000
  1
696
  0
POINT
  5
7D90
  8
DEFPOINTS
  6
CONTINUOUS
 62
     0
 10
2614.6159109999999
 20
3972.6671827679561
 30
0.0
  0
POINT
  5
7D91
  8
DEFPOINTS
  6
CONTINUOUS
 62
     0
 10
2762.3315999999991
 20
3276.6671827679561
 30
0.0
  0
POINT
  5
7D92
  8
DEFPOINTS
  6
CONTINUOUS
 62
     0
 10
2976.113628000001
 20
3276.6671827679561
 30
0.0
  0
ENDBLK
  5
7AF3
  8
0
  0
BLOCK
  8
0
  2
*D3
 70
     1
 10
0.0
 20
0.0
 30
0.0
  3
*D3
  1

  0
LINE
  5
7D93
  8
3
  6
CONTINUOUS
 62
     0
 10
2564.6159109999999
 20
2651.6671827679552
 30
0.0
 11
3006.1136280000001
 21
2651.6671827679552
 31
0.0
  0
LINE
  5
7D94
  8
3
  6
CONTINUOUS
 62
     0
 10
2976.1136280000001
 20
3216.6671827679561
 30
0.0
 11
2976.1136280000001
 21
2711.6671827679552
 31
0.0
  0
INSERT
  5
7D95
  8
3
  6
CONTINUOUS
 62
     0
  2
_OPEN
 10
2976.1136280000001
 20
3276.6671827679561
 30
0.0
 41
60.0
 42
60.0
 43
60.0
 50
90.0
  0
INSERT
  5
7D96
  8
3
  6
CONTINUOUS
 62
     0
  2
_OPEN
 10
2976.1136280000001
 20
2651.6671827679552
 30
0.0
 41
60.0
 42
60.0
 43
60.0
 50
270.0
  0
TEXT
  8
3
  40
90
  5
7E0C
  62
0
  72
0
  71
0
 10
2721.11
 20
2804.87
 30
0.000000
  1
625
  0
POINT
  5
7D98
  8
DEFPOINTS
  6
CONTINUOUS
 62
     0
 10
2762.3315999999991
 20
3276.6671827679561
 30
0.0
  0
POINT
  5
7D99
  8
DEFPOINTS
  6
CONTINUOUS
 62
     0
 10
2549.6159109999999
 20
2651.6671827679552
 30
0.0
  0
POINT
  5
7D9A
  8
DEFPOINTS
  6
CONTINUOUS
 62
     0
 10
2976.1136280000001
 20
2651.6671827679552
 30
0.0
  0
ENDBLK
  5
7AFF
  8
0
  0
BLOCK
  8
0
  2
*D4
 70
     1
 10
0.0
 20
0.0
 30
0.0
  3
*D4
  1

  0
LINE
  5
7D9B
  8
3
  6
CONTINUOUS
 62
     0
 10
2614.6159109999999
 20
4027.6671827679552
 30
0.0
 11
2614.6159109999999
 21
4113.1867897679558
 31
0.0
  0
LINE
  5
7D9C
  8
3
  6
CONTINUOUS
 62
     0
 10
2079.615910999999
 20
4087.3465847679549
 30
0.0
 11
2079.615910999999
 21
4113.1867897679558
 31
0.0
  0
LINE
  5
7D9D
  8
3
  6
CONTINUOUS
 62
     0
 10
2554.615910999999
 20
4083.1867897679558
 30
0.0
 11
2139.615910999999
 21
4083.1867897679558
 31
0.0
  0
INSERT
  5
7D9E
  8
3
  6
CONTINUOUS
 62
     0
  2
_OPEN
 10
2614.6159109999999
 20
4083.1867897679558
 30
0.0
 41
60.0
 42
60.0
 43
60.0
  0
INSERT
  5
7D9F
  8
3
  6
CONTINUOUS
 62
     0
  2
_OPEN
 10
2079.615910999999
 20
4083.1867897679558
 30
0.0
 41
60.0
 42
60.0
 43
60.0
 50
180.0
  0
TEXT
  8
3
  40
90
  5
7E0D
  62
0
  72
0
  71
0
 10
2155.62
 20
3998.89
 30
0.000000
  1
535
  0
POINT
  5
7DA1
  8
DEFPOINTS
  6
CONTINUOUS
 62
     0
 10
2614.6159109999999
 20
4012.6671827679552
 30
0.0
  0
POINT
  5
7DA2
  8
DEFPOINTS
  6
CONTINUOUS
 62
     0
 10
2079.615910999999
 20
4072.3465847679549
 30
0.0
  0
POINT
  5
7DA3
  8
DEFPOINTS
  6
CONTINUOUS
 62
     0
 10
2079.615910999999
 20
4083.1867897679558
 30
0.0
  0
ENDBLK
  5
7B4F
  8
0
  0
BLOCK
  8
0
  2
*D5
 70
     1
 10
0.0
 20
0.0
 30
0.0
  3
*D5
  1

  0
LINE
  5
7DA4
  8
3
  6
CONTINUOUS
 62
     0
 10
4555.3668189999989
 20
3987.6671827679552
 30
0.0
 11
4555.3668189999989
 21
4133.3941417679553
 31
0.0
  0
LINE
  5
7DA5
  8
3
  6
CONTINUOUS
 62
     0
 10
5085.3668189999999
 20
3987.6671827679552
 30
0.0
 11
5085.3668189999999
 21
4133.3941417679553
 31
0.0
  0
LINE
  5
7DA6
  8
3
  6
CONTINUOUS
 62
     0
 10
4615.3668189999999
 20
4103.3941417679553
 30
0.0
 11
5025.3668189999999
 21
4103.3941417679553
 31
0.0
  0
INSERT
  5
7DA7
  8
3
  6
CONTINUOUS
 62
     0
  2
_OPEN
 10
4555.3668189999989
 20
4103.3941417679553
 30
0.0
 41
60.0
 42
60.0
 43
60.0
 50
180.0
  0
INSERT
  5
7DA8
  8
3
  6
CONTINUOUS
 62
     0
  2
_OPEN
 10
5085.3668189999999
 20
4103.3941417679553
 30
0.0
 41
60.0
 42
60.0
 43
60.0
  0
TEXT
  8
3
  40
90
  5
7E0E
  62
0
  72
0
  71
0
 10
4636.04
 20
4019.09
 30
0.000000
  1
530
  0
POINT
  5
7DAA
  8
DEFPOINTS
  6
CONTINUOUS
 62
     0
 10
4555.3668189999989
 20
3972.6671827679561
 30
0.0
  0
POINT
  5
7DAB
  8
DEFPOINTS
  6
CONTINUOUS
 62
     0
 10
5085.3668189999999
 20
3972.6671827679561
 30
0.0
  0
POINT
  5
7DAC
  8
DEFPOINTS
  6
CONTINUOUS
 62
     0
 10
5085.3668189999999
 20
4103.3941417679553
 30
0.0
  0
ENDBLK
  5
7B83
  8
0
  0
BLOCK
  8
0
  2
*D6
 70
     1
 10
0.0
 20
0.0
 30
0.0
  3
*D6
  1

  0
LINE
  5
7DAD
  8
3
  6
CONTINUOUS
 62
     0
 10
5102.3668189999999
 20
3653.6671827679552
 30
0.0
 11
5385.4029600000013
 21
3653.6671827679552
 31
0.0
  0
LINE
  5
7DAE
  8
3
  6
CONTINUOUS
 62
     0
 10
5102.3668189999999
 20
2899.6671827679552
 30
0.0
 11
5385.4029600000013
 21
2899.6671827679538
 31
0.0
  0
LINE
  5
7DAF
  8
3
  6
CONTINUOUS
 62
     0
 10
5355.4029600000013
 20
3593.6671827679552
 30
0.0
 11
5355.4029600000013
 21
2959.6671827679552
 31
0.0
  0
INSERT
  5
7DB0
  8
3
  6
CONTINUOUS
 62
     0
  2
_OPEN
 10
5355.4029600000013
 20
3653.6671827679552
 30
0.0
 41
60.0
 42
60.0
 43
60.0
 50
90.0
  0
INSERT
  5
7DB1
  8
3
  6
CONTINUOUS
 62
     0
  2
_OPEN
 10
5355.4029600000013
 20
2899.6671827679538
 30
0.0
 41
60.0
 42
60.0
 43
60.0
 50
270.0
  0
TEXT
  8
3
  40
90
  5
7E0F
  62
0
  72
0
  71
0
 10
5100.40
 20
3102.12
 30
0.000000
  1
φ754
  0
POINT
  5
7DB3
  8
DEFPOINTS
  6
CONTINUOUS
 62
     0
 10
5087.3668189999989
 20
3653.6671827679552
 30
0.0
  0
POINT
  5
7DB4
  8
DEFPOINTS
  6
CONTINUOUS
 62
     0
 10
5087.3668189999989
 20
2899.6671827679552
 30
0.0
  0
POINT
  5
7DB5
  8
DEFPOINTS
  6
CONTINUOUS
 62
     0
 10
5355.4029600000013
 20
2899.6671827679538
 30
0.0
  0
ENDBLK
  5
7CC0
  8
0
  0
BLOCK
  8
0
  2
*D7
 70
     1
 10
0.0
 20
0.0
 30
0.0
  3
*D7
  1

  0
LINE
  5
7CCD
  8
0
  6
BYBLOCK
 62
     0
 10
5087.3668189999989
 20
3668.6671827679552
 30
0.0
 11
5087.3668189999989
 21
4332.4999087679553
 31
0.0
  0
LINE
  5
7CCE
  8
0
  6
BYBLOCK
 62
     0
 10
4820.3668189999999
 20
4258.3951437679552
 30
0.0
 11
4820.3668189999999
 21
4332.4999087679553
 31
0.0
  0
LINE
  5
7CCF
  8
0
  6
BYBLOCK
 62
     0
 10
5027.3668189999999
 20
4302.4999087679553
 30
0.0
 11
4880.3668189999989
 21
4302.4999087679553
 31
0.0
  0
TEXT
  5
7CD0
  8
3
 62
     0
 10
4857.7186407939698
 20
4354.178532526701
 30
0.0
 40
90.0
  1
267
  0
INSERT
  5
7CD1
  8
0
  6
BYBLOCK
 62
     0
  2
_OPEN
 10
5087.3668189999989
 20
4302.4999087679553
 30
0.0
 41
60.0
 42
60.0
 43
60.0
  0
INSERT
  5
7CD2
  8
0
  6
BYBLOCK
 62
     0
  2
_OPEN
 10
4820.3668189999999
 20
4302.4999087679553
 30
0.0
 41
60.0
 42
60.0
 43
60.0
 50
180.0
  0
POINT
  5
7CD3
  8
DEFPOINTS
  6
BYBLOCK
 62
     0
 10
5087.3668189999989
 20
3653.6671827679552
 30
0.0
  0
POINT
  5
7CD4
  8
DEFPOINTS
  6
BYBLOCK
 62
     0
 10
4820.3668189999999
 20
4243.3951437679552
 30
0.0
  0
POINT
  5
7CD5
  8
DEFPOINTS
  6
BYBLOCK
 62
     0
 10
4820.3668189999999
 20
4302.4999087679553
 30
0.0
  0
ENDBLK
  5
7CD6
  8
0
  0
BLOCK
  8
0
  2
*D8
 70
     1
 10
0.0
 20
0.0
 30
0.0
  3
*D8
  1

  0
LINE
  5
7DB6
  8
3
  6
CONTINUOUS
 62
     0
 10
4320.3668189999999
 20
3906.6671827679552
 30
0.0
 11
4320.3668189999999
 21
4332.4999087679553
 31
0.0
  0
LINE
  5
7DB7
  8
3
  6
CONTINUOUS
 62
     0
 10
4760.3668189999999
 20
4302.4999087679553
 30
0.0
 11
4380.3668189999989
 21
4302.4999087679553
 31
0.0
  0
INSERT
  5
7DB8
  8
3
  6
CONTINUOUS
 62
     0
  2
_OPEN
 10
4820.3668189999999
 20
4302.4999087679553
 30
0.0
 41
60.0
 42
60.0
 43
60.0
  0
INSERT
  5
7DB9
  8
3
  6
CONTINUOUS
 62
     0
  2
_OPEN
 10
4320.3668189999999
 20
4302.4999087679553
 30
0.0
 41
60.0
 42
60.0
 43
60.0
 50
180.0
  0
TEXT
  8
3
  40
90
  5
7E10
  62
0
  72
0
  71
0
 10
4390.37
 20
4293.20
 30
0.000000
  1
MAX
  0
TEXT
  8
3
  40
90
  5
7E11
  62
0
  72
0
  71
0
 10
4390.37
 20
4176.20
 30
0.000000
  1
560
  0
POINT
  5
7DBB
  8
DEFPOINTS
  6
CONTINUOUS
 62
     0
 10
4820.3668189999999
 20
4243.3951437679552
 30
0.0
  0
POINT
  5
7DBC
  8
DEFPOINTS
  6
CONTINUOUS
 62
     0
 10
4320.3668189999999
 20
3891.6671827679552
 30
0.0
  0
POINT
  5
7DBD
  8
DEFPOINTS
  6
CONTINUOUS
 62
     0
 10
4320.3668189999999
 20
4302.4999087679553
 30
0.0
  0
ENDBLK
  5
7CB5
  8
0
  0
BLOCK
  8
0
  2
*D9
 70
     1
 10
0.0
 20
0.0
 30
0.0
  3
*D9
  1

  0
LINE
  5
7DBE
  8
3
  6
CONTINUOUS
 62
     0
 10
1049.615910999999
 20
6228.2566137679551
 30
0.0
 11
1049.615910999999
 21
6455.2916507679547
 31
0.0
  0
LINE
  5
7DBF
  8
3
  6
CONTINUOUS
 62
     0
 10
2549.6159109999999
 20
6228.2566137679551
 30
0.0
 11
2549.6159109999999
 21
6455.2916507679547
 31
0.0
  0
LINE
  5
7DC0
  8
3
  6
CONTINUOUS
 62
     0
 10
1109.615910999999
 20
6425.2916507679556
 30
0.0
 11
2489.6159109999999
 21
6425.2916507679556
 31
0.0
  0
INSERT
  5
7DC1
  8
3
  6
CONTINUOUS
 62
     0
  2
_OPEN
 10
1049.615910999999
 20
6425.2916507679556
 30
0.0
 41
60.0
 42
60.0
 43
60.0
 50
180.0
  0
INSERT
  5
7DC2
  8
3
  6
CONTINUOUS
 62
     0
  2
_OPEN
 10
2549.6159109999999
 20
6425.2916507679556
 30
0.0
 41
60.0
 42
60.0
 43
60.0
  0
TEXT
  8
3
  40
90
  5
7E12
  62
0
  72
0
  71
0
 10
1596.02
 20
6340.99
 30
0.000000
  1
1500
  0
POINT
  5
7DC4
  8
DEFPOINTS
  6
CONTINUOUS
 62
     0
 10
1049.615910999999
 20
6213.2566137679551
 30
0.0
  0
POINT
  5
7DC5
  8
DEFPOINTS
  6
CONTINUOUS
 62
     0
 10
2549.6159109999999
 20
6213.2566137679551
 30
0.0
  0
POINT
  5
7DC6
  8
DEFPOINTS
  6
CONTINUOUS
 62
     0
 10
2549.6159109999999
 20
6425.2916507679556
 30
0.0
  0
ENDBLK
  5
7C28
  8
0
  0
BLOCK
  8
0
  2
*D10
 70
     1
 10
0.0
 20
0.0
 30
0.0
  3
*D10
  1

  0
LINE
  5
7DC7
  8
3
  6
CONTINUOUS
 62
     0
 10
2564.6159109999999
 20
6213.2566137679551
 30
0.0
 11
2918.4665210000012
 21
6213.2566137679551
 31
0.0
  0
LINE
  5
7DC8
  8
3
  6
CONTINUOUS
 62
     0
 10
2564.6159109999999
 20
5453.2566137679551
 30
0.0
 11
2918.4665210000012
 21
5453.2566137679551
 31
0.0
  0
LINE
  5
7DC9
  8
3
  6
CONTINUOUS
 62
     0
 10
2888.4665210000012
 20
6153.2566137679551
 30
0.0
 11
2888.4665210000012
 21
5513.2566137679551
 31
0.0
  0
INSERT
  5
7DCA
  8
3
  6
CONTINUOUS
 62
     0
  2
_OPEN
 10
2888.4665210000012
 20
6213.2566137679551
 30
0.0
 41
60.0
 42
60.0
 43
60.0
 50
90.0
  0
INSERT
  5
7DCB
  8
3
  6
CONTINUOUS
 62
     0
  2
_OPEN
 10
2888.4665210000012
 20
5453.2566137679551
 30
0.0
 41
60.0
 42
60.0
 43
60.0
 50
270.0
  0
TEXT
  8
3
  40
90
  5
7E13
  62
0
  72
0
  71
0
 10
2633.47
 20
5699.15
 30
0.000000
  1
760
  0
POINT
  5
7DCD
  8
DEFPOINTS
  6
CONTINUOUS
 62
     0
 10
2549.6159109999999
 20
6213.2566137679551
 30
0.0
  0
POINT
  5
7DCE
  8
DEFPOINTS
  6
CONTINUOUS
 62
     0
 10
2549.6159109999999
 20
5453.2566137679551
 30
0.0
  0
POINT
  5
7DCF
  8
DEFPOINTS
  6
CONTINUOUS
 62
     0
 10
2888.4665210000012
 20
5453.2566137679551
 30
0.0
  0
ENDBLK
  5
7BC7
  8
0
  0
BLOCK
  8
0
  2
*D11
 70
     1
 10
0.0
 20
0.0
 30
0.0
  3
*D11
  1

  0
LINE
  5
7DD0
  8
3
  6
CONTINUOUS
 62
     0
 10
1493.618385
 20
3291.6671827679552
 30
0.0
 11
1493.618385
 21
4113.1867897679558
 31
0.0
  0
LINE
  5
7DD1
  8
3
  6
CONTINUOUS
 62
     0
 10
2019.6159110000001
 20
4083.1867897679558
 30
0.0
 11
1553.618385
 21
4083.1867897679558
 31
0.0
  0
INSERT
  5
7DD2
  8
3
  6
CONTINUOUS
 62
     0
  2
_OPEN
 10
2079.615910999999
 20
4083.1867897679558
 30
0.0
 41
60.0
 42
60.0
 43
60.0
  0
INSERT
  5
7DD3
  8
3
  6
CONTINUOUS
 62
     0
  2
_OPEN
 10
1493.618385
 20
4083.1867897679558
 30
0.0
 41
60.0
 42
60.0
 43
60.0
 50
180.0
  0
TEXT
  8
3
  40
90
  5
7E14
  62
0
  72
0
  71
0
 10
1606.62
 20
3998.89
 30
0.000000
  1
586
  0
POINT
  5
7DD5
  8
DEFPOINTS
  6
CONTINUOUS
 62
     0
 10
2079.615910999999
 20
4072.3465847679549
 30
0.0
  0
POINT
  5
7DD6
  8
DEFPOINTS
  6
CONTINUOUS
 62
     0
 10
1493.618385
 20
3276.6671827679561
 30
0.0
  0
POINT
  5
7DD7
  8
DEFPOINTS
  6
CONTINUOUS
 62
     0
 10
1493.618385
 20
4083.1867897679558
 30
0.0
  0
ENDBLK
  5
7C1C
  8
0
  0
BLOCK
  8
0
  2
*D12
 70
     1
 10
0.0
 20
0.0
 30
0.0
  3
*D12
  1

  0
LINE
  5
7DD8
  8
3
 62
     0
 10
1049.615910999999
 20
2441.6671827679552
 30
0.0
 11
1049.615910999999
 21
2223.1307291848998
 31
0.0
  0
LINE
  5
7DD9
  8
3
 62
     0
 10
2079.615910999999
 20
2441.6671827679552
 30
0.0
 11
2079.615910999999
 21
2223.1307291848998
 31
0.0
  0
LINE
  5
7DDA
  8
3
 62
     0
 10
1109.615910999999
 20
2253.1307291848998
 30
0.0
 11
2019.6159110000001
 21
2253.1307291848998
 31
0.0
  0
INSERT
  5
7DDB
  8
3
 62
     0
  2
_OPEN
 10
1049.615910999999
 20
2253.1307291848998
 30
0.0
 41
60.0
 42
60.0
 43
60.0
 50
180.0
  0
INSERT
  5
7DDC
  8
3
 62
     0
  2
_OPEN
 10
2079.615910999999
 20
2253.1307291848998
 30
0.0
 41
60.0
 42
60.0
 43
60.0
  0
TEXT
  8
3
  40
90
  5
7E15
  62
0
  72
0
  71
0
 10
1384.62
 20
2168.83
 30
0.000000
  1
1030
  0
POINT
  5
7DDE
  8
DEFPOINTS
 62
     0
 10
1049.615910999999
 20
2456.6671827679552
 30
0.0
  0
POINT
  5
7DDF
  8
DEFPOINTS
 62
     0
 10
2079.615910999999
 20
2456.6671827679552
 30
0.0
  0
POINT
  5
7DE0
  8
DEFPOINTS
 62
     0
 10
2079.615910999999
 20
2253.1307291848998
 30
0.0
  0
ENDBLK
  5
7D04
  8
0
  0
BLOCK
  8
0
  2
*D13
 70
     1
 10
0.0
 20
0.0
 30
0.0
  3
*D13
  1

  0
LINE
  5
7DE1
  8
3
 62
     0
 10
2079.615910999999
 20
2441.6671827679552
 30
0.0
 11
2079.615910999999
 21
2223.1307291848998
 31
0.0
  0
LINE
  5
7DE2
  8
3
 62
     0
 10
2549.6159109999999
 20
2441.6671827679552
 30
0.0
 11
2549.6159109999999
 21
2223.1307291848998
 31
0.0
  0
LINE
  5
7DE3
  8
3
 62
     0
 10
2139.615910999999
 20
2253.1307291848998
 30
0.0
 11
2489.6159109999999
 21
2253.1307291848998
 31
0.0
  0
INSERT
  5
7DE4
  8
3
 62
     0
  2
_OPEN
 10
2079.615910999999
 20
2253.1307291848998
 30
0.0
 41
60.0
 42
60.0
 43
60.0
 50
180.0
  0
INSERT
  5
7DE5
  8
3
 62
     0
  2
_OPEN
 10
2549.6159109999999
 20
2253.1307291848998
 30
0.0
 41
60.0
 42
60.0
 43
60.0
  0
TEXT
  8
3
  40
90
  5
7E16
  62
0
  72
0
  71
0
 10
2134.62
 20
2168.83
 30
0.000000
  1
470
  0
POINT
  5
7DE7
  8
DEFPOINTS
 62
     0
 10
2079.615910999999
 20
2456.6671827679552
 30
0.0
  0
POINT
  5
7DE8
  8
DEFPOINTS
 62
     0
 10
2549.6159109999999
 20
2456.6671827679552
 30
0.0
  0
POINT
  5
7DE9
  8
DEFPOINTS
 62
     0
 10
2549.6159109999999
 20
2253.1307291848998
 30
0.0
  0
ENDBLK
  5
7D11
  8
0
  0
BLOCK
  8
0
  2
*D14
 70
     1
 10
0.0
 20
0.0
 30
0.0
  3
*D14
  1

  0
LINE
  5
7DEA
  8
3
 62
     0
 10
4377.3668189999999
 20
2441.6671827679552
 30
0.0
 11
4377.3668189999999
 21
2223.1307291848998
 31
0.0
  0
LINE
  5
7DEB
  8
3
 62
     0
 10
4820.3668189999999
 20
2441.6671827679552
 30
0.0
 11
4820.3668189999999
 21
2223.1307291848998
 31
0.0
  0
LINE
  5
7DEC
  8
3
 62
     0
 10
4437.3668189999999
 20
2253.1307291848998
 30
0.0
 11
4760.3668189999999
 21
2253.1307291848998
 31
0.0
  0
INSERT
  5
7DED
  8
3
 62
     0
  2
_OPEN
 10
4377.3668189999999
 20
2253.1307291848998
 30
0.0
 41
60.0
 42
60.0
 43
60.0
 50
180.0
  0
INSERT
  5
7DEE
  8
3
 62
     0
  2
_OPEN
 10
4820.3668189999999
 20
2253.1307291848998
 30
0.0
 41
60.0
 42
60.0
 43
60.0
  0
TEXT
  8
3
  40
90
  5
7E17
  62
0
  72
0
  71
0
 10
4418.87
 20
2168.83
 30
0.000000
  1
443
  0
POINT
  5
7DF0
  8
DEFPOINTS
 62
     0
 10
4377.3668189999999
 20
2456.6671827679552
 30
0.0
  0
POINT
  5
7DF1
  8
DEFPOINTS
 62
     0
 10
4820.3668189999999
 20
2456.6671827679552
 30
0.0
  0
POINT
  5
7DF2
  8
DEFPOINTS
 62
     0
 10
4820.3668189999999
 20
2253.1307291848998
 30
0.0
  0
ENDBLK
  5
7D1E
  8
0
  0
BLOCK
  8
0
  2
*D15
 70
     1
 10
0.0
 20
0.0
 30
0.0
  3
*D15
  1

  0
LINE
  5
7DF3
  8
3
 62
     0
 10
4820.3668189999999
 20
2441.6671827679552
 30
0.0
 11
4820.3668189999999
 21
2223.1307291848998
 31
0.0
  0
LINE
  5
7DF4
  8
3
 62
     0
 10
5137.3668189999999
 20
2441.6671827679552
 30
0.0
 11
5137.3668189999999
 21
2223.1307291848998
 31
0.0
  0
LINE
  5
7DF5
  8
3
 62
     0
 10
4880.3668189999989
 20
2253.1307291848998
 30
0.0
 11
5077.3668189999999
 21
2253.1307291848998
 31
0.0
  0
INSERT
  5
7DF6
  8
3
 62
     0
  2
_OPEN
 10
4820.3668189999999
 20
2253.1307291848998
 30
0.0
 41
60.0
 42
60.0
 43
60.0
 50
180.0
  0
INSERT
  5
7DF7
  8
3
 62
     0
  2
_OPEN
 10
5137.3668189999999
 20
2253.1307291848998
 30
0.0
 41
60.0
 42
60.0
 43
60.0
  0
TEXT
  8
3
  40
90
  5
7E18
  62
0
  72
0
  71
0
 10
4798.87
 20
2168.83
 30
0.000000
  1
317
  0
POINT
  5
7DF9
  8
DEFPOINTS
 62
     0
 10
4820.3668189999999
 20
2456.6671827679552
 30
0.0
  0
POINT
  5
7DFA
  8
DEFPOINTS
 62
     0
 10
5137.3668189999999
 20
2456.6671827679552
 30
0.0
  0
POINT
  5
7DFB
  8
DEFPOINTS
 62
     0
 10
5137.3668189999999
 20
2253.1307291848998
 30
0.0
  0
ENDBLK
  5
7D2D
  8
0
  0
BLOCK
  8
0
  2
_DOT
 70
     0
 10
0.0
 20
0.0
 30
0.0
  3
_DOT
  1

  0
POLYLINE
  5
7D31
  8
0
  6
BYBLOCK
 62
     0
 66
     1
 10
0.0
 20
0.0
 30
0.0
 70
     1
 40
0.5
 41
0.5
  0
VERTEX
  5
7DFC
  8
0
  6
BYBLOCK
 62
     0
 10
-0.25
 20
0.0
 30
0.0
 42
1.0
  0
VERTEX
  5
7DFD
  8
0
  6
BYBLOCK
 62
     0
 10
0.25
 20
0.0
 30
0.0
 42
1.0
  0
SEQEND
  5
7DFE
  8
0
  6
BYBLOCK
 62
     0
  0
LINE
  5
7D35
  8
0
  6
BYBLOCK
 62
     0
 10
-0.5
 20
0.0
 30
0.0
 11
-1.0
 21
0.0
 31
0.0
  0
ENDBLK
  5
7D36
  8
0
  0
BLOCK
  8
0
  2
*D17
 70
     1
 10
0.0
 20
0.0
 30
0.0
  3
*D17
  1

  0
LINE
  5
7DFF
  8
3
 62
     0
 10
2564.6159109999999
 20
2556.6671827679552
 30
0.0
 11
3006.0556574323268
 21
2556.6671827679552
 31
0.0
  0
LINE
  5
7E00
  8
3
 62
     0
 10
2564.6159109999999
 20
2456.6671827679552
 30
0.0
 11
3006.0556574323268
 21
2456.6671827679552
 31
0.0
  0
LINE
  5
7E01
  8
3
 62
     0
 10
2976.0556574323268
 20
2616.6671827679552
 30
0.0
 11
2976.0556574323268
 21
2676.6671827679552
 31
0.0
  0
LINE
  5
7E02
  8
3
 62
     0
 10
2976.0556574323268
 20
2396.6671827679552
 30
0.0
 11
2976.0556574323268
 21
2062.381468482241
 31
0.0
  0
LINE
  5
7E03
  8
3
 62
     0
 10
2976.0556574323268
 20
2556.6671827679552
 30
0.0
 11
2976.0556574323268
 21
2456.6671827679552
 31
0.0
  0
INSERT
  5
7E04
  8
3
 62
     0
  2
_DOT
 10
2976.0556574323268
 20
2556.6671827679552
 30
0.0
 41
60.0
 42
60.0
 43
60.0
 50
270.0
  0
INSERT
  5
7E05
  8
3
 62
     0
  2
_OPEN
 10
2976.0556574323268
 20
2456.6671827679552
 30
0.0
 41
60.0
 42
60.0
 43
60.0
 50
90.0
  0
TEXT
  8
3
  40
90
  5
7E19
  62
0
  72
0
  71
0
 10
2721.06
 20
2040.22
 30
0.000000
  1
100
  0
POINT
  5
7E07
  8
DEFPOINTS
 62
     0
 10
2549.6159109999999
 20
2556.6671827679552
 30
0.0
  0
POINT
  5
7E08
  8
DEFPOINTS
 62
     0
 10
2549.6159109999999
 20
2456.6671827679552
 30
0.0
  0
POINT
  5
7E09
  8
DEFPOINTS
 62
     0
 10
2976.0556574323268
 20
2456.6671827679552
 30
0.0
  0
ENDBLK
  5
7D44
  8
0
  0
BLOCK
  8
0
  2
*D18
 70
     1
 10
0.0
 20
0.0
 30
0.0
  3
*D18
  1

  0
LINE
  5
7D48
  8
0
  6
BYBLOCK
 62
     0
 10
2564.6159109999999
 20
2556.6671827679552
 30
0.0
 11
3006.0556574323268
 21
2556.6671827679552
 31
0.0
  0
LINE
  5
7D49
  8
0
  6
BYBLOCK
 62
     0
 10
2564.6159109999999
 20
2651.6671827679552
 30
0.0
 11
3006.0556574323268
 21
2651.6671827679552
 31
0.0
  0
LINE
  5
7D4A
  8
0
  6
BYBLOCK
 62
     0
 10
2976.0556574323268
 20
2496.6671827679552
 30
0.0
 11
2976.0556574323268
 21
2436.6671827679552
 31
0.0
  0
LINE
  5
7D4B
  8
0
  6
BYBLOCK
 62
     0
 10
2976.0556574323268
 20
2711.6671827679552
 30
0.0
 11
2976.0556574323268
 21
2771.6671827679552
 31
0.0
  0
TEXT
  5
7D4C
  8
3
 62
     0
 10
3149.6270860037548
 20
2473.4528970536689
 30
0.0
 40
90.0
  1
(95)
 50
90.0
  0
LINE
  5
7D4D
  8
0
  6
BYBLOCK
 62
     0
 10
2976.0556574323268
 20
2556.6671827679552
 30
0.0
 11
2976.0556574323268
 21
2651.6671827679552
 31
0.0
  0
INSERT
  5
7D4E
  8
0
  6
BYBLOCK
 62
     0
  2
_DOT
 10
2976.0556574323268
 20
2556.6671827679552
 30
0.0
 41
60.0
 42
60.0
 43
60.0
 50
90.0
  0
INSERT
  5
7D4F
  8
0
  6
BYBLOCK
 62
     0
  2
_OPEN
 10
2976.0556574323268
 20
2651.6671827679552
 30
0.0
 41
60.0
 42
60.0
 43
60.0
 50
270.0
  0
POINT
  5
7D50
  8
DEFPOINTS
  6
BYBLOCK
 62
     0
 10
2549.6159109999999
 20
2556.6671827679552
 30
0.0
  0
POINT
  5
7D51
  8
DEFPOINTS
  6
BYBLOCK
 62
     0
 10
2549.6159109999999
 20
2651.6671827679552
 30
0.0
  0
POINT
  5
7D52
  8
DEFPOINTS
  6
BYBLOCK
 62
     0
 10
2976.0556574323268
 20
2651.6671827679552
 30
0.0
  0
ENDBLK
  5
7D53
  8
0
  0
ENDSEC
  0
SECTION
  2
ENTITIES
  0
LINE
  5
7A6B
  8
1
  6
CONTINUOUS
 10
1929.615910999999
 20
3891.6671827679552
 30
0.0
 11
1089.615910999999
 21
3051.6671827679552
 31
0.0
  0
LINE
  5
7A6C
  8
1
  6
CONTINUOUS
 10
2449.6159109999999
 20
2751.6671827679552
 30
0.0
 11
2449.6159109999999
 21
3891.6671827679552
 31
0.0
  0
CIRCLE
  5
7A6D
  8
1
  6
CONTINUOUS
 10
2079.615910999999
 20
3276.6671827679561
 30
0.0
 40
150.0
  0
ARC
  5
7A6E
  8
1
  6
CONTINUOUS
 10
2049.6159109999999
 20
3246.6671827679552
 30
0.0
 40
478.79000000000002
 50
277.43000000000001
 51
359.51999999999992
  0
ARC
  5
7A6F
  8
1
  6
CONTINUOUS
 10
2040.6159110000001
 20
3315.6671827679561
 30
0.0
 40
548.36999999999989
 50
185.31
 51
277.43000000000001
  0
LINE
  5
7A72
  8
2
  6
CENTER
 10
2079.615910999999
 20
6320.2800667679548
 30
0.0
 11
2079.615910999999
 21
5348.8364327679556
 31
0.0
  0
LINE
  5
7A74
  8
1
  6
CONTINUOUS
 10
2012.8759110000001
 20
3410.9971827679551
 30
0.0
 11
1232.545910999999
 21
3023.3071827679551
 31
0.0
  0
LINE
  5
7A75
  8
1
  6
CONTINUOUS
 10
2549.6159109999999
 20
2556.6671827679552
 30
0.0
 11
1049.615910999999
 21
2556.6671827679552
 31
0.0
  0
LINE
  5
7A76
  8
1
  6
CONTINUOUS
 10
2549.6159109999999
 20
2456.6671827679552
 30
0.0
 11
1049.615910999999
 21
2456.6671827679552
 31
0.0
  0
LINE
  5
7A77
  8
1
  6
CONTINUOUS
 10
2549.6159109999999
 20
2651.6671827679552
 30
0.0
 11
1049.615910999999
 21
2651.6671827679552
 31
0.0
  0
LINE
  5
7A78
  8
1
  6
CONTINUOUS
 10
2549.6159109999999
 20
2751.6671827679552
 30
0.0
 11
1049.615910999999
 21
2751.6671827679552
 31
0.0
  0
LINE
  5
7A79
  8
1
  6
CONTINUOUS
 10
2124.0559109999999
 20
3133.3971827679552
 30
0.0
 11
1291.8459109999999
 21
2875.257182767954
 31
0.0
  0
LINE
  5
7A7A
  8
1
  6
CONTINUOUS
 10
1049.615910999999
 20
2556.6671827679552
 30
0.0
 11
1049.615910999999
 21
2456.6671827679552
 31
0.0
  0
LINE
  5
7A7B
  8
1
  6
CONTINUOUS
 10
1089.615910999999
 20
2751.6671827679552
 30
0.0
 11
1089.615910999999
 21
3051.6671827679552
 31
0.0
  0
CIRCLE
  5
7A7C
  8
1
  6
CONTINUOUS
 10
1268.1359109999989
 20
2951.6671827679552
 30
0.0
 40
80.0
  0
ARC
  5
7A7D
  8
1
  6
CONTINUOUS
 10
1268.1359109999989
 20
2951.6671827679552
 30
0.0
 40
162.0
 50
324.97000000000003
 51
215.02999999999989
  0
LINE
  5
7A7E
  8
1
  6
CONTINUOUS
 10
1114.1359109999989
 20
2809.6671827679552
 30
0.0
 11
1135.4859109999991
 21
2858.6771827679549
 31
0.0
  0
LINE
  5
7A7F
  8
1
  6
CONTINUOUS
 10
1114.1359109999989
 20
2751.6671827679552
 30
0.0
 11
1114.1359109999989
 21
2809.6671827679552
 31
0.0
  0
LINE
  5
7A80
  8
2
  6
CENTER
 10
1188.1359109999989
 20
2951.6671827679552
 30
0.0
 11
1348.1359109999989
 21
2951.6671827679552
 31
0.0
  0
LINE
  5
7A81
  8
2
  6
CENTER
 10
1268.1359109999989
 20
2871.6671827679552
 30
0.0
 11
1268.1359109999989
 21
3031.6671827679552
 31
0.0
  0
LINE
  5
7A82
  8
1
  6
CONTINUOUS
 10
1422.1359109999989
 20
2751.6671827679552
 30
0.0
 11
1422.1359109999989
 21
2809.6671827679552
 31
0.0
  0
LINE
  5
7A83
  8
1
  6
CONTINUOUS
 10
1422.1359109999989
 20
2809.6671827679552
 30
0.0
 11
1400.7959109999999
 21
2858.6771827679549
 31
0.0
  0
LINE
  5
7A84
  8
1
  6
CONTINUOUS
 10
1049.615910999999
 20
2751.6671827679552
 30
0.0
 11
1049.615910999999
 21
2651.6671827679552
 31
0.0
  0
LINE
  5
7A85
  8
1
  6
CONTINUOUS
 10
2549.6159109999999
 20
2556.6671827679552
 30
0.0
 11
2549.6159109999999
 21
2456.6671827679552
 31
0.0
  0
LINE
  5
7A86
  8
1
  6
CONTINUOUS
 10
2549.6159109999999
 20
2751.6671827679552
 30
0.0
 11
2549.6159109999999
 21
2651.6671827679552
 31
0.0
  0
ARC
  5
7A87
  8
1
  6
CONTINUOUS
 10
2126.6159109999999
 20
3323.6671827679552
 30
0.0
 40
634.74000000000001
 50
94.25
 51
185.31
  0
LINE
  5
7A89
  8
1
  6
CONTINUOUS
 10
2449.6159109999999
 20
3891.6671827679552
 30
0.0
 11
1929.615910999999
 21
3891.6671827679552
 31
0.0
  0
LINE
  5
7A8A
  8
1
  6
CONTINUOUS
 10
2584.6159109999999
 20
3242.6671827679552
 30
0.0
 11
2584.6159109999999
 21
3971.7671827679551
 31
0.0
  0
LINE
  5
7A8B
  8
1
  6
CONTINUOUS
 10
2614.6159109999999
 20
3972.6671827679561
 30
0.0
 11
2079.615910999999
 21
3956.6671827679552
 31
0.0
  0
LINE
  5
7A8C
  8
2
  6
CENTER
 10
5186.8508579999989
 20
3276.6671827679561
 30
0.0
 11
4218.7011249999987
 21
3276.6671827679561
 31
0.0
  0
LINE
  5
7A8D
  8
1
  6
CONTINUOUS
 10
2614.6159109999999
 20
3202.6671827679552
 30
0.0
 11
2614.6159109999999
 21
4012.6671827679552
 31
0.0
  0
LINE
  5
7A8E
  8
1
  6
CONTINUOUS
 10
2528.3859109999989
 20
3242.6671827679552
 30
0.0
 11
2614.6159109999999
 21
3242.6671827679552
 31
0.0
  0
LINE
  5
7A8F
  8
1
  6
CONTINUOUS
 10
2549.6159109999999
 20
6213.2566137679551
 30
0.0
 11
1049.615910999999
 21
6213.2566137679551
 31
0.0
  0
LINE
  5
7A90
  8
1
  6
CONTINUOUS
 10
1929.615910999999
 20
5453.2566137679551
 30
0.0
 11
1348.1359109999989
 21
5453.2566137679551
 31
0.0
  0
LINE
  5
7A91
  8
1
  6
CONTINUOUS
 10
2449.6159109999999
 20
5536.2566137679551
 30
0.0
 11
1089.615910999999
 21
5536.2566137679551
 31
0.0
  0
LINE
  5
7A92
  8
1
  6
CONTINUOUS
 10
2449.6159109999999
 20
5396.2566137679551
 30
0.0
 11
1089.615910999999
 21
5396.2566137679551
 31
0.0
  0
LINE
  5
7A93
  8
1
  6
CONTINUOUS
 10
2614.6159109999999
 20
6161.2566137679551
 30
0.0
 11
1491.875910999999
 21
6161.2566137679551
 31
0.0
  0
LINE
  5
7A94
  8
1
  6
CONTINUOUS
 10
2614.6159109999999
 20
5631.256613767956
 30
0.0
 11
1491.875910999999
 21
5631.256613767956
 31
0.0
  0
LINE
  5
7A95
  8
1
  6
CONTINUOUS
 10
1188.1359109999989
 20
5453.2566137679551
 30
0.0
 11
1049.615910999999
 21
5453.2566137679551
 31
0.0
  0
LINE
  5
7A96
  8
1
  6
CONTINUOUS
 10
1348.1359109999989
 20
5506.256613767956
 30
0.0
 11
1188.1359109999989
 21
5506.256613767956
 31
0.0
  0
LINE
  5
7A97
  8
1
  6
CONTINUOUS
 10
1348.1359109999989
 20
5426.2566137679551
 30
0.0
 11
1188.1359109999989
 21
5426.2566137679551
 31
0.0
  0
LINE
  5
7A98
  8
1
  6
CONTINUOUS
 10
1348.1359109999989
 20
5426.2566137679551
 30
0.0
 11
1348.1359109999989
 21
5506.256613767956
 31
0.0
  0
LINE
  5
7A99
  8
1
  6
CONTINUOUS
 10
1188.1359109999989
 20
5426.2566137679551
 30
0.0
 11
1188.1359109999989
 21
5506.256613767956
 31
0.0
  0
LINE
  5
7A9A
  8
1
  6
CONTINUOUS
 10
1089.615910999999
 20
5396.2566137679551
 30
0.0
 11
1089.615910999999
 21
5536.2566137679551
 31
0.0
  0
LINE
  5
7A9B
  8
1
  6
CONTINUOUS
 10
1491.875910999999
 20
6161.2566137679551
 30
0.0
 11
1491.875910999999
 21
5631.256613767956
 31
0.0
  0
LINE
  5
7A9C
  8
1
  6
CONTINUOUS
 10
1049.615910999999
 20
6213.2566137679551
 30
0.0
 11
1049.615910999999
 21
5453.2566137679551
 31
0.0
  0
LINE
  5
7A9D
  8
1
  6
CONTINUOUS
 10
1101.1559109999989
 20
5592.2666137679553
 30
0.0
 11
1101.1559109999989
 21
6048.2066137679549
 31
0.0
  0
LINE
  5
7A9E
  8
1
  6
CONTINUOUS
 10
1430.1359109999989
 20
5592.2666137679553
 30
0.0
 11
1430.1359109999989
 21
6048.2066137679549
 31
0.0
  0
LINE
  5
7A9F
  8
1
  6
CONTINUOUS
 10
1101.1559109999989
 20
5592.2666137679553
 30
0.0
 11
1430.1359109999989
 21
5592.2666137679553
 31
0.0
  0
LINE
  5
7AA0
  8
1
  6
CONTINUOUS
 10
1247.1359109999989
 20
5506.256613767956
 30
0.0
 11
1247.1359109999989
 21
5592.2666137679553
 31
0.0
  0
LINE
  5
7AA1
  8
1
  6
CONTINUOUS
 10
1289.1359109999989
 20
5506.256613767956
 30
0.0
 11
1289.1359109999989
 21
5592.2666137679553
 31
0.0
  0
LINE
  5
7AA2
  8
1
  6
CONTINUOUS
 10
1101.1559109999989
 20
6048.2066137679549
 30
0.0
 11
1430.1359109999989
 21
6048.2066137679549
 31
0.0
  0
LINE
  5
7AA3
  8
1
  6
CONTINUOUS
 10
2549.6159109999999
 20
5631.256613767956
 30
0.0
 11
2549.6159109999999
 21
5453.2566137679551
 31
0.0
  0
LINE
  5
7AA4
  8
1
  6
CONTINUOUS
 10
2100.615910999999
 20
5506.256613767956
 30
0.0
 11
2100.615910999999
 21
5631.256613767956
 31
0.0
  0
LINE
  5
7AA5
  8
1
  6
CONTINUOUS
 10
2058.615910999999
 20
5506.256613767956
 30
0.0
 11
2058.615910999999
 21
5631.256613767956
 31
0.0
  0
LINE
  5
7AA6
  8
1
  6
CONTINUOUS
 10
2229.615910999999
 20
5506.256613767956
 30
0.0
 11
1929.615910999999
 21
5506.256613767956
 31
0.0
  0
LINE
  5
7AA7
  8
1
  6
CONTINUOUS
 10
2229.615910999999
 20
5426.2566137679551
 30
0.0
 11
1929.615910999999
 21
5426.2566137679551
 31
0.0
  0
LINE
  5
7AA8
  8
1
  6
CONTINUOUS
 10
2229.615910999999
 20
5426.2566137679551
 30
0.0
 11
2229.615910999999
 21
5506.256613767956
 31
0.0
  0
LINE
  5
7AA9
  8
1
  6
CONTINUOUS
 10
1929.615910999999
 20
5426.2566137679551
 30
0.0
 11
1929.615910999999
 21
5506.256613767956
 31
0.0
  0
LINE
  5
7AAA
  8
1
  6
CONTINUOUS
 10
2449.6159109999999
 20
5396.2566137679551
 30
0.0
 11
2449.6159109999999
 21
5536.2566137679551
 31
0.0
  0
LINE
  5
7AAB
  8
1
  6
CONTINUOUS
 10
2614.6159109999999
 20
6201.2566137679551
 30
0.0
 11
2614.6159109999999
 21
5591.256613767956
 31
0.0
  0
LINE
  5
7AAC
  8
1
  6
CONTINUOUS
 10
2549.6159109999999
 20
6213.2566137679551
 30
0.0
 11
2549.6159109999999
 21
6161.2566137679551
 31
0.0
  0
LINE
  5
7AAD
  8
1
  6
CONTINUOUS
 10
2549.6159109999999
 20
5453.2566137679551
 30
0.0
 11
2229.615910999999
 21
5453.2566137679551
 31
0.0
  0
LINE
  5
7AAE
  8
1
  6
CONTINUOUS
 10
4350.3668189999999
 20
3126.6671827679552
 30
0.0
 11
4350.3668189999999
 21
3426.6671827679561
 31
0.0
  0
LINE
  5
7AAF
  8
1
  6
CONTINUOUS
 10
4430.3668189999989
 20
3126.6671827679552
 30
0.0
 11
4430.3668189999989
 21
3426.6671827679561
 31
0.0
  0
LINE
  5
7AB0
  8
1
  6
CONTINUOUS
 10
4460.3668189999989
 20
3891.6671827679552
 30
0.0
 11
4460.3668189999989
 21
2751.6671827679552
 31
0.0
  0
LINE
  5
7AB1
  8
1
  6
CONTINUOUS
 10
4320.3668189999999
 20
3891.6671827679552
 30
0.0
 11
4320.3668189999999
 21
2751.6671827679552
 31
0.0
  0
LINE
  5
7AB2
  8
1
  6
CONTINUOUS
 10
5085.3668189999999
 20
3972.6671827679561
 30
0.0
 11
5085.3668189999999
 21
2751.6671827679552
 31
0.0
  0
LINE
  5
7AB3
  8
1
  6
CONTINUOUS
 10
4555.3668189999989
 20
3972.6671827679561
 30
0.0
 11
4555.3668189999989
 21
2751.6671827679552
 31
0.0
  0
LINE
  5
7AB4
  8
1
  6
CONTINUOUS
 10
5137.3668189999999
 20
2456.6671827679552
 30
0.0
 11
4377.3668189999999
 21
2456.6671827679552
 31
0.0
  0
LINE
  5
7AB5
  8
1
  6
CONTINUOUS
 10
5137.3668189999999
 20
2556.6671827679552
 30
0.0
 11
4377.3668189999999
 21
2556.6671827679552
 31
0.0
  0
LINE
  5
7AB6
  8
1
  6
CONTINUOUS
 10
4430.3668189999989
 20
2890.6671827679552
 30
0.0
 11
4555.3668189999989
 21
2890.6671827679552
 31
0.0
  0
LINE
  5
7AB7
  8
1
  6
CONTINUOUS
 10
4430.3668189999989
 20
2932.6671827679552
 30
0.0
 11
4555.3668189999989
 21
2932.6671827679552
 31
0.0
  0
LINE
  5
7AB8
  8
1
  6
CONTINUOUS
 10
5137.3668189999999
 20
2751.6671827679552
 30
0.0
 11
4320.3668189999999
 21
2751.6671827679552
 31
0.0
  0
LINE
  5
7AB9
  8
1
  6
CONTINUOUS
 10
5137.3668189999999
 20
2651.6671827679552
 30
0.0
 11
4377.3668189999999
 21
2651.6671827679552
 31
0.0
  0
LINE
  5
7ABE
  8
1
  6
CONTINUOUS
 10
4377.3668189999999
 20
2556.6671827679552
 30
0.0
 11
4377.3668189999999
 21
2456.6671827679552
 31
0.0
  0
LINE
  5
7ABF
  8
1
  6
CONTINUOUS
 10
4350.3668189999999
 20
2991.6671827679552
 30
0.0
 11
4430.3668189999989
 21
2991.6671827679552
 31
0.0
  0
LINE
  5
7AC0
  8
1
  6
CONTINUOUS
 10
4350.3668189999999
 20
2831.6671827679552
 30
0.0
 11
4430.3668189999989
 21
2831.6671827679552
 31
0.0
  0
LINE
  5
7AC1
  8
1
  6
CONTINUOUS
 10
4350.3668189999999
 20
3126.6671827679552
 30
0.0
 11
4430.3668189999989
 21
3126.6671827679552
 31
0.0
  0
LINE
  5
7AC2
  8
1
  6
CONTINUOUS
 10
4350.3668189999999
 20
2831.6671827679552
 30
0.0
 11
4350.3668189999999
 21
2991.6671827679552
 31
0.0
  0
LINE
  5
7AC3
  8
1
  6
CONTINUOUS
 10
4430.3668189999989
 20
2831.6671827679552
 30
0.0
 11
4430.3668189999989
 21
2991.6671827679552
 31
0.0
  0
LINE
  5
7AC4
  8
1
  6
CONTINUOUS
 10
4377.3668189999999
 20
2751.6671827679552
 30
0.0
 11
4377.3668189999999
 21
2651.6671827679552
 31
0.0
  0
LINE
  5
7AC5
  8
1
  6
CONTINUOUS
 10
5137.3668189999999
 20
2556.6671827679552
 30
0.0
 11
5137.3668189999999
 21
2456.6671827679552
 31
0.0
  0
LINE
  5
7AC6
  8
1
  6
CONTINUOUS
 10
5137.3668189999999
 20
2751.6671827679552
 30
0.0
 11
5137.3668189999999
 21
2651.6671827679552
 31
0.0
  0
LINE
  5
7AC7
  8
1
  6
CONTINUOUS
 10
4430.3668189999989
 20
3297.6671827679561
 30
0.0
 11
4555.3668189999989
 21
3297.6671827679561
 31
0.0
  0
LINE
  5
7AC8
  8
1
  6
CONTINUOUS
 10
4430.3668189999989
 20
3255.6671827679561
 30
0.0
 11
4555.3668189999989
 21
3255.6671827679561
 31
0.0
  0
LINE
  5
7AC9
  8
1
  6
CONTINUOUS
 10
4350.3668189999999
 20
3426.6671827679561
 30
0.0
 11
4430.3668189999989
 21
3426.6671827679561
 31
0.0
  0
LINE
  5
7ACA
  8
1
  6
CONTINUOUS
 10
4460.3668189999989
 20
3891.6671827679552
 30
0.0
 11
4320.3668189999999
 21
3891.6671827679552
 31
0.0
  0
LINE
  5
7ACB
  8
1
  6
CONTINUOUS
 10
4555.3668189999989
 20
3972.6671827679561
 30
0.0
 11
5085.3668189999999
 21
3242.6671827679552
 31
0.0
  0
LINE
  5
7ACC
  8
1
  6
CONTINUOUS
 10
5085.3668189999999
 20
3972.6671827679561
 30
0.0
 11
4555.3668189999989
 21
3242.6671827679552
 31
0.0
  0
LINE
  5
7ACD
  8
1
  6
CONTINUOUS
 10
4555.3668189999989
 20
3972.6671827679561
 30
0.0
 11
5085.3668189999999
 21
3972.6671827679561
 31
0.0
  0
LINE
  5
7ACE
  8
1
  6
CONTINUOUS
 10
4555.3668189999989
 20
3242.6671827679552
 30
0.0
 11
5085.3668189999999
 21
3242.6671827679552
 31
0.0
  0
LINE
  5
7ACF
  8
2
  6
CENTER
 10
931.53729399999975
 20
5896.2566137679551
 30
0.0
 11
2686.2039989999989
 21
5896.2566137679551
 31
0.0
  0
LINE
  5
7AD0
  8
2
  6
CENTER
 10
4820.3668189999999
 20
4016.7692907679561
 30
0.0
 11
4820.3668189999999
 21
2456.6671827679552
 31
0.0
  0
LINE
  5
7AD1
  8
2
  6
CENTER
 10
2079.615910999999
 20
4072.3465847679549
 30
0.0
 11
2079.615910999999
 21
2456.6671827679552
 31
0.0
  0
LINE
  5
7AD3
  8
2
  6
CENTER
 10
2762.3315999999991
 20
3276.6671827679561
 30
0.0
 11
1064.835192999999
 21
3276.6671827679561
 31
0.0
  0
DIMENSION
  5
7AE7
  8
3
  6
CONTINUOUS
  2
*D1
 10
2807.5615269999998
 20
3242.6671827679552
 30
0.0
 11
2807.5615269999998
 21
3611.6819657679548
 31
0.0
 70
   128
 13
2614.6159109999999
 23
3972.6671827679561
 33
0.0
 14
2614.6159109999999
 24
3242.6671827679552
 34
0.0
 50
90.0
1001
ACAD
1000
DSTYLE
1002
{
1070
   287
1070
     3
1070
    40
1040
30.0
1070
   143
1040
0.039
1070
   172
1070
     1
1070
   271
1070
     0
1070
   279
1070
     0
1070
   288
1070
     1
1002
}
  0
DIMENSION
  5
7AF4
  8
3
  6
CONTINUOUS
  2
*D2
 10
2976.113628000001
 20
3276.6671827679561
 30
0.0
 11
2976.1136280000001
 21
3618.4177427679551
 31
0.0
 70
   128
 13
2614.6159109999999
 23
3972.6671827679561
 33
0.0
 14
2762.3315999999991
 24
3276.6671827679561
 34
0.0
 50
90.0
1001
ACAD
1000
DSTYLE
1002
{
1070
   287
1070
     3
1070
    40
1040
30.0
1070
   143
1040
0.039
1070
   172
1070
     1
1070
   271
1070
     0
1070
   279
1070
     0
1070
   288
1070
     1
1002
}
  0
DIMENSION
  5
7B00
  8
3
  6
CONTINUOUS
  2
*D3
 10
2976.1136280000001
 20
2651.6671827679552
 30
0.0
 11
2901.1136279999992
 21
2964.1671827679552
 31
0.0
 70
     0
 13
2762.3315999999991
 23
3276.6671827679561
 33
0.0
 14
2549.6159109999999
 24
2651.6671827679552
 34
0.0
 50
90.0
1001
ACAD
1000
DSTYLE
1002
{
1070
   287
1070
     4
1070
    40
1040
30.0
1070
    75
1070
     1
1070
   143
1040
0.039
1070
   172
1070
     1
1070
   271
1070
     0
1070
   279
1070
     1
1070
   288
1070
     1
1002
}
  0
DIMENSION
  5
7B50
  8
3
  6
CONTINUOUS
  2
*D4
 10
2079.615910999999
 20
4083.1867897679558
 30
0.0
 11
2335.615640999999
 21
4083.1867897679558
 31
0.0
 70
   128
 13
2614.6159109999999
 23
4012.6671827679552
 33
0.0
 14
2079.615910999999
 24
4072.3465847679549
 34
0.0
1001
ACAD
1000
DSTYLE
1002
{
1070
   287
1070
     3
1070
    40
1040
30.0
1070
   143
1040
0.039
1070
   172
1070
     1
1070
   271
1070
     0
1070
   279
1070
     0
1070
   288
1070
     1
1002
}
  0
DIMENSION
  5
7B84
  8
3
  6
CONTINUOUS
  2
*D5
 10
5085.3668189999999
 20
4103.3941417679553
 30
0.0
 11
4816.0362700000014
 21
4103.3941417679553
 31
0.0
 70
   128
 13
4555.3668189999989
 23
3972.6671827679561
 33
0.0
 14
5085.3668189999999
 24
3972.6671827679561
 34
0.0
1001
ACAD
1000
DSTYLE
1002
{
1070
   287
1070
     3
1070
    40
1040
30.0
1070
   143
1040
0.039
1070
   172
1070
     1
1070
   271
1070
     0
1070
   279
1070
     0
1070
   288
1070
     1
1002
}
  0
LINE
  5
7B85
  8
1
  6
CONTINUOUS
 10
5087.3668189999989
 20
3653.6671827679552
 30
0.0
 11
5087.3668189999989
 21
2899.6671827679552
 31
0.0
  0
DIMENSION
  5
7B94
  8
3
  6
CONTINUOUS
  2
*D6
 10
5355.4029600000013
 20
2899.6671827679538
 30
0.0
 11
5355.4029600000013
 21
3261.421230767955
 31
0.0
 70
   128
 13
5087.3668189999989
 23
3653.6671827679552
 33
0.0
 14
5087.3668189999989
 24
2899.6671827679552
 34
0.0
 50
90.0
1001
ACAD
1000
DSTYLE
1002
{
1070
   287
1070
     3
1070
     3
1000
φ<>
1070
    40
1040
30.0
1070
   143
1040
0.039
1070
   172
1070
     1
1070
   271
1070
     0
1070
   279
1070
     0
1070
   288
1070
     1
1002
}
  0
DIMENSION
  5
7BA2
  8
3
  6
CONTINUOUS
  2
*D7
 10
4820.3668189999999
 20
4302.4999087679553
 30
0.0
 11
4973.4329265082561
 21
4399.1785325267001
 31
0.0
 70
   128
 13
5087.3668189999989
 23
3653.6671827679552
 33
0.0
 14
4820.3668189999999
 24
4243.3951437679552
 34
0.0
1001
ACAD
1000
DSTYLE
1002
{
1070
   288
1070
     1
1070
   172
1070
     1
1070
    40
1040
30.0
1070
   271
1070
     0
1070
   143
1040
0.039
1002
}
  0
DIMENSION
  5
7BAE
  8
3
  6
CONTINUOUS
  2
*D8
 10
4320.3668189999999
 20
4302.4999087679553
 30
0.0
 11
4570.3668189999999
 21
4452.4999087679553
 31
0.0
 70
     0
  1
MAX\P560
 13
4820.3668189999999
 23
4243.3951437679552
 33
0.0
 14
4320.3668189999999
 24
3891.6671827679552
 34
0.0
1001
ACAD
1000
DSTYLE
1002
{
1070
   287
1070
     4
1070
    40
1040
30.0
1070
    75
1070
     1
1070
   143
1040
0.039
1070
   172
1070
     1
1070
   271
1070
     0
1070
   279
1070
     1
1070
   288
1070
     1
1002
}
  0
DIMENSION
  5
7BBB
  8
3
  6
CONTINUOUS
  2
*D9
 10
2549.6159109999999
 20
6425.2916507679556
 30
0.0
 11
1776.0226849999999
 21
6425.2916507679556
 31
0.0
 70
   128
 13
1049.615910999999
 23
6213.2566137679551
 33
0.0
 14
2549.6159109999999
 24
6213.2566137679551
 34
0.0
1001
ACAD
1000
DSTYLE
1002
{
1070
   287
1070
     3
1070
    40
1040
30.0
1070
   143
1040
0.039
1070
   172
1070
     1
1070
   271
1070
     0
1070
   279
1070
     0
1070
   288
1070
     1
1002
}
  0
DIMENSION
  5
7BC8
  8
3
  6
CONTINUOUS
  2
*D10
 10
2888.4665210000012
 20
5453.2566137679551
 30
0.0
 11
2888.4665209999998
 21
5858.4520667679562
 31
0.0
 70
   128
 13
2549.6159109999999
 23
6213.2566137679551
 33
0.0
 14
2549.6159109999999
 24
5453.2566137679551
 34
0.0
 50
90.0
1001
ACAD
1000
DSTYLE
1002
{
1070
   287
1070
     3
1070
    40
1040
30.0
1070
   143
1040
0.039
1070
   172
1070
     1
1070
   271
1070
     0
1070
   279
1070
     0
1070
   288
1070
     1
1002
}
  0
LINE
  5
7BC9
  8
4
  6
CONTINUOUS
 10
5550.0
 20
1500.0
 30
0.0
 11
5550.0
 21
900.0
 31
0.0
  0
LINE
  5
7BCA
  8
4
  6
CONTINUOUS
 10
3450.0
 20
1500.0
 30
0.0
 11
3450.0
 21
900.0
 31
0.0
  0
LINE
  5
7BCB
  8
4
  6
CONTINUOUS
 10
1950.0
 20
1500.0
 30
0.0
 11
1950.0
 21
900.0
 31
0.0
  0
LINE
  5
7BCE
  8
4
  6
CONTINUOUS
 10
1950.0
 20
900.0
 30
0.0
 11
5550.0
 21
900.0
 31
0.0
  0
LINE
  5
7BCF
  8
4
  6
CONTINUOUS
 10
1950.0
 20
1200.0
 30
0.0
 11
5550.0
 21
1200.0
 31
0.0
  0
TEXT
  5
7BD0
  8
4
  6
CONTINUOUS
 10
2065.5062429999989
 20
1294.6290779999999
 30
0.0
 40
150.0
  1
機器名称
  0
TEXT
  5
7BD1
  8
4
  6
CONTINUOUS
 10
2058.7743179999989
 20
964.9354699999999
 30
0.0
 40
150.0
  1
機器型番
  0
TEXT
  5
7BD2
  8
4
  6
CONTINUOUS
 10
3533.0362359999999
 20
1267.7153069999999
 30
0.0
 40
150.0
  1
ミツヤ多翼送風機
  0
TEXT
  5
7BD3
  8
4
  6
CONTINUOUS
 10
3559.9634869999991
 20
951.47875299999987
 30
0.0
 40
150.0
  1
MF#4 1/2-4
  0
TEXT
  5
7BD5
  8
4
  6
CONTINUOUS
 10
2343.8187309999998
 20
7150.2865239999992
 30
0.0
 40
162.0
  1
床置防振ベット
  0
TEXT
  5
7BD6
  8
4
  6
CONTINUOUS
 10
948.50278000000014
 20
7601.6429289999996
 30
0.0
 40
216.0
  1
ベルト駆動式片吸込両持多翼ファン
  0
LINE
  5
7BD7
  8
4
  6
CONTINUOUS
 10
750.0
 20
7408.2262629999996
 30
0.0
 11
5550.0
 21
7408.2262629999996
 31
0.0
  0
LINE
  5
7BD8
  8
4
  6
CONTINUOUS
 10
750.0
 20
8008.2262629999996
 30
0.0
 11
5550.0
 21
8008.2262629999996
 31
0.0
  0
LINE
  5
7BD9
  8
4
  6
CONTINUOUS
 10
1950.0
 20
1500.0
 30
0.0
 11
5550.0
 21
1500.0
 31
0.0
  0
LINE
  5
7BDA
  8
4
  6
CONTINUOUS
 10
750.0
 20
8008.2262629999996
 30
0.0
 11
750.0
 21
7408.2262629999996
 31
0.0
  0
TEXT
  5
7BDB
  8
4
  6
CONTINUOUS
 10
1036.2422340000001
 20
7146.9584329999998
 30
0.0
 40
162.0
  1
右回転右横向
  0
TEXT
  5
7BDC
  8
4
  6
CONTINUOUS
 10
4406.9086779999989
 20
8118.1832439999989
 30
0.0
 40
168.0
  1
No.
  0
TEXT
  5
7BDD
  8
4
  6
CONTINUOUS
 10
3933.8881879999999
 20
7150.2865239999992
 30
0.0
 40
162.0
  1
縮尺：1/30
  0
LINE
  5
7BDE
  8
4
  6
CONTINUOUS
 10
5550.0
 20
8008.2262629999996
 30
0.0
 11
5550.0
 21
7408.2262629999996
 31
0.0
  0
LINE
  5
7BE0
  8
4
  6
CONTINUOUS
 10
4321.8522670000002
 20
8043.7907490000007
 30
0.0
 11
4321.8522670000002
 21
8359.9567849999985
 31
0.0
  0
LINE
  5
7BE1
  8
4
  6
CONTINUOUS
 10
4321.8522670000002
 20
8359.9567849999985
 30
0.0
 11
5550.0
 21
8359.9567849999985
 31
0.0
  0
LINE
  5
7BE2
  8
4
  6
CONTINUOUS
 10
5550.0
 20
8359.9567849999985
 30
0.0
 11
5550.0
 21
8043.7907490000007
 31
0.0
  0
LINE
  5
7BE3
  8
4
  6
CONTINUOUS
 10
5550.0
 20
8043.7907490000007
 30
0.0
 11
4321.8522670000002
 21
8043.7907490000007
 31
0.0
  0
DIMENSION
  5
7C1D
  8
3
  6
CONTINUOUS
  2
*D11
 10
1493.618385
 20
4083.1867897679558
 30
0.0
 11
1786.6171479999989
 21
4158.1867897679549
 31
0.0
 70
     0
 13
2079.615910999999
 23
4072.3465847679549
 33
0.0
 14
1493.618385
 24
3276.6671827679561
 34
0.0
1001
ACAD
1000
DSTYLE
1002
{
1070
   287
1070
     4
1070
    40
1040
30.0
1070
    75
1070
     1
1070
   143
1040
0.039
1070
   172
1070
     1
1070
   271
1070
     0
1070
   279
1070
     1
1070
   288
1070
     1
1002
}
  0
DIMENSION
  5
7D05
  8
3
  2
*D12
 10
2079.615910999999
 20
2253.1307291848998
 30
0.0
 11
1564.615910999999
 21
2328.1307291848998
 31
0.0
 70
     0
 13
1049.615910999999
 23
2456.6671827679552
 33
0.0
 14
2079.615910999999
 24
2456.6671827679552
 34
0.0
1001
ACAD
1000
DSTYLE
1002
{
1070
   287
1070
     3
1070
    40
1040
30.0
1070
   143
1040
0.039
1070
   172
1070
     1
1070
   271
1070
     0
1070
   279
1070
     0
1002
}
  0
DIMENSION
  5
7D12
  8
3
  2
*D13
 10
2549.6159109999999
 20
2253.1307291848998
 30
0.0
 11
2314.6159109999999
 21
2328.1307291848998
 31
0.0
 70
     0
 13
2079.615910999999
 23
2456.6671827679552
 33
0.0
 14
2549.6159109999999
 24
2456.6671827679552
 34
0.0
1001
ACAD
1000
DSTYLE
1002
{
1070
   287
1070
     3
1070
    40
1040
30.0
1070
   143
1040
0.039
1070
   172
1070
     1
1070
   271
1070
     0
1070
   279
1070
     0
1002
}
  0
DIMENSION
  5
7D1F
  8
3
  2
*D14
 10
4820.3668189999999
 20
2253.1307291848998
 30
0.0
 11
4598.8668189999999
 21
2328.1307291848998
 31
0.0
 70
     0
 13
4377.3668189999999
 23
2456.6671827679552
 33
0.0
 14
4820.3668189999999
 24
2456.6671827679552
 34
0.0
1001
ACAD
1000
DSTYLE
1002
{
1070
   287
1070
     3
1070
    40
1040
30.0
1070
   143
1040
0.039
1070
   172
1070
     1
1070
   271
1070
     0
1070
   279
1070
     0
1002
}
  0
DIMENSION
  5
7D2E
  8
3
  2
*D15
 10
5137.3668189999999
 20
2253.1307291848998
 30
0.0
 11
4978.8668189999999
 21
2328.1307291848998
 31
0.0
 70
     0
 13
4820.3668189999999
 23
2456.6671827679552
 33
0.0
 14
5137.3668189999999
 24
2456.6671827679552
 34
0.0
1001
ACAD
1000
DSTYLE
1002
{
1070
   287
1070
     3
1070
    40
1040
30.0
1070
   143
1040
0.039
1070
   172
1070
     1
1070
   271
1070
     0
1070
   279
1070
     0
1002
}
  0
DIMENSION
  5
7D45
  8
3
  2
*D17
 10
2976.0556574323268
 20
2456.6671827679552
 30
0.0
 11
2901.0556574323259
 21
2199.5243256250978
 31
0.0
 70
     0
 13
2549.6159109999999
 23
2556.6671827679552
 33
0.0
 14
2549.6159109999999
 24
2456.6671827679552
 34
0.0
 50
90.0
1001
ACAD
1000
DSTYLE
1002
{
1070
   287
1070
     3
1070
    40
1040
30.0
1070
   143
1040
0.039
1070
   172
1070
     1
1070
   271
1070
     0
1070
   279
1070
     0
1070
     6
1000
DOT
1002
}
  0
DIMENSION
  5
7D54
  8
3
  2
*D18
 10
2976.0556574323268
 20
2651.6671827679552
 30
0.0
 11
3119.6270860037562
 21
2604.1671827679552
 31
0.0
 70
     0
 13
2549.6159109999999
 23
2556.6671827679552
 33
0.0
 14
2549.6159109999999
 24
2651.6671827679552
 34
0.0
 50
90.0
1001
ACAD
1000
DSTYLE
1002
{
1070
   172
1070
     1
1070
    40
1040
30.0
1070
     3
1000
(<>)
1070
   271
1070
     0
1070
     6
1000
_DOT
1070
   143
1040
0.039
1002
}
  0
LINE
  5
7D6A
  8
1
 10
1619.6159110000001
 20
3671.6671827679552
 30
0.0
 11
1619.615910999999
 21
2751.6671827679552
 31
0.0
  0
LINE
  5
7D6B
  8
1
 10
2539.6159109999999
 20
3671.6671827679552
 30
0.0
 11
2539.6159109999999
 21
2751.6671827679552
 31
0.0
  0
LINE
  5
7D6C
  8
1
  6
CONTINUOUS
 10
2539.6159109999999
 20
3671.6671827679552
 30
0.0
 11
1619.6159110000001
 21
3671.6671827679552
 31
0.0
  0
ENDSEC
  0
EOF
