  0
SECTION
  2
HEADER
  9
$ACADVER
  1
AC1009
  9
$INSBASE
 10
0.0
 20
0.0
 30
0.0
  9
$EXTMIN
 10
750.0
 20
900.0
 30
0.0
  9
$EXTMAX
 10
5550.0
 20
8359.9567849999985
 30
0.0
  9
$LIMMIN
 10
0.0
 20
0.0
  9
$LIMMAX
 10
297.0
 20
210.0
  9
$ORTHOMODE
 70
     0
  9
$REGENMODE
 70
     1
  9
$FILLMODE
 70
     0
  9
$QTEXTMODE
 70
     0
  9
$MIRRTEXT
 70
     1
  9
$DRAGMODE
 70
     2
  9
$LTSCALE
 40
100.0
  9
$OSMODE
 70
    37
  9
$ATTMODE
 70
     1
  9
$TEXTSIZE
 40
180.0
  9
$TRACEWID
 40
0.05
  9
$TEXTSTYLE
  7
STANDARD
  9
$CLAYER
  8
3
  9
$CELTYPE
  6
BYLAYER
  9
$CECOLOR
 62
   256
  9
$DIMSCALE
 40
30.0
  9
$DIMASZ
 40
2.0
  9
$DIMEXO
 40
0.5
  9
$DIMDLI
 40
10.0
  9
$DIMRND
 40
0.0
  9
$DIMDLE
 40
0.0
  9
$DIMEXE
 40
1.0
  9
$DIMTP
 40
1.0
  9
$DIMTM
 40
1.0
  9
$DIMTXT
 40
3.0
  9
$DIMCEN
 40
0.0
  9
$DIMTSZ
 40
0.0
  9
$DIMTOL
 70
     0
  9
$DIMLIM
 70
     0
  9
$DIMTIH
 70
     0
  9
$DIMTOH
 70
     0
  9
$DIMSE1
 70
     0
  9
$DIMSE2
 70
     0
  9
$DIMTAD
 70
     1
  9
$DIMZIN
 70
     8
  9
$DIMBLK
  1

  9
$DIMASO
 70
     1
  9
$DIMSHO
 70
     1
  9
$DIMPOST
  1
(<>)
  9
$DIMAPOST
  1

  9
$DIMALT
 70
     0
  9
$DIMALTD
 70
     2
  9
$DIMALTF
 40
0.039
  9
$DIMLFAC
 40
1.0
  9
$DIMTOFL
 70
     1
  9
$DIMTVP
 40
0.0
  9
$DIMTIX
 70
     0
  9
$DIMSOXD
 70
     0
  9
$DIMSAH
 70
     1
  9
$DIMBLK1
  1
DOT
  9
$DIMBLK2
  1
OPEN
  9
$DIMSTYLE
  2
IGA
  9
$DIMCLRD
 70
     0
  9
$DIMCLRE
 70
     0
  9
$DIMCLRT
 70
     0
  9
$DIMTFAC
 40
10.0
  9
$DIMGAP
 40
1.0
  9
$LUNITS
 70
     2
  9
$LUPREC
 70
     3
  9
$SKETCHINC
 40
0.1
  9
$FILLETRAD
 40
0.0
  9
$AUNITS
 70
     0
  9
$AUPREC
 70
     0
  9
$MENU
  1
acad
  9
$ELEVATION
 40
0.0
  9
$PELEVATION
 40
0.0
  9
$THICKNESS
 40
0.0
  9
$LIMCHECK
 70
     0
  9
$BLIPMODE
 70
     0
  9
$CHAMFERA
 40
0.5
  9
$CHAMFERB
 40
0.5
  9
$SKPOLY
 70
     0
  9
$TDCREATE
 40
2450744.3757348382
  9
$TDUPDATE
 40
2454953.773864653
  9
$TDINDWG
 40
0.0148557176
  9
$TDUSRTIMER
 40
0.0148557176
  9
$USRTIMER
 70
     1
  9
$ANGBASE
 50
0.0
  9
$ANGDIR
 70
     0
  9
$PDMODE
 70
     0
  9
$PDSIZE
 40
0.0
  9
$PLINEWID
 40
0.0
  9
$COORDS
 70
     1
  9
$SPLFRAME
 70
     0
  9
$SPLINETYPE
 70
     6
  9
$SPLINESEGS
 70
     8
  9
$ATTDIA
 70
     0
  9
$ATTREQ
 70
     1
  9
$HANDLING
 70
 10241
  9
$HANDSEED
  5
7E6F
  9
$SURFTAB1
 70
     6
  9
$SURFTAB2
 70
     6
  9
$SURFTYPE
 70
     6
  9
$SURFU
 70
     6
  9
$SURFV
 70
     6
  9
$UCSNAME
  2

  9
$UCSORG
 10
0.0
 20
0.0
 30
0.0
  9
$UCSXDIR
 10
1.0
 20
0.0
 30
0.0
  9
$UCSYDIR
 10
0.0
 20
1.0
 30
0.0
  9
$PUCSNAME
  2

  9
$PUCSORG
 10
0.0
 20
0.0
 30
0.0
  9
$PUCSXDIR
 10
1.0
 20
0.0
 30
0.0
  9
$PUCSYDIR
 10
0.0
 20
1.0
 30
0.0
  9
$USERI1
 70
     0
  9
$USERI2
 70
     0
  9
$USERI3
 70
     0
  9
$USERI4
 70
     0
  9
$USERI5
 70
     0
  9
$USERR1
 40
0.0
  9
$USERR2
 40
0.0
  9
$USERR3
 40
0.0
  9
$USERR4
 40
0.0
  9
$USERR5
 40
0.0
  9
$WORLDVIEW
 70
     1
  9
$SHADEDGE
 70
     3
  9
$SHADEDIF
 70
    70
  9
$TILEMODE
 70
     1
  9
$MAXACTVP
 70
    16
  9
$PLIMCHECK
 70
     0
  9
$PEXTMIN
 10
1.0000000000000000E+020
 20
1.0000000000000000E+020
 30
1.0000000000000000E+020
  9
$PEXTMAX
 10
-1.0000000000000000E+020
 20
-1.0000000000000000E+020
 30
-1.0000000000000000E+020
  9
$PLIMMIN
 10
0.0
 20
0.0
  9
$PLIMMAX
 10
12.0
 20
9.0
  9
$UNITMODE
 70
     0
  9
$VISRETAIN
 70
     0
  9
$PLINEGEN
 70
     0
  9
$PSLTSCALE
 70
     1
  0
ENDSEC
  0
SECTION
  2
TABLES
  0
TABLE
  2
VPORT
 70
     2
  0
VPORT
  2
*ACTIVE
 70
     0
 10
0.0
 20
0.0
 11
1.0
 21
1.0
 12
9437.9954746499006
 22
4629.9199394653269
 13
0.0
 23
0.0
 14
10.0
 24
10.0
 15
10.0
 25
10.0
 16
0.0
 26
0.0
 36
1.0
 17
0.0
 27
0.0
 37
0.0
 40
7517.061441529765
 41
3.1666666666666661
 42
50.0
 43
0.0
 44
0.0
 50
0.0
 51
0.0
 71
     0
 72
   100
 73
     1
 74
     0
 75
     0
 76
     0
 77
     0
 78
     0
  0
ENDTAB
  0
TABLE
  2
LTYPE
 70
     2
  0
LTYPE
  2
CONTINUOUS
 70
     0
  3
Solid line
 72
    65
 73
     0
 40
0.0
  0
LTYPE
  2
CENTER
 70
     0
  3
____ _ ____ _ ____ _ ____ _ ____ _ ____ _ ____ 
 72
    65
 73
     4
 40
2.0
 49
1.25
 49
-0.25
 49
0.25
 49
-0.25
  0
ENDTAB
  0
TABLE
  2
LAYER
 70
     6
  0
LAYER
  2
0
 70
     0
 62
     7
  6
CONTINUOUS
  0
LAYER
  2
3
 70
     0
 62
     2
  6
CONTINUOUS
  0
LAYER
  2
2
 70
     0
 62
     3
  6
CENTER
  0
LAYER
  2
1
 70
     0
 62
     4
  6
CONTINUOUS
  0
LAYER
  2
4
 70
     0
 62
     7
  6
CONTINUOUS
  0
LAYER
  2
DEFPOINTS
 70
     0
 62
     7
  6
CONTINUOUS
  0
ENDTAB
  0
TABLE
  2
STYLE
 70
     1
  0
STYLE
  2
STANDARD
 70
     0
 40
0.0
 41
1.0
 50
0.0
 71
     0
 42
180.0
  3
simplex.shx
  4
extfont.shx
  0
ENDTAB
  0
TABLE
  2
VIEW
 70
     0
  0
ENDTAB
  0
TABLE
  2
UCS
 70
     0
  0
ENDTAB
  0
TABLE
  2
APPID
 70
     1
  0
APPID
  2
ACAD
 70
     0
  0
ENDTAB
  0
TABLE
  2
DIMSTYLE
 70
     1
  0
DIMSTYLE
  2
IGA
 70
     0
  3

  4

  5

  6
OPEN
  7
OPEN
 40
2.0
 41
2.0
 42
0.5
 43
10.0
 44
1.0
 45
0.0
 46
0.0
 47
1.0
 48
1.0
140
3.0
141
0.0
142
0.0
143
0.03937
144
1.0
145
0.0
146
10.0
147
1.0
 71
     0
 72
     0
 73
     0
 74
     0
 75
     0
 76
     0
 77
     1
 78
     8
170
     0
171
     2
172
     0
173
     1
174
     0
175
     0
176
     0
177
     0
178
     0
  0
ENDTAB
  0
ENDSEC
  0
SECTION
  2
BLOCKS
  0
BLOCK
  8
0
  2
$MODEL_SPACE
 70
     0
 10
0.0
 20
0.0
 30
0.0
  3
$MODEL_SPACE
  1

  0
ENDBLK
  5
1B
  8
0
  0
BLOCK
 67
     1
  8
0
  2
$PAPER_SPACE
 70
     0
 10
0.0
 20
0.0
 30
0.0
  3
$PAPER_SPACE
  1

  0
ENDBLK
  5
18
 67
     1
  8
0
  0
BLOCK
  8
0
  2
_OPEN
 70
     0
 10
0.0
 20
0.0
 30
0.0
  3
_OPEN
  1

  0
LINE
  5
7AD7
  8
0
  6
BYBLOCK
 62
     0
 10
-1.0
 20
0.166667
 30
0.0
 11
0.0
 21
0.0
 31
0.0
  0
LINE
  5
7AD8
  8
0
  6
BYBLOCK
 62
     0
 10
0.0
 20
0.0
 30
0.0
 11
-1.0
 21
-0.166667
 31
0.0
  0
LINE
  5
7AD9
  8
0
  6
BYBLOCK
 62
     0
 10
0.0
 20
0.0
 30
0.0
 11
-1.0
 21
0.0
 31
0.0
  0
ENDBLK
  5
7ADA
  8
0
  0
BLOCK
  8
0
  2
*D1
 70
     1
 10
0.0
 20
0.0
 30
0.0
  3
*D1
  1

  0
LINE
  5
7DCC
  8
3
  6
CONTINUOUS
 62
     0
 10
2642.8672759999999
 20
3622.2363660000001
 30
0.0
 11
2859.2219329999998
 21
3622.2363660000001
 31
0.0
  0
LINE
  5
7DCD
  8
3
  6
CONTINUOUS
 62
     0
 10
2642.8672759999999
 20
2892.2363660000001
 30
0.0
 11
2859.2219329999998
 21
2892.2363660000001
 31
0.0
  0
LINE
  5
7DCE
  8
3
  6
CONTINUOUS
 62
     0
 10
2829.2219330000012
 20
3562.2363660000001
 30
0.0
 11
2829.2219329999998
 21
2952.2363660000001
 31
0.0
  0
INSERT
  5
7DCF
  8
3
  6
CONTINUOUS
 62
     0
  2
_OPEN
 10
2829.2219330000012
 20
3622.2363660000001
 30
0.0
 41
60.0
 42
60.0
 43
60.0
 50
90.0
  0
INSERT
  5
7DD0
  8
3
  6
CONTINUOUS
 62
     0
  2
_OPEN
 10
2829.2219329999998
 20
2892.2363660000001
 30
0.0
 41
60.0
 42
60.0
 43
60.0
 50
270.0
  0
TEXT
  8
3
  40
90
  5
7E5E
  62
0
  72
0
  71
0
 10
2574.22
 20
3100.07
 30
0.000000
  1
730
  0
POINT
  5
7DD2
  8
DEFPOINTS
  6
CONTINUOUS
 62
     0
 10
2627.867275999999
 20
3622.2363660000001
 30
0.0
  0
POINT
  5
7DD3
  8
DEFPOINTS
  6
CONTINUOUS
 62
     0
 10
2627.867275999999
 20
2892.2363660000001
 30
0.0
  0
POINT
  5
7DD4
  8
DEFPOINTS
  6
CONTINUOUS
 62
     0
 10
2829.2219329999998
 20
2892.2363660000001
 30
0.0
  0
ENDBLK
  5
7AE7
  8
0
  0
BLOCK
  8
0
  2
*D2
 70
     1
 10
0.0
 20
0.0
 30
0.0
  3
*D2
  1

  0
LINE
  5
7DD5
  8
3
  6
CONTINUOUS
 62
     0
 10
2787.6392740000001
 20
3588.2363659999992
 30
0.0
 11
3046.2645570000009
 21
3588.2363659999992
 31
0.0
  0
LINE
  5
7DD6
  8
3
  6
CONTINUOUS
 62
     0
 10
2642.8672759999999
 20
2892.2363660000001
 30
0.0
 11
3046.264557
 21
2892.2363660000001
 31
0.0
  0
LINE
  5
7DD7
  8
3
  6
CONTINUOUS
 62
     0
 10
3016.2645570000009
 20
3528.2363659999992
 30
0.0
 11
3016.264557
 21
2952.2363660000001
 31
0.0
  0
INSERT
  5
7DD8
  8
3
  6
CONTINUOUS
 62
     0
  2
_OPEN
 10
3016.2645570000009
 20
3588.2363659999992
 30
0.0
 41
60.0
 42
60.0
 43
60.0
 50
90.0
  0
INSERT
  5
7DD9
  8
3
  6
CONTINUOUS
 62
     0
  2
_OPEN
 10
3016.264557
 20
2892.2363660000001
 30
0.0
 41
60.0
 42
60.0
 43
60.0
 50
270.0
  0
TEXT
  8
3
  40
90
  5
7E5F
  62
0
  72
0
  71
0
 10
2761.26
 20
3100.07
 30
0.000000
  1
696
  0
POINT
  5
7DDB
  8
DEFPOINTS
  6
CONTINUOUS
 62
     0
 10
2772.6392739999992
 20
3588.2363659999992
 30
0.0
  0
POINT
  5
7DDC
  8
DEFPOINTS
  6
CONTINUOUS
 62
     0
 10
2627.867275999999
 20
2892.2363660000001
 30
0.0
  0
POINT
  5
7DDD
  8
DEFPOINTS
  6
CONTINUOUS
 62
     0
 10
3016.264557
 20
2892.2363660000001
 30
0.0
  0
ENDBLK
  5
7AF4
  8
0
  0
BLOCK
  8
0
  2
*D3
 70
     1
 10
0.0
 20
0.0
 30
0.0
  3
*D3
  1

  0
LINE
  5
7DDE
  8
3
  6
CONTINUOUS
 62
     0
 10
2577.8672759999999
 20
2698.2363660000001
 30
0.0
 11
3227.273545
 21
2698.2363659999992
 31
0.0
  0
LINE
  5
7DDF
  8
3
  6
CONTINUOUS
 62
     0
 10
3197.273545
 20
3528.2363659999992
 30
0.0
 11
3197.273545
 21
2758.2363660000001
 31
0.0
  0
INSERT
  5
7DE0
  8
3
  6
CONTINUOUS
 62
     0
  2
_OPEN
 10
3197.273545
 20
3588.2363659999992
 30
0.0
 41
60.0
 42
60.0
 43
60.0
 50
90.0
  0
INSERT
  5
7DE1
  8
3
  6
CONTINUOUS
 62
     0
  2
_OPEN
 10
3197.273545
 20
2698.2363659999992
 30
0.0
 41
60.0
 42
60.0
 43
60.0
 50
270.0
  0
TEXT
  8
3
  40
90
  5
7E60
  62
0
  72
0
  71
0
 10
2942.27
 20
2983.94
 30
0.000000
  1
890
  0
POINT
  5
7DE3
  8
DEFPOINTS
  6
CONTINUOUS
 62
     0
 10
2772.6392739999992
 20
3588.2363659999992
 30
0.0
  0
POINT
  5
7DE4
  8
DEFPOINTS
  6
CONTINUOUS
 62
     0
 10
2562.8672759999999
 20
2698.2363660000001
 30
0.0
  0
POINT
  5
7DE5
  8
DEFPOINTS
  6
CONTINUOUS
 62
     0
 10
3197.273545
 20
2698.2363659999992
 30
0.0
  0
ENDBLK
  5
7B0D
  8
0
  0
BLOCK
  8
0
  2
*D4
 70
     1
 10
0.0
 20
0.0
 30
0.0
  3
*D4
  1

  0
LINE
  5
7DE6
  8
3
  6
CONTINUOUS
 62
     0
 10
2627.867275999999
 20
3677.2363659999992
 30
0.0
 11
2627.867275999999
 21
4290.2235419999988
 31
0.0
  0
LINE
  5
7DE7
  8
3
  6
CONTINUOUS
 62
     0
 10
2092.8672759999999
 20
4257.918361
 30
0.0
 11
2092.8672759999999
 21
4290.2235419999988
 31
0.0
  0
LINE
  5
7DE8
  8
3
  6
CONTINUOUS
 62
     0
 10
2567.8672759999999
 20
4260.2235419999997
 30
0.0
 11
2152.867275999999
 21
4260.2235419999997
 31
0.0
  0
INSERT
  5
7DE9
  8
3
  6
CONTINUOUS
 62
     0
  2
_OPEN
 10
2627.867275999999
 20
4260.2235419999997
 30
0.0
 41
60.0
 42
60.0
 43
60.0
  0
INSERT
  5
7DEA
  8
3
  6
CONTINUOUS
 62
     0
  2
_OPEN
 10
2092.8672759999999
 20
4260.2235419999997
 30
0.0
 41
60.0
 42
60.0
 43
60.0
 50
180.0
  0
TEXT
  8
3
  40
90
  5
7E61
  62
0
  72
0
  71
0
 10
2185.49
 20
4175.92
 30
0.000000
  1
535
  0
POINT
  5
7DEC
  8
DEFPOINTS
  6
CONTINUOUS
 62
     0
 10
2627.867275999999
 20
3662.2363660000001
 30
0.0
  0
POINT
  5
7DED
  8
DEFPOINTS
  6
CONTINUOUS
 62
     0
 10
2092.8672759999999
 20
4242.918361
 30
0.0
  0
POINT
  5
7DEE
  8
DEFPOINTS
  6
CONTINUOUS
 62
     0
 10
2092.8672759999999
 20
4260.2235419999997
 30
0.0
  0
ENDBLK
  5
7B50
  8
0
  0
BLOCK
  8
0
  2
*D5
 70
     1
 10
0.0
 20
0.0
 30
0.0
  3
*D5
  1

  0
LINE
  5
7DEF
  8
3
  6
CONTINUOUS
 62
     0
 10
5014.1052869999994
 20
4034.2363660000001
 30
0.0
 11
5014.1052869999994
 21
4151.551496
 31
0.0
  0
LINE
  5
7DF0
  8
3
  6
CONTINUOUS
 62
     0
 10
4484.1052869999994
 20
4034.2363660000001
 30
0.0
 11
4484.1052869999994
 21
4151.551496
 31
0.0
  0
LINE
  5
7DF1
  8
3
  6
CONTINUOUS
 62
     0
 10
4954.1052869999994
 20
4121.551496
 30
0.0
 11
4544.1052869999994
 21
4121.551496
 31
0.0
  0
INSERT
  5
7DF2
  8
3
  6
CONTINUOUS
 62
     0
  2
_OPEN
 10
5014.1052869999994
 20
4121.551496
 30
0.0
 41
60.0
 42
60.0
 43
60.0
  0
INSERT
  5
7DF3
  8
3
  6
CONTINUOUS
 62
     0
  2
_OPEN
 10
4484.1052869999994
 20
4121.551496
 30
0.0
 41
60.0
 42
60.0
 43
60.0
 50
180.0
  0
TEXT
  8
3
  40
90
  5
7E62
  62
0
  72
0
  71
0
 10
4560.92
 20
4037.25
 30
0.000000
  1
530
  0
POINT
  5
7DF5
  8
DEFPOINTS
  6
CONTINUOUS
 62
     0
 10
5014.1052869999994
 20
4019.2363660000001
 30
0.0
  0
POINT
  5
7DF6
  8
DEFPOINTS
  6
CONTINUOUS
 62
     0
 10
4484.1052869999994
 20
4019.2363660000001
 30
0.0
  0
POINT
  5
7DF7
  8
DEFPOINTS
  6
CONTINUOUS
 62
     0
 10
4484.1052869999994
 20
4121.551496
 30
0.0
  0
ENDBLK
  5
7B69
  8
0
  0
BLOCK
  8
0
  2
*D6
 70
     1
 10
0.0
 20
0.0
 30
0.0
  3
*D6
  1

  0
LINE
  5
7CD2
  8
0
  6
BYBLOCK
 62
     0
 10
5016.1052869999994
 20
3980.2363659999992
 30
0.0
 11
5016.1052869999994
 21
4338.4572950000002
 31
0.0
  0
LINE
  5
7CD3
  8
0
  6
BYBLOCK
 62
     0
 10
4749.1052869999994
 20
4284.0613299999986
 30
0.0
 11
4749.1052869999994
 21
4338.4572950000002
 31
0.0
  0
LINE
  5
7CD4
  8
0
  6
BYBLOCK
 62
     0
 10
4956.1052869999994
 20
4308.4572950000002
 30
0.0
 11
4809.1052870000003
 21
4308.4572950000002
 31
0.0
  0
TEXT
  5
7CD5
  8
3
 62
     0
 10
4783.7709379723683
 20
4345.4993115987672
 30
0.0
 40
90.0
  1
267
  0
INSERT
  5
7CD6
  8
0
  6
BYBLOCK
 62
     0
  2
_OPEN
 10
5016.1052869999994
 20
4308.4572950000002
 30
0.0
 41
60.0
 42
60.0
 43
60.0
  0
INSERT
  5
7CD7
  8
0
  6
BYBLOCK
 62
     0
  2
_OPEN
 10
4749.1052869999994
 20
4308.4572950000002
 30
0.0
 41
60.0
 42
60.0
 43
60.0
 50
180.0
  0
POINT
  5
7CD8
  8
DEFPOINTS
  6
BYBLOCK
 62
     0
 10
5016.1052869999994
 20
3965.2363660000001
 30
0.0
  0
POINT
  5
7CD9
  8
DEFPOINTS
  6
BYBLOCK
 62
     0
 10
4749.1052869999994
 20
4269.0613299999986
 30
0.0
  0
POINT
  5
7CDA
  8
DEFPOINTS
  6
BYBLOCK
 62
     0
 10
4749.1052869999994
 20
4308.4572950000002
 30
0.0
  0
ENDBLK
  5
7CDB
  8
0
  0
BLOCK
  8
0
  2
*D7
 70
     1
 10
0.0
 20
0.0
 30
0.0
  3
*D7
  1

  0
LINE
  5
7DF8
  8
3
  6
CONTINUOUS
 62
     0
 10
4249.1052869999994
 20
3953.2363659999992
 30
0.0
 11
4249.1052869999994
 21
4338.4572950000002
 31
0.0
  0
LINE
  5
7DF9
  8
3
  6
CONTINUOUS
 62
     0
 10
4689.1052869999994
 20
4308.4572950000002
 30
0.0
 11
4309.1052869999994
 21
4308.4572950000002
 31
0.0
  0
INSERT
  5
7DFA
  8
3
  6
CONTINUOUS
 62
     0
  2
_OPEN
 10
4749.1052869999994
 20
4308.4572950000002
 30
0.0
 41
60.0
 42
60.0
 43
60.0
  0
INSERT
  5
7DFB
  8
3
  6
CONTINUOUS
 62
     0
  2
_OPEN
 10
4249.1052869999994
 20
4308.4572950000002
 30
0.0
 41
60.0
 42
60.0
 43
60.0
 50
180.0
  0
TEXT
  8
3
  40
90
  5
7E63
  62
0
  72
0
  71
0
 10
4319.11
 20
4299.16
 30
0.000000
  1
MAX
  0
TEXT
  8
3
  40
90
  5
7E64
  62
0
  72
0
  71
0
 10
4319.11
 20
4182.16
 30
0.000000
  1
560
  0
POINT
  5
7DFD
  8
DEFPOINTS
  6
CONTINUOUS
 62
     0
 10
4749.1052869999994
 20
4269.0613299999986
 30
0.0
  0
POINT
  5
7DFE
  8
DEFPOINTS
  6
CONTINUOUS
 62
     0
 10
4249.1052869999994
 20
3938.2363659999992
 30
0.0
  0
POINT
  5
7DFF
  8
DEFPOINTS
  6
CONTINUOUS
 62
     0
 10
4249.1052869999994
 20
4308.4572950000002
 30
0.0
  0
ENDBLK
  5
7CE5
  8
0
  0
BLOCK
  8
0
  2
*D8
 70
     1
 10
0.0
 20
0.0
 30
0.0
  3
*D8
  1

  0
LINE
  5
7E00
  8
3
  6
CONTINUOUS
 62
     0
 10
5031.1052869999994
 20
3965.2363660000001
 30
0.0
 11
5289.8092760000009
 21
3965.2363659999992
 31
0.0
  0
LINE
  5
7E01
  8
3
  6
CONTINUOUS
 62
     0
 10
5031.1052869999994
 20
3211.2363660000001
 30
0.0
 11
5289.8092760000009
 21
3211.2363660000001
 31
0.0
  0
LINE
  5
7E02
  8
3
  6
CONTINUOUS
 62
     0
 10
5259.8092760000009
 20
3905.2363659999992
 30
0.0
 11
5259.8092760000009
 21
3271.2363659999992
 31
0.0
  0
INSERT
  5
7E03
  8
3
  6
CONTINUOUS
 62
     0
  2
_OPEN
 10
5259.8092760000009
 20
3965.2363659999992
 30
0.0
 41
60.0
 42
60.0
 43
60.0
 50
90.0
  0
INSERT
  5
7E04
  8
3
  6
CONTINUOUS
 62
     0
  2
_OPEN
 10
5259.8092760000009
 20
3211.2363660000001
 30
0.0
 41
60.0
 42
60.0
 43
60.0
 50
270.0
  0
TEXT
  8
3
  40
90
  5
7E65
  62
0
  72
0
  71
0
 10
5004.81
 20
3437.71
 30
0.000000
  1
φ754
  0
POINT
  5
7E06
  8
DEFPOINTS
  6
CONTINUOUS
 62
     0
 10
5016.1052869999994
 20
3965.2363660000001
 30
0.0
  0
POINT
  5
7E07
  8
DEFPOINTS
  6
CONTINUOUS
 62
     0
 10
5016.1052869999994
 20
3211.2363660000001
 30
0.0
  0
POINT
  5
7E08
  8
DEFPOINTS
  6
CONTINUOUS
 62
     0
 10
5259.8092760000009
 20
3211.2363660000001
 30
0.0
  0
ENDBLK
  5
7CC5
  8
0
  0
BLOCK
  8
0
  2
*D9
 70
     1
 10
0.0
 20
0.0
 30
0.0
  3
*D9
  1

  0
LINE
  5
7E09
  8
3
  6
CONTINUOUS
 62
     0
 10
1062.867275999999
 20
6032.1787130000002
 30
0.0
 11
1062.867275999999
 21
6273.340991
 31
0.0
  0
LINE
  5
7E0A
  8
3
  6
CONTINUOUS
 62
     0
 10
2562.8672759999999
 20
6032.1787130000002
 30
0.0
 11
2562.8672759999999
 21
6273.340991
 31
0.0
  0
LINE
  5
7E0B
  8
3
  6
CONTINUOUS
 62
     0
 10
1122.8672759999999
 20
6243.340991
 30
0.0
 11
2502.867275999999
 21
6243.340991
 31
0.0
  0
INSERT
  5
7E0C
  8
3
  6
CONTINUOUS
 62
     0
  2
_OPEN
 10
1062.867275999999
 20
6243.340991
 30
0.0
 41
60.0
 42
60.0
 43
60.0
 50
180.0
  0
INSERT
  5
7E0D
  8
3
  6
CONTINUOUS
 62
     0
  2
_OPEN
 10
2562.8672759999999
 20
6243.340991
 30
0.0
 41
60.0
 42
60.0
 43
60.0
  0
TEXT
  8
3
  40
90
  5
7E66
  62
0
  72
0
  71
0
 10
1545.92
 20
6159.04
 30
0.000000
  1
1500
  0
POINT
  5
7E0F
  8
DEFPOINTS
  6
CONTINUOUS
 62
     0
 10
1062.867275999999
 20
6017.1787130000002
 30
0.0
  0
POINT
  5
7E10
  8
DEFPOINTS
  6
CONTINUOUS
 62
     0
 10
2562.8672759999999
 20
6017.1787130000002
 30
0.0
  0
POINT
  5
7E11
  8
DEFPOINTS
  6
CONTINUOUS
 62
     0
 10
2562.8672759999999
 20
6243.340991
 30
0.0
  0
ENDBLK
  5
7C7E
  8
0
  0
BLOCK
  8
0
  2
*D10
 70
     1
 10
0.0
 20
0.0
 30
0.0
  3
*D10
  1

  0
LINE
  5
7E12
  8
3
  6
CONTINUOUS
 62
     0
 10
2577.8672759999999
 20
6017.1787130000002
 30
0.0
 11
2884.2129640000012
 21
6017.1787130000002
 31
0.0
  0
LINE
  5
7E13
  8
3
  6
CONTINUOUS
 62
     0
 10
2577.8672759999999
 20
5257.1787130000002
 30
0.0
 11
2884.2129640000012
 21
5257.1787130000002
 31
0.0
  0
LINE
  5
7E14
  8
3
  6
CONTINUOUS
 62
     0
 10
2854.2129640000012
 20
5957.1787130000012
 30
0.0
 11
2854.2129640000012
 21
5317.1787130000002
 31
0.0
  0
INSERT
  5
7E15
  8
3
  6
CONTINUOUS
 62
     0
  2
_OPEN
 10
2854.2129640000012
 20
6017.1787130000002
 30
0.0
 41
60.0
 42
60.0
 43
60.0
 50
90.0
  0
INSERT
  5
7E16
  8
3
  6
CONTINUOUS
 62
     0
  2
_OPEN
 10
2854.2129640000012
 20
5257.1787130000002
 30
0.0
 41
60.0
 42
60.0
 43
60.0
 50
270.0
  0
TEXT
  8
3
  40
90
  5
7E67
  62
0
  72
0
  71
0
 10
2599.21
 20
5492.03
 30
0.000000
  1
760
  0
POINT
  5
7E18
  8
DEFPOINTS
  6
CONTINUOUS
 62
     0
 10
2562.8672759999999
 20
6017.1787130000002
 30
0.0
  0
POINT
  5
7E19
  8
DEFPOINTS
  6
CONTINUOUS
 62
     0
 10
2562.8672759999999
 20
5257.1787130000002
 30
0.0
  0
POINT
  5
7E1A
  8
DEFPOINTS
  6
CONTINUOUS
 62
     0
 10
2854.2129640000012
 20
5257.1787130000002
 30
0.0
  0
ENDBLK
  5
7BE3
  8
0
  0
BLOCK
  8
0
  2
*D11
 70
     1
 10
0.0
 20
0.0
 30
0.0
  3
*D11
  1

  0
LINE
  5
7E1B
  8
3
  6
CONTINUOUS
 62
     0
 10
2787.6392740000001
 20
3588.2363659999992
 30
0.0
 11
3227.273545
 21
3588.2363659999992
 31
0.0
  0
LINE
  5
7E1C
  8
3
  6
CONTINUOUS
 62
     0
 10
2107.867275999999
 20
4096.2177705285267
 30
0.0
 11
3227.273545
 21
4096.2177705285267
 31
0.0
  0
LINE
  5
7E1D
  8
3
  6
CONTINUOUS
 62
     0
 10
3197.273545
 20
3648.2363659999992
 30
0.0
 11
3197.273545
 21
4036.2177705285262
 31
0.0
  0
INSERT
  5
7E1E
  8
3
  6
CONTINUOUS
 62
     0
  2
_OPEN
 10
3197.273545
 20
3588.2363659999992
 30
0.0
 41
60.0
 42
60.0
 43
60.0
 50
270.0
  0
INSERT
  5
7E1F
  8
3
  6
CONTINUOUS
 62
     0
  2
_OPEN
 10
3197.273545
 20
4096.2177705285267
 30
0.0
 41
60.0
 42
60.0
 43
60.0
 50
90.0
  0
TEXT
  8
3
  40
90
  5
7E68
  62
0
  72
0
  71
0
 10
2942.27
 20
3682.93
 30
0.000000
  1
508
  0
POINT
  5
7E21
  8
DEFPOINTS
  6
CONTINUOUS
 62
     0
 10
2772.6392739999992
 20
3588.2363659999992
 30
0.0
  0
POINT
  5
7E22
  8
DEFPOINTS
  6
CONTINUOUS
 62
     0
 10
2092.8672759999999
 20
4096.2177705285267
 30
0.0
  0
POINT
  5
7E23
  8
DEFPOINTS
  6
CONTINUOUS
 62
     0
 10
3197.273545
 20
4096.2177705285267
 30
0.0
  0
ENDBLK
  5
7D27
  8
0
  0
BLOCK
  8
0
  2
*D12
 70
     1
 10
0.0
 20
0.0
 30
0.0
  3
*D12
  1

  0
LINE
  5
7E24
  8
3
  6
CONTINUOUS
 62
     0
 10
1506.8697500000001
 20
3603.2363659999992
 30
0.0
 11
1506.8697500000001
 21
4290.2235419999988
 31
0.0
  0
LINE
  5
7E25
  8
3
  6
CONTINUOUS
 62
     0
 10
2032.8672759999999
 20
4260.2235419999997
 30
0.0
 11
1566.8697500000001
 21
4260.2235419999997
 31
0.0
  0
INSERT
  5
7E26
  8
3
  6
CONTINUOUS
 62
     0
  2
_OPEN
 10
2092.8672759999999
 20
4260.2235419999997
 30
0.0
 41
60.0
 42
60.0
 43
60.0
  0
INSERT
  5
7E27
  8
3
  6
CONTINUOUS
 62
     0
  2
_OPEN
 10
1506.8697500000001
 20
4260.2235419999997
 30
0.0
 41
60.0
 42
60.0
 43
60.0
 50
180.0
  0
TEXT
  8
3
  40
90
  5
7E69
  62
0
  72
0
  71
0
 10
1619.87
 20
4175.92
 30
0.000000
  1
586
  0
POINT
  5
7E29
  8
DEFPOINTS
  6
CONTINUOUS
 62
     0
 10
2092.8672759999999
 20
4242.918361
 30
0.0
  0
POINT
  5
7E2A
  8
DEFPOINTS
  6
CONTINUOUS
 62
     0
 10
1506.8697500000001
 20
3588.2363659999992
 30
0.0
  0
POINT
  5
7E2B
  8
DEFPOINTS
  6
CONTINUOUS
 62
     0
 10
1506.8697500000001
 20
4260.2235419999997
 30
0.0
  0
ENDBLK
  5
7C72
  8
0
  0
BLOCK
  8
0
  2
*D13
 70
     1
 10
0.0
 20
0.0
 30
0.0
  3
*D13
  1

  0
LINE
  5
7E2C
  8
3
 62
     0
 10
1062.867275999999
 20
2488.2363660000001
 30
0.0
 11
1062.867275999999
 21
2274.1457782171669
 31
0.0
  0
LINE
  5
7E2D
  8
3
 62
     0
 10
2092.8672759999999
 20
2488.2363660000001
 30
0.0
 11
2092.8672759999999
 21
2274.1457782171669
 31
0.0
  0
LINE
  5
7E2E
  8
3
 62
     0
 10
1122.8672759999999
 20
2304.1457782171669
 30
0.0
 11
2032.8672759999999
 21
2304.1457782171669
 31
0.0
  0
INSERT
  5
7E2F
  8
3
 62
     0
  2
_OPEN
 10
1062.867275999999
 20
2304.1457782171669
 30
0.0
 41
60.0
 42
60.0
 43
60.0
 50
180.0
  0
INSERT
  5
7E30
  8
3
 62
     0
  2
_OPEN
 10
2092.8672759999999
 20
2304.1457782171669
 30
0.0
 41
60.0
 42
60.0
 43
60.0
  0
TEXT
  8
3
  40
90
  5
7E6A
  62
0
  72
0
  71
0
 10
1397.87
 20
2219.85
 30
0.000000
  1
1030
  0
POINT
  5
7E32
  8
DEFPOINTS
 62
     0
 10
1062.867275999999
 20
2503.2363660000001
 30
0.0
  0
POINT
  5
7E33
  8
DEFPOINTS
 62
     0
 10
2092.8672759999999
 20
2503.2363660000001
 30
0.0
  0
POINT
  5
7E34
  8
DEFPOINTS
 62
     0
 10
2092.8672759999999
 20
2304.1457782171669
 30
0.0
  0
ENDBLK
  5
7D46
  8
0
  0
BLOCK
  8
0
  2
*D14
 70
     1
 10
0.0
 20
0.0
 30
0.0
  3
*D14
  1

  0
LINE
  5
7E35
  8
3
 62
     0
 10
2092.8672759999999
 20
2488.2363660000001
 30
0.0
 11
2092.8672759999999
 21
2274.1457782171669
 31
0.0
  0
LINE
  5
7E36
  8
3
 62
     0
 10
2562.8672759999999
 20
2488.2363660000001
 30
0.0
 11
2562.8672759999999
 21
2274.1457782171669
 31
0.0
  0
LINE
  5
7E37
  8
3
 62
     0
 10
2152.867275999999
 20
2304.1457782171669
 30
0.0
 11
2502.867275999999
 21
2304.1457782171669
 31
0.0
  0
INSERT
  5
7E38
  8
3
 62
     0
  2
_OPEN
 10
2092.8672759999999
 20
2304.1457782171669
 30
0.0
 41
60.0
 42
60.0
 43
60.0
 50
180.0
  0
INSERT
  5
7E39
  8
3
 62
     0
  2
_OPEN
 10
2562.8672759999999
 20
2304.1457782171669
 30
0.0
 41
60.0
 42
60.0
 43
60.0
  0
TEXT
  8
3
  40
90
  5
7E6B
  62
0
  72
0
  71
0
 10
2147.87
 20
2219.85
 30
0.000000
  1
470
  0
POINT
  5
7E3B
  8
DEFPOINTS
 62
     0
 10
2092.8672759999999
 20
2503.2363660000001
 30
0.0
  0
POINT
  5
7E3C
  8
DEFPOINTS
 62
     0
 10
2562.8672759999999
 20
2503.2363660000001
 30
0.0
  0
POINT
  5
7E3D
  8
DEFPOINTS
 62
     0
 10
2562.8672759999999
 20
2304.1457782171669
 30
0.0
  0
ENDBLK
  5
7D53
  8
0
  0
BLOCK
  8
0
  2
*D15
 70
     1
 10
0.0
 20
0.0
 30
0.0
  3
*D15
  1

  0
LINE
  5
7E3E
  8
3
 62
     0
 10
4306.1052870000003
 20
2488.2363660000001
 30
0.0
 11
4306.1052870000003
 21
2274.1457782171669
 31
0.0
  0
LINE
  5
7E3F
  8
3
 62
     0
 10
4749.1052869999994
 20
2488.2363660000001
 30
0.0
 11
4749.1052869999994
 21
2274.1457782171669
 31
0.0
  0
LINE
  5
7E40
  8
3
 62
     0
 10
4366.1052869999994
 20
2304.1457782171669
 30
0.0
 11
4689.1052869999994
 21
2304.1457782171669
 31
0.0
  0
INSERT
  5
7E41
  8
3
 62
     0
  2
_OPEN
 10
4306.1052870000003
 20
2304.1457782171669
 30
0.0
 41
60.0
 42
60.0
 43
60.0
 50
180.0
  0
INSERT
  5
7E42
  8
3
 62
     0
  2
_OPEN
 10
4749.1052869999994
 20
2304.1457782171669
 30
0.0
 41
60.0
 42
60.0
 43
60.0
  0
TEXT
  8
3
  40
90
  5
7E6C
  62
0
  72
0
  71
0
 10
4347.61
 20
2219.85
 30
0.000000
  1
443
  0
POINT
  5
7E44
  8
DEFPOINTS
 62
     0
 10
4306.1052870000003
 20
2503.2363660000001
 30
0.0
  0
POINT
  5
7E45
  8
DEFPOINTS
 62
     0
 10
4749.1052869999994
 20
2503.2363660000001
 30
0.0
  0
POINT
  5
7E46
  8
DEFPOINTS
 62
     0
 10
4749.1052869999994
 20
2304.1457782171669
 30
0.0
  0
ENDBLK
  5
7D60
  8
0
  0
BLOCK
  8
0
  2
*D16
 70
     1
 10
0.0
 20
0.0
 30
0.0
  3
*D16
  1

  0
LINE
  5
7E47
  8
3
 62
     0
 10
4749.1052869999994
 20
2488.2363660000001
 30
0.0
 11
4749.1052869999994
 21
2274.1457782171669
 31
0.0
  0
LINE
  5
7E48
  8
3
 62
     0
 10
5066.1052869999994
 20
2488.2363660000001
 30
0.0
 11
5066.1052869999994
 21
2274.1457782171669
 31
0.0
  0
LINE
  5
7E49
  8
3
 62
     0
 10
4809.1052870000003
 20
2304.1457782171669
 30
0.0
 11
5006.1052870000003
 21
2304.1457782171669
 31
0.0
  0
INSERT
  5
7E4A
  8
3
 62
     0
  2
_OPEN
 10
4749.1052869999994
 20
2304.1457782171669
 30
0.0
 41
60.0
 42
60.0
 43
60.0
 50
180.0
  0
INSERT
  5
7E4B
  8
3
 62
     0
  2
_OPEN
 10
5066.1052869999994
 20
2304.1457782171669
 30
0.0
 41
60.0
 42
60.0
 43
60.0
  0
TEXT
  8
3
  40
90
  5
7E6D
  62
0
  72
0
  71
0
 10
4727.61
 20
2219.85
 30
0.000000
  1
317
  0
POINT
  5
7E4D
  8
DEFPOINTS
 62
     0
 10
4749.1052869999994
 20
2503.2363660000001
 30
0.0
  0
POINT
  5
7E4E
  8
DEFPOINTS
 62
     0
 10
5066.1052869999994
 20
2503.2363660000001
 30
0.0
  0
POINT
  5
7E4F
  8
DEFPOINTS
 62
     0
 10
5066.1052869999994
 20
2304.1457782171669
 30
0.0
  0
ENDBLK
  5
7D6F
  8
0
  0
BLOCK
  8
0
  2
_DOT
 70
     0
 10
0.0
 20
0.0
 30
0.0
  3
_DOT
  1

  0
POLYLINE
  5
7D73
  8
0
  6
BYBLOCK
 62
     0
 66
     1
 10
0.0
 20
0.0
 30
0.0
 70
     1
 40
0.5
 41
0.5
  0
VERTEX
  5
7E50
  8
0
  6
BYBLOCK
 62
     0
 10
-0.25
 20
0.0
 30
0.0
 42
1.0
  0
VERTEX
  5
7E51
  8
0
  6
BYBLOCK
 62
     0
 10
0.25
 20
0.0
 30
0.0
 42
1.0
  0
SEQEND
  5
7E52
  8
0
  6
BYBLOCK
 62
     0
  0
LINE
  5
7D77
  8
0
  6
BYBLOCK
 62
     0
 10
-0.5
 20
0.0
 30
0.0
 11
-1.0
 21
0.0
 31
0.0
  0
ENDBLK
  5
7D78
  8
0
  0
BLOCK
  8
0
  2
*D18
 70
     1
 10
0.0
 20
0.0
 30
0.0
  3
*D18
  1

  0
LINE
  5
7E53
  8
3
 62
     0
 10
2577.8672759999999
 20
2603.2363660000001
 30
0.0
 11
3231.1243132773452
 21
2603.2363659999992
 31
0.0
  0
LINE
  5
7E54
  8
3
 62
     0
 10
2577.8672759999999
 20
2503.2363660000001
 30
0.0
 11
3231.1243132773452
 21
2503.2363659999992
 31
0.0
  0
LINE
  5
7E55
  8
3
 62
     0
 10
3201.1243132773452
 20
2663.2363659999992
 30
0.0
 11
3201.1243132773452
 21
2723.2363660000001
 31
0.0
  0
LINE
  5
7E56
  8
3
 62
     0
 10
3201.1243132773452
 20
2443.2363659999992
 30
0.0
 11
3201.1243132773452
 21
2108.950651714285
 31
0.0
  0
LINE
  5
7E57
  8
3
 62
     0
 10
3201.1243132773452
 20
2603.2363659999992
 30
0.0
 11
3201.1243132773452
 21
2503.2363659999992
 31
0.0
  0
INSERT
  5
7E58
  8
3
 62
     0
  2
_DOT
 10
3201.1243132773452
 20
2603.2363659999992
 30
0.0
 41
60.0
 42
60.0
 43
60.0
 50
270.0
  0
INSERT
  5
7E59
  8
3
 62
     0
  2
_OPEN
 10
3201.1243132773452
 20
2503.2363659999992
 30
0.0
 41
60.0
 42
60.0
 43
60.0
 50
90.0
  0
TEXT
  8
3
  40
90
  5
7E6E
  62
0
  72
0
  71
0
 10
2946.12
 20
2086.79
 30
0.000000
  1
100
  0
POINT
  5
7E5B
  8
DEFPOINTS
 62
     0
 10
2562.8672759999999
 20
2603.2363660000001
 30
0.0
  0
POINT
  5
7E5C
  8
DEFPOINTS
 62
     0
 10
2562.8672759999999
 20
2503.2363660000001
 30
0.0
  0
POINT
  5
7E5D
  8
DEFPOINTS
 62
     0
 10
3201.1243132773452
 20
2503.2363659999992
 30
0.0
  0
ENDBLK
  5
7D86
  8
0
  0
BLOCK
  8
0
  2
*D19
 70
     1
 10
0.0
 20
0.0
 30
0.0
  3
*D19
  1

  0
LINE
  5
7D8A
  8
0
  6
BYBLOCK
 62
     0
 10
2577.8672759999999
 20
2603.2363660000001
 30
0.0
 11
3231.1243132773452
 21
2603.2363660000001
 31
0.0
  0
LINE
  5
7D8B
  8
0
  6
BYBLOCK
 62
     0
 10
2577.8672759999999
 20
2698.2363660000001
 30
0.0
 11
3231.1243132773452
 21
2698.2363660000001
 31
0.0
  0
LINE
  5
7D8C
  8
0
  6
BYBLOCK
 62
     0
 10
3201.1243132773452
 20
2543.2363660000001
 30
0.0
 11
3201.1243132773452
 21
2483.2363660000001
 31
0.0
  0
LINE
  5
7D8D
  8
0
  6
BYBLOCK
 62
     0
 10
3201.1243132773452
 20
2758.2363660000001
 30
0.0
 11
3201.1243132773452
 21
2818.2363660000001
 31
0.0
  0
TEXT
  5
7D8E
  8
3
 62
     0
 10
3374.6957418487732
 20
2520.0220802857139
 30
0.0
 40
90.0
  1
(95)
 50
90.0
  0
LINE
  5
7D8F
  8
0
  6
BYBLOCK
 62
     0
 10
3201.1243132773452
 20
2603.2363660000001
 30
0.0
 11
3201.1243132773452
 21
2698.2363660000001
 31
0.0
  0
INSERT
  5
7D90
  8
0
  6
BYBLOCK
 62
     0
  2
_DOT
 10
3201.1243132773452
 20
2603.2363660000001
 30
0.0
 41
60.0
 42
60.0
 43
60.0
 50
90.0
  0
INSERT
  5
7D91
  8
0
  6
BYBLOCK
 62
     0
  2
_OPEN
 10
3201.1243132773452
 20
2698.2363660000001
 30
0.0
 41
60.0
 42
60.0
 43
60.0
 50
270.0
  0
POINT
  5
7D92
  8
DEFPOINTS
  6
BYBLOCK
 62
     0
 10
2562.8672759999999
 20
2603.2363660000001
 30
0.0
  0
POINT
  5
7D93
  8
DEFPOINTS
  6
BYBLOCK
 62
     0
 10
2562.8672759999999
 20
2698.2363660000001
 30
0.0
  0
POINT
  5
7D94
  8
DEFPOINTS
  6
BYBLOCK
 62
     0
 10
3201.1243132773452
 20
2698.2363660000001
 30
0.0
  0
ENDBLK
  5
7D95
  8
0
  0
ENDSEC
  0
SECTION
  2
ENTITIES
  0
ARC
  5
7A6C
  8
1
  6
CONTINUOUS
 10
2139.867275999999
 20
3541.2363659999992
 30
0.0
 40
634.74000000000001
 50
174.69
 51
265.75
  0
LINE
  5
7A6D
  8
1
  6
CONTINUOUS
 10
2462.8672759999999
 20
2798.2363660000001
 30
0.0
 11
2462.8672759999999
 21
3938.2363659999992
 31
0.0
  0
LINE
  5
7A6E
  8
1
  6
CONTINUOUS
 10
1942.8672759999999
 20
3938.2363659999992
 30
0.0
 11
1102.8672759999999
 21
3098.2363660000001
 31
0.0
  0
LINE
  5
7A6F
  8
1
  6
CONTINUOUS
 10
4484.1052869999994
 20
4019.2363660000001
 30
0.0
 11
4484.1052869999994
 21
2798.2363660000001
 31
0.0
  0
LINE
  5
7A70
  8
1
  6
CONTINUOUS
 10
5014.1052869999994
 20
4019.2363660000001
 30
0.0
 11
5014.1052869999994
 21
2798.2363660000001
 31
0.0
  0
LINE
  5
7A71
  8
1
  6
CONTINUOUS
 10
5014.1052869999994
 20
3622.2363660000001
 30
0.0
 11
4484.1052869999994
 21
2892.2363660000001
 31
0.0
  0
LINE
  5
7A72
  8
1
  6
CONTINUOUS
 10
4484.1052869999994
 20
3622.2363660000001
 30
0.0
 11
5014.1052869999994
 21
2892.2363660000001
 31
0.0
  0
LINE
  5
7A73
  8
1
  6
CONTINUOUS
 10
4249.1052869999994
 20
3938.2363659999992
 30
0.0
 11
4249.1052869999994
 21
2798.2363660000001
 31
0.0
  0
LINE
  5
7A74
  8
1
  6
CONTINUOUS
 10
4389.1052869999994
 20
3938.2363659999992
 30
0.0
 11
4389.1052869999994
 21
2798.2363660000001
 31
0.0
  0
LINE
  5
7A75
  8
1
  6
CONTINUOUS
 10
2597.8672759999999
 20
3622.2363660000001
 30
0.0
 11
2597.8672759999999
 21
2893.1363660000002
 31
0.0
  0
LINE
  5
7A76
  8
1
  6
CONTINUOUS
 10
2627.867275999999
 20
3662.2363660000001
 30
0.0
 11
2627.867275999999
 21
2852.2363659999992
 31
0.0
  0
LINE
  5
7A7A
  8
1
  6
CONTINUOUS
 10
1229.947275999999
 20
3059.4963659999989
 30
0.0
 11
1996.4072759999999
 21
3703.1063659999991
 31
0.0
  0
LINE
  5
7A7B
  8
1
  6
CONTINUOUS
 10
1323.807276
 20
2930.4063660000002
 30
0.0
 11
2172.3972760000001
 21
3461.0563659999989
 31
0.0
  0
LINE
  5
7A7D
  8
1
  6
CONTINUOUS
 10
2562.8672759999999
 20
2603.2363660000001
 30
0.0
 11
1062.867275999999
 21
2603.2363660000001
 31
0.0
  0
LINE
  5
7A7E
  8
1
  6
CONTINUOUS
 10
2562.8672759999999
 20
2503.2363660000001
 30
0.0
 11
1062.867275999999
 21
2503.2363660000001
 31
0.0
  0
LINE
  5
7A7F
  8
1
  6
CONTINUOUS
 10
2562.867275999999
 20
2798.2363660000001
 30
0.0
 11
1062.867275999999
 21
2798.2363660000001
 31
0.0
  0
LINE
  5
7A80
  8
1
  6
CONTINUOUS
 10
2562.8672759999999
 20
2698.2363660000001
 30
0.0
 11
1062.867275999999
 21
2698.2363660000001
 31
0.0
  0
LINE
  5
7A81
  8
1
  6
CONTINUOUS
 10
1062.867275999999
 20
2603.2363660000001
 30
0.0
 11
1062.867275999999
 21
2503.2363660000001
 31
0.0
  0
LINE
  5
7A82
  8
1
  6
CONTINUOUS
 10
1435.3872759999999
 20
2856.2363660000001
 30
0.0
 11
1414.0472759999991
 21
2905.2463659999999
 31
0.0
  0
LINE
  5
7A83
  8
1
  6
CONTINUOUS
 10
1435.3872759999999
 20
2798.2363660000001
 30
0.0
 11
1435.3872759999999
 21
2856.2363660000001
 31
0.0
  0
LINE
  5
7A84
  8
2
  6
CENTER
 10
1281.3872759999999
 20
2918.2363660000001
 30
0.0
 11
1281.3872759999999
 21
3078.2363660000001
 31
0.0
  0
LINE
  5
7A85
  8
2
  6
CENTER
 10
1201.3872759999999
 20
2998.2363660000001
 30
0.0
 11
1361.3872759999999
 21
2998.2363660000001
 31
0.0
  0
LINE
  5
7A86
  8
1
  6
CONTINUOUS
 10
1127.3872759999999
 20
2798.2363660000001
 30
0.0
 11
1127.3872759999999
 21
2856.2363660000001
 31
0.0
  0
LINE
  5
7A87
  8
1
  6
CONTINUOUS
 10
1127.3872759999999
 20
2856.2363660000001
 30
0.0
 11
1148.7372760000001
 21
2905.2463659999999
 31
0.0
  0
ARC
  5
7A88
  8
1
  6
CONTINUOUS
 10
1281.3872759999999
 20
2998.2363660000001
 30
0.0
 40
162.0
 50
324.97000000000003
 51
215.02999999999989
  0
CIRCLE
  5
7A89
  8
1
  6
CONTINUOUS
 10
1281.3872759999999
 20
2998.2363660000001
 30
0.0
 40
80.0
  0
LINE
  5
7A8A
  8
1
  6
CONTINUOUS
 10
1102.8672759999999
 20
2798.2363660000001
 30
0.0
 11
1102.8672759999999
 21
3098.2363660000001
 31
0.0
  0
LINE
  5
7A8B
  8
1
  6
CONTINUOUS
 10
1062.867275999999
 20
2798.2363660000001
 30
0.0
 11
1062.867275999999
 21
2698.2363660000001
 31
0.0
  0
LINE
  5
7A8C
  8
1
  6
CONTINUOUS
 10
2562.8672759999999
 20
2603.2363660000001
 30
0.0
 11
2562.8672759999999
 21
2503.2363660000001
 31
0.0
  0
LINE
  5
7A8D
  8
1
  6
CONTINUOUS
 10
2627.867275999999
 20
2892.2363660000001
 30
0.0
 11
2092.8672759999999
 21
2908.2363660000001
 31
0.0
  0
LINE
  5
7A8E
  8
1
  6
CONTINUOUS
 10
2562.8672759999999
 20
2798.2363660000001
 30
0.0
 11
2562.8672759999999
 21
2698.2363660000001
 31
0.0
  0
LINE
  5
7A8F
  8
1
  6
CONTINUOUS
 10
5066.1052869999994
 20
2603.2363660000001
 30
0.0
 11
4306.1052870000003
 21
2603.2363660000001
 31
0.0
  0
LINE
  5
7A90
  8
1
  6
CONTINUOUS
 10
5066.1052869999994
 20
2503.2363660000001
 30
0.0
 11
4306.1052870000003
 21
2503.2363660000001
 31
0.0
  0
LINE
  5
7A91
  8
1
  6
CONTINUOUS
 10
4484.1052869999994
 20
2892.2363660000001
 30
0.0
 11
5014.1052869999994
 21
2892.2363660000001
 31
0.0
  0
LINE
  5
7A92
  8
1
  6
CONTINUOUS
 10
5066.1052869999994
 20
2698.2363660000001
 30
0.0
 11
4306.1052870000003
 21
2698.2363660000001
 31
0.0
  0
LINE
  5
7A93
  8
1
  6
CONTINUOUS
 10
5066.1052869999994
 20
2798.2363660000001
 30
0.0
 11
4249.1052869999994
 21
2798.2363660000001
 31
0.0
  0
LINE
  5
7A97
  8
1
  6
CONTINUOUS
 10
4306.1052870000003
 20
2603.2363660000001
 30
0.0
 11
4306.1052870000003
 21
2503.2363660000001
 31
0.0
  0
LINE
  5
7A98
  8
1
  6
CONTINUOUS
 10
4306.1052870000003
 20
2798.2363660000001
 30
0.0
 11
4306.1052870000003
 21
2698.2363660000001
 31
0.0
  0
LINE
  5
7A99
  8
1
  6
CONTINUOUS
 10
4359.1052869999994
 20
2878.2363660000001
 30
0.0
 11
4359.1052869999994
 21
3038.2363660000001
 31
0.0
  0
LINE
  5
7A9A
  8
1
  6
CONTINUOUS
 10
4279.1052869999994
 20
2878.2363660000001
 30
0.0
 11
4279.1052869999994
 21
3038.2363660000001
 31
0.0
  0
LINE
  5
7A9B
  8
1
  6
CONTINUOUS
 10
4279.1052869999994
 20
2878.2363660000001
 30
0.0
 11
4359.1052869999994
 21
2878.2363660000001
 31
0.0
  0
LINE
  5
7A9C
  8
1
  6
CONTINUOUS
 10
4279.1052869999994
 20
3038.2363660000001
 30
0.0
 11
4359.1052869999994
 21
3038.2363660000001
 31
0.0
  0
LINE
  5
7A9D
  8
1
  6
CONTINUOUS
 10
4359.1052869999994
 20
2979.2363660000001
 30
0.0
 11
4484.1052869999994
 21
2979.2363660000001
 31
0.0
  0
LINE
  5
7A9E
  8
1
  6
CONTINUOUS
 10
4359.1052869999994
 20
2937.2363660000001
 30
0.0
 11
4484.1052869999994
 21
2937.2363660000001
 31
0.0
  0
LINE
  5
7A9F
  8
1
  6
CONTINUOUS
 10
5066.1052869999994
 20
2603.2363660000001
 30
0.0
 11
5066.1052869999994
 21
2503.2363660000001
 31
0.0
  0
LINE
  5
7AA0
  8
1
  6
CONTINUOUS
 10
5066.1052869999994
 20
2798.2363660000001
 30
0.0
 11
5066.1052869999994
 21
2698.2363660000001
 31
0.0
  0
ARC
  5
7AA1
  8
1
  6
CONTINUOUS
 10
2053.8672759999999
 20
3549.2363659999992
 30
0.0
 40
548.36999999999989
 50
82.569999999999993
 51
174.69
  0
ARC
  5
7AA3
  8
1
  6
CONTINUOUS
 10
2062.867275999999
 20
3618.2363660000001
 30
0.0
 40
478.79000000000002
 50
0.48
 51
82.569999999999993
  0
LINE
  5
7AA4
  8
1
  6
CONTINUOUS
 10
2462.8672759999999
 20
3938.2363659999992
 30
0.0
 11
1942.8672759999999
 21
3938.2363659999992
 31
0.0
  0
CIRCLE
  5
7AA5
  8
1
  6
CONTINUOUS
 10
2092.8672759999999
 20
3588.2363659999992
 30
0.0
 40
150.0
  0
LINE
  5
7AA6
  8
1
  6
CONTINUOUS
 10
2541.6372759999999
 20
3622.2363660000001
 30
0.0
 11
2627.867275999999
 21
3622.2363660000001
 31
0.0
  0
LINE
  5
7AA7
  8
2
  6
CENTER
 10
5090.8675270000003
 20
3588.2363659999992
 30
0.0
 11
4140.5086000000001
 21
3588.2363659999992
 31
0.0
  0
LINE
  5
7AA8
  8
2
  6
CENTER
 10
2092.8672759999999
 20
6256.5485090000002
 30
0.0
 11
2092.8672759999999
 21
5091.8240130000004
 31
0.0
  0
LINE
  5
7AA9
  8
1
  6
CONTINUOUS
 10
2562.8672759999999
 20
6017.1787130000002
 30
0.0
 11
1062.867275999999
 21
6017.1787130000002
 31
0.0
  0
LINE
  5
7AAA
  8
1
  6
CONTINUOUS
 10
1942.8672759999999
 20
5257.1787130000002
 30
0.0
 11
1361.3872759999999
 21
5257.1787130000002
 31
0.0
  0
LINE
  5
7AAB
  8
1
  6
CONTINUOUS
 10
2627.867275999999
 20
5435.1787130000002
 30
0.0
 11
1505.1272759999999
 21
5435.1787130000002
 31
0.0
  0
LINE
  5
7AAC
  8
1
  6
CONTINUOUS
 10
2627.867275999999
 20
5965.1787130000002
 30
0.0
 11
1505.1272759999999
 21
5965.1787130000002
 31
0.0
  0
LINE
  5
7AAD
  8
1
  6
CONTINUOUS
 10
2462.8672759999999
 20
5200.1787130000002
 30
0.0
 11
1102.8672759999999
 21
5200.1787130000002
 31
0.0
  0
LINE
  5
7AAE
  8
1
  6
CONTINUOUS
 10
2462.8672759999999
 20
5340.1787130000002
 30
0.0
 11
1102.8672759999999
 21
5340.1787130000002
 31
0.0
  0
LINE
  5
7AAF
  8
1
  6
CONTINUOUS
 10
1201.3872759999999
 20
5257.1787130000002
 30
0.0
 11
1062.867275999999
 21
5257.1787130000002
 31
0.0
  0
LINE
  5
7AB0
  8
1
  6
CONTINUOUS
 10
1114.407275999999
 20
5852.1287130000001
 30
0.0
 11
1443.3872759999999
 21
5852.1287130000001
 31
0.0
  0
LINE
  5
7AB1
  8
1
  6
CONTINUOUS
 10
1302.3872759999999
 20
5310.1787130000002
 30
0.0
 11
1302.3872759999999
 21
5396.1887129999996
 31
0.0
  0
LINE
  5
7AB2
  8
1
  6
CONTINUOUS
 10
1260.3872759999999
 20
5310.1787130000002
 30
0.0
 11
1260.3872759999999
 21
5396.1887129999996
 31
0.0
  0
LINE
  5
7AB3
  8
1
  6
CONTINUOUS
 10
1114.407275999999
 20
5396.1887129999996
 30
0.0
 11
1443.3872759999999
 21
5396.1887129999996
 31
0.0
  0
LINE
  5
7AB4
  8
1
  6
CONTINUOUS
 10
1443.3872759999999
 20
5396.1887129999996
 30
0.0
 11
1443.3872759999999
 21
5852.1287130000001
 31
0.0
  0
LINE
  5
7AB5
  8
1
  6
CONTINUOUS
 10
1114.407275999999
 20
5396.1887129999996
 30
0.0
 11
1114.407275999999
 21
5852.1287130000001
 31
0.0
  0
LINE
  5
7AB6
  8
1
  6
CONTINUOUS
 10
1062.867275999999
 20
6017.1787130000002
 30
0.0
 11
1062.867275999999
 21
5257.1787130000002
 31
0.0
  0
LINE
  5
7AB7
  8
1
  6
CONTINUOUS
 10
1505.1272759999999
 20
5965.1787130000002
 30
0.0
 11
1505.1272759999999
 21
5435.1787130000002
 31
0.0
  0
LINE
  5
7AB8
  8
1
  6
CONTINUOUS
 10
1102.8672759999999
 20
5200.1787130000002
 30
0.0
 11
1102.8672759999999
 21
5340.1787130000002
 31
0.0
  0
LINE
  5
7AB9
  8
1
  6
CONTINUOUS
 10
1201.3872759999999
 20
5230.1787130000002
 30
0.0
 11
1201.3872759999999
 21
5310.1787130000002
 31
0.0
  0
LINE
  5
7ABA
  8
1
  6
CONTINUOUS
 10
1361.3872759999999
 20
5230.1787130000002
 30
0.0
 11
1361.3872759999999
 21
5310.1787130000002
 31
0.0
  0
LINE
  5
7ABB
  8
1
  6
CONTINUOUS
 10
1361.3872759999999
 20
5230.1787130000002
 30
0.0
 11
1201.3872759999999
 21
5230.1787130000002
 31
0.0
  0
LINE
  5
7ABC
  8
1
  6
CONTINUOUS
 10
1361.3872759999999
 20
5310.1787130000002
 30
0.0
 11
1201.3872759999999
 21
5310.1787130000002
 31
0.0
  0
LINE
  5
7ABD
  8
1
  6
CONTINUOUS
 10
2562.8672759999999
 20
5435.1787130000002
 30
0.0
 11
2562.8672759999999
 21
5257.1787130000002
 31
0.0
  0
LINE
  5
7ABE
  8
1
  6
CONTINUOUS
 10
2562.8672759999999
 20
5257.1787130000002
 30
0.0
 11
2242.8672759999999
 21
5257.1787130000002
 31
0.0
  0
LINE
  5
7ABF
  8
1
  6
CONTINUOUS
 10
2562.8672759999999
 20
6017.1787130000002
 30
0.0
 11
2562.8672759999999
 21
5965.1787130000002
 31
0.0
  0
LINE
  5
7AC0
  8
1
  6
CONTINUOUS
 10
2627.867275999999
 20
6005.1787130000002
 30
0.0
 11
2627.867275999999
 21
5395.1787130000002
 31
0.0
  0
LINE
  5
7AC1
  8
1
  6
CONTINUOUS
 10
2462.8672759999999
 20
5200.1787130000002
 30
0.0
 11
2462.8672759999999
 21
5340.1787130000002
 31
0.0
  0
LINE
  5
7AC2
  8
1
  6
CONTINUOUS
 10
1942.8672759999999
 20
5230.1787130000002
 30
0.0
 11
1942.8672759999999
 21
5310.1787130000002
 31
0.0
  0
LINE
  5
7AC3
  8
1
  6
CONTINUOUS
 10
2242.8672759999999
 20
5230.1787130000002
 30
0.0
 11
2242.8672759999999
 21
5310.1787130000002
 31
0.0
  0
LINE
  5
7AC4
  8
1
  6
CONTINUOUS
 10
2242.8672759999999
 20
5230.1787130000002
 30
0.0
 11
1942.8672759999999
 21
5230.1787130000002
 31
0.0
  0
LINE
  5
7AC5
  8
1
  6
CONTINUOUS
 10
2242.8672759999999
 20
5310.1787130000002
 30
0.0
 11
1942.8672759999999
 21
5310.1787130000002
 31
0.0
  0
LINE
  5
7AC6
  8
1
  6
CONTINUOUS
 10
2071.8672759999999
 20
5310.1787130000002
 30
0.0
 11
2071.8672759999999
 21
5435.1787130000002
 31
0.0
  0
LINE
  5
7AC7
  8
1
  6
CONTINUOUS
 10
2113.8672759999999
 20
5310.1787130000002
 30
0.0
 11
2113.8672759999999
 21
5435.1787130000002
 31
0.0
  0
LINE
  5
7AC8
  8
1
  6
CONTINUOUS
 10
4484.1052869999994
 20
3622.2363660000001
 30
0.0
 11
5014.1052869999994
 21
3622.2363660000001
 31
0.0
  0
LINE
  5
7AC9
  8
1
  6
CONTINUOUS
 10
4484.1052869999994
 20
4019.2363660000001
 30
0.0
 11
5014.1052869999994
 21
4019.2363660000001
 31
0.0
  0
LINE
  5
7ACA
  8
1
  6
CONTINUOUS
 10
4389.1052869999994
 20
3938.2363659999992
 30
0.0
 11
4249.1052869999994
 21
3938.2363659999992
 31
0.0
  0
LINE
  5
7ACB
  8
1
  6
CONTINUOUS
 10
4359.1052869999994
 20
3438.2363659999992
 30
0.0
 11
4359.1052869999994
 21
3738.2363659999992
 31
0.0
  0
LINE
  5
7ACC
  8
1
  6
CONTINUOUS
 10
4279.1052869999994
 20
3438.2363659999992
 30
0.0
 11
4279.1052869999994
 21
3738.2363659999992
 31
0.0
  0
LINE
  5
7ACD
  8
1
  6
CONTINUOUS
 10
4279.1052869999994
 20
3438.2363659999992
 30
0.0
 11
4359.1052869999994
 21
3438.2363659999992
 31
0.0
  0
LINE
  5
7ACE
  8
1
  6
CONTINUOUS
 10
4279.1052869999994
 20
3738.2363659999992
 30
0.0
 11
4359.1052869999994
 21
3738.2363659999992
 31
0.0
  0
LINE
  5
7ACF
  8
1
  6
CONTINUOUS
 10
4359.1052869999994
 20
3567.2363659999992
 30
0.0
 11
4484.1052869999994
 21
3567.2363659999992
 31
0.0
  0
LINE
  5
7AD0
  8
1
  6
CONTINUOUS
 10
4359.1052869999994
 20
3609.2363659999992
 30
0.0
 11
4484.1052869999994
 21
3609.2363659999992
 31
0.0
  0
LINE
  5
7AD1
  8
2
  6
CENTER
 10
4749.1052869999994
 20
4111.6129829999991
 30
0.0
 11
4749.1052869999994
 21
2503.2363660000001
 31
0.0
  0
LINE
  5
7AD2
  8
2
  6
CENTER
 10
978.05761399999994
 20
5700.1787130000002
 30
0.0
 11
2697.338522
 21
5700.1787130000002
 31
0.0
  0
LINE
  5
7AD3
  8
2
  6
CENTER
 10
2092.8672759999999
 20
4242.918361
 30
0.0
 11
2092.8672759999999
 21
2503.2363660000001
 31
0.0
  0
LINE
  5
7AD4
  8
2
  6
CENTER
 10
2772.6392739999992
 20
3588.2363659999992
 30
0.0
 11
1088.9444880000001
 21
3588.2363659999992
 31
0.0
  0
DIMENSION
  5
7AE8
  8
3
  6
CONTINUOUS
  2
*D1
 10
2829.2219329999998
 20
2892.2363660000001
 30
0.0
 11
2829.2219329999989
 21
3259.3731290000001
 31
0.0
 70
   128
 13
2627.867275999999
 23
3622.2363660000001
 33
0.0
 14
2627.867275999999
 24
2892.2363660000001
 34
0.0
 50
90.0
1001
ACAD
1000
DSTYLE
1002
{
1070
   287
1070
     3
1070
    40
1040
30.0
1070
   143
1040
0.039
1070
   172
1070
     1
1070
   271
1070
     0
1070
   279
1070
     0
1070
   288
1070
     1
1002
}
  0
DIMENSION
  5
7AF5
  8
3
  6
CONTINUOUS
  2
*D2
 10
3016.264557
 20
2892.2363660000001
 30
0.0
 11
3016.2645569999991
 21
3259.3731290000001
 31
0.0
 70
   128
 13
2772.6392739999992
 23
3588.2363659999992
 33
0.0
 14
2627.867275999999
 24
2892.2363660000001
 34
0.0
 50
90.0
1001
ACAD
1000
DSTYLE
1002
{
1070
   287
1070
     3
1070
    40
1040
30.0
1070
   143
1040
0.039
1070
   172
1070
     1
1070
   271
1070
     0
1070
   279
1070
     0
1070
   288
1070
     1
1002
}
  0
DIMENSION
  5
7B0E
  8
3
  6
CONTINUOUS
  2
*D3
 10
3197.273545
 20
2698.2363659999992
 30
0.0
 11
3122.2735449999991
 21
3143.2363660000001
 31
0.0
 70
     0
 13
2772.6392739999992
 23
3588.2363659999992
 33
0.0
 14
2562.8672759999999
 24
2698.2363660000001
 34
0.0
 50
90.0
1001
ACAD
1000
DSTYLE
1002
{
1070
   287
1070
     4
1070
    40
1040
30.0
1070
    75
1070
     1
1070
   143
1040
0.039
1070
   172
1070
     1
1070
   271
1070
     0
1070
   279
1070
     1
1070
   288
1070
     1
1002
}
  0
DIMENSION
  5
7B51
  8
3
  6
CONTINUOUS
  2
*D4
 10
2092.8672759999999
 20
4260.2235419999997
 30
0.0
 11
2365.4886940000001
 21
4260.2235419999997
 31
0.0
 70
   128
 13
2627.867275999999
 23
3662.2363660000001
 33
0.0
 14
2092.8672759999999
 24
4242.918361
 34
0.0
1001
ACAD
1000
DSTYLE
1002
{
1070
   287
1070
     3
1070
    40
1040
30.0
1070
   143
1040
0.039
1070
   172
1070
     1
1070
   271
1070
     0
1070
   279
1070
     0
1070
   288
1070
     1
1002
}
  0
DIMENSION
  5
7B6A
  8
3
  6
CONTINUOUS
  2
*D5
 10
4484.1052869999994
 20
4121.551496
 30
0.0
 11
4740.9168239999999
 21
4121.551496
 31
0.0
 70
   128
 13
5014.1052869999994
 23
4019.2363660000001
 33
0.0
 14
4484.1052869999994
 24
4019.2363660000001
 34
0.0
1001
ACAD
1000
DSTYLE
1002
{
1070
   287
1070
     3
1070
    40
1040
30.0
1070
   143
1040
0.039
1070
   172
1070
     1
1070
   271
1070
     0
1070
   279
1070
     0
1070
   288
1070
     1
1002
}
  0
LINE
  5
7B6B
  8
1
  6
CONTINUOUS
 10
5016.1052869999994
 20
3965.2363660000001
 30
0.0
 11
5016.1052869999994
 21
3211.2363660000001
 31
0.0
  0
DIMENSION
  5
7B7B
  8
3
  6
CONTINUOUS
  2
*D6
 10
4749.1052869999994
 20
4308.4572950000002
 30
0.0
 11
4899.4852236866527
 21
4390.4993115987672
 31
0.0
 70
   128
 13
5016.1052869999994
 23
3965.2363660000001
 33
0.0
 14
4749.1052869999994
 24
4269.0613299999986
 34
0.0
1001
ACAD
1000
DSTYLE
1002
{
1070
   288
1070
     1
1070
   172
1070
     1
1070
    40
1040
30.0
1070
   271
1070
     0
1070
   143
1040
0.039
1002
}
  0
DIMENSION
  5
7B87
  8
3
  6
CONTINUOUS
  2
*D7
 10
4249.1052869999994
 20
4308.4572950000002
 30
0.0
 11
4499.1052869999994
 21
4458.4572950000002
 31
0.0
 70
     0
  1
MAX\P560
 13
4749.1052869999994
 23
4269.0613299999986
 33
0.0
 14
4249.1052869999994
 24
3938.2363659999992
 34
0.0
1001
ACAD
1000
DSTYLE
1002
{
1070
   287
1070
     4
1070
    40
1040
30.0
1070
    75
1070
     1
1070
   143
1040
0.039
1070
   172
1070
     1
1070
   271
1070
     0
1070
   279
1070
     1
1070
   288
1070
     1
1002
}
  0
DIMENSION
  5
7B94
  8
3
  6
CONTINUOUS
  2
*D8
 10
5259.8092760000009
 20
3211.2363660000001
 30
0.0
 11
5259.809276
 21
3597.0094229999991
 31
0.0
 70
   128
 13
5016.1052869999994
 23
3965.2363660000001
 33
0.0
 14
5016.1052869999994
 24
3211.2363660000001
 34
0.0
 50
90.0
1001
ACAD
1000
DSTYLE
1002
{
1070
   287
1070
     3
1070
     3
1000
φ<>
1070
    40
1040
30.0
1070
   143
1040
0.039
1070
   172
1070
     1
1070
   271
1070
     0
1070
   279
1070
     0
1070
   288
1070
     1
1002
}
  0
DIMENSION
  5
7BD7
  8
3
  6
CONTINUOUS
  2
*D9
 10
2562.8672759999999
 20
6243.340991
 30
0.0
 11
1725.9235839999999
 21
6243.340991
 31
0.0
 70
   128
 13
1062.867275999999
 23
6017.1787130000002
 33
0.0
 14
2562.8672759999999
 24
6017.1787130000002
 34
0.0
1001
ACAD
1000
DSTYLE
1002
{
1070
   287
1070
     3
1070
    40
1040
30.0
1070
   143
1040
0.039
1070
   172
1070
     1
1070
   271
1070
     0
1070
   279
1070
     0
1070
   288
1070
     1
1002
}
  0
DIMENSION
  5
7BE4
  8
3
  6
CONTINUOUS
  2
*D10
 10
2854.2129640000012
 20
5257.1787130000002
 30
0.0
 11
2854.2129639999998
 21
5651.3329489999996
 31
0.0
 70
   128
 13
2562.8672759999999
 23
6017.1787130000002
 33
0.0
 14
2562.8672759999999
 24
5257.1787130000002
 34
0.0
 50
90.0
1001
ACAD
1000
DSTYLE
1002
{
1070
   287
1070
     3
1070
    40
1040
30.0
1070
   143
1040
0.039
1070
   172
1070
     1
1070
   271
1070
     0
1070
   279
1070
     0
1070
   288
1070
     1
1002
}
  0
LINE
  5
7BE5
  8
4
  6
CONTINUOUS
 10
5550.0
 20
1500.0
 30
0.0
 11
5550.0
 21
900.0
 31
0.0
  0
LINE
  5
7BE6
  8
4
  6
CONTINUOUS
 10
3450.0
 20
1500.0
 30
0.0
 11
3450.0
 21
900.0
 31
0.0
  0
LINE
  5
7BE7
  8
4
  6
CONTINUOUS
 10
1950.0
 20
1500.0
 30
0.0
 11
1950.0
 21
900.0
 31
0.0
  0
LINE
  5
7BEA
  8
4
  6
CONTINUOUS
 10
1950.0
 20
900.0
 30
0.0
 11
5550.0
 21
900.0
 31
0.0
  0
LINE
  5
7BEB
  8
4
  6
CONTINUOUS
 10
1950.0
 20
1200.0
 30
0.0
 11
5550.0
 21
1200.0
 31
0.0
  0
TEXT
  5
7BEC
  8
4
  6
CONTINUOUS
 10
2065.5062429999989
 20
1294.6290779999999
 30
0.0
 40
150.0
  1
機器名称
  0
TEXT
  5
7BED
  8
4
  6
CONTINUOUS
 10
2058.7743179999989
 20
964.9354699999999
 30
0.0
 40
150.0
  1
機器型番
  0
TEXT
  5
7BEE
  8
4
  6
CONTINUOUS
 10
3533.0362359999999
 20
1267.7153069999999
 30
0.0
 40
150.0
  1
ミツヤ多翼送風機
  0
TEXT
  5
7BEF
  8
4
  6
CONTINUOUS
 10
3559.9634869999991
 20
951.47875299999987
 30
0.0
 40
150.0
  1
MF#4 1/2-4
  0
TEXT
  5
7BF1
  8
4
  6
CONTINUOUS
 10
2382.031653999999
 20
7150.2865239999992
 30
0.0
 40
162.0
  1
床置防振ベット
  0
TEXT
  5
7BF2
  8
4
  6
CONTINUOUS
 10
948.50278000000014
 20
7601.6429289999996
 30
0.0
 40
216.0
  1
ベルト駆動式片吸込両持多翼ファン
  0
LINE
  5
7BF3
  8
4
  6
CONTINUOUS
 10
750.0
 20
7408.2262629999996
 30
0.0
 11
5550.0
 21
7408.2262629999996
 31
0.0
  0
LINE
  5
7BF4
  8
4
  6
CONTINUOUS
 10
750.0
 20
8008.2262629999996
 30
0.0
 11
5550.0
 21
8008.2262629999996
 31
0.0
  0
LINE
  5
7BF5
  8
4
  6
CONTINUOUS
 10
1950.0
 20
1500.0
 30
0.0
 11
5550.0
 21
1500.0
 31
0.0
  0
LINE
  5
7BF6
  8
4
  6
CONTINUOUS
 10
750.0
 20
8008.2262629999996
 30
0.0
 11
750.0
 21
7408.2262629999996
 31
0.0
  0
TEXT
  5
7BF7
  8
4
  6
CONTINUOUS
 10
1074.4551579999991
 20
7146.9584329999998
 30
0.0
 40
162.0
  1
左回転右横向
  0
TEXT
  5
7BF8
  8
4
  6
CONTINUOUS
 10
4406.9086779999989
 20
8118.1832439999989
 30
0.0
 40
168.0
  1
No.
  0
TEXT
  5
7BF9
  8
4
  6
CONTINUOUS
 10
3933.8881879999999
 20
7150.2865239999992
 30
0.0
 40
162.0
  1
縮尺：1/30
  0
LINE
  5
7BFA
  8
4
  6
CONTINUOUS
 10
5550.0
 20
8008.2262629999996
 30
0.0
 11
5550.0
 21
7408.2262629999996
 31
0.0
  0
LINE
  5
7BFC
  8
4
  6
CONTINUOUS
 10
4321.8522670000002
 20
8043.7907490000007
 30
0.0
 11
4321.8522670000002
 21
8359.9567849999985
 31
0.0
  0
LINE
  5
7BFD
  8
4
  6
CONTINUOUS
 10
4321.8522670000002
 20
8359.9567849999985
 30
0.0
 11
5550.0
 21
8359.9567849999985
 31
0.0
  0
LINE
  5
7BFE
  8
4
  6
CONTINUOUS
 10
5550.0
 20
8359.9567849999985
 30
0.0
 11
5550.0
 21
8043.7907490000007
 31
0.0
  0
LINE
  5
7BFF
  8
4
  6
CONTINUOUS
 10
5550.0
 20
8043.7907490000007
 30
0.0
 11
4321.8522670000002
 21
8043.7907490000007
 31
0.0
  0
DIMENSION
  5
7C5A
  8
3
  6
CONTINUOUS
  2
*D11
 10
3197.273545
 20
4096.2177705285267
 30
0.0
 11
3122.2735449999991
 21
3842.2270682642638
 31
0.0
 70
     0
 13
2772.6392739999992
 23
3588.2363659999992
 33
0.0
 14
2092.8672759999999
 24
4096.2177705285267
 34
0.0
 50
90.0
1001
ACAD
1000
DSTYLE
1002
{
1070
   287
1070
     3
1070
    40
1040
30.0
1070
   143
1040
0.039
1070
   172
1070
     1
1070
   271
1070
     0
1070
   279
1070
     0
1070
   288
1070
     1
1002
}
  0
DIMENSION
  5
7C73
  8
3
  6
CONTINUOUS
  2
*D12
 10
1506.8697500000001
 20
4260.2235419999997
 30
0.0
 11
1799.868512999999
 21
4335.2235419999997
 31
0.0
 70
     0
 13
2092.8672759999999
 23
4242.918361
 33
0.0
 14
1506.8697500000001
 24
3588.2363659999992
 34
0.0
1001
ACAD
1000
DSTYLE
1002
{
1070
   287
1070
     4
1070
    40
1040
30.0
1070
    75
1070
     1
1070
   143
1040
0.039
1070
   172
1070
     1
1070
   271
1070
     0
1070
   279
1070
     1
1070
   288
1070
     1
1002
}
  0
DIMENSION
  5
7D47
  8
3
  2
*D13
 10
2092.8672759999999
 20
2304.1457782171669
 30
0.0
 11
1577.8672759999999
 21
2379.1457782171669
 31
0.0
 70
     0
 13
1062.867275999999
 23
2503.2363660000001
 33
0.0
 14
2092.8672759999999
 24
2503.2363660000001
 34
0.0
1001
ACAD
1000
DSTYLE
1002
{
1070
   287
1070
     3
1070
    40
1040
30.0
1070
   143
1040
0.039
1070
   172
1070
     1
1070
   271
1070
     0
1070
   279
1070
     0
1002
}
  0
DIMENSION
  5
7D54
  8
3
  2
*D14
 10
2562.8672759999999
 20
2304.1457782171669
 30
0.0
 11
2327.8672759999999
 21
2379.1457782171669
 31
0.0
 70
     0
 13
2092.8672759999999
 23
2503.2363660000001
 33
0.0
 14
2562.8672759999999
 24
2503.2363660000001
 34
0.0
1001
ACAD
1000
DSTYLE
1002
{
1070
   287
1070
     3
1070
    40
1040
30.0
1070
   143
1040
0.039
1070
   172
1070
     1
1070
   271
1070
     0
1070
   279
1070
     0
1002
}
  0
DIMENSION
  5
7D61
  8
3
  2
*D15
 10
4749.1052869999994
 20
2304.1457782171669
 30
0.0
 11
4527.6052869999994
 21
2379.1457782171669
 31
0.0
 70
     0
 13
4306.1052870000003
 23
2503.2363660000001
 33
0.0
 14
4749.1052869999994
 24
2503.2363660000001
 34
0.0
1001
ACAD
1000
DSTYLE
1002
{
1070
   287
1070
     3
1070
    40
1040
30.0
1070
   143
1040
0.039
1070
   172
1070
     1
1070
   271
1070
     0
1070
   279
1070
     0
1002
}
  0
DIMENSION
  5
7D70
  8
3
  2
*D16
 10
5066.1052869999994
 20
2304.1457782171669
 30
0.0
 11
4907.6052869999994
 21
2379.1457782171669
 31
0.0
 70
     0
 13
4749.1052869999994
 23
2503.2363660000001
 33
0.0
 14
5066.1052869999994
 24
2503.2363660000001
 34
0.0
1001
ACAD
1000
DSTYLE
1002
{
1070
   287
1070
     3
1070
    40
1040
30.0
1070
   143
1040
0.039
1070
   172
1070
     1
1070
   271
1070
     0
1070
   279
1070
     0
1002
}
  0
DIMENSION
  5
7D87
  8
3
  2
*D18
 10
3201.1243132773452
 20
2503.2363659999992
 30
0.0
 11
3126.1243132773438
 21
2246.0935088571432
 31
0.0
 70
     0
 13
2562.8672759999999
 23
2603.2363660000001
 33
0.0
 14
2562.8672759999999
 24
2503.2363660000001
 34
0.0
 50
90.0
1001
ACAD
1000
DSTYLE
1002
{
1070
   287
1070
     3
1070
    40
1040
30.0
1070
   143
1040
0.039
1070
   172
1070
     1
1070
   271
1070
     0
1070
   279
1070
     0
1070
     6
1000
DOT
1002
}
  0
DIMENSION
  5
7D96
  8
3
  2
*D19
 10
3201.1243132773452
 20
2698.2363660000001
 30
0.0
 11
3344.6957418487732
 21
2650.7363660000001
 31
0.0
 70
     0
 13
2562.8672759999999
 23
2603.2363660000001
 33
0.0
 14
2562.8672759999999
 24
2698.2363660000001
 34
0.0
 50
90.0
1001
ACAD
1000
DSTYLE
1002
{
1070
   172
1070
     1
1070
    40
1040
30.0
1070
     3
1000
(<>)
1070
   271
1070
     0
1070
     6
1000
_DOT
1070
   143
1040
0.039
1002
}
  0
LINE
  5
7DAC
  8
1
  6
CONTINUOUS
 10
2552.8672759999999
 20
3718.2363660000001
 30
0.0
 11
1632.867275999999
 21
3718.2363660000001
 31
0.0
  0
LINE
  5
7DAD
  8
1
 10
1632.867275999999
 20
3718.2363660000001
 30
0.0
 11
1632.867275999999
 21
2798.2363660000001
 31
0.0
  0
LINE
  5
7DAE
  8
1
 10
2552.8672759999999
 20
3718.2363660000001
 30
0.0
 11
2552.8672759999999
 21
2798.2363660000001
 31
0.0
  0
ENDSEC
  0
EOF
