  0
SECTION
  2
HEADER
  9
$ACADVER
  1
AC1009
  9
$INSBASE
 10
0.0
 20
0.0
 30
0.0
  9
$EXTMIN
 10
750.0
 20
900.0
 30
0.0
  9
$EXTMAX
 10
5550.0
 20
8359.9567849999985
 30
0.0
  9
$LIMMIN
 10
0.0
 20
0.0
  9
$LIMMAX
 10
297.0
 20
210.0
  9
$ORTHOMODE
 70
     0
  9
$REGENMODE
 70
     1
  9
$FILLMODE
 70
     0
  9
$QTEXTMODE
 70
     0
  9
$MIRRTEXT
 70
     1
  9
$DRAGMODE
 70
     2
  9
$LTSCALE
 40
100.0
  9
$OSMODE
 70
    37
  9
$ATTMODE
 70
     1
  9
$TEXTSIZE
 40
180.0
  9
$TRACEWID
 40
0.05
  9
$TEXTSTYLE
  7
STANDARD
  9
$CLAYER
  8
3
  9
$CELTYPE
  6
BYLAYER
  9
$CECOLOR
 62
   256
  9
$DIMSCALE
 40
30.0
  9
$DIMASZ
 40
2.0
  9
$DIMEXO
 40
0.5
  9
$DIMDLI
 40
10.0
  9
$DIMRND
 40
0.0
  9
$DIMDLE
 40
0.0
  9
$DIMEXE
 40
1.0
  9
$DIMTP
 40
1.0
  9
$DIMTM
 40
1.0
  9
$DIMTXT
 40
3.0
  9
$DIMCEN
 40
0.0
  9
$DIMTSZ
 40
0.0
  9
$DIMTOL
 70
     0
  9
$DIMLIM
 70
     0
  9
$DIMTIH
 70
     0
  9
$DIMTOH
 70
     0
  9
$DIMSE1
 70
     0
  9
$DIMSE2
 70
     0
  9
$DIMTAD
 70
     1
  9
$DIMZIN
 70
     8
  9
$DIMBLK
  1

  9
$DIMASO
 70
     1
  9
$DIMSHO
 70
     1
  9
$DIMPOST
  1

  9
$DIMAPOST
  1

  9
$DIMALT
 70
     0
  9
$DIMALTD
 70
     2
  9
$DIMALTF
 40
0.039
  9
$DIMLFAC
 40
1.0
  9
$DIMTOFL
 70
     1
  9
$DIMTVP
 40
0.0
  9
$DIMTIX
 70
     0
  9
$DIMSOXD
 70
     0
  9
$DIMSAH
 70
     1
  9
$DIMBLK1
  1
OPEN
  9
$DIMBLK2
  1
OPEN
  9
$DIMSTYLE
  2
IGA
  9
$DIMCLRD
 70
     0
  9
$DIMCLRE
 70
     0
  9
$DIMCLRT
 70
     0
  9
$DIMTFAC
 40
10.0
  9
$DIMGAP
 40
1.0
  9
$LUNITS
 70
     2
  9
$LUPREC
 70
     3
  9
$SKETCHINC
 40
0.1
  9
$FILLETRAD
 40
50.0
  9
$AUNITS
 70
     0
  9
$AUPREC
 70
     0
  9
$MENU
  1
acad
  9
$ELEVATION
 40
0.0
  9
$PELEVATION
 40
0.0
  9
$THICKNESS
 40
0.0
  9
$LIMCHECK
 70
     0
  9
$BLIPMODE
 70
     0
  9
$CHAMFERA
 40
0.5
  9
$CHAMFERB
 40
0.5
  9
$SKPOLY
 70
     0
  9
$TDCREATE
 40
2450743.579693981
  9
$TDUPDATE
 40
2454953.7737091202
  9
$TDINDWG
 40
0.0091875116
  9
$TDUSRTIMER
 40
0.0091875116
  9
$USRTIMER
 70
     1
  9
$ANGBASE
 50
0.0
  9
$ANGDIR
 70
     0
  9
$PDMODE
 70
     0
  9
$PDSIZE
 40
0.0
  9
$PLINEWID
 40
0.0
  9
$COORDS
 70
     1
  9
$SPLFRAME
 70
     0
  9
$SPLINETYPE
 70
     6
  9
$SPLINESEGS
 70
     8
  9
$ATTDIA
 70
     0
  9
$ATTREQ
 70
     1
  9
$HANDLING
 70
 10241
  9
$HANDSEED
  5
8011
  9
$SURFTAB1
 70
     6
  9
$SURFTAB2
 70
     6
  9
$SURFTYPE
 70
     6
  9
$SURFU
 70
     6
  9
$SURFV
 70
     6
  9
$UCSNAME
  2

  9
$UCSORG
 10
0.0
 20
0.0
 30
0.0
  9
$UCSXDIR
 10
1.0
 20
0.0
 30
0.0
  9
$UCSYDIR
 10
0.0
 20
1.0
 30
0.0
  9
$PUCSNAME
  2

  9
$PUCSORG
 10
0.0
 20
0.0
 30
0.0
  9
$PUCSXDIR
 10
1.0
 20
0.0
 30
0.0
  9
$PUCSYDIR
 10
0.0
 20
1.0
 30
0.0
  9
$USERI1
 70
     0
  9
$USERI2
 70
     0
  9
$USERI3
 70
     0
  9
$USERI4
 70
     0
  9
$USERI5
 70
     0
  9
$USERR1
 40
0.0
  9
$USERR2
 40
0.0
  9
$USERR3
 40
0.0
  9
$USERR4
 40
0.0
  9
$USERR5
 40
0.0
  9
$WORLDVIEW
 70
     1
  9
$SHADEDGE
 70
     3
  9
$SHADEDIF
 70
    70
  9
$TILEMODE
 70
     1
  9
$MAXACTVP
 70
    16
  9
$PLIMCHECK
 70
     0
  9
$PEXTMIN
 10
1.0000000000000000E+020
 20
1.0000000000000000E+020
 30
1.0000000000000000E+020
  9
$PEXTMAX
 10
-1.0000000000000000E+020
 20
-1.0000000000000000E+020
 30
-1.0000000000000000E+020
  9
$PLIMMIN
 10
0.0
 20
0.0
  9
$PLIMMAX
 10
12.0
 20
9.0
  9
$UNITMODE
 70
     0
  9
$VISRETAIN
 70
     0
  9
$PLINEGEN
 70
     0
  9
$PSLTSCALE
 70
     1
  0
ENDSEC
  0
SECTION
  2
TABLES
  0
TABLE
  2
VPORT
 70
     2
  0
VPORT
  2
*ACTIVE
 70
     0
 10
0.0
 20
0.0
 11
1.0
 21
1.0
 12
9438.4567678319436
 22
4630.0975558305709
 13
0.0
 23
0.0
 14
10.0
 24
10.0
 15
10.0
 25
10.0
 16
0.0
 26
0.0
 36
1.0
 17
0.0
 27
0.0
 37
0.0
 40
7517.4747125171307
 41
3.1666666666666661
 42
50.0
 43
0.0
 44
0.0
 50
0.0
 51
0.0
 71
     0
 72
   100
 73
     1
 74
     0
 75
     0
 76
     1
 77
     0
 78
     0
  0
ENDTAB
  0
TABLE
  2
LTYPE
 70
     2
  0
LTYPE
  2
CONTINUOUS
 70
     0
  3
Solid line
 72
    65
 73
     0
 40
0.0
  0
LTYPE
  2
CENTER
 70
     0
  3
____ _ ____ _ ____ _ ____ _ ____ _ ____ _ ____ 
 72
    65
 73
     4
 40
2.0
 49
1.25
 49
-0.25
 49
0.25
 49
-0.25
  0
ENDTAB
  0
TABLE
  2
LAYER
 70
     6
  0
LAYER
  2
0
 70
     0
 62
     7
  6
CONTINUOUS
  0
LAYER
  2
3
 70
     0
 62
     2
  6
CONTINUOUS
  0
LAYER
  2
2
 70
     0
 62
     3
  6
CENTER
  0
LAYER
  2
1
 70
     0
 62
     4
  6
CONTINUOUS
  0
LAYER
  2
4
 70
     0
 62
     7
  6
CONTINUOUS
  0
LAYER
  2
DEFPOINTS
 70
     0
 62
     7
  6
CONTINUOUS
  0
ENDTAB
  0
TABLE
  2
STYLE
 70
     1
  0
STYLE
  2
STANDARD
 70
     0
 40
0.0
 41
1.0
 50
0.0
 71
     0
 42
180.0
  3
simplex.shx
  4
extfont.shx
  0
ENDTAB
  0
TABLE
  2
VIEW
 70
     0
  0
ENDTAB
  0
TABLE
  2
UCS
 70
     0
  0
ENDTAB
  0
TABLE
  2
APPID
 70
     1
  0
APPID
  2
ACAD
 70
     0
  0
ENDTAB
  0
TABLE
  2
DIMSTYLE
 70
     1
  0
DIMSTYLE
  2
IGA
 70
     0
  3

  4

  5

  6
OPEN
  7
OPEN
 40
2.0
 41
2.0
 42
0.5
 43
10.0
 44
1.0
 45
0.0
 46
0.0
 47
1.0
 48
1.0
140
3.0
141
0.0
142
0.0
143
0.03937
144
1.0
145
0.0
146
10.0
147
1.0
 71
     0
 72
     0
 73
     0
 74
     0
 75
     0
 76
     0
 77
     1
 78
     8
170
     0
171
     2
172
     0
173
     1
174
     0
175
     0
176
     0
177
     0
178
     0
  0
ENDTAB
  0
ENDSEC
  0
SECTION
  2
BLOCKS
  0
BLOCK
  8
0
  2
$MODEL_SPACE
 70
     0
 10
0.0
 20
0.0
 30
0.0
  3
$MODEL_SPACE
  1

  0
ENDBLK
  5
1B
  8
0
  0
BLOCK
 67
     1
  8
0
  2
$PAPER_SPACE
 70
     0
 10
0.0
 20
0.0
 30
0.0
  3
$PAPER_SPACE
  1

  0
ENDBLK
  5
18
 67
     1
  8
0
  0
BLOCK
  8
0
  2
_OPEN
 70
     0
 10
0.0
 20
0.0
 30
0.0
  3
_OPEN
  1

  0
LINE
  5
7B7E
  8
0
  6
BYBLOCK
 62
     0
 10
-1.0
 20
0.166667
 30
0.0
 11
0.0
 21
0.0
 31
0.0
  0
LINE
  5
7B7F
  8
0
  6
BYBLOCK
 62
     0
 10
0.0
 20
0.0
 30
0.0
 11
-1.0
 21
-0.166667
 31
0.0
  0
LINE
  5
7B80
  8
0
  6
BYBLOCK
 62
     0
 10
0.0
 20
0.0
 30
0.0
 11
-1.0
 21
0.0
 31
0.0
  0
ENDBLK
  5
7B81
  8
0
  0
BLOCK
  8
0
  2
*D1
 70
     1
 10
0.0
 20
0.0
 30
0.0
  3
*D1
  1

  0
LINE
  5
7F68
  8
3
  6
CONTINUOUS
 62
     0
 10
1710.7363340720351
 20
3621.2781857856198
 30
0.0
 11
1573.2131590720351
 21
3621.2781857856198
 31
0.0
  0
LINE
  5
7F69
  8
3
  6
CONTINUOUS
 62
     0
 10
1710.7363340720351
 20
2891.2781857856198
 30
0.0
 11
1573.2131590720351
 21
2891.2781857856198
 31
0.0
  0
LINE
  5
7F6A
  8
3
  6
CONTINUOUS
 62
     0
 10
1603.2131590720351
 20
3561.2781857856198
 30
0.0
 11
1603.2131590720351
 21
2951.2781857856198
 31
0.0
  0
INSERT
  5
7F6B
  8
3
  6
CONTINUOUS
 62
     0
  2
_OPEN
 10
1603.2131590720351
 20
3621.2781857856198
 30
0.0
 41
60.0
 42
60.0
 43
60.0
 50
90.0
  0
INSERT
  5
7F6C
  8
3
  6
CONTINUOUS
 62
     0
  2
_OPEN
 10
1603.2131590720351
 20
2891.2781857856198
 30
0.0
 41
60.0
 42
60.0
 43
60.0
 50
270.0
  0
TEXT
  8
3
  40
90
  5
7FFF
  62
0
  72
0
  71
0
 10
1348.21
 20
3097.60
 30
0.000000
  1
730
  0
POINT
  5
7F6E
  8
DEFPOINTS
  6
CONTINUOUS
 62
     0
 10
1725.7363340720351
 20
3621.2781857856198
 30
0.0
  0
POINT
  5
7F6F
  8
DEFPOINTS
  6
CONTINUOUS
 62
     0
 10
1725.7363340720351
 20
2891.2781857856198
 30
0.0
  0
POINT
  5
7F70
  8
DEFPOINTS
  6
CONTINUOUS
 62
     0
 10
1603.2131590720351
 20
2891.2781857856198
 30
0.0
  0
ENDBLK
  5
7B8E
  8
0
  0
BLOCK
  8
0
  2
*D2
 70
     1
 10
0.0
 20
0.0
 30
0.0
  3
*D2
  1

  0
LINE
  5
7F71
  8
3
  6
CONTINUOUS
 62
     0
 10
1710.7363340720351
 20
2891.2781857856198
 30
0.0
 11
1402.9314550720351
 21
2891.2781857856198
 31
0.0
  0
LINE
  5
7F72
  8
3
  6
CONTINUOUS
 62
     0
 10
1582.8443770720351
 20
3587.2781857856212
 30
0.0
 11
1402.9314550720351
 21
3587.2781857856212
 31
0.0
  0
LINE
  5
7F73
  8
3
  6
CONTINUOUS
 62
     0
 10
1432.9314550720351
 20
2951.2781857856198
 30
0.0
 11
1432.9314550720351
 21
3527.2781857856212
 31
0.0
  0
INSERT
  5
7F74
  8
3
  6
CONTINUOUS
 62
     0
  2
_OPEN
 10
1432.9314550720351
 20
2891.2781857856198
 30
0.0
 41
60.0
 42
60.0
 43
60.0
 50
270.0
  0
INSERT
  5
7F75
  8
3
  6
CONTINUOUS
 62
     0
  2
_OPEN
 10
1432.9314550720351
 20
3587.2781857856212
 30
0.0
 41
60.0
 42
60.0
 43
60.0
 50
90.0
  0
TEXT
  8
3
  40
90
  5
8000
  62
0
  72
0
  71
0
 10
1177.93
 20
3091.93
 30
0.000000
  1
696
  0
POINT
  5
7F77
  8
DEFPOINTS
  6
CONTINUOUS
 62
     0
 10
1725.7363340720351
 20
2891.2781857856198
 30
0.0
  0
POINT
  5
7F78
  8
DEFPOINTS
  6
CONTINUOUS
 62
     0
 10
1597.8443770720351
 20
3587.2781857856212
 30
0.0
  0
POINT
  5
7F79
  8
DEFPOINTS
  6
CONTINUOUS
 62
     0
 10
1432.9314550720351
 20
3587.2781857856212
 30
0.0
  0
ENDBLK
  5
7B9B
  8
0
  0
BLOCK
  8
0
  2
*D3
 70
     1
 10
0.0
 20
0.0
 30
0.0
  3
*D3
  1

  0
LINE
  5
7F7A
  8
3
  6
CONTINUOUS
 62
     0
 10
1582.8443770720351
 20
3587.2781857856212
 30
0.0
 11
1204.2695040720339
 21
3587.2781857856212
 31
0.0
  0
LINE
  5
7F7B
  8
3
  6
CONTINUOUS
 62
     0
 10
1775.7363340720351
 20
2697.2781857856198
 30
0.0
 11
1204.2695040720339
 21
2697.2781857856198
 31
0.0
  0
LINE
  5
7F7C
  8
3
  6
CONTINUOUS
 62
     0
 10
1234.2695040720339
 20
3527.2781857856212
 30
0.0
 11
1234.2695040720339
 21
2757.2781857856212
 31
0.0
  0
INSERT
  5
7F7D
  8
3
  6
CONTINUOUS
 62
     0
  2
_OPEN
 10
1234.269504072035
 20
3587.2781857856212
 30
0.0
 41
60.0
 42
60.0
 43
60.0
 50
90.0
  0
INSERT
  5
7F7E
  8
3
  6
CONTINUOUS
 62
     0
  2
_OPEN
 10
1234.2695040720339
 20
2697.2781857856198
 30
0.0
 41
60.0
 42
60.0
 43
60.0
 50
270.0
  0
TEXT
  8
3
  40
90
  5
8001
  62
0
  72
0
  71
0
 10
979.270
 20
2982.98
 30
0.000000
  1
890
  0
POINT
  5
7F80
  8
DEFPOINTS
  6
CONTINUOUS
 62
     0
 10
1597.8443770720351
 20
3587.2781857856212
 30
0.0
  0
POINT
  5
7F81
  8
DEFPOINTS
  6
CONTINUOUS
 62
     0
 10
1790.736334072034
 20
2697.2781857856198
 30
0.0
  0
POINT
  5
7F82
  8
DEFPOINTS
  6
CONTINUOUS
 62
     0
 10
1234.2695040720339
 20
2697.2781857856198
 30
0.0
  0
ENDBLK
  5
7D9B
  8
0
  0
BLOCK
  8
0
  2
*D4
 70
     1
 10
0.0
 20
0.0
 30
0.0
  3
*D4
  1

  0
LINE
  5
7F83
  8
3
  6
CONTINUOUS
 62
     0
 10
1775.7363340720351
 20
2697.2781857856198
 30
0.0
 11
1204.774501072035
 21
2697.2781857856198
 31
0.0
  0
LINE
  5
7F84
  8
3
  6
CONTINUOUS
 62
     0
 10
1775.7363340720351
 20
2571.2781857856212
 30
0.0
 11
1204.774501072035
 21
2571.2781857856212
 31
0.0
  0
LINE
  5
7F85
  8
3
  6
CONTINUOUS
 62
     0
 10
1234.774501072035
 20
2757.2781857856212
 30
0.0
 11
1234.774501072035
 21
2817.2781857856212
 31
0.0
  0
LINE
  5
7F86
  8
3
  6
CONTINUOUS
 62
     0
 10
1234.774501072035
 20
2511.2781857856212
 30
0.0
 11
1234.774501072035
 21
2181.2781857856198
 31
0.0
  0
LINE
  5
7F87
  8
3
  6
CONTINUOUS
 62
     0
 10
1234.774501072035
 20
2697.2781857856198
 30
0.0
 11
1234.774501072035
 21
2571.2781857856212
 31
0.0
  0
INSERT
  5
7F88
  8
3
  6
CONTINUOUS
 62
     0
  2
_OPEN
 10
1234.774501072035
 20
2697.2781857856198
 30
0.0
 41
60.0
 42
60.0
 43
60.0
 50
270.0
  0
INSERT
  5
7F89
  8
3
  6
CONTINUOUS
 62
     0
  2
_OPEN
 10
1234.774501072035
 20
2571.2781857856212
 30
0.0
 41
60.0
 42
60.0
 43
60.0
 50
90.0
  0
TEXT
  8
3
  40
90
  5
8002
  62
0
  72
0
  71
0
 10
979.775
 20
2156.98
 30
0.000000
  1
126
  0
POINT
  5
7F8B
  8
DEFPOINTS
  6
CONTINUOUS
 62
     0
 10
1790.736334072034
 20
2697.2781857856198
 30
0.0
  0
POINT
  5
7F8C
  8
DEFPOINTS
  6
CONTINUOUS
 62
     0
 10
1790.736334072034
 20
2571.2781857856212
 30
0.0
  0
POINT
  5
7F8D
  8
DEFPOINTS
  6
CONTINUOUS
 62
     0
 10
1234.774501072035
 20
2571.2781857856212
 30
0.0
  0
ENDBLK
  5
7D76
  8
0
  0
BLOCK
  8
0
  2
*D5
 70
     1
 10
0.0
 20
0.0
 30
0.0
  3
*D5
  1

  0
LINE
  5
7F8E
  8
3
  6
CONTINUOUS
 62
     0
 10
1790.736334072034
 20
2556.2781857856198
 30
0.0
 11
1790.736334072034
 21
2356.840256785621
 31
0.0
  0
LINE
  5
7F8F
  8
3
  6
CONTINUOUS
 62
     0
 10
2260.7363340720349
 20
2463.569231785621
 30
0.0
 11
2260.7363340720349
 21
2356.840256785621
 31
0.0
  0
LINE
  5
7F90
  8
3
  6
CONTINUOUS
 62
     0
 10
1850.7363340720351
 20
2386.840256785621
 30
0.0
 11
2200.736334072034
 21
2386.840256785621
 31
0.0
  0
INSERT
  5
7F91
  8
3
  6
CONTINUOUS
 62
     0
  2
_OPEN
 10
1790.736334072034
 20
2386.840256785621
 30
0.0
 41
60.0
 42
60.0
 43
60.0
 50
180.0
  0
INSERT
  5
7F92
  8
3
  6
CONTINUOUS
 62
     0
  2
_OPEN
 10
2260.7363340720349
 20
2386.840256785621
 30
0.0
 41
60.0
 42
60.0
 43
60.0
  0
TEXT
  8
3
  40
90
  5
8003
  62
0
  72
0
  71
0
 10
1875.02
 20
2302.54
 30
0.000000
  1
470
  0
POINT
  5
7F94
  8
DEFPOINTS
  6
CONTINUOUS
 62
     0
 10
1790.736334072034
 20
2571.2781857856212
 30
0.0
  0
POINT
  5
7F95
  8
DEFPOINTS
  6
CONTINUOUS
 62
     0
 10
2260.7363340720349
 20
2478.569231785621
 30
0.0
  0
POINT
  5
7F96
  8
DEFPOINTS
  6
CONTINUOUS
 62
     0
 10
2260.7363340720349
 20
2386.840256785621
 30
0.0
  0
ENDBLK
  5
7BDE
  8
0
  0
BLOCK
  8
0
  2
*D6
 70
     1
 10
0.0
 20
0.0
 30
0.0
  3
*D6
  1

  0
LINE
  5
7F97
  8
3
  6
CONTINUOUS
 62
     0
 10
3290.7363340720349
 20
2556.2781857856198
 30
0.0
 11
3290.7363340720349
 21
2356.840256785621
 31
0.0
  0
LINE
  5
7F98
  8
3
  6
CONTINUOUS
 62
     0
 10
2320.7363340720349
 20
2386.840256785621
 30
0.0
 11
3230.7363340720349
 21
2386.840256785621
 31
0.0
  0
INSERT
  5
7F99
  8
3
  6
CONTINUOUS
 62
     0
  2
_OPEN
 10
2260.7363340720349
 20
2386.840256785621
 30
0.0
 41
60.0
 42
60.0
 43
60.0
 50
180.0
  0
INSERT
  5
7F9A
  8
3
  6
CONTINUOUS
 62
     0
  2
_OPEN
 10
3290.7363340720349
 20
2386.840256785621
 30
0.0
 41
60.0
 42
60.0
 43
60.0
  0
TEXT
  8
3
  40
90
  5
8004
  62
0
  72
0
  71
0
 10
2595.74
 20
2302.54
 30
0.000000
  1
1030
  0
POINT
  5
7F9C
  8
DEFPOINTS
  6
CONTINUOUS
 62
     0
 10
2260.7363340720349
 20
2478.569231785621
 30
0.0
  0
POINT
  5
7F9D
  8
DEFPOINTS
  6
CONTINUOUS
 62
     0
 10
3290.7363340720349
 20
2571.2781857856212
 30
0.0
  0
POINT
  5
7F9E
  8
DEFPOINTS
  6
CONTINUOUS
 62
     0
 10
3290.7363340720349
 20
2386.840256785621
 30
0.0
  0
ENDBLK
  5
7BEA
  8
0
  0
BLOCK
  8
0
  2
*D7
 70
     1
 10
0.0
 20
0.0
 30
0.0
  3
*D7
  1

  0
LINE
  5
7F9F
  8
3
  6
CONTINUOUS
 62
     0
 10
1725.7363340720351
 20
3676.2781857856212
 30
0.0
 11
1725.7363340720351
 21
4288.5733607856209
 31
0.0
  0
LINE
  5
7FA0
  8
3
  6
CONTINUOUS
 62
     0
 10
2260.7363340720349
 20
4259.4368177856204
 30
0.0
 11
2260.7363340720349
 21
4288.5733607856209
 31
0.0
  0
LINE
  5
7FA1
  8
3
  6
CONTINUOUS
 62
     0
 10
1785.7363340720351
 20
4258.5733607856209
 30
0.0
 11
2200.736334072034
 21
4258.5733607856209
 31
0.0
  0
INSERT
  5
7FA2
  8
3
  6
CONTINUOUS
 62
     0
  2
_OPEN
 10
1725.7363340720351
 20
4258.5733607856209
 30
0.0
 41
60.0
 42
60.0
 43
60.0
 50
180.0
  0
INSERT
  5
7FA3
  8
3
  6
CONTINUOUS
 62
     0
  2
_OPEN
 10
2260.7363340720349
 20
4258.5733607856209
 30
0.0
 41
60.0
 42
60.0
 43
60.0
  0
TEXT
  8
3
  40
90
  5
8005
  62
0
  72
0
  71
0
 10
1814.81
 20
4174.27
 30
0.000000
  1
535
  0
POINT
  5
7FA5
  8
DEFPOINTS
  6
CONTINUOUS
 62
     0
 10
1725.7363340720351
 20
3661.2781857856198
 30
0.0
  0
POINT
  5
7FA6
  8
DEFPOINTS
  6
CONTINUOUS
 62
     0
 10
2260.7363340720349
 20
4244.4368177856204
 30
0.0
  0
POINT
  5
7FA7
  8
DEFPOINTS
  6
CONTINUOUS
 62
     0
 10
2260.7363340720349
 20
4258.5733607856209
 30
0.0
  0
ENDBLK
  5
7BF7
  8
0
  0
BLOCK
  8
0
  2
*D8
 70
     1
 10
0.0
 20
0.0
 30
0.0
  3
*D8
  1

  0
LINE
  5
7FA8
  8
3
  6
CONTINUOUS
 62
     0
 10
5004.535348072035
 20
4033.2781857856212
 30
0.0
 11
5004.535348072035
 21
4184.5882007856208
 31
0.0
  0
LINE
  5
7FA9
  8
3
  6
CONTINUOUS
 62
     0
 10
4474.535348072035
 20
4033.2781857856212
 30
0.0
 11
4474.535348072035
 21
4184.5882007856208
 31
0.0
  0
LINE
  5
7FAA
  8
3
  6
CONTINUOUS
 62
     0
 10
4944.535348072035
 20
4154.5882007856198
 30
0.0
 11
4534.535348072035
 21
4154.5882007856198
 31
0.0
  0
INSERT
  5
7FAB
  8
3
  6
CONTINUOUS
 62
     0
  2
_OPEN
 10
5004.535348072035
 20
4154.5882007856198
 30
0.0
 41
60.0
 42
60.0
 43
60.0
  0
INSERT
  5
7FAC
  8
3
  6
CONTINUOUS
 62
     0
  2
_OPEN
 10
4474.535348072035
 20
4154.5882007856198
 30
0.0
 41
60.0
 42
60.0
 43
60.0
 50
180.0
  0
TEXT
  8
3
  40
90
  5
8006
  62
0
  72
0
  71
0
 10
4551.56
 20
4070.29
 30
0.000000
  1
530
  0
POINT
  5
7FAE
  8
DEFPOINTS
  6
CONTINUOUS
 62
     0
 10
5004.535348072035
 20
4018.2781857856212
 30
0.0
  0
POINT
  5
7FAF
  8
DEFPOINTS
  6
CONTINUOUS
 62
     0
 10
4474.535348072035
 20
4018.2781857856212
 30
0.0
  0
POINT
  5
7FB0
  8
DEFPOINTS
  6
CONTINUOUS
 62
     0
 10
4474.535348072035
 20
4154.5882007856198
 30
0.0
  0
ENDBLK
  5
7C10
  8
0
  0
BLOCK
  8
0
  2
*D9
 70
     1
 10
0.0
 20
0.0
 30
0.0
  3
*D9
  1

  0
LINE
  5
7FB1
  8
3
  6
CONTINUOUS
 62
     0
 10
5021.535348072035
 20
3964.2781857856198
 30
0.0
 11
5306.4611580720348
 21
3964.2781857856198
 31
0.0
  0
LINE
  5
7FB2
  8
3
  6
CONTINUOUS
 62
     0
 10
5021.535348072035
 20
3210.2781857856198
 30
0.0
 11
5306.4611580720348
 21
3210.2781857856198
 31
0.0
  0
LINE
  5
7FB3
  8
3
  6
CONTINUOUS
 62
     0
 10
5276.4611580720348
 20
3904.2781857856198
 30
0.0
 11
5276.4611580720348
 21
3270.2781857856198
 31
0.0
  0
INSERT
  5
7FB4
  8
3
  6
CONTINUOUS
 62
     0
  2
_OPEN
 10
5276.4611580720348
 20
3964.2781857856198
 30
0.0
 41
60.0
 42
60.0
 43
60.0
 50
90.0
  0
INSERT
  5
7FB5
  8
3
  6
CONTINUOUS
 62
     0
  2
_OPEN
 10
5276.4611580720348
 20
3210.2781857856198
 30
0.0
 41
60.0
 42
60.0
 43
60.0
 50
270.0
  0
TEXT
  8
3
  40
90
  5
8007
  62
0
  72
0
  71
0
 10
5021.46
 20
3444.78
 30
0.000000
  1
φ754
  0
POINT
  5
7FB7
  8
DEFPOINTS
  6
CONTINUOUS
 62
     0
 10
5006.535348072035
 20
3964.2781857856198
 30
0.0
  0
POINT
  5
7FB8
  8
DEFPOINTS
  6
CONTINUOUS
 62
     0
 10
5006.535348072035
 20
3210.2781857856198
 30
0.0
  0
POINT
  5
7FB9
  8
DEFPOINTS
  6
CONTINUOUS
 62
     0
 10
5276.4611580720348
 20
3210.2781857856198
 30
0.0
  0
ENDBLK
  5
7D3B
  8
0
  0
BLOCK
  8
0
  2
*D10
 70
     1
 10
0.0
 20
0.0
 30
0.0
  3
*D10
  1

  0
LINE
  5
7D52
  8
0
  6
BYBLOCK
 62
     0
 10
5006.535348072035
 20
3979.2781857856198
 30
0.0
 11
5006.535348072035
 21
4423.1424167856212
 31
0.0
  0
LINE
  5
7D53
  8
0
  6
BYBLOCK
 62
     0
 10
4739.535348072035
 20
4329.13281678562
 30
0.0
 11
4739.535348072035
 21
4423.1424167856212
 31
0.0
  0
LINE
  5
7D54
  8
0
  6
BYBLOCK
 62
     0
 10
4946.535348072035
 20
4393.1424167856212
 30
0.0
 11
4799.535348072035
 21
4393.1424167856212
 31
0.0
  0
TEXT
  5
7D55
  8
3
 62
     0
 10
4763.512761067821
 20
4430.4953888671516
 30
0.0
 40
90.0
  1
267
  0
INSERT
  5
7D56
  8
0
  6
BYBLOCK
 62
     0
  2
_OPEN
 10
5006.535348072035
 20
4393.1424167856212
 30
0.0
 41
60.0
 42
60.0
 43
60.0
  0
INSERT
  5
7D57
  8
0
  6
BYBLOCK
 62
     0
  2
_OPEN
 10
4739.535348072035
 20
4393.1424167856212
 30
0.0
 41
60.0
 42
60.0
 43
60.0
 50
180.0
  0
POINT
  5
7D58
  8
DEFPOINTS
  6
BYBLOCK
 62
     0
 10
5006.535348072035
 20
3964.2781857856198
 30
0.0
  0
POINT
  5
7D59
  8
DEFPOINTS
  6
BYBLOCK
 62
     0
 10
4739.535348072035
 20
4314.1328167856209
 30
0.0
  0
POINT
  5
7D5A
  8
DEFPOINTS
  6
BYBLOCK
 62
     0
 10
4739.535348072035
 20
4393.1424167856212
 30
0.0
  0
ENDBLK
  5
7D5B
  8
0
  0
BLOCK
  8
0
  2
*D11
 70
     1
 10
0.0
 20
0.0
 30
0.0
  3
*D11
  1

  0
LINE
  5
7FBA
  8
3
  6
CONTINUOUS
 62
     0
 10
4296.535348072035
 20
2556.2781857856198
 30
0.0
 11
4296.535348072035
 21
2287.6479307856198
 31
0.0
  0
LINE
  5
7FBB
  8
3
  6
CONTINUOUS
 62
     0
 10
4739.535348072035
 20
2322.4149927856201
 30
0.0
 11
4739.535348072035
 21
2347.6479307856198
 31
0.0
  0
LINE
  5
7FBC
  8
3
  6
CONTINUOUS
 62
     0
 10
4356.535348072035
 20
2317.6479307856212
 30
0.0
 11
4679.535348072035
 21
2317.6479307856212
 31
0.0
  0
INSERT
  5
7FBD
  8
3
  6
CONTINUOUS
 62
     0
  2
_OPEN
 10
4296.535348072035
 20
2317.6479307856212
 30
0.0
 41
60.0
 42
60.0
 43
60.0
 50
180.0
  0
INSERT
  5
7FBE
  8
3
  6
CONTINUOUS
 62
     0
  2
_OPEN
 10
4739.535348072035
 20
2317.6479307856212
 30
0.0
 41
60.0
 42
60.0
 43
60.0
  0
TEXT
  8
3
  40
90
  5
8008
  62
0
  72
0
  71
0
 10
4353.82
 20
2233.35
 30
0.000000
  1
443
  0
POINT
  5
7FC0
  8
DEFPOINTS
  6
CONTINUOUS
 62
     0
 10
4296.535348072035
 20
2571.2781857856212
 30
0.0
  0
POINT
  5
7FC1
  8
DEFPOINTS
  6
CONTINUOUS
 62
     0
 10
4739.535348072035
 20
2307.4149927856201
 30
0.0
  0
POINT
  5
7FC2
  8
DEFPOINTS
  6
CONTINUOUS
 62
     0
 10
4739.535348072035
 20
2317.6479307856212
 30
0.0
  0
ENDBLK
  5
7CEC
  8
0
  0
BLOCK
  8
0
  2
*D12
 70
     1
 10
0.0
 20
0.0
 30
0.0
  3
*D12
  1

  0
LINE
  5
7FC3
  8
3
  6
CONTINUOUS
 62
     0
 10
5056.535348072035
 20
2556.2781857856198
 30
0.0
 11
5056.535348072035
 21
2287.6479307856198
 31
0.0
  0
LINE
  5
7FC4
  8
3
  6
CONTINUOUS
 62
     0
 10
4799.535348072035
 20
2317.6479307856212
 30
0.0
 11
4996.535348072035
 21
2317.6479307856212
 31
0.0
  0
TEXT
  8
3
  40
90
  5
8009
  62
0
  72
0
  71
0
 10
4727.75
 20
2228.19
 30
0.000000
  1
317
  0
INSERT
  5
7FC6
  8
3
  6
CONTINUOUS
 62
     0
  2
_OPEN
 10
4739.535348072035
 20
2317.6479307856212
 30
0.0
 41
60.0
 42
60.0
 43
60.0
 50
180.0
  0
INSERT
  5
7FC7
  8
3
  6
CONTINUOUS
 62
     0
  2
_OPEN
 10
5056.535348072035
 20
2317.6479307856212
 30
0.0
 41
60.0
 42
60.0
 43
60.0
  0
POINT
  5
7FC8
  8
DEFPOINTS
  6
CONTINUOUS
 62
     0
 10
4739.535348072035
 20
2307.4149927856201
 30
0.0
  0
POINT
  5
7FC9
  8
DEFPOINTS
  6
CONTINUOUS
 62
     0
 10
5056.535348072035
 20
2571.2781857856212
 30
0.0
  0
POINT
  5
7FCA
  8
DEFPOINTS
  6
CONTINUOUS
 62
     0
 10
5056.535348072035
 20
2317.6479307856212
 30
0.0
  0
ENDBLK
  5
7D1A
  8
0
  0
BLOCK
  8
0
  2
*D13
 70
     1
 10
0.0
 20
0.0
 30
0.0
  3
*D13
  1

  0
LINE
  5
7FCB
  8
3
  6
CONTINUOUS
 62
     0
 10
1790.736334072034
 20
6077.3487812968733
 30
0.0
 11
1790.736334072034
 21
6329.4998682968717
 31
0.0
  0
LINE
  5
7FCC
  8
3
  6
CONTINUOUS
 62
     0
 10
3290.7363340720349
 20
6077.3487812968733
 30
0.0
 11
3290.7363340720349
 21
6329.4998682968717
 31
0.0
  0
LINE
  5
7FCD
  8
3
  6
CONTINUOUS
 62
     0
 10
1850.7363340720351
 20
6299.4998682968726
 30
0.0
 11
3230.7363340720349
 21
6299.4998682968726
 31
0.0
  0
INSERT
  5
7FCE
  8
3
  6
CONTINUOUS
 62
     0
  2
_OPEN
 10
1790.736334072034
 20
6299.4998682968726
 30
0.0
 41
60.0
 42
60.0
 43
60.0
 50
180.0
  0
INSERT
  5
7FCF
  8
3
  6
CONTINUOUS
 62
     0
  2
_OPEN
 10
3290.7363340720349
 20
6299.4998682968726
 30
0.0
 41
60.0
 42
60.0
 43
60.0
  0
TEXT
  8
3
  40
90
  5
800A
  62
0
  72
0
  71
0
 10
2365.83
 20
6215.20
 30
0.000000
  1
1500
  0
POINT
  5
7FD1
  8
DEFPOINTS
  6
CONTINUOUS
 62
     0
 10
1790.736334072034
 20
6062.3487812968733
 30
0.0
  0
POINT
  5
7FD2
  8
DEFPOINTS
  6
CONTINUOUS
 62
     0
 10
3290.7363340720349
 20
6062.3487812968733
 30
0.0
  0
POINT
  5
7FD3
  8
DEFPOINTS
  6
CONTINUOUS
 62
     0
 10
3290.7363340720349
 20
6299.4998682968726
 30
0.0
  0
ENDBLK
  5
7CE1
  8
0
  0
BLOCK
  8
0
  2
*D14
 70
     1
 10
0.0
 20
0.0
 30
0.0
  3
*D14
  1

  0
LINE
  5
7FD4
  8
3
  6
CONTINUOUS
 62
     0
 10
3305.7363340720349
 20
6062.3487812968733
 30
0.0
 11
3555.4298040720359
 21
6062.3487812968733
 31
0.0
  0
LINE
  5
7FD5
  8
3
  6
CONTINUOUS
 62
     0
 10
3305.7363340720349
 20
5302.3487812968733
 30
0.0
 11
3555.4298040720359
 21
5302.3487812968733
 31
0.0
  0
LINE
  5
7FD6
  8
3
  6
CONTINUOUS
 62
     0
 10
3525.429804072035
 20
6002.3487812968733
 30
0.0
 11
3525.429804072035
 21
5362.3487812968733
 31
0.0
  0
INSERT
  5
7FD7
  8
3
  6
CONTINUOUS
 62
     0
  2
_OPEN
 10
3525.429804072035
 20
6062.3487812968733
 30
0.0
 41
60.0
 42
60.0
 43
60.0
 50
90.0
  0
INSERT
  5
7FD8
  8
3
  6
CONTINUOUS
 62
     0
  2
_OPEN
 10
3525.429804072035
 20
5302.3487812968733
 30
0.0
 41
60.0
 42
60.0
 43
60.0
 50
270.0
  0
TEXT
  8
3
  40
90
  5
800B
  62
0
  72
0
  71
0
 10
3270.43
 20
5526.66
 30
0.000000
  1
760
  0
POINT
  5
7FDA
  8
DEFPOINTS
  6
CONTINUOUS
 62
     0
 10
3290.7363340720349
 20
6062.3487812968733
 30
0.0
  0
POINT
  5
7FDB
  8
DEFPOINTS
  6
CONTINUOUS
 62
     0
 10
3290.7363340720349
 20
5302.3487812968733
 30
0.0
  0
POINT
  5
7FDC
  8
DEFPOINTS
  6
CONTINUOUS
 62
     0
 10
3525.429804072035
 20
5302.3487812968733
 30
0.0
  0
ENDBLK
  5
7C85
  8
0
  0
BLOCK
  8
0
  2
*D15
 70
     1
 10
0.0
 20
0.0
 30
0.0
  3
*D15
  1

  0
LINE
  5
7FDD
  8
3
  6
CONTINUOUS
 62
     0
 10
2846.7338600720341
 20
3602.2781857856212
 30
0.0
 11
2846.7338600720341
 21
4288.5733607856209
 31
0.0
  0
LINE
  5
7FDE
  8
3
  6
CONTINUOUS
 62
     0
 10
2320.7363340720349
 20
4258.5733607856209
 30
0.0
 11
2786.7338600720341
 21
4258.5733607856209
 31
0.0
  0
INSERT
  5
7FDF
  8
3
  6
CONTINUOUS
 62
     0
  2
_OPEN
 10
2260.7363340720349
 20
4258.5733607856209
 30
0.0
 41
60.0
 42
60.0
 43
60.0
 50
180.0
  0
INSERT
  5
7FE0
  8
3
  6
CONTINUOUS
 62
     0
  2
_OPEN
 10
2846.7338600720341
 20
4258.5733607856209
 30
0.0
 41
60.0
 42
60.0
 43
60.0
  0
TEXT
  8
3
  40
90
  5
800C
  62
0
  72
0
  71
0
 10
2373.74
 20
4174.27
 30
0.000000
  1
586
  0
POINT
  5
7FE2
  8
DEFPOINTS
  6
CONTINUOUS
 62
     0
 10
2260.7363340720349
 20
4244.4368177856204
 30
0.0
  0
POINT
  5
7FE3
  8
DEFPOINTS
  6
CONTINUOUS
 62
     0
 10
2846.7338600720341
 20
3587.2781857856212
 30
0.0
  0
POINT
  5
7FE4
  8
DEFPOINTS
  6
CONTINUOUS
 62
     0
 10
2846.7338600720341
 20
4258.5733607856209
 30
0.0
  0
ENDBLK
  5
7CCA
  8
0
  0
BLOCK
  8
0
  2
*D16
 70
     1
 10
0.0
 20
0.0
 30
0.0
  3
*D16
  1

  0
LINE
  5
7FE5
  8
3
  6
CONTINUOUS
 62
     0
 10
4239.535348072035
 20
3952.2781857856212
 30
0.0
 11
4239.535348072035
 21
4423.1424167856212
 31
0.0
  0
LINE
  5
7FE6
  8
3
  6
CONTINUOUS
 62
     0
 10
4679.535348072035
 20
4393.1424167856212
 30
0.0
 11
4299.535348072035
 21
4393.1424167856212
 31
0.0
  0
INSERT
  5
7FE7
  8
3
  6
CONTINUOUS
 62
     0
  2
_OPEN
 10
4739.535348072035
 20
4393.1424167856212
 30
0.0
 41
60.0
 42
60.0
 43
60.0
  0
INSERT
  5
7FE8
  8
3
  6
CONTINUOUS
 62
     0
  2
_OPEN
 10
4239.535348072035
 20
4393.1424167856212
 30
0.0
 41
60.0
 42
60.0
 43
60.0
 50
180.0
  0
TEXT
  8
3
  40
90
  5
800D
  62
0
  72
0
  71
0
 10
4309.54
 20
4383.84
 30
0.000000
  1
MAX
  0
TEXT
  8
3
  40
90
  5
800E
  62
0
  72
0
  71
0
 10
4309.54
 20
4266.84
 30
0.000000
  1
560
  0
POINT
  5
7FEA
  8
DEFPOINTS
  6
CONTINUOUS
 62
     0
 10
4739.535348072035
 20
4314.1328167856209
 30
0.0
  0
POINT
  5
7FEB
  8
DEFPOINTS
  6
CONTINUOUS
 62
     0
 10
4239.535348072035
 20
3937.2781857856212
 30
0.0
  0
POINT
  5
7FEC
  8
DEFPOINTS
  6
CONTINUOUS
 62
     0
 10
4239.535348072035
 20
4393.1424167856212
 30
0.0
  0
ENDBLK
  5
7D45
  8
0
  0
BLOCK
  8
0
  2
*D17
 70
     1
 10
0.0
 20
0.0
 30
0.0
  3
*D17
  1

  0
LINE
  5
7FED
  8
3
 62
     0
 10
1725.7363340720351
 20
3691.2781857856212
 30
0.0
 11
1725.7363340720351
 21
4463.0199888823154
 31
0.0
  0
LINE
  5
7FEE
  8
3
 62
     0
 10
3290.7363340720349
 20
2812.2781857856198
 30
0.0
 11
3290.7363340720349
 21
4463.0199888823154
 31
0.0
  0
LINE
  5
7FEF
  8
3
 62
     0
 10
1785.7363340720351
 20
4433.0199888823154
 30
0.0
 11
3230.7363340720349
 21
4433.0199888823154
 31
0.0
  0
INSERT
  5
7FF0
  8
3
 62
     0
  2
_OPEN
 10
1725.7363340720351
 20
4433.0199888823154
 30
0.0
 41
60.0
 42
60.0
 43
60.0
 50
180.0
  0
INSERT
  5
7FF1
  8
3
 62
     0
  2
_OPEN
 10
3290.7363340720349
 20
4433.0199888823154
 30
0.0
 41
60.0
 42
60.0
 43
60.0
  0
TEXT
  8
3
  40
90
  5
800F
  62
0
  72
0
  71
0
 10
2324.71
 20
4348.72
 30
0.000000
  1
1565
  0
POINT
  5
7FF3
  8
DEFPOINTS
 62
     0
 10
1725.7363340720351
 20
3676.2781857856212
 30
0.0
  0
POINT
  5
7FF4
  8
DEFPOINTS
 62
     0
 10
3290.7363340720349
 20
2797.2781857856212
 30
0.0
  0
POINT
  5
7FF5
  8
DEFPOINTS
 62
     0
 10
3290.7363340720349
 20
4433.0199888823154
 30
0.0
  0
ENDBLK
  5
7D67
  8
0
  0
BLOCK
  8
0
  2
*D18
 70
     1
 10
0.0
 20
0.0
 30
0.0
  3
*D18
  1

  0
LINE
  5
7FF6
  8
3
 62
     0
 10
1582.8443770720351
 20
3587.2781857856212
 30
0.0
 11
1204.2695040720339
 21
3587.2781857856212
 31
0.0
  0
LINE
  5
7FF7
  8
3
 62
     0
 10
2275.7363340720349
 20
4096.5743255677644
 30
0.0
 11
1204.2695040720339
 21
4096.5743255677653
 31
0.0
  0
LINE
  5
7FF8
  8
3
 62
     0
 10
1234.269504072035
 20
3647.2781857856198
 30
0.0
 11
1234.269504072035
 21
4036.5743255677648
 31
0.0
  0
INSERT
  5
7FF9
  8
3
 62
     0
  2
_OPEN
 10
1234.269504072035
 20
3587.2781857856212
 30
0.0
 41
60.0
 42
60.0
 43
60.0
 50
270.0
  0
INSERT
  5
7FFA
  8
3
 62
     0
  2
_OPEN
 10
1234.269504072035
 20
4096.5743255677653
 30
0.0
 41
60.0
 42
60.0
 43
60.0
 50
90.0
  0
TEXT
  8
3
  40
90
  5
8010
  62
0
  72
0
  71
0
 10
979.270
 20
3682.63
 30
0.000000
  1
508
  0
POINT
  5
7FFC
  8
DEFPOINTS
 62
     0
 10
1597.8443770720351
 20
3587.2781857856212
 30
0.0
  0
POINT
  5
7FFD
  8
DEFPOINTS
 62
     0
 10
2290.736334072034
 20
4096.5743255677644
 30
0.0
  0
POINT
  5
7FFE
  8
DEFPOINTS
 62
     0
 10
1234.269504072035
 20
4096.5743255677653
 30
0.0
  0
ENDBLK
  5
7DC4
  8
0
  0
ENDSEC
  0
SECTION
  2
ENTITIES
  0
LINE
  5
7AB0
  8
1
  6
CONTINUOUS
 10
3029.7963340720348
 20
2929.4481857856199
 30
0.0
 11
2181.2063340720351
 21
3460.0981857856209
 31
0.0
  0
LINE
  5
7AB1
  8
1
  6
CONTINUOUS
 10
3123.656334072035
 20
3058.538185785621
 30
0.0
 11
2357.196334072034
 21
3702.1481857856202
 31
0.0
  0
LINE
  5
7AB5
  8
1
  6
CONTINUOUS
 10
1725.7363340720351
 20
3661.2781857856198
 30
0.0
 11
1725.7363340720351
 21
2851.2781857856198
 31
0.0
  0
LINE
  5
7AB6
  8
1
  6
CONTINUOUS
 10
1755.7363340720351
 20
3621.2781857856198
 30
0.0
 11
1755.7363340720351
 21
2892.1781857856208
 31
0.0
  0
LINE
  5
7AB7
  8
1
  6
CONTINUOUS
 10
2410.7363340720349
 20
3937.2781857856212
 30
0.0
 11
3250.736334072034
 21
3097.2781857856198
 31
0.0
  0
LINE
  5
7AB8
  8
1
  6
CONTINUOUS
 10
1890.736334072034
 20
2797.2781857856212
 30
0.0
 11
1890.736334072034
 21
3937.2781857856212
 31
0.0
  0
ARC
  5
7AB9
  8
1
  6
CONTINUOUS
 10
2213.736334072034
 20
3540.2781857856198
 30
0.0
 40
634.74000000000001
 50
274.25
 51
5.3099999999999987
  0
LINE
  5
7ABA
  8
1
  6
CONTINUOUS
 10
1790.736334072034
 20
2697.2781857856198
 30
0.0
 11
3290.7363340720349
 21
2697.2781857856198
 31
0.0
  0
LINE
  5
7ABB
  8
1
  6
CONTINUOUS
 10
1790.736334072034
 20
2797.2781857856212
 30
0.0
 11
3290.7363340720349
 21
2797.2781857856212
 31
0.0
  0
LINE
  5
7ABC
  8
1
  6
CONTINUOUS
 10
1725.7363340720351
 20
2891.2781857856198
 30
0.0
 11
2260.7363340720349
 21
2907.2781857856212
 31
0.0
  0
LINE
  5
7ABD
  8
1
  6
CONTINUOUS
 10
1790.736334072034
 20
2571.2781857856212
 30
0.0
 11
3290.7363340720349
 21
2571.2781857856212
 31
0.0
  0
LINE
  5
7ABE
  8
1
  6
CONTINUOUS
 10
1790.736334072034
 20
2671.2781857856198
 30
0.0
 11
3290.7363340720349
 21
2671.2781857856198
 31
0.0
  0
LINE
  5
7ABF
  8
1
  6
CONTINUOUS
 10
1790.736334072034
 20
2797.2781857856212
 30
0.0
 11
1790.736334072034
 21
2697.2781857856198
 31
0.0
  0
LINE
  5
7AC0
  8
1
  6
CONTINUOUS
 10
1790.736334072034
 20
2671.2781857856198
 30
0.0
 11
1790.736334072034
 21
2571.2781857856212
 31
0.0
  0
CIRCLE
  5
7AC1
  8
1
  6
CONTINUOUS
 10
3072.216334072034
 20
2997.2781857856212
 30
0.0
 40
80.0
  0
ARC
  5
7AC2
  8
1
  6
CONTINUOUS
 10
3072.216334072034
 20
2997.2781857856212
 30
0.0
 40
162.0
 50
324.97000000000003
 51
215.02999999999989
  0
LINE
  5
7AC3
  8
2
  6
CENTER
 10
3152.2163340720349
 20
2997.2781857856212
 30
0.0
 11
2992.216334072034
 21
2997.2781857856212
 31
0.0
  0
LINE
  5
7AC4
  8
1
  6
CONTINUOUS
 10
2918.2163340720349
 20
2797.2781857856212
 30
0.0
 11
2918.2163340720349
 21
2855.2781857856198
 31
0.0
  0
LINE
  5
7AC5
  8
1
  6
CONTINUOUS
 10
2918.2163340720349
 20
2855.2781857856198
 30
0.0
 11
2939.556334072035
 21
2904.28818578562
 31
0.0
  0
LINE
  5
7AC6
  8
1
  6
CONTINUOUS
 10
3290.7363340720349
 20
2797.2781857856212
 30
0.0
 11
3290.7363340720349
 21
2697.2781857856198
 31
0.0
  0
LINE
  5
7AC7
  8
1
  6
CONTINUOUS
 10
3250.736334072034
 20
2797.2781857856212
 30
0.0
 11
3250.736334072034
 21
3097.2781857856198
 31
0.0
  0
LINE
  5
7AC8
  8
1
  6
CONTINUOUS
 10
3226.216334072034
 20
2855.2781857856198
 30
0.0
 11
3204.866334072035
 21
2904.28818578562
 31
0.0
  0
LINE
  5
7AC9
  8
1
  6
CONTINUOUS
 10
3226.216334072034
 20
2797.2781857856212
 30
0.0
 11
3226.216334072034
 21
2855.2781857856198
 31
0.0
  0
LINE
  5
7ACA
  8
2
  6
CENTER
 10
3072.216334072034
 20
2917.2781857856212
 30
0.0
 11
3072.216334072034
 21
3077.2781857856212
 31
0.0
  0
LINE
  5
7ACB
  8
1
  6
CONTINUOUS
 10
3290.7363340720349
 20
2671.2781857856198
 30
0.0
 11
3290.7363340720349
 21
2571.2781857856212
 31
0.0
  0
LINE
  5
7ACD
  8
1
  6
CONTINUOUS
 10
1890.736334072034
 20
5385.3487812968733
 30
0.0
 11
3250.736334072034
 21
5385.3487812968733
 31
0.0
  0
LINE
  5
7ACE
  8
1
  6
CONTINUOUS
 10
1890.736334072034
 20
5245.3487812968733
 30
0.0
 11
3250.736334072034
 21
5245.3487812968733
 31
0.0
  0
LINE
  5
7ACF
  8
1
  6
CONTINUOUS
 10
1725.7363340720351
 20
6010.3487812968733
 30
0.0
 11
2848.4763340720351
 21
6010.3487812968733
 31
0.0
  0
LINE
  5
7AD0
  8
1
  6
CONTINUOUS
 10
1725.7363340720351
 20
5480.3487812968733
 30
0.0
 11
2848.4763340720351
 21
5480.3487812968733
 31
0.0
  0
LINE
  5
7AD1
  8
1
  6
CONTINUOUS
 10
1790.736334072034
 20
5302.3487812968733
 30
0.0
 11
2110.7363340720349
 21
5302.3487812968733
 31
0.0
  0
LINE
  5
7AD2
  8
1
  6
CONTINUOUS
 10
1890.736334072034
 20
3937.2781857856212
 30
0.0
 11
2410.7363340720349
 21
3937.2781857856212
 31
0.0
  0
ARC
  5
7AD3
  8
1
  6
CONTINUOUS
 10
2290.736334072034
 20
3617.2781857856198
 30
0.0
 40
478.79000000000002
 50
97.430000000000021
 51
179.52000000000001
  0
LINE
  5
7AD4
  8
1
  6
CONTINUOUS
 10
1790.736334072034
 20
6062.3487812968733
 30
0.0
 11
3290.7363340720349
 21
6062.3487812968733
 31
0.0
  0
LINE
  5
7AD5
  8
1
  6
CONTINUOUS
 10
1811.9663340720349
 20
3621.2781857856198
 30
0.0
 11
1725.7363340720351
 21
3621.2781857856198
 31
0.0
  0
LINE
  5
7AD6
  8
1
  6
CONTINUOUS
 10
1890.736334072034
 20
5245.3487812968733
 30
0.0
 11
1890.736334072034
 21
5385.3487812968733
 31
0.0
  0
LINE
  5
7AD7
  8
1
  6
CONTINUOUS
 10
1725.7363340720351
 20
6050.3487812968733
 30
0.0
 11
1725.7363340720351
 21
5440.3487812968733
 31
0.0
  0
LINE
  5
7AD8
  8
1
  6
CONTINUOUS
 10
1790.736334072034
 20
6062.3487812968733
 30
0.0
 11
1790.736334072034
 21
6010.3487812968733
 31
0.0
  0
LINE
  5
7AD9
  8
1
  6
CONTINUOUS
 10
1790.736334072034
 20
5480.3487812968733
 30
0.0
 11
1790.736334072034
 21
5302.3487812968733
 31
0.0
  0
LINE
  5
7ADA
  8
2
  6
CENTER
 10
2260.7363340720349
 20
6186.3197662968741
 30
0.0
 11
2260.7363340720349
 21
5062.316176296873
 31
0.0
  0
LINE
  5
7ADB
  8
2
  6
CENTER
 10
1597.8443770720351
 20
3587.2781857856212
 30
0.0
 11
3050.222050072035
 21
3587.2781857856212
 31
0.0
  0
CIRCLE
  5
7ADC
  8
1
  6
CONTINUOUS
 10
2260.7363340720349
 20
3587.2781857856212
 30
0.0
 40
150.0
  0
ARC
  5
7ADD
  8
1
  6
CONTINUOUS
 10
2299.736334072034
 20
3548.2781857856212
 30
0.0
 40
548.36999999999989
 50
5.3099999999999987
 51
97.430000000000021
  0
LINE
  5
7ADE
  8
1
  6
CONTINUOUS
 10
2992.216334072034
 20
5355.3487812968733
 30
0.0
 11
3152.2163340720349
 21
5355.3487812968733
 31
0.0
  0
LINE
  5
7ADF
  8
1
  6
CONTINUOUS
 10
2992.216334072034
 20
5275.3487812968733
 30
0.0
 11
3152.2163340720349
 21
5275.3487812968733
 31
0.0
  0
LINE
  5
7AE0
  8
1
  6
CONTINUOUS
 10
3239.1963340720349
 20
5441.3587812968726
 30
0.0
 11
2910.2163340720349
 21
5441.3587812968726
 31
0.0
  0
LINE
  5
7AE1
  8
1
  6
CONTINUOUS
 10
3239.1963340720349
 20
5897.2987812968731
 30
0.0
 11
2910.2163340720349
 21
5897.2987812968731
 31
0.0
  0
LINE
  5
7AE2
  8
1
  6
CONTINUOUS
 10
2239.7363340720349
 20
5355.3487812968733
 30
0.0
 11
2239.7363340720349
 21
5480.3487812968733
 31
0.0
  0
LINE
  5
7AE3
  8
1
  6
CONTINUOUS
 10
2281.736334072034
 20
5355.3487812968733
 30
0.0
 11
2281.736334072034
 21
5480.3487812968733
 31
0.0
  0
LINE
  5
7AE4
  8
1
  6
CONTINUOUS
 10
2110.7363340720349
 20
5355.3487812968733
 30
0.0
 11
2410.7363340720349
 21
5355.3487812968733
 31
0.0
  0
LINE
  5
7AE5
  8
1
  6
CONTINUOUS
 10
2110.7363340720349
 20
5275.3487812968733
 30
0.0
 11
2410.7363340720349
 21
5275.3487812968733
 31
0.0
  0
LINE
  5
7AE6
  8
1
  6
CONTINUOUS
 10
2110.7363340720349
 20
5275.3487812968733
 30
0.0
 11
2110.7363340720349
 21
5355.3487812968733
 31
0.0
  0
LINE
  5
7AE7
  8
1
  6
CONTINUOUS
 10
2410.7363340720349
 20
5275.3487812968733
 30
0.0
 11
2410.7363340720349
 21
5355.3487812968733
 31
0.0
  0
LINE
  5
7AE8
  8
1
  6
CONTINUOUS
 10
2992.216334072034
 20
5275.3487812968733
 30
0.0
 11
2992.216334072034
 21
5355.3487812968733
 31
0.0
  0
LINE
  5
7AE9
  8
1
  6
CONTINUOUS
 10
2848.4763340720351
 20
6010.3487812968733
 30
0.0
 11
2848.4763340720351
 21
5480.3487812968733
 31
0.0
  0
LINE
  5
7AEA
  8
1
  6
CONTINUOUS
 10
2910.2163340720349
 20
5441.3587812968726
 30
0.0
 11
2910.2163340720349
 21
5897.2987812968731
 31
0.0
  0
LINE
  5
7AEB
  8
1
  6
CONTINUOUS
 10
3051.2163340720349
 20
5355.3487812968733
 30
0.0
 11
3051.2163340720349
 21
5441.3587812968726
 31
0.0
  0
LINE
  5
7AEC
  8
1
  6
CONTINUOUS
 10
2410.7363340720349
 20
5302.3487812968733
 30
0.0
 11
2992.216334072034
 21
5302.3487812968733
 31
0.0
  0
LINE
  5
7AED
  8
1
  6
CONTINUOUS
 10
3152.2163340720349
 20
5275.3487812968733
 30
0.0
 11
3152.2163340720349
 21
5355.3487812968733
 31
0.0
  0
LINE
  5
7AEE
  8
1
  6
CONTINUOUS
 10
3250.736334072034
 20
5245.3487812968733
 30
0.0
 11
3250.736334072034
 21
5385.3487812968733
 31
0.0
  0
LINE
  5
7AEF
  8
1
  6
CONTINUOUS
 10
3290.7363340720349
 20
6062.3487812968733
 30
0.0
 11
3290.7363340720349
 21
5302.3487812968733
 31
0.0
  0
LINE
  5
7AF0
  8
1
  6
CONTINUOUS
 10
3239.1963340720349
 20
5441.3587812968726
 30
0.0
 11
3239.1963340720349
 21
5897.2987812968731
 31
0.0
  0
LINE
  5
7AF1
  8
1
  6
CONTINUOUS
 10
3093.2163340720349
 20
5355.3487812968733
 30
0.0
 11
3093.2163340720349
 21
5441.3587812968726
 31
0.0
  0
LINE
  5
7AF2
  8
1
  6
CONTINUOUS
 10
3152.2163340720349
 20
5302.3487812968733
 30
0.0
 11
3290.7363340720349
 21
5302.3487812968733
 31
0.0
  0
LINE
  5
7AF7
  8
1
  6
CONTINUOUS
 10
4474.535348072035
 20
4018.2781857856212
 30
0.0
 11
4474.535348072035
 21
2797.2781857856212
 31
0.0
  0
LINE
  5
7AF8
  8
1
  6
CONTINUOUS
 10
5004.535348072035
 20
4018.2781857856212
 30
0.0
 11
5004.535348072035
 21
2797.2781857856212
 31
0.0
  0
LINE
  5
7AF9
  8
1
  6
CONTINUOUS
 10
5004.535348072035
 20
3621.2781857856198
 30
0.0
 11
4474.535348072035
 21
2891.2781857856198
 31
0.0
  0
LINE
  5
7AFA
  8
1
  6
CONTINUOUS
 10
4474.535348072035
 20
3621.2781857856198
 30
0.0
 11
5004.535348072035
 21
2891.2781857856198
 31
0.0
  0
LINE
  5
7AFB
  8
1
  6
CONTINUOUS
 10
4239.535348072035
 20
3937.2781857856212
 30
0.0
 11
4239.535348072035
 21
2797.2781857856212
 31
0.0
  0
LINE
  5
7AFC
  8
1
  6
CONTINUOUS
 10
4379.5353480720341
 20
3937.2781857856212
 30
0.0
 11
4379.5353480720341
 21
2797.2781857856212
 31
0.0
  0
LINE
  5
7B17
  8
1
  6
CONTINUOUS
 10
5056.535348072035
 20
2671.2781857856198
 30
0.0
 11
4296.535348072035
 21
2671.2781857856198
 31
0.0
  0
LINE
  5
7B18
  8
1
  6
CONTINUOUS
 10
5056.535348072035
 20
2571.2781857856212
 30
0.0
 11
4296.535348072035
 21
2571.2781857856212
 31
0.0
  0
LINE
  5
7B19
  8
1
  6
CONTINUOUS
 10
4474.535348072035
 20
2891.2781857856198
 30
0.0
 11
5004.535348072035
 21
2891.2781857856198
 31
0.0
  0
LINE
  5
7B1A
  8
1
  6
CONTINUOUS
 10
5056.535348072035
 20
2697.2781857856198
 30
0.0
 11
4296.535348072035
 21
2697.2781857856198
 31
0.0
  0
LINE
  5
7B1B
  8
1
  6
CONTINUOUS
 10
5056.535348072035
 20
2797.2781857856212
 30
0.0
 11
4239.535348072035
 21
2797.2781857856212
 31
0.0
  0
LINE
  5
7B1F
  8
1
  6
CONTINUOUS
 10
4296.535348072035
 20
2671.2781857856198
 30
0.0
 11
4296.535348072035
 21
2571.2781857856212
 31
0.0
  0
LINE
  5
7B20
  8
1
  6
CONTINUOUS
 10
4296.535348072035
 20
2797.2781857856212
 30
0.0
 11
4296.535348072035
 21
2697.2781857856198
 31
0.0
  0
LINE
  5
7B21
  8
1
  6
CONTINUOUS
 10
4349.535348072035
 20
2877.2781857856212
 30
0.0
 11
4349.535348072035
 21
3037.2781857856198
 31
0.0
  0
LINE
  5
7B22
  8
1
  6
CONTINUOUS
 10
4269.535348072035
 20
2877.2781857856212
 30
0.0
 11
4269.535348072035
 21
3037.2781857856198
 31
0.0
  0
LINE
  5
7B23
  8
1
  6
CONTINUOUS
 10
4269.535348072035
 20
2877.2781857856212
 30
0.0
 11
4349.535348072035
 21
2877.2781857856212
 31
0.0
  0
LINE
  5
7B24
  8
1
  6
CONTINUOUS
 10
4269.535348072035
 20
3037.2781857856198
 30
0.0
 11
4349.535348072035
 21
3037.2781857856198
 31
0.0
  0
LINE
  5
7B25
  8
1
  6
CONTINUOUS
 10
4349.535348072035
 20
2978.2781857856212
 30
0.0
 11
4474.535348072035
 21
2978.2781857856212
 31
0.0
  0
LINE
  5
7B26
  8
1
  6
CONTINUOUS
 10
4349.535348072035
 20
2936.2781857856212
 30
0.0
 11
4474.535348072035
 21
2936.2781857856212
 31
0.0
  0
LINE
  5
7B27
  8
1
  6
CONTINUOUS
 10
5056.535348072035
 20
2671.2781857856198
 30
0.0
 11
5056.535348072035
 21
2571.2781857856212
 31
0.0
  0
LINE
  5
7B28
  8
1
  6
CONTINUOUS
 10
5056.535348072035
 20
2797.2781857856212
 30
0.0
 11
5056.535348072035
 21
2697.2781857856198
 31
0.0
  0
LINE
  5
7B50
  8
1
  6
CONTINUOUS
 10
4474.535348072035
 20
3621.2781857856198
 30
0.0
 11
5004.535348072035
 21
3621.2781857856198
 31
0.0
  0
LINE
  5
7B51
  8
1
  6
CONTINUOUS
 10
4474.535348072035
 20
4018.2781857856212
 30
0.0
 11
5004.535348072035
 21
4018.2781857856212
 31
0.0
  0
LINE
  5
7B52
  8
1
  6
CONTINUOUS
 10
4379.5353480720341
 20
3937.2781857856212
 30
0.0
 11
4239.535348072035
 21
3937.2781857856212
 31
0.0
  0
LINE
  5
7B53
  8
1
  6
CONTINUOUS
 10
4349.535348072035
 20
3437.2781857856212
 30
0.0
 11
4349.535348072035
 21
3737.2781857856212
 31
0.0
  0
LINE
  5
7B54
  8
1
  6
CONTINUOUS
 10
4269.535348072035
 20
3437.2781857856212
 30
0.0
 11
4269.535348072035
 21
3737.2781857856212
 31
0.0
  0
LINE
  5
7B55
  8
1
  6
CONTINUOUS
 10
4269.535348072035
 20
3437.2781857856212
 30
0.0
 11
4349.535348072035
 21
3437.2781857856212
 31
0.0
  0
LINE
  5
7B56
  8
1
  6
CONTINUOUS
 10
4269.535348072035
 20
3737.2781857856212
 30
0.0
 11
4349.535348072035
 21
3737.2781857856212
 31
0.0
  0
LINE
  5
7B57
  8
1
  6
CONTINUOUS
 10
4349.535348072035
 20
3566.2781857856212
 30
0.0
 11
4474.535348072035
 21
3566.2781857856212
 31
0.0
  0
LINE
  5
7B58
  8
1
  6
CONTINUOUS
 10
4349.535348072035
 20
3608.2781857856212
 30
0.0
 11
4474.535348072035
 21
3608.2781857856212
 31
0.0
  0
LINE
  5
7B59
  8
2
  6
CENTER
 10
4739.535348072035
 20
4134.8262997856209
 30
0.0
 11
4739.535348072035
 21
2347.6479307856198
 31
0.0
  0
LINE
  5
7B5A
  8
2
  6
CENTER
 10
3366.245126072035
 20
5745.3487812968733
 30
0.0
 11
1594.270667072034
 21
5745.3487812968733
 31
0.0
  0
LINE
  5
7B5B
  8
2
  6
CENTER
 10
4109.0957720720344
 20
3587.2781857856212
 30
0.0
 11
5092.7865320720348
 21
3587.2781857856212
 31
0.0
  0
LINE
  5
7B5C
  8
2
  6
CENTER
 10
2260.7363340720349
 20
4266.992084785621
 30
0.0
 11
2260.7363340720349
 21
2501.1244987856212
 31
0.0
  0
LINE
  5
7B5D
  8
4
  6
CONTINUOUS
 10
5550.0
 20
1500.0
 30
0.0
 11
5550.0
 21
900.0
 31
0.0
  0
LINE
  5
7B5E
  8
4
  6
CONTINUOUS
 10
3450.0
 20
1500.0
 30
0.0
 11
3450.0
 21
900.0
 31
0.0
  0
LINE
  5
7B5F
  8
4
  6
CONTINUOUS
 10
1950.0
 20
1500.0
 30
0.0
 11
1950.0
 21
900.0
 31
0.0
  0
LINE
  5
7B62
  8
4
  6
CONTINUOUS
 10
1950.0
 20
900.0
 30
0.0
 11
5550.0
 21
900.0
 31
0.0
  0
LINE
  5
7B63
  8
4
  6
CONTINUOUS
 10
1950.0
 20
1200.0
 30
0.0
 11
5550.0
 21
1200.0
 31
0.0
  0
TEXT
  5
7B64
  8
4
  6
CONTINUOUS
 10
2065.5062429999989
 20
1294.6290779999999
 30
0.0
 40
150.0
  1
機器名称
  0
TEXT
  5
7B65
  8
4
  6
CONTINUOUS
 10
2058.7743179999989
 20
964.9354699999999
 30
0.0
 40
150.0
  1
機器型番
  0
TEXT
  5
7B66
  8
4
  6
CONTINUOUS
 10
3533.0362359999999
 20
1267.7153069999999
 30
0.0
 40
150.0
  1
ミツヤ多翼送風機
  0
TEXT
  5
7B67
  8
4
  6
CONTINUOUS
 10
3559.9634869999991
 20
951.47875299999987
 30
0.0
 40
150.0
  1
MF#4 1/2-4
  0
TEXT
  5
7B69
  8
4
  6
CONTINUOUS
 10
2255.5958919999998
 20
7150.2865239999992
 30
0.0
 40
162.0
  1
床置防振ベット
  0
TEXT
  5
7B6A
  8
4
  6
CONTINUOUS
 10
948.50278000000014
 20
7601.6429289999996
 30
0.0
 40
216.0
  1
ベルト駆動式片吸込両持多翼ファン
  0
LINE
  5
7B6B
  8
4
  6
CONTINUOUS
 10
750.0
 20
7408.2262629999996
 30
0.0
 11
5550.0
 21
7408.2262629999996
 31
0.0
  0
LINE
  5
7B6C
  8
4
  6
CONTINUOUS
 10
750.0
 20
8008.2262629999996
 30
0.0
 11
5550.0
 21
8008.2262629999996
 31
0.0
  0
LINE
  5
7B6D
  8
4
  6
CONTINUOUS
 10
1950.0
 20
1500.0
 30
0.0
 11
5550.0
 21
1500.0
 31
0.0
  0
LINE
  5
7B6E
  8
4
  6
CONTINUOUS
 10
750.0
 20
8008.2262629999996
 30
0.0
 11
750.0
 21
7408.2262629999996
 31
0.0
  0
TEXT
  5
7B6F
  8
4
  6
CONTINUOUS
 10
948.01939600000014
 20
7146.9584329999998
 30
0.0
 40
162.0
  1
右回転左横向
  0
TEXT
  5
7B70
  8
4
  6
CONTINUOUS
 10
4406.9086779999989
 20
8118.1832439999989
 30
0.0
 40
168.0
  1
No.
  0
TEXT
  5
7B71
  8
4
  6
CONTINUOUS
 10
3933.8881879999999
 20
7150.2865239999992
 30
0.0
 40
162.0
  1
縮尺：1/30
  0
LINE
  5
7B72
  8
4
  6
CONTINUOUS
 10
5550.0
 20
8008.2262629999996
 30
0.0
 11
5550.0
 21
7408.2262629999996
 31
0.0
  0
LINE
  5
7B74
  8
4
  6
CONTINUOUS
 10
4321.8522670000002
 20
8043.7907490000007
 30
0.0
 11
4321.8522670000002
 21
8359.9567849999985
 31
0.0
  0
LINE
  5
7B75
  8
4
  6
CONTINUOUS
 10
4321.8522670000002
 20
8359.9567849999985
 30
0.0
 11
5550.0
 21
8359.9567849999985
 31
0.0
  0
LINE
  5
7B76
  8
4
  6
CONTINUOUS
 10
5550.0
 20
8359.9567849999985
 30
0.0
 11
5550.0
 21
8043.7907490000007
 31
0.0
  0
LINE
  5
7B77
  8
4
  6
CONTINUOUS
 10
5550.0
 20
8043.7907490000007
 30
0.0
 11
4321.8522670000002
 21
8043.7907490000007
 31
0.0
  0
DIMENSION
  5
7B8F
  8
3
  6
CONTINUOUS
  2
*D1
 10
1603.2131590720351
 20
2891.2781857856198
 30
0.0
 11
1603.2131590720339
 21
3256.8983977856201
 31
0.0
 70
   128
 13
1725.7363340720351
 23
3621.2781857856198
 33
0.0
 14
1725.7363340720351
 24
2891.2781857856198
 34
0.0
 50
90.0
1001
ACAD
1000
DSTYLE
1002
{
1070
   287
1070
     3
1070
   287
1070
     3
1070
    40
1040
30.0
1070
   143
1040
0.039
1070
   172
1070
     1
1070
   271
1070
     0
1070
   279
1070
     0
1070
   288
1070
     1
1002
}
  0
DIMENSION
  5
7B9C
  8
3
  6
CONTINUOUS
  2
*D2
 10
1432.9314550720351
 20
3587.2781857856212
 30
0.0
 11
1432.9314550720339
 21
3251.227637785621
 31
0.0
 70
   128
 13
1725.7363340720351
 23
2891.2781857856198
 33
0.0
 14
1597.8443770720351
 24
3587.2781857856212
 34
0.0
 50
90.0
1001
ACAD
1000
DSTYLE
1002
{
1070
   287
1070
     3
1070
   287
1070
     3
1070
    40
1040
30.0
1070
   143
1040
0.039
1070
   172
1070
     1
1070
   271
1070
     0
1070
   279
1070
     0
1070
   288
1070
     1
1002
}
  0
DIMENSION
  5
7BB5
  8
3
  6
CONTINUOUS
  2
*D3
 10
1234.2695040720339
 20
2697.2781857856198
 30
0.0
 11
1159.2695040720339
 21
3142.2781857856212
 31
0.0
 70
     0
 13
1597.8443770720351
 23
3587.2781857856212
 33
0.0
 14
1790.736334072034
 24
2697.2781857856198
 34
0.0
 50
90.0
1001
ACAD
1000
DSTYLE
1002
{
1070
   287
1070
     3
1070
   287
1070
     3
1070
    40
1040
30.0
1070
   143
1040
0.039
1070
   172
1070
     1
1070
   271
1070
     0
1070
   279
1070
     0
1070
   288
1070
     1
1002
}
  0
DIMENSION
  5
7BC5
  8
3
  6
CONTINUOUS
  2
*D4
 10
1234.774501072035
 20
2571.2781857856212
 30
0.0
 11
1234.774501072035
 21
2316.2781857856212
 31
0.0
 70
   128
 13
1790.736334072034
 23
2697.2781857856198
 33
0.0
 14
1790.736334072034
 24
2571.2781857856212
 34
0.0
 50
90.0
1001
ACAD
1000
DSTYLE
1002
{
1070
   287
1070
     3
1070
   287
1070
     3
1070
    40
1040
30.0
1070
   143
1040
0.039
1070
   172
1070
     1
1070
   271
1070
     0
1070
   279
1070
     0
1070
   288
1070
     1
1002
}
  0
DIMENSION
  5
7BDF
  8
3
  6
CONTINUOUS
  2
*D5
 10
2260.7363340720349
 20
2386.840256785621
 30
0.0
 11
2055.022048072035
 21
2386.840256785621
 31
0.0
 70
   128
 13
1790.736334072034
 23
2571.2781857856212
 33
0.0
 14
2260.7363340720349
 24
2478.569231785621
 34
0.0
1001
ACAD
1000
DSTYLE
1002
{
1070
   287
1070
     3
1070
   287
1070
     3
1070
    40
1040
30.0
1070
   143
1040
0.039
1070
   172
1070
     1
1070
   271
1070
     0
1070
   279
1070
     0
1070
   288
1070
     1
1002
}
  0
DIMENSION
  5
7BEB
  8
3
  6
CONTINUOUS
  2
*D6
 10
3290.7363340720349
 20
2386.840256785621
 30
0.0
 11
2775.7363340720349
 21
2461.840256785621
 31
0.0
 70
     0
 13
2260.7363340720349
 23
2478.569231785621
 33
0.0
 14
3290.7363340720349
 24
2571.2781857856212
 34
0.0
1001
ACAD
1000
DSTYLE
1002
{
1070
   287
1070
     4
1070
   287
1070
     4
1070
    40
1040
30.0
1070
    75
1070
     1
1070
   143
1040
0.039
1070
   172
1070
     1
1070
   271
1070
     0
1070
   279
1070
     1
1070
   288
1070
     1
1002
}
  0
DIMENSION
  5
7BF8
  8
3
  6
CONTINUOUS
  2
*D7
 10
2260.7363340720349
 20
4258.5733607856209
 30
0.0
 11
1994.8078710720349
 21
4258.5733607856209
 31
0.0
 70
   128
 13
1725.7363340720351
 23
3661.2781857856198
 33
0.0
 14
2260.7363340720349
 24
4244.4368177856204
 34
0.0
1001
ACAD
1000
DSTYLE
1002
{
1070
   287
1070
     3
1070
   287
1070
     3
1070
    40
1040
30.0
1070
   143
1040
0.039
1070
   172
1070
     1
1070
   271
1070
     0
1070
   279
1070
     0
1070
   288
1070
     1
1002
}
  0
DIMENSION
  5
7C11
  8
3
  6
CONTINUOUS
  2
*D8
 10
4474.535348072035
 20
4154.5882007856198
 30
0.0
 11
4731.5597570720347
 21
4154.5882007856198
 31
0.0
 70
   128
 13
5004.535348072035
 23
4018.2781857856212
 33
0.0
 14
4474.535348072035
 24
4018.2781857856212
 34
0.0
1001
ACAD
1000
DSTYLE
1002
{
1070
   287
1070
     3
1070
   287
1070
     3
1070
    40
1040
30.0
1070
   143
1040
0.039
1070
   172
1070
     1
1070
   271
1070
     0
1070
   279
1070
     0
1070
   288
1070
     1
1002
}
  0
LINE
  5
7C12
  8
1
  6
CONTINUOUS
 10
5006.535348072035
 20
3964.2781857856198
 30
0.0
 11
5006.535348072035
 21
3210.2781857856198
 31
0.0
  0
DIMENSION
  5
7C21
  8
3
  6
CONTINUOUS
  2
*D9
 10
5276.4611580720348
 20
3210.2781857856198
 30
0.0
 11
5276.4611580720339
 21
3604.0784647856199
 31
0.0
 70
   128
 13
5006.535348072035
 23
3964.2781857856198
 33
0.0
 14
5006.535348072035
 24
3210.2781857856198
 34
0.0
 50
90.0
1001
ACAD
1000
DSTYLE
1002
{
1070
   287
1070
     3
1070
   287
1070
     3
1070
     3
1000
φ<>
1070
    40
1040
30.0
1070
   143
1040
0.039
1070
   172
1070
     1
1070
   271
1070
     0
1070
   279
1070
     0
1070
   288
1070
     1
1002
}
  0
DIMENSION
  5
7C2F
  8
3
  6
CONTINUOUS
  2
*D10
 10
4739.535348072035
 20
4393.1424167856212
 30
0.0
 11
4879.2270467821081
 21
4475.4953888671507
 31
0.0
 70
   128
 13
5006.535348072035
 23
3964.2781857856198
 33
0.0
 14
4739.535348072035
 24
4314.1328167856209
 34
0.0
1001
ACAD
1000
DSTYLE
1002
{
1070
   288
1070
     1
1070
   172
1070
     1
1070
    40
1040
30.0
1070
   271
1070
     0
1070
   143
1040
0.039
1002
}
  0
DIMENSION
  5
7C48
  8
3
  6
CONTINUOUS
  2
*D11
 10
4739.535348072035
 20
2317.6479307856212
 30
0.0
 11
4533.8210620720347
 21
2317.6479307856212
 31
0.0
 70
   128
 13
4296.535348072035
 23
2571.2781857856212
 33
0.0
 14
4739.535348072035
 24
2307.4149927856201
 34
0.0
1001
ACAD
1000
DSTYLE
1002
{
1070
   287
1070
     3
1070
   287
1070
     3
1070
    40
1040
30.0
1070
   143
1040
0.039
1070
   172
1070
     1
1070
   271
1070
     0
1070
   279
1070
     0
1070
   288
1070
     1
1002
}
  0
DIMENSION
  5
7C56
  8
3
  6
CONTINUOUS
  2
*D12
 10
5056.535348072035
 20
2317.6479307856212
 30
0.0
 11
4907.7500800720336
 21
2312.4905767856199
 31
0.0
 70
   128
 13
4739.535348072035
 23
2307.4149927856201
 33
0.0
 14
5056.535348072035
 24
2571.2781857856212
 34
0.0
1001
ACAD
1000
DSTYLE
1002
{
1070
   287
1070
     4
1070
   287
1070
     4
1070
    40
1040
30.0
1070
    75
1070
     1
1070
   143
1040
0.039
1070
   172
1070
     1
1070
   271
1070
     0
1070
   279
1070
     1
1070
   288
1070
     1
1002
}
  0
DIMENSION
  5
7C79
  8
3
  6
CONTINUOUS
  2
*D13
 10
3290.7363340720349
 20
6299.4998682968726
 30
0.0
 11
2545.8317860720349
 21
6299.4998682968726
 31
0.0
 70
   128
 13
1790.736334072034
 23
6062.3487812968733
 33
0.0
 14
3290.7363340720349
 24
6062.3487812968733
 34
0.0
1001
ACAD
1000
DSTYLE
1002
{
1070
   287
1070
     3
1070
   287
1070
     3
1070
    40
1040
30.0
1070
   143
1040
0.039
1070
   172
1070
     1
1070
   271
1070
     0
1070
   279
1070
     0
1070
   288
1070
     1
1002
}
  0
DIMENSION
  5
7C86
  8
3
  6
CONTINUOUS
  2
*D14
 10
3525.429804072035
 20
5302.3487812968733
 30
0.0
 11
3525.429804072035
 21
5685.9608402968734
 31
0.0
 70
   128
 13
3290.7363340720349
 23
6062.3487812968733
 33
0.0
 14
3290.7363340720349
 24
5302.3487812968733
 34
0.0
 50
90.0
1001
ACAD
1000
DSTYLE
1002
{
1070
   287
1070
     3
1070
   287
1070
     3
1070
    40
1040
30.0
1070
   143
1040
0.039
1070
   172
1070
     1
1070
   271
1070
     0
1070
   279
1070
     0
1070
   288
1070
     1
1002
}
  0
DIMENSION
  5
7CCB
  8
3
  6
CONTINUOUS
  2
*D15
 10
2846.7338600720341
 20
4258.5733607856209
 30
0.0
 11
2553.735097072034
 21
4333.5733607856209
 31
0.0
 70
     0
 13
2260.7363340720349
 23
4244.4368177856204
 33
0.0
 14
2846.7338600720341
 24
3587.2781857856212
 34
0.0
1001
ACAD
1000
DSTYLE
1002
{
1070
   287
1070
     4
1070
   287
1070
     4
1070
    40
1040
30.0
1070
    75
1070
     1
1070
   143
1040
0.039
1070
   172
1070
     1
1070
   271
1070
     0
1070
   279
1070
     1
1070
   288
1070
     1
1002
}
  0
DIMENSION
  5
7D26
  8
3
  6
CONTINUOUS
  2
*D16
 10
4239.535348072035
 20
4393.1424167856212
 30
0.0
 11
4489.535348072035
 21
4543.1424167856212
 31
0.0
 70
     0
  1
MAX\P560
 13
4739.535348072035
 23
4314.1328167856209
 33
0.0
 14
4239.535348072035
 24
3937.2781857856212
 34
0.0
1001
ACAD
1000
DSTYLE
1002
{
1070
   287
1070
     4
1070
   287
1070
     4
1070
    40
1040
30.0
1070
    75
1070
     1
1070
   143
1040
0.039
1070
   172
1070
     1
1070
   271
1070
     0
1070
   279
1070
     1
1070
   288
1070
     1
1002
}
  0
DIMENSION
  5
7D68
  8
3
  2
*D17
 10
3290.7363340720349
 20
4433.0199888823154
 30
0.0
 11
2504.7130007881678
 21
4433.0199888823154
 31
0.0
 70
   128
 13
1725.7363340720351
 23
3676.2781857856212
 33
0.0
 14
3290.7363340720349
 24
2797.2781857856212
 34
0.0
1001
ACAD
1000
DSTYLE
1002
{
1070
   287
1070
     3
1070
   287
1070
     3
1070
    40
1040
30.0
1070
   143
1040
0.039
1070
   172
1070
     1
1070
   271
1070
     0
1070
   279
1070
     0
1070
   288
1070
     1
1002
}
  0
LINE
  5
7DB4
  8
1
  6
CONTINUOUS
 10
2720.736334072034
 20
3899.6592565620631
 30
0.0
 11
2720.736334072034
 21
2797.2781857856212
 31
0.0
  0
LINE
  5
7DB5
  8
1
  6
CONTINUOUS
 10
1800.7363340720351
 20
3717.2781857856198
 30
0.0
 11
1800.7363340720351
 21
2797.2781857856212
 31
0.0
  0
LINE
  5
7DB6
  8
1
  6
CONTINUOUS
 10
1800.7363340720351
 20
3717.2781857856198
 30
0.0
 11
2720.736334072034
 21
3717.2781857856198
 31
0.0
  0
DIMENSION
  5
7DB8
  8
3
  2
*D18
 10
1234.269504072035
 20
4096.5743255677653
 30
0.0
 11
1159.2695040720339
 21
3841.926255676693
 31
0.0
 70
     0
  1
508
 13
1597.8443770720351
 23
3587.2781857856212
 33
0.0
 14
2290.736334072034
 24
4096.5743255677644
 34
0.0
 50
90.0
1001
ACAD
1000
DSTYLE
1002
{
1070
   287
1070
     4
1070
   287
1070
     4
1070
    40
1040
30.0
1070
   143
1040
0.039
1070
   172
1070
     1
1070
   271
1070
     0
1070
   279
1070
     1
1070
   288
1070
     1
1002
}
  0
ENDSEC
  0
EOF
