  0
SECTION
  2
HEADER
  9
$ACADVER
  1
AC1009
  9
$INSBASE
 10
0.0
 20
0.0
 30
0.0
  9
$EXTMIN
 10
750.0
 20
900.0
 30
0.0
  9
$EXTMAX
 10
5550.0
 20
8359.9567849999985
 30
0.0
  9
$LIMMIN
 10
0.0
 20
0.0
  9
$LIMMAX
 10
297.0
 20
210.0
  9
$ORTHOMODE
 70
     0
  9
$REGENMODE
 70
     1
  9
$FILLMODE
 70
     0
  9
$QTEXTMODE
 70
     0
  9
$MIRRTEXT
 70
     1
  9
$DRAGMODE
 70
     2
  9
$LTSCALE
 40
100.0
  9
$OSMODE
 70
    37
  9
$ATTMODE
 70
     1
  9
$TEXTSIZE
 40
180.0
  9
$TRACEWID
 40
0.05
  9
$TEXTSTYLE
  7
STANDARD
  9
$CLAYER
  8
3
  9
$CELTYPE
  6
BYLAYER
  9
$CECOLOR
 62
   256
  9
$DIMSCALE
 40
30.0
  9
$DIMASZ
 40
2.0
  9
$DIMEXO
 40
0.5
  9
$DIMDLI
 40
10.0
  9
$DIMRND
 40
0.0
  9
$DIMDLE
 40
0.0
  9
$DIMEXE
 40
1.0
  9
$DIMTP
 40
1.0
  9
$DIMTM
 40
1.0
  9
$DIMTXT
 40
3.0
  9
$DIMCEN
 40
0.0
  9
$DIMTSZ
 40
0.0
  9
$DIMTOL
 70
     0
  9
$DIMLIM
 70
     0
  9
$DIMTIH
 70
     0
  9
$DIMTOH
 70
     0
  9
$DIMSE1
 70
     0
  9
$DIMSE2
 70
     0
  9
$DIMTAD
 70
     1
  9
$DIMZIN
 70
     8
  9
$DIMBLK
  1

  9
$DIMASO
 70
     1
  9
$DIMSHO
 70
     1
  9
$DIMPOST
  1

  9
$DIMAPOST
  1

  9
$DIMALT
 70
     0
  9
$DIMALTD
 70
     2
  9
$DIMALTF
 40
0.039
  9
$DIMLFAC
 40
1.0
  9
$DIMTOFL
 70
     1
  9
$DIMTVP
 40
0.0
  9
$DIMTIX
 70
     0
  9
$DIMSOXD
 70
     0
  9
$DIMSAH
 70
     1
  9
$DIMBLK1
  1
OPEN
  9
$DIMBLK2
  1
OPEN
  9
$DIMSTYLE
  2
IGA
  9
$DIMCLRD
 70
     0
  9
$DIMCLRE
 70
     0
  9
$DIMCLRT
 70
     0
  9
$DIMTFAC
 40
10.0
  9
$DIMGAP
 40
1.0
  9
$LUNITS
 70
     2
  9
$LUPREC
 70
     3
  9
$SKETCHINC
 40
0.1
  9
$FILLETRAD
 40
50.0
  9
$AUNITS
 70
     0
  9
$AUPREC
 70
     0
  9
$MENU
  1
acad
  9
$ELEVATION
 40
0.0
  9
$PELEVATION
 40
0.0
  9
$THICKNESS
 40
0.0
  9
$LIMCHECK
 70
     0
  9
$BLIPMODE
 70
     0
  9
$CHAMFERA
 40
0.5
  9
$CHAMFERB
 40
0.5
  9
$SKPOLY
 70
     0
  9
$TDCREATE
 40
2450743.4096964118
  9
$TDUPDATE
 40
2454953.7733497801
  9
$TDINDWG
 40
0.011114838
  9
$TDUSRTIMER
 40
0.011114838
  9
$USRTIMER
 70
     1
  9
$ANGBASE
 50
0.0
  9
$ANGDIR
 70
     0
  9
$PDMODE
 70
     0
  9
$PDSIZE
 40
0.0
  9
$PLINEWID
 40
0.0
  9
$COORDS
 70
     1
  9
$SPLFRAME
 70
     0
  9
$SPLINETYPE
 70
     6
  9
$SPLINESEGS
 70
     8
  9
$ATTDIA
 70
     0
  9
$ATTREQ
 70
     1
  9
$HANDLING
 70
 10241
  9
$HANDSEED
  5
7F8A
  9
$SURFTAB1
 70
     6
  9
$SURFTAB2
 70
     6
  9
$SURFTYPE
 70
     6
  9
$SURFU
 70
     6
  9
$SURFV
 70
     6
  9
$UCSNAME
  2

  9
$UCSORG
 10
0.0
 20
0.0
 30
0.0
  9
$UCSXDIR
 10
1.0
 20
0.0
 30
0.0
  9
$UCSYDIR
 10
0.0
 20
1.0
 30
0.0
  9
$PUCSNAME
  2

  9
$PUCSORG
 10
0.0
 20
0.0
 30
0.0
  9
$PUCSXDIR
 10
1.0
 20
0.0
 30
0.0
  9
$PUCSYDIR
 10
0.0
 20
1.0
 30
0.0
  9
$USERI1
 70
     0
  9
$USERI2
 70
     0
  9
$USERI3
 70
     0
  9
$USERI4
 70
     0
  9
$USERI5
 70
     0
  9
$USERR1
 40
0.0
  9
$USERR2
 40
0.0
  9
$USERR3
 40
0.0
  9
$USERR4
 40
0.0
  9
$USERR5
 40
0.0
  9
$WORLDVIEW
 70
     1
  9
$SHADEDGE
 70
     3
  9
$SHADEDIF
 70
    70
  9
$TILEMODE
 70
     1
  9
$MAXACTVP
 70
    16
  9
$PLIMCHECK
 70
     0
  9
$PEXTMIN
 10
1.0000000000000000E+020
 20
1.0000000000000000E+020
 30
1.0000000000000000E+020
  9
$PEXTMAX
 10
-1.0000000000000000E+020
 20
-1.0000000000000000E+020
 30
-1.0000000000000000E+020
  9
$PLIMMIN
 10
0.0
 20
0.0
  9
$PLIMMAX
 10
12.0
 20
9.0
  9
$UNITMODE
 70
     0
  9
$VISRETAIN
 70
     0
  9
$PLINEGEN
 70
     0
  9
$PSLTSCALE
 70
     1
  0
ENDSEC
  0
SECTION
  2
TABLES
  0
TABLE
  2
VPORT
 70
     2
  0
VPORT
  2
*ACTIVE
 70
     0
 10
0.0
 20
0.0
 11
1.0
 21
1.0
 12
9438.4567678319436
 22
4630.0975558305709
 13
0.0
 23
0.0
 14
10.0
 24
10.0
 15
10.0
 25
10.0
 16
0.0
 26
0.0
 36
1.0
 17
0.0
 27
0.0
 37
0.0
 40
7517.4747125171307
 41
3.1666666666666661
 42
50.0
 43
0.0
 44
0.0
 50
0.0
 51
0.0
 71
     0
 72
   100
 73
     1
 74
     0
 75
     0
 76
     0
 77
     0
 78
     0
  0
ENDTAB
  0
TABLE
  2
LTYPE
 70
     2
  0
LTYPE
  2
CONTINUOUS
 70
     0
  3
Solid line
 72
    65
 73
     0
 40
0.0
  0
LTYPE
  2
CENTER
 70
     0
  3
____ _ ____ _ ____ _ ____ _ ____ _ ____ _ ____ 
 72
    65
 73
     4
 40
2.0
 49
1.25
 49
-0.25
 49
0.25
 49
-0.25
  0
ENDTAB
  0
TABLE
  2
LAYER
 70
     6
  0
LAYER
  2
0
 70
     0
 62
     7
  6
CONTINUOUS
  0
LAYER
  2
3
 70
     0
 62
     2
  6
CONTINUOUS
  0
LAYER
  2
2
 70
     0
 62
     3
  6
CENTER
  0
LAYER
  2
1
 70
     0
 62
     4
  6
CONTINUOUS
  0
LAYER
  2
4
 70
     0
 62
     7
  6
CONTINUOUS
  0
LAYER
  2
DEFPOINTS
 70
     0
 62
     7
  6
CONTINUOUS
  0
ENDTAB
  0
TABLE
  2
STYLE
 70
     1
  0
STYLE
  2
STANDARD
 70
     0
 40
0.0
 41
1.0
 50
0.0
 71
     0
 42
180.0
  3
simplex.shx
  4
extfont.shx
  0
ENDTAB
  0
TABLE
  2
VIEW
 70
     0
  0
ENDTAB
  0
TABLE
  2
UCS
 70
     0
  0
ENDTAB
  0
TABLE
  2
APPID
 70
     1
  0
APPID
  2
ACAD
 70
     0
  0
ENDTAB
  0
TABLE
  2
DIMSTYLE
 70
     1
  0
DIMSTYLE
  2
IGA
 70
     0
  3

  4

  5

  6
OPEN
  7
OPEN
 40
2.0
 41
2.0
 42
0.5
 43
10.0
 44
1.0
 45
0.0
 46
0.0
 47
1.0
 48
1.0
140
3.0
141
0.0
142
0.0
143
0.03937
144
1.0
145
0.0
146
10.0
147
1.0
 71
     0
 72
     0
 73
     0
 74
     0
 75
     0
 76
     0
 77
     1
 78
     8
170
     0
171
     2
172
     0
173
     1
174
     0
175
     0
176
     0
177
     0
178
     0
  0
ENDTAB
  0
ENDSEC
  0
SECTION
  2
BLOCKS
  0
BLOCK
  8
0
  2
$MODEL_SPACE
 70
     0
 10
0.0
 20
0.0
 30
0.0
  3
$MODEL_SPACE
  1

  0
ENDBLK
  5
1B
  8
0
  0
BLOCK
 67
     1
  8
0
  2
$PAPER_SPACE
 70
     0
 10
0.0
 20
0.0
 30
0.0
  3
$PAPER_SPACE
  1

  0
ENDBLK
  5
18
 67
     1
  8
0
  0
BLOCK
  8
0
  2
_OPEN
 70
     0
 10
0.0
 20
0.0
 30
0.0
  3
_OPEN
  1

  0
LINE
  5
7AE2
  8
0
  6
BYBLOCK
 62
     0
 10
-1.0
 20
0.166667
 30
0.0
 11
0.0
 21
0.0
 31
0.0
  0
LINE
  5
7AE3
  8
0
  6
BYBLOCK
 62
     0
 10
0.0
 20
0.0
 30
0.0
 11
-1.0
 21
-0.166667
 31
0.0
  0
LINE
  5
7AE4
  8
0
  6
BYBLOCK
 62
     0
 10
0.0
 20
0.0
 30
0.0
 11
-1.0
 21
0.0
 31
0.0
  0
ENDBLK
  5
7AE5
  8
0
  0
BLOCK
  8
0
  2
*D1
 70
     1
 10
0.0
 20
0.0
 30
0.0
  3
*D1
  1

  0
LINE
  5
7EF7
  8
3
  6
CONTINUOUS
 62
     0
 10
1706.2456569999999
 20
3975.732242
 30
0.0
 11
1706.2456569999999
 21
4172.7185490000002
 31
0.0
  0
LINE
  5
7EF8
  8
3
  6
CONTINUOUS
 62
     0
 10
2436.2456569999999
 20
3975.732242
 30
0.0
 11
2436.2456569999999
 21
4172.7185490000002
 31
0.0
  0
LINE
  5
7EF9
  8
3
  6
CONTINUOUS
 62
     0
 10
1766.245656999999
 20
4142.7185490000002
 30
0.0
 11
2376.2456569999999
 21
4142.7185490000002
 31
0.0
  0
INSERT
  5
7EFA
  8
3
  6
CONTINUOUS
 62
     0
  2
_OPEN
 10
1706.2456569999999
 20
4142.7185490000002
 30
0.0
 41
60.0
 42
60.0
 43
60.0
 50
180.0
  0
INSERT
  5
7EFB
  8
3
  6
CONTINUOUS
 62
     0
  2
_OPEN
 10
2436.2456569999999
 20
4142.7185490000002
 30
0.0
 41
60.0
 42
60.0
 43
60.0
  0
TEXT
  8
3
  40
90
  5
7F7A
  62
0
  72
0
  71
0
 10
1912.98
 20
4058.42
 30
0.000000
  1
730
  0
POINT
  5
7EFD
  8
DEFPOINTS
  6
CONTINUOUS
 62
     0
 10
1706.2456569999999
 20
3960.732242
 30
0.0
  0
POINT
  5
7EFE
  8
DEFPOINTS
  6
CONTINUOUS
 62
     0
 10
2436.2456569999999
 20
3960.732242
 30
0.0
  0
POINT
  5
7EFF
  8
DEFPOINTS
  6
CONTINUOUS
 62
     0
 10
2436.2456569999999
 20
4142.7185490000002
 30
0.0
  0
ENDBLK
  5
7C15
  8
0
  0
BLOCK
  8
0
  2
*D2
 70
     1
 10
0.0
 20
0.0
 30
0.0
  3
*D2
  1

  0
LINE
  5
7F00
  8
3
  6
CONTINUOUS
 62
     0
 10
1706.2456569999999
 20
3975.732242
 30
0.0
 11
1706.2456569999999
 21
4330.3721659999992
 31
0.0
  0
LINE
  5
7F01
  8
3
  6
CONTINUOUS
 62
     0
 10
2402.076137
 20
4217.9763350000003
 30
0.0
 11
2402.076137
 21
4330.3721659999992
 31
0.0
  0
LINE
  5
7F02
  8
3
  6
CONTINUOUS
 62
     0
 10
1766.245656999999
 20
4300.3721659999983
 30
0.0
 11
2342.076137
 21
4300.3721659999983
 31
0.0
  0
INSERT
  5
7F03
  8
3
  6
CONTINUOUS
 62
     0
  2
_OPEN
 10
1706.2456569999999
 20
4300.3721659999983
 30
0.0
 41
60.0
 42
60.0
 43
60.0
 50
180.0
  0
INSERT
  5
7F04
  8
3
  6
CONTINUOUS
 62
     0
  2
_OPEN
 10
2402.076137
 20
4300.3721659999983
 30
0.0
 41
60.0
 42
60.0
 43
60.0
  0
TEXT
  8
3
  40
90
  5
7F7B
  62
0
  72
0
  71
0
 10
1922.65
 20
4216.07
 30
0.000000
  1
696
  0
POINT
  5
7F06
  8
DEFPOINTS
  6
CONTINUOUS
 62
     0
 10
1706.2456569999999
 20
3960.732242
 30
0.0
  0
POINT
  5
7F07
  8
DEFPOINTS
  6
CONTINUOUS
 62
     0
 10
2402.076137
 20
4202.9763350000003
 30
0.0
  0
POINT
  5
7F08
  8
DEFPOINTS
  6
CONTINUOUS
 62
     0
 10
2402.076137
 20
4300.3721659999983
 30
0.0
  0
ENDBLK
  5
7D26
  8
0
  0
BLOCK
  8
0
  2
*D3
 70
     1
 10
0.0
 20
0.0
 30
0.0
  3
*D3
  1

  0
LINE
  5
7F09
  8
3
  6
CONTINUOUS
 62
     0
 10
2491.2456569999999
 20
3960.732242
 30
0.0
 11
3239.8891159999998
 21
3960.7322419999991
 31
0.0
  0
LINE
  5
7F0A
  8
3
  6
CONTINUOUS
 62
     0
 10
3028.9834860000001
 20
3425.732242
 30
0.0
 11
3239.8891159999998
 21
3425.7322419999991
 31
0.0
  0
LINE
  5
7F0B
  8
3
  6
CONTINUOUS
 62
     0
 10
3209.8891160000012
 20
3900.7322419999991
 30
0.0
 11
3209.8891160000012
 21
3485.7322419999991
 31
0.0
  0
INSERT
  5
7F0C
  8
3
  6
CONTINUOUS
 62
     0
  2
_OPEN
 10
3209.8891160000012
 20
3960.7322419999991
 30
0.0
 41
60.0
 42
60.0
 43
60.0
 50
90.0
  0
INSERT
  5
7F0D
  8
3
  6
CONTINUOUS
 62
     0
  2
_OPEN
 10
3209.8891160000012
 20
3425.7322419999991
 30
0.0
 41
60.0
 42
60.0
 43
60.0
 50
270.0
  0
TEXT
  8
3
  40
90
  5
7F7C
  62
0
  72
0
  71
0
 10
2954.89
 20
3525.31
 30
0.000000
  1
535
  0
POINT
  5
7F0F
  8
DEFPOINTS
  6
CONTINUOUS
 62
     0
 10
2476.2456569999999
 20
3960.732242
 30
0.0
  0
POINT
  5
7F10
  8
DEFPOINTS
  6
CONTINUOUS
 62
     0
 10
3013.9834860000001
 20
3425.732242
 30
0.0
  0
POINT
  5
7F11
  8
DEFPOINTS
  6
CONTINUOUS
 62
     0
 10
3209.8891160000012
 20
3425.7322419999991
 30
0.0
  0
ENDBLK
  5
7C2B
  8
0
  0
BLOCK
  8
0
  2
*D4
 70
     1
 10
0.0
 20
0.0
 30
0.0
  3
*D4
  1

  0
LINE
  5
7F12
  8
3
  6
CONTINUOUS
 62
     0
 10
2887.2456569999999
 20
2800.732242
 30
0.0
 11
3239.8891159999998
 21
2800.732242
 31
0.0
  0
LINE
  5
7F13
  8
3
  6
CONTINUOUS
 62
     0
 10
3209.8891159999998
 20
3365.7322419999991
 30
0.0
 11
3209.8891159999998
 21
2860.7322419999991
 31
0.0
  0
INSERT
  5
7F14
  8
3
  6
CONTINUOUS
 62
     0
  2
_OPEN
 10
3209.8891159999998
 20
3425.7322419999991
 30
0.0
 41
60.0
 42
60.0
 43
60.0
 50
90.0
  0
INSERT
  5
7F15
  8
3
  6
CONTINUOUS
 62
     0
  2
_OPEN
 10
3209.8891159999998
 20
2800.732242
 30
0.0
 41
60.0
 42
60.0
 43
60.0
 50
270.0
  0
TEXT
  8
3
  40
90
  5
7F7D
  62
0
  72
0
  71
0
 10
2954.89
 20
2953.93
 30
0.000000
  1
625
  0
POINT
  5
7F17
  8
DEFPOINTS
  6
CONTINUOUS
 62
     0
 10
3013.9834860000001
 20
3425.732242
 30
0.0
  0
POINT
  5
7F18
  8
DEFPOINTS
  6
CONTINUOUS
 62
     0
 10
2872.2456569999999
 20
2800.732242
 30
0.0
  0
POINT
  5
7F19
  8
DEFPOINTS
  6
CONTINUOUS
 62
     0
 10
3209.8891159999998
 20
2800.732242
 30
0.0
  0
ENDBLK
  5
7C35
  8
0
  0
BLOCK
  8
0
  2
*D5
 70
     1
 10
0.0
 20
0.0
 30
0.0
  3
*D5
  1

  0
LINE
  5
7F1A
  8
3
  6
CONTINUOUS
 62
     0
 10
2506.2456569999999
 20
3960.732242
 30
0.0
 11
3426.8746610000012
 21
3960.7322419999991
 31
0.0
  0
LINE
  5
7F1B
  8
3
  6
CONTINUOUS
 62
     0
 10
2887.2456569999999
 20
2800.732242
 30
0.0
 11
3426.8746609999998
 21
2800.732242
 31
0.0
  0
LINE
  5
7F1C
  8
3
  6
CONTINUOUS
 62
     0
 10
3396.8746610000012
 20
3900.7322419999991
 30
0.0
 11
3396.8746609999998
 21
2860.7322419999991
 31
0.0
  0
INSERT
  5
7F1D
  8
3
  6
CONTINUOUS
 62
     0
  2
_OPEN
 10
3396.8746610000012
 20
3960.7322419999991
 30
0.0
 41
60.0
 42
60.0
 43
60.0
 50
90.0
  0
INSERT
  5
7F1E
  8
3
  6
CONTINUOUS
 62
     0
  2
_OPEN
 10
3396.8746609999998
 20
2800.732242
 30
0.0
 41
60.0
 42
60.0
 43
60.0
 50
270.0
  0
TEXT
  8
3
  40
90
  5
7F7E
  62
0
  72
0
  71
0
 10
3141.87
 20
3192.49
 30
0.000000
  1
1160
  0
POINT
  5
7F20
  8
DEFPOINTS
  6
CONTINUOUS
 62
     0
 10
2491.2456569999999
 20
3960.732242
 30
0.0
  0
POINT
  5
7F21
  8
DEFPOINTS
  6
CONTINUOUS
 62
     0
 10
2872.2456569999999
 20
2800.732242
 30
0.0
  0
POINT
  5
7F22
  8
DEFPOINTS
  6
CONTINUOUS
 62
     0
 10
3396.8746609999998
 20
2800.732242
 30
0.0
  0
ENDBLK
  5
7C20
  8
0
  0
BLOCK
  8
0
  2
*D6
 70
     1
 10
0.0
 20
0.0
 30
0.0
  3
*D6
  1

  0
LINE
  5
7F23
  8
3
  6
CONTINUOUS
 62
     0
 10
1372.2456569999999
 20
2785.732242
 30
0.0
 11
1372.2456569999999
 21
2503.8709170000002
 31
0.0
  0
LINE
  5
7F24
  8
3
  6
CONTINUOUS
 62
     0
 10
2402.245656999999
 20
2591.23765
 30
0.0
 11
2402.245656999999
 21
2503.8709170000002
 31
0.0
  0
LINE
  5
7F25
  8
3
  6
CONTINUOUS
 62
     0
 10
1432.2456569999999
 20
2533.8709170000002
 30
0.0
 11
2342.2456569999999
 21
2533.8709170000002
 31
0.0
  0
INSERT
  5
7F26
  8
3
  6
CONTINUOUS
 62
     0
  2
_OPEN
 10
1372.2456569999999
 20
2533.8709170000002
 30
0.0
 41
60.0
 42
60.0
 43
60.0
 50
180.0
  0
INSERT
  5
7F27
  8
3
  6
CONTINUOUS
 62
     0
  2
_OPEN
 10
2402.245656999999
 20
2533.8709170000002
 30
0.0
 41
60.0
 42
60.0
 43
60.0
  0
TEXT
  8
3
  40
90
  5
7F7F
  62
0
  72
0
  71
0
 10
1743.52
 20
2449.57
 30
0.000000
  1
1030
  0
POINT
  5
7F29
  8
DEFPOINTS
  6
CONTINUOUS
 62
     0
 10
1372.2456569999999
 20
2800.732242
 30
0.0
  0
POINT
  5
7F2A
  8
DEFPOINTS
  6
CONTINUOUS
 62
     0
 10
2402.245656999999
 20
2606.23765
 30
0.0
  0
POINT
  5
7F2B
  8
DEFPOINTS
  6
CONTINUOUS
 62
     0
 10
2402.245656999999
 20
2533.8709170000002
 30
0.0
  0
ENDBLK
  5
7C4A
  8
0
  0
BLOCK
  8
0
  2
*D7
 70
     1
 10
0.0
 20
0.0
 30
0.0
  3
*D7
  1

  0
LINE
  5
7F2C
  8
3
  6
CONTINUOUS
 62
     0
 10
2872.2456569999999
 20
2785.732242
 30
0.0
 11
2872.2456569999999
 21
2503.8709170000002
 31
0.0
  0
LINE
  5
7F2D
  8
3
  6
CONTINUOUS
 62
     0
 10
2462.2456569999999
 20
2533.8709170000002
 30
0.0
 11
2812.2456569999999
 21
2533.8709170000002
 31
0.0
  0
INSERT
  5
7F2E
  8
3
  6
CONTINUOUS
 62
     0
  2
_OPEN
 10
2402.245656999999
 20
2533.8709170000002
 30
0.0
 41
60.0
 42
60.0
 43
60.0
 50
180.0
  0
INSERT
  5
7F2F
  8
3
  6
CONTINUOUS
 62
     0
  2
_OPEN
 10
2872.2456569999999
 20
2533.8709170000002
 30
0.0
 41
60.0
 42
60.0
 43
60.0
  0
TEXT
  8
3
  40
90
  5
7F80
  62
0
  72
0
  71
0
 10
2457.25
 20
2449.57
 30
0.000000
  1
470
  0
POINT
  5
7F31
  8
DEFPOINTS
  6
CONTINUOUS
 62
     0
 10
2402.245656999999
 20
2606.23765
 30
0.0
  0
POINT
  5
7F32
  8
DEFPOINTS
  6
CONTINUOUS
 62
     0
 10
2872.2456569999999
 20
2800.732242
 30
0.0
  0
POINT
  5
7F33
  8
DEFPOINTS
  6
CONTINUOUS
 62
     0
 10
2872.2456569999999
 20
2533.8709170000002
 30
0.0
  0
ENDBLK
  5
7C3F
  8
0
  0
BLOCK
  8
0
  2
*D8
 70
     1
 10
0.0
 20
0.0
 30
0.0
  3
*D8
  1

  0
LINE
  5
7F34
  8
3
  6
CONTINUOUS
 62
     0
 10
4350.297603
 20
2785.732242
 30
0.0
 11
4350.297603
 21
2507.8932570000002
 31
0.0
  0
LINE
  5
7F35
  8
3
  6
CONTINUOUS
 62
     0
 10
4793.297603
 20
2605.8195959999998
 30
0.0
 11
4793.297603
 21
2507.8932570000002
 31
0.0
  0
LINE
  5
7F36
  8
3
  6
CONTINUOUS
 62
     0
 10
4410.297603
 20
2537.8932570000002
 30
0.0
 11
4733.2976029999991
 21
2537.8932570000002
 31
0.0
  0
INSERT
  5
7F37
  8
3
  6
CONTINUOUS
 62
     0
  2
_OPEN
 10
4350.297603
 20
2537.8932570000002
 30
0.0
 41
60.0
 42
60.0
 43
60.0
 50
180.0
  0
INSERT
  5
7F38
  8
3
  6
CONTINUOUS
 62
     0
  2
_OPEN
 10
4793.297603
 20
2537.8932570000002
 30
0.0
 41
60.0
 42
60.0
 43
60.0
  0
TEXT
  8
3
  40
90
  5
7F81
  62
0
  72
0
  71
0
 10
4376.01
 20
2453.59
 30
0.000000
  1
443
  0
POINT
  5
7F3A
  8
DEFPOINTS
  6
CONTINUOUS
 62
     0
 10
4350.297603
 20
2800.732242
 30
0.0
  0
POINT
  5
7F3B
  8
DEFPOINTS
  6
CONTINUOUS
 62
     0
 10
4793.297603
 20
2620.8195959999998
 30
0.0
  0
POINT
  5
7F3C
  8
DEFPOINTS
  6
CONTINUOUS
 62
     0
 10
4793.297603
 20
2537.8932570000002
 30
0.0
  0
ENDBLK
  5
7C6C
  8
0
  0
BLOCK
  8
0
  2
*D9
 70
     1
 10
0.0
 20
0.0
 30
0.0
  3
*D9
  1

  0
LINE
  5
7F3D
  8
3
  6
CONTINUOUS
 62
     0
 10
5110.297603
 20
2785.732242
 30
0.0
 11
5110.297603
 21
2507.8932570000002
 31
0.0
  0
LINE
  5
7F3E
  8
3
  6
CONTINUOUS
 62
     0
 10
4853.297603
 20
2537.8932570000002
 30
0.0
 11
5050.297603
 21
2537.8932570000002
 31
0.0
  0
TEXT
  8
3
  40
90
  5
7F82
  62
0
  72
0
  71
0
 10
4798.40
 20
2452.72
 30
0.000000
  1
317
  0
INSERT
  5
7F40
  8
3
  6
CONTINUOUS
 62
     0
  2
_OPEN
 10
4793.297603
 20
2537.8932570000002
 30
0.0
 41
60.0
 42
60.0
 43
60.0
 50
180.0
  0
INSERT
  5
7F41
  8
3
  6
CONTINUOUS
 62
     0
  2
_OPEN
 10
5110.297603
 20
2537.8932570000002
 30
0.0
 41
60.0
 42
60.0
 43
60.0
  0
POINT
  5
7F42
  8
DEFPOINTS
  6
CONTINUOUS
 62
     0
 10
4793.297603
 20
2620.8195959999998
 30
0.0
  0
POINT
  5
7F43
  8
DEFPOINTS
  6
CONTINUOUS
 62
     0
 10
5110.297603
 20
2800.732242
 30
0.0
  0
POINT
  5
7F44
  8
DEFPOINTS
  6
CONTINUOUS
 62
     0
 10
5110.297603
 20
2537.8932570000002
 30
0.0
  0
ENDBLK
  5
7C82
  8
0
  0
BLOCK
  8
0
  2
*D10
 70
     1
 10
0.0
 20
0.0
 30
0.0
  3
*D10
  1

  0
LINE
  5
7F45
  8
3
  6
CONTINUOUS
 62
     0
 10
5058.2976029999991
 20
3975.732242
 30
0.0
 11
5058.2976029999991
 21
4101.4170279999998
 31
0.0
  0
LINE
  5
7F46
  8
3
  6
CONTINUOUS
 62
     0
 10
4528.297603
 20
3975.732242
 30
0.0
 11
4528.297603
 21
4101.4170279999998
 31
0.0
  0
LINE
  5
7F47
  8
3
  6
CONTINUOUS
 62
     0
 10
4998.2976030000009
 20
4071.4170279999998
 30
0.0
 11
4588.297603
 21
4071.4170279999998
 31
0.0
  0
INSERT
  5
7F48
  8
3
  6
CONTINUOUS
 62
     0
  2
_OPEN
 10
5058.2976029999991
 20
4071.4170279999998
 30
0.0
 41
60.0
 42
60.0
 43
60.0
  0
INSERT
  5
7F49
  8
3
  6
CONTINUOUS
 62
     0
  2
_OPEN
 10
4528.297603
 20
4071.4170279999998
 30
0.0
 41
60.0
 42
60.0
 43
60.0
 50
180.0
  0
TEXT
  8
3
  40
90
  5
7F83
  62
0
  72
0
  71
0
 10
4609.64
 20
3987.12
 30
0.000000
  1
530
  0
POINT
  5
7F4B
  8
DEFPOINTS
  6
CONTINUOUS
 62
     0
 10
5058.2976029999991
 20
3960.732242
 30
0.0
  0
POINT
  5
7F4C
  8
DEFPOINTS
  6
CONTINUOUS
 62
     0
 10
4528.297603
 20
3960.732242
 30
0.0
  0
POINT
  5
7F4D
  8
DEFPOINTS
  6
CONTINUOUS
 62
     0
 10
4528.297603
 20
4071.4170279999998
 30
0.0
  0
ENDBLK
  5
7CA3
  8
0
  0
BLOCK
  8
0
  2
*D11
 70
     1
 10
0.0
 20
0.0
 30
0.0
  3
*D11
  1

  0
LINE
  5
7F4E
  8
3
  6
CONTINUOUS
 62
     0
 10
5075.297603
 20
3802.732242
 30
0.0
 11
5368.9126810000007
 21
3802.7322419999991
 31
0.0
  0
LINE
  5
7F4F
  8
3
  6
CONTINUOUS
 62
     0
 10
5075.297603
 20
3048.732242
 30
0.0
 11
5368.9126810000007
 21
3048.7322419999991
 31
0.0
  0
LINE
  5
7F50
  8
3
  6
CONTINUOUS
 62
     0
 10
5338.9126809999998
 20
3742.7322419999991
 30
0.0
 11
5338.9126809999998
 21
3108.7322419999991
 31
0.0
  0
INSERT
  5
7F51
  8
3
  6
CONTINUOUS
 62
     0
  2
_OPEN
 10
5338.9126809999998
 20
3802.7322419999991
 30
0.0
 41
60.0
 42
60.0
 43
60.0
 50
90.0
  0
INSERT
  5
7F52
  8
3
  6
CONTINUOUS
 62
     0
  2
_OPEN
 10
5338.9126809999998
 20
3048.7322419999991
 30
0.0
 41
60.0
 42
60.0
 43
60.0
 50
270.0
  0
TEXT
  8
3
  40
90
  5
7F84
  62
0
  72
0
  71
0
 10
5083.91
 20
3256.72
 30
0.000000
  1
φ754
  0
POINT
  5
7F54
  8
DEFPOINTS
  6
CONTINUOUS
 62
     0
 10
5060.297603
 20
3802.732242
 30
0.0
  0
POINT
  5
7F55
  8
DEFPOINTS
  6
CONTINUOUS
 62
     0
 10
5060.297603
 20
3048.732242
 30
0.0
  0
POINT
  5
7F56
  8
DEFPOINTS
  6
CONTINUOUS
 62
     0
 10
5338.9126809999998
 20
3048.7322419999991
 30
0.0
  0
ENDBLK
  5
7CD8
  8
0
  0
BLOCK
  8
0
  2
*D12
 70
     1
 10
0.0
 20
0.0
 30
0.0
  3
*D12
  1

  0
LINE
  5
7CBA
  8
0
  6
BYBLOCK
 62
     0
 10
5060.297603
 20
3817.732242
 30
0.0
 11
5060.297603
 21
4297.9326409999994
 31
0.0
  0
LINE
  5
7CBB
  8
0
  6
BYBLOCK
 62
     0
 10
4793.297603
 20
4235.0268959999994
 30
0.0
 11
4793.297603
 21
4297.9326409999994
 31
0.0
  0
LINE
  5
7CBC
  8
0
  6
BYBLOCK
 62
     0
 10
5000.2976029999991
 20
4267.9326409999994
 30
0.0
 11
4853.297603
 21
4267.9326409999994
 31
0.0
  0
TEXT
  5
7CBD
  8
3
 62
     0
 10
4814.2715431516963
 20
4307.3257789506024
 30
0.0
 40
90.0
  1
267
  0
INSERT
  5
7CBE
  8
0
  6
BYBLOCK
 62
     0
  2
_OPEN
 10
5060.297603
 20
4267.9326409999994
 30
0.0
 41
60.0
 42
60.0
 43
60.0
  0
INSERT
  5
7CBF
  8
0
  6
BYBLOCK
 62
     0
  2
_OPEN
 10
4793.297603
 20
4267.9326409999994
 30
0.0
 41
60.0
 42
60.0
 43
60.0
 50
180.0
  0
POINT
  5
7CC0
  8
DEFPOINTS
  6
BYBLOCK
 62
     0
 10
5060.297603
 20
3802.732242
 30
0.0
  0
POINT
  5
7CC1
  8
DEFPOINTS
  6
BYBLOCK
 62
     0
 10
4793.297603
 20
4220.0268960000003
 30
0.0
  0
POINT
  5
7CC2
  8
DEFPOINTS
  6
BYBLOCK
 62
     0
 10
4793.297603
 20
4267.9326409999994
 30
0.0
  0
ENDBLK
  5
7CC3
  8
0
  0
BLOCK
  8
0
  2
*D13
 70
     1
 10
0.0
 20
0.0
 30
0.0
  3
*D13
  1

  0
LINE
  5
7F57
  8
3
  6
CONTINUOUS
 62
     0
 10
4293.297603
 20
4055.732242
 30
0.0
 11
4293.297603
 21
4297.9326409999994
 31
0.0
  0
LINE
  5
7F58
  8
3
  6
CONTINUOUS
 62
     0
 10
4733.2976029999991
 20
4267.9326409999994
 30
0.0
 11
4353.297603
 21
4267.9326409999994
 31
0.0
  0
INSERT
  5
7F59
  8
3
  6
CONTINUOUS
 62
     0
  2
_OPEN
 10
4793.297603
 20
4267.9326409999994
 30
0.0
 41
60.0
 42
60.0
 43
60.0
  0
INSERT
  5
7F5A
  8
3
  6
CONTINUOUS
 62
     0
  2
_OPEN
 10
4293.297603
 20
4267.9326409999994
 30
0.0
 41
60.0
 42
60.0
 43
60.0
 50
180.0
  0
TEXT
  8
3
  40
90
  5
7F85
  62
0
  72
0
  71
0
 10
4363.30
 20
4258.63
 30
0.000000
  1
MAX
  0
TEXT
  8
3
  40
90
  5
7F86
  62
0
  72
0
  71
0
 10
4363.30
 20
4141.63
 30
0.000000
  1
560
  0
POINT
  5
7F5C
  8
DEFPOINTS
  6
CONTINUOUS
 62
     0
 10
4793.297603
 20
4220.0268960000003
 30
0.0
  0
POINT
  5
7F5D
  8
DEFPOINTS
  6
CONTINUOUS
 62
     0
 10
4293.297603
 20
4040.7322419999991
 30
0.0
  0
POINT
  5
7F5E
  8
DEFPOINTS
  6
CONTINUOUS
 62
     0
 10
4293.297603
 20
4267.9326409999994
 30
0.0
  0
ENDBLK
  5
7CCD
  8
0
  0
BLOCK
  8
0
  2
*D14
 70
     1
 10
0.0
 20
0.0
 30
0.0
  3
*D14
  1

  0
LINE
  5
7F5F
  8
3
  6
CONTINUOUS
 62
     0
 10
1372.2456569999999
 20
6119.5091679999996
 30
0.0
 11
1372.2456569999999
 21
6323.5705420000004
 31
0.0
  0
LINE
  5
7F60
  8
3
  6
CONTINUOUS
 62
     0
 10
2872.2456569999999
 20
6119.5091679999996
 30
0.0
 11
2872.2456569999999
 21
6323.5705420000004
 31
0.0
  0
LINE
  5
7F61
  8
3
  6
CONTINUOUS
 62
     0
 10
1432.2456569999999
 20
6293.5705420000013
 30
0.0
 11
2812.2456569999999
 21
6293.5705420000013
 31
0.0
  0
INSERT
  5
7F62
  8
3
  6
CONTINUOUS
 62
     0
  2
_OPEN
 10
1372.2456569999999
 20
6293.5705420000013
 30
0.0
 41
60.0
 42
60.0
 43
60.0
 50
180.0
  0
INSERT
  5
7F63
  8
3
  6
CONTINUOUS
 62
     0
  2
_OPEN
 10
2872.2456569999999
 20
6293.5705420000013
 30
0.0
 41
60.0
 42
60.0
 43
60.0
  0
TEXT
  8
3
  40
90
  5
7F87
  62
0
  72
0
  71
0
 10
1942.19
 20
6209.27
 30
0.000000
  1
1500
  0
POINT
  5
7F65
  8
DEFPOINTS
  6
CONTINUOUS
 62
     0
 10
1372.2456569999999
 20
6104.5091679999987
 30
0.0
  0
POINT
  5
7F66
  8
DEFPOINTS
  6
CONTINUOUS
 62
     0
 10
2872.2456569999999
 20
6104.5091679999987
 30
0.0
  0
POINT
  5
7F67
  8
DEFPOINTS
  6
CONTINUOUS
 62
     0
 10
2872.2456569999999
 20
6293.5705420000013
 30
0.0
  0
ENDBLK
  5
7C55
  8
0
  0
BLOCK
  8
0
  2
*D15
 70
     1
 10
0.0
 20
0.0
 30
0.0
  3
*D15
  1

  0
LINE
  5
7F68
  8
3
  6
CONTINUOUS
 62
     0
 10
2887.2456569999999
 20
6104.5091679999987
 30
0.0
 11
3168.927482000001
 21
6104.5091679999987
 31
0.0
  0
LINE
  5
7F69
  8
3
  6
CONTINUOUS
 62
     0
 10
2887.2456569999999
 20
5344.5091679999996
 30
0.0
 11
3168.927482000001
 21
5344.5091679999996
 31
0.0
  0
LINE
  5
7F6A
  8
3
  6
CONTINUOUS
 62
     0
 10
3138.927482000001
 20
6044.5091679999996
 30
0.0
 11
3138.927482000001
 21
5404.5091679999996
 31
0.0
  0
INSERT
  5
7F6B
  8
3
  6
CONTINUOUS
 62
     0
  2
_OPEN
 10
3138.927482000001
 20
6104.5091679999987
 30
0.0
 41
60.0
 42
60.0
 43
60.0
 50
90.0
  0
INSERT
  5
7F6C
  8
3
  6
CONTINUOUS
 62
     0
  2
_OPEN
 10
3138.927482000001
 20
5344.5091679999996
 30
0.0
 41
60.0
 42
60.0
 43
60.0
 50
270.0
  0
TEXT
  8
3
  40
90
  5
7F88
  62
0
  72
0
  71
0
 10
2883.93
 20
5548.10
 30
0.000000
  1
760
  0
POINT
  5
7F6E
  8
DEFPOINTS
  6
CONTINUOUS
 62
     0
 10
2872.2456569999999
 20
6104.5091679999987
 30
0.0
  0
POINT
  5
7F6F
  8
DEFPOINTS
  6
CONTINUOUS
 62
     0
 10
2872.2456569999999
 20
5344.5091679999996
 30
0.0
  0
POINT
  5
7F70
  8
DEFPOINTS
  6
CONTINUOUS
 62
     0
 10
3138.927482000001
 20
5344.5091679999996
 30
0.0
  0
ENDBLK
  5
7BCE
  8
0
  0
BLOCK
  8
0
  2
*D16
 70
     1
 10
0.0
 20
0.0
 30
0.0
  3
*D16
  1

  0
LINE
  5
7F71
  8
3
 62
     0
 10
2402.076137
 20
4217.9763350000003
 30
0.0
 11
2402.076137
 21
4330.3721659999992
 31
0.0
  0
LINE
  5
7F72
  8
3
 62
     0
 10
2912.1191468274769
 20
3406.535629162162
 30
0.0
 11
2912.1191468274769
 21
4330.3721659999992
 31
0.0
  0
LINE
  5
7F73
  8
3
 62
     0
 10
2462.076137
 20
4300.3721659999983
 30
0.0
 11
2852.1191468274769
 21
4300.3721659999983
 31
0.0
  0
INSERT
  5
7F74
  8
3
 62
     0
  2
_OPEN
 10
2402.076137
 20
4300.3721659999983
 30
0.0
 41
60.0
 42
60.0
 43
60.0
 50
180.0
  0
INSERT
  5
7F75
  8
3
 62
     0
  2
_OPEN
 10
2912.1191468274769
 20
4300.3721659999983
 30
0.0
 41
60.0
 42
60.0
 43
60.0
  0
TEXT
  8
3
  40
90
  5
7F89
  62
0
  72
0
  71
0
 10
2477.10
 20
4216.07
 30
0.000000
  1
508
  0
POINT
  5
7F77
  8
DEFPOINTS
 62
     0
 10
2402.076137
 20
4202.9763350000003
 30
0.0
  0
POINT
  5
7F78
  8
DEFPOINTS
 62
     0
 10
2912.1191468274769
 20
3391.535629162162
 30
0.0
  0
POINT
  5
7F79
  8
DEFPOINTS
 62
     0
 10
2912.1191468274769
 20
4300.3721659999983
 30
0.0
  0
ENDBLK
  5
7D69
  8
0
  0
ENDSEC
  0
SECTION
  2
ENTITIES
  0
LINE
  5
7A61
  8
1
  6
CONTINUOUS
 10
5110.297603
 20
2900.732242
 30
0.0
 11
4293.297603
 21
2900.732242
 31
0.0
  0
LINE
  5
7A62
  8
1
  6
CONTINUOUS
 10
5110.297603
 20
2800.732242
 30
0.0
 11
4350.297603
 21
2800.732242
 31
0.0
  0
LINE
  5
7A63
  8
1
  6
CONTINUOUS
 10
5098.297603
 20
3960.732242
 30
0.0
 11
4488.297603
 21
3960.732242
 31
0.0
  0
POLYLINE
  5
7A68
  8
1
  6
CONTINUOUS
 66
     1
 10
0.0
 20
0.0
 30
0.0
  0
VERTEX
  5
7EF1
  8
1
  6
CONTINUOUS
 10
1706.2456569999999
 20
3960.732242
 30
0.0
  0
VERTEX
  5
7EF2
  8
1
  6
CONTINUOUS
 10
1722.2456569999999
 20
3425.732242
 30
0.0
 42
0.4200000000000001
  0
VERTEX
  5
7EF3
  8
1
  6
CONTINUOUS
 10
2414.035656999999
 20
2840.7122420000001
 30
0.0
 42
0.43
  0
VERTEX
  5
7EF4
  8
1
  6
CONTINUOUS
 10
2907.0156569999999
 20
3457.6522420000001
 30
0.0
 42
0.37
  0
VERTEX
  5
7EF5
  8
1
  6
CONTINUOUS
 10
2436.2456569999999
 20
3874.502242
 30
0.0
 42
0.34
  0
SEQEND
  5
7EF6
  8
1
  6
CONTINUOUS
  0
LINE
  5
7A6F
  8
1
  6
CONTINUOUS
 10
4433.2976029999991
 20
4040.7322419999991
 30
0.0
 11
4433.2976029999991
 21
2900.732242
 31
0.0
  0
LINE
  5
7A70
  8
1
  6
CONTINUOUS
 10
4293.297603
 20
4040.7322419999991
 30
0.0
 11
4293.297603
 21
2900.732242
 31
0.0
  0
LINE
  5
7A71
  8
1
  6
CONTINUOUS
 10
2252.2456569999999
 20
4040.7322419999991
 30
0.0
 11
1412.245656999999
 21
3200.732242
 31
0.0
  0
LINE
  5
7A72
  8
1
  6
CONTINUOUS
 10
2772.2456569999999
 20
2900.732242
 30
0.0
 11
2772.2456569999999
 21
4040.7322419999991
 31
0.0
  0
LINE
  5
7A73
  8
1
  6
CONTINUOUS
 10
4528.297603
 20
3960.732242
 30
0.0
 11
4528.297603
 21
2900.732242
 31
0.0
  0
LINE
  5
7A74
  8
1
  6
CONTINUOUS
 10
2335.5056570000002
 20
3560.062242
 30
0.0
 11
1555.175657
 21
3172.3722419999999
 31
0.0
  0
LINE
  5
7A75
  8
1
  6
CONTINUOUS
 10
2446.685657
 20
3282.4622420000001
 30
0.0
 11
1614.475656999999
 21
3024.3222420000002
 31
0.0
  0
LINE
  5
7A76
  8
1
  6
CONTINUOUS
 10
2872.2456569999999
 20
2800.732242
 30
0.0
 11
1372.2456569999999
 21
2800.732242
 31
0.0
  0
LINE
  5
7A77
  8
1
  6
CONTINUOUS
 10
2872.2456569999999
 20
2900.732242
 30
0.0
 11
1372.2456569999999
 21
2900.732242
 31
0.0
  0
LINE
  5
7A78
  8
1
  6
CONTINUOUS
 10
1372.2456569999999
 20
2900.732242
 30
0.0
 11
1372.2456569999999
 21
2800.732242
 31
0.0
  0
LINE
  5
7A79
  8
1
  6
CONTINUOUS
 10
1412.245656999999
 20
2900.732242
 30
0.0
 11
1412.245656999999
 21
3200.732242
 31
0.0
  0
CIRCLE
  5
7A7A
  8
1
  6
CONTINUOUS
 10
1590.7656569999999
 20
3100.732242
 30
0.0
 40
80.0
  0
ARC
  5
7A7B
  8
1
  6
CONTINUOUS
 10
1590.7656569999999
 20
3100.732242
 30
0.0
 40
162.0
 50
324.97000000000003
 51
215.02999999999989
  0
LINE
  5
7A7C
  8
1
  6
CONTINUOUS
 10
1436.7656569999999
 20
2958.7322419999991
 30
0.0
 11
1458.1156570000001
 21
3007.7422419999998
 31
0.0
  0
LINE
  5
7A7D
  8
1
  6
CONTINUOUS
 10
1436.7656569999999
 20
2900.732242
 30
0.0
 11
1436.7656569999999
 21
2958.7322419999991
 31
0.0
  0
LINE
  5
7A7E
  8
2
  6
CENTER
 10
1510.7656569999999
 20
3100.732242
 30
0.0
 11
1670.7656569999999
 21
3100.732242
 31
0.0
  0
LINE
  5
7A7F
  8
2
  6
CENTER
 10
1590.7656569999999
 20
3020.732242
 30
0.0
 11
1590.7656569999999
 21
3180.732242
 31
0.0
  0
LINE
  5
7A80
  8
1
  6
CONTINUOUS
 10
1744.7656569999999
 20
2900.732242
 30
0.0
 11
1744.7656569999999
 21
2958.7322419999991
 31
0.0
  0
LINE
  5
7A81
  8
1
  6
CONTINUOUS
 10
1744.7656569999999
 20
2958.7322419999991
 30
0.0
 11
1723.4256569999991
 21
3007.7422419999998
 31
0.0
  0
LINE
  5
7A82
  8
2
  6
CENTER
 10
2402.245656999999
 20
6299.9647940000004
 30
0.0
 11
2402.245656999999
 21
5178.1732480000001
 31
0.0
  0
LINE
  5
7A83
  8
2
  6
CENTER
 10
5116.8673669999998
 20
3425.732242
 30
0.0
 11
4187.832648999999
 21
3425.732242
 31
0.0
  0
LINE
  5
7A84
  8
1
  6
CONTINUOUS
 10
2872.2456569999999
 20
2900.732242
 30
0.0
 11
2872.2456569999999
 21
2800.732242
 31
0.0
  0
CIRCLE
  5
7A85
  8
1
  6
CONTINUOUS
 10
2402.245656999999
 20
3425.732242
 30
0.0
 40
150.0
  0
LINE
  5
7A86
  8
1
  6
CONTINUOUS
 10
4403.297603
 20
3446.732242
 30
0.0
 11
4528.297603
 21
3446.732242
 31
0.0
  0
LINE
  5
7A87
  8
1
  6
CONTINUOUS
 10
4403.297603
 20
3404.732242
 30
0.0
 11
4528.297603
 21
3404.732242
 31
0.0
  0
LINE
  5
7A88
  8
1
  6
CONTINUOUS
 10
4403.297603
 20
3039.732242
 30
0.0
 11
4528.297603
 21
3039.732242
 31
0.0
  0
LINE
  5
7A89
  8
1
  6
CONTINUOUS
 10
4403.297603
 20
3081.732242
 30
0.0
 11
4528.297603
 21
3081.732242
 31
0.0
  0
LINE
  5
7A8A
  8
1
  6
CONTINUOUS
 10
4323.297603
 20
3140.732242
 30
0.0
 11
4403.297603
 21
3140.732242
 31
0.0
  0
LINE
  5
7A8B
  8
1
  6
CONTINUOUS
 10
4323.297603
 20
2980.732242
 30
0.0
 11
4403.297603
 21
2980.732242
 31
0.0
  0
LINE
  5
7A8C
  8
1
  6
CONTINUOUS
 10
4323.297603
 20
3575.732242
 30
0.0
 11
4403.297603
 21
3575.732242
 31
0.0
  0
LINE
  5
7A8D
  8
1
  6
CONTINUOUS
 10
4323.297603
 20
3275.732242
 30
0.0
 11
4403.297603
 21
3275.732242
 31
0.0
  0
LINE
  5
7A8E
  8
1
  6
CONTINUOUS
 10
4323.297603
 20
2980.732242
 30
0.0
 11
4323.297603
 21
3140.732242
 31
0.0
  0
LINE
  5
7A8F
  8
1
  6
CONTINUOUS
 10
4403.297603
 20
2980.732242
 30
0.0
 11
4403.297603
 21
3140.732242
 31
0.0
  0
LINE
  5
7A90
  8
1
  6
CONTINUOUS
 10
4323.297603
 20
3275.732242
 30
0.0
 11
4323.297603
 21
3575.732242
 31
0.0
  0
LINE
  5
7A91
  8
1
  6
CONTINUOUS
 10
4403.297603
 20
3275.732242
 30
0.0
 11
4403.297603
 21
3575.732242
 31
0.0
  0
LINE
  5
7A92
  8
1
  6
CONTINUOUS
 10
4350.297603
 20
2900.732242
 30
0.0
 11
4350.297603
 21
2800.732242
 31
0.0
  0
LINE
  5
7A93
  8
1
  6
CONTINUOUS
 10
1712.205657
 20
5522.5091679999996
 30
0.0
 11
2442.205657
 21
6052.5091679999996
 31
0.0
  0
LINE
  5
7A94
  8
1
  6
CONTINUOUS
 10
1712.205657
 20
6052.5091679999996
 30
0.0
 11
2442.205657
 21
5522.5091679999996
 31
0.0
  0
LINE
  5
7A96
  8
1
  6
CONTINUOUS
 10
2476.2456569999999
 20
3960.732242
 30
0.0
 11
1666.2456569999999
 21
3960.732242
 31
0.0
  0
LINE
  5
7A97
  8
1
  6
CONTINUOUS
 10
2436.2456569999999
 20
3930.7322419999991
 30
0.0
 11
1707.145657
 21
3930.7322419999991
 31
0.0
  0
LINE
  5
7A98
  8
1
  6
CONTINUOUS
 10
1712.205657
 20
6052.5091679999996
 30
0.0
 11
2911.6156569999998
 21
6052.5091679999996
 31
0.0
  0
LINE
  5
7A99
  8
1
  6
CONTINUOUS
 10
1712.205657
 20
5522.5091679999996
 30
0.0
 11
2911.6156569999998
 21
5522.5091679999996
 31
0.0
  0
LINE
  5
7A9A
  8
1
  6
CONTINUOUS
 10
2772.2456569999999
 20
5427.5091679999996
 30
0.0
 11
1412.245656999999
 21
5427.5091679999996
 31
0.0
  0
LINE
  5
7A9B
  8
1
  6
CONTINUOUS
 10
2772.2456569999999
 20
5287.5091679999987
 30
0.0
 11
1412.245656999999
 21
5287.5091679999987
 31
0.0
  0
LINE
  5
7A9C
  8
1
  6
CONTINUOUS
 10
2252.2456569999999
 20
5344.5091679999996
 30
0.0
 11
1670.7656569999999
 21
5344.5091679999996
 31
0.0
  0
LINE
  5
7A9D
  8
1
  6
CONTINUOUS
 10
2872.2456569999999
 20
6104.5091679999987
 30
0.0
 11
1372.2456569999999
 21
6104.5091679999987
 31
0.0
  0
LINE
  5
7A9E
  8
1
  6
CONTINUOUS
 10
1412.245656999999
 20
5287.5091679999987
 30
0.0
 11
1412.245656999999
 21
5427.5091679999996
 31
0.0
  0
LINE
  5
7A9F
  8
1
  6
CONTINUOUS
 10
1372.2456569999999
 20
6104.5091679999987
 30
0.0
 11
1372.2456569999999
 21
5344.5091679999996
 31
0.0
  0
LINE
  5
7AA0
  8
1
  6
CONTINUOUS
 10
1569.7656569999999
 20
5397.5091679999996
 30
0.0
 11
1569.7656569999999
 21
5486.779168
 31
0.0
  0
LINE
  5
7AA1
  8
1
  6
CONTINUOUS
 10
1611.7656569999999
 20
5397.5091679999996
 30
0.0
 11
1611.7656569999999
 21
5486.779168
 31
0.0
  0
LINE
  5
7AA2
  8
1
  6
CONTINUOUS
 10
1670.7656569999999
 20
5397.5091679999996
 30
0.0
 11
1510.7656569999999
 21
5397.5091679999996
 31
0.0
  0
LINE
  5
7AA3
  8
1
  6
CONTINUOUS
 10
1670.7656569999999
 20
5317.5091679999987
 30
0.0
 11
1510.7656569999999
 21
5317.5091679999987
 31
0.0
  0
LINE
  5
7AA4
  8
1
  6
CONTINUOUS
 10
1670.7656569999999
 20
5317.5091679999987
 30
0.0
 11
1670.7656569999999
 21
5397.5091679999996
 31
0.0
  0
LINE
  5
7AA5
  8
1
  6
CONTINUOUS
 10
1510.7656569999999
 20
5317.5091679999987
 30
0.0
 11
1510.7656569999999
 21
5397.5091679999996
 31
0.0
  0
LINE
  5
7AA6
  8
1
  6
CONTINUOUS
 10
1510.7656569999999
 20
5344.5091679999996
 30
0.0
 11
1372.2456569999999
 21
5344.5091679999996
 31
0.0
  0
LINE
  5
7AA7
  8
1
  6
CONTINUOUS
 10
1712.205657
 20
5522.5091679999996
 30
0.0
 11
1712.205657
 21
6052.5091679999996
 31
0.0
  0
LINE
  5
7AA8
  8
1
  6
CONTINUOUS
 10
1423.7856569999999
 20
5486.779168
 30
0.0
 11
1423.7856569999999
 21
5942.7191679999987
 31
0.0
  0
LINE
  5
7AA9
  8
1
  6
CONTINUOUS
 10
1752.7656569999999
 20
5486.779168
 30
0.0
 11
1752.7656569999999
 21
5522.5091679999996
 31
0.0
  0
LINE
  5
7AAA
  8
1
  6
CONTINUOUS
 10
1423.7856569999999
 20
5486.779168
 30
0.0
 11
1752.7656569999999
 21
5486.779168
 31
0.0
  0
LINE
  5
7AAB
  8
1
  6
CONTINUOUS
 10
1423.7856569999999
 20
5942.7191679999987
 30
0.0
 11
1712.205657
 21
5942.7191679999987
 31
0.0
  0
LINE
  5
7AAC
  8
1
  6
CONTINUOUS
 10
2423.2456569999999
 20
5397.5091679999996
 30
0.0
 11
2423.2456569999999
 21
5522.5091679999996
 31
0.0
  0
LINE
  5
7AAD
  8
1
  6
CONTINUOUS
 10
2381.2456569999999
 20
5397.5091679999996
 30
0.0
 11
2381.2456569999999
 21
5522.5091679999996
 31
0.0
  0
LINE
  5
7AAE
  8
1
  6
CONTINUOUS
 10
2772.2456569999999
 20
5287.5091679999987
 30
0.0
 11
2772.2456569999999
 21
5427.5091679999996
 31
0.0
  0
LINE
  5
7AAF
  8
1
  6
CONTINUOUS
 10
2872.2456569999999
 20
5522.5091679999996
 30
0.0
 11
2872.2456569999999
 21
5344.5091679999996
 31
0.0
  0
LINE
  5
7AB0
  8
1
  6
CONTINUOUS
 10
2436.2456569999999
 20
3874.502242
 30
0.0
 11
2436.2456569999999
 21
3960.732242
 31
0.0
  0
LINE
  5
7AB1
  8
1
  6
CONTINUOUS
 10
2552.2456569999999
 20
5397.5091679999996
 30
0.0
 11
2252.2456569999999
 21
5397.5091679999996
 31
0.0
  0
LINE
  5
7AB2
  8
1
  6
CONTINUOUS
 10
2552.2456569999999
 20
5317.5091679999987
 30
0.0
 11
2252.2456569999999
 21
5317.5091679999987
 31
0.0
  0
LINE
  5
7AB3
  8
1
  6
CONTINUOUS
 10
2552.2456569999999
 20
5317.5091679999987
 30
0.0
 11
2552.2456569999999
 21
5397.5091679999996
 31
0.0
  0
LINE
  5
7AB4
  8
1
  6
CONTINUOUS
 10
2252.2456569999999
 20
5317.5091679999987
 30
0.0
 11
2252.2456569999999
 21
5397.5091679999996
 31
0.0
  0
LINE
  5
7AB5
  8
1
  6
CONTINUOUS
 10
2872.2456569999999
 20
5344.5091679999996
 30
0.0
 11
2552.2456569999999
 21
5344.5091679999996
 31
0.0
  0
LINE
  5
7AB6
  8
1
  6
CONTINUOUS
 10
2772.2456569999999
 20
4040.7322419999991
 30
0.0
 11
2252.2456569999999
 21
4040.7322419999991
 31
0.0
  0
LINE
  5
7AB7
  8
1
  6
CONTINUOUS
 10
4433.2976029999991
 20
4040.7322419999991
 30
0.0
 11
4293.297603
 21
4040.7322419999991
 31
0.0
  0
LINE
  5
7AB8
  8
1
  6
CONTINUOUS
 10
2442.205657
 20
5522.5091679999996
 30
0.0
 11
2442.205657
 21
6052.5091679999996
 31
0.0
  0
LINE
  5
7AB9
  8
1
  6
CONTINUOUS
 10
2872.2456569999999
 20
6104.5091679999987
 30
0.0
 11
2872.2456569999999
 21
6052.5091679999996
 31
0.0
  0
LINE
  5
7ABA
  8
1
  6
CONTINUOUS
 10
2911.6156569999998
 20
5522.5091679999996
 30
0.0
 11
2911.6156569999998
 21
6052.5091679999996
 31
0.0
  0
LINE
  5
7ABB
  8
1
  6
CONTINUOUS
 10
5058.2976029999991
 20
3960.732242
 30
0.0
 11
5058.2976029999991
 21
2900.732242
 31
0.0
  0
LINE
  5
7ABC
  8
1
  6
CONTINUOUS
 10
5110.297603
 20
2900.732242
 30
0.0
 11
5110.297603
 21
2800.732242
 31
0.0
  0
LINE
  5
7ABD
  8
2
  6
CENTER
 10
1290.057706999999
 20
5787.5091679999987
 30
0.0
 11
2969.4718549999998
 21
5787.5091679999987
 31
0.0
  0
LINE
  5
7ABE
  8
2
  6
CENTER
 10
4793.297603
 20
4220.0268960000003
 30
0.0
 11
4793.297603
 21
4213.5300500000012
 31
0.0
  0
LINE
  5
7ABF
  8
2
  6
CENTER
 10
2402.076137
 20
4202.9763350000003
 30
0.0
 11
2402.245656999999
 21
2606.23765
 31
0.0
  0
LINE
  5
7AC0
  8
2
  6
CENTER
 10
3013.9834860000001
 20
3425.732242
 30
0.0
 11
1439.485752
 21
3425.732242
 31
0.0
  0
LINE
  5
7AC1
  8
4
  6
CONTINUOUS
 10
5550.0
 20
1500.0
 30
0.0
 11
5550.0
 21
900.0
 31
0.0
  0
LINE
  5
7AC2
  8
4
  6
CONTINUOUS
 10
3450.0
 20
1500.0
 30
0.0
 11
3450.0
 21
900.0
 31
0.0
  0
LINE
  5
7AC3
  8
4
  6
CONTINUOUS
 10
1950.0
 20
1500.0
 30
0.0
 11
1950.0
 21
900.0
 31
0.0
  0
LINE
  5
7AC6
  8
4
  6
CONTINUOUS
 10
1950.0
 20
900.0
 30
0.0
 11
5550.0
 21
900.0
 31
0.0
  0
LINE
  5
7AC7
  8
4
  6
CONTINUOUS
 10
1950.0
 20
1200.0
 30
0.0
 11
5550.0
 21
1200.0
 31
0.0
  0
TEXT
  5
7AC8
  8
4
  6
CONTINUOUS
 10
2065.5062429999989
 20
1294.6290779999999
 30
0.0
 40
150.0
  1
機器名称
  0
TEXT
  5
7AC9
  8
4
  6
CONTINUOUS
 10
2058.7743179999989
 20
964.9354699999999
 30
0.0
 40
150.0
  1
機器型番
  0
TEXT
  5
7ACA
  8
4
  6
CONTINUOUS
 10
3533.0362359999999
 20
1267.7153069999999
 30
0.0
 40
150.0
  1
ミツヤ多翼送風機
  0
TEXT
  5
7ACB
  8
4
  6
CONTINUOUS
 10
3559.9634869999991
 20
951.47875299999987
 30
0.0
 40
150.0
  1
MF#4 1/2-4
  0
TEXT
  5
7ACD
  8
4
  6
CONTINUOUS
 10
2714.3572960000001
 20
7150.2865239999992
 30
0.0
 40
162.0
  1
床置ベット
  0
TEXT
  5
7ACE
  8
4
  6
CONTINUOUS
 10
948.50278000000014
 20
7601.6429289999996
 30
0.0
 40
216.0
  1
ベルト駆動式片吸込両持多翼ファン
  0
LINE
  5
7ACF
  8
4
  6
CONTINUOUS
 10
750.0
 20
7408.2262629999996
 30
0.0
 11
5550.0
 21
7408.2262629999996
 31
0.0
  0
LINE
  5
7AD0
  8
4
  6
CONTINUOUS
 10
750.0
 20
8008.2262629999996
 30
0.0
 11
5550.0
 21
8008.2262629999996
 31
0.0
  0
LINE
  5
7AD1
  8
4
  6
CONTINUOUS
 10
1950.0
 20
1500.0
 30
0.0
 11
5550.0
 21
1500.0
 31
0.0
  0
LINE
  5
7AD2
  8
4
  6
CONTINUOUS
 10
750.0
 20
8008.2262629999996
 30
0.0
 11
750.0
 21
7408.2262629999996
 31
0.0
  0
TEXT
  5
7AD3
  8
4
  6
CONTINUOUS
 10
1406.7807999999991
 20
7146.9584329999998
 30
0.0
 40
162.0
  1
右回転上向
  0
TEXT
  5
7AD4
  8
4
  6
CONTINUOUS
 10
4406.9086779999989
 20
8118.1832439999989
 30
0.0
 40
168.0
  1
No.
  0
TEXT
  5
7AD5
  8
4
  6
CONTINUOUS
 10
3933.8881879999999
 20
7150.2865239999992
 30
0.0
 40
162.0
  1
縮尺：1/30
  0
LINE
  5
7AD6
  8
4
  6
CONTINUOUS
 10
5550.0
 20
8008.2262629999996
 30
0.0
 11
5550.0
 21
7408.2262629999996
 31
0.0
  0
LINE
  5
7AD8
  8
4
  6
CONTINUOUS
 10
4321.8522670000002
 20
8043.7907490000007
 30
0.0
 11
4321.8522670000002
 21
8359.9567849999985
 31
0.0
  0
LINE
  5
7AD9
  8
4
  6
CONTINUOUS
 10
4321.8522670000002
 20
8359.9567849999985
 30
0.0
 11
5550.0
 21
8359.9567849999985
 31
0.0
  0
LINE
  5
7ADA
  8
4
  6
CONTINUOUS
 10
5550.0
 20
8359.9567849999985
 30
0.0
 11
5550.0
 21
8043.7907490000007
 31
0.0
  0
LINE
  5
7ADB
  8
4
  6
CONTINUOUS
 10
5550.0
 20
8043.7907490000007
 30
0.0
 11
4321.8522670000002
 21
8043.7907490000007
 31
0.0
  0
DIMENSION
  5
7AF3
  8
3
  6
CONTINUOUS
  2
*D1
 10
2436.2456569999999
 20
4142.7185490000002
 30
0.0
 11
2092.977167
 21
4142.7185490000002
 31
0.0
 70
   128
 13
1706.2456569999999
 23
3960.732242
 33
0.0
 14
2436.2456569999999
 24
3960.732242
 34
0.0
1001
ACAD
1000
DSTYLE
1002
{
1070
   287
1070
     3
1070
   287
1070
     3
1070
    40
1040
30.0
1070
   143
1040
0.039
1070
   172
1070
     1
1070
   271
1070
     0
1070
   279
1070
     0
1070
   288
1070
     1
1002
}
  0
DIMENSION
  5
7B01
  8
3
  6
CONTINUOUS
  2
*D2
 10
2402.076137
 20
4300.3721659999983
 30
0.0
 11
2102.650963999999
 21
4300.3721659999983
 31
0.0
 70
   128
 13
1706.2456569999999
 23
3960.732242
 33
0.0
 14
2402.076137
 24
4202.9763350000003
 34
0.0
1001
ACAD
1000
DSTYLE
1002
{
1070
   287
1070
     3
1070
   287
1070
     3
1070
    40
1040
30.0
1070
   143
1040
0.039
1070
   172
1070
     1
1070
   271
1070
     0
1070
   279
1070
     0
1070
   288
1070
     1
1002
}
  0
DIMENSION
  5
7B1A
  8
3
  6
CONTINUOUS
  2
*D3
 10
3209.8891160000012
 20
3425.7322419999991
 30
0.0
 11
3209.8891159999998
 21
3684.6137779999999
 31
0.0
 70
   128
 13
2476.2456569999999
 23
3960.732242
 33
0.0
 14
3013.9834860000001
 24
3425.732242
 34
0.0
 50
90.0
1001
ACAD
1000
DSTYLE
1002
{
1070
   287
1070
     3
1070
   287
1070
     3
1070
    40
1040
30.0
1070
   143
1040
0.039
1070
   172
1070
     1
1070
   271
1070
     0
1070
   279
1070
     0
1070
   288
1070
     1
1002
}
  0
DIMENSION
  5
7B26
  8
3
  6
CONTINUOUS
  2
*D4
 10
3209.8891159999998
 20
2800.732242
 30
0.0
 11
3134.8891159999989
 21
3113.232242
 31
0.0
 70
     0
 13
3013.9834860000001
 23
3425.732242
 33
0.0
 14
2872.2456569999999
 24
2800.732242
 34
0.0
 50
90.0
1001
ACAD
1000
DSTYLE
1002
{
1070
   287
1070
     4
1070
   287
1070
     4
1070
    40
1040
30.0
1070
    75
1070
     1
1070
   143
1040
0.039
1070
   172
1070
     1
1070
   271
1070
     0
1070
   279
1070
     1
1070
   288
1070
     1
1002
}
  0
DIMENSION
  5
7B33
  8
3
  6
CONTINUOUS
  2
*D5
 10
3396.8746609999998
 20
2800.732242
 30
0.0
 11
3396.8746609999998
 21
3351.789467999999
 31
0.0
 70
   128
 13
2491.2456569999999
 23
3960.732242
 33
0.0
 14
2872.2456569999999
 24
2800.732242
 34
0.0
 50
90.0
1001
ACAD
1000
DSTYLE
1002
{
1070
   287
1070
     3
1070
   287
1070
     3
1070
    40
1040
30.0
1070
   143
1040
0.039
1070
   172
1070
     1
1070
   271
1070
     0
1070
   279
1070
     0
1070
   288
1070
     1
1002
}
  0
DIMENSION
  5
7B40
  8
3
  6
CONTINUOUS
  2
*D6
 10
2402.245656999999
 20
2533.8709170000002
 30
0.0
 11
1923.52154
 21
2533.8709170000002
 31
0.0
 70
   128
 13
1372.2456569999999
 23
2800.732242
 33
0.0
 14
2402.245656999999
 24
2606.23765
 34
0.0
1001
ACAD
1000
DSTYLE
1002
{
1070
   287
1070
     3
1070
   287
1070
     3
1070
    40
1040
30.0
1070
   143
1040
0.039
1070
   172
1070
     1
1070
   271
1070
     0
1070
   279
1070
     0
1070
   288
1070
     1
1002
}
  0
DIMENSION
  5
7B4C
  8
3
  6
CONTINUOUS
  2
*D7
 10
2872.2456569999999
 20
2533.8709170000002
 30
0.0
 11
2637.2456569999999
 21
2608.8709170000002
 31
0.0
 70
     0
 13
2402.245656999999
 23
2606.23765
 33
0.0
 14
2872.2456569999999
 24
2800.732242
 34
0.0
1001
ACAD
1000
DSTYLE
1002
{
1070
   287
1070
     4
1070
   287
1070
     4
1070
    40
1040
30.0
1070
    75
1070
     1
1070
   143
1040
0.039
1070
   172
1070
     1
1070
   271
1070
     0
1070
   279
1070
     1
1070
   288
1070
     1
1002
}
  0
DIMENSION
  5
7B59
  8
3
  6
CONTINUOUS
  2
*D8
 10
4793.297603
 20
2537.8932570000002
 30
0.0
 11
4556.0118890000003
 21
2537.8932570000002
 31
0.0
 70
   128
 13
4350.297603
 23
2800.732242
 33
0.0
 14
4793.297603
 24
2620.8195959999998
 34
0.0
1001
ACAD
1000
DSTYLE
1002
{
1070
   287
1070
     3
1070
   287
1070
     3
1070
    40
1040
30.0
1070
   143
1040
0.039
1070
   172
1070
     1
1070
   271
1070
     0
1070
   279
1070
     0
1070
   288
1070
     1
1002
}
  0
DIMENSION
  5
7B67
  8
3
  6
CONTINUOUS
  2
*D9
 10
5110.297603
 20
2537.8932570000002
 30
0.0
 11
4978.3991729999989
 21
2537.022633
 31
0.0
 70
   128
 13
4793.297603
 23
2620.8195959999998
 33
0.0
 14
5110.297603
 24
2800.732242
 34
0.0
1001
ACAD
1000
DSTYLE
1002
{
1070
   287
1070
     4
1070
   287
1070
     4
1070
    40
1040
30.0
1070
    75
1070
     1
1070
   143
1040
0.039
1070
   172
1070
     1
1070
   271
1070
     0
1070
   279
1070
     1
1070
   288
1070
     1
1002
}
  0
DIMENSION
  5
7B74
  8
3
  6
CONTINUOUS
  2
*D10
 10
4528.297603
 20
4071.4170279999998
 30
0.0
 11
4789.6426799999999
 21
4071.4170279999998
 31
0.0
 70
   128
 13
5058.2976029999991
 23
3960.732242
 33
0.0
 14
4528.297603
 24
3960.732242
 34
0.0
1001
ACAD
1000
DSTYLE
1002
{
1070
   287
1070
     3
1070
   287
1070
     3
1070
    40
1040
30.0
1070
   143
1040
0.039
1070
   172
1070
     1
1070
   271
1070
     0
1070
   279
1070
     0
1070
   288
1070
     1
1002
}
  0
LINE
  5
7B75
  8
1
  6
CONTINUOUS
 10
5060.297603
 20
3802.732242
 30
0.0
 11
5060.297603
 21
3048.732242
 31
0.0
  0
DIMENSION
  5
7B84
  8
3
  6
CONTINUOUS
  2
*D11
 10
5338.9126809999998
 20
3048.7322419999991
 30
0.0
 11
5338.9126809999998
 21
3416.018724
 31
0.0
 70
   128
 13
5060.297603
 23
3802.732242
 33
0.0
 14
5060.297603
 24
3048.732242
 34
0.0
 50
90.0
1001
ACAD
1000
DSTYLE
1002
{
1070
   287
1070
     3
1070
   287
1070
     3
1070
     3
1000
φ<>
1070
    40
1040
30.0
1070
   143
1040
0.039
1070
   172
1070
     1
1070
   271
1070
     0
1070
   279
1070
     0
1070
   288
1070
     1
1002
}
  0
DIMENSION
  5
7B92
  8
3
  6
CONTINUOUS
  2
*D12
 10
4793.297603
 20
4267.9326409999994
 30
0.0
 11
4929.9858288659816
 21
4352.3257789506033
 31
0.0
 70
   128
 13
5060.297603
 23
3802.732242
 33
0.0
 14
4793.297603
 24
4220.0268960000003
 34
0.0
1001
ACAD
1000
DSTYLE
1002
{
1070
   288
1070
     1
1070
   172
1070
     1
1070
    40
1040
30.0
1070
   271
1070
     0
1070
   143
1040
0.039
1002
}
  0
DIMENSION
  5
7B9E
  8
3
  6
CONTINUOUS
  2
*D13
 10
4293.297603
 20
4267.9326409999994
 30
0.0
 11
4543.297603
 21
4417.9326409999994
 31
0.0
 70
     0
  1
MAX\P560
 13
4793.297603
 23
4220.0268960000003
 33
0.0
 14
4293.297603
 24
4040.7322419999991
 34
0.0
1001
ACAD
1000
DSTYLE
1002
{
1070
   287
1070
     4
1070
   287
1070
     4
1070
    40
1040
30.0
1070
    75
1070
     1
1070
   143
1040
0.039
1070
   172
1070
     1
1070
   271
1070
     0
1070
   279
1070
     1
1070
   288
1070
     1
1002
}
  0
LINE
  5
7BB5
  8
2
  6
CENTER
 10
4793.297603
 20
4034.86013
 30
0.0
 11
4793.297603
 21
2620.8195959999998
 31
0.0
  0
DIMENSION
  5
7BC2
  8
3
  6
CONTINUOUS
  2
*D14
 10
2872.2456569999999
 20
6293.5705420000013
 30
0.0
 11
2122.1936860000001
 21
6293.5705420000013
 31
0.0
 70
   128
 13
1372.2456569999999
 23
6104.5091679999987
 33
0.0
 14
2872.2456569999999
 24
6104.5091679999987
 34
0.0
1001
ACAD
1000
DSTYLE
1002
{
1070
   287
1070
     3
1070
   287
1070
     3
1070
    40
1040
30.0
1070
   143
1040
0.039
1070
   172
1070
     1
1070
   271
1070
     0
1070
   279
1070
     0
1070
   288
1070
     1
1002
}
  0
DIMENSION
  5
7BCF
  8
3
  6
CONTINUOUS
  2
*D15
 10
3138.927482000001
 20
5344.5091679999996
 30
0.0
 11
3138.9274820000001
 21
5707.3962289999999
 31
0.0
 70
   128
 13
2872.2456569999999
 23
6104.5091679999987
 33
0.0
 14
2872.2456569999999
 24
5344.5091679999996
 34
0.0
 50
90.0
1001
ACAD
1000
DSTYLE
1002
{
1070
   287
1070
     3
1070
   287
1070
     3
1070
    40
1040
30.0
1070
   143
1040
0.039
1070
   172
1070
     1
1070
   271
1070
     0
1070
   279
1070
     0
1070
   288
1070
     1
1002
}
  0
LINE
  5
7D59
  8
1
  6
CONTINUOUS
 10
1942.1167158873709
 20
3820.732242
 30
0.0
 11
1942.214388976565
 21
2900.732242
 31
0.0
  0
LINE
  5
7D5A
  8
1
  6
CONTINUOUS
 10
2862.116721072171
 20
3820.732242
 30
0.0
 11
2862.2143941613658
 21
2900.732242
 31
0.0
  0
LINE
  5
7D5B
  8
1
  6
CONTINUOUS
 10
2862.116721072171
 20
3820.732242
 30
0.0
 11
1942.1167158873709
 21
3820.732242
 31
0.0
  0
DIMENSION
  5
7D5D
  8
3
  2
*D16
 10
2912.1191468274769
 20
4300.3721659999983
 30
0.0
 11
2657.0976419137378
 21
4375.3721659999992
 31
0.0
 70
     0
  1
508
 13
2402.076137
 23
4202.9763350000003
 33
0.0
 14
2912.1191468274769
 24
3391.535629162162
 34
0.0
1001
ACAD
1000
DSTYLE
1002
{
1070
   287
1070
     4
1070
   287
1070
     4
1070
    40
1040
30.0
1070
   143
1040
0.039
1070
   172
1070
     1
1070
   271
1070
     0
1070
   279
1070
     1
1070
   288
1070
     1
1002
}
  0
ENDSEC
  0
EOF
