  0
SECTION
  2
HEADER
  9
$ACADVER
  1
AC1009
  9
$INSBASE
 10
0.0
 20
0.0
 30
0.0
  9
$EXTMIN
 10
750.0
 20
900.0
 30
0.0
  9
$EXTMAX
 10
5550.0
 20
8359.9567849999985
 30
0.0
  9
$LIMMIN
 10
0.0
 20
0.0
  9
$LIMMAX
 10
297.0
 20
210.0
  9
$ORTHOMODE
 70
     0
  9
$REGENMODE
 70
     1
  9
$FILLMODE
 70
     0
  9
$QTEXTMODE
 70
     0
  9
$MIRRTEXT
 70
     1
  9
$DRAGMODE
 70
     2
  9
$LTSCALE
 40
100.0
  9
$OSMODE
 70
    37
  9
$ATTMODE
 70
     1
  9
$TEXTSIZE
 40
180.0
  9
$TRACEWID
 40
0.05
  9
$TEXTSTYLE
  7
STANDARD
  9
$CLAYER
  8
3
  9
$CELTYPE
  6
BYLAYER
  9
$CECOLOR
 62
   256
  9
$DIMSCALE
 40
30.0
  9
$DIMASZ
 40
2.0
  9
$DIMEXO
 40
0.5
  9
$DIMDLI
 40
10.0
  9
$DIMRND
 40
0.0
  9
$DIMDLE
 40
0.0
  9
$DIMEXE
 40
1.0
  9
$DIMTP
 40
1.0
  9
$DIMTM
 40
1.0
  9
$DIMTXT
 40
3.0
  9
$DIMCEN
 40
0.0
  9
$DIMTSZ
 40
0.0
  9
$DIMTOL
 70
     0
  9
$DIMLIM
 70
     0
  9
$DIMTIH
 70
     0
  9
$DIMTOH
 70
     0
  9
$DIMSE1
 70
     0
  9
$DIMSE2
 70
     0
  9
$DIMTAD
 70
     1
  9
$DIMZIN
 70
     8
  9
$DIMBLK
  1

  9
$DIMASO
 70
     1
  9
$DIMSHO
 70
     1
  9
$DIMPOST
  1

  9
$DIMAPOST
  1

  9
$DIMALT
 70
     0
  9
$DIMALTD
 70
     2
  9
$DIMALTF
 40
0.039
  9
$DIMLFAC
 40
1.0
  9
$DIMTOFL
 70
     1
  9
$DIMTVP
 40
0.0
  9
$DIMTIX
 70
     0
  9
$DIMSOXD
 70
     0
  9
$DIMSAH
 70
     1
  9
$DIMBLK1
  1
OPEN
  9
$DIMBLK2
  1
OPEN
  9
$DIMSTYLE
  2
IGA
  9
$DIMCLRD
 70
     0
  9
$DIMCLRE
 70
     0
  9
$DIMCLRT
 70
     0
  9
$DIMTFAC
 40
10.0
  9
$DIMGAP
 40
1.0
  9
$LUNITS
 70
     2
  9
$LUPREC
 70
     3
  9
$SKETCHINC
 40
0.1
  9
$FILLETRAD
 40
50.0
  9
$AUNITS
 70
     0
  9
$AUPREC
 70
     0
  9
$MENU
  1
acad
  9
$ELEVATION
 40
0.0
  9
$PELEVATION
 40
0.0
  9
$THICKNESS
 40
0.0
  9
$LIMCHECK
 70
     0
  9
$BLIPMODE
 70
     0
  9
$CHAMFERA
 40
0.5
  9
$CHAMFERB
 40
0.5
  9
$SKPOLY
 70
     0
  9
$TDCREATE
 40
2450743.3799883099
  9
$TDUPDATE
 40
2454953.7732938998
  9
$TDINDWG
 40
0.0104145833
  9
$TDUSRTIMER
 40
0.0104145833
  9
$USRTIMER
 70
     1
  9
$ANGBASE
 50
0.0
  9
$ANGDIR
 70
     0
  9
$PDMODE
 70
     0
  9
$PDSIZE
 40
0.0
  9
$PLINEWID
 40
0.0
  9
$COORDS
 70
     1
  9
$SPLFRAME
 70
     0
  9
$SPLINETYPE
 70
     6
  9
$SPLINESEGS
 70
     8
  9
$ATTDIA
 70
     0
  9
$ATTREQ
 70
     1
  9
$HANDLING
 70
 10241
  9
$HANDSEED
  5
7E3D
  9
$SURFTAB1
 70
     6
  9
$SURFTAB2
 70
     6
  9
$SURFTYPE
 70
     6
  9
$SURFU
 70
     6
  9
$SURFV
 70
     6
  9
$UCSNAME
  2

  9
$UCSORG
 10
0.0
 20
0.0
 30
0.0
  9
$UCSXDIR
 10
1.0
 20
0.0
 30
0.0
  9
$UCSYDIR
 10
0.0
 20
1.0
 30
0.0
  9
$PUCSNAME
  2

  9
$PUCSORG
 10
0.0
 20
0.0
 30
0.0
  9
$PUCSXDIR
 10
1.0
 20
0.0
 30
0.0
  9
$PUCSYDIR
 10
0.0
 20
1.0
 30
0.0
  9
$USERI1
 70
     0
  9
$USERI2
 70
     0
  9
$USERI3
 70
     0
  9
$USERI4
 70
     0
  9
$USERI5
 70
     0
  9
$USERR1
 40
0.0
  9
$USERR2
 40
0.0
  9
$USERR3
 40
0.0
  9
$USERR4
 40
0.0
  9
$USERR5
 40
0.0
  9
$WORLDVIEW
 70
     1
  9
$SHADEDGE
 70
     3
  9
$SHADEDIF
 70
    70
  9
$TILEMODE
 70
     1
  9
$MAXACTVP
 70
    16
  9
$PLIMCHECK
 70
     0
  9
$PEXTMIN
 10
1.0000000000000000E+020
 20
1.0000000000000000E+020
 30
1.0000000000000000E+020
  9
$PEXTMAX
 10
-1.0000000000000000E+020
 20
-1.0000000000000000E+020
 30
-1.0000000000000000E+020
  9
$PLIMMIN
 10
0.0
 20
0.0
  9
$PLIMMAX
 10
12.0
 20
9.0
  9
$UNITMODE
 70
     0
  9
$VISRETAIN
 70
     0
  9
$PLINEGEN
 70
     0
  9
$PSLTSCALE
 70
     1
  0
ENDSEC
  0
SECTION
  2
TABLES
  0
TABLE
  2
VPORT
 70
     2
  0
VPORT
  2
*ACTIVE
 70
     0
 10
0.0
 20
0.0
 11
1.0
 21
1.0
 12
9438.4567678319436
 22
4630.0975558305709
 13
0.0
 23
0.0
 14
10.0
 24
10.0
 15
10.0
 25
10.0
 16
0.0
 26
0.0
 36
1.0
 17
0.0
 27
0.0
 37
0.0
 40
7517.4747125171307
 41
3.1666666666666661
 42
50.0
 43
0.0
 44
0.0
 50
0.0
 51
0.0
 71
     0
 72
   100
 73
     1
 74
     0
 75
     0
 76
     0
 77
     0
 78
     0
  0
ENDTAB
  0
TABLE
  2
LTYPE
 70
     2
  0
LTYPE
  2
CONTINUOUS
 70
     0
  3
Solid line
 72
    65
 73
     0
 40
0.0
  0
LTYPE
  2
CENTER
 70
     0
  3
____ _ ____ _ ____ _ ____ _ ____ _ ____ _ ____ 
 72
    65
 73
     4
 40
2.0
 49
1.25
 49
-0.25
 49
0.25
 49
-0.25
  0
ENDTAB
  0
TABLE
  2
LAYER
 70
     6
  0
LAYER
  2
0
 70
     0
 62
     7
  6
CONTINUOUS
  0
LAYER
  2
3
 70
     0
 62
     2
  6
CONTINUOUS
  0
LAYER
  2
2
 70
     0
 62
     3
  6
CENTER
  0
LAYER
  2
1
 70
     0
 62
     4
  6
CONTINUOUS
  0
LAYER
  2
4
 70
     0
 62
     7
  6
CONTINUOUS
  0
LAYER
  2
DEFPOINTS
 70
     0
 62
     7
  6
CONTINUOUS
  0
ENDTAB
  0
TABLE
  2
STYLE
 70
     1
  0
STYLE
  2
STANDARD
 70
     0
 40
0.0
 41
1.0
 50
0.0
 71
     0
 42
180.0
  3
simplex.shx
  4
extfont.shx
  0
ENDTAB
  0
TABLE
  2
VIEW
 70
     0
  0
ENDTAB
  0
TABLE
  2
UCS
 70
     0
  0
ENDTAB
  0
TABLE
  2
APPID
 70
     1
  0
APPID
  2
ACAD
 70
     0
  0
ENDTAB
  0
TABLE
  2
DIMSTYLE
 70
     1
  0
DIMSTYLE
  2
IGA
 70
     0
  3

  4

  5

  6
OPEN
  7
OPEN
 40
2.0
 41
2.0
 42
0.5
 43
10.0
 44
1.0
 45
0.0
 46
0.0
 47
1.0
 48
1.0
140
3.0
141
0.0
142
0.0
143
0.03937
144
1.0
145
0.0
146
10.0
147
1.0
 71
     0
 72
     0
 73
     0
 74
     0
 75
     0
 76
     0
 77
     1
 78
     8
170
     0
171
     2
172
     0
173
     1
174
     0
175
     0
176
     0
177
     0
178
     0
  0
ENDTAB
  0
ENDSEC
  0
SECTION
  2
BLOCKS
  0
BLOCK
  8
0
  2
$MODEL_SPACE
 70
     0
 10
0.0
 20
0.0
 30
0.0
  3
$MODEL_SPACE
  1

  0
ENDBLK
  5
1B
  8
0
  0
BLOCK
 67
     1
  8
0
  2
$PAPER_SPACE
 70
     0
 10
0.0
 20
0.0
 30
0.0
  3
$PAPER_SPACE
  1

  0
ENDBLK
  5
18
 67
     1
  8
0
  0
BLOCK
  8
0
  2
_OPEN
 70
     0
 10
0.0
 20
0.0
 30
0.0
  3
_OPEN
  1

  0
LINE
  5
7ADC
  8
0
  6
BYBLOCK
 62
     0
 10
-1.0
 20
0.166667
 30
0.0
 11
0.0
 21
0.0
 31
0.0
  0
LINE
  5
7ADD
  8
0
  6
BYBLOCK
 62
     0
 10
0.0
 20
0.0
 30
0.0
 11
-1.0
 21
-0.166667
 31
0.0
  0
LINE
  5
7ADE
  8
0
  6
BYBLOCK
 62
     0
 10
0.0
 20
0.0
 30
0.0
 11
-1.0
 21
0.0
 31
0.0
  0
ENDBLK
  5
7ADF
  8
0
  0
BLOCK
  8
0
  2
*D1
 70
     1
 10
0.0
 20
0.0
 30
0.0
  3
*D1
  1

  0
LINE
  5
7DA1
  8
3
  6
CONTINUOUS
 62
     0
 10
2693.2471139999998
 20
3975.2253019999998
 30
0.0
 11
2910.4927370000009
 21
3975.2253019999998
 31
0.0
  0
LINE
  5
7DA2
  8
3
  6
CONTINUOUS
 62
     0
 10
2693.2471139999998
 20
3245.2253019999998
 30
0.0
 11
2910.4927370000009
 21
3245.2253019999998
 31
0.0
  0
LINE
  5
7DA3
  8
3
  6
CONTINUOUS
 62
     0
 10
2880.492737
 20
3915.2253019999998
 30
0.0
 11
2880.492737
 21
3305.2253019999998
 31
0.0
  0
INSERT
  5
7DA4
  8
3
  6
CONTINUOUS
 62
     0
  2
_OPEN
 10
2880.492737
 20
3975.2253019999998
 30
0.0
 41
60.0
 42
60.0
 43
60.0
 50
90.0
  0
INSERT
  5
7DA5
  8
3
  6
CONTINUOUS
 62
     0
  2
_OPEN
 10
2880.492737
 20
3245.2253019999998
 30
0.0
 41
60.0
 42
60.0
 43
60.0
 50
270.0
  0
TEXT
  8
3
  40
90
  5
7E2C
  62
0
  72
0
  71
0
 10
2625.49
 20
3428.69
 30
0.000000
  1
730
  0
POINT
  5
7DA7
  8
DEFPOINTS
  6
CONTINUOUS
 62
     0
 10
2678.2471139999998
 20
3975.2253019999998
 30
0.0
  0
POINT
  5
7DA8
  8
DEFPOINTS
  6
CONTINUOUS
 62
     0
 10
2678.2471139999998
 20
3245.2253019999998
 30
0.0
  0
POINT
  5
7DA9
  8
DEFPOINTS
  6
CONTINUOUS
 62
     0
 10
2880.492737
 20
3245.2253019999998
 30
0.0
  0
ENDBLK
  5
7AEC
  8
0
  0
BLOCK
  8
0
  2
*D2
 70
     1
 10
0.0
 20
0.0
 30
0.0
  3
*D2
  1

  0
LINE
  5
7DAA
  8
3
  6
CONTINUOUS
 62
     0
 10
2693.2471139999998
 20
3975.2253019999998
 30
0.0
 11
3084.7470710000011
 21
3975.2253019999998
 31
0.0
  0
LINE
  5
7DAB
  8
3
  6
CONTINUOUS
 62
     0
 10
2784.0288149999992
 20
3279.2253019999989
 30
0.0
 11
3084.7470710000011
 21
3279.2253019999989
 31
0.0
  0
LINE
  5
7DAC
  8
3
  6
CONTINUOUS
 62
     0
 10
3054.7470710000011
 20
3915.2253019999998
 30
0.0
 11
3054.7470710000011
 21
3339.2253019999998
 31
0.0
  0
INSERT
  5
7DAD
  8
3
  6
CONTINUOUS
 62
     0
  2
_OPEN
 10
3054.7470710000011
 20
3975.2253019999998
 30
0.0
 41
60.0
 42
60.0
 43
60.0
 50
90.0
  0
INSERT
  5
7DAE
  8
3
  6
CONTINUOUS
 62
     0
  2
_OPEN
 10
3054.7470710000011
 20
3279.2253019999989
 30
0.0
 41
60.0
 42
60.0
 43
60.0
 50
270.0
  0
TEXT
  8
3
  40
90
  5
7E2D
  62
0
  72
0
  71
0
 10
2799.75
 20
3436.61
 30
0.000000
  1
696
  0
POINT
  5
7DB0
  8
DEFPOINTS
  6
CONTINUOUS
 62
     0
 10
2678.2471139999998
 20
3975.2253019999998
 30
0.0
  0
POINT
  5
7DB1
  8
DEFPOINTS
  6
CONTINUOUS
 62
     0
 10
2769.0288149999992
 20
3279.2253019999989
 30
0.0
  0
POINT
  5
7DB2
  8
DEFPOINTS
  6
CONTINUOUS
 62
     0
 10
3054.7470710000011
 20
3279.2253019999989
 30
0.0
  0
ENDBLK
  5
7AF9
  8
0
  0
BLOCK
  8
0
  2
*D3
 70
     1
 10
0.0
 20
0.0
 30
0.0
  3
*D3
  1

  0
LINE
  5
7DB3
  8
3
  6
CONTINUOUS
 62
     0
 10
2628.2471139999998
 20
2654.2253019999998
 30
0.0
 11
3084.7470709999998
 21
2654.2253019999989
 31
0.0
  0
LINE
  5
7DB4
  8
3
  6
CONTINUOUS
 62
     0
 10
3054.7470709999998
 20
3219.2253019999989
 30
0.0
 11
3054.7470709999998
 21
2714.2253019999998
 31
0.0
  0
INSERT
  5
7DB5
  8
3
  6
CONTINUOUS
 62
     0
  2
_OPEN
 10
3054.7470709999998
 20
3279.2253019999989
 30
0.0
 41
60.0
 42
60.0
 43
60.0
 50
90.0
  0
INSERT
  5
7DB6
  8
3
  6
CONTINUOUS
 62
     0
  2
_OPEN
 10
3054.7470709999998
 20
2654.2253019999998
 30
0.0
 41
60.0
 42
60.0
 43
60.0
 50
270.0
  0
TEXT
  8
3
  40
90
  5
7E2E
  62
0
  72
0
  71
0
 10
2799.75
 20
2807.43
 30
0.000000
  1
625
  0
POINT
  5
7DB8
  8
DEFPOINTS
  6
CONTINUOUS
 62
     0
 10
2769.0288149999992
 20
3279.2253019999989
 30
0.0
  0
POINT
  5
7DB9
  8
DEFPOINTS
  6
CONTINUOUS
 62
     0
 10
2613.2471139999998
 20
2654.2253019999998
 30
0.0
  0
POINT
  5
7DBA
  8
DEFPOINTS
  6
CONTINUOUS
 62
     0
 10
3054.7470709999998
 20
2654.2253019999998
 30
0.0
  0
ENDBLK
  5
7B05
  8
0
  0
BLOCK
  8
0
  2
*D4
 70
     1
 10
0.0
 20
0.0
 30
0.0
  3
*D4
  1

  0
LINE
  5
7DBB
  8
3
  6
CONTINUOUS
 62
     0
 10
2678.2471139999998
 20
4030.2253019999998
 30
0.0
 11
2678.2471139999998
 21
4148.2878890000002
 31
0.0
  0
LINE
  5
7DBC
  8
3
  6
CONTINUOUS
 62
     0
 10
2143.2471139999998
 20
4088.6243239999999
 30
0.0
 11
2143.2471139999998
 21
4148.2878890000002
 31
0.0
  0
LINE
  5
7DBD
  8
3
  6
CONTINUOUS
 62
     0
 10
2618.2471139999998
 20
4118.2878890000002
 30
0.0
 11
2203.2471139999998
 21
4118.2878890000002
 31
0.0
  0
INSERT
  5
7DBE
  8
3
  6
CONTINUOUS
 62
     0
  2
_OPEN
 10
2678.2471139999998
 20
4118.2878890000002
 30
0.0
 41
60.0
 42
60.0
 43
60.0
  0
INSERT
  5
7DBF
  8
3
  6
CONTINUOUS
 62
     0
  2
_OPEN
 10
2143.2471139999998
 20
4118.2878890000002
 30
0.0
 41
60.0
 42
60.0
 43
60.0
 50
180.0
  0
TEXT
  8
3
  40
90
  5
7E2F
  62
0
  72
0
  71
0
 10
2217.33
 20
4033.99
 30
0.000000
  1
535
  0
POINT
  5
7DC1
  8
DEFPOINTS
  6
CONTINUOUS
 62
     0
 10
2678.2471139999998
 20
4015.2253019999998
 30
0.0
  0
POINT
  5
7DC2
  8
DEFPOINTS
  6
CONTINUOUS
 62
     0
 10
2143.2471139999998
 20
4073.6243239999999
 30
0.0
  0
POINT
  5
7DC3
  8
DEFPOINTS
  6
CONTINUOUS
 62
     0
 10
2143.2471139999998
 20
4118.2878890000002
 30
0.0
  0
ENDBLK
  5
7B12
  8
0
  0
BLOCK
  8
0
  2
*D5
 70
     1
 10
0.0
 20
0.0
 30
0.0
  3
*D5
  1

  0
LINE
  5
7DC4
  8
3
  6
CONTINUOUS
 62
     0
 10
2613.2471139999998
 20
2639.2253019999989
 30
0.0
 11
2613.2471139999998
 21
2382.7249786625498
 31
0.0
  0
LINE
  5
7DC5
  8
3
  6
CONTINUOUS
 62
     0
 10
2143.2566624641349
 20
2526.4410096625502
 30
0.0
 11
2143.2566624641349
 21
2382.7249786625498
 31
0.0
  0
LINE
  5
7DC6
  8
3
  6
CONTINUOUS
 62
     0
 10
2553.2471139999998
 20
2412.7249786625498
 30
0.0
 11
2203.2566624641349
 21
2412.7249786625498
 31
0.0
  0
INSERT
  5
7DC7
  8
3
  6
CONTINUOUS
 62
     0
  2
_OPEN
 10
2613.2471139999998
 20
2412.7249786625498
 30
0.0
 41
60.0
 42
60.0
 43
60.0
  0
INSERT
  5
7DC8
  8
3
  6
CONTINUOUS
 62
     0
  2
_OPEN
 10
2143.2566624641349
 20
2412.7249786625498
 30
0.0
 41
60.0
 42
60.0
 43
60.0
 50
180.0
  0
TEXT
  8
3
  40
90
  5
7E30
  62
0
  72
0
  71
0
 10
2227.53
 20
2328.42
 30
0.000000
  1
470
  0
POINT
  5
7DCA
  8
DEFPOINTS
  6
CONTINUOUS
 62
     0
 10
2613.2471139999998
 20
2654.2253019999998
 30
0.0
  0
POINT
  5
7DCB
  8
DEFPOINTS
  6
CONTINUOUS
 62
     0
 10
2143.2566624641349
 20
2541.4410096625502
 30
0.0
  0
POINT
  5
7DCC
  8
DEFPOINTS
  6
CONTINUOUS
 62
     0
 10
2143.2566624641349
 20
2412.7249786625498
 30
0.0
  0
ENDBLK
  5
7CC1
  8
0
  0
BLOCK
  8
0
  2
*D6
 70
     1
 10
0.0
 20
0.0
 30
0.0
  3
*D6
  1

  0
LINE
  5
7DCD
  8
3
  6
CONTINUOUS
 62
     0
 10
1113.2471139999991
 20
2639.2253019999989
 30
0.0
 11
1113.2471139999991
 21
2382.7249786625498
 31
0.0
  0
LINE
  5
7DCE
  8
3
  6
CONTINUOUS
 62
     0
 10
2083.2566624641349
 20
2412.7249786625498
 30
0.0
 11
1173.247114
 21
2412.7249786625498
 31
0.0
  0
INSERT
  5
7DCF
  8
3
  6
CONTINUOUS
 62
     0
  2
_OPEN
 10
2143.2566624641349
 20
2412.7249786625498
 30
0.0
 41
60.0
 42
60.0
 43
60.0
  0
INSERT
  5
7DD0
  8
3
  6
CONTINUOUS
 62
     0
  2
_OPEN
 10
1113.2471139999991
 20
2412.7249786625498
 30
0.0
 41
60.0
 42
60.0
 43
60.0
 50
180.0
  0
TEXT
  8
3
  40
90
  5
7E31
  62
0
  72
0
  71
0
 10
1448.25
 20
2328.42
 30
0.000000
  1
1030
  0
POINT
  5
7DD2
  8
DEFPOINTS
  6
CONTINUOUS
 62
     0
 10
2143.2566624641349
 20
2541.4410096625502
 30
0.0
  0
POINT
  5
7DD3
  8
DEFPOINTS
  6
CONTINUOUS
 62
     0
 10
1113.2471139999991
 20
2654.2253019999998
 30
0.0
  0
POINT
  5
7DD4
  8
DEFPOINTS
  6
CONTINUOUS
 62
     0
 10
1113.2471139999991
 20
2412.7249786625498
 30
0.0
  0
ENDBLK
  5
7CB6
  8
0
  0
BLOCK
  8
0
  2
*D7
 70
     1
 10
0.0
 20
0.0
 30
0.0
  3
*D7
  1

  0
LINE
  5
7DD5
  8
3
  6
CONTINUOUS
 62
     0
 10
2693.2471139999998
 20
4015.2253019999998
 30
0.0
 11
3290.684060000001
 21
4015.2253019999998
 31
0.0
  0
LINE
  5
7DD6
  8
3
  6
CONTINUOUS
 62
     0
 10
2628.2471139999998
 20
2654.2253019999998
 30
0.0
 11
3290.68406
 21
2654.2253019999989
 31
0.0
  0
LINE
  5
7DD7
  8
3
  6
CONTINUOUS
 62
     0
 10
3260.684060000001
 20
3955.2253019999998
 30
0.0
 11
3260.68406
 21
2714.2253019999989
 31
0.0
  0
INSERT
  5
7DD8
  8
3
  6
CONTINUOUS
 62
     0
  2
_OPEN
 10
3260.684060000001
 20
4015.2253019999998
 30
0.0
 41
60.0
 42
60.0
 43
60.0
 50
90.0
  0
INSERT
  5
7DD9
  8
3
  6
CONTINUOUS
 62
     0
  2
_OPEN
 10
3260.68406
 20
2654.2253019999989
 30
0.0
 41
60.0
 42
60.0
 43
60.0
 50
270.0
  0
TEXT
  8
3
  40
90
  5
7E32
  62
0
  72
0
  71
0
 10
3005.68
 20
3127.93
 30
0.000000
  1
1361
  0
POINT
  5
7DDB
  8
DEFPOINTS
  6
CONTINUOUS
 62
     0
 10
2678.2471139999998
 20
4015.2253019999998
 30
0.0
  0
POINT
  5
7DDC
  8
DEFPOINTS
  6
CONTINUOUS
 62
     0
 10
2613.2471139999998
 20
2654.2253019999998
 30
0.0
  0
POINT
  5
7DDD
  8
DEFPOINTS
  6
CONTINUOUS
 62
     0
 10
3260.68406
 20
2654.2253019999989
 30
0.0
  0
ENDBLK
  5
7B44
  8
0
  0
BLOCK
  8
0
  2
*D8
 70
     1
 10
0.0
 20
0.0
 30
0.0
  3
*D8
  1

  0
LINE
  5
7DDE
  8
3
  6
CONTINUOUS
 62
     0
 10
4753.9268000720349
 20
3990.2253019999998
 30
0.0
 11
4753.9268000720349
 21
4100.7987269999994
 31
0.0
  0
LINE
  5
7DDF
  8
3
  6
CONTINUOUS
 62
     0
 10
4223.926800072034
 20
3990.2253019999998
 30
0.0
 11
4223.926800072034
 21
4100.7987269999994
 31
0.0
  0
LINE
  5
7DE0
  8
3
  6
CONTINUOUS
 62
     0
 10
4693.926800072034
 20
4070.7987269999999
 30
0.0
 11
4283.9268000720349
 21
4070.7987269999999
 31
0.0
  0
INSERT
  5
7DE1
  8
3
  6
CONTINUOUS
 62
     0
  2
_OPEN
 10
4753.9268000720349
 20
4070.7987269999999
 30
0.0
 41
60.0
 42
60.0
 43
60.0
  0
INSERT
  5
7DE2
  8
3
  6
CONTINUOUS
 62
     0
  2
_OPEN
 10
4223.926800072034
 20
4070.7987269999999
 30
0.0
 41
60.0
 42
60.0
 43
60.0
 50
180.0
  0
TEXT
  8
3
  40
90
  5
7E33
  62
0
  72
0
  71
0
 10
4302.42
 20
3986.50
 30
0.000000
  1
530
  0
POINT
  5
7DE4
  8
DEFPOINTS
  6
CONTINUOUS
 62
     0
 10
4753.9268000720349
 20
3975.2253019999998
 30
0.0
  0
POINT
  5
7DE5
  8
DEFPOINTS
  6
CONTINUOUS
 62
     0
 10
4223.926800072034
 20
3975.2253019999998
 30
0.0
  0
POINT
  5
7DE6
  8
DEFPOINTS
  6
CONTINUOUS
 62
     0
 10
4223.926800072034
 20
4070.7987269999999
 30
0.0
  0
ENDBLK
  5
7B51
  8
0
  0
BLOCK
  8
0
  2
*D9
 70
     1
 10
0.0
 20
0.0
 30
0.0
  3
*D9
  1

  0
LINE
  5
7DE7
  8
3
  6
CONTINUOUS
 62
     0
 10
4770.9268000720349
 20
3656.2253020000012
 30
0.0
 11
5066.8688290720347
 21
3656.2253020000012
 31
0.0
  0
LINE
  5
7DE8
  8
3
  6
CONTINUOUS
 62
     0
 10
4770.9268000720349
 20
2902.2253019999989
 30
0.0
 11
5066.8688290720347
 21
2902.2253019999989
 31
0.0
  0
LINE
  5
7DE9
  8
3
  6
CONTINUOUS
 62
     0
 10
5036.8688290720356
 20
3596.2253019999998
 30
0.0
 11
5036.8688290720356
 21
2962.2253019999998
 31
0.0
  0
INSERT
  5
7DEA
  8
3
  6
CONTINUOUS
 62
     0
  2
_OPEN
 10
5036.8688290720356
 20
3656.2253020000012
 30
0.0
 41
60.0
 42
60.0
 43
60.0
 50
90.0
  0
INSERT
  5
7DEB
  8
3
  6
CONTINUOUS
 62
     0
  2
_OPEN
 10
5036.8688290720356
 20
2902.2253019999989
 30
0.0
 41
60.0
 42
60.0
 43
60.0
 50
270.0
  0
TEXT
  8
3
  40
90
  5
7E34
  62
0
  72
0
  71
0
 10
4781.87
 20
3120.01
 30
0.000000
  1
φ754
  0
POINT
  5
7DED
  8
DEFPOINTS
  6
CONTINUOUS
 62
     0
 10
4755.926800072034
 20
3656.2253020000012
 30
0.0
  0
POINT
  5
7DEE
  8
DEFPOINTS
  6
CONTINUOUS
 62
     0
 10
4755.926800072034
 20
2902.2253019999989
 30
0.0
  0
POINT
  5
7DEF
  8
DEFPOINTS
  6
CONTINUOUS
 62
     0
 10
5036.8688290720356
 20
2902.2253019999989
 30
0.0
  0
ENDBLK
  5
7C86
  8
0
  0
BLOCK
  8
0
  2
*D10
 70
     1
 10
0.0
 20
0.0
 30
0.0
  3
*D10
  1

  0
LINE
  5
7C72
  8
0
  6
BYBLOCK
 62
     0
 10
4755.926800072034
 20
3671.2253019999998
 30
0.0
 11
4755.926800072034
 21
4339.0029160000004
 31
0.0
  0
LINE
  5
7C73
  8
0
  6
BYBLOCK
 62
     0
 10
4488.9268000720349
 20
4256.6992539999992
 30
0.0
 11
4488.9268000720349
 21
4339.0029160000004
 31
0.0
  0
LINE
  5
7C74
  8
0
  6
BYBLOCK
 62
     0
 10
4695.9268000720349
 20
4309.0029159999985
 30
0.0
 11
4548.9268000720349
 21
4309.0029159999985
 31
0.0
  0
TEXT
  5
7C75
  8
3
 62
     0
 10
4520.1878343091821
 20
4346.9785386538488
 30
0.0
 40
90.0
  1
267
  0
INSERT
  5
7C76
  8
0
  6
BYBLOCK
 62
     0
  2
_OPEN
 10
4755.926800072034
 20
4309.0029159999985
 30
0.0
 41
60.0
 42
60.0
 43
60.0
  0
INSERT
  5
7C77
  8
0
  6
BYBLOCK
 62
     0
  2
_OPEN
 10
4488.9268000720349
 20
4309.0029159999985
 30
0.0
 41
60.0
 42
60.0
 43
60.0
 50
180.0
  0
POINT
  5
7C78
  8
DEFPOINTS
  6
BYBLOCK
 62
     0
 10
4755.926800072034
 20
3656.2253020000012
 30
0.0
  0
POINT
  5
7C79
  8
DEFPOINTS
  6
BYBLOCK
 62
     0
 10
4488.9268000720349
 20
4241.6992540000001
 30
0.0
  0
POINT
  5
7C7A
  8
DEFPOINTS
  6
BYBLOCK
 62
     0
 10
4488.9268000720349
 20
4309.0029159999985
 30
0.0
  0
ENDBLK
  5
7C7B
  8
0
  0
BLOCK
  8
0
  2
*D11
 70
     1
 10
0.0
 20
0.0
 30
0.0
  3
*D11
  1

  0
LINE
  5
7DF0
  8
3
  6
CONTINUOUS
 62
     0
 10
3988.926800072034
 20
3909.2253019999998
 30
0.0
 11
3988.926800072034
 21
4339.0029160000004
 31
0.0
  0
LINE
  5
7DF1
  8
3
  6
CONTINUOUS
 62
     0
 10
4428.926800072034
 20
4309.0029159999985
 30
0.0
 11
4048.9268000720349
 21
4309.0029159999985
 31
0.0
  0
INSERT
  5
7DF2
  8
3
  6
CONTINUOUS
 62
     0
  2
_OPEN
 10
4488.9268000720349
 20
4309.0029159999985
 30
0.0
 41
60.0
 42
60.0
 43
60.0
  0
INSERT
  5
7DF3
  8
3
  6
CONTINUOUS
 62
     0
  2
_OPEN
 10
3988.926800072034
 20
4309.0029159999985
 30
0.0
 41
60.0
 42
60.0
 43
60.0
 50
180.0
  0
TEXT
  8
3
  40
90
  5
7E35
  62
0
  72
0
  71
0
 10
4058.93
 20
4299.70
 30
0.000000
  1
MAX
  0
TEXT
  8
3
  40
90
  5
7E36
  62
0
  72
0
  71
0
 10
4058.93
 20
4182.70
 30
0.000000
  1
454
  0
POINT
  5
7DF5
  8
DEFPOINTS
  6
CONTINUOUS
 62
     0
 10
4488.9268000720349
 20
4241.6992540000001
 30
0.0
  0
POINT
  5
7DF6
  8
DEFPOINTS
  6
CONTINUOUS
 62
     0
 10
3988.926800072034
 20
3894.2253019999998
 30
0.0
  0
POINT
  5
7DF7
  8
DEFPOINTS
  6
CONTINUOUS
 62
     0
 10
3988.926800072034
 20
4309.0029159999985
 30
0.0
  0
ENDBLK
  5
7C65
  8
0
  0
BLOCK
  8
0
  2
*D12
 70
     1
 10
0.0
 20
0.0
 30
0.0
  3
*D12
  1

  0
LINE
  5
7DF8
  8
3
  6
CONTINUOUS
 62
     0
 10
4045.926800072034
 20
2639.2253019999989
 30
0.0
 11
4045.926800072034
 21
2370.3487700000001
 31
0.0
  0
LINE
  5
7DF9
  8
3
  6
CONTINUOUS
 62
     0
 10
4488.9268000720349
 20
2575.22057
 30
0.0
 11
4488.9268000720349
 21
2370.3487700000001
 31
0.0
  0
LINE
  5
7DFA
  8
3
  6
CONTINUOUS
 62
     0
 10
4105.9268000720349
 20
2400.3487700000001
 30
0.0
 11
4428.926800072034
 21
2400.3487700000001
 31
0.0
  0
INSERT
  5
7DFB
  8
3
  6
CONTINUOUS
 62
     0
  2
_OPEN
 10
4045.926800072034
 20
2400.3487700000001
 30
0.0
 41
60.0
 42
60.0
 43
60.0
 50
180.0
  0
INSERT
  5
7DFC
  8
3
  6
CONTINUOUS
 62
     0
  2
_OPEN
 10
4488.9268000720349
 20
2400.3487700000001
 30
0.0
 41
60.0
 42
60.0
 43
60.0
  0
TEXT
  8
3
  40
90
  5
7E37
  62
0
  72
0
  71
0
 10
4071.64
 20
2316.05
 30
0.000000
  1
443
  0
POINT
  5
7DFE
  8
DEFPOINTS
  6
CONTINUOUS
 62
     0
 10
4045.926800072034
 20
2654.2253019999998
 30
0.0
  0
POINT
  5
7DFF
  8
DEFPOINTS
  6
CONTINUOUS
 62
     0
 10
4488.9268000720349
 20
2590.22057
 30
0.0
  0
POINT
  5
7E00
  8
DEFPOINTS
  6
CONTINUOUS
 62
     0
 10
4488.9268000720349
 20
2400.3487700000001
 30
0.0
  0
ENDBLK
  5
7C04
  8
0
  0
BLOCK
  8
0
  2
*D13
 70
     1
 10
0.0
 20
0.0
 30
0.0
  3
*D13
  1

  0
LINE
  5
7E01
  8
3
  6
CONTINUOUS
 62
     0
 10
4805.9268000720349
 20
2639.2253019999989
 30
0.0
 11
4805.9268000720349
 21
2370.3487700000001
 31
0.0
  0
LINE
  5
7E02
  8
3
  6
CONTINUOUS
 62
     0
 10
4548.9268000720349
 20
2400.3487700000001
 30
0.0
 11
4745.9268000720349
 21
2400.3487700000001
 31
0.0
  0
TEXT
  8
3
  40
90
  5
7E38
  62
0
  72
0
  71
0
 10
4476.59
 20
2315.43
 30
0.000000
  1
317
  0
INSERT
  5
7E04
  8
3
  6
CONTINUOUS
 62
     0
  2
_OPEN
 10
4488.9268000720349
 20
2400.3487700000001
 30
0.0
 41
60.0
 42
60.0
 43
60.0
 50
180.0
  0
INSERT
  5
7E05
  8
3
  6
CONTINUOUS
 62
     0
  2
_OPEN
 10
4805.9268000720349
 20
2400.3487700000001
 30
0.0
 41
60.0
 42
60.0
 43
60.0
  0
POINT
  5
7E06
  8
DEFPOINTS
  6
CONTINUOUS
 62
     0
 10
4488.9268000720349
 20
2590.22057
 30
0.0
  0
POINT
  5
7E07
  8
DEFPOINTS
  6
CONTINUOUS
 62
     0
 10
4805.9268000720349
 20
2654.2253019999998
 30
0.0
  0
POINT
  5
7E08
  8
DEFPOINTS
  6
CONTINUOUS
 62
     0
 10
4805.9268000720349
 20
2400.3487700000001
 30
0.0
  0
ENDBLK
  5
7C0E
  8
0
  0
BLOCK
  8
0
  2
*D14
 70
     1
 10
0.0
 20
0.0
 30
0.0
  3
*D14
  1

  0
LINE
  5
7E09
  8
3
  6
CONTINUOUS
 62
     0
 10
1113.2471139999991
 20
6109.6542849497146
 30
0.0
 11
1113.2471139999991
 21
6350.4726629497154
 31
0.0
  0
LINE
  5
7E0A
  8
3
  6
CONTINUOUS
 62
     0
 10
2613.2471139999998
 20
6109.6542849497146
 30
0.0
 11
2613.2471139999998
 21
6350.4726629497154
 31
0.0
  0
LINE
  5
7E0B
  8
3
  6
CONTINUOUS
 62
     0
 10
1173.247114
 20
6320.4726629497154
 30
0.0
 11
2553.2471139999998
 21
6320.4726629497154
 31
0.0
  0
INSERT
  5
7E0C
  8
3
  6
CONTINUOUS
 62
     0
  2
_OPEN
 10
1113.2471139999991
 20
6320.4726629497154
 30
0.0
 41
60.0
 42
60.0
 43
60.0
 50
180.0
  0
INSERT
  5
7E0D
  8
3
  6
CONTINUOUS
 62
     0
  2
_OPEN
 10
2613.2471139999998
 20
6320.4726629497154
 30
0.0
 41
60.0
 42
60.0
 43
60.0
  0
TEXT
  8
3
  40
90
  5
7E39
  62
0
  72
0
  71
0
 10
1631.20
 20
6236.17
 30
0.000000
  1
1500
  0
POINT
  5
7E0F
  8
DEFPOINTS
  6
CONTINUOUS
 62
     0
 10
1113.2471139999991
 20
6094.6542849497146
 30
0.0
  0
POINT
  5
7E10
  8
DEFPOINTS
  6
CONTINUOUS
 62
     0
 10
2613.2471139999998
 20
6094.6542849497146
 30
0.0
  0
POINT
  5
7E11
  8
DEFPOINTS
  6
CONTINUOUS
 62
     0
 10
2613.2471139999998
 20
6320.4726629497154
 30
0.0
  0
ENDBLK
  5
7BE3
  8
0
  0
BLOCK
  8
0
  2
*D15
 70
     1
 10
0.0
 20
0.0
 30
0.0
  3
*D15
  1

  0
LINE
  5
7E12
  8
3
  6
CONTINUOUS
 62
     0
 10
2628.2471139999998
 20
6094.6542849497146
 30
0.0
 11
2965.9372830000002
 21
6094.6542849497146
 31
0.0
  0
LINE
  5
7E13
  8
3
  6
CONTINUOUS
 62
     0
 10
2628.2471139999998
 20
5334.6542849497137
 30
0.0
 11
2965.9372830000002
 21
5334.6542849497137
 31
0.0
  0
LINE
  5
7E14
  8
3
  6
CONTINUOUS
 62
     0
 10
2935.9372830000011
 20
6034.6542849497146
 30
0.0
 11
2935.9372830000011
 21
5394.6542849497146
 31
0.0
  0
INSERT
  5
7E15
  8
3
  6
CONTINUOUS
 62
     0
  2
_OPEN
 10
2935.9372830000011
 20
6094.6542849497146
 30
0.0
 41
60.0
 42
60.0
 43
60.0
 50
90.0
  0
INSERT
  5
7E16
  8
3
  6
CONTINUOUS
 62
     0
  2
_OPEN
 10
2935.9372830000011
 20
5334.6542849497137
 30
0.0
 41
60.0
 42
60.0
 43
60.0
 50
270.0
  0
TEXT
  8
3
  40
90
  5
7E3A
  62
0
  72
0
  71
0
 10
2680.94
 20
5597.36
 30
0.000000
  1
760
  0
POINT
  5
7E18
  8
DEFPOINTS
  6
CONTINUOUS
 62
     0
 10
2613.2471139999998
 20
6094.6542849497146
 30
0.0
  0
POINT
  5
7E19
  8
DEFPOINTS
  6
CONTINUOUS
 62
     0
 10
2613.2471139999998
 20
5334.6542849497137
 30
0.0
  0
POINT
  5
7E1A
  8
DEFPOINTS
  6
CONTINUOUS
 62
     0
 10
2935.9372830000011
 20
5334.6542849497137
 30
0.0
  0
ENDBLK
  5
7BB0
  8
0
  0
BLOCK
  8
0
  2
*D16
 70
     1
 10
0.0
 20
0.0
 30
0.0
  3
*D16
  1

  0
LINE
  5
7E1B
  8
3
  6
CONTINUOUS
 62
     0
 10
1557.2495879999999
 20
3294.2253019999989
 30
0.0
 11
1557.2495879999999
 21
4148.2878890000002
 31
0.0
  0
LINE
  5
7E1C
  8
3
  6
CONTINUOUS
 62
     0
 10
2083.2471139999998
 20
4118.2878890000002
 30
0.0
 11
1617.2495879999999
 21
4118.2878890000002
 31
0.0
  0
INSERT
  5
7E1D
  8
3
  6
CONTINUOUS
 62
     0
  2
_OPEN
 10
2143.2471139999998
 20
4118.2878890000002
 30
0.0
 41
60.0
 42
60.0
 43
60.0
  0
INSERT
  5
7E1E
  8
3
  6
CONTINUOUS
 62
     0
  2
_OPEN
 10
1557.2495879999999
 20
4118.2878890000002
 30
0.0
 41
60.0
 42
60.0
 43
60.0
 50
180.0
  0
TEXT
  8
3
  40
90
  5
7E3B
  62
0
  72
0
  71
0
 10
1670.25
 20
4033.99
 30
0.000000
  1
586
  0
POINT
  5
7E20
  8
DEFPOINTS
  6
CONTINUOUS
 62
     0
 10
2143.2471139999998
 20
4073.6243239999999
 30
0.0
  0
POINT
  5
7E21
  8
DEFPOINTS
  6
CONTINUOUS
 62
     0
 10
1557.2495879999999
 20
3279.2253019999989
 30
0.0
  0
POINT
  5
7E22
  8
DEFPOINTS
  6
CONTINUOUS
 62
     0
 10
1557.2495879999999
 20
4118.2878890000002
 30
0.0
  0
ENDBLK
  5
7BD7
  8
0
  0
BLOCK
  8
0
  2
*D17
 70
     1
 10
0.0
 20
0.0
 30
0.0
  3
*D17
  1

  0
LINE
  5
7E23
  8
3
 62
     0
 10
2678.2471139999998
 20
4030.2253019999998
 30
0.0
 11
2678.2471139999998
 21
4351.9409173287531
 31
0.0
  0
LINE
  5
7E24
  8
3
 62
     0
 10
1113.2471139999991
 20
2769.2253019999998
 30
0.0
 11
1113.2471139999991
 21
4351.9409173287531
 31
0.0
  0
LINE
  5
7E25
  8
3
 62
     0
 10
2618.2471139999998
 20
4321.9409173287531
 30
0.0
 11
1173.247114
 21
4321.9409173287531
 31
0.0
  0
INSERT
  5
7E26
  8
3
 62
     0
  2
_OPEN
 10
2678.2471139999998
 20
4321.9409173287531
 30
0.0
 41
60.0
 42
60.0
 43
60.0
  0
INSERT
  5
7E27
  8
3
 62
     0
  2
_OPEN
 10
1113.2471139999991
 20
4321.9409173287531
 30
0.0
 41
60.0
 42
60.0
 43
60.0
 50
180.0
  0
TEXT
  8
3
  40
90
  5
7E3C
  62
0
  72
0
  71
0
 10
1680.12
 20
4237.64
 30
0.000000
  1
1565
  0
POINT
  5
7E29
  8
DEFPOINTS
 62
     0
 10
2678.2471139999998
 20
4015.2253019999998
 30
0.0
  0
POINT
  5
7E2A
  8
DEFPOINTS
 62
     0
 10
1113.2471139999991
 20
2754.2253019999998
 30
0.0
  0
POINT
  5
7E2B
  8
DEFPOINTS
 62
     0
 10
1113.2471139999991
 20
4321.9409173287531
 30
0.0
  0
ENDBLK
  5
7C92
  8
0
  0
ENDSEC
  0
SECTION
  2
ENTITIES
  0
LINE
  5
7A60
  8
1
  6
CONTINUOUS
 10
2678.2471139999998
 20
3205.2253019999998
 30
0.0
 11
2678.2471139999998
 21
4015.2253019999998
 31
0.0
  0
LINE
  5
7A61
  8
1
  6
CONTINUOUS
 10
2625.2471139999998
 20
3761.2253019999998
 30
0.0
 11
2625.2471139999998
 21
2754.2253019999998
 31
0.0
  0
LINE
  5
7A62
  8
1
  6
CONTINUOUS
 10
1661.247114
 20
3761.2253019999998
 30
0.0
 11
1661.247114
 21
2754.2253019999998
 31
0.0
  0
ARC
  5
7A63
  8
1
  6
CONTINUOUS
 10
2190.2471139999998
 20
3326.2253019999989
 30
0.0
 40
634.74000000000001
 50
94.25
 51
185.31
  0
LINE
  5
7A64
  8
1
  6
CONTINUOUS
 10
2648.2471139999998
 20
3245.2253019999998
 30
0.0
 11
2648.2471139999998
 21
3974.3253020000002
 31
0.0
  0
LINE
  5
7A65
  8
1
  6
CONTINUOUS
 10
2513.2471139999998
 20
2754.2253019999998
 30
0.0
 11
2513.2471139999998
 21
3894.2253019999998
 31
0.0
  0
LINE
  5
7A66
  8
1
  6
CONTINUOUS
 10
1993.247114
 20
3894.2253019999998
 30
0.0
 11
1153.247114
 21
3054.2253019999998
 31
0.0
  0
LINE
  5
7A67
  8
1
  6
CONTINUOUS
 10
2076.5071139999991
 20
3413.5553020000002
 30
0.0
 11
1296.1771140000001
 21
3025.8653020000002
 31
0.0
  0
LINE
  5
7A68
  8
1
  6
CONTINUOUS
 10
2187.6871139999998
 20
3135.9553019999998
 30
0.0
 11
1355.477114
 21
2877.815302
 31
0.0
  0
LINE
  5
7A69
  8
1
  6
CONTINUOUS
 10
2625.2471139999998
 20
2754.2253019999998
 30
0.0
 11
1113.2471139999991
 21
2754.2253019999998
 31
0.0
  0
ARC
  5
7A6A
  8
1
  6
CONTINUOUS
 10
2104.2471139999998
 20
3318.2253019999998
 30
0.0
 40
548.36999999999989
 50
185.31
 51
277.43000000000001
  0
LINE
  5
7A6B
  8
1
  6
CONTINUOUS
 10
2613.2471139999998
 20
2654.2253019999998
 30
0.0
 11
1113.2471139999991
 21
2654.2253019999998
 31
0.0
  0
LINE
  5
7A6C
  8
1
  6
CONTINUOUS
 10
1113.2471139999991
 20
2754.2253019999998
 30
0.0
 11
1113.2471139999991
 21
2654.2253019999998
 31
0.0
  0
LINE
  5
7A6D
  8
1
  6
CONTINUOUS
 10
1485.767114
 20
2812.2253019999989
 30
0.0
 11
1464.4271140000001
 21
2861.235302
 31
0.0
  0
LINE
  5
7A6E
  8
1
  6
CONTINUOUS
 10
1485.767114
 20
2754.2253019999998
 30
0.0
 11
1485.767114
 21
2812.2253019999989
 31
0.0
  0
LINE
  5
7A6F
  8
2
  6
CENTER
 10
1331.767114
 20
2874.2253019999998
 30
0.0
 11
1331.767114
 21
3034.2253019999989
 31
0.0
  0
LINE
  5
7A70
  8
2
  6
CENTER
 10
1251.767114
 20
2954.2253019999998
 30
0.0
 11
1411.767114
 21
2954.2253019999998
 31
0.0
  0
LINE
  5
7A71
  8
1
  6
CONTINUOUS
 10
1177.767114
 20
2754.2253019999998
 30
0.0
 11
1177.767114
 21
2812.2253019999989
 31
0.0
  0
LINE
  5
7A72
  8
1
  6
CONTINUOUS
 10
1177.767114
 20
2812.2253019999989
 30
0.0
 11
1199.1171139999999
 21
2861.235302
 31
0.0
  0
ARC
  5
7A73
  8
1
  6
CONTINUOUS
 10
1331.767114
 20
2954.2253019999998
 30
0.0
 40
162.0
 50
324.97000000000003
 51
215.02999999999989
  0
CIRCLE
  5
7A74
  8
1
  6
CONTINUOUS
 10
1331.767114
 20
2954.2253019999998
 30
0.0
 40
80.0
  0
LINE
  5
7A75
  8
1
  6
CONTINUOUS
 10
1153.247114
 20
2754.2253019999998
 30
0.0
 11
1153.247114
 21
3054.2253019999998
 31
0.0
  0
LINE
  5
7A76
  8
1
  6
CONTINUOUS
 10
2592.0171140000002
 20
3245.2253019999998
 30
0.0
 11
2678.2471139999998
 21
3245.2253019999998
 31
0.0
  0
LINE
  5
7A77
  8
2
  6
CENTER
 10
4879.2915830720349
 20
3279.2253019999989
 30
0.0
 11
3893.247540072035
 21
3279.2253019999989
 31
0.0
  0
LINE
  5
7A78
  8
2
  6
CENTER
 10
2143.2471139999998
 20
6197.5783319497132
 30
0.0
 11
2143.2471139999998
 21
5155.7985959497146
 31
0.0
  0
ARC
  5
7A79
  8
1
  6
CONTINUOUS
 10
2113.2471139999998
 20
3249.2253019999998
 30
0.0
 40
478.79000000000002
 50
277.43000000000001
 51
359.51999999999992
  0
LINE
  5
7A7A
  8
1
  6
CONTINUOUS
 10
2613.2471139999998
 20
2754.2253019999998
 30
0.0
 11
2613.2471139999998
 21
2654.2253019999998
 31
0.0
  0
CIRCLE
  5
7A7B
  8
1
  6
CONTINUOUS
 10
2143.2471139999998
 20
3279.2253019999989
 30
0.0
 40
150.0
  0
LINE
  5
7A7C
  8
1
  6
CONTINUOUS
 10
1352.767114
 20
5387.6542849497137
 30
0.0
 11
1352.767114
 21
5473.6642849497148
 31
0.0
  0
LINE
  5
7A7D
  8
1
  6
CONTINUOUS
 10
1310.767114
 20
5387.6542849497137
 30
0.0
 11
1310.767114
 21
5473.6642849497148
 31
0.0
  0
LINE
  5
7A7E
  8
1
  6
CONTINUOUS
 10
1113.2471139999991
 20
6094.6542849497146
 30
0.0
 11
1113.2471139999991
 21
5334.6542849497137
 31
0.0
  0
LINE
  5
7A7F
  8
1
  6
CONTINUOUS
 10
2513.2471139999998
 20
5277.6542849497146
 30
0.0
 11
2513.2471139999998
 21
5417.6542849497146
 31
0.0
  0
LINE
  5
7A80
  8
1
  6
CONTINUOUS
 10
1153.247114
 20
5277.6542849497146
 30
0.0
 11
1153.247114
 21
5417.6542849497146
 31
0.0
  0
LINE
  5
7A81
  8
1
  6
CONTINUOUS
 10
2122.2471139999998
 20
5387.6542849497137
 30
0.0
 11
2122.2471139999998
 21
5512.6542849497137
 31
0.0
  0
LINE
  5
7A82
  8
1
  6
CONTINUOUS
 10
2164.2471139999998
 20
5387.6542849497137
 30
0.0
 11
2164.2471139999998
 21
5512.6542849497137
 31
0.0
  0
LINE
  5
7A83
  8
1
  6
CONTINUOUS
 10
2613.2471139999998
 20
5512.6542849497137
 30
0.0
 11
2613.2471139999998
 21
5334.6542849497137
 31
0.0
  0
LINE
  5
7A84
  8
1
  6
CONTINUOUS
 10
2625.2471139999998
 20
3761.2253019999998
 30
0.0
 11
1661.247114
 21
3761.2253019999998
 31
0.0
  0
LINE
  5
7A85
  8
1
  6
CONTINUOUS
 10
2513.2471139999998
 20
5277.6542849497146
 30
0.0
 11
1153.247114
 21
5277.6542849497146
 31
0.0
  0
LINE
  5
7A86
  8
1
  6
CONTINUOUS
 10
1993.247114
 20
5334.6542849497137
 30
0.0
 11
1411.767114
 21
5334.6542849497137
 31
0.0
  0
LINE
  5
7A87
  8
1
  6
CONTINUOUS
 10
1251.767114
 20
5307.6542849497137
 30
0.0
 11
1251.767114
 21
5387.6542849497137
 31
0.0
  0
LINE
  5
7A88
  8
1
  6
CONTINUOUS
 10
1411.767114
 20
5307.6542849497137
 30
0.0
 11
1411.767114
 21
5387.6542849497137
 31
0.0
  0
LINE
  5
7A89
  8
1
  6
CONTINUOUS
 10
1411.767114
 20
5307.6542849497137
 30
0.0
 11
1251.767114
 21
5307.6542849497137
 31
0.0
  0
LINE
  5
7A8A
  8
1
  6
CONTINUOUS
 10
1411.767114
 20
5387.6542849497137
 30
0.0
 11
1251.767114
 21
5387.6542849497137
 31
0.0
  0
LINE
  5
7A8B
  8
1
  6
CONTINUOUS
 10
1251.767114
 20
5334.6542849497137
 30
0.0
 11
1113.2471139999991
 21
5334.6542849497137
 31
0.0
  0
LINE
  5
7A8C
  8
1
  6
CONTINUOUS
 10
2678.2471139999998
 20
3975.2253019999998
 30
0.0
 11
2143.2471139999998
 21
3959.2253019999998
 31
0.0
  0
LINE
  5
7A8D
  8
1
  6
CONTINUOUS
 10
2613.2471139999998
 20
5334.6542849497137
 30
0.0
 11
2293.2471139999998
 21
5334.6542849497137
 31
0.0
  0
LINE
  5
7A8E
  8
1
  6
CONTINUOUS
 10
2513.2471139999998
 20
3894.2253019999998
 30
0.0
 11
1993.247114
 21
3894.2253019999998
 31
0.0
  0
LINE
  5
7A8F
  8
1
  6
CONTINUOUS
 10
1993.247114
 20
5307.6542849497137
 30
0.0
 11
1993.247114
 21
5387.6542849497137
 31
0.0
  0
LINE
  5
7A90
  8
1
  6
CONTINUOUS
 10
2293.2471139999998
 20
5307.6542849497137
 30
0.0
 11
2293.2471139999998
 21
5387.6542849497137
 31
0.0
  0
LINE
  5
7A91
  8
1
  6
CONTINUOUS
 10
2293.2471139999998
 20
5307.6542849497137
 30
0.0
 11
1993.247114
 21
5307.6542849497137
 31
0.0
  0
LINE
  5
7A92
  8
1
  6
CONTINUOUS
 10
2293.2471139999998
 20
5387.6542849497137
 30
0.0
 11
1993.247114
 21
5387.6542849497137
 31
0.0
  0
LINE
  5
7A93
  8
1
  6
CONTINUOUS
 10
2678.2471139999998
 20
5512.6542849497137
 30
0.0
 11
1555.507114
 21
5512.6542849497137
 31
0.0
  0
LINE
  5
7A94
  8
1
  6
CONTINUOUS
 10
2678.2471139999998
 20
6042.6542849497146
 30
0.0
 11
1555.507114
 21
6042.6542849497146
 31
0.0
  0
LINE
  5
7A95
  8
1
  6
CONTINUOUS
 10
2513.2471139999998
 20
5417.6542849497146
 30
0.0
 11
1153.247114
 21
5417.6542849497146
 31
0.0
  0
LINE
  5
7A96
  8
1
  6
CONTINUOUS
 10
2613.2471139999998
 20
6094.6542849497146
 30
0.0
 11
1113.2471139999991
 21
6094.6542849497146
 31
0.0
  0
LINE
  5
7A97
  8
1
  6
CONTINUOUS
 10
1164.7871139999991
 20
5929.6042849497144
 30
0.0
 11
1493.767114
 21
5929.6042849497144
 31
0.0
  0
LINE
  5
7A98
  8
1
  6
CONTINUOUS
 10
1164.7871139999991
 20
5473.6642849497148
 30
0.0
 11
1493.767114
 21
5473.6642849497148
 31
0.0
  0
LINE
  5
7A99
  8
1
  6
CONTINUOUS
 10
1493.767114
 20
5473.6642849497148
 30
0.0
 11
1493.767114
 21
5929.6042849497144
 31
0.0
  0
LINE
  5
7A9A
  8
1
  6
CONTINUOUS
 10
1164.7871139999991
 20
5473.6642849497148
 30
0.0
 11
1164.7871139999991
 21
5929.6042849497144
 31
0.0
  0
LINE
  5
7A9B
  8
1
  6
CONTINUOUS
 10
1555.507114
 20
6042.6542849497146
 30
0.0
 11
1555.507114
 21
5512.6542849497137
 31
0.0
  0
LINE
  5
7A9C
  8
1
  6
CONTINUOUS
 10
2613.2471139999998
 20
6094.6542849497146
 30
0.0
 11
2613.2471139999998
 21
6042.6542849497146
 31
0.0
  0
LINE
  5
7A9D
  8
1
  6
CONTINUOUS
 10
2678.2471139999998
 20
6082.6542849497146
 30
0.0
 11
2678.2471139999998
 21
5472.6542849497146
 31
0.0
  0
LINE
  5
7A9E
  8
1
  6
CONTINUOUS
 10
4223.926800072034
 20
3975.2253019999998
 30
0.0
 11
4223.926800072034
 21
2754.2253019999998
 31
0.0
  0
LINE
  5
7A9F
  8
1
  6
CONTINUOUS
 10
4753.9268000720349
 20
3975.2253019999998
 30
0.0
 11
4753.9268000720349
 21
2754.2253019999998
 31
0.0
  0
LINE
  5
7AA0
  8
1
  6
CONTINUOUS
 10
4753.9268000720349
 20
3975.2253019999998
 30
0.0
 11
4223.926800072034
 21
3245.2253019999998
 31
0.0
  0
LINE
  5
7AA1
  8
1
  6
CONTINUOUS
 10
4223.926800072034
 20
3975.2253019999998
 30
0.0
 11
4753.9268000720349
 21
3245.2253019999998
 31
0.0
  0
LINE
  5
7AA2
  8
1
  6
CONTINUOUS
 10
3988.926800072034
 20
3894.2253019999998
 30
0.0
 11
3988.926800072034
 21
2754.2253019999998
 31
0.0
  0
LINE
  5
7AA3
  8
1
  6
CONTINUOUS
 10
4128.9268000720349
 20
3894.2253019999998
 30
0.0
 11
4128.9268000720349
 21
2754.2253019999998
 31
0.0
  0
LINE
  5
7AA4
  8
1
  6
CONTINUOUS
 10
4805.9268000720349
 20
2654.2253019999998
 30
0.0
 11
4045.926800072034
 21
2654.2253019999998
 31
0.0
  0
LINE
  5
7AA5
  8
1
  6
CONTINUOUS
 10
4805.9268000720349
 20
2754.2253019999998
 30
0.0
 11
3988.926800072034
 21
2754.2253019999998
 31
0.0
  0
LINE
  5
7AA6
  8
1
  6
CONTINUOUS
 10
4098.926800072034
 20
2935.2253019999998
 30
0.0
 11
4223.926800072034
 21
2935.2253019999998
 31
0.0
  0
LINE
  5
7AA7
  8
1
  6
CONTINUOUS
 10
4098.926800072034
 20
2893.2253019999989
 30
0.0
 11
4223.926800072034
 21
2893.2253019999989
 31
0.0
  0
LINE
  5
7AA8
  8
1
  6
CONTINUOUS
 10
4098.926800072034
 20
3258.2253019999989
 30
0.0
 11
4223.926800072034
 21
3258.2253019999989
 31
0.0
  0
LINE
  5
7AA9
  8
1
  6
CONTINUOUS
 10
4098.926800072034
 20
3300.2253019999989
 30
0.0
 11
4223.926800072034
 21
3300.2253019999989
 31
0.0
  0
LINE
  5
7AAA
  8
1
  6
CONTINUOUS
 10
4045.926800072034
 20
2754.2253019999998
 30
0.0
 11
4045.926800072034
 21
2654.2253019999998
 31
0.0
  0
LINE
  5
7AAB
  8
1
  6
CONTINUOUS
 10
4098.926800072034
 20
3129.2253019999998
 30
0.0
 11
4098.926800072034
 21
3429.2253019999998
 31
0.0
  0
LINE
  5
7AAC
  8
1
  6
CONTINUOUS
 10
4018.926800072034
 20
3129.2253019999998
 30
0.0
 11
4018.926800072034
 21
3429.2253019999998
 31
0.0
  0
LINE
  5
7AAD
  8
1
  6
CONTINUOUS
 10
4098.926800072034
 20
2834.2253019999998
 30
0.0
 11
4098.926800072034
 21
2994.2253019999998
 31
0.0
  0
LINE
  5
7AAE
  8
1
  6
CONTINUOUS
 10
4018.926800072034
 20
2834.2253019999998
 30
0.0
 11
4018.926800072034
 21
2994.2253019999998
 31
0.0
  0
LINE
  5
7AAF
  8
1
  6
CONTINUOUS
 10
4018.926800072034
 20
3129.2253019999998
 30
0.0
 11
4098.926800072034
 21
3129.2253019999998
 31
0.0
  0
LINE
  5
7AB0
  8
1
  6
CONTINUOUS
 10
4018.926800072034
 20
3429.2253019999998
 30
0.0
 11
4098.926800072034
 21
3429.2253019999998
 31
0.0
  0
LINE
  5
7AB1
  8
1
  6
CONTINUOUS
 10
4018.926800072034
 20
2834.2253019999998
 30
0.0
 11
4098.926800072034
 21
2834.2253019999998
 31
0.0
  0
LINE
  5
7AB2
  8
1
  6
CONTINUOUS
 10
4018.926800072034
 20
2994.2253019999998
 30
0.0
 11
4098.926800072034
 21
2994.2253019999998
 31
0.0
  0
LINE
  5
7AB3
  8
1
  6
CONTINUOUS
 10
4223.926800072034
 20
3245.2253019999998
 30
0.0
 11
4753.9268000720349
 21
3245.2253019999998
 31
0.0
  0
LINE
  5
7AB4
  8
1
  6
CONTINUOUS
 10
4805.9268000720349
 20
2754.2253019999998
 30
0.0
 11
4805.9268000720349
 21
2654.2253019999998
 31
0.0
  0
LINE
  5
7AB5
  8
1
  6
CONTINUOUS
 10
4128.9268000720349
 20
3894.2253019999998
 30
0.0
 11
3988.926800072034
 21
3894.2253019999998
 31
0.0
  0
LINE
  5
7AB6
  8
1
  6
CONTINUOUS
 10
4223.926800072034
 20
3975.2253019999998
 30
0.0
 11
4753.9268000720349
 21
3975.2253019999998
 31
0.0
  0
LINE
  5
7AB7
  8
2
  6
CENTER
 10
1022.903925
 20
5777.6542849497146
 30
0.0
 11
2753.7622849999998
 21
5777.6542849497146
 31
0.0
  0
LINE
  5
7AB9
  8
2
  6
CENTER
 10
2143.2471139999998
 20
4073.6243239999999
 30
0.0
 11
2143.2566624641349
 21
2541.4410096625502
 31
0.0
  0
LINE
  5
7ABA
  8
2
  6
CENTER
 10
2769.0288149999992
 20
3279.2253019999989
 30
0.0
 11
1261.8751339999999
 21
3279.2253019999989
 31
0.0
  0
LINE
  5
7ABB
  8
4
  6
CONTINUOUS
 10
5550.0
 20
1500.0
 30
0.0
 11
5550.0
 21
900.0
 31
0.0
  0
LINE
  5
7ABC
  8
4
  6
CONTINUOUS
 10
3450.0
 20
1500.0
 30
0.0
 11
3450.0
 21
900.0
 31
0.0
  0
LINE
  5
7ABD
  8
4
  6
CONTINUOUS
 10
1950.0
 20
1500.0
 30
0.0
 11
1950.0
 21
900.0
 31
0.0
  0
LINE
  5
7AC0
  8
4
  6
CONTINUOUS
 10
1950.0
 20
900.0
 30
0.0
 11
5550.0
 21
900.0
 31
0.0
  0
LINE
  5
7AC1
  8
4
  6
CONTINUOUS
 10
1950.0
 20
1200.0
 30
0.0
 11
5550.0
 21
1200.0
 31
0.0
  0
TEXT
  5
7AC2
  8
4
  6
CONTINUOUS
 10
2065.5062429999989
 20
1294.6290779999999
 30
0.0
 40
150.0
  1
機器名称
  0
TEXT
  5
7AC3
  8
4
  6
CONTINUOUS
 10
2058.7743179999989
 20
964.9354699999999
 30
0.0
 40
150.0
  1
機器型番
  0
TEXT
  5
7AC4
  8
4
  6
CONTINUOUS
 10
3533.0362359999999
 20
1267.7153069999999
 30
0.0
 40
150.0
  1
ミツヤ多翼送風機
  0
TEXT
  5
7AC5
  8
4
  6
CONTINUOUS
 10
3559.9634869999991
 20
951.47875299999987
 30
0.0
 40
150.0
  1
MF#4 1/2-4
  0
TEXT
  5
7AC7
  8
4
  6
CONTINUOUS
 10
2714.3572960000001
 20
7150.2865239999992
 30
0.0
 40
162.0
  1
床置ベット
  0
TEXT
  5
7AC8
  8
4
  6
CONTINUOUS
 10
948.50278000000014
 20
7601.6429289999996
 30
0.0
 40
216.0
  1
ベルト駆動式片吸込両持多翼ファン
  0
LINE
  5
7AC9
  8
4
  6
CONTINUOUS
 10
750.0
 20
7408.2262629999996
 30
0.0
 11
5550.0
 21
7408.2262629999996
 31
0.0
  0
LINE
  5
7ACA
  8
4
  6
CONTINUOUS
 10
750.0
 20
8008.2262629999996
 30
0.0
 11
5550.0
 21
8008.2262629999996
 31
0.0
  0
LINE
  5
7ACB
  8
4
  6
CONTINUOUS
 10
1950.0
 20
1500.0
 30
0.0
 11
5550.0
 21
1500.0
 31
0.0
  0
LINE
  5
7ACC
  8
4
  6
CONTINUOUS
 10
750.0
 20
8008.2262629999996
 30
0.0
 11
750.0
 21
7408.2262629999996
 31
0.0
  0
TEXT
  5
7ACD
  8
4
  6
CONTINUOUS
 10
1096.985686999999
 20
7146.9584329999998
 30
0.0
 40
162.0
  1
右回転右横向
  0
TEXT
  5
7ACE
  8
4
  6
CONTINUOUS
 10
4406.9086779999989
 20
8118.1832439999989
 30
0.0
 40
168.0
  1
No.
  0
TEXT
  5
7ACF
  8
4
  6
CONTINUOUS
 10
3933.8881879999999
 20
7150.2865239999992
 30
0.0
 40
162.0
  1
縮尺：1/30
  0
LINE
  5
7AD0
  8
4
  6
CONTINUOUS
 10
5550.0
 20
8008.2262629999996
 30
0.0
 11
5550.0
 21
7408.2262629999996
 31
0.0
  0
LINE
  5
7AD2
  8
4
  6
CONTINUOUS
 10
4321.8522670000002
 20
8043.7907490000007
 30
0.0
 11
4321.8522670000002
 21
8359.9567849999985
 31
0.0
  0
LINE
  5
7AD3
  8
4
  6
CONTINUOUS
 10
4321.8522670000002
 20
8359.9567849999985
 30
0.0
 11
5550.0
 21
8359.9567849999985
 31
0.0
  0
LINE
  5
7AD4
  8
4
  6
CONTINUOUS
 10
5550.0
 20
8359.9567849999985
 30
0.0
 11
5550.0
 21
8043.7907490000007
 31
0.0
  0
LINE
  5
7AD5
  8
4
  6
CONTINUOUS
 10
5550.0
 20
8043.7907490000007
 30
0.0
 11
4321.8522670000002
 21
8043.7907490000007
 31
0.0
  0
DIMENSION
  5
7AED
  8
3
  6
CONTINUOUS
  2
*D1
 10
2880.492737
 20
3245.2253019999998
 30
0.0
 11
2880.492737
 21
3587.9923650000001
 31
0.0
 70
   128
 13
2678.2471139999998
 23
3975.2253019999998
 33
0.0
 14
2678.2471139999998
 24
3245.2253019999998
 34
0.0
 50
90.0
1001
ACAD
1000
DSTYLE
1002
{
1070
   287
1070
     3
1070
   287
1070
     3
1070
    40
1040
30.0
1070
   143
1040
0.039
1070
   172
1070
     1
1070
   271
1070
     0
1070
   279
1070
     0
1070
   288
1070
     1
1002
}
  0
DIMENSION
  5
7AFA
  8
3
  6
CONTINUOUS
  2
*D2
 10
3054.7470710000011
 20
3279.2253019999989
 30
0.0
 11
3054.7470709999998
 21
3595.907228
 31
0.0
 70
   128
 13
2678.2471139999998
 23
3975.2253019999998
 33
0.0
 14
2769.0288149999992
 24
3279.2253019999989
 34
0.0
 50
90.0
1001
ACAD
1000
DSTYLE
1002
{
1070
   287
1070
     3
1070
   287
1070
     3
1070
    40
1040
30.0
1070
   143
1040
0.039
1070
   172
1070
     1
1070
   271
1070
     0
1070
   279
1070
     0
1070
   288
1070
     1
1002
}
  0
DIMENSION
  5
7B06
  8
3
  6
CONTINUOUS
  2
*D3
 10
3054.7470709999998
 20
2654.2253019999998
 30
0.0
 11
2979.7470709999998
 21
2966.7253019999998
 31
0.0
 70
     0
 13
2769.0288149999992
 23
3279.2253019999989
 33
0.0
 14
2613.2471139999998
 24
2654.2253019999998
 34
0.0
 50
90.0
1001
ACAD
1000
DSTYLE
1002
{
1070
   287
1070
     4
1070
   287
1070
     4
1070
    40
1040
30.0
1070
    75
1070
     1
1070
   143
1040
0.039
1070
   172
1070
     1
1070
   271
1070
     0
1070
   279
1070
     1
1070
   288
1070
     1
1002
}
  0
DIMENSION
  5
7B13
  8
3
  6
CONTINUOUS
  2
*D4
 10
2143.2471139999998
 20
4118.2878890000002
 30
0.0
 11
2397.3329210000002
 21
4118.2878890000002
 31
0.0
 70
   128
 13
2678.2471139999998
 23
4015.2253019999998
 33
0.0
 14
2143.2471139999998
 24
4073.6243239999999
 34
0.0
1001
ACAD
1000
DSTYLE
1002
{
1070
   287
1070
     3
1070
   287
1070
     3
1070
    40
1040
30.0
1070
   143
1040
0.039
1070
   172
1070
     1
1070
   271
1070
     0
1070
   279
1070
     0
1070
   288
1070
     1
1002
}
  0
DIMENSION
  5
7B2C
  8
3
  6
CONTINUOUS
  2
*D5
 10
2143.2566624641349
 20
2412.7249786625498
 30
0.0
 11
2407.532828285714
 21
2412.7249786625498
 31
0.0
 70
   128
 13
2613.2471139999998
 23
2654.2253019999998
 33
0.0
 14
2143.2566624641349
 24
2541.4410096625502
 34
0.0
1001
ACAD
1000
DSTYLE
1002
{
1070
   287
1070
     3
1070
   287
1070
     3
1070
    40
1040
30.0
1070
   143
1040
0.039
1070
   172
1070
     1
1070
   271
1070
     0
1070
   279
1070
     0
1070
   288
1070
     1
1002
}
  0
DIMENSION
  5
7B38
  8
3
  6
CONTINUOUS
  2
*D6
 10
1113.2471139999991
 20
2412.7249786625498
 30
0.0
 11
1628.251888232068
 21
2487.7249786625498
 31
0.0
 70
     0
 13
2143.2566624641349
 23
2541.4410096625502
 33
0.0
 14
1113.2471139999991
 24
2654.2253019999998
 34
0.0
1001
ACAD
1000
DSTYLE
1002
{
1070
   287
1070
     4
1070
   287
1070
     4
1070
    40
1040
30.0
1070
    75
1070
     1
1070
   143
1040
0.039
1070
   172
1070
     1
1070
   271
1070
     0
1070
   279
1070
     1
1070
   288
1070
     1
1002
}
  0
DIMENSION
  5
7B45
  8
3
  6
CONTINUOUS
  2
*D7
 10
3260.68406
 20
2654.2253019999989
 30
0.0
 11
3260.6840599999991
 21
3287.227746
 31
0.0
 70
   128
 13
2678.2471139999998
 23
4015.2253019999998
 33
0.0
 14
2613.2471139999998
 24
2654.2253019999998
 34
0.0
 50
90.0
1001
ACAD
1000
DSTYLE
1002
{
1070
   287
1070
     3
1070
   287
1070
     3
1070
    40
1040
30.0
1070
   143
1040
0.039
1070
   172
1070
     1
1070
   271
1070
     0
1070
   279
1070
     0
1070
   288
1070
     1
1002
}
  0
DIMENSION
  5
7B52
  8
3
  6
CONTINUOUS
  2
*D8
 10
4223.926800072034
 20
4070.7987269999999
 30
0.0
 11
4482.4231390720352
 21
4070.7987269999999
 31
0.0
 70
   128
 13
4753.9268000720349
 23
3975.2253019999998
 33
0.0
 14
4223.926800072034
 24
3975.2253019999998
 34
0.0
1001
ACAD
1000
DSTYLE
1002
{
1070
   287
1070
     3
1070
   287
1070
     3
1070
    40
1040
30.0
1070
   143
1040
0.039
1070
   172
1070
     1
1070
   271
1070
     0
1070
   279
1070
     0
1070
   288
1070
     1
1002
}
  0
LINE
  5
7B53
  8
1
  6
CONTINUOUS
 10
4755.926800072034
 20
3656.2253020000012
 30
0.0
 11
4755.926800072034
 21
2902.2253019999989
 31
0.0
  0
DIMENSION
  5
7B62
  8
3
  6
CONTINUOUS
  2
*D9
 10
5036.8688290720356
 20
2902.2253019999989
 30
0.0
 11
5036.8688290720347
 21
3279.312903
 31
0.0
 70
   128
 13
4755.926800072034
 23
3656.2253020000012
 33
0.0
 14
4755.926800072034
 24
2902.2253019999989
 34
0.0
 50
90.0
1001
ACAD
1000
DSTYLE
1002
{
1070
   287
1070
     3
1070
   287
1070
     3
1070
     3
1000
φ<>
1070
    40
1040
30.0
1070
   143
1040
0.039
1070
   172
1070
     1
1070
   271
1070
     0
1070
   279
1070
     0
1070
   288
1070
     1
1002
}
  0
DIMENSION
  5
7B70
  8
3
  6
CONTINUOUS
  2
*D10
 10
4488.9268000720349
 20
4309.0029159999985
 30
0.0
 11
4635.9021200234674
 21
4391.9785386538497
 31
0.0
 70
   128
 13
4755.926800072034
 23
3656.2253020000012
 33
0.0
 14
4488.9268000720349
 24
4241.6992540000001
 34
0.0
1001
ACAD
1000
DSTYLE
1002
{
1070
   288
1070
     1
1070
   172
1070
     1
1070
    40
1040
30.0
1070
   271
1070
     0
1070
   143
1040
0.039
1002
}
  0
DIMENSION
  5
7B7C
  8
3
  6
CONTINUOUS
  2
*D11
 10
3988.926800072034
 20
4309.0029159999985
 30
0.0
 11
4238.9268000720349
 21
4459.0029159999985
 31
0.0
 70
     0
  1
MAX\P454
 13
4488.9268000720349
 23
4241.6992540000001
 33
0.0
 14
3988.926800072034
 24
3894.2253019999998
 34
0.0
1001
ACAD
1000
DSTYLE
1002
{
1070
   287
1070
     4
1070
   287
1070
     4
1070
    40
1040
30.0
1070
    75
1070
     1
1070
   143
1040
0.039
1070
   172
1070
     1
1070
   271
1070
     0
1070
   279
1070
     1
1070
   288
1070
     1
1002
}
  0
DIMENSION
  5
7B89
  8
3
  6
CONTINUOUS
  2
*D12
 10
4488.9268000720349
 20
2400.3487700000001
 30
0.0
 11
4251.6410860720353
 21
2400.3487700000001
 31
0.0
 70
   128
 13
4045.926800072034
 23
2654.2253019999998
 33
0.0
 14
4488.9268000720349
 24
2590.22057
 34
0.0
1001
ACAD
1000
DSTYLE
1002
{
1070
   287
1070
     3
1070
   287
1070
     3
1070
    40
1040
30.0
1070
   143
1040
0.039
1070
   172
1070
     1
1070
   271
1070
     0
1070
   279
1070
     0
1070
   288
1070
     1
1002
}
  0
DIMENSION
  5
7B97
  8
3
  6
CONTINUOUS
  2
*D13
 10
4805.9268000720349
 20
2400.3487700000001
 30
0.0
 11
4656.5875140720354
 21
2399.734762
 31
0.0
 70
   128
 13
4488.9268000720349
 23
2590.22057
 33
0.0
 14
4805.9268000720349
 24
2654.2253019999998
 34
0.0
1001
ACAD
1000
DSTYLE
1002
{
1070
   287
1070
     4
1070
   287
1070
     4
1070
    40
1040
30.0
1070
    75
1070
     1
1070
   143
1040
0.039
1070
   172
1070
     1
1070
   271
1070
     0
1070
   279
1070
     1
1070
   288
1070
     1
1002
}
  0
DIMENSION
  5
7BA4
  8
3
  6
CONTINUOUS
  2
*D14
 10
2613.2471139999998
 20
6320.4726629497154
 30
0.0
 11
1811.204608999999
 21
6320.4726629497154
 31
0.0
 70
   128
 13
1113.2471139999991
 23
6094.6542849497146
 33
0.0
 14
2613.2471139999998
 24
6094.6542849497146
 34
0.0
1001
ACAD
1000
DSTYLE
1002
{
1070
   287
1070
     3
1070
   287
1070
     3
1070
    40
1040
30.0
1070
   143
1040
0.039
1070
   172
1070
     1
1070
   271
1070
     0
1070
   279
1070
     0
1070
   288
1070
     1
1002
}
  0
DIMENSION
  5
7BB1
  8
3
  6
CONTINUOUS
  2
*D15
 10
2935.9372830000011
 20
5334.6542849497137
 30
0.0
 11
2935.9372829999988
 21
5756.6573349497139
 31
0.0
 70
   128
 13
2613.2471139999998
 23
6094.6542849497146
 33
0.0
 14
2613.2471139999998
 24
5334.6542849497137
 34
0.0
 50
90.0
1001
ACAD
1000
DSTYLE
1002
{
1070
   287
1070
     3
1070
   287
1070
     3
1070
    40
1040
30.0
1070
   143
1040
0.039
1070
   172
1070
     1
1070
   271
1070
     0
1070
   279
1070
     0
1070
   288
1070
     1
1002
}
  0
DIMENSION
  5
7BD8
  8
3
  6
CONTINUOUS
  2
*D16
 10
1557.2495879999999
 20
4118.2878890000002
 30
0.0
 11
1850.248351
 21
4193.2878890000002
 31
0.0
 70
     0
 13
2143.2471139999998
 23
4073.6243239999999
 33
0.0
 14
1557.2495879999999
 24
3279.2253019999989
 34
0.0
1001
ACAD
1000
DSTYLE
1002
{
1070
   287
1070
     4
1070
   287
1070
     4
1070
    40
1040
30.0
1070
    75
1070
     1
1070
   143
1040
0.039
1070
   172
1070
     1
1070
   271
1070
     0
1070
   279
1070
     1
1070
   288
1070
     1
1002
}
  0
LINE
  5
7C3B
  8
2
  6
CENTER
 10
4488.9268000720349
 20
4042.9511309999998
 30
0.0
 11
4488.9268000720349
 21
2590.22057
 31
0.0
  0
DIMENSION
  5
7C93
  8
3
  2
*D17
 10
1113.2471139999991
 20
4321.9409173287531
 30
0.0
 11
1860.1217669742621
 21
4321.9409173287531
 31
0.0
 70
   128
 13
2678.2471139999998
 23
4015.2253019999998
 33
0.0
 14
1113.2471139999991
 24
2754.2253019999998
 34
0.0
1001
ACAD
1000
DSTYLE
1002
{
1070
   287
1070
     3
1070
   287
1070
     3
1070
    40
1040
30.0
1070
   143
1040
0.039
1070
   172
1070
     1
1070
   271
1070
     0
1070
   279
1070
     0
1070
   288
1070
     1
1002
}
  0
ENDSEC
  0
EOF
