  0
SECTION
  2
HEADER
  9
$ACADVER
  1
AC1009
  9
$INSBASE
 10
0.0
 20
0.0
 30
0.0
  9
$EXTMIN
 10
750.0
 20
900.0
 30
0.0
  9
$EXTMAX
 10
5550.0
 20
8359.9567849999985
 30
0.0
  9
$LIMMIN
 10
0.0
 20
0.0
  9
$LIMMAX
 10
297.0
 20
210.0
  9
$ORTHOMODE
 70
     0
  9
$REGENMODE
 70
     1
  9
$FILLMODE
 70
     0
  9
$QTEXTMODE
 70
     0
  9
$MIRRTEXT
 70
     1
  9
$DRAGMODE
 70
     2
  9
$LTSCALE
 40
100.0
  9
$OSMODE
 70
    37
  9
$ATTMODE
 70
     1
  9
$TEXTSIZE
 40
180.0
  9
$TRACEWID
 40
0.05
  9
$TEXTSTYLE
  7
STANDARD
  9
$CLAYER
  8
3
  9
$CELTYPE
  6
BYLAYER
  9
$CECOLOR
 62
   256
  9
$DIMSCALE
 40
30.0
  9
$DIMASZ
 40
2.0
  9
$DIMEXO
 40
0.5
  9
$DIMDLI
 40
10.0
  9
$DIMRND
 40
0.0
  9
$DIMDLE
 40
0.0
  9
$DIMEXE
 40
1.0
  9
$DIMTP
 40
1.0
  9
$DIMTM
 40
1.0
  9
$DIMTXT
 40
3.0
  9
$DIMCEN
 40
0.0
  9
$DIMTSZ
 40
0.0
  9
$DIMTOL
 70
     0
  9
$DIMLIM
 70
     0
  9
$DIMTIH
 70
     0
  9
$DIMTOH
 70
     0
  9
$DIMSE1
 70
     0
  9
$DIMSE2
 70
     0
  9
$DIMTAD
 70
     1
  9
$DIMZIN
 70
     8
  9
$DIMBLK
  1

  9
$DIMASO
 70
     1
  9
$DIMSHO
 70
     1
  9
$DIMPOST
  1

  9
$DIMAPOST
  1

  9
$DIMALT
 70
     0
  9
$DIMALTD
 70
     2
  9
$DIMALTF
 40
0.039
  9
$DIMLFAC
 40
1.0
  9
$DIMTOFL
 70
     1
  9
$DIMTVP
 40
0.0
  9
$DIMTIX
 70
     0
  9
$DIMSOXD
 70
     0
  9
$DIMSAH
 70
     1
  9
$DIMBLK1
  1
OPEN
  9
$DIMBLK2
  1
OPEN
  9
$DIMSTYLE
  2
IGA
  9
$DIMCLRD
 70
     0
  9
$DIMCLRE
 70
     0
  9
$DIMCLRT
 70
     0
  9
$DIMTFAC
 40
10.0
  9
$DIMGAP
 40
1.0
  9
$LUNITS
 70
     2
  9
$LUPREC
 70
     3
  9
$SKETCHINC
 40
0.1
  9
$FILLETRAD
 40
50.0
  9
$AUNITS
 70
     0
  9
$AUPREC
 70
     0
  9
$MENU
  1
acad
  9
$ELEVATION
 40
0.0
  9
$PELEVATION
 40
0.0
  9
$THICKNESS
 40
0.0
  9
$LIMCHECK
 70
     0
  9
$BLIPMODE
 70
     0
  9
$CHAMFERA
 40
0.5
  9
$CHAMFERB
 40
0.5
  9
$SKPOLY
 70
     0
  9
$TDCREATE
 40
2450743.4430954861
  9
$TDUPDATE
 40
2454953.7732439931
  9
$TDINDWG
 40
0.0061133218
  9
$TDUSRTIMER
 40
0.0061133218
  9
$USRTIMER
 70
     1
  9
$ANGBASE
 50
0.0
  9
$ANGDIR
 70
     0
  9
$PDMODE
 70
     0
  9
$PDSIZE
 40
0.0
  9
$PLINEWID
 40
0.0
  9
$COORDS
 70
     1
  9
$SPLFRAME
 70
     0
  9
$SPLINETYPE
 70
     6
  9
$SPLINESEGS
 70
     8
  9
$ATTDIA
 70
     0
  9
$ATTREQ
 70
     1
  9
$HANDLING
 70
 10241
  9
$HANDSEED
  5
7FFC
  9
$SURFTAB1
 70
     6
  9
$SURFTAB2
 70
     6
  9
$SURFTYPE
 70
     6
  9
$SURFU
 70
     6
  9
$SURFV
 70
     6
  9
$UCSNAME
  2

  9
$UCSORG
 10
0.0
 20
0.0
 30
0.0
  9
$UCSXDIR
 10
1.0
 20
0.0
 30
0.0
  9
$UCSYDIR
 10
0.0
 20
1.0
 30
0.0
  9
$PUCSNAME
  2

  9
$PUCSORG
 10
0.0
 20
0.0
 30
0.0
  9
$PUCSXDIR
 10
1.0
 20
0.0
 30
0.0
  9
$PUCSYDIR
 10
0.0
 20
1.0
 30
0.0
  9
$USERI1
 70
     0
  9
$USERI2
 70
     0
  9
$USERI3
 70
     0
  9
$USERI4
 70
     0
  9
$USERI5
 70
     0
  9
$USERR1
 40
0.0
  9
$USERR2
 40
0.0
  9
$USERR3
 40
0.0
  9
$USERR4
 40
0.0
  9
$USERR5
 40
0.0
  9
$WORLDVIEW
 70
     1
  9
$SHADEDGE
 70
     3
  9
$SHADEDIF
 70
    70
  9
$TILEMODE
 70
     1
  9
$MAXACTVP
 70
    16
  9
$PLIMCHECK
 70
     0
  9
$PEXTMIN
 10
1.0000000000000000E+020
 20
1.0000000000000000E+020
 30
1.0000000000000000E+020
  9
$PEXTMAX
 10
-1.0000000000000000E+020
 20
-1.0000000000000000E+020
 30
-1.0000000000000000E+020
  9
$PLIMMIN
 10
0.0
 20
0.0
  9
$PLIMMAX
 10
12.0
 20
9.0
  9
$UNITMODE
 70
     0
  9
$VISRETAIN
 70
     0
  9
$PLINEGEN
 70
     0
  9
$PSLTSCALE
 70
     1
  0
ENDSEC
  0
SECTION
  2
TABLES
  0
TABLE
  2
VPORT
 70
     2
  0
VPORT
  2
*ACTIVE
 70
     0
 10
0.0
 20
0.0
 11
1.0
 21
1.0
 12
9438.4567678319436
 22
4630.0975558305709
 13
0.0
 23
0.0
 14
10.0
 24
10.0
 15
10.0
 25
10.0
 16
0.0
 26
0.0
 36
1.0
 17
0.0
 27
0.0
 37
0.0
 40
7517.4747125171307
 41
3.1666666666666661
 42
50.0
 43
0.0
 44
0.0
 50
0.0
 51
0.0
 71
     0
 72
   100
 73
     1
 74
     0
 75
     0
 76
     0
 77
     0
 78
     0
  0
ENDTAB
  0
TABLE
  2
LTYPE
 70
     2
  0
LTYPE
  2
CONTINUOUS
 70
     0
  3
Solid line
 72
    65
 73
     0
 40
0.0
  0
LTYPE
  2
CENTER
 70
     0
  3
____ _ ____ _ ____ _ ____ _ ____ _ ____ _ ____ 
 72
    65
 73
     4
 40
2.0
 49
1.25
 49
-0.25
 49
0.25
 49
-0.25
  0
ENDTAB
  0
TABLE
  2
LAYER
 70
     6
  0
LAYER
  2
0
 70
     0
 62
     7
  6
CONTINUOUS
  0
LAYER
  2
3
 70
     0
 62
     2
  6
CONTINUOUS
  0
LAYER
  2
2
 70
     0
 62
     3
  6
CENTER
  0
LAYER
  2
1
 70
     0
 62
     4
  6
CONTINUOUS
  0
LAYER
  2
4
 70
     0
 62
     7
  6
CONTINUOUS
  0
LAYER
  2
DEFPOINTS
 70
     0
 62
     7
  6
CONTINUOUS
  0
ENDTAB
  0
TABLE
  2
STYLE
 70
     1
  0
STYLE
  2
STANDARD
 70
     0
 40
0.0
 41
1.0
 50
0.0
 71
     0
 42
180.0
  3
simplex.shx
  4
extfont.shx
  0
ENDTAB
  0
TABLE
  2
VIEW
 70
     0
  0
ENDTAB
  0
TABLE
  2
UCS
 70
     0
  0
ENDTAB
  0
TABLE
  2
APPID
 70
     1
  0
APPID
  2
ACAD
 70
     0
  0
ENDTAB
  0
TABLE
  2
DIMSTYLE
 70
     1
  0
DIMSTYLE
  2
IGA
 70
     0
  3

  4

  5

  6
OPEN
  7
OPEN
 40
2.0
 41
2.0
 42
0.5
 43
10.0
 44
1.0
 45
0.0
 46
0.0
 47
1.0
 48
1.0
140
3.0
141
0.0
142
0.0
143
0.03937
144
1.0
145
0.0
146
10.0
147
1.0
 71
     0
 72
     0
 73
     0
 74
     0
 75
     0
 76
     0
 77
     1
 78
     8
170
     0
171
     2
172
     0
173
     1
174
     0
175
     0
176
     0
177
     0
178
     0
  0
ENDTAB
  0
ENDSEC
  0
SECTION
  2
BLOCKS
  0
BLOCK
  8
0
  2
$MODEL_SPACE
 70
     0
 10
0.0
 20
0.0
 30
0.0
  3
$MODEL_SPACE
  1

  0
ENDBLK
  5
1B
  8
0
  0
BLOCK
 67
     1
  8
0
  2
$PAPER_SPACE
 70
     0
 10
0.0
 20
0.0
 30
0.0
  3
$PAPER_SPACE
  1

  0
ENDBLK
  5
18
 67
     1
  8
0
  0
BLOCK
  8
0
  2
_OPEN
 70
     0
 10
0.0
 20
0.0
 30
0.0
  3
_OPEN
  1

  0
LINE
  5
7ABF
  8
0
  6
BYBLOCK
 62
     0
 10
-1.0
 20
0.166667
 30
0.0
 11
0.0
 21
0.0
 31
0.0
  0
LINE
  5
7AC0
  8
0
  6
BYBLOCK
 62
     0
 10
0.0
 20
0.0
 30
0.0
 11
-1.0
 21
-0.166667
 31
0.0
  0
LINE
  5
7AC1
  8
0
  6
BYBLOCK
 62
     0
 10
0.0
 20
0.0
 30
0.0
 11
-1.0
 21
0.0
 31
0.0
  0
ENDBLK
  5
7AC2
  8
0
  0
BLOCK
  8
0
  2
*D1
 70
     1
 10
0.0
 20
0.0
 30
0.0
  3
*D1
  1

  0
LINE
  5
7F64
  8
3
  6
CONTINUOUS
 62
     0
 10
2764.325437
 20
3585.0180439999999
 30
0.0
 11
2974.7901810000012
 21
3585.0180439999999
 31
0.0
  0
LINE
  5
7F65
  8
3
  6
CONTINUOUS
 62
     0
 10
2764.325437
 20
2855.018043999999
 30
0.0
 11
2974.7901809999998
 21
2855.018043999999
 31
0.0
  0
LINE
  5
7F66
  8
3
  6
CONTINUOUS
 62
     0
 10
2944.7901810000012
 20
3525.0180439999999
 30
0.0
 11
2944.7901809999998
 21
2915.018043999999
 31
0.0
  0
INSERT
  5
7F67
  8
3
  6
CONTINUOUS
 62
     0
  2
_OPEN
 10
2944.7901810000012
 20
3585.0180439999999
 30
0.0
 41
60.0
 42
60.0
 43
60.0
 50
90.0
  0
INSERT
  5
7F68
  8
3
  6
CONTINUOUS
 62
     0
  2
_OPEN
 10
2944.7901809999998
 20
2855.018043999999
 30
0.0
 41
60.0
 42
60.0
 43
60.0
 50
270.0
  0
TEXT
  8
3
  40
90
  5
7FED
  62
0
  72
0
  71
0
 10
2689.79
 20
3059.16
 30
0.000000
  1
730
  0
POINT
  5
7F6A
  8
DEFPOINTS
  6
CONTINUOUS
 62
     0
 10
2749.3254369999991
 20
3585.0180439999999
 30
0.0
  0
POINT
  5
7F6B
  8
DEFPOINTS
  6
CONTINUOUS
 62
     0
 10
2749.3254369999991
 20
2855.018043999999
 30
0.0
  0
POINT
  5
7F6C
  8
DEFPOINTS
  6
CONTINUOUS
 62
     0
 10
2944.7901809999998
 20
2855.018043999999
 30
0.0
  0
ENDBLK
  5
7ACF
  8
0
  0
BLOCK
  8
0
  2
*D2
 70
     1
 10
0.0
 20
0.0
 30
0.0
  3
*D2
  1

  0
LINE
  5
7F6D
  8
3
  6
CONTINUOUS
 62
     0
 10
2869.7492069999989
 20
3551.0180439999999
 30
0.0
 11
3135.0856050000011
 21
3551.018043999999
 31
0.0
  0
LINE
  5
7F6E
  8
3
  6
CONTINUOUS
 62
     0
 10
2764.325437
 20
2855.018043999999
 30
0.0
 11
3135.0856050000002
 21
2855.018043999999
 31
0.0
  0
LINE
  5
7F6F
  8
3
  6
CONTINUOUS
 62
     0
 10
3105.0856050000011
 20
3491.0180439999999
 30
0.0
 11
3105.0856050000011
 21
2915.018043999999
 31
0.0
  0
INSERT
  5
7F70
  8
3
  6
CONTINUOUS
 62
     0
  2
_OPEN
 10
3105.0856050000011
 20
3551.018043999999
 30
0.0
 41
60.0
 42
60.0
 43
60.0
 50
90.0
  0
INSERT
  5
7F71
  8
3
  6
CONTINUOUS
 62
     0
  2
_OPEN
 10
3105.0856050000011
 20
2855.018043999999
 30
0.0
 41
60.0
 42
60.0
 43
60.0
 50
270.0
  0
TEXT
  8
3
  40
90
  5
7FEE
  62
0
  72
0
  71
0
 10
2850.09
 20
3065.09
 30
0.000000
  1
696
  0
POINT
  5
7F73
  8
DEFPOINTS
  6
CONTINUOUS
 62
     0
 10
2854.7492069999998
 20
3551.0180439999999
 30
0.0
  0
POINT
  5
7F74
  8
DEFPOINTS
  6
CONTINUOUS
 62
     0
 10
2749.3254369999991
 20
2855.018043999999
 30
0.0
  0
POINT
  5
7F75
  8
DEFPOINTS
  6
CONTINUOUS
 62
     0
 10
3105.0856050000011
 20
2855.018043999999
 30
0.0
  0
ENDBLK
  5
7ADC
  8
0
  0
BLOCK
  8
0
  2
*D3
 70
     1
 10
0.0
 20
0.0
 30
0.0
  3
*D3
  1

  0
LINE
  5
7F76
  8
3
  6
CONTINUOUS
 62
     0
 10
2869.7492069999989
 20
3551.0180439999999
 30
0.0
 11
3336.9390400000002
 21
3551.018043999999
 31
0.0
  0
LINE
  5
7F77
  8
3
  6
CONTINUOUS
 62
     0
 10
2699.325437
 20
2661.0180439999999
 30
0.0
 11
3336.9390400000002
 21
2661.018043999999
 31
0.0
  0
LINE
  5
7F78
  8
3
  6
CONTINUOUS
 62
     0
 10
3306.9390400000002
 20
3491.0180439999999
 30
0.0
 11
3306.9390399999988
 21
2721.018043999999
 31
0.0
  0
INSERT
  5
7F79
  8
3
  6
CONTINUOUS
 62
     0
  2
_OPEN
 10
3306.9390400000002
 20
3551.018043999999
 30
0.0
 41
60.0
 42
60.0
 43
60.0
 50
90.0
  0
INSERT
  5
7F7A
  8
3
  6
CONTINUOUS
 62
     0
  2
_OPEN
 10
3306.9390399999988
 20
2661.018043999999
 30
0.0
 41
60.0
 42
60.0
 43
60.0
 50
270.0
  0
TEXT
  8
3
  40
90
  5
7FEF
  62
0
  72
0
  71
0
 10
3051.94
 20
2946.72
 30
0.000000
  1
890
  0
POINT
  5
7F7C
  8
DEFPOINTS
  6
CONTINUOUS
 62
     0
 10
2854.7492069999998
 20
3551.0180439999999
 30
0.0
  0
POINT
  5
7F7D
  8
DEFPOINTS
  6
CONTINUOUS
 62
     0
 10
2684.325437
 20
2661.0180439999999
 30
0.0
  0
POINT
  5
7F7E
  8
DEFPOINTS
  6
CONTINUOUS
 62
     0
 10
3306.9390399999988
 20
2661.018043999999
 30
0.0
  0
ENDBLK
  5
7CF8
  8
0
  0
BLOCK
  8
0
  2
*D4
 70
     1
 10
0.0
 20
0.0
 30
0.0
  3
*D4
  1

  0
LINE
  5
7F7F
  8
3
  6
CONTINUOUS
 62
     0
 10
4996.9838009999994
 20
3997.0180439999999
 30
0.0
 11
4996.9838009999994
 21
4096.6391919999996
 31
0.0
  0
LINE
  5
7F80
  8
3
  6
CONTINUOUS
 62
     0
 10
4466.9838009999994
 20
3997.0180439999999
 30
0.0
 11
4466.9838009999994
 21
4096.6391919999996
 31
0.0
  0
LINE
  5
7F81
  8
3
  6
CONTINUOUS
 62
     0
 10
4936.9838010000003
 20
4066.6391920000001
 30
0.0
 11
4526.9838009999994
 21
4066.6391920000001
 31
0.0
  0
INSERT
  5
7F82
  8
3
  6
CONTINUOUS
 62
     0
  2
_OPEN
 10
4996.9838009999994
 20
4066.6391920000001
 30
0.0
 41
60.0
 42
60.0
 43
60.0
  0
INSERT
  5
7F83
  8
3
  6
CONTINUOUS
 62
     0
  2
_OPEN
 10
4466.9838009999994
 20
4066.6391920000001
 30
0.0
 41
60.0
 42
60.0
 43
60.0
 50
180.0
  0
TEXT
  8
3
  40
90
  5
7FF0
  62
0
  72
0
  71
0
 10
4547.92
 20
3982.34
 30
0.000000
  1
530
  0
POINT
  5
7F85
  8
DEFPOINTS
  6
CONTINUOUS
 62
     0
 10
4996.9838009999994
 20
3982.0180439999999
 30
0.0
  0
POINT
  5
7F86
  8
DEFPOINTS
  6
CONTINUOUS
 62
     0
 10
4466.9838009999994
 20
3982.0180439999999
 30
0.0
  0
POINT
  5
7F87
  8
DEFPOINTS
  6
CONTINUOUS
 62
     0
 10
4466.9838009999994
 20
4066.6391920000001
 30
0.0
  0
ENDBLK
  5
7B0F
  8
0
  0
BLOCK
  8
0
  2
*D5
 70
     1
 10
0.0
 20
0.0
 30
0.0
  3
*D5
  1

  0
LINE
  5
7F88
  8
3
  6
CONTINUOUS
 62
     0
 10
5013.9838010000003
 20
3928.0180439999999
 30
0.0
 11
5262.5562440000003
 21
3928.018043999999
 31
0.0
  0
LINE
  5
7F89
  8
3
  6
CONTINUOUS
 62
     0
 10
5013.9838010000003
 20
3174.0180439999999
 30
0.0
 11
5262.5562440000003
 21
3174.018043999999
 31
0.0
  0
LINE
  5
7F8A
  8
3
  6
CONTINUOUS
 62
     0
 10
5232.5562440000012
 20
3868.018043999999
 30
0.0
 11
5232.5562440000012
 21
3234.018043999999
 31
0.0
  0
INSERT
  5
7F8B
  8
3
  6
CONTINUOUS
 62
     0
  2
_OPEN
 10
5232.5562440000012
 20
3928.018043999999
 30
0.0
 41
60.0
 42
60.0
 43
60.0
 50
90.0
  0
INSERT
  5
7F8C
  8
3
  6
CONTINUOUS
 62
     0
  2
_OPEN
 10
5232.5562440000012
 20
3174.018043999999
 30
0.0
 41
60.0
 42
60.0
 43
60.0
 50
270.0
  0
TEXT
  8
3
  40
90
  5
7FF1
  62
0
  72
0
  71
0
 10
4977.56
 20
3361.66
 30
0.000000
  1
φ754
  0
POINT
  5
7F8E
  8
DEFPOINTS
  6
CONTINUOUS
 62
     0
 10
4998.9838009999994
 20
3928.0180439999999
 30
0.0
  0
POINT
  5
7F8F
  8
DEFPOINTS
  6
CONTINUOUS
 62
     0
 10
4998.9838009999994
 20
3174.0180439999999
 30
0.0
  0
POINT
  5
7F90
  8
DEFPOINTS
  6
CONTINUOUS
 62
     0
 10
5232.5562440000012
 20
3174.018043999999
 30
0.0
  0
ENDBLK
  5
7CED
  8
0
  0
BLOCK
  8
0
  2
*D6
 70
     1
 10
0.0
 20
0.0
 30
0.0
  3
*D6
  1

  0
LINE
  5
7CCF
  8
0
  6
BYBLOCK
 62
     0
 10
4998.9838009999994
 20
3943.0180439999999
 30
0.0
 11
4998.9838009999994
 21
4280.5106039999991
 31
0.0
  0
LINE
  5
7CD0
  8
0
  6
BYBLOCK
 62
     0
 10
4731.9838010000003
 20
4219.1605340000006
 30
0.0
 11
4731.9838010000003
 21
4280.5106039999991
 31
0.0
  0
LINE
  5
7CD1
  8
0
  6
BYBLOCK
 62
     0
 10
4938.9838010000003
 20
4250.5106040000001
 30
0.0
 11
4791.9838009999994
 21
4250.5106040000001
 31
0.0
  0
TEXT
  5
7CD2
  8
3
 62
     0
 10
4761.7452687061523
 20
4290.888077884676
 30
0.0
 40
90.0
  1
267
  0
INSERT
  5
7CD3
  8
0
  6
BYBLOCK
 62
     0
  2
_OPEN
 10
4998.9838009999994
 20
4250.5106040000001
 30
0.0
 41
60.0
 42
60.0
 43
60.0
  0
INSERT
  5
7CD4
  8
0
  6
BYBLOCK
 62
     0
  2
_OPEN
 10
4731.9838010000003
 20
4250.5106040000001
 30
0.0
 41
60.0
 42
60.0
 43
60.0
 50
180.0
  0
POINT
  5
7CD5
  8
DEFPOINTS
  6
BYBLOCK
 62
     0
 10
4998.9838009999994
 20
3928.0180439999999
 30
0.0
  0
POINT
  5
7CD6
  8
DEFPOINTS
  6
BYBLOCK
 62
     0
 10
4731.9838010000003
 20
4204.1605339999996
 30
0.0
  0
POINT
  5
7CD7
  8
DEFPOINTS
  6
BYBLOCK
 62
     0
 10
4731.9838010000003
 20
4250.5106040000001
 30
0.0
  0
ENDBLK
  5
7CD8
  8
0
  0
BLOCK
  8
0
  2
*D7
 70
     1
 10
0.0
 20
0.0
 30
0.0
  3
*D7
  1

  0
LINE
  5
7CDA
  8
0
  6
BYBLOCK
 62
     0
 10
4231.9838010000003
 20
3916.018043999999
 30
0.0
 11
4231.9838010000003
 21
4280.5106039999991
 31
0.0
  0
LINE
  5
7CDB
  8
0
  6
BYBLOCK
 62
     0
 10
4671.9838009999994
 20
4250.5106040000001
 30
0.0
 11
4291.9838009999994
 21
4250.5106040000001
 31
0.0
  0
INSERT
  5
7CDC
  8
0
  6
BYBLOCK
 62
     0
  2
_OPEN
 10
4731.9838010000003
 20
4250.5106040000001
 30
0.0
 41
60.0
 42
60.0
 43
60.0
  0
INSERT
  5
7CDD
  8
0
  6
BYBLOCK
 62
     0
  2
_OPEN
 10
4231.9838010000003
 20
4250.5106040000001
 30
0.0
 41
60.0
 42
60.0
 43
60.0
 50
180.0
  0
INSERT
  5
7CDE
  8
3
  2
*U18
 10
0.0
 20
0.0
 30
0.0
  0
POINT
  5
7CDF
  8
DEFPOINTS
  6
BYBLOCK
 62
     0
 10
4731.9838010000003
 20
4204.1605339999996
 30
0.0
  0
POINT
  5
7CE0
  8
DEFPOINTS
  6
BYBLOCK
 62
     0
 10
4231.9838010000003
 20
3901.0180439999999
 30
0.0
  0
POINT
  5
7CE1
  8
DEFPOINTS
  6
BYBLOCK
 62
     0
 10
4231.9838010000003
 20
4250.5106040000001
 30
0.0
  0
ENDBLK
  5
7CE2
  8
0
  0
BLOCK
  8
0
  2
*D8
 70
     1
 10
0.0
 20
0.0
 30
0.0
  3
*D8
  1

  0
LINE
  5
7F91
  8
3
  6
CONTINUOUS
 62
     0
 10
4288.9838009999994
 20
2646.018043999999
 30
0.0
 11
4288.9838009999994
 21
2316.6310181357412
 31
0.0
  0
LINE
  5
7F92
  8
3
  6
CONTINUOUS
 62
     0
 10
4731.9838010000003
 20
2454.1611130000001
 30
0.0
 11
4731.9838010000003
 21
2316.6310181357412
 31
0.0
  0
LINE
  5
7F93
  8
3
  6
CONTINUOUS
 62
     0
 10
4348.9838009999994
 20
2346.6310181357412
 30
0.0
 11
4671.9838009999994
 21
2346.6310181357412
 31
0.0
  0
INSERT
  5
7F94
  8
3
  6
CONTINUOUS
 62
     0
  2
_OPEN
 10
4288.9838009999994
 20
2346.6310181357412
 30
0.0
 41
60.0
 42
60.0
 43
60.0
 50
180.0
  0
INSERT
  5
7F95
  8
3
  6
CONTINUOUS
 62
     0
  2
_OPEN
 10
4731.9838010000003
 20
2346.6310181357412
 30
0.0
 41
60.0
 42
60.0
 43
60.0
  0
TEXT
  8
3
  40
90
  5
7FF2
  62
0
  72
0
  71
0
 10
4346.27
 20
2262.33
 30
0.000000
  1
443
  0
POINT
  5
7F97
  8
DEFPOINTS
  6
CONTINUOUS
 62
     0
 10
4288.9838009999994
 20
2661.0180439999999
 30
0.0
  0
POINT
  5
7F98
  8
DEFPOINTS
  6
CONTINUOUS
 62
     0
 10
4731.9838010000003
 20
2469.1611130000001
 30
0.0
  0
POINT
  5
7F99
  8
DEFPOINTS
  6
CONTINUOUS
 62
     0
 10
4731.9838010000003
 20
2346.6310181357412
 30
0.0
  0
ENDBLK
  5
7C81
  8
0
  0
BLOCK
  8
0
  2
*D9
 70
     1
 10
0.0
 20
0.0
 30
0.0
  3
*D9
  1

  0
LINE
  5
7F9A
  8
3
  6
CONTINUOUS
 62
     0
 10
5048.9838009999994
 20
2646.018043999999
 30
0.0
 11
5048.9838009999994
 21
2316.6310181357412
 31
0.0
  0
LINE
  5
7F9B
  8
3
  6
CONTINUOUS
 62
     0
 10
4791.9838009999994
 20
2346.6310181357412
 30
0.0
 11
4988.9838009999994
 21
2346.6310181357412
 31
0.0
  0
TEXT
  8
3
  40
90
  5
7FF3
  62
0
  72
0
  71
0
 10
4735.43
 20
2262.81
 30
0.000000
  1
317
  0
INSERT
  5
7F9D
  8
3
  6
CONTINUOUS
 62
     0
  2
_OPEN
 10
4731.9838010000003
 20
2346.6310181357412
 30
0.0
 41
60.0
 42
60.0
 43
60.0
 50
180.0
  0
INSERT
  5
7F9E
  8
3
  6
CONTINUOUS
 62
     0
  2
_OPEN
 10
5048.9838009999994
 20
2346.6310181357412
 30
0.0
 41
60.0
 42
60.0
 43
60.0
  0
POINT
  5
7F9F
  8
DEFPOINTS
  6
CONTINUOUS
 62
     0
 10
4731.9838010000003
 20
2469.1611130000001
 30
0.0
  0
POINT
  5
7FA0
  8
DEFPOINTS
  6
CONTINUOUS
 62
     0
 10
5048.9838009999994
 20
2661.0180439999999
 30
0.0
  0
POINT
  5
7FA1
  8
DEFPOINTS
  6
CONTINUOUS
 62
     0
 10
5048.9838009999994
 20
2346.6310181357412
 30
0.0
  0
ENDBLK
  5
7C8B
  8
0
  0
BLOCK
  8
0
  2
*D10
 70
     1
 10
0.0
 20
0.0
 30
0.0
  3
*D10
  1

  0
LINE
  5
7FA2
  8
3
  6
CONTINUOUS
 62
     0
 10
1184.325437
 20
2646.018043999999
 30
0.0
 11
1184.325437
 21
2368.1211289999992
 31
0.0
  0
LINE
  5
7FA3
  8
3
  6
CONTINUOUS
 62
     0
 10
2214.325437
 20
2483.7923409999999
 30
0.0
 11
2214.325437
 21
2368.1211289999992
 31
0.0
  0
LINE
  5
7FA4
  8
3
  6
CONTINUOUS
 62
     0
 10
1244.325437
 20
2398.1211290000001
 30
0.0
 11
2154.325437
 21
2398.1211290000001
 31
0.0
  0
INSERT
  5
7FA5
  8
3
  6
CONTINUOUS
 62
     0
  2
_OPEN
 10
1184.325437
 20
2398.1211290000001
 30
0.0
 41
60.0
 42
60.0
 43
60.0
 50
180.0
  0
INSERT
  5
7FA6
  8
3
  6
CONTINUOUS
 62
     0
  2
_OPEN
 10
2214.325437
 20
2398.1211290000001
 30
0.0
 41
60.0
 42
60.0
 43
60.0
  0
TEXT
  8
3
  40
90
  5
7FF4
  62
0
  72
0
  71
0
 10
1571.48
 20
2313.82
 30
0.000000
  1
1030
  0
POINT
  5
7FA8
  8
DEFPOINTS
  6
CONTINUOUS
 62
     0
 10
1184.325437
 20
2661.0180439999999
 30
0.0
  0
POINT
  5
7FA9
  8
DEFPOINTS
  6
CONTINUOUS
 62
     0
 10
2214.325437
 20
2498.7923409999999
 30
0.0
  0
POINT
  5
7FAA
  8
DEFPOINTS
  6
CONTINUOUS
 62
     0
 10
2214.325437
 20
2398.1211290000001
 30
0.0
  0
ENDBLK
  5
7BE6
  8
0
  0
BLOCK
  8
0
  2
*D11
 70
     1
 10
0.0
 20
0.0
 30
0.0
  3
*D11
  1

  0
LINE
  5
7FAB
  8
3
  6
CONTINUOUS
 62
     0
 10
2684.325437
 20
2646.018043999999
 30
0.0
 11
2684.325437
 21
2368.1211289999992
 31
0.0
  0
LINE
  5
7FAC
  8
3
  6
CONTINUOUS
 62
     0
 10
2274.3254369999991
 20
2398.1211290000001
 30
0.0
 11
2624.3254369999991
 21
2398.1211290000001
 31
0.0
  0
INSERT
  5
7FAD
  8
3
  6
CONTINUOUS
 62
     0
  2
_OPEN
 10
2214.325437
 20
2398.1211290000001
 30
0.0
 41
60.0
 42
60.0
 43
60.0
 50
180.0
  0
INSERT
  5
7FAE
  8
3
  6
CONTINUOUS
 62
     0
  2
_OPEN
 10
2684.325437
 20
2398.1211290000001
 30
0.0
 41
60.0
 42
60.0
 43
60.0
  0
TEXT
  8
3
  40
90
  5
7FF5
  62
0
  72
0
  71
0
 10
2269.33
 20
2313.82
 30
0.000000
  1
470
  0
POINT
  5
7FB0
  8
DEFPOINTS
  6
CONTINUOUS
 62
     0
 10
2214.325437
 20
2498.7923409999999
 30
0.0
  0
POINT
  5
7FB1
  8
DEFPOINTS
  6
CONTINUOUS
 62
     0
 10
2684.325437
 20
2661.0180439999999
 30
0.0
  0
POINT
  5
7FB2
  8
DEFPOINTS
  6
CONTINUOUS
 62
     0
 10
2684.325437
 20
2398.1211290000001
 30
0.0
  0
ENDBLK
  5
7BF0
  8
0
  0
BLOCK
  8
0
  2
*D12
 70
     1
 10
0.0
 20
0.0
 30
0.0
  3
*D12
  1

  0
LINE
  5
7FB3
  8
3
  6
CONTINUOUS
 62
     0
 10
2749.3254369999991
 20
3640.0180439999999
 30
0.0
 11
2749.3254369999991
 21
4286.6894549999997
 31
0.0
  0
LINE
  5
7FB4
  8
3
  6
CONTINUOUS
 62
     0
 10
2214.325437
 20
4262.462254
 30
0.0
 11
2214.325437
 21
4286.6894549999997
 31
0.0
  0
LINE
  5
7FB5
  8
3
  6
CONTINUOUS
 62
     0
 10
2689.325437
 20
4256.6894549999997
 30
0.0
 11
2274.3254369999991
 21
4256.6894549999997
 31
0.0
  0
INSERT
  5
7FB6
  8
3
  6
CONTINUOUS
 62
     0
  2
_OPEN
 10
2749.3254369999991
 20
4256.6894549999997
 30
0.0
 41
60.0
 42
60.0
 43
60.0
  0
INSERT
  5
7FB7
  8
3
  6
CONTINUOUS
 62
     0
  2
_OPEN
 10
2214.325437
 20
4256.6894549999997
 30
0.0
 41
60.0
 42
60.0
 43
60.0
 50
180.0
  0
TEXT
  8
3
  40
90
  5
7FF6
  62
0
  72
0
  71
0
 10
2301.71
 20
4172.39
 30
0.000000
  1
535
  0
POINT
  5
7FB9
  8
DEFPOINTS
  6
CONTINUOUS
 62
     0
 10
2749.3254369999991
 20
3625.0180439999999
 30
0.0
  0
POINT
  5
7FBA
  8
DEFPOINTS
  6
CONTINUOUS
 62
     0
 10
2214.325437
 20
4247.462254
 30
0.0
  0
POINT
  5
7FBB
  8
DEFPOINTS
  6
CONTINUOUS
 62
     0
 10
2214.325437
 20
4256.6894549999997
 30
0.0
  0
ENDBLK
  5
7C2A
  8
0
  0
BLOCK
  8
0
  2
*D13
 70
     1
 10
0.0
 20
0.0
 30
0.0
  3
*D13
  1

  0
LINE
  5
7FBC
  8
3
  6
CONTINUOUS
 62
     0
 10
1184.325437
 20
6252.772876
 30
0.0
 11
1184.325437
 21
6500.7388019999999
 31
0.0
  0
LINE
  5
7FBD
  8
3
  6
CONTINUOUS
 62
     0
 10
2684.325437
 20
6252.772876
 30
0.0
 11
2684.325437
 21
6500.7388019999999
 31
0.0
  0
LINE
  5
7FBE
  8
3
  6
CONTINUOUS
 62
     0
 10
1244.325437
 20
6470.7388020000008
 30
0.0
 11
2624.3254369999991
 21
6470.7388020000008
 31
0.0
  0
INSERT
  5
7FBF
  8
3
  6
CONTINUOUS
 62
     0
  2
_OPEN
 10
1184.325437
 20
6470.7388020000008
 30
0.0
 41
60.0
 42
60.0
 43
60.0
 50
180.0
  0
INSERT
  5
7FC0
  8
3
  6
CONTINUOUS
 62
     0
  2
_OPEN
 10
2684.325437
 20
6470.7388020000008
 30
0.0
 41
60.0
 42
60.0
 43
60.0
  0
TEXT
  8
3
  40
90
  5
7FF7
  62
0
  72
0
  71
0
 10
1708.03
 20
6386.44
 30
0.000000
  1
1500
  0
POINT
  5
7FC2
  8
DEFPOINTS
  6
CONTINUOUS
 62
     0
 10
1184.325437
 20
6237.7728760000009
 30
0.0
  0
POINT
  5
7FC3
  8
DEFPOINTS
  6
CONTINUOUS
 62
     0
 10
2684.325437
 20
6237.7728760000009
 30
0.0
  0
POINT
  5
7FC4
  8
DEFPOINTS
  6
CONTINUOUS
 62
     0
 10
2684.325437
 20
6470.7388020000008
 30
0.0
  0
ENDBLK
  5
7C76
  8
0
  0
BLOCK
  8
0
  2
*D14
 70
     1
 10
0.0
 20
0.0
 30
0.0
  3
*D14
  1

  0
LINE
  5
7FC5
  8
3
  6
CONTINUOUS
 62
     0
 10
2699.325437
 20
6237.7728760000009
 30
0.0
 11
3034.1588690000008
 21
6237.7728760000009
 31
0.0
  0
LINE
  5
7FC6
  8
3
  6
CONTINUOUS
 62
     0
 10
2699.325437
 20
5477.772876
 30
0.0
 11
3034.1588690000008
 21
5477.772876
 31
0.0
  0
LINE
  5
7FC7
  8
3
  6
CONTINUOUS
 62
     0
 10
3004.1588690000008
 20
6177.772876
 30
0.0
 11
3004.1588690000008
 21
5537.772876
 31
0.0
  0
INSERT
  5
7FC8
  8
3
  6
CONTINUOUS
 62
     0
  2
_OPEN
 10
3004.1588690000008
 20
6237.7728760000009
 30
0.0
 41
60.0
 42
60.0
 43
60.0
 50
90.0
  0
INSERT
  5
7FC9
  8
3
  6
CONTINUOUS
 62
     0
  2
_OPEN
 10
3004.1588690000008
 20
5477.772876
 30
0.0
 41
60.0
 42
60.0
 43
60.0
 50
270.0
  0
TEXT
  8
3
  40
90
  5
7FF8
  62
0
  72
0
  71
0
 10
2749.16
 20
5765.94
 30
0.000000
  1
760
  0
POINT
  5
7FCB
  8
DEFPOINTS
  6
CONTINUOUS
 62
     0
 10
2684.325437
 20
6237.7728760000009
 30
0.0
  0
POINT
  5
7FCC
  8
DEFPOINTS
  6
CONTINUOUS
 62
     0
 10
2684.325437
 20
5477.772876
 30
0.0
  0
POINT
  5
7FCD
  8
DEFPOINTS
  6
CONTINUOUS
 62
     0
 10
3004.1588690000008
 20
5477.772876
 30
0.0
  0
ENDBLK
  5
7BB6
  8
0
  0
BLOCK
  8
0
  2
*D15
 70
     1
 10
0.0
 20
0.0
 30
0.0
  3
*D15
  1

  0
LINE
  5
7FCE
  8
3
  6
CONTINUOUS
 62
     0
 10
1628.3279109999989
 20
3566.018043999999
 30
0.0
 11
1628.3279109999989
 21
4286.6894549999997
 31
0.0
  0
LINE
  5
7FCF
  8
3
  6
CONTINUOUS
 62
     0
 10
2154.325437
 20
4256.6894549999997
 30
0.0
 11
1688.3279110000001
 21
4256.6894549999997
 31
0.0
  0
INSERT
  5
7FD0
  8
3
  6
CONTINUOUS
 62
     0
  2
_OPEN
 10
2214.325437
 20
4256.6894549999997
 30
0.0
 41
60.0
 42
60.0
 43
60.0
  0
INSERT
  5
7FD1
  8
3
  6
CONTINUOUS
 62
     0
  2
_OPEN
 10
1628.3279109999989
 20
4256.6894549999997
 30
0.0
 41
60.0
 42
60.0
 43
60.0
 50
180.0
  0
TEXT
  8
3
  40
90
  5
7FF9
  62
0
  72
0
  71
0
 10
1741.33
 20
4172.39
 30
0.000000
  1
586
  0
POINT
  5
7FD3
  8
DEFPOINTS
  6
CONTINUOUS
 62
     0
 10
2214.325437
 20
4247.462254
 30
0.0
  0
POINT
  5
7FD4
  8
DEFPOINTS
  6
CONTINUOUS
 62
     0
 10
1628.3279109999989
 20
3551.0180439999999
 30
0.0
  0
POINT
  5
7FD5
  8
DEFPOINTS
  6
CONTINUOUS
 62
     0
 10
1628.3279109999989
 20
4256.6894549999997
 30
0.0
  0
ENDBLK
  5
7C1F
  8
0
  0
BLOCK
  8
0
  2
*D16
 70
     1
 10
0.0
 20
0.0
 30
0.0
  3
*D16
  1

  0
LINE
  5
7FD6
  8
3
 62
     0
 10
2749.3254369999991
 20
3640.0180439999999
 30
0.0
 11
2749.3254369999991
 21
4468.5897831908987
 31
0.0
  0
LINE
  5
7FD7
  8
3
 62
     0
 10
1184.325437
 20
2776.0180439999999
 30
0.0
 11
1184.325437
 21
4468.5897831908987
 31
0.0
  0
LINE
  5
7FD8
  8
3
 62
     0
 10
2689.325437
 20
4438.5897831908987
 30
0.0
 11
1244.325437
 21
4438.5897831908987
 31
0.0
  0
INSERT
  5
7FD9
  8
3
 62
     0
  2
_OPEN
 10
2749.3254369999991
 20
4438.5897831908987
 30
0.0
 41
60.0
 42
60.0
 43
60.0
  0
INSERT
  5
7FDA
  8
3
 62
     0
  2
_OPEN
 10
1184.325437
 20
4438.5897831908987
 30
0.0
 41
60.0
 42
60.0
 43
60.0
 50
180.0
  0
TEXT
  8
3
  40
90
  5
7FFA
  62
0
  72
0
  71
0
 10
1804.75
 20
4354.29
 30
0.000000
  1
1565
  0
POINT
  5
7FDC
  8
DEFPOINTS
 62
     0
 10
2749.3254369999991
 20
3625.0180439999999
 30
0.0
  0
POINT
  5
7FDD
  8
DEFPOINTS
 62
     0
 10
1184.325437
 20
2761.0180439999999
 30
0.0
  0
POINT
  5
7FDE
  8
DEFPOINTS
 62
     0
 10
1184.325437
 20
4438.5897831908987
 30
0.0
  0
ENDBLK
  5
7CB7
  8
0
  0
BLOCK
  8
0
  2
*D17
 70
     1
 10
0.0
 20
0.0
 30
0.0
  3
*D17
  1

  0
LINE
  5
7FE4
  8
3
 62
     0
 10
2869.7492069999989
 20
3551.0180439999999
 30
0.0
 11
3336.9390400000002
 21
3551.018043999999
 31
0.0
  0
LINE
  5
7FE5
  8
3
 62
     0
 10
2190.3254369999991
 20
4060.3880439999989
 30
0.0
 11
3336.9390400000002
 21
4060.3880439999989
 31
0.0
  0
LINE
  5
7FE6
  8
3
 62
     0
 10
3306.9390400000002
 20
3611.018043999999
 30
0.0
 11
3306.9390400000002
 21
4000.3880439999998
 31
0.0
  0
INSERT
  5
7FE7
  8
3
 62
     0
  2
_OPEN
 10
3306.9390400000002
 20
3551.018043999999
 30
0.0
 41
60.0
 42
60.0
 43
60.0
 50
270.0
  0
INSERT
  5
7FE8
  8
3
 62
     0
  2
_OPEN
 10
3306.9390400000002
 20
4060.3880439999989
 30
0.0
 41
60.0
 42
60.0
 43
60.0
 50
90.0
  0
TEXT
  8
3
  40
90
  5
7FFB
  62
0
  72
0
  71
0
 10
3051.94
 20
3646.40
 30
0.000000
  1
508
  0
POINT
  5
7FEA
  8
DEFPOINTS
 62
     0
 10
2854.7492069999998
 20
3551.0180439999999
 30
0.0
  0
POINT
  5
7FEB
  8
DEFPOINTS
 62
     0
 10
2175.325437
 20
4060.3880439999989
 30
0.0
  0
POINT
  5
7FEC
  8
DEFPOINTS
 62
     0
 10
3306.9390400000002
 20
4060.3880439999989
 30
0.0
  0
ENDBLK
  5
7D21
  8
0
  0
BLOCK
  8
0
  2
*U18
 70
     1
 10
0.0
 20
0.0
 30
0.0
  3
*U18
  1

  0
TEXT
  5
7FE0
  8
3
 62
     0
 10
4353.412372428571
 20
4430.5106040000001
 30
0.0
 40
90.0
  1
MAX
  0
TEXT
  5
7FE1
  8
3
 62
     0
 10
4366.2695152857141
 20
4280.5106039999991
 30
0.0
 40
90.0
  1
560
  0
ENDBLK
  5
7FE3
  8
0
  0
ENDSEC
  0
SECTION
  2
ENTITIES
  0
LINE
  5
7A60
  8
1
  6
CONTINUOUS
 10
1351.405436999999
 20
3022.2780440000001
 30
0.0
 11
2117.8654369999999
 21
3665.8880439999989
 31
0.0
  0
LINE
  5
7A64
  8
2
  6
CENTER
 10
2214.325437
 20
6457.3396709999988
 30
0.0
 11
2214.325437
 21
5324.391243
 31
0.0
  0
LINE
  5
7A65
  8
1
  6
CONTINUOUS
 10
2749.3254369999991
 20
3625.0180439999999
 30
0.0
 11
2749.3254369999991
 21
2815.0180439999999
 31
0.0
  0
LINE
  5
7A66
  8
1
  6
CONTINUOUS
 10
2719.325437
 20
3585.0180439999999
 30
0.0
 11
2719.325437
 21
2855.918044
 31
0.0
  0
LINE
  5
7A67
  8
1
  6
CONTINUOUS
 10
4261.9838009999994
 20
3401.0180439999999
 30
0.0
 11
4261.9838009999994
 21
3701.0180439999999
 31
0.0
  0
LINE
  5
7A68
  8
1
  6
CONTINUOUS
 10
4341.9838009999994
 20
3401.0180439999999
 30
0.0
 11
4341.9838009999994
 21
3701.0180439999999
 31
0.0
  0
LINE
  5
7A69
  8
1
  6
CONTINUOUS
 10
4371.9838009999994
 20
3901.0180439999999
 30
0.0
 11
4371.9838009999994
 21
2761.0180439999999
 31
0.0
  0
LINE
  5
7A6A
  8
1
  6
CONTINUOUS
 10
4231.9838010000003
 20
3901.0180439999999
 30
0.0
 11
4231.9838010000003
 21
2761.0180439999999
 31
0.0
  0
LINE
  5
7A6B
  8
1
  6
CONTINUOUS
 10
4466.9838009999994
 20
3585.0180439999999
 30
0.0
 11
4996.9838009999994
 21
2855.018043999999
 31
0.0
  0
LINE
  5
7A6C
  8
1
  6
CONTINUOUS
 10
4996.9838009999994
 20
3585.0180439999999
 30
0.0
 11
4466.9838009999994
 21
2855.018043999999
 31
0.0
  0
LINE
  5
7A6D
  8
1
  6
CONTINUOUS
 10
4996.9838009999994
 20
3982.0180439999999
 30
0.0
 11
4996.9838009999994
 21
2761.0180439999999
 31
0.0
  0
LINE
  5
7A6E
  8
1
  6
CONTINUOUS
 10
4466.9838009999994
 20
3982.0180439999999
 30
0.0
 11
4466.9838009999994
 21
2761.0180439999999
 31
0.0
  0
LINE
  5
7A6F
  8
1
  6
CONTINUOUS
 10
2064.325437
 20
3901.0180439999999
 30
0.0
 11
1224.325437
 21
3061.0180439999999
 31
0.0
  0
CIRCLE
  5
7A70
  8
1
  6
CONTINUOUS
 10
2214.325437
 20
3551.0180439999999
 30
0.0
 40
150.0
  0
LINE
  5
7A71
  8
1
  6
CONTINUOUS
 10
2584.325437
 20
2761.0180439999999
 30
0.0
 11
2584.325437
 21
3901.0180439999999
 31
0.0
  0
ARC
  5
7A72
  8
1
  6
CONTINUOUS
 10
2261.3254369999991
 20
3504.0180439999999
 30
0.0
 40
634.74000000000001
 50
174.69
 51
265.75
  0
LINE
  5
7A73
  8
1
  6
CONTINUOUS
 10
1445.265437
 20
2893.188044
 30
0.0
 11
2293.8554370000002
 21
3423.8380440000001
 31
0.0
  0
LINE
  5
7A74
  8
1
  6
CONTINUOUS
 10
2684.325437
 20
2661.0180439999999
 30
0.0
 11
1184.325437
 21
2661.0180439999999
 31
0.0
  0
LINE
  5
7A75
  8
1
  6
CONTINUOUS
 10
2684.325437
 20
2761.0180439999999
 30
0.0
 11
1184.325437
 21
2761.0180439999999
 31
0.0
  0
LINE
  5
7A76
  8
1
  6
CONTINUOUS
 10
1184.325437
 20
2761.0180439999999
 30
0.0
 11
1184.325437
 21
2661.0180439999999
 31
0.0
  0
LINE
  5
7A77
  8
1
  6
CONTINUOUS
 10
1224.325437
 20
2761.0180439999999
 30
0.0
 11
1224.325437
 21
3061.0180439999999
 31
0.0
  0
CIRCLE
  5
7A78
  8
1
  6
CONTINUOUS
 10
1402.8454369999999
 20
2961.0180439999999
 30
0.0
 40
80.0
  0
ARC
  5
7A79
  8
1
  6
CONTINUOUS
 10
1402.8454369999999
 20
2961.0180439999999
 30
0.0
 40
162.0
 50
324.97000000000003
 51
215.02999999999989
  0
LINE
  5
7A7A
  8
1
  6
CONTINUOUS
 10
1248.845436999999
 20
2819.018043999999
 30
0.0
 11
1270.1954369999989
 21
2868.0280440000001
 31
0.0
  0
LINE
  5
7A7B
  8
1
  6
CONTINUOUS
 10
1248.845436999999
 20
2761.0180439999999
 30
0.0
 11
1248.845436999999
 21
2819.018043999999
 31
0.0
  0
LINE
  5
7A7C
  8
2
  6
CENTER
 10
1322.8454369999999
 20
2961.0180439999999
 30
0.0
 11
1482.845436999999
 21
2961.0180439999999
 31
0.0
  0
LINE
  5
7A7D
  8
2
  6
CENTER
 10
1402.8454369999999
 20
2881.0180439999999
 30
0.0
 11
1402.8454369999999
 21
3041.0180439999999
 31
0.0
  0
LINE
  5
7A7E
  8
1
  6
CONTINUOUS
 10
1556.845436999999
 20
2761.0180439999999
 30
0.0
 11
1556.845436999999
 21
2819.018043999999
 31
0.0
  0
LINE
  5
7A7F
  8
1
  6
CONTINUOUS
 10
1556.845436999999
 20
2819.018043999999
 30
0.0
 11
1535.505437
 21
2868.0280440000001
 31
0.0
  0
LINE
  5
7A80
  8
1
  6
CONTINUOUS
 10
2684.325437
 20
2761.0180439999999
 30
0.0
 11
2684.325437
 21
2661.0180439999999
 31
0.0
  0
LINE
  5
7A81
  8
1
  6
CONTINUOUS
 10
2749.3254369999991
 20
2855.018043999999
 30
0.0
 11
2214.325437
 21
2871.018043999999
 31
0.0
  0
LINE
  5
7A82
  8
1
  6
CONTINUOUS
 10
5048.9838009999994
 20
2761.0180439999999
 30
0.0
 11
4231.9838010000003
 21
2761.0180439999999
 31
0.0
  0
LINE
  5
7A83
  8
1
  6
CONTINUOUS
 10
5048.9838009999994
 20
2661.0180439999999
 30
0.0
 11
4288.9838009999994
 21
2661.0180439999999
 31
0.0
  0
LINE
  5
7A84
  8
1
  6
CONTINUOUS
 10
4466.9838009999994
 20
2855.018043999999
 30
0.0
 11
4996.9838009999994
 21
2855.018043999999
 31
0.0
  0
LINE
  5
7A85
  8
1
  6
CONTINUOUS
 10
4341.9838009999994
 20
2900.0180439999999
 30
0.0
 11
4466.9838009999994
 21
2900.0180439999999
 31
0.0
  0
LINE
  5
7A86
  8
1
  6
CONTINUOUS
 10
4341.9838009999994
 20
2942.0180439999999
 30
0.0
 11
4466.9838009999994
 21
2942.0180439999999
 31
0.0
  0
LINE
  5
7A87
  8
1
  6
CONTINUOUS
 10
4261.9838009999994
 20
3001.0180439999999
 30
0.0
 11
4341.9838009999994
 21
3001.0180439999999
 31
0.0
  0
LINE
  5
7A88
  8
1
  6
CONTINUOUS
 10
4261.9838009999994
 20
2841.0180439999999
 30
0.0
 11
4341.9838009999994
 21
2841.0180439999999
 31
0.0
  0
LINE
  5
7A89
  8
1
  6
CONTINUOUS
 10
4261.9838009999994
 20
3401.0180439999999
 30
0.0
 11
4341.9838009999994
 21
3401.0180439999999
 31
0.0
  0
LINE
  5
7A8A
  8
1
  6
CONTINUOUS
 10
4261.9838009999994
 20
2841.0180439999999
 30
0.0
 11
4261.9838009999994
 21
3001.0180439999999
 31
0.0
  0
LINE
  5
7A8B
  8
1
  6
CONTINUOUS
 10
4341.9838009999994
 20
2841.0180439999999
 30
0.0
 11
4341.9838009999994
 21
3001.0180439999999
 31
0.0
  0
LINE
  5
7A8C
  8
1
  6
CONTINUOUS
 10
4288.9838009999994
 20
2761.0180439999999
 30
0.0
 11
4288.9838009999994
 21
2661.0180439999999
 31
0.0
  0
LINE
  5
7A8D
  8
1
  6
CONTINUOUS
 10
5048.9838009999994
 20
2761.0180439999999
 30
0.0
 11
5048.9838009999994
 21
2661.0180439999999
 31
0.0
  0
LINE
  5
7A8E
  8
1
  6
CONTINUOUS
 10
2235.3254369999991
 20
5530.772876
 30
0.0
 11
2235.3254369999991
 21
5655.772876
 31
0.0
  0
LINE
  5
7A8F
  8
1
  6
CONTINUOUS
 10
2193.3254369999991
 20
5530.772876
 30
0.0
 11
2193.3254369999991
 21
5655.772876
 31
0.0
  0
LINE
  5
7A90
  8
1
  6
CONTINUOUS
 10
1224.325437
 20
5420.772876
 30
0.0
 11
1224.325437
 21
5560.772876
 31
0.0
  0
LINE
  5
7A91
  8
1
  6
CONTINUOUS
 10
2584.325437
 20
5420.772876
 30
0.0
 11
2584.325437
 21
5560.772876
 31
0.0
  0
LINE
  5
7A92
  8
1
  6
CONTINUOUS
 10
1184.325437
 20
6237.7728760000009
 30
0.0
 11
1184.325437
 21
5477.772876
 31
0.0
  0
LINE
  5
7A93
  8
1
  6
CONTINUOUS
 10
1381.845436999999
 20
5530.772876
 30
0.0
 11
1381.845436999999
 21
5616.7828760000011
 31
0.0
  0
LINE
  5
7A94
  8
1
  6
CONTINUOUS
 10
1423.845436999999
 20
5530.772876
 30
0.0
 11
1423.845436999999
 21
5616.7828760000011
 31
0.0
  0
LINE
  5
7A95
  8
1
  6
CONTINUOUS
 10
2684.325437
 20
5655.772876
 30
0.0
 11
2684.325437
 21
5477.772876
 31
0.0
  0
LINE
  5
7A97
  8
1
  6
CONTINUOUS
 10
2584.325437
 20
5420.772876
 30
0.0
 11
1224.325437
 21
5420.772876
 31
0.0
  0
ARC
  5
7A98
  8
1
  6
CONTINUOUS
 10
2175.325437
 20
3512.018043999999
 30
0.0
 40
548.36999999999989
 50
82.569999999999993
 51
174.69
  0
LINE
  5
7A99
  8
1
  6
CONTINUOUS
 10
2064.325437
 20
5477.772876
 30
0.0
 11
1482.845436999999
 21
5477.772876
 31
0.0
  0
LINE
  5
7A9A
  8
1
  6
CONTINUOUS
 10
1482.845436999999
 20
5530.772876
 30
0.0
 11
1322.8454369999999
 21
5530.772876
 31
0.0
  0
LINE
  5
7A9B
  8
1
  6
CONTINUOUS
 10
1482.845436999999
 20
5450.772876
 30
0.0
 11
1322.8454369999999
 21
5450.772876
 31
0.0
  0
LINE
  5
7A9C
  8
1
  6
CONTINUOUS
 10
1482.845436999999
 20
5450.772876
 30
0.0
 11
1482.845436999999
 21
5530.772876
 31
0.0
  0
LINE
  5
7A9D
  8
1
  6
CONTINUOUS
 10
1322.8454369999999
 20
5450.772876
 30
0.0
 11
1322.8454369999999
 21
5530.772876
 31
0.0
  0
LINE
  5
7A9E
  8
1
  6
CONTINUOUS
 10
1322.8454369999999
 20
5477.772876
 30
0.0
 11
1184.325437
 21
5477.772876
 31
0.0
  0
LINE
  5
7A9F
  8
2
  6
CENTER
 10
5122.7479479999993
 20
3551.0180439999999
 30
0.0
 11
4145.9460939999999
 21
3551.0180439999999
 31
0.0
  0
LINE
  5
7AA0
  8
1
  6
CONTINUOUS
 10
2663.0954369999999
 20
3585.0180439999999
 30
0.0
 11
2749.3254369999991
 21
3585.0180439999999
 31
0.0
  0
LINE
  5
7AA1
  8
1
  6
CONTINUOUS
 10
2364.325437
 20
5530.772876
 30
0.0
 11
2064.325437
 21
5530.772876
 31
0.0
  0
LINE
  5
7AA2
  8
1
  6
CONTINUOUS
 10
2364.325437
 20
5450.772876
 30
0.0
 11
2064.325437
 21
5450.772876
 31
0.0
  0
LINE
  5
7AA3
  8
1
  6
CONTINUOUS
 10
2364.325437
 20
5450.772876
 30
0.0
 11
2364.325437
 21
5530.772876
 31
0.0
  0
LINE
  5
7AA4
  8
1
  6
CONTINUOUS
 10
2064.325437
 20
5450.772876
 30
0.0
 11
2064.325437
 21
5530.772876
 31
0.0
  0
LINE
  5
7AA5
  8
1
  6
CONTINUOUS
 10
2684.325437
 20
5477.772876
 30
0.0
 11
2364.325437
 21
5477.772876
 31
0.0
  0
LINE
  5
7AA6
  8
1
  6
CONTINUOUS
 10
2584.325437
 20
3901.0180439999999
 30
0.0
 11
2064.325437
 21
3901.0180439999999
 31
0.0
  0
ARC
  5
7AA7
  8
1
  6
CONTINUOUS
 10
2184.325437
 20
3581.0180439999999
 30
0.0
 40
478.79000000000002
 50
0.48
 51
82.569999999999993
  0
LINE
  5
7AA8
  8
1
  6
CONTINUOUS
 10
2584.325437
 20
5560.772876
 30
0.0
 11
1224.325437
 21
5560.772876
 31
0.0
  0
LINE
  5
7AA9
  8
1
  6
CONTINUOUS
 10
2749.3254369999991
 20
6185.772876
 30
0.0
 11
1626.585437
 21
6185.772876
 31
0.0
  0
LINE
  5
7AAA
  8
1
  6
CONTINUOUS
 10
2749.3254369999991
 20
5655.772876
 30
0.0
 11
1626.585437
 21
5655.772876
 31
0.0
  0
LINE
  5
7AAB
  8
1
  6
CONTINUOUS
 10
2684.325437
 20
6237.7728760000009
 30
0.0
 11
1184.325437
 21
6237.7728760000009
 31
0.0
  0
LINE
  5
7AAC
  8
1
  6
CONTINUOUS
 10
1626.585437
 20
6185.772876
 30
0.0
 11
1626.585437
 21
5655.772876
 31
0.0
  0
LINE
  5
7AAD
  8
1
  6
CONTINUOUS
 10
1235.8654369999999
 20
5616.7828760000011
 30
0.0
 11
1235.8654369999999
 21
6072.7228759999998
 31
0.0
  0
LINE
  5
7AAE
  8
1
  6
CONTINUOUS
 10
1564.845436999999
 20
5616.7828760000011
 30
0.0
 11
1564.845436999999
 21
6072.7228759999998
 31
0.0
  0
LINE
  5
7AAF
  8
1
  6
CONTINUOUS
 10
1235.8654369999999
 20
5616.7828760000011
 30
0.0
 11
1564.845436999999
 21
5616.7828760000011
 31
0.0
  0
LINE
  5
7AB0
  8
1
  6
CONTINUOUS
 10
1235.8654369999999
 20
6072.7228759999998
 30
0.0
 11
1564.845436999999
 21
6072.7228759999998
 31
0.0
  0
LINE
  5
7AB1
  8
1
  6
CONTINUOUS
 10
2749.3254369999991
 20
6225.772876
 30
0.0
 11
2749.3254369999991
 21
5615.772876
 31
0.0
  0
LINE
  5
7AB2
  8
1
  6
CONTINUOUS
 10
2684.325437
 20
6237.7728760000009
 30
0.0
 11
2684.325437
 21
6185.772876
 31
0.0
  0
LINE
  5
7AB3
  8
1
  6
CONTINUOUS
 10
4466.9838009999994
 20
3982.0180439999999
 30
0.0
 11
4996.9838009999994
 21
3982.0180439999999
 31
0.0
  0
LINE
  5
7AB4
  8
1
  6
CONTINUOUS
 10
4466.9838009999994
 20
3585.0180439999999
 30
0.0
 11
4996.9838009999994
 21
3585.0180439999999
 31
0.0
  0
LINE
  5
7AB5
  8
1
  6
CONTINUOUS
 10
4341.9838009999994
 20
3572.0180439999999
 30
0.0
 11
4466.9838009999994
 21
3572.0180439999999
 31
0.0
  0
LINE
  5
7AB6
  8
1
  6
CONTINUOUS
 10
4341.9838009999994
 20
3530.0180439999999
 30
0.0
 11
4466.9838009999994
 21
3530.0180439999999
 31
0.0
  0
LINE
  5
7AB7
  8
1
  6
CONTINUOUS
 10
4261.9838009999994
 20
3701.0180439999999
 30
0.0
 11
4341.9838009999994
 21
3701.0180439999999
 31
0.0
  0
LINE
  5
7AB8
  8
1
  6
CONTINUOUS
 10
4371.9838009999994
 20
3901.0180439999999
 30
0.0
 11
4231.9838010000003
 21
3901.0180439999999
 31
0.0
  0
LINE
  5
7AB9
  8
2
  6
CENTER
 10
4731.9838010000003
 20
4076.5057299999999
 30
0.0
 11
4731.9838010000003
 21
2469.1611130000001
 31
0.0
  0
LINE
  5
7ABA
  8
2
  6
CENTER
 10
1060.9446579999999
 20
5920.772876
 30
0.0
 11
2802.3053970000001
 21
5920.772876
 31
0.0
  0
LINE
  5
7ABB
  8
2
  6
CENTER
 10
2214.325437
 20
4269.2929700000013
 30
0.0
 11
2214.325437
 21
2483.7923409999989
 31
0.0
  0
LINE
  5
7ABC
  8
2
  6
CENTER
 10
2854.7492069999998
 20
3551.0180439999999
 30
0.0
 11
1381.4523180000001
 21
3551.0180439999999
 31
0.0
  0
DIMENSION
  5
7AD0
  8
3
  6
CONTINUOUS
  2
*D1
 10
2944.7901809999998
 20
2855.018043999999
 30
0.0
 11
2944.7901809999998
 21
3218.4581699999999
 31
0.0
 70
   128
 13
2749.3254369999991
 23
3585.0180439999999
 33
0.0
 14
2749.3254369999991
 24
2855.018043999999
 34
0.0
 50
90.0
1001
ACAD
1000
DSTYLE
1002
{
1070
   287
1070
     3
1070
   287
1070
     3
1070
    40
1040
30.0
1070
   143
1040
0.039
1070
   172
1070
     1
1070
   271
1070
     0
1070
   279
1070
     0
1070
   288
1070
     1
1002
}
  0
DIMENSION
  5
7ADD
  8
3
  6
CONTINUOUS
  2
*D2
 10
3105.0856050000011
 20
2855.018043999999
 30
0.0
 11
3105.0856050000002
 21
3224.3895080000002
 31
0.0
 70
   128
 13
2854.7492069999998
 23
3551.0180439999999
 33
0.0
 14
2749.3254369999991
 24
2855.018043999999
 34
0.0
 50
90.0
1001
ACAD
1000
DSTYLE
1002
{
1070
   287
1070
     3
1070
   287
1070
     3
1070
    40
1040
30.0
1070
   143
1040
0.039
1070
   172
1070
     1
1070
   271
1070
     0
1070
   279
1070
     0
1070
   288
1070
     1
1002
}
  0
DIMENSION
  5
7AF6
  8
3
  6
CONTINUOUS
  2
*D3
 10
3306.9390399999988
 20
2661.018043999999
 30
0.0
 11
3231.9390399999988
 21
3106.0180439999999
 31
0.0
 70
     0
 13
2854.7492069999998
 23
3551.0180439999999
 33
0.0
 14
2684.325437
 24
2661.0180439999999
 34
0.0
 50
90.0
1001
ACAD
1000
DSTYLE
1002
{
1070
   287
1070
     3
1070
   287
1070
     3
1070
    40
1040
30.0
1070
   143
1040
0.039
1070
   172
1070
     1
1070
   271
1070
     0
1070
   279
1070
     0
1070
   288
1070
     1
1002
}
  0
DIMENSION
  5
7B10
  8
3
  6
CONTINUOUS
  2
*D4
 10
4466.9838009999994
 20
4066.6391920000001
 30
0.0
 11
4727.9225659999993
 21
4066.6391920000001
 31
0.0
 70
   128
 13
4996.9838009999994
 23
3982.0180439999999
 33
0.0
 14
4466.9838009999994
 24
3982.0180439999999
 34
0.0
1001
ACAD
1000
DSTYLE
1002
{
1070
   287
1070
     3
1070
   287
1070
     3
1070
    40
1040
30.0
1070
   143
1040
0.039
1070
   172
1070
     1
1070
   271
1070
     0
1070
   279
1070
     0
1070
   288
1070
     1
1002
}
  0
LINE
  5
7B11
  8
1
  6
CONTINUOUS
 10
4998.9838009999994
 20
3928.0180439999999
 30
0.0
 11
4998.9838009999994
 21
3174.0180439999999
 31
0.0
  0
DIMENSION
  5
7B20
  8
3
  6
CONTINUOUS
  2
*D5
 10
5232.5562440000012
 20
3174.018043999999
 30
0.0
 11
5232.5562440000003
 21
3520.9562970000002
 31
0.0
 70
   128
 13
4998.9838009999994
 23
3928.0180439999999
 33
0.0
 14
4998.9838009999994
 24
3174.0180439999999
 34
0.0
 50
90.0
1001
ACAD
1000
DSTYLE
1002
{
1070
   287
1070
     3
1070
   287
1070
     3
1070
     3
1000
φ<>
1070
    40
1040
30.0
1070
   143
1040
0.039
1070
   172
1070
     1
1070
   271
1070
     0
1070
   279
1070
     0
1070
   288
1070
     1
1002
}
  0
DIMENSION
  5
7B2E
  8
3
  6
CONTINUOUS
  2
*D6
 10
4731.9838010000003
 20
4250.5106040000001
 30
0.0
 11
4877.4595544204394
 21
4335.888077884676
 31
0.0
 70
   128
 13
4998.9838009999994
 23
3928.0180439999999
 33
0.0
 14
4731.9838010000003
 24
4204.1605339999996
 34
0.0
1001
ACAD
1000
DSTYLE
1002
{
1070
   288
1070
     1
1070
   172
1070
     1
1070
    40
1040
30.0
1070
   271
1070
     0
1070
   143
1040
0.039
1002
}
  0
DIMENSION
  5
7B3A
  8
3
  6
CONTINUOUS
  2
*D7
 10
4231.9838010000003
 20
4250.5106040000001
 30
0.0
 11
4481.9838010000003
 21
4400.5106039999991
 31
0.0
 70
     0
  1
MAX\P560
 13
4731.9838010000003
 23
4204.1605339999996
 33
0.0
 14
4231.9838010000003
 24
3901.0180439999999
 34
0.0
1001
ACAD
1000
DSTYLE
1002
{
1070
   288
1070
     1
1070
   172
1070
     1
1070
    75
1070
     1
1070
    40
1040
30.0
1070
   271
1070
     0
1070
   143
1040
0.039
1002
}
  0
DIMENSION
  5
7B47
  8
3
  6
CONTINUOUS
  2
*D8
 10
4731.9838010000003
 20
2346.6310181357412
 30
0.0
 11
4526.269515
 21
2346.6310181357412
 31
0.0
 70
   128
 13
4288.9838009999994
 23
2661.0180439999999
 33
0.0
 14
4731.9838010000003
 24
2469.1611130000001
 34
0.0
1001
ACAD
1000
DSTYLE
1002
{
1070
   287
1070
     3
1070
   287
1070
     3
1070
    40
1040
30.0
1070
   143
1040
0.039
1070
   172
1070
     1
1070
   271
1070
     0
1070
   279
1070
     0
1070
   288
1070
     1
1002
}
  0
DIMENSION
  5
7B55
  8
3
  6
CONTINUOUS
  2
*D9
 10
5048.9838009999994
 20
2346.6310181357412
 30
0.0
 11
4915.4279700000006
 21
2347.1076861357401
 31
0.0
 70
   128
 13
4731.9838010000003
 23
2469.1611130000001
 33
0.0
 14
5048.9838009999994
 24
2661.0180439999999
 34
0.0
1001
ACAD
1000
DSTYLE
1002
{
1070
   287
1070
     4
1070
   287
1070
     4
1070
    40
1040
30.0
1070
    75
1070
     1
1070
   143
1040
0.039
1070
   172
1070
     1
1070
   271
1070
     0
1070
   279
1070
     1
1070
   288
1070
     1
1002
}
  0
DIMENSION
  5
7B78
  8
3
  6
CONTINUOUS
  2
*D10
 10
2214.325437
 20
2398.1211290000001
 30
0.0
 11
1751.4800279999999
 21
2398.1211290000001
 31
0.0
 70
   128
 13
1184.325437
 23
2661.0180439999999
 33
0.0
 14
2214.325437
 24
2498.7923409999999
 34
0.0
1001
ACAD
1000
DSTYLE
1002
{
1070
   287
1070
     3
1070
   287
1070
     3
1070
    40
1040
30.0
1070
   143
1040
0.039
1070
   172
1070
     1
1070
   271
1070
     0
1070
   279
1070
     0
1070
   288
1070
     1
1002
}
  0
DIMENSION
  5
7B84
  8
3
  6
CONTINUOUS
  2
*D11
 10
2684.325437
 20
2398.1211290000001
 30
0.0
 11
2449.325437
 21
2473.1211290000001
 31
0.0
 70
     0
 13
2214.325437
 23
2498.7923409999999
 33
0.0
 14
2684.325437
 24
2661.0180439999999
 34
0.0
1001
ACAD
1000
DSTYLE
1002
{
1070
   287
1070
     4
1070
   287
1070
     4
1070
    40
1040
30.0
1070
    75
1070
     1
1070
   143
1040
0.039
1070
   172
1070
     1
1070
   271
1070
     0
1070
   279
1070
     1
1070
   288
1070
     1
1002
}
  0
DIMENSION
  5
7B91
  8
3
  6
CONTINUOUS
  2
*D12
 10
2214.325437
 20
4256.6894549999997
 30
0.0
 11
2481.7145879999989
 21
4256.6894549999997
 31
0.0
 70
   128
 13
2749.3254369999991
 23
3625.0180439999999
 33
0.0
 14
2214.325437
 24
4247.462254
 34
0.0
1001
ACAD
1000
DSTYLE
1002
{
1070
   287
1070
     3
1070
   287
1070
     3
1070
    40
1040
30.0
1070
   143
1040
0.039
1070
   172
1070
     1
1070
   271
1070
     0
1070
   279
1070
     0
1070
   288
1070
     1
1002
}
  0
DIMENSION
  5
7BAA
  8
3
  6
CONTINUOUS
  2
*D13
 10
2684.325437
 20
6470.7388020000008
 30
0.0
 11
1888.027969
 21
6470.7388020000008
 31
0.0
 70
   128
 13
1184.325437
 23
6237.7728760000009
 33
0.0
 14
2684.325437
 24
6237.7728760000009
 34
0.0
1001
ACAD
1000
DSTYLE
1002
{
1070
   287
1070
     3
1070
   287
1070
     3
1070
    40
1040
30.0
1070
   143
1040
0.039
1070
   172
1070
     1
1070
   271
1070
     0
1070
   279
1070
     0
1070
   288
1070
     1
1002
}
  0
DIMENSION
  5
7BB7
  8
3
  6
CONTINUOUS
  2
*D14
 10
3004.1588690000008
 20
5477.772876
 30
0.0
 11
3004.1588689999999
 21
5925.2412290000002
 31
0.0
 70
   128
 13
2684.325437
 23
6237.7728760000009
 33
0.0
 14
2684.325437
 24
5477.772876
 34
0.0
 50
90.0
1001
ACAD
1000
DSTYLE
1002
{
1070
   287
1070
     3
1070
   287
1070
     3
1070
    40
1040
30.0
1070
   143
1040
0.039
1070
   172
1070
     1
1070
   271
1070
     0
1070
   279
1070
     0
1070
   288
1070
     1
1002
}
  0
LINE
  5
7BB8
  8
4
  6
CONTINUOUS
 10
5550.0
 20
1500.0
 30
0.0
 11
5550.0
 21
900.0
 31
0.0
  0
LINE
  5
7BB9
  8
4
  6
CONTINUOUS
 10
3450.0
 20
1500.0
 30
0.0
 11
3450.0
 21
900.0
 31
0.0
  0
LINE
  5
7BBA
  8
4
  6
CONTINUOUS
 10
1950.0
 20
1500.0
 30
0.0
 11
1950.0
 21
900.0
 31
0.0
  0
LINE
  5
7BBD
  8
4
  6
CONTINUOUS
 10
1950.0
 20
900.0
 30
0.0
 11
5550.0
 21
900.0
 31
0.0
  0
LINE
  5
7BBE
  8
4
  6
CONTINUOUS
 10
1950.0
 20
1200.0
 30
0.0
 11
5550.0
 21
1200.0
 31
0.0
  0
TEXT
  5
7BBF
  8
4
  6
CONTINUOUS
 10
2065.5062429999989
 20
1294.6290779999999
 30
0.0
 40
150.0
  1
機器名称
  0
TEXT
  5
7BC0
  8
4
  6
CONTINUOUS
 10
2058.7743179999989
 20
964.9354699999999
 30
0.0
 40
150.0
  1
機器型番
  0
TEXT
  5
7BC1
  8
4
  6
CONTINUOUS
 10
3533.0362359999999
 20
1267.7153069999999
 30
0.0
 40
150.0
  1
ミツヤ多翼送風機
  0
TEXT
  5
7BC2
  8
4
  6
CONTINUOUS
 10
3559.9634869999991
 20
951.47875299999987
 30
0.0
 40
150.0
  1
MF#4 1/2-4
  0
TEXT
  5
7BC4
  8
4
  6
CONTINUOUS
 10
2714.3572960000001
 20
7150.2865239999992
 30
0.0
 40
162.0
  1
床置ベット
  0
TEXT
  5
7BC5
  8
4
  6
CONTINUOUS
 10
948.50278000000014
 20
7601.6429289999996
 30
0.0
 40
216.0
  1
ベルト駆動式片吸込両持多翼ファン
  0
LINE
  5
7BC6
  8
4
  6
CONTINUOUS
 10
750.0
 20
7408.2262629999996
 30
0.0
 11
5550.0
 21
7408.2262629999996
 31
0.0
  0
LINE
  5
7BC7
  8
4
  6
CONTINUOUS
 10
750.0
 20
8008.2262629999996
 30
0.0
 11
5550.0
 21
8008.2262629999996
 31
0.0
  0
LINE
  5
7BC8
  8
4
  6
CONTINUOUS
 10
1950.0
 20
1500.0
 30
0.0
 11
5550.0
 21
1500.0
 31
0.0
  0
LINE
  5
7BC9
  8
4
  6
CONTINUOUS
 10
750.0
 20
8008.2262629999996
 30
0.0
 11
750.0
 21
7408.2262629999996
 31
0.0
  0
TEXT
  5
7BCA
  8
4
  6
CONTINUOUS
 10
1265.62366
 20
7146.9584329999998
 30
0.0
 40
162.0
  1
左回転右横向
  0
TEXT
  5
7BCB
  8
4
  6
CONTINUOUS
 10
4406.9086779999989
 20
8118.1832439999989
 30
0.0
 40
168.0
  1
No.
  0
TEXT
  5
7BCC
  8
4
  6
CONTINUOUS
 10
3933.8881879999999
 20
7150.2865239999992
 30
0.0
 40
162.0
  1
縮尺：1/30
  0
LINE
  5
7BCD
  8
4
  6
CONTINUOUS
 10
5550.0
 20
8008.2262629999996
 30
0.0
 11
5550.0
 21
7408.2262629999996
 31
0.0
  0
LINE
  5
7BCF
  8
4
  6
CONTINUOUS
 10
4321.8522670000002
 20
8043.7907490000007
 30
0.0
 11
4321.8522670000002
 21
8359.9567849999985
 31
0.0
  0
LINE
  5
7BD0
  8
4
  6
CONTINUOUS
 10
4321.8522670000002
 20
8359.9567849999985
 30
0.0
 11
5550.0
 21
8359.9567849999985
 31
0.0
  0
LINE
  5
7BD1
  8
4
  6
CONTINUOUS
 10
5550.0
 20
8359.9567849999985
 30
0.0
 11
5550.0
 21
8043.7907490000007
 31
0.0
  0
LINE
  5
7BD2
  8
4
  6
CONTINUOUS
 10
5550.0
 20
8043.7907490000007
 30
0.0
 11
4321.8522670000002
 21
8043.7907490000007
 31
0.0
  0
DIMENSION
  5
7C15
  8
3
  6
CONTINUOUS
  2
*D15
 10
1628.3279109999989
 20
4256.6894549999997
 30
0.0
 11
1921.326673999999
 21
4331.6894549999997
 31
0.0
 70
     0
 13
2214.325437
 23
4247.462254
 33
0.0
 14
1628.3279109999989
 24
3551.0180439999999
 34
0.0
1001
ACAD
1000
DSTYLE
1002
{
1070
   287
1070
     4
1070
   287
1070
     4
1070
    40
1040
30.0
1070
    75
1070
     1
1070
   143
1040
0.039
1070
   172
1070
     1
1070
   271
1070
     0
1070
   279
1070
     1
1070
   288
1070
     1
1002
}
  0
DIMENSION
  5
7CB8
  8
3
  2
*D16
 10
1184.325437
 20
4438.5897831908987
 30
0.0
 11
1984.7527023529869
 21
4438.5897831908987
 31
0.0
 70
   128
 13
2749.3254369999991
 23
3625.0180439999999
 33
0.0
 14
1184.325437
 24
2761.0180439999999
 34
0.0
1001
ACAD
1000
DSTYLE
1002
{
1070
   287
1070
     3
1070
   287
1070
     3
1070
    40
1040
30.0
1070
   143
1040
0.039
1070
   172
1070
     1
1070
   271
1070
     0
1070
   279
1070
     0
1070
   288
1070
     1
1002
}
  0
LINE
  5
7D11
  8
1
  6
CONTINUOUS
 10
1754.325437
 20
3863.3991147764441
 30
0.0
 11
1754.325437
 21
2761.0180439999999
 31
0.0
  0
LINE
  5
7D12
  8
1
  6
CONTINUOUS
 10
2674.325437
 20
3721.018043999999
 30
0.0
 11
2674.325437
 21
2761.0180439999999
 31
0.0
  0
LINE
  5
7D13
  8
1
  6
CONTINUOUS
 10
2674.325437
 20
3721.018043999999
 30
0.0
 11
1754.325437
 21
3721.0180439999999
 31
0.0
  0
DIMENSION
  5
7D15
  8
3
  2
*D17
 10
3306.9390400000002
 20
4060.3880439999989
 30
0.0
 11
3231.9390399999988
 21
3805.7030439999999
 31
0.0
 70
     0
  1
508
 13
2854.7492069999998
 23
3551.0180439999999
 33
0.0
 14
2175.325437
 24
4060.3880439999989
 34
0.0
 50
90.0
1001
ACAD
1000
DSTYLE
1002
{
1070
   287
1070
     4
1070
   287
1070
     4
1070
    40
1040
30.0
1070
   143
1040
0.039
1070
   172
1070
     1
1070
   271
1070
     0
1070
   279
1070
     1
1070
   288
1070
     1
1002
}
  0
ENDSEC
  0
EOF
