  0
SECTION
  2
HEADER
  9
$ACADVER
  1
AC1009
  9
$INSBASE
 10
0.0
 20
0.0
 30
0.0
  9
$EXTMIN
 10
750.0
 20
900.0
 30
0.0
  9
$EXTMAX
 10
5550.0
 20
8359.9567849999985
 30
0.0
  9
$LIMMIN
 10
0.0
 20
0.0
  9
$LIMMAX
 10
297.0
 20
210.0
  9
$ORTHOMODE
 70
     0
  9
$REGENMODE
 70
     1
  9
$FILLMODE
 70
     0
  9
$QTEXTMODE
 70
     0
  9
$MIRRTEXT
 70
     1
  9
$DRAGMODE
 70
     2
  9
$LTSCALE
 40
100.0
  9
$OSMODE
 70
    37
  9
$ATTMODE
 70
     1
  9
$TEXTSIZE
 40
180.0
  9
$TRACEWID
 40
0.05
  9
$TEXTSTYLE
  7
STANDARD
  9
$CLAYER
  8
3
  9
$CELTYPE
  6
BYLAYER
  9
$CECOLOR
 62
   256
  9
$DIMSCALE
 40
30.0
  9
$DIMASZ
 40
2.0
  9
$DIMEXO
 40
0.5
  9
$DIMDLI
 40
10.0
  9
$DIMRND
 40
0.0
  9
$DIMDLE
 40
0.0
  9
$DIMEXE
 40
1.0
  9
$DIMTP
 40
1.0
  9
$DIMTM
 40
1.0
  9
$DIMTXT
 40
3.0
  9
$DIMCEN
 40
0.0
  9
$DIMTSZ
 40
0.0
  9
$DIMTOL
 70
     0
  9
$DIMLIM
 70
     0
  9
$DIMTIH
 70
     0
  9
$DIMTOH
 70
     0
  9
$DIMSE1
 70
     0
  9
$DIMSE2
 70
     0
  9
$DIMTAD
 70
     1
  9
$DIMZIN
 70
     8
  9
$DIMBLK
  1

  9
$DIMASO
 70
     1
  9
$DIMSHO
 70
     1
  9
$DIMPOST
  1

  9
$DIMAPOST
  1

  9
$DIMALT
 70
     0
  9
$DIMALTD
 70
     2
  9
$DIMALTF
 40
0.039
  9
$DIMLFAC
 40
1.0
  9
$DIMTOFL
 70
     1
  9
$DIMTVP
 40
0.0
  9
$DIMTIX
 70
     0
  9
$DIMSOXD
 70
     0
  9
$DIMSAH
 70
     1
  9
$DIMBLK1
  1
OPEN
  9
$DIMBLK2
  1
OPEN
  9
$DIMSTYLE
  2
IGA
  9
$DIMCLRD
 70
     0
  9
$DIMCLRE
 70
     0
  9
$DIMCLRT
 70
     0
  9
$DIMTFAC
 40
10.0
  9
$DIMGAP
 40
1.0
  9
$LUNITS
 70
     2
  9
$LUPREC
 70
     3
  9
$SKETCHINC
 40
0.1
  9
$FILLETRAD
 40
50.0
  9
$AUNITS
 70
     0
  9
$AUPREC
 70
     0
  9
$MENU
  1
acad
  9
$ELEVATION
 40
0.0
  9
$PELEVATION
 40
0.0
  9
$THICKNESS
 40
0.0
  9
$LIMCHECK
 70
     0
  9
$BLIPMODE
 70
     0
  9
$CHAMFERA
 40
0.5
  9
$CHAMFERB
 40
0.5
  9
$SKPOLY
 70
     0
  9
$TDCREATE
 40
2450743.393345254
  9
$TDUPDATE
 40
2454953.7731944439
  9
$TDINDWG
 40
0.0060434491
  9
$TDUSRTIMER
 40
0.0060434491
  9
$USRTIMER
 70
     1
  9
$ANGBASE
 50
0.0
  9
$ANGDIR
 70
     0
  9
$PDMODE
 70
     0
  9
$PDSIZE
 40
0.0
  9
$PLINEWID
 40
0.0
  9
$COORDS
 70
     1
  9
$SPLFRAME
 70
     0
  9
$SPLINETYPE
 70
     6
  9
$SPLINESEGS
 70
     8
  9
$ATTDIA
 70
     0
  9
$ATTREQ
 70
     1
  9
$HANDLING
 70
 10241
  9
$HANDSEED
  5
7F65
  9
$SURFTAB1
 70
     6
  9
$SURFTAB2
 70
     6
  9
$SURFTYPE
 70
     6
  9
$SURFU
 70
     6
  9
$SURFV
 70
     6
  9
$UCSNAME
  2

  9
$UCSORG
 10
0.0
 20
0.0
 30
0.0
  9
$UCSXDIR
 10
1.0
 20
0.0
 30
0.0
  9
$UCSYDIR
 10
0.0
 20
1.0
 30
0.0
  9
$PUCSNAME
  2

  9
$PUCSORG
 10
0.0
 20
0.0
 30
0.0
  9
$PUCSXDIR
 10
1.0
 20
0.0
 30
0.0
  9
$PUCSYDIR
 10
0.0
 20
1.0
 30
0.0
  9
$USERI1
 70
     0
  9
$USERI2
 70
     0
  9
$USERI3
 70
     0
  9
$USERI4
 70
     0
  9
$USERI5
 70
     0
  9
$USERR1
 40
0.0
  9
$USERR2
 40
0.0
  9
$USERR3
 40
0.0
  9
$USERR4
 40
0.0
  9
$USERR5
 40
0.0
  9
$WORLDVIEW
 70
     1
  9
$SHADEDGE
 70
     3
  9
$SHADEDIF
 70
    70
  9
$TILEMODE
 70
     1
  9
$MAXACTVP
 70
    16
  9
$PLIMCHECK
 70
     0
  9
$PEXTMIN
 10
1.0000000000000000E+020
 20
1.0000000000000000E+020
 30
1.0000000000000000E+020
  9
$PEXTMAX
 10
-1.0000000000000000E+020
 20
-1.0000000000000000E+020
 30
-1.0000000000000000E+020
  9
$PLIMMIN
 10
0.0
 20
0.0
  9
$PLIMMAX
 10
12.0
 20
9.0
  9
$UNITMODE
 70
     0
  9
$VISRETAIN
 70
     0
  9
$PLINEGEN
 70
     0
  9
$PSLTSCALE
 70
     1
  0
ENDSEC
  0
SECTION
  2
TABLES
  0
TABLE
  2
VPORT
 70
     2
  0
VPORT
  2
*ACTIVE
 70
     0
 10
0.0
 20
0.0
 11
1.0
 21
1.0
 12
9438.4567678319436
 22
4630.0975558305709
 13
0.0
 23
0.0
 14
10.0
 24
10.0
 15
10.0
 25
10.0
 16
0.0
 26
0.0
 36
1.0
 17
0.0
 27
0.0
 37
0.0
 40
7517.4747125171307
 41
3.1666666666666661
 42
50.0
 43
0.0
 44
0.0
 50
0.0
 51
0.0
 71
     0
 72
   100
 73
     1
 74
     0
 75
     0
 76
     0
 77
     0
 78
     0
  0
ENDTAB
  0
TABLE
  2
LTYPE
 70
     2
  0
LTYPE
  2
CONTINUOUS
 70
     0
  3
Solid line
 72
    65
 73
     0
 40
0.0
  0
LTYPE
  2
CENTER
 70
     0
  3
____ _ ____ _ ____ _ ____ _ ____ _ ____ _ ____ 
 72
    65
 73
     4
 40
2.0
 49
1.25
 49
-0.25
 49
0.25
 49
-0.25
  0
ENDTAB
  0
TABLE
  2
LAYER
 70
     6
  0
LAYER
  2
0
 70
     0
 62
     7
  6
CONTINUOUS
  0
LAYER
  2
3
 70
     0
 62
     2
  6
CONTINUOUS
  0
LAYER
  2
2
 70
     0
 62
     3
  6
CENTER
  0
LAYER
  2
1
 70
     0
 62
     4
  6
CONTINUOUS
  0
LAYER
  2
4
 70
     0
 62
     7
  6
CONTINUOUS
  0
LAYER
  2
DEFPOINTS
 70
     0
 62
     7
  6
CONTINUOUS
  0
ENDTAB
  0
TABLE
  2
STYLE
 70
     1
  0
STYLE
  2
STANDARD
 70
     0
 40
0.0
 41
1.0
 50
0.0
 71
     0
 42
180.0
  3
simplex.shx
  4
extfont.shx
  0
ENDTAB
  0
TABLE
  2
VIEW
 70
     0
  0
ENDTAB
  0
TABLE
  2
UCS
 70
     0
  0
ENDTAB
  0
TABLE
  2
APPID
 70
     1
  0
APPID
  2
ACAD
 70
     0
  0
ENDTAB
  0
TABLE
  2
DIMSTYLE
 70
     1
  0
DIMSTYLE
  2
IGA
 70
     0
  3

  4

  5

  6
OPEN
  7
OPEN
 40
2.0
 41
2.0
 42
0.5
 43
10.0
 44
1.0
 45
0.0
 46
0.0
 47
1.0
 48
1.0
140
3.0
141
0.0
142
0.0
143
0.03937
144
1.0
145
0.0
146
10.0
147
1.0
 71
     0
 72
     0
 73
     0
 74
     0
 75
     0
 76
     0
 77
     1
 78
     8
170
     0
171
     2
172
     0
173
     1
174
     0
175
     0
176
     0
177
     0
178
     0
  0
ENDTAB
  0
ENDSEC
  0
SECTION
  2
BLOCKS
  0
BLOCK
  8
0
  2
$MODEL_SPACE
 70
     0
 10
0.0
 20
0.0
 30
0.0
  3
$MODEL_SPACE
  1

  0
ENDBLK
  5
1B
  8
0
  0
BLOCK
 67
     1
  8
0
  2
$PAPER_SPACE
 70
     0
 10
0.0
 20
0.0
 30
0.0
  3
$PAPER_SPACE
  1

  0
ENDBLK
  5
18
 67
     1
  8
0
  0
BLOCK
  8
0
  2
_OPEN
 70
     0
 10
0.0
 20
0.0
 30
0.0
  3
_OPEN
  1

  0
LINE
  5
7B6E
  8
0
  6
BYBLOCK
 62
     0
 10
-1.0
 20
0.166667
 30
0.0
 11
0.0
 21
0.0
 31
0.0
  0
LINE
  5
7B6F
  8
0
  6
BYBLOCK
 62
     0
 10
0.0
 20
0.0
 30
0.0
 11
-1.0
 21
-0.166667
 31
0.0
  0
LINE
  5
7B70
  8
0
  6
BYBLOCK
 62
     0
 10
0.0
 20
0.0
 30
0.0
 11
-1.0
 21
0.0
 31
0.0
  0
ENDBLK
  5
7B71
  8
0
  0
BLOCK
  8
0
  2
*D1
 70
     1
 10
0.0
 20
0.0
 30
0.0
  3
*D1
  1

  0
LINE
  5
7ED2
  8
3
  6
CONTINUOUS
 62
     0
 10
2686.0122670000001
 20
3963.361633
 30
0.0
 11
2686.0122670000001
 21
4089.9944860000001
 31
0.0
  0
LINE
  5
7ED3
  8
3
  6
CONTINUOUS
 62
     0
 10
1956.0122670000001
 20
3963.361633
 30
0.0
 11
1956.0122670000001
 21
4089.9944860000001
 31
0.0
  0
LINE
  5
7ED4
  8
3
  6
CONTINUOUS
 62
     0
 10
2626.0122670000001
 20
4059.9944859999991
 30
0.0
 11
2016.0122670000001
 21
4059.9944859999991
 31
0.0
  0
INSERT
  5
7ED5
  8
3
  6
CONTINUOUS
 62
     0
  2
_OPEN
 10
2686.0122670000001
 20
4059.9944859999991
 30
0.0
 41
60.0
 42
60.0
 43
60.0
  0
INSERT
  5
7ED6
  8
3
  6
CONTINUOUS
 62
     0
  2
_OPEN
 10
1956.0122670000001
 20
4059.9944859999991
 30
0.0
 41
60.0
 42
60.0
 43
60.0
 50
180.0
  0
TEXT
  8
3
  40
90
  5
7F55
  62
0
  72
0
  71
0
 10
2118.73
 20
3975.69
 30
0.000000
  1
730
  0
POINT
  5
7ED8
  8
DEFPOINTS
  6
CONTINUOUS
 62
     0
 10
2686.0122670000001
 20
3948.361633
 30
0.0
  0
POINT
  5
7ED9
  8
DEFPOINTS
  6
CONTINUOUS
 62
     0
 10
1956.0122670000001
 20
3948.361633
 30
0.0
  0
POINT
  5
7EDA
  8
DEFPOINTS
  6
CONTINUOUS
 62
     0
 10
1956.0122670000001
 20
4059.9944859999991
 30
0.0
  0
ENDBLK
  5
7B7E
  8
0
  0
BLOCK
  8
0
  2
*D2
 70
     1
 10
0.0
 20
0.0
 30
0.0
  3
*D2
  1

  0
LINE
  5
7EDB
  8
3
  6
CONTINUOUS
 62
     0
 10
2686.0122670000001
 20
3963.361633
 30
0.0
 11
2686.0122670000001
 21
4255.4651750000003
 31
0.0
  0
LINE
  5
7EDC
  8
3
  6
CONTINUOUS
 62
     0
 10
1990.0122670000001
 20
4183.1365599999999
 30
0.0
 11
1990.0122670000001
 21
4255.4651750000003
 31
0.0
  0
LINE
  5
7EDD
  8
3
  6
CONTINUOUS
 62
     0
 10
2626.0122670000001
 20
4225.4651750000003
 30
0.0
 11
2050.0122670000001
 21
4225.4651750000003
 31
0.0
  0
INSERT
  5
7EDE
  8
3
  6
CONTINUOUS
 62
     0
  2
_OPEN
 10
2686.0122670000001
 20
4225.4651750000003
 30
0.0
 41
60.0
 42
60.0
 43
60.0
  0
INSERT
  5
7EDF
  8
3
  6
CONTINUOUS
 62
     0
  2
_OPEN
 10
1990.0122670000001
 20
4225.4651750000003
 30
0.0
 41
60.0
 42
60.0
 43
60.0
 50
180.0
  0
TEXT
  8
3
  40
90
  5
7F56
  62
0
  72
0
  71
0
 10
2118.73
 20
4141.17
 30
0.000000
  1
696
  0
POINT
  5
7EE1
  8
DEFPOINTS
  6
CONTINUOUS
 62
     0
 10
2686.0122670000001
 20
3948.361633
 30
0.0
  0
POINT
  5
7EE2
  8
DEFPOINTS
  6
CONTINUOUS
 62
     0
 10
1990.0122670000001
 20
4168.136559999999
 30
0.0
  0
POINT
  5
7EE3
  8
DEFPOINTS
  6
CONTINUOUS
 62
     0
 10
1990.0122670000001
 20
4225.4651750000003
 30
0.0
  0
ENDBLK
  5
7B8C
  8
0
  0
BLOCK
  8
0
  2
*D3
 70
     1
 10
0.0
 20
0.0
 30
0.0
  3
*D3
  1

  0
LINE
  5
7EE4
  8
3
  6
CONTINUOUS
 62
     0
 10
1901.0122670000001
 20
3948.361633
 30
0.0
 11
1301.672288
 21
3948.361633
 31
0.0
  0
LINE
  5
7EE5
  8
3
  6
CONTINUOUS
 62
     0
 10
1372.2664319999999
 20
3413.361633
 30
0.0
 11
1301.672288
 21
3413.361633
 31
0.0
  0
LINE
  5
7EE6
  8
3
  6
CONTINUOUS
 62
     0
 10
1331.672288
 20
3888.361633
 30
0.0
 11
1331.672288
 21
3473.361633
 31
0.0
  0
INSERT
  5
7EE7
  8
3
  6
CONTINUOUS
 62
     0
  2
_OPEN
 10
1331.672288
 20
3948.361633
 30
0.0
 41
60.0
 42
60.0
 43
60.0
 50
90.0
  0
INSERT
  5
7EE8
  8
3
  6
CONTINUOUS
 62
     0
  2
_OPEN
 10
1331.672288
 20
3413.361633
 30
0.0
 41
60.0
 42
60.0
 43
60.0
 50
270.0
  0
TEXT
  8
3
  40
90
  5
7F57
  62
0
  72
0
  71
0
 10
1076.67
 20
3516.80
 30
0.000000
  1
535
  0
POINT
  5
7EEA
  8
DEFPOINTS
  6
CONTINUOUS
 62
     0
 10
1916.0122670000001
 20
3948.361633
 30
0.0
  0
POINT
  5
7EEB
  8
DEFPOINTS
  6
CONTINUOUS
 62
     0
 10
1387.2664319999999
 20
3413.361633
 30
0.0
  0
POINT
  5
7EEC
  8
DEFPOINTS
  6
CONTINUOUS
 62
     0
 10
1331.672288
 20
3413.361633
 30
0.0
  0
ENDBLK
  5
7BA5
  8
0
  0
BLOCK
  8
0
  2
*D4
 70
     1
 10
0.0
 20
0.0
 30
0.0
  3
*D4
  1

  0
LINE
  5
7EED
  8
3
  6
CONTINUOUS
 62
     0
 10
1505.0122670000001
 20
2788.361633
 30
0.0
 11
1301.672288
 21
2788.361633
 31
0.0
  0
LINE
  5
7EEE
  8
3
  6
CONTINUOUS
 62
     0
 10
1331.672288
 20
3353.361633
 30
0.0
 11
1331.672288
 21
2848.361633
 31
0.0
  0
INSERT
  5
7EEF
  8
3
  6
CONTINUOUS
 62
     0
  2
_OPEN
 10
1331.672288
 20
3413.361633
 30
0.0
 41
60.0
 42
60.0
 43
60.0
 50
90.0
  0
INSERT
  5
7EF0
  8
3
  6
CONTINUOUS
 62
     0
  2
_OPEN
 10
1331.672288
 20
2788.361633
 30
0.0
 41
60.0
 42
60.0
 43
60.0
 50
270.0
  0
TEXT
  8
3
  40
90
  5
7F58
  62
0
  72
0
  71
0
 10
1076.67
 20
2941.56
 30
0.000000
  1
625
  0
POINT
  5
7EF2
  8
DEFPOINTS
  6
CONTINUOUS
 62
     0
 10
1387.2664319999999
 20
3413.361633
 30
0.0
  0
POINT
  5
7EF3
  8
DEFPOINTS
  6
CONTINUOUS
 62
     0
 10
1520.0122670000001
 20
2788.361633
 30
0.0
  0
POINT
  5
7EF4
  8
DEFPOINTS
  6
CONTINUOUS
 62
     0
 10
1331.672288
 20
2788.361633
 30
0.0
  0
ENDBLK
  5
7BB1
  8
0
  0
BLOCK
  8
0
  2
*D5
 70
     1
 10
0.0
 20
0.0
 30
0.0
  3
*D5
  1

  0
LINE
  5
7EF5
  8
3
  6
CONTINUOUS
 62
     0
 10
1886.0122670000001
 20
3948.361633
 30
0.0
 11
1089.714761
 21
3948.361633
 31
0.0
  0
LINE
  5
7EF6
  8
3
  6
CONTINUOUS
 62
     0
 10
1505.0122670000001
 20
2788.361633
 30
0.0
 11
1089.714761
 21
2788.361633
 31
0.0
  0
LINE
  5
7EF7
  8
3
  6
CONTINUOUS
 62
     0
 10
1119.714761
 20
3888.361633
 30
0.0
 11
1119.714761
 21
2848.361633
 31
0.0
  0
INSERT
  5
7EF8
  8
3
  6
CONTINUOUS
 62
     0
  2
_OPEN
 10
1119.714761
 20
3948.361633
 30
0.0
 41
60.0
 42
60.0
 43
60.0
 50
90.0
  0
INSERT
  5
7EF9
  8
3
  6
CONTINUOUS
 62
     0
  2
_OPEN
 10
1119.714761
 20
2788.361633
 30
0.0
 41
60.0
 42
60.0
 43
60.0
 50
270.0
  0
TEXT
  8
3
  40
90
  5
7F59
  62
0
  72
0
  71
0
 10
864.715
 20
3179.24
 30
0.000000
  1
1160
  0
POINT
  5
7EFB
  8
DEFPOINTS
  6
CONTINUOUS
 62
     0
 10
1901.0122670000001
 20
3948.361633
 30
0.0
  0
POINT
  5
7EFC
  8
DEFPOINTS
  6
CONTINUOUS
 62
     0
 10
1520.0122670000001
 20
2788.361633
 30
0.0
  0
POINT
  5
7EFD
  8
DEFPOINTS
  6
CONTINUOUS
 62
     0
 10
1119.714761
 20
2788.361633
 30
0.0
  0
ENDBLK
  5
7BBE
  8
0
  0
BLOCK
  8
0
  2
*D6
 70
     1
 10
0.0
 20
0.0
 30
0.0
  3
*D6
  1

  0
LINE
  5
7EFE
  8
3
  6
CONTINUOUS
 62
     0
 10
1520.0122670000001
 20
2773.361633
 30
0.0
 11
1520.0122670000001
 21
2526.3827070000002
 31
0.0
  0
LINE
  5
7EFF
  8
3
  6
CONTINUOUS
 62
     0
 10
1990.0122670000001
 20
2672.5612019999999
 30
0.0
 11
1990.0122670000001
 21
2526.3827070000002
 31
0.0
  0
LINE
  5
7F00
  8
3
  6
CONTINUOUS
 62
     0
 10
1580.0122670000001
 20
2556.3827070000002
 30
0.0
 11
1930.0122670000001
 21
2556.3827070000002
 31
0.0
  0
INSERT
  5
7F01
  8
3
  6
CONTINUOUS
 62
     0
  2
_OPEN
 10
1520.0122670000001
 20
2556.3827070000002
 30
0.0
 41
60.0
 42
60.0
 43
60.0
 50
180.0
  0
INSERT
  5
7F02
  8
3
  6
CONTINUOUS
 62
     0
  2
_OPEN
 10
1990.0122670000001
 20
2556.3827070000002
 30
0.0
 41
60.0
 42
60.0
 43
60.0
  0
TEXT
  8
3
  40
90
  5
7F5A
  62
0
  72
0
  71
0
 10
1545.73
 20
2472.08
 30
0.000000
  1
470
  0
POINT
  5
7F04
  8
DEFPOINTS
  6
CONTINUOUS
 62
     0
 10
1520.0122670000001
 20
2788.361633
 30
0.0
  0
POINT
  5
7F05
  8
DEFPOINTS
  6
CONTINUOUS
 62
     0
 10
1990.0122670000001
 20
2687.561201999999
 30
0.0
  0
POINT
  5
7F06
  8
DEFPOINTS
  6
CONTINUOUS
 62
     0
 10
1990.0122670000001
 20
2556.3827070000002
 30
0.0
  0
ENDBLK
  5
7C74
  8
0
  0
BLOCK
  8
0
  2
*D7
 70
     1
 10
0.0
 20
0.0
 30
0.0
  3
*D7
  1

  0
LINE
  5
7F07
  8
3
  6
CONTINUOUS
 62
     0
 10
3020.0122670000001
 20
2773.361633
 30
0.0
 11
3020.0122670000001
 21
2526.3827070000002
 31
0.0
  0
LINE
  5
7F08
  8
3
  6
CONTINUOUS
 62
     0
 10
2050.0122670000001
 20
2556.3827070000002
 30
0.0
 11
2960.0122670000001
 21
2556.3827070000002
 31
0.0
  0
INSERT
  5
7F09
  8
3
  6
CONTINUOUS
 62
     0
  2
_OPEN
 10
1990.0122670000001
 20
2556.3827070000002
 30
0.0
 41
60.0
 42
60.0
 43
60.0
 50
180.0
  0
INSERT
  5
7F0A
  8
3
  6
CONTINUOUS
 62
     0
  2
_OPEN
 10
3020.0122670000001
 20
2556.3827070000002
 30
0.0
 41
60.0
 42
60.0
 43
60.0
  0
TEXT
  8
3
  40
90
  5
7F5B
  62
0
  72
0
  71
0
 10
2325.01
 20
2472.08
 30
0.000000
  1
1030
  0
POINT
  5
7F0C
  8
DEFPOINTS
  6
CONTINUOUS
 62
     0
 10
1990.0122670000001
 20
2687.561201999999
 30
0.0
  0
POINT
  5
7F0D
  8
DEFPOINTS
  6
CONTINUOUS
 62
     0
 10
3020.0122670000001
 20
2788.361633
 30
0.0
  0
POINT
  5
7F0E
  8
DEFPOINTS
  6
CONTINUOUS
 62
     0
 10
3020.0122670000001
 20
2556.3827070000002
 30
0.0
  0
ENDBLK
  5
7C69
  8
0
  0
BLOCK
  8
0
  2
*D8
 70
     1
 10
0.0
 20
0.0
 30
0.0
  3
*D8
  1

  0
LINE
  5
7F0F
  8
3
  6
CONTINUOUS
 62
     0
 10
4346.5491469999997
 20
3963.361633
 30
0.0
 11
4346.5491469999997
 21
4070.1380049999989
 31
0.0
  0
LINE
  5
7F10
  8
3
  6
CONTINUOUS
 62
     0
 10
4876.5491469999997
 20
3963.361633
 30
0.0
 11
4876.5491469999997
 21
4070.1380049999989
 31
0.0
  0
LINE
  5
7F11
  8
3
  6
CONTINUOUS
 62
     0
 10
4406.5491469999988
 20
4040.1380049999998
 30
0.0
 11
4816.5491469999988
 21
4040.1380049999998
 31
0.0
  0
INSERT
  5
7F12
  8
3
  6
CONTINUOUS
 62
     0
  2
_OPEN
 10
4346.5491469999997
 20
4040.1380049999998
 30
0.0
 41
60.0
 42
60.0
 43
60.0
 50
180.0
  0
INSERT
  5
7F13
  8
3
  6
CONTINUOUS
 62
     0
  2
_OPEN
 10
4876.5491469999997
 20
4040.1380049999998
 30
0.0
 41
60.0
 42
60.0
 43
60.0
  0
TEXT
  8
3
  40
90
  5
7F5C
  62
0
  72
0
  71
0
 10
4421.25
 20
3955.84
 30
0.000000
  1
530
  0
POINT
  5
7F15
  8
DEFPOINTS
  6
CONTINUOUS
 62
     0
 10
4346.5491469999997
 20
3948.361633
 30
0.0
  0
POINT
  5
7F16
  8
DEFPOINTS
  6
CONTINUOUS
 62
     0
 10
4876.5491469999997
 20
3948.361633
 30
0.0
  0
POINT
  5
7F17
  8
DEFPOINTS
  6
CONTINUOUS
 62
     0
 10
4876.5491469999997
 20
4040.1380049999998
 30
0.0
  0
ENDBLK
  5
7BE4
  8
0
  0
BLOCK
  8
0
  2
*D9
 70
     1
 10
0.0
 20
0.0
 30
0.0
  3
*D9
  1

  0
LINE
  5
7F18
  8
3
  6
CONTINUOUS
 62
     0
 10
4893.5491469999988
 20
3790.3616329999991
 30
0.0
 11
5161.1464400000004
 21
3790.3616329999991
 31
0.0
  0
LINE
  5
7F19
  8
3
  6
CONTINUOUS
 62
     0
 10
4893.5491469999988
 20
3036.361633
 30
0.0
 11
5161.1464400000004
 21
3036.3616329999991
 31
0.0
  0
LINE
  5
7F1A
  8
3
  6
CONTINUOUS
 62
     0
 10
5131.1464400000013
 20
3730.3616329999991
 30
0.0
 11
5131.1464400000013
 21
3096.3616329999991
 31
0.0
  0
INSERT
  5
7F1B
  8
3
  6
CONTINUOUS
 62
     0
  2
_OPEN
 10
5131.1464400000013
 20
3790.3616329999991
 30
0.0
 41
60.0
 42
60.0
 43
60.0
 50
90.0
  0
INSERT
  5
7F1C
  8
3
  6
CONTINUOUS
 62
     0
  2
_OPEN
 10
5131.1464400000013
 20
3036.3616329999991
 30
0.0
 41
60.0
 42
60.0
 43
60.0
 50
270.0
  0
TEXT
  8
3
  40
90
  5
7F5D
  62
0
  72
0
  71
0
 10
4876.15
 20
3278.52
 30
0.000000
  1
φ754
  0
POINT
  5
7F1E
  8
DEFPOINTS
  6
CONTINUOUS
 62
     0
 10
4878.5491469999997
 20
3790.3616329999991
 30
0.0
  0
POINT
  5
7F1F
  8
DEFPOINTS
  6
CONTINUOUS
 62
     0
 10
4878.5491469999997
 20
3036.361633
 30
0.0
  0
POINT
  5
7F20
  8
DEFPOINTS
  6
CONTINUOUS
 62
     0
 10
5131.1464400000013
 20
3036.3616329999991
 30
0.0
  0
ENDBLK
  5
7D1B
  8
0
  0
BLOCK
  8
0
  2
*D10
 70
     1
 10
0.0
 20
0.0
 30
0.0
  3
*D10
  1

  0
LINE
  5
7CFD
  8
0
  6
BYBLOCK
 62
     0
 10
4878.5491469999997
 20
3805.361633
 30
0.0
 11
4878.5491469999997
 21
4283.5362909999994
 31
0.0
  0
LINE
  5
7CFE
  8
0
  6
BYBLOCK
 62
     0
 10
4611.5491469999988
 20
4181.745629
 30
0.0
 11
4611.5491469999988
 21
4283.5362909999994
 31
0.0
  0
LINE
  5
7CFF
  8
0
  6
BYBLOCK
 62
     0
 10
4818.5491469999988
 20
4253.5362909999994
 30
0.0
 11
4671.5491469999988
 21
4253.5362909999994
 31
0.0
  0
TEXT
  5
7D00
  8
3
 62
     0
 10
4649.8811160813857
 20
4305.0123005025953
 30
0.0
 40
90.0
  1
267
  0
INSERT
  5
7D01
  8
0
  6
BYBLOCK
 62
     0
  2
_OPEN
 10
4878.5491469999997
 20
4253.5362909999994
 30
0.0
 41
60.0
 42
60.0
 43
60.0
  0
INSERT
  5
7D02
  8
0
  6
BYBLOCK
 62
     0
  2
_OPEN
 10
4611.5491469999988
 20
4253.5362909999994
 30
0.0
 41
60.0
 42
60.0
 43
60.0
 50
180.0
  0
POINT
  5
7D03
  8
DEFPOINTS
  6
BYBLOCK
 62
     0
 10
4878.5491469999997
 20
3790.3616329999991
 30
0.0
  0
POINT
  5
7D04
  8
DEFPOINTS
  6
BYBLOCK
 62
     0
 10
4611.5491469999988
 20
4166.745629
 30
0.0
  0
POINT
  5
7D05
  8
DEFPOINTS
  6
BYBLOCK
 62
     0
 10
4611.5491469999988
 20
4253.5362909999994
 30
0.0
  0
ENDBLK
  5
7D06
  8
0
  0
BLOCK
  8
0
  2
*D11
 70
     1
 10
0.0
 20
0.0
 30
0.0
  3
*D11
  1

  0
LINE
  5
7F21
  8
3
  6
CONTINUOUS
 62
     0
 10
4111.5491469999988
 20
4043.3616329999991
 30
0.0
 11
4111.5491469999988
 21
4283.5362909999994
 31
0.0
  0
LINE
  5
7F22
  8
3
  6
CONTINUOUS
 62
     0
 10
4551.5491469999997
 20
4253.5362909999994
 30
0.0
 11
4171.5491469999988
 21
4253.5362909999994
 31
0.0
  0
INSERT
  5
7F23
  8
3
  6
CONTINUOUS
 62
     0
  2
_OPEN
 10
4611.5491469999988
 20
4253.5362909999994
 30
0.0
 41
60.0
 42
60.0
 43
60.0
  0
INSERT
  5
7F24
  8
3
  6
CONTINUOUS
 62
     0
  2
_OPEN
 10
4111.5491469999988
 20
4253.5362909999994
 30
0.0
 41
60.0
 42
60.0
 43
60.0
 50
180.0
  0
TEXT
  8
3
  40
90
  5
7F5E
  62
0
  72
0
  71
0
 10
4181.55
 20
4244.24
 30
0.000000
  1
MAX
  0
TEXT
  8
3
  40
90
  5
7F5F
  62
0
  72
0
  71
0
 10
4181.55
 20
4127.24
 30
0.000000
  1
560
  0
POINT
  5
7F26
  8
DEFPOINTS
  6
CONTINUOUS
 62
     0
 10
4611.5491469999988
 20
4166.745629
 30
0.0
  0
POINT
  5
7F27
  8
DEFPOINTS
  6
CONTINUOUS
 62
     0
 10
4111.5491469999988
 20
4028.361633
 30
0.0
  0
POINT
  5
7F28
  8
DEFPOINTS
  6
CONTINUOUS
 62
     0
 10
4111.5491469999988
 20
4253.5362909999994
 30
0.0
  0
ENDBLK
  5
7D10
  8
0
  0
BLOCK
  8
0
  2
*D12
 70
     1
 10
0.0
 20
0.0
 30
0.0
  3
*D12
  1

  0
LINE
  5
7F29
  8
3
  6
CONTINUOUS
 62
     0
 10
4168.5491469999988
 20
2773.361633
 30
0.0
 11
4168.5491469999988
 21
2508.8088010000001
 31
0.0
  0
LINE
  5
7F2A
  8
3
  6
CONTINUOUS
 62
     0
 10
4611.5491469999988
 20
2645.0878130000001
 30
0.0
 11
4611.5491469999988
 21
2508.8088010000001
 31
0.0
  0
LINE
  5
7F2B
  8
3
  6
CONTINUOUS
 62
     0
 10
4228.5491469999988
 20
2538.8088010000001
 30
0.0
 11
4551.5491469999997
 21
2538.8088010000001
 31
0.0
  0
INSERT
  5
7F2C
  8
3
  6
CONTINUOUS
 62
     0
  2
_OPEN
 10
4168.5491469999988
 20
2538.8088010000001
 30
0.0
 41
60.0
 42
60.0
 43
60.0
 50
180.0
  0
INSERT
  5
7F2D
  8
3
  6
CONTINUOUS
 62
     0
  2
_OPEN
 10
4611.5491469999988
 20
2538.8088010000001
 30
0.0
 41
60.0
 42
60.0
 43
60.0
  0
TEXT
  8
3
  40
90
  5
7F60
  62
0
  72
0
  71
0
 10
4194.26
 20
2454.51
 30
0.000000
  1
443
  0
POINT
  5
7F2F
  8
DEFPOINTS
  6
CONTINUOUS
 62
     0
 10
4168.5491469999988
 20
2788.361633
 30
0.0
  0
POINT
  5
7F30
  8
DEFPOINTS
  6
CONTINUOUS
 62
     0
 10
4611.5491469999988
 20
2660.0878130000001
 30
0.0
  0
POINT
  5
7F31
  8
DEFPOINTS
  6
CONTINUOUS
 62
     0
 10
4611.5491469999988
 20
2538.8088010000001
 30
0.0
  0
ENDBLK
  5
7C96
  8
0
  0
BLOCK
  8
0
  2
*D13
 70
     1
 10
0.0
 20
0.0
 30
0.0
  3
*D13
  1

  0
LINE
  5
7F32
  8
3
  6
CONTINUOUS
 62
     0
 10
4928.5491469999997
 20
2773.361633
 30
0.0
 11
4928.5491469999997
 21
2508.8088010000001
 31
0.0
  0
LINE
  5
7F33
  8
3
  6
CONTINUOUS
 62
     0
 10
4671.5491469999988
 20
2538.8088010000001
 30
0.0
 11
4868.5491469999988
 21
2538.8088010000001
 31
0.0
  0
TEXT
  8
3
  40
90
  5
7F61
  62
0
  72
0
  71
0
 10
4588.71
 20
2456.14
 30
0.000000
  1
317
  0
INSERT
  5
7F35
  8
3
  6
CONTINUOUS
 62
     0
  2
_OPEN
 10
4611.5491469999988
 20
2538.8088010000001
 30
0.0
 41
60.0
 42
60.0
 43
60.0
 50
180.0
  0
INSERT
  5
7F36
  8
3
  6
CONTINUOUS
 62
     0
  2
_OPEN
 10
4928.5491469999997
 20
2538.8088010000001
 30
0.0
 41
60.0
 42
60.0
 43
60.0
  0
POINT
  5
7F37
  8
DEFPOINTS
  6
CONTINUOUS
 62
     0
 10
4611.5491469999988
 20
2660.0878130000001
 30
0.0
  0
POINT
  5
7F38
  8
DEFPOINTS
  6
CONTINUOUS
 62
     0
 10
4928.5491469999997
 20
2788.361633
 30
0.0
  0
POINT
  5
7F39
  8
DEFPOINTS
  6
CONTINUOUS
 62
     0
 10
4928.5491469999997
 20
2538.8088010000001
 30
0.0
  0
ENDBLK
  5
7CB8
  8
0
  0
BLOCK
  8
0
  2
*D14
 70
     1
 10
0.0
 20
0.0
 30
0.0
  3
*D14
  1

  0
LINE
  5
7F3A
  8
3
  6
CONTINUOUS
 62
     0
 10
1520.0122670000001
 20
6198.1312010000001
 30
0.0
 11
1520.0122670000001
 21
6408.092724000001
 31
0.0
  0
LINE
  5
7F3B
  8
3
  6
CONTINUOUS
 62
     0
 10
3020.0122670000001
 20
6198.1312010000001
 30
0.0
 11
3020.0122670000001
 21
6408.092724000001
 31
0.0
  0
LINE
  5
7F3C
  8
3
  6
CONTINUOUS
 62
     0
 10
1580.0122670000001
 20
6378.0927240000001
 30
0.0
 11
2960.0122670000001
 21
6378.0927240000001
 31
0.0
  0
INSERT
  5
7F3D
  8
3
  6
CONTINUOUS
 62
     0
  2
_OPEN
 10
1520.0122670000001
 20
6378.0927240000001
 30
0.0
 41
60.0
 42
60.0
 43
60.0
 50
180.0
  0
INSERT
  5
7F3E
  8
3
  6
CONTINUOUS
 62
     0
  2
_OPEN
 10
3020.0122670000001
 20
6378.0927240000001
 30
0.0
 41
60.0
 42
60.0
 43
60.0
  0
TEXT
  8
3
  40
90
  5
7F62
  62
0
  72
0
  71
0
 10
2039.24
 20
6293.79
 30
0.000000
  1
1500
  0
POINT
  5
7F40
  8
DEFPOINTS
  6
CONTINUOUS
 62
     0
 10
1520.0122670000001
 20
6183.1312010000011
 30
0.0
  0
POINT
  5
7F41
  8
DEFPOINTS
  6
CONTINUOUS
 62
     0
 10
3020.0122670000001
 20
6183.1312010000011
 30
0.0
  0
POINT
  5
7F42
  8
DEFPOINTS
  6
CONTINUOUS
 62
     0
 10
3020.0122670000001
 20
6378.0927240000001
 30
0.0
  0
ENDBLK
  5
7C8B
  8
0
  0
BLOCK
  8
0
  2
*D15
 70
     1
 10
0.0
 20
0.0
 30
0.0
  3
*D15
  1

  0
LINE
  5
7F43
  8
3
  6
CONTINUOUS
 62
     0
 10
3035.0122670000001
 20
6183.1312010000011
 30
0.0
 11
3309.0321280000012
 21
6183.1312010000011
 31
0.0
  0
LINE
  5
7F44
  8
3
  6
CONTINUOUS
 62
     0
 10
3035.0122670000001
 20
5423.1312010000001
 30
0.0
 11
3309.0321280000012
 21
5423.1312010000001
 31
0.0
  0
LINE
  5
7F45
  8
3
  6
CONTINUOUS
 62
     0
 10
3279.0321280000012
 20
6123.1312010000001
 30
0.0
 11
3279.0321280000012
 21
5483.1312010000001
 31
0.0
  0
INSERT
  5
7F46
  8
3
  6
CONTINUOUS
 62
     0
  2
_OPEN
 10
3279.0321280000012
 20
6183.1312010000011
 30
0.0
 41
60.0
 42
60.0
 43
60.0
 50
90.0
  0
INSERT
  5
7F47
  8
3
  6
CONTINUOUS
 62
     0
  2
_OPEN
 10
3279.0321280000012
 20
5423.1312010000001
 30
0.0
 41
60.0
 42
60.0
 43
60.0
 50
270.0
  0
TEXT
  8
3
  40
90
  5
7F63
  62
0
  72
0
  71
0
 10
3024.03
 20
5599.82
 30
0.000000
  1
760
  0
POINT
  5
7F49
  8
DEFPOINTS
  6
CONTINUOUS
 62
     0
 10
3020.0122670000001
 20
6183.1312010000011
 30
0.0
  0
POINT
  5
7F4A
  8
DEFPOINTS
  6
CONTINUOUS
 62
     0
 10
3020.0122670000001
 20
5423.1312010000001
 30
0.0
  0
POINT
  5
7F4B
  8
DEFPOINTS
  6
CONTINUOUS
 62
     0
 10
3279.0321280000012
 20
5423.1312010000001
 30
0.0
  0
ENDBLK
  5
7C59
  8
0
  0
BLOCK
  8
0
  2
*D16
 70
     1
 10
0.0
 20
0.0
 30
0.0
  3
*D16
  1

  0
LINE
  5
7F4C
  8
3
 62
     0
 10
1990.0122670000001
 20
4183.1365599999999
 30
0.0
 11
1990.0122670000001
 21
4255.4651750000003
 31
0.0
  0
LINE
  5
7F4D
  8
3
 62
     0
 10
1480.1387771725231
 20
3394.1650201621619
 30
0.0
 11
1480.1387771725231
 21
4255.4651750000003
 31
0.0
  0
LINE
  5
7F4E
  8
3
 62
     0
 10
1930.0122670000001
 20
4225.4651750000003
 30
0.0
 11
1540.1387771725231
 21
4225.4651750000003
 31
0.0
  0
INSERT
  5
7F4F
  8
3
 62
     0
  2
_OPEN
 10
1990.0122670000001
 20
4225.4651750000003
 30
0.0
 41
60.0
 42
60.0
 43
60.0
  0
INSERT
  5
7F50
  8
3
 62
     0
  2
_OPEN
 10
1480.1387771725231
 20
4225.4651750000003
 30
0.0
 41
60.0
 42
60.0
 43
60.0
 50
180.0
  0
TEXT
  8
3
  40
90
  5
7F64
  62
0
  72
0
  71
0
 10
1555.08
 20
4141.17
 30
0.000000
  1
508
  0
POINT
  5
7F52
  8
DEFPOINTS
 62
     0
 10
1990.0122670000001
 20
4168.136559999999
 30
0.0
  0
POINT
  5
7F53
  8
DEFPOINTS
 62
     0
 10
1480.1387771725231
 20
3379.1650201621619
 30
0.0
  0
POINT
  5
7F54
  8
DEFPOINTS
 62
     0
 10
1480.1387771725231
 20
4225.4651750000003
 30
0.0
  0
ENDBLK
  5
7D44
  8
0
  0
ENDSEC
  0
SECTION
  2
ENTITIES
  0
LINE
  5
7AA7
  8
1
  6
CONTINUOUS
 10
1945.572267
 20
3270.0916329999991
 30
0.0
 11
2777.782267
 21
3011.9516329999992
 31
0.0
  0
LINE
  5
7AA8
  8
1
  6
CONTINUOUS
 10
2056.7522669999998
 20
3547.6916329999999
 30
0.0
 11
2837.0822669999998
 21
3160.0016329999999
 31
0.0
  0
LINE
  5
7AA9
  8
1
  6
CONTINUOUS
 10
1520.0122670000001
 20
6183.1312010000011
 30
0.0
 11
3020.0122670000001
 21
6183.1312010000011
 31
0.0
  0
LINE
  5
7AAA
  8
1
  6
CONTINUOUS
 10
2140.0122670000001
 20
5423.1312010000001
 30
0.0
 11
2721.4922670000001
 21
5423.1312010000001
 31
0.0
  0
ARC
  5
7AAB
  8
1
  6
CONTINUOUS
 10
2801.4922670000001
 20
3088.3616329999991
 30
0.0
 40
162.0
 50
324.97000000000003
 51
215.02999999999989
  0
LINE
  5
7AAC
  8
1
  6
CONTINUOUS
 10
2140.0122670000001
 20
4028.361633
 30
0.0
 11
2980.0122670000001
 21
3188.3616329999991
 31
0.0
  0
LINE
  5
7AAD
  8
1
  6
CONTINUOUS
 10
2968.4722670000001
 20
6021.3412010000011
 30
0.0
 11
2680.052267
 21
6021.3412010000011
 31
0.0
  0
LINE
  5
7AAE
  8
1
  6
CONTINUOUS
 10
2968.4722670000001
 20
5565.4012009999997
 30
0.0
 11
2639.4922670000001
 21
5565.4012009999997
 31
0.0
  0
LINE
  5
7AAF
  8
1
  6
CONTINUOUS
 10
1620.0122670000001
 20
5366.1312010000001
 30
0.0
 11
2980.0122670000001
 21
5366.1312010000001
 31
0.0
  0
LINE
  5
7AB0
  8
1
  6
CONTINUOUS
 10
1620.0122670000001
 20
5506.1312010000001
 30
0.0
 11
2980.0122670000001
 21
5506.1312010000001
 31
0.0
  0
LINE
  5
7AB1
  8
1
  6
CONTINUOUS
 10
1520.0122670000001
 20
2888.361633
 30
0.0
 11
3020.0122670000001
 21
2888.361633
 31
0.0
  0
LINE
  5
7AB2
  8
1
  6
CONTINUOUS
 10
1520.0122670000001
 20
2788.361633
 30
0.0
 11
3020.0122670000001
 21
2788.361633
 31
0.0
  0
LINE
  5
7AB3
  8
1
  6
CONTINUOUS
 10
1916.0122670000001
 20
3948.361633
 30
0.0
 11
2726.0122670000001
 21
3948.361633
 31
0.0
  0
POLYLINE
  5
7AB4
  8
1
  6
CONTINUOUS
 66
     1
 10
0.0
 20
0.0
 30
0.0
  0
VERTEX
  5
7ECC
  8
1
  6
CONTINUOUS
 10
2686.0122670000001
 20
3948.361633
 30
0.0
  0
VERTEX
  5
7ECD
  8
1
  6
CONTINUOUS
 10
2670.0122670000001
 20
3413.361633
 30
0.0
 42
-0.4200000000000001
  0
VERTEX
  5
7ECE
  8
1
  6
CONTINUOUS
 10
1978.2222670000001
 20
2828.341633
 30
0.0
 42
-0.43
  0
VERTEX
  5
7ECF
  8
1
  6
CONTINUOUS
 10
1485.2422670000001
 20
3445.2816330000001
 30
0.0
 42
-0.37
  0
VERTEX
  5
7ED0
  8
1
  6
CONTINUOUS
 10
1956.0122670000001
 20
3862.131633
 30
0.0
 42
-0.34
  0
SEQEND
  5
7ED1
  8
1
  6
CONTINUOUS
  0
LINE
  5
7ABC
  8
1
  6
CONTINUOUS
 10
1620.0122670000001
 20
2888.361633
 30
0.0
 11
1620.0122670000001
 21
4028.361633
 31
0.0
  0
LINE
  5
7AC0
  8
1
  6
CONTINUOUS
 10
1520.0122670000001
 20
2888.361633
 30
0.0
 11
1520.0122670000001
 21
2788.361633
 31
0.0
  0
CIRCLE
  5
7AC1
  8
1
  6
CONTINUOUS
 10
1990.0122670000001
 20
3413.361633
 30
0.0
 40
150.0
  0
LINE
  5
7AC2
  8
1
  6
CONTINUOUS
 10
2647.4922670000001
 20
2946.361633
 30
0.0
 11
2668.8322669999998
 21
2995.3716329999988
 31
0.0
  0
LINE
  5
7AC3
  8
1
  6
CONTINUOUS
 10
2647.4922670000001
 20
2888.361633
 30
0.0
 11
2647.4922670000001
 21
2946.361633
 31
0.0
  0
LINE
  5
7AC4
  8
2
  6
CENTER
 10
1387.2664319999999
 20
3413.361633
 30
0.0
 11
2963.8334009999999
 21
3413.361633
 31
0.0
  0
LINE
  5
7AC5
  8
2
  6
CENTER
 10
1990.0122670000001
 20
6383.8208880000002
 30
0.0
 11
1990.0122670000001
 21
5244.3965590000007
 31
0.0
  0
LINE
  5
7AC6
  8
1
  6
CONTINUOUS
 10
1520.0122670000001
 20
5601.1312010000011
 30
0.0
 11
1520.0122670000001
 21
5423.1312010000001
 31
0.0
  0
LINE
  5
7AC7
  8
1
  6
CONTINUOUS
 10
1620.0122670000001
 20
5366.1312010000001
 30
0.0
 11
1620.0122670000001
 21
5506.1312010000001
 31
0.0
  0
LINE
  5
7AC8
  8
1
  6
CONTINUOUS
 10
2011.0122670000001
 20
5476.1312010000011
 30
0.0
 11
2011.0122670000001
 21
5601.1312010000011
 31
0.0
  0
LINE
  5
7AC9
  8
1
  6
CONTINUOUS
 10
1969.0122670000001
 20
5476.1312010000011
 30
0.0
 11
1969.0122670000001
 21
5601.1312010000011
 31
0.0
  0
LINE
  5
7ACA
  8
1
  6
CONTINUOUS
 10
1620.0122670000001
 20
4028.361633
 30
0.0
 11
2140.0122670000001
 21
4028.361633
 31
0.0
  0
LINE
  5
7ACB
  8
1
  6
CONTINUOUS
 10
1520.0122670000001
 20
5423.1312010000001
 30
0.0
 11
1840.0122670000001
 21
5423.1312010000001
 31
0.0
  0
LINE
  5
7ACD
  8
1
  6
CONTINUOUS
 10
2140.0122670000001
 20
5396.1312010000001
 30
0.0
 11
2140.0122670000001
 21
5476.1312010000011
 31
0.0
  0
LINE
  5
7ACE
  8
1
  6
CONTINUOUS
 10
1840.0122670000001
 20
5396.1312010000001
 30
0.0
 11
1840.0122670000001
 21
5476.1312010000011
 31
0.0
  0
LINE
  5
7ACF
  8
1
  6
CONTINUOUS
 10
1840.0122670000001
 20
5396.1312010000001
 30
0.0
 11
2140.0122670000001
 21
5396.1312010000001
 31
0.0
  0
LINE
  5
7AD0
  8
1
  6
CONTINUOUS
 10
1840.0122670000001
 20
5476.1312010000011
 30
0.0
 11
2140.0122670000001
 21
5476.1312010000011
 31
0.0
  0
LINE
  5
7AD1
  8
1
  6
CONTINUOUS
 10
1956.0122670000001
 20
3918.3616329999991
 30
0.0
 11
2685.112267
 21
3918.3616329999991
 31
0.0
  0
LINE
  5
7AD2
  8
1
  6
CONTINUOUS
 10
1956.0122670000001
 20
3862.131633
 30
0.0
 11
1956.0122670000001
 21
3948.361633
 31
0.0
  0
LINE
  5
7AD3
  8
1
  6
CONTINUOUS
 10
2680.052267
 20
5601.1312010000011
 30
0.0
 11
1480.6422669999999
 21
5601.1312010000011
 31
0.0
  0
LINE
  5
7AD4
  8
1
  6
CONTINUOUS
 10
2680.052267
 20
6131.1312010000001
 30
0.0
 11
1480.6422669999999
 21
6131.1312010000001
 31
0.0
  0
LINE
  5
7AD5
  8
1
  6
CONTINUOUS
 10
1480.6422669999999
 20
5601.1312010000011
 30
0.0
 11
1480.6422669999999
 21
6131.1312010000001
 31
0.0
  0
LINE
  5
7AD6
  8
1
  6
CONTINUOUS
 10
1520.0122670000001
 20
6183.1312010000011
 30
0.0
 11
1520.0122670000001
 21
6131.1312010000001
 31
0.0
  0
LINE
  5
7AD7
  8
1
  6
CONTINUOUS
 10
2639.4922670000001
 20
5565.4012009999997
 30
0.0
 11
2639.4922670000001
 21
5601.1312010000011
 31
0.0
  0
LINE
  5
7AD8
  8
1
  6
CONTINUOUS
 10
1950.052267
 20
5601.1312010000011
 30
0.0
 11
1950.052267
 21
6131.1312010000001
 31
0.0
  0
LINE
  5
7AD9
  8
1
  6
CONTINUOUS
 10
2680.052267
 20
5601.1312010000011
 30
0.0
 11
2680.052267
 21
6131.1312010000001
 31
0.0
  0
LINE
  5
7ADA
  8
1
  6
CONTINUOUS
 10
2680.052267
 20
6131.1312010000001
 30
0.0
 11
1950.052267
 21
5601.1312010000011
 31
0.0
  0
LINE
  5
7ADB
  8
1
  6
CONTINUOUS
 10
2680.052267
 20
5601.1312010000011
 30
0.0
 11
1950.052267
 21
6131.1312010000001
 31
0.0
  0
LINE
  5
7ADC
  8
1
  6
CONTINUOUS
 10
4928.5491469999997
 20
2888.361633
 30
0.0
 11
4111.5491469999988
 21
2888.361633
 31
0.0
  0
LINE
  5
7ADD
  8
1
  6
CONTINUOUS
 10
4928.5491469999997
 20
2788.361633
 30
0.0
 11
4168.5491469999988
 21
2788.361633
 31
0.0
  0
LINE
  5
7ADE
  8
1
  6
CONTINUOUS
 10
4916.5491469999997
 20
3948.361633
 30
0.0
 11
4306.5491469999997
 21
3948.361633
 31
0.0
  0
LINE
  5
7AEA
  8
1
  6
CONTINUOUS
 10
4251.5491469999997
 20
4028.361633
 30
0.0
 11
4251.5491469999997
 21
2888.361633
 31
0.0
  0
LINE
  5
7AEB
  8
1
  6
CONTINUOUS
 10
4111.5491469999988
 20
4028.361633
 30
0.0
 11
4111.5491469999988
 21
2888.361633
 31
0.0
  0
LINE
  5
7AEE
  8
1
  6
CONTINUOUS
 10
4346.5491469999997
 20
3948.361633
 30
0.0
 11
4346.5491469999997
 21
2888.361633
 31
0.0
  0
LINE
  5
7AF3
  8
2
  6
CENTER
 10
2801.4922670000001
 20
3008.361633
 30
0.0
 11
2801.4922670000001
 21
3168.3616329999991
 31
0.0
  0
LINE
  5
7AF4
  8
2
  6
CENTER
 10
2881.4922670000001
 20
3088.3616329999991
 30
0.0
 11
2721.4922670000001
 21
3088.3616329999991
 31
0.0
  0
LINE
  5
7AF5
  8
1
  6
CONTINUOUS
 10
2955.4922670000001
 20
2888.361633
 30
0.0
 11
2955.4922670000001
 21
2946.361633
 31
0.0
  0
LINE
  5
7AF6
  8
1
  6
CONTINUOUS
 10
2955.4922670000001
 20
2946.361633
 30
0.0
 11
2934.1422670000002
 21
2995.3716329999988
 31
0.0
  0
CIRCLE
  5
7AF7
  8
1
  6
CONTINUOUS
 10
2801.4922670000001
 20
3088.3616329999991
 30
0.0
 40
80.0
  0
LINE
  5
7AF8
  8
1
  6
CONTINUOUS
 10
2980.0122670000001
 20
2888.361633
 30
0.0
 11
2980.0122670000001
 21
3188.3616329999991
 31
0.0
  0
LINE
  5
7AF9
  8
1
  6
CONTINUOUS
 10
3020.0122670000001
 20
2888.361633
 30
0.0
 11
3020.0122670000001
 21
2788.361633
 31
0.0
  0
LINE
  5
7B08
  8
1
  6
CONTINUOUS
 10
4221.5491469999997
 20
3434.361633
 30
0.0
 11
4346.5491469999997
 21
3434.361633
 31
0.0
  0
LINE
  5
7B09
  8
1
  6
CONTINUOUS
 10
4221.5491469999997
 20
3392.361633
 30
0.0
 11
4346.5491469999997
 21
3392.361633
 31
0.0
  0
LINE
  5
7B0A
  8
1
  6
CONTINUOUS
 10
4221.5491469999997
 20
3027.3616329999991
 30
0.0
 11
4346.5491469999997
 21
3027.3616329999991
 31
0.0
  0
LINE
  5
7B0B
  8
1
  6
CONTINUOUS
 10
4221.5491469999997
 20
3069.361633
 30
0.0
 11
4346.5491469999997
 21
3069.361633
 31
0.0
  0
LINE
  5
7B0C
  8
1
  6
CONTINUOUS
 10
4141.5491469999997
 20
3128.361633
 30
0.0
 11
4221.5491469999997
 21
3128.361633
 31
0.0
  0
LINE
  5
7B0D
  8
1
  6
CONTINUOUS
 10
4141.5491469999997
 20
2968.361633
 30
0.0
 11
4221.5491469999997
 21
2968.361633
 31
0.0
  0
LINE
  5
7B0E
  8
1
  6
CONTINUOUS
 10
4141.5491469999997
 20
3563.361633
 30
0.0
 11
4221.5491469999997
 21
3563.361633
 31
0.0
  0
LINE
  5
7B0F
  8
1
  6
CONTINUOUS
 10
4141.5491469999997
 20
3263.361633
 30
0.0
 11
4221.5491469999997
 21
3263.361633
 31
0.0
  0
LINE
  5
7B10
  8
1
  6
CONTINUOUS
 10
4141.5491469999997
 20
2968.361633
 30
0.0
 11
4141.5491469999997
 21
3128.361633
 31
0.0
  0
LINE
  5
7B11
  8
1
  6
CONTINUOUS
 10
4221.5491469999997
 20
2968.361633
 30
0.0
 11
4221.5491469999997
 21
3128.361633
 31
0.0
  0
LINE
  5
7B12
  8
1
  6
CONTINUOUS
 10
4141.5491469999997
 20
3263.361633
 30
0.0
 11
4141.5491469999997
 21
3563.361633
 31
0.0
  0
LINE
  5
7B13
  8
1
  6
CONTINUOUS
 10
4221.5491469999997
 20
3263.361633
 30
0.0
 11
4221.5491469999997
 21
3563.361633
 31
0.0
  0
LINE
  5
7B14
  8
1
  6
CONTINUOUS
 10
4168.5491469999988
 20
2888.361633
 30
0.0
 11
4168.5491469999988
 21
2788.361633
 31
0.0
  0
LINE
  5
7B20
  8
1
  6
CONTINUOUS
 10
2780.4922670000001
 20
5476.1312010000011
 30
0.0
 11
2780.4922670000001
 21
5565.4012009999997
 31
0.0
  0
LINE
  5
7B21
  8
1
  6
CONTINUOUS
 10
2822.4922670000001
 20
5476.1312010000011
 30
0.0
 11
2822.4922670000001
 21
5565.4012009999997
 31
0.0
  0
LINE
  5
7B22
  8
1
  6
CONTINUOUS
 10
3020.0122670000001
 20
6183.1312010000011
 30
0.0
 11
3020.0122670000001
 21
5423.1312010000001
 31
0.0
  0
LINE
  5
7B23
  8
1
  6
CONTINUOUS
 10
2980.0122670000001
 20
5366.1312010000001
 30
0.0
 11
2980.0122670000001
 21
5506.1312010000001
 31
0.0
  0
LINE
  5
7B28
  8
1
  6
CONTINUOUS
 10
2881.4922670000001
 20
5423.1312010000001
 30
0.0
 11
3020.0122670000001
 21
5423.1312010000001
 31
0.0
  0
LINE
  5
7B29
  8
1
  6
CONTINUOUS
 10
2881.4922670000001
 20
5396.1312010000001
 30
0.0
 11
2881.4922670000001
 21
5476.1312010000011
 31
0.0
  0
LINE
  5
7B2A
  8
1
  6
CONTINUOUS
 10
2721.4922670000001
 20
5396.1312010000001
 30
0.0
 11
2721.4922670000001
 21
5476.1312010000011
 31
0.0
  0
LINE
  5
7B2B
  8
1
  6
CONTINUOUS
 10
2721.4922670000001
 20
5396.1312010000001
 30
0.0
 11
2881.4922670000001
 21
5396.1312010000001
 31
0.0
  0
LINE
  5
7B2C
  8
1
  6
CONTINUOUS
 10
2721.4922670000001
 20
5476.1312010000011
 30
0.0
 11
2881.4922670000001
 21
5476.1312010000011
 31
0.0
  0
LINE
  5
7B32
  8
1
  6
CONTINUOUS
 10
2968.4722670000001
 20
5565.4012009999997
 30
0.0
 11
2968.4722670000001
 21
6021.3412010000011
 31
0.0
  0
LINE
  5
7B43
  8
1
  6
CONTINUOUS
 10
4251.5491469999997
 20
4028.361633
 30
0.0
 11
4111.5491469999988
 21
4028.361633
 31
0.0
  0
LINE
  5
7B47
  8
1
  6
CONTINUOUS
 10
4876.5491469999997
 20
3948.361633
 30
0.0
 11
4876.5491469999997
 21
2888.361633
 31
0.0
  0
LINE
  5
7B48
  8
1
  6
CONTINUOUS
 10
4928.5491469999997
 20
2888.361633
 30
0.0
 11
4928.5491469999997
 21
2788.361633
 31
0.0
  0
LINE
  5
7B49
  8
2
  6
CENTER
 10
4611.5491469999988
 20
4051.8296140000002
 30
0.0
 11
4611.5491469999988
 21
2660.0878130000001
 31
0.0
  0
LINE
  5
7B4A
  8
2
  6
CENTER
 10
1398.324832999999
 20
5866.1312010000001
 30
0.0
 11
3086.9456279999999
 21
5866.1312010000001
 31
0.0
  0
LINE
  5
7B4B
  8
2
  6
CENTER
 10
1990.0122670000001
 20
4168.136559999999
 30
0.0
 11
1990.0122670000001
 21
2687.561201999999
 31
0.0
  0
LINE
  5
7B4C
  8
2
  6
CENTER
 10
4062.1154553483061
 20
3413.361633
 30
0.0
 11
4928.8027580695998
 21
3413.361633
 31
0.0
  0
LINE
  5
7B4D
  8
4
  6
CONTINUOUS
 10
5550.0
 20
1500.0
 30
0.0
 11
5550.0
 21
900.0
 31
0.0
  0
LINE
  5
7B4E
  8
4
  6
CONTINUOUS
 10
3450.0
 20
1500.0
 30
0.0
 11
3450.0
 21
900.0
 31
0.0
  0
LINE
  5
7B4F
  8
4
  6
CONTINUOUS
 10
1950.0
 20
1500.0
 30
0.0
 11
1950.0
 21
900.0
 31
0.0
  0
LINE
  5
7B52
  8
4
  6
CONTINUOUS
 10
1950.0
 20
900.0
 30
0.0
 11
5550.0
 21
900.0
 31
0.0
  0
LINE
  5
7B53
  8
4
  6
CONTINUOUS
 10
1950.0
 20
1200.0
 30
0.0
 11
5550.0
 21
1200.0
 31
0.0
  0
TEXT
  5
7B54
  8
4
  6
CONTINUOUS
 10
2065.5062429999989
 20
1294.6290779999999
 30
0.0
 40
150.0
  1
機器名称
  0
TEXT
  5
7B55
  8
4
  6
CONTINUOUS
 10
2058.7743179999989
 20
964.9354699999999
 30
0.0
 40
150.0
  1
機器型番
  0
TEXT
  5
7B56
  8
4
  6
CONTINUOUS
 10
3533.0362359999999
 20
1267.7153069999999
 30
0.0
 40
150.0
  1
ミツヤ多翼送風機
  0
TEXT
  5
7B57
  8
4
  6
CONTINUOUS
 10
3559.9634869999991
 20
951.47875299999987
 30
0.0
 40
150.0
  1
MF#4 1/2-4
  0
TEXT
  5
7B59
  8
4
  6
CONTINUOUS
 10
2714.3572960000001
 20
7150.2865239999992
 30
0.0
 40
162.0
  1
床置ベット
  0
TEXT
  5
7B5A
  8
4
  6
CONTINUOUS
 10
948.50278000000014
 20
7601.6429289999996
 30
0.0
 40
216.0
  1
ベルト駆動式片吸込両持多翼ファン
  0
LINE
  5
7B5B
  8
4
  6
CONTINUOUS
 10
750.0
 20
7408.2262629999996
 30
0.0
 11
5550.0
 21
7408.2262629999996
 31
0.0
  0
LINE
  5
7B5C
  8
4
  6
CONTINUOUS
 10
750.0
 20
8008.2262629999996
 30
0.0
 11
5550.0
 21
8008.2262629999996
 31
0.0
  0
LINE
  5
7B5D
  8
4
  6
CONTINUOUS
 10
1950.0
 20
1500.0
 30
0.0
 11
5550.0
 21
1500.0
 31
0.0
  0
LINE
  5
7B5E
  8
4
  6
CONTINUOUS
 10
750.0
 20
8008.2262629999996
 30
0.0
 11
750.0
 21
7408.2262629999996
 31
0.0
  0
TEXT
  5
7B5F
  8
4
  6
CONTINUOUS
 10
1406.7807999999991
 20
7146.9584329999998
 30
0.0
 40
162.0
  1
左回転上向
  0
TEXT
  5
7B60
  8
4
  6
CONTINUOUS
 10
4406.9086779999989
 20
8118.1832439999989
 30
0.0
 40
168.0
  1
No.
  0
TEXT
  5
7B61
  8
4
  6
CONTINUOUS
 10
3933.8881879999999
 20
7150.2865239999992
 30
0.0
 40
162.0
  1
縮尺：1/30
  0
LINE
  5
7B62
  8
4
  6
CONTINUOUS
 10
5550.0
 20
8008.2262629999996
 30
0.0
 11
5550.0
 21
7408.2262629999996
 31
0.0
  0
LINE
  5
7B64
  8
4
  6
CONTINUOUS
 10
4321.8522670000002
 20
8043.7907490000007
 30
0.0
 11
4321.8522670000002
 21
8359.9567849999985
 31
0.0
  0
LINE
  5
7B65
  8
4
  6
CONTINUOUS
 10
4321.8522670000002
 20
8359.9567849999985
 30
0.0
 11
5550.0
 21
8359.9567849999985
 31
0.0
  0
LINE
  5
7B66
  8
4
  6
CONTINUOUS
 10
5550.0
 20
8359.9567849999985
 30
0.0
 11
5550.0
 21
8043.7907490000007
 31
0.0
  0
LINE
  5
7B67
  8
4
  6
CONTINUOUS
 10
5550.0
 20
8043.7907490000007
 30
0.0
 11
4321.8522670000002
 21
8043.7907490000007
 31
0.0
  0
DIMENSION
  5
7B7F
  8
3
  6
CONTINUOUS
  2
*D1
 10
1956.0122670000001
 20
4059.9944859999991
 30
0.0
 11
2298.7285320000001
 21
4059.9944859999991
 31
0.0
 70
   128
 13
2686.0122670000001
 23
3948.361633
 33
0.0
 14
1956.0122670000001
 24
3948.361633
 34
0.0
1001
ACAD
1000
DSTYLE
1002
{
1070
   287
1070
     3
1070
   287
1070
     3
1070
    40
1040
30.0
1070
   143
1040
0.039
1070
   172
1070
     1
1070
   271
1070
     0
1070
   279
1070
     0
1070
   288
1070
     1
1002
}
  0
DIMENSION
  5
7B8D
  8
3
  6
CONTINUOUS
  2
*D2
 10
1990.0122670000001
 20
4225.4651750000003
 30
0.0
 11
2298.7285320000001
 21
4225.4651750000003
 31
0.0
 70
   128
 13
2686.0122670000001
 23
3948.361633
 33
0.0
 14
1990.0122670000001
 24
4168.136559999999
 34
0.0
1001
ACAD
1000
DSTYLE
1002
{
1070
   287
1070
     3
1070
   287
1070
     3
1070
    40
1040
30.0
1070
   143
1040
0.039
1070
   172
1070
     1
1070
   271
1070
     0
1070
   279
1070
     0
1070
   288
1070
     1
1002
}
  0
DIMENSION
  5
7BA6
  8
3
  6
CONTINUOUS
  2
*D3
 10
1331.672288
 20
3413.361633
 30
0.0
 11
1331.672288
 21
3676.1025060000002
 31
0.0
 70
   128
 13
1916.0122670000001
 23
3948.361633
 33
0.0
 14
1387.2664319999999
 24
3413.361633
 34
0.0
 50
90.0
1001
ACAD
1000
DSTYLE
1002
{
1070
   287
1070
     3
1070
   287
1070
     3
1070
    40
1040
30.0
1070
   143
1040
0.039
1070
   172
1070
     1
1070
   271
1070
     0
1070
   279
1070
     0
1070
   288
1070
     1
1002
}
  0
DIMENSION
  5
7BB2
  8
3
  6
CONTINUOUS
  2
*D4
 10
1331.672288
 20
2788.361633
 30
0.0
 11
1256.6722879999991
 21
3100.861633
 31
0.0
 70
     0
 13
1387.2664319999999
 23
3413.361633
 33
0.0
 14
1520.0122670000001
 24
2788.361633
 34
0.0
 50
90.0
1001
ACAD
1000
DSTYLE
1002
{
1070
   287
1070
     4
1070
   287
1070
     4
1070
    40
1040
30.0
1070
    75
1070
     1
1070
   143
1040
0.039
1070
   172
1070
     1
1070
   271
1070
     0
1070
   279
1070
     1
1070
   288
1070
     1
1002
}
  0
DIMENSION
  5
7BBF
  8
3
  6
CONTINUOUS
  2
*D5
 10
1119.714761
 20
2788.361633
 30
0.0
 11
1119.714761
 21
3338.5422880000001
 31
0.0
 70
   128
 13
1901.0122670000001
 23
3948.361633
 33
0.0
 14
1520.0122670000001
 24
2788.361633
 34
0.0
 50
90.0
1001
ACAD
1000
DSTYLE
1002
{
1070
   287
1070
     3
1070
   287
1070
     3
1070
    40
1040
30.0
1070
   143
1040
0.039
1070
   172
1070
     1
1070
   271
1070
     0
1070
   279
1070
     0
1070
   288
1070
     1
1002
}
  0
DIMENSION
  5
7BCC
  8
3
  6
CONTINUOUS
  2
*D6
 10
1990.0122670000001
 20
2556.3827070000002
 30
0.0
 11
1725.726553
 21
2556.3827070000002
 31
0.0
 70
   128
 13
1520.0122670000001
 23
2788.361633
 33
0.0
 14
1990.0122670000001
 24
2687.561201999999
 34
0.0
1001
ACAD
1000
DSTYLE
1002
{
1070
   287
1070
     3
1070
   287
1070
     3
1070
    40
1040
30.0
1070
   143
1040
0.039
1070
   172
1070
     1
1070
   271
1070
     0
1070
   279
1070
     0
1070
   288
1070
     1
1002
}
  0
DIMENSION
  5
7BD8
  8
3
  6
CONTINUOUS
  2
*D7
 10
3020.0122670000001
 20
2556.3827070000002
 30
0.0
 11
2505.0122670000001
 21
2631.3827070000002
 31
0.0
 70
     0
 13
1990.0122670000001
 23
2687.561201999999
 33
0.0
 14
3020.0122670000001
 24
2788.361633
 34
0.0
1001
ACAD
1000
DSTYLE
1002
{
1070
   287
1070
     4
1070
   287
1070
     4
1070
    40
1040
30.0
1070
    75
1070
     1
1070
   143
1040
0.039
1070
   172
1070
     1
1070
   271
1070
     0
1070
   279
1070
     1
1070
   288
1070
     1
1002
}
  0
DIMENSION
  5
7BE5
  8
3
  6
CONTINUOUS
  2
*D8
 10
4876.5491469999997
 20
4040.1380049999998
 30
0.0
 11
4601.2526040000002
 21
4040.1380049999998
 31
0.0
 70
   128
 13
4346.5491469999997
 23
3948.361633
 33
0.0
 14
4876.5491469999997
 24
3948.361633
 34
0.0
1001
ACAD
1000
DSTYLE
1002
{
1070
   287
1070
     3
1070
   287
1070
     3
1070
    40
1040
30.0
1070
   143
1040
0.039
1070
   172
1070
     1
1070
   271
1070
     0
1070
   279
1070
     0
1070
   288
1070
     1
1002
}
  0
LINE
  5
7BE6
  8
1
  6
CONTINUOUS
 10
4878.5491469999997
 20
3790.3616329999991
 30
0.0
 11
4878.5491469999997
 21
3036.361633
 31
0.0
  0
DIMENSION
  5
7BF5
  8
3
  6
CONTINUOUS
  2
*D9
 10
5131.1464400000013
 20
3036.3616329999991
 30
0.0
 11
5131.1464400000004
 21
3437.824713
 31
0.0
 70
   128
 13
4878.5491469999997
 23
3790.3616329999991
 33
0.0
 14
4878.5491469999997
 24
3036.361633
 34
0.0
 50
90.0
1001
ACAD
1000
DSTYLE
1002
{
1070
   287
1070
     3
1070
   287
1070
     3
1070
     3
1000
φ<>
1070
    40
1040
30.0
1070
   143
1040
0.039
1070
   172
1070
     1
1070
   271
1070
     0
1070
   279
1070
     0
1070
   288
1070
     1
1002
}
  0
DIMENSION
  5
7C03
  8
3
  6
CONTINUOUS
  2
*D10
 10
4611.5491469999988
 20
4253.5362909999994
 30
0.0
 11
4765.5954017956719
 21
4350.0123005025962
 31
0.0
 70
   128
 13
4878.5491469999997
 23
3790.3616329999991
 33
0.0
 14
4611.5491469999988
 24
4166.745629
 34
0.0
1001
ACAD
1000
DSTYLE
1002
{
1070
   288
1070
     1
1070
   172
1070
     1
1070
    40
1040
30.0
1070
   271
1070
     0
1070
   143
1040
0.039
1002
}
  0
DIMENSION
  5
7C0F
  8
3
  6
CONTINUOUS
  2
*D11
 10
4111.5491469999988
 20
4253.5362909999994
 30
0.0
 11
4361.5491469999988
 21
4403.5362909999994
 31
0.0
 70
     0
  1
MAX\P560
 13
4611.5491469999988
 23
4166.745629
 33
0.0
 14
4111.5491469999988
 24
4028.361633
 34
0.0
1001
ACAD
1000
DSTYLE
1002
{
1070
   287
1070
     4
1070
   287
1070
     4
1070
    40
1040
30.0
1070
    75
1070
     1
1070
   143
1040
0.039
1070
   172
1070
     1
1070
   271
1070
     0
1070
   279
1070
     1
1070
   288
1070
     1
1002
}
  0
DIMENSION
  5
7C1C
  8
3
  6
CONTINUOUS
  2
*D12
 10
4611.5491469999988
 20
2538.8088010000001
 30
0.0
 11
4374.2634330000001
 21
2538.8088010000001
 31
0.0
 70
   128
 13
4168.5491469999988
 23
2788.361633
 33
0.0
 14
4611.5491469999988
 24
2660.0878130000001
 34
0.0
1001
ACAD
1000
DSTYLE
1002
{
1070
   287
1070
     3
1070
   287
1070
     3
1070
    40
1040
30.0
1070
   143
1040
0.039
1070
   172
1070
     1
1070
   271
1070
     0
1070
   279
1070
     0
1070
   288
1070
     1
1002
}
  0
DIMENSION
  5
7C2A
  8
3
  6
CONTINUOUS
  2
*D13
 10
4928.5491469999997
 20
2538.8088010000001
 30
0.0
 11
4768.7070949999998
 21
2540.4405099999999
 31
0.0
 70
   128
 13
4611.5491469999988
 23
2660.0878130000001
 33
0.0
 14
4928.5491469999997
 24
2788.361633
 34
0.0
1001
ACAD
1000
DSTYLE
1002
{
1070
   287
1070
     4
1070
   287
1070
     4
1070
    40
1040
30.0
1070
    75
1070
     1
1070
   143
1040
0.039
1070
   172
1070
     1
1070
   271
1070
     0
1070
   279
1070
     1
1070
   288
1070
     1
1002
}
  0
DIMENSION
  5
7C4D
  8
3
  6
CONTINUOUS
  2
*D14
 10
3020.0122670000001
 20
6378.0927240000001
 30
0.0
 11
2219.244455
 21
6378.0927240000001
 31
0.0
 70
   128
 13
1520.0122670000001
 23
6183.1312010000011
 33
0.0
 14
3020.0122670000001
 24
6183.1312010000011
 34
0.0
1001
ACAD
1000
DSTYLE
1002
{
1070
   287
1070
     3
1070
   287
1070
     3
1070
    40
1040
30.0
1070
   143
1040
0.039
1070
   172
1070
     1
1070
   271
1070
     0
1070
   279
1070
     0
1070
   288
1070
     1
1002
}
  0
DIMENSION
  5
7C5A
  8
3
  6
CONTINUOUS
  2
*D15
 10
3279.0321280000012
 20
5423.1312010000001
 30
0.0
 11
3279.0321279999998
 21
5759.1212350000014
 31
0.0
 70
   128
 13
3020.0122670000001
 23
6183.1312010000011
 33
0.0
 14
3020.0122670000001
 24
5423.1312010000001
 34
0.0
 50
90.0
1001
ACAD
1000
DSTYLE
1002
{
1070
   287
1070
     3
1070
   287
1070
     3
1070
    40
1040
30.0
1070
   143
1040
0.039
1070
   172
1070
     1
1070
   271
1070
     0
1070
   279
1070
     0
1070
   288
1070
     1
1002
}
  0
LINE
  5
7D34
  8
1
  6
CONTINUOUS
 10
1530.0122670000001
 20
3808.3616329999991
 30
0.0
 11
1530.0122670000001
 21
2888.361633
 31
0.0
  0
LINE
  5
7D35
  8
1
  6
CONTINUOUS
 10
2450.0122669999992
 20
3808.3616329999991
 30
0.0
 11
2450.0122669999992
 21
2888.361633
 31
0.0
  0
LINE
  5
7D36
  8
1
  6
CONTINUOUS
 10
1530.0122670000001
 20
3808.3616329999991
 30
0.0
 11
2450.0122669999992
 21
3808.361633
 31
0.0
  0
DIMENSION
  5
7D38
  8
3
  2
*D16
 10
1480.1387771725231
 20
4225.4651750000003
 30
0.0
 11
1735.0755220862609
 21
4300.4651750000003
 31
0.0
 70
     0
  1
508
 13
1990.0122670000001
 23
4168.136559999999
 33
0.0
 14
1480.1387771725231
 24
3379.1650201621619
 34
0.0
1001
ACAD
1000
DSTYLE
1002
{
1070
   287
1070
     4
1070
   287
1070
     4
1070
    40
1040
30.0
1070
   143
1040
0.039
1070
   172
1070
     1
1070
   271
1070
     0
1070
   279
1070
     1
1070
   288
1070
     1
1002
}
  0
ENDSEC
  0
EOF
