  0
SECTION
  2
HEADER
  9
$ACADVER
  1
AC1009
  9
$INSBASE
 10
0.0
 20
0.0
 30
0.0
  9
$EXTMIN
 10
750.0
 20
900.0
 30
0.0
  9
$EXTMAX
 10
5550.0
 20
8359.9567849999985
 30
0.0
  9
$LIMMIN
 10
0.0
 20
0.0
  9
$LIMMAX
 10
297.0
 20
210.0
  9
$ORTHOMODE
 70
     0
  9
$REGENMODE
 70
     1
  9
$FILLMODE
 70
     0
  9
$QTEXTMODE
 70
     0
  9
$MIRRTEXT
 70
     1
  9
$DRAGMODE
 70
     2
  9
$LTSCALE
 40
100.0
  9
$OSMODE
 70
    37
  9
$ATTMODE
 70
     1
  9
$TEXTSIZE
 40
180.0
  9
$TRACEWID
 40
0.05
  9
$TEXTSTYLE
  7
STANDARD
  9
$CLAYER
  8
3
  9
$CELTYPE
  6
BYLAYER
  9
$CECOLOR
 62
   256
  9
$DIMSCALE
 40
30.0
  9
$DIMASZ
 40
2.0
  9
$DIMEXO
 40
0.5
  9
$DIMDLI
 40
10.0
  9
$DIMRND
 40
0.0
  9
$DIMDLE
 40
0.0
  9
$DIMEXE
 40
1.0
  9
$DIMTP
 40
1.0
  9
$DIMTM
 40
1.0
  9
$DIMTXT
 40
3.0
  9
$DIMCEN
 40
0.0
  9
$DIMTSZ
 40
0.0
  9
$DIMTOL
 70
     0
  9
$DIMLIM
 70
     0
  9
$DIMTIH
 70
     0
  9
$DIMTOH
 70
     0
  9
$DIMSE1
 70
     0
  9
$DIMSE2
 70
     0
  9
$DIMTAD
 70
     1
  9
$DIMZIN
 70
     8
  9
$DIMBLK
  1

  9
$DIMASO
 70
     1
  9
$DIMSHO
 70
     1
  9
$DIMPOST
  1

  9
$DIMAPOST
  1

  9
$DIMALT
 70
     0
  9
$DIMALTD
 70
     2
  9
$DIMALTF
 40
0.039
  9
$DIMLFAC
 40
1.0
  9
$DIMTOFL
 70
     1
  9
$DIMTVP
 40
0.0
  9
$DIMTIX
 70
     0
  9
$DIMSOXD
 70
     0
  9
$DIMSAH
 70
     1
  9
$DIMBLK1
  1
OPEN
  9
$DIMBLK2
  1
OPEN
  9
$DIMSTYLE
  2
IGA
  9
$DIMCLRD
 70
     0
  9
$DIMCLRE
 70
     0
  9
$DIMCLRT
 70
     0
  9
$DIMTFAC
 40
10.0
  9
$DIMGAP
 40
1.0
  9
$LUNITS
 70
     2
  9
$LUPREC
 70
     3
  9
$SKETCHINC
 40
0.1
  9
$FILLETRAD
 40
50.0
  9
$AUNITS
 70
     0
  9
$AUPREC
 70
     0
  9
$MENU
  1
acad
  9
$ELEVATION
 40
0.0
  9
$PELEVATION
 40
0.0
  9
$THICKNESS
 40
0.0
  9
$LIMCHECK
 70
     0
  9
$BLIPMODE
 70
     0
  9
$CHAMFERA
 40
0.5
  9
$CHAMFERB
 40
0.5
  9
$SKPOLY
 70
     0
  9
$TDCREATE
 40
2450742.619314699
  9
$TDUPDATE
 40
2454953.7731400002
  9
$TDINDWG
 40
0.0052862963
  9
$TDUSRTIMER
 40
0.0052862963
  9
$USRTIMER
 70
     1
  9
$ANGBASE
 50
0.0
  9
$ANGDIR
 70
     0
  9
$PDMODE
 70
     0
  9
$PDSIZE
 40
0.0
  9
$PLINEWID
 40
0.0
  9
$COORDS
 70
     1
  9
$SPLFRAME
 70
     0
  9
$SPLINETYPE
 70
     6
  9
$SPLINESEGS
 70
     8
  9
$ATTDIA
 70
     0
  9
$ATTREQ
 70
     1
  9
$HANDLING
 70
 10241
  9
$HANDSEED
  5
7EC4
  9
$SURFTAB1
 70
     6
  9
$SURFTAB2
 70
     6
  9
$SURFTYPE
 70
     6
  9
$SURFU
 70
     6
  9
$SURFV
 70
     6
  9
$UCSNAME
  2

  9
$UCSORG
 10
0.0
 20
0.0
 30
0.0
  9
$UCSXDIR
 10
1.0
 20
0.0
 30
0.0
  9
$UCSYDIR
 10
0.0
 20
1.0
 30
0.0
  9
$PUCSNAME
  2

  9
$PUCSORG
 10
0.0
 20
0.0
 30
0.0
  9
$PUCSXDIR
 10
1.0
 20
0.0
 30
0.0
  9
$PUCSYDIR
 10
0.0
 20
1.0
 30
0.0
  9
$USERI1
 70
     0
  9
$USERI2
 70
     0
  9
$USERI3
 70
     0
  9
$USERI4
 70
     0
  9
$USERI5
 70
     0
  9
$USERR1
 40
0.0
  9
$USERR2
 40
0.0
  9
$USERR3
 40
0.0
  9
$USERR4
 40
0.0
  9
$USERR5
 40
0.0
  9
$WORLDVIEW
 70
     1
  9
$SHADEDGE
 70
     3
  9
$SHADEDIF
 70
    70
  9
$TILEMODE
 70
     1
  9
$MAXACTVP
 70
    16
  9
$PLIMCHECK
 70
     0
  9
$PEXTMIN
 10
1.0000000000000000E+020
 20
1.0000000000000000E+020
 30
1.0000000000000000E+020
  9
$PEXTMAX
 10
-1.0000000000000000E+020
 20
-1.0000000000000000E+020
 30
-1.0000000000000000E+020
  9
$PLIMMIN
 10
0.0
 20
0.0
  9
$PLIMMAX
 10
12.0
 20
9.0
  9
$UNITMODE
 70
     0
  9
$VISRETAIN
 70
     0
  9
$PLINEGEN
 70
     0
  9
$PSLTSCALE
 70
     1
  0
ENDSEC
  0
SECTION
  2
TABLES
  0
TABLE
  2
VPORT
 70
     2
  0
VPORT
  2
*ACTIVE
 70
     0
 10
0.0
 20
0.0
 11
1.0
 21
1.0
 12
9438.4567678319436
 22
4630.0975558305709
 13
0.0
 23
0.0
 14
10.0
 24
10.0
 15
10.0
 25
10.0
 16
0.0
 26
0.0
 36
1.0
 17
0.0
 27
0.0
 37
0.0
 40
7517.4747125171307
 41
3.1666666666666661
 42
50.0
 43
0.0
 44
0.0
 50
0.0
 51
0.0
 71
     0
 72
   100
 73
     1
 74
     0
 75
     0
 76
     0
 77
     0
 78
     0
  0
ENDTAB
  0
TABLE
  2
LTYPE
 70
     2
  0
LTYPE
  2
CONTINUOUS
 70
     0
  3
Solid line
 72
    65
 73
     0
 40
0.0
  0
LTYPE
  2
CENTER
 70
     0
  3
____ _ ____ _ ____ _ ____ _ ____ _ ____ _ ____ 
 72
    65
 73
     4
 40
2.0
 49
1.25
 49
-0.25
 49
0.25
 49
-0.25
  0
ENDTAB
  0
TABLE
  2
LAYER
 70
     6
  0
LAYER
  2
0
 70
     0
 62
     7
  6
CONTINUOUS
  0
LAYER
  2
3
 70
     0
 62
     2
  6
CONTINUOUS
  0
LAYER
  2
2
 70
     0
 62
     3
  6
CENTER
  0
LAYER
  2
1
 70
     0
 62
     4
  6
CONTINUOUS
  0
LAYER
  2
4
 70
     0
 62
     7
  6
CONTINUOUS
  0
LAYER
  2
DEFPOINTS
 70
     0
 62
     7
  6
CONTINUOUS
  0
ENDTAB
  0
TABLE
  2
STYLE
 70
     1
  0
STYLE
  2
STANDARD
 70
     0
 40
0.0
 41
1.0
 50
0.0
 71
     0
 42
180.0
  3
simplex.shx
  4
extfont.shx
  0
ENDTAB
  0
TABLE
  2
VIEW
 70
     0
  0
ENDTAB
  0
TABLE
  2
UCS
 70
     0
  0
ENDTAB
  0
TABLE
  2
APPID
 70
     1
  0
APPID
  2
ACAD
 70
     0
  0
ENDTAB
  0
TABLE
  2
DIMSTYLE
 70
     1
  0
DIMSTYLE
  2
IGA
 70
     0
  3

  4

  5

  6
OPEN
  7
OPEN
 40
2.0
 41
2.0
 42
0.5
 43
10.0
 44
1.0
 45
0.0
 46
0.0
 47
1.0
 48
1.0
140
3.0
141
0.0
142
0.0
143
0.03937
144
1.0
145
0.0
146
10.0
147
1.0
 71
     0
 72
     0
 73
     0
 74
     0
 75
     0
 76
     0
 77
     1
 78
     8
170
     0
171
     2
172
     0
173
     1
174
     0
175
     0
176
     0
177
     0
178
     0
  0
ENDTAB
  0
ENDSEC
  0
SECTION
  2
BLOCKS
  0
BLOCK
  8
0
  2
$MODEL_SPACE
 70
     0
 10
0.0
 20
0.0
 30
0.0
  3
$MODEL_SPACE
  1

  0
ENDBLK
  5
1B
  8
0
  0
BLOCK
 67
     1
  8
0
  2
$PAPER_SPACE
 70
     0
 10
0.0
 20
0.0
 30
0.0
  3
$PAPER_SPACE
  1

  0
ENDBLK
  5
18
 67
     1
  8
0
  0
BLOCK
  8
0
  2
_OPEN
 70
     0
 10
0.0
 20
0.0
 30
0.0
  3
_OPEN
  1

  0
LINE
  5
7B5E
  8
0
  6
BYBLOCK
 62
     0
 10
-1.0
 20
0.166667
 30
0.0
 11
0.0
 21
0.0
 31
0.0
  0
LINE
  5
7B5F
  8
0
  6
BYBLOCK
 62
     0
 10
0.0
 20
0.0
 30
0.0
 11
-1.0
 21
-0.166667
 31
0.0
  0
LINE
  5
7B60
  8
0
  6
BYBLOCK
 62
     0
 10
0.0
 20
0.0
 30
0.0
 11
-1.0
 21
0.0
 31
0.0
  0
ENDBLK
  5
7B61
  8
0
  0
BLOCK
  8
0
  2
*D1
 70
     1
 10
0.0
 20
0.0
 30
0.0
  3
*D1
  1

  0
LINE
  5
7E28
  8
3
  6
CONTINUOUS
 62
     0
 10
1502.4891990000001
 20
4020.3259419999999
 30
0.0
 11
1372.4473330000001
 21
4020.3259419999999
 31
0.0
  0
LINE
  5
7E29
  8
3
  6
CONTINUOUS
 62
     0
 10
1502.4891990000001
 20
3290.3259419999999
 30
0.0
 11
1372.4473330000001
 21
3290.3259419999999
 31
0.0
  0
LINE
  5
7E2A
  8
3
  6
CONTINUOUS
 62
     0
 10
1402.4473330000001
 20
3960.3259419999999
 30
0.0
 11
1402.4473330000001
 21
3350.3259419999999
 31
0.0
  0
INSERT
  5
7E2B
  8
3
  6
CONTINUOUS
 62
     0
  2
_OPEN
 10
1402.4473330000001
 20
4020.3259419999999
 30
0.0
 41
60.0
 42
60.0
 43
60.0
 50
90.0
  0
INSERT
  5
7E2C
  8
3
  6
CONTINUOUS
 62
     0
  2
_OPEN
 10
1402.4473330000001
 20
3290.3259419999999
 30
0.0
 41
60.0
 42
60.0
 43
60.0
 50
270.0
  0
TEXT
  8
3
  40
90
  5
7EB3
  62
0
  72
0
  71
0
 10
1147.45
 20
3456.44
 30
0.000000
  1
730
  0
POINT
  5
7E2E
  8
DEFPOINTS
  6
CONTINUOUS
 62
     0
 10
1517.4891990000001
 20
4020.3259419999999
 30
0.0
  0
POINT
  5
7E2F
  8
DEFPOINTS
  6
CONTINUOUS
 62
     0
 10
1517.4891990000001
 20
3290.3259419999999
 30
0.0
  0
POINT
  5
7E30
  8
DEFPOINTS
  6
CONTINUOUS
 62
     0
 10
1402.4473330000001
 20
3290.3259419999999
 30
0.0
  0
ENDBLK
  5
7B6E
  8
0
  0
BLOCK
  8
0
  2
*D2
 70
     1
 10
0.0
 20
0.0
 30
0.0
  3
*D2
  1

  0
LINE
  5
7E31
  8
3
  6
CONTINUOUS
 62
     0
 10
1502.4891990000001
 20
4020.3259419999999
 30
0.0
 11
1183.5496109999999
 21
4020.3259419999999
 31
0.0
  0
LINE
  5
7E32
  8
3
  6
CONTINUOUS
 62
     0
 10
1385.78277
 20
3324.3259419999999
 30
0.0
 11
1183.5496109999999
 21
3324.3259419999999
 31
0.0
  0
LINE
  5
7E33
  8
3
  6
CONTINUOUS
 62
     0
 10
1213.5496109999999
 20
3960.3259419999999
 30
0.0
 11
1213.5496109999999
 21
3384.3259419999999
 31
0.0
  0
INSERT
  5
7E34
  8
3
  6
CONTINUOUS
 62
     0
  2
_OPEN
 10
1213.5496109999999
 20
4020.3259419999999
 30
0.0
 41
60.0
 42
60.0
 43
60.0
 50
90.0
  0
INSERT
  5
7E35
  8
3
  6
CONTINUOUS
 62
     0
  2
_OPEN
 10
1213.5496109999999
 20
3324.3259419999999
 30
0.0
 41
60.0
 42
60.0
 43
60.0
 50
270.0
  0
TEXT
  8
3
  40
90
  5
7EB4
  62
0
  72
0
  71
0
 10
958.550
 20
3463.99
 30
0.000000
  1
696
  0
POINT
  5
7E37
  8
DEFPOINTS
  6
CONTINUOUS
 62
     0
 10
1517.4891990000001
 20
4020.3259419999999
 30
0.0
  0
POINT
  5
7E38
  8
DEFPOINTS
  6
CONTINUOUS
 62
     0
 10
1400.78277
 20
3324.3259419999999
 30
0.0
  0
POINT
  5
7E39
  8
DEFPOINTS
  6
CONTINUOUS
 62
     0
 10
1213.5496109999999
 20
3324.3259419999999
 30
0.0
  0
ENDBLK
  5
7B7B
  8
0
  0
BLOCK
  8
0
  2
*D3
 70
     1
 10
0.0
 20
0.0
 30
0.0
  3
*D3
  1

  0
LINE
  5
7E3A
  8
3
  6
CONTINUOUS
 62
     0
 10
1567.4891990000001
 20
2699.3259419999999
 30
0.0
 11
1183.549610999999
 21
2699.3259419999999
 31
0.0
  0
LINE
  5
7E3B
  8
3
  6
CONTINUOUS
 62
     0
 10
1213.5496109999999
 20
3264.3259420000009
 30
0.0
 11
1213.5496109999999
 21
2759.3259419999999
 31
0.0
  0
INSERT
  5
7E3C
  8
3
  6
CONTINUOUS
 62
     0
  2
_OPEN
 10
1213.5496109999999
 20
3324.3259419999999
 30
0.0
 41
60.0
 42
60.0
 43
60.0
 50
90.0
  0
INSERT
  5
7E3D
  8
3
  6
CONTINUOUS
 62
     0
  2
_OPEN
 10
1213.5496109999999
 20
2699.3259419999999
 30
0.0
 41
60.0
 42
60.0
 43
60.0
 50
270.0
  0
TEXT
  8
3
  40
90
  5
7EB5
  62
0
  72
0
  71
0
 10
958.550
 20
2852.53
 30
0.000000
  1
625
  0
POINT
  5
7E3F
  8
DEFPOINTS
  6
CONTINUOUS
 62
     0
 10
1400.78277
 20
3324.3259419999999
 30
0.0
  0
POINT
  5
7E40
  8
DEFPOINTS
  6
CONTINUOUS
 62
     0
 10
1582.4891990000001
 20
2699.3259419999999
 30
0.0
  0
POINT
  5
7E41
  8
DEFPOINTS
  6
CONTINUOUS
 62
     0
 10
1213.5496109999999
 20
2699.3259419999999
 30
0.0
  0
ENDBLK
  5
7B95
  8
0
  0
BLOCK
  8
0
  2
*D4
 70
     1
 10
0.0
 20
0.0
 30
0.0
  3
*D4
  1

  0
LINE
  5
7E42
  8
3
  6
CONTINUOUS
 62
     0
 10
1517.4891990000001
 20
4075.3259419999999
 30
0.0
 11
1517.4891990000001
 21
4234.5532999999987
 31
0.0
  0
LINE
  5
7E43
  8
3
  6
CONTINUOUS
 62
     0
 10
2052.4891989999992
 20
4125.4383809999999
 30
0.0
 11
2052.4891989999992
 21
4234.5532999999987
 31
0.0
  0
LINE
  5
7E44
  8
3
  6
CONTINUOUS
 62
     0
 10
1577.4891990000001
 20
4204.5532999999987
 30
0.0
 11
1992.489198999999
 21
4204.5532999999987
 31
0.0
  0
INSERT
  5
7E45
  8
3
  6
CONTINUOUS
 62
     0
  2
_OPEN
 10
1517.4891990000001
 20
4204.5532999999987
 30
0.0
 41
60.0
 42
60.0
 43
60.0
 50
180.0
  0
INSERT
  5
7E46
  8
3
  6
CONTINUOUS
 62
     0
  2
_OPEN
 10
2052.4891989999992
 20
4204.5532999999987
 30
0.0
 41
60.0
 42
60.0
 43
60.0
  0
TEXT
  8
3
  40
90
  5
7EB6
  62
0
  72
0
  71
0
 10
1615.35
 20
4120.25
 30
0.000000
  1
535
  0
POINT
  5
7E48
  8
DEFPOINTS
  6
CONTINUOUS
 62
     0
 10
1517.4891990000001
 20
4060.3259420000009
 30
0.0
  0
POINT
  5
7E49
  8
DEFPOINTS
  6
CONTINUOUS
 62
     0
 10
2052.4891989999992
 20
4110.4383809999999
 30
0.0
  0
POINT
  5
7E4A
  8
DEFPOINTS
  6
CONTINUOUS
 62
     0
 10
2052.4891989999992
 20
4204.5532999999987
 30
0.0
  0
ENDBLK
  5
7BA2
  8
0
  0
BLOCK
  8
0
  2
*D5
 70
     1
 10
0.0
 20
0.0
 30
0.0
  3
*D5
  1

  0
LINE
  5
7E4B
  8
3
  6
CONTINUOUS
 62
     0
 10
1582.4891990000001
 20
2684.3259419999999
 30
0.0
 11
1582.4891990000001
 21
2397.419957999999
 31
0.0
  0
LINE
  5
7E4C
  8
3
  6
CONTINUOUS
 62
     0
 10
2052.4891989999992
 20
2439.219431999999
 30
0.0
 11
2052.4891989999992
 21
2397.419957999999
 31
0.0
  0
LINE
  5
7E4D
  8
3
  6
CONTINUOUS
 62
     0
 10
1642.4891990000001
 20
2427.419958
 30
0.0
 11
1992.489198999999
 21
2427.419958
 31
0.0
  0
INSERT
  5
7E4E
  8
3
  6
CONTINUOUS
 62
     0
  2
_OPEN
 10
1582.4891990000001
 20
2427.419958
 30
0.0
 41
60.0
 42
60.0
 43
60.0
 50
180.0
  0
INSERT
  5
7E4F
  8
3
  6
CONTINUOUS
 62
     0
  2
_OPEN
 10
2052.4891989999992
 20
2427.419958
 30
0.0
 41
60.0
 42
60.0
 43
60.0
  0
TEXT
  8
3
  40
90
  5
7EB7
  62
0
  72
0
  71
0
 10
1608.20
 20
2343.12
 30
0.000000
  1
470
  0
POINT
  5
7E51
  8
DEFPOINTS
  6
CONTINUOUS
 62
     0
 10
1582.4891990000001
 20
2699.3259419999999
 30
0.0
  0
POINT
  5
7E52
  8
DEFPOINTS
  6
CONTINUOUS
 62
     0
 10
2052.4891989999992
 20
2454.2194319999999
 30
0.0
  0
POINT
  5
7E53
  8
DEFPOINTS
  6
CONTINUOUS
 62
     0
 10
2052.4891989999992
 20
2427.419958
 30
0.0
  0
ENDBLK
  5
7C6A
  8
0
  0
BLOCK
  8
0
  2
*D6
 70
     1
 10
0.0
 20
0.0
 30
0.0
  3
*D6
  1

  0
LINE
  5
7E54
  8
3
  6
CONTINUOUS
 62
     0
 10
3082.4891989999992
 20
2684.3259419999999
 30
0.0
 11
3082.4891989999992
 21
2397.419957999999
 31
0.0
  0
LINE
  5
7E55
  8
3
  6
CONTINUOUS
 62
     0
 10
2112.4891990000001
 20
2427.419958
 30
0.0
 11
3022.4891989999992
 21
2427.419958
 31
0.0
  0
INSERT
  5
7E56
  8
3
  6
CONTINUOUS
 62
     0
  2
_OPEN
 10
2052.4891989999992
 20
2427.419958
 30
0.0
 41
60.0
 42
60.0
 43
60.0
 50
180.0
  0
INSERT
  5
7E57
  8
3
  6
CONTINUOUS
 62
     0
  2
_OPEN
 10
3082.4891989999992
 20
2427.419958
 30
0.0
 41
60.0
 42
60.0
 43
60.0
  0
TEXT
  8
3
  40
90
  5
7EB8
  62
0
  72
0
  71
0
 10
2387.49
 20
2343.12
 30
0.000000
  1
1030
  0
POINT
  5
7E59
  8
DEFPOINTS
  6
CONTINUOUS
 62
     0
 10
2052.4891989999992
 20
2454.2194319999999
 30
0.0
  0
POINT
  5
7E5A
  8
DEFPOINTS
  6
CONTINUOUS
 62
     0
 10
3082.4891989999992
 20
2699.3259419999999
 30
0.0
  0
POINT
  5
7E5B
  8
DEFPOINTS
  6
CONTINUOUS
 62
     0
 10
3082.4891989999992
 20
2427.419958
 30
0.0
  0
ENDBLK
  5
7C5F
  8
0
  0
BLOCK
  8
0
  2
*D7
 70
     1
 10
0.0
 20
0.0
 30
0.0
  3
*D7
  1

  0
LINE
  5
7E5C
  8
3
  6
CONTINUOUS
 62
     0
 10
1502.4891990000001
 20
4075.3259419999999
 30
0.0
 11
979.54008700000065
 21
4075.3259419999999
 31
0.0
  0
LINE
  5
7E5D
  8
3
  6
CONTINUOUS
 62
     0
 10
1567.4891990000001
 20
2699.3259419999999
 30
0.0
 11
979.54008700000031
 21
2699.3259420000009
 31
0.0
  0
LINE
  5
7E5E
  8
3
  6
CONTINUOUS
 62
     0
 10
1009.540087
 20
4015.3259420000009
 30
0.0
 11
1009.540087
 21
2759.3259420000009
 31
0.0
  0
INSERT
  5
7E5F
  8
3
  6
CONTINUOUS
 62
     0
  2
_OPEN
 10
1009.540087
 20
4075.3259419999999
 30
0.0
 41
60.0
 42
60.0
 43
60.0
 50
90.0
  0
INSERT
  5
7E60
  8
3
  6
CONTINUOUS
 62
     0
  2
_OPEN
 10
1009.540087
 20
2699.3259420000009
 30
0.0
 41
60.0
 42
60.0
 43
60.0
 50
270.0
  0
TEXT
  8
3
  40
90
  5
7EB9
  62
0
  72
0
  71
0
 10
754.540
 20
3207.33
 30
0.000000
  1
1376
  0
POINT
  5
7E62
  8
DEFPOINTS
  6
CONTINUOUS
 62
     0
 10
1517.4891990000001
 20
4075.3259419999999
 30
0.0
  0
POINT
  5
7E63
  8
DEFPOINTS
  6
CONTINUOUS
 62
     0
 10
1582.4891990000001
 20
2699.3259419999999
 30
0.0
  0
POINT
  5
7E64
  8
DEFPOINTS
  6
CONTINUOUS
 62
     0
 10
1009.540087
 20
2699.3259420000009
 30
0.0
  0
ENDBLK
  5
7BD4
  8
0
  0
BLOCK
  8
0
  2
*D8
 70
     1
 10
0.0
 20
0.0
 30
0.0
  3
*D8
  1

  0
LINE
  5
7E65
  8
3
  6
CONTINUOUS
 62
     0
 10
4048.9695670000001
 20
2684.3259419999999
 30
0.0
 11
4048.9695670000001
 21
2424.8429539999988
 31
0.0
  0
LINE
  5
7E66
  8
3
  6
CONTINUOUS
 62
     0
 10
4491.9695670000001
 20
2503.4730669999999
 30
0.0
 11
4491.9695670000001
 21
2424.8429539999988
 31
0.0
  0
LINE
  5
7E67
  8
3
  6
CONTINUOUS
 62
     0
 10
4108.9695670000001
 20
2454.8429540000002
 30
0.0
 11
4431.9695670000001
 21
2454.8429540000002
 31
0.0
  0
INSERT
  5
7E68
  8
3
  6
CONTINUOUS
 62
     0
  2
_OPEN
 10
4048.9695670000001
 20
2454.8429540000002
 30
0.0
 41
60.0
 42
60.0
 43
60.0
 50
180.0
  0
INSERT
  5
7E69
  8
3
  6
CONTINUOUS
 62
     0
  2
_OPEN
 10
4491.9695670000001
 20
2454.8429540000002
 30
0.0
 41
60.0
 42
60.0
 43
60.0
  0
TEXT
  8
3
  40
90
  5
7EBA
  62
0
  72
0
  71
0
 10
4106.26
 20
2370.54
 30
0.000000
  1
443
  0
POINT
  5
7E6B
  8
DEFPOINTS
  6
CONTINUOUS
 62
     0
 10
4048.9695670000001
 20
2699.3259419999999
 30
0.0
  0
POINT
  5
7E6C
  8
DEFPOINTS
  6
CONTINUOUS
 62
     0
 10
4491.9695670000001
 20
2518.4730669999999
 30
0.0
  0
POINT
  5
7E6D
  8
DEFPOINTS
  6
CONTINUOUS
 62
     0
 10
4491.9695670000001
 20
2454.8429540000002
 30
0.0
  0
ENDBLK
  5
7CB9
  8
0
  0
BLOCK
  8
0
  2
*D9
 70
     1
 10
0.0
 20
0.0
 30
0.0
  3
*D9
  1

  0
LINE
  5
7E6E
  8
3
  6
CONTINUOUS
 62
     0
 10
4808.9695670000001
 20
2684.3259419999999
 30
0.0
 11
4808.9695670000001
 21
2424.8429539999988
 31
0.0
  0
LINE
  5
7E6F
  8
3
  6
CONTINUOUS
 62
     0
 10
4551.9695670000001
 20
2454.8429540000002
 30
0.0
 11
4748.9695670000001
 21
2454.8429540000002
 31
0.0
  0
TEXT
  8
3
  40
90
  5
7EBB
  62
0
  72
0
  71
0
 10
4480.13
 20
2364.93
 30
0.000000
  1
317
  0
INSERT
  5
7E71
  8
3
  6
CONTINUOUS
 62
     0
  2
_OPEN
 10
4491.9695670000001
 20
2454.8429540000002
 30
0.0
 41
60.0
 42
60.0
 43
60.0
 50
180.0
  0
INSERT
  5
7E72
  8
3
  6
CONTINUOUS
 62
     0
  2
_OPEN
 10
4808.9695670000001
 20
2454.8429540000002
 30
0.0
 41
60.0
 42
60.0
 43
60.0
  0
POINT
  5
7E73
  8
DEFPOINTS
  6
CONTINUOUS
 62
     0
 10
4491.9695670000001
 20
2518.4730669999999
 30
0.0
  0
POINT
  5
7E74
  8
DEFPOINTS
  6
CONTINUOUS
 62
     0
 10
4808.9695670000001
 20
2699.3259419999999
 30
0.0
  0
POINT
  5
7E75
  8
DEFPOINTS
  6
CONTINUOUS
 62
     0
 10
4808.9695670000001
 20
2454.8429540000002
 30
0.0
  0
ENDBLK
  5
7CC3
  8
0
  0
BLOCK
  8
0
  2
*D10
 70
     1
 10
0.0
 20
0.0
 30
0.0
  3
*D10
  1

  0
LINE
  5
7E76
  8
3
  6
CONTINUOUS
 62
     0
 10
4756.9695670000001
 20
4035.3259419999999
 30
0.0
 11
4756.9695670000001
 21
4151.5157449999997
 31
0.0
  0
LINE
  5
7E77
  8
3
  6
CONTINUOUS
 62
     0
 10
4226.9695670000001
 20
4035.3259419999999
 30
0.0
 11
4226.9695670000001
 21
4151.5157449999997
 31
0.0
  0
LINE
  5
7E78
  8
3
  6
CONTINUOUS
 62
     0
 10
4696.9695670000001
 20
4121.5157449999997
 30
0.0
 11
4286.9695669999992
 21
4121.5157449999997
 31
0.0
  0
INSERT
  5
7E79
  8
3
  6
CONTINUOUS
 62
     0
  2
_OPEN
 10
4756.9695670000001
 20
4121.5157449999997
 30
0.0
 41
60.0
 42
60.0
 43
60.0
  0
INSERT
  5
7E7A
  8
3
  6
CONTINUOUS
 62
     0
  2
_OPEN
 10
4226.9695670000001
 20
4121.5157449999997
 30
0.0
 41
60.0
 42
60.0
 43
60.0
 50
180.0
  0
TEXT
  8
3
  40
90
  5
7EBC
  62
0
  72
0
  71
0
 10
4304.51
 20
4037.22
 30
0.000000
  1
530
  0
POINT
  5
7E7C
  8
DEFPOINTS
  6
CONTINUOUS
 62
     0
 10
4756.9695670000001
 20
4020.3259419999999
 30
0.0
  0
POINT
  5
7E7D
  8
DEFPOINTS
  6
CONTINUOUS
 62
     0
 10
4226.9695670000001
 20
4020.3259419999999
 30
0.0
  0
POINT
  5
7E7E
  8
DEFPOINTS
  6
CONTINUOUS
 62
     0
 10
4226.9695670000001
 20
4121.5157449999997
 30
0.0
  0
ENDBLK
  5
7BFC
  8
0
  0
BLOCK
  8
0
  2
*D11
 70
     1
 10
0.0
 20
0.0
 30
0.0
  3
*D11
  1

  0
LINE
  5
7E7F
  8
3
  6
CONTINUOUS
 62
     0
 10
4773.9695670000001
 20
3701.3259419999999
 30
0.0
 11
5066.0911680000008
 21
3701.3259419999999
 31
0.0
  0
LINE
  5
7E80
  8
3
  6
CONTINUOUS
 62
     0
 10
4773.9695670000001
 20
2947.3259419999999
 30
0.0
 11
5066.0911680000008
 21
2947.3259419999999
 31
0.0
  0
LINE
  5
7E81
  8
3
  6
CONTINUOUS
 62
     0
 10
5036.0911680000008
 20
3641.3259419999999
 30
0.0
 11
5036.0911680000008
 21
3007.3259419999999
 31
0.0
  0
INSERT
  5
7E82
  8
3
  6
CONTINUOUS
 62
     0
  2
_OPEN
 10
5036.0911680000008
 20
3701.3259419999999
 30
0.0
 41
60.0
 42
60.0
 43
60.0
 50
90.0
  0
INSERT
  5
7E83
  8
3
  6
CONTINUOUS
 62
     0
  2
_OPEN
 10
5036.0911680000008
 20
2947.3259419999999
 30
0.0
 41
60.0
 42
60.0
 43
60.0
 50
270.0
  0
TEXT
  8
3
  40
90
  5
7EBD
  62
0
  72
0
  71
0
 10
4781.09
 20
3131.84
 30
0.000000
  1
φ754
  0
POINT
  5
7E85
  8
DEFPOINTS
  6
CONTINUOUS
 62
     0
 10
4758.9695670000001
 20
3701.3259419999999
 30
0.0
  0
POINT
  5
7E86
  8
DEFPOINTS
  6
CONTINUOUS
 62
     0
 10
4758.9695670000001
 20
2947.3259419999999
 30
0.0
  0
POINT
  5
7E87
  8
DEFPOINTS
  6
CONTINUOUS
 62
     0
 10
5036.0911680000008
 20
2947.3259419999999
 30
0.0
  0
ENDBLK
  5
7D48
  8
0
  0
BLOCK
  8
0
  2
*D12
 70
     1
 10
0.0
 20
0.0
 30
0.0
  3
*D12
  1

  0
LINE
  5
7D2A
  8
0
  6
BYBLOCK
 62
     0
 10
4758.9695670000001
 20
3716.3259419999999
 30
0.0
 11
4758.9695670000001
 21
4362.8840600000003
 31
0.0
  0
LINE
  5
7D2B
  8
0
  6
BYBLOCK
 62
     0
 10
4491.9695670000001
 20
4306.9777139999997
 30
0.0
 11
4491.9695670000001
 21
4362.8840600000003
 31
0.0
  0
LINE
  5
7D2C
  8
0
  6
BYBLOCK
 62
     0
 10
4698.9695670000001
 20
4332.8840600000003
 30
0.0
 11
4551.9695670000001
 21
4332.8840600000003
 31
0.0
  0
TEXT
  5
7D2D
  8
3
 62
     0
 10
4528.9800036792012
 20
4370.3143608444771
 30
0.0
 40
90.0
  1
267
  0
INSERT
  5
7D2E
  8
0
  6
BYBLOCK
 62
     0
  2
_OPEN
 10
4758.9695670000001
 20
4332.8840600000003
 30
0.0
 41
60.0
 42
60.0
 43
60.0
  0
INSERT
  5
7D2F
  8
0
  6
BYBLOCK
 62
     0
  2
_OPEN
 10
4491.9695670000001
 20
4332.8840600000003
 30
0.0
 41
60.0
 42
60.0
 43
60.0
 50
180.0
  0
POINT
  5
7D30
  8
DEFPOINTS
  6
BYBLOCK
 62
     0
 10
4758.9695670000001
 20
3701.3259419999999
 30
0.0
  0
POINT
  5
7D31
  8
DEFPOINTS
  6
BYBLOCK
 62
     0
 10
4491.9695670000001
 20
4291.9777139999997
 30
0.0
  0
POINT
  5
7D32
  8
DEFPOINTS
  6
BYBLOCK
 62
     0
 10
4491.9695670000001
 20
4332.8840600000003
 30
0.0
  0
ENDBLK
  5
7D33
  8
0
  0
BLOCK
  8
0
  2
*D13
 70
     1
 10
0.0
 20
0.0
 30
0.0
  3
*D13
  1

  0
LINE
  5
7E88
  8
3
  6
CONTINUOUS
 62
     0
 10
3991.9695670000001
 20
3954.3259419999999
 30
0.0
 11
3991.9695670000001
 21
4362.8840600000003
 31
0.0
  0
LINE
  5
7E89
  8
3
  6
CONTINUOUS
 62
     0
 10
4431.9695670000001
 20
4332.8840600000003
 30
0.0
 11
4051.9695670000001
 21
4332.8840600000003
 31
0.0
  0
INSERT
  5
7E8A
  8
3
  6
CONTINUOUS
 62
     0
  2
_OPEN
 10
4491.9695670000001
 20
4332.8840600000003
 30
0.0
 41
60.0
 42
60.0
 43
60.0
  0
INSERT
  5
7E8B
  8
3
  6
CONTINUOUS
 62
     0
  2
_OPEN
 10
3991.9695670000001
 20
4332.8840600000003
 30
0.0
 41
60.0
 42
60.0
 43
60.0
 50
180.0
  0
TEXT
  8
3
  40
90
  5
7EBE
  62
0
  72
0
  71
0
 10
4061.97
 20
4323.58
 30
0.000000
  1
MAX
  0
TEXT
  8
3
  40
90
  5
7EBF
  62
0
  72
0
  71
0
 10
4061.97
 20
4206.58
 30
0.000000
  1
560
  0
POINT
  5
7E8D
  8
DEFPOINTS
  6
CONTINUOUS
 62
     0
 10
4491.9695670000001
 20
4291.9777139999997
 30
0.0
  0
POINT
  5
7E8E
  8
DEFPOINTS
  6
CONTINUOUS
 62
     0
 10
3991.9695670000001
 20
3939.3259419999999
 30
0.0
  0
POINT
  5
7E8F
  8
DEFPOINTS
  6
CONTINUOUS
 62
     0
 10
3991.9695670000001
 20
4332.8840600000003
 30
0.0
  0
ENDBLK
  5
7D3D
  8
0
  0
BLOCK
  8
0
  2
*D14
 70
     1
 10
0.0
 20
0.0
 30
0.0
  3
*D14
  1

  0
LINE
  5
7E90
  8
3
  6
CONTINUOUS
 62
     0
 10
1582.489198999999
 20
5960.6655482729284
 30
0.0
 11
1582.489198999999
 21
6210.8809432729286
 31
0.0
  0
LINE
  5
7E91
  8
3
  6
CONTINUOUS
 62
     0
 10
3082.4891989999992
 20
5960.6655482729284
 30
0.0
 11
3082.4891989999992
 21
6210.8809432729286
 31
0.0
  0
LINE
  5
7E92
  8
3
  6
CONTINUOUS
 62
     0
 10
1642.489198999999
 20
6180.8809432729277
 30
0.0
 11
3022.4891989999992
 21
6180.8809432729277
 31
0.0
  0
INSERT
  5
7E93
  8
3
  6
CONTINUOUS
 62
     0
  2
_OPEN
 10
1582.489198999999
 20
6180.8809432729277
 30
0.0
 41
60.0
 42
60.0
 43
60.0
 50
180.0
  0
INSERT
  5
7E94
  8
3
  6
CONTINUOUS
 62
     0
  2
_OPEN
 10
3082.4891989999992
 20
6180.8809432729277
 30
0.0
 41
60.0
 42
60.0
 43
60.0
  0
TEXT
  8
3
  40
90
  5
7EC0
  62
0
  72
0
  71
0
 10
2128.41
 20
6096.58
 30
0.000000
  1
1500
  0
POINT
  5
7E96
  8
DEFPOINTS
  6
CONTINUOUS
 62
     0
 10
1582.489198999999
 20
5945.6655482729284
 30
0.0
  0
POINT
  5
7E97
  8
DEFPOINTS
  6
CONTINUOUS
 62
     0
 10
3082.4891989999992
 20
5945.6655482729284
 30
0.0
  0
POINT
  5
7E98
  8
DEFPOINTS
  6
CONTINUOUS
 62
     0
 10
3082.4891989999992
 20
6180.8809432729277
 30
0.0
  0
ENDBLK
  5
7C8C
  8
0
  0
BLOCK
  8
0
  2
*D15
 70
     1
 10
0.0
 20
0.0
 30
0.0
  3
*D15
  1

  0
LINE
  5
7E99
  8
3
  6
CONTINUOUS
 62
     0
 10
3097.4891989999992
 20
5945.6655482729284
 30
0.0
 11
3373.567625000001
 21
5945.6655482729284
 31
0.0
  0
LINE
  5
7E9A
  8
3
  6
CONTINUOUS
 62
     0
 10
3097.4891989999992
 20
5185.6655482729293
 30
0.0
 11
3373.567625000001
 21
5185.6655482729293
 31
0.0
  0
LINE
  5
7E9B
  8
3
  6
CONTINUOUS
 62
     0
 10
3343.567625000001
 20
5885.6655482729284
 30
0.0
 11
3343.567625000001
 21
5245.6655482729284
 31
0.0
  0
INSERT
  5
7E9C
  8
3
  6
CONTINUOUS
 62
     0
  2
_OPEN
 10
3343.567625000001
 20
5945.6655482729284
 30
0.0
 41
60.0
 42
60.0
 43
60.0
 50
90.0
  0
INSERT
  5
7E9D
  8
3
  6
CONTINUOUS
 62
     0
  2
_OPEN
 10
3343.567625000001
 20
5185.6655482729293
 30
0.0
 41
60.0
 42
60.0
 43
60.0
 50
270.0
  0
TEXT
  8
3
  40
90
  5
7EC1
  62
0
  72
0
  71
0
 10
3088.57
 20
5365.03
 30
0.000000
  1
760
  0
POINT
  5
7E9F
  8
DEFPOINTS
  6
CONTINUOUS
 62
     0
 10
3082.4891989999992
 20
5945.6655482729284
 30
0.0
  0
POINT
  5
7EA0
  8
DEFPOINTS
  6
CONTINUOUS
 62
     0
 10
3082.4891989999992
 20
5185.6655482729293
 30
0.0
  0
POINT
  5
7EA1
  8
DEFPOINTS
  6
CONTINUOUS
 62
     0
 10
3343.567625000001
 20
5185.6655482729293
 30
0.0
  0
ENDBLK
  5
7C4F
  8
0
  0
BLOCK
  8
0
  2
*D16
 70
     1
 10
0.0
 20
0.0
 30
0.0
  3
*D16
  1

  0
LINE
  5
7EA2
  8
3
  6
CONTINUOUS
 62
     0
 10
2638.4867250000002
 20
3339.3259419999999
 30
0.0
 11
2638.4867250000002
 21
4234.5532999999987
 31
0.0
  0
LINE
  5
7EA3
  8
3
  6
CONTINUOUS
 62
     0
 10
2112.4891990000001
 20
4204.5532999999987
 30
0.0
 11
2578.4867250000002
 21
4204.5532999999987
 31
0.0
  0
INSERT
  5
7EA4
  8
3
  6
CONTINUOUS
 62
     0
  2
_OPEN
 10
2052.4891989999992
 20
4204.5532999999987
 30
0.0
 41
60.0
 42
60.0
 43
60.0
 50
180.0
  0
INSERT
  5
7EA5
  8
3
  6
CONTINUOUS
 62
     0
  2
_OPEN
 10
2638.4867250000002
 20
4204.5532999999987
 30
0.0
 41
60.0
 42
60.0
 43
60.0
  0
TEXT
  8
3
  40
90
  5
7EC2
  62
0
  72
0
  71
0
 10
2165.49
 20
4120.25
 30
0.000000
  1
586
  0
POINT
  5
7EA7
  8
DEFPOINTS
  6
CONTINUOUS
 62
     0
 10
2052.4891989999992
 20
4110.4383809999999
 30
0.0
  0
POINT
  5
7EA8
  8
DEFPOINTS
  6
CONTINUOUS
 62
     0
 10
2638.4867250000002
 20
3324.3259419999999
 30
0.0
  0
POINT
  5
7EA9
  8
DEFPOINTS
  6
CONTINUOUS
 62
     0
 10
2638.4867250000002
 20
4204.5532999999987
 30
0.0
  0
ENDBLK
  5
7C75
  8
0
  0
BLOCK
  8
0
  2
*D17
 70
     1
 10
0.0
 20
0.0
 30
0.0
  3
*D17
  1

  0
LINE
  5
7EAA
  8
3
 62
     0
 10
1517.4891990000001
 20
4075.3259419999999
 30
0.0
 11
1517.4891990000001
 21
4398.9446253464812
 31
0.0
  0
LINE
  5
7EAB
  8
3
 62
     0
 10
3082.4891989999992
 20
2814.3259419999999
 30
0.0
 11
3082.4891989999992
 21
4398.9446253464812
 31
0.0
  0
LINE
  5
7EAC
  8
3
 62
     0
 10
1577.4891990000001
 20
4368.9446253464821
 30
0.0
 11
3022.4891989999992
 21
4368.9446253464821
 31
0.0
  0
INSERT
  5
7EAD
  8
3
 62
     0
  2
_OPEN
 10
1517.4891990000001
 20
4368.9446253464821
 30
0.0
 41
60.0
 42
60.0
 43
60.0
 50
180.0
  0
INSERT
  5
7EAE
  8
3
 62
     0
  2
_OPEN
 10
3082.4891989999992
 20
4368.9446253464821
 30
0.0
 41
60.0
 42
60.0
 43
60.0
  0
TEXT
  8
3
  40
90
  5
7EC3
  62
0
  72
0
  71
0
 10
2144.29
 20
4284.64
 30
0.000000
  1
1565
  0
POINT
  5
7EB0
  8
DEFPOINTS
 62
     0
 10
1517.4891990000001
 20
4060.3259420000009
 30
0.0
  0
POINT
  5
7EB1
  8
DEFPOINTS
 62
     0
 10
3082.4891989999992
 20
2799.3259419999999
 30
0.0
  0
POINT
  5
7EB2
  8
DEFPOINTS
 62
     0
 10
3082.4891989999992
 20
4368.9446253464821
 30
0.0
  0
ENDBLK
  5
7D1C
  8
0
  0
ENDSEC
  0
SECTION
  2
ENTITIES
  0
LINE
  5
7A9F
  8
1
  6
CONTINUOUS
 10
1582.489198999999
 20
5945.6655482729284
 30
0.0
 11
3082.4891989999992
 21
5945.6655482729284
 31
0.0
  0
LINE
  5
7AA0
  8
1
  6
CONTINUOUS
 10
1682.489198999999
 20
5268.6655482729284
 30
0.0
 11
3042.4891989999992
 21
5268.6655482729284
 31
0.0
  0
LINE
  5
7AA1
  8
1
  6
CONTINUOUS
 10
1682.489198999999
 20
3939.3259419999999
 30
0.0
 11
2202.4891989999992
 21
3939.3259419999999
 31
0.0
  0
LINE
  5
7AA2
  8
1
  6
CONTINUOUS
 10
1682.489198999999
 20
5128.6655482729293
 30
0.0
 11
3042.4891989999992
 21
5128.6655482729293
 31
0.0
  0
LINE
  5
7AA3
  8
1
  6
CONTINUOUS
 10
1517.489198999999
 20
5893.6655482729284
 30
0.0
 11
2640.2291989999999
 21
5893.6655482729284
 31
0.0
  0
LINE
  5
7AA4
  8
1
  6
CONTINUOUS
 10
1517.489198999999
 20
5363.6655482729284
 30
0.0
 11
2640.2291989999999
 21
5363.6655482729284
 31
0.0
  0
LINE
  5
7AA5
  8
1
  6
CONTINUOUS
 10
1582.489198999999
 20
5185.6655482729293
 30
0.0
 11
1902.489198999999
 21
5185.6655482729293
 31
0.0
  0
LINE
  5
7AA6
  8
1
  6
CONTINUOUS
 10
1582.4891990000001
 20
2699.3259419999999
 30
0.0
 11
3082.4891989999992
 21
2699.3259419999999
 31
0.0
  0
ARC
  5
7AA7
  8
1
  6
CONTINUOUS
 10
2082.4891989999992
 20
3294.3259419999999
 30
0.0
 40
478.79000000000002
 50
180.47999999999999
 51
262.56999999999999
  0
LINE
  5
7AA8
  8
1
  6
CONTINUOUS
 10
1517.4891990000001
 20
4020.3259419999999
 30
0.0
 11
2052.4891989999992
 21
4004.3259419999999
 31
0.0
  0
LINE
  5
7AA9
  8
1
  6
CONTINUOUS
 10
1570.4891990000001
 20
2799.3259419999999
 30
0.0
 11
3082.4891989999992
 21
2799.3259419999999
 31
0.0
  0
LINE
  5
7AAA
  8
1
  6
CONTINUOUS
 10
1570.4891990000001
 20
3806.3259419999999
 30
0.0
 11
2534.4891989999992
 21
3806.3259419999999
 31
0.0
  0
LINE
  5
7AAC
  8
1
  6
CONTINUOUS
 10
1682.489198999999
 20
2799.3259419999999
 30
0.0
 11
1682.489198999999
 21
3939.3259419999999
 31
0.0
  0
LINE
  5
7AAD
  8
1
  6
CONTINUOUS
 10
1547.4891990000001
 20
3290.3259419999999
 30
0.0
 11
1547.4891990000001
 21
4019.4259419999998
 31
0.0
  0
LINE
  5
7AAE
  8
1
  6
CONTINUOUS
 10
1570.4891990000001
 20
3806.3259419999999
 30
0.0
 11
1570.4891990000001
 21
2799.3259419999999
 31
0.0
  0
LINE
  5
7AAF
  8
1
  6
CONTINUOUS
 10
1517.4891990000001
 20
3250.3259419999999
 30
0.0
 11
1517.4891990000001
 21
4060.3259420000009
 31
0.0
  0
LINE
  5
7AB0
  8
1
  6
CONTINUOUS
 10
1582.4891990000001
 20
2799.3259419999999
 30
0.0
 11
1582.4891990000001
 21
2699.3259419999999
 31
0.0
  0
LINE
  5
7AB1
  8
1
  6
CONTINUOUS
 10
1603.7191989999999
 20
3290.3259419999999
 30
0.0
 11
1517.4891990000001
 21
3290.3259419999999
 31
0.0
  0
LINE
  5
7AB2
  8
1
  6
CONTINUOUS
 10
1582.489198999999
 20
5363.6655482729284
 30
0.0
 11
1582.489198999999
 21
5185.6655482729293
 31
0.0
  0
LINE
  5
7AB3
  8
1
  6
CONTINUOUS
 10
1682.489198999999
 20
5128.6655482729293
 30
0.0
 11
1682.489198999999
 21
5268.6655482729284
 31
0.0
  0
LINE
  5
7AB4
  8
1
  6
CONTINUOUS
 10
1517.489198999999
 20
5933.6655482729284
 30
0.0
 11
1517.489198999999
 21
5323.6655482729284
 31
0.0
  0
LINE
  5
7AB5
  8
1
  6
CONTINUOUS
 10
1582.489198999999
 20
5945.6655482729284
 30
0.0
 11
1582.489198999999
 21
5893.6655482729284
 31
0.0
  0
LINE
  5
7AB7
  8
1
  6
CONTINUOUS
 10
2202.4891989999992
 20
3939.3259419999999
 30
0.0
 11
3042.4891989999992
 21
3099.3259419999999
 31
0.0
  0
ARC
  5
7AB8
  8
1
  6
CONTINUOUS
 10
2005.489198999999
 20
3371.3259419999999
 30
0.0
 40
634.74000000000001
 50
354.68999999999988
 51
85.750000000000014
  0
LINE
  5
7AB9
  8
1
  6
CONTINUOUS
 10
2534.4891989999992
 20
3806.3259419999999
 30
0.0
 11
2534.4891989999992
 21
2799.3259419999999
 31
0.0
  0
LINE
  5
7AC2
  8
1
  6
CONTINUOUS
 10
2008.0491989999989
 20
3181.055942
 30
0.0
 11
2840.2591990000001
 21
2922.9159420000001
 31
0.0
  0
LINE
  5
7AC3
  8
1
  6
CONTINUOUS
 10
2119.229198999999
 20
3458.6559419999999
 30
0.0
 11
2899.5591989999998
 21
3070.9659419999998
 31
0.0
  0
ARC
  5
7AC4
  8
1
  6
CONTINUOUS
 10
2091.4891989999992
 20
3363.3259419999999
 30
0.0
 40
548.36999999999989
 50
262.56999999999999
 51
354.68999999999988
  0
CIRCLE
  5
7AC5
  8
1
  6
CONTINUOUS
 10
2052.4891989999992
 20
3324.3259419999999
 30
0.0
 40
150.0
  0
LINE
  5
7AC6
  8
2
  6
CENTER
 10
2052.4891989999992
 20
6054.6390412729279
 30
0.0
 11
2052.4891989999992
 21
5007.9339962729282
 31
0.0
  0
LINE
  5
7AC7
  8
2
  6
CENTER
 10
1400.78277
 20
3324.3259419999999
 30
0.0
 11
3049.3080609999988
 21
3324.3259419999999
 31
0.0
  0
LINE
  5
7AC8
  8
1
  6
CONTINUOUS
 10
3042.4891989999992
 20
2799.3259419999999
 30
0.0
 11
3042.4891989999992
 21
3099.3259419999999
 31
0.0
  0
CIRCLE
  5
7AC9
  8
1
  6
CONTINUOUS
 10
2863.9691989999992
 20
2999.3259419999999
 30
0.0
 40
80.0
  0
ARC
  5
7ACA
  8
1
  6
CONTINUOUS
 10
2863.9691989999992
 20
2999.3259419999999
 30
0.0
 40
162.0
 50
324.97000000000003
 51
215.02999999999989
  0
LINE
  5
7ACB
  8
1
  6
CONTINUOUS
 10
3017.9691989999992
 20
2857.3259419999999
 30
0.0
 11
2996.6191989999988
 21
2906.3359420000002
 31
0.0
  0
LINE
  5
7ACC
  8
1
  6
CONTINUOUS
 10
3017.9691989999992
 20
2799.3259419999999
 30
0.0
 11
3017.9691989999992
 21
2857.3259419999999
 31
0.0
  0
LINE
  5
7ACD
  8
2
  6
CENTER
 10
2943.9691989999992
 20
2999.3259419999999
 30
0.0
 11
2783.9691989999992
 21
2999.3259419999999
 31
0.0
  0
LINE
  5
7ACE
  8
2
  6
CENTER
 10
2863.9691989999992
 20
2919.3259419999999
 30
0.0
 11
2863.9691989999992
 21
3079.3259419999999
 31
0.0
  0
LINE
  5
7ACF
  8
1
  6
CONTINUOUS
 10
2709.9691989999992
 20
2799.3259419999999
 30
0.0
 11
2709.9691989999992
 21
2857.3259419999999
 31
0.0
  0
LINE
  5
7AD0
  8
1
  6
CONTINUOUS
 10
2709.9691989999992
 20
2857.3259419999999
 30
0.0
 11
2731.3091989999998
 21
2906.3359420000002
 31
0.0
  0
LINE
  5
7AD1
  8
1
  6
CONTINUOUS
 10
3082.4891989999992
 20
2799.3259419999999
 30
0.0
 11
3082.4891989999992
 21
2699.3259419999999
 31
0.0
  0
LINE
  5
7AE7
  8
1
  6
CONTINUOUS
 10
2031.489198999999
 20
5238.6655482729284
 30
0.0
 11
2031.489198999999
 21
5363.6655482729284
 31
0.0
  0
LINE
  5
7AE8
  8
1
  6
CONTINUOUS
 10
2073.4891989999992
 20
5238.6655482729284
 30
0.0
 11
2073.4891989999992
 21
5363.6655482729284
 31
0.0
  0
LINE
  5
7AE9
  8
1
  6
CONTINUOUS
 10
3042.4891989999992
 20
5128.6655482729293
 30
0.0
 11
3042.4891989999992
 21
5268.6655482729284
 31
0.0
  0
LINE
  5
7AEA
  8
1
  6
CONTINUOUS
 10
3082.4891989999992
 20
5945.6655482729284
 30
0.0
 11
3082.4891989999992
 21
5185.6655482729293
 31
0.0
  0
LINE
  5
7AEB
  8
1
  6
CONTINUOUS
 10
2884.9691990000001
 20
5238.6655482729284
 30
0.0
 11
2884.9691990000001
 21
5324.6755482729277
 31
0.0
  0
LINE
  5
7AEC
  8
1
  6
CONTINUOUS
 10
2842.9691990000001
 20
5238.6655482729284
 30
0.0
 11
2842.9691990000001
 21
5324.6755482729277
 31
0.0
  0
LINE
  5
7AED
  8
1
  6
CONTINUOUS
 10
2202.4891989999992
 20
5185.6655482729293
 30
0.0
 11
2783.9691989999992
 21
5185.6655482729293
 31
0.0
  0
LINE
  5
7AEE
  8
1
  6
CONTINUOUS
 10
1902.489198999999
 20
5238.6655482729284
 30
0.0
 11
2202.4891989999992
 21
5238.6655482729284
 31
0.0
  0
LINE
  5
7AEF
  8
1
  6
CONTINUOUS
 10
1902.489198999999
 20
5158.6655482729284
 30
0.0
 11
2202.4891989999992
 21
5158.6655482729284
 31
0.0
  0
LINE
  5
7AF0
  8
1
  6
CONTINUOUS
 10
1902.489198999999
 20
5158.6655482729284
 30
0.0
 11
1902.489198999999
 21
5238.6655482729284
 31
0.0
  0
LINE
  5
7AF1
  8
1
  6
CONTINUOUS
 10
2202.4891989999992
 20
5158.6655482729284
 30
0.0
 11
2202.4891989999992
 21
5238.6655482729284
 31
0.0
  0
LINE
  5
7AF2
  8
1
  6
CONTINUOUS
 10
2943.9691989999992
 20
5185.6655482729293
 30
0.0
 11
3082.4891989999992
 21
5185.6655482729293
 31
0.0
  0
LINE
  5
7AF3
  8
1
  6
CONTINUOUS
 10
2783.9691989999992
 20
5238.6655482729284
 30
0.0
 11
2943.9691989999992
 21
5238.6655482729284
 31
0.0
  0
LINE
  5
7AF4
  8
1
  6
CONTINUOUS
 10
2783.9691989999992
 20
5158.6655482729284
 30
0.0
 11
2943.9691989999992
 21
5158.6655482729284
 31
0.0
  0
LINE
  5
7AF5
  8
1
  6
CONTINUOUS
 10
2783.9691989999992
 20
5158.6655482729284
 30
0.0
 11
2783.9691989999992
 21
5238.6655482729284
 31
0.0
  0
LINE
  5
7AF6
  8
1
  6
CONTINUOUS
 10
2943.9691989999992
 20
5158.6655482729284
 30
0.0
 11
2943.9691989999992
 21
5238.6655482729284
 31
0.0
  0
LINE
  5
7AF7
  8
1
  6
CONTINUOUS
 10
2640.2291989999999
 20
5893.6655482729284
 30
0.0
 11
2640.2291989999999
 21
5363.6655482729284
 31
0.0
  0
LINE
  5
7AF8
  8
1
  6
CONTINUOUS
 10
3030.9491990000001
 20
5324.6755482729277
 30
0.0
 11
3030.9491990000001
 21
5780.61554827293
 31
0.0
  0
LINE
  5
7AF9
  8
1
  6
CONTINUOUS
 10
2701.9691990000001
 20
5324.6755482729277
 30
0.0
 11
2701.9691990000001
 21
5780.61554827293
 31
0.0
  0
LINE
  5
7AFA
  8
1
  6
CONTINUOUS
 10
3030.9491990000001
 20
5324.6755482729277
 30
0.0
 11
2701.9691990000001
 21
5324.6755482729277
 31
0.0
  0
LINE
  5
7AFB
  8
1
  6
CONTINUOUS
 10
3030.9491990000001
 20
5780.61554827293
 30
0.0
 11
2701.9691990000001
 21
5780.61554827293
 31
0.0
  0
LINE
  5
7B1E
  8
1
  6
CONTINUOUS
 10
4226.9695670000001
 20
4020.3259419999999
 30
0.0
 11
4226.9695670000001
 21
2799.3259419999999
 31
0.0
  0
LINE
  5
7B1F
  8
1
  6
CONTINUOUS
 10
4756.9695670000001
 20
4020.3259419999999
 30
0.0
 11
4756.9695670000001
 21
2799.3259419999999
 31
0.0
  0
LINE
  5
7B20
  8
1
  6
CONTINUOUS
 10
4756.9695670000001
 20
4020.3259419999999
 30
0.0
 11
4226.9695670000001
 21
3290.3259419999999
 31
0.0
  0
LINE
  5
7B21
  8
1
  6
CONTINUOUS
 10
4226.9695670000001
 20
4020.3259419999999
 30
0.0
 11
4756.9695670000001
 21
3290.3259419999999
 31
0.0
  0
LINE
  5
7B22
  8
1
  6
CONTINUOUS
 10
3991.9695670000001
 20
3939.3259419999999
 30
0.0
 11
3991.9695670000001
 21
2799.3259419999999
 31
0.0
  0
LINE
  5
7B23
  8
1
  6
CONTINUOUS
 10
4131.9695670000001
 20
3939.3259419999999
 30
0.0
 11
4131.9695670000001
 21
2799.3259419999999
 31
0.0
  0
LINE
  5
7B24
  8
1
  6
CONTINUOUS
 10
4808.9695670000001
 20
2699.3259419999999
 30
0.0
 11
4048.9695670000001
 21
2699.3259419999999
 31
0.0
  0
LINE
  5
7B25
  8
1
  6
CONTINUOUS
 10
4808.9695670000001
 20
2799.3259419999999
 30
0.0
 11
3991.9695670000001
 21
2799.3259419999999
 31
0.0
  0
LINE
  5
7B26
  8
1
  6
CONTINUOUS
 10
4101.9695670000001
 20
2980.3259419999999
 30
0.0
 11
4226.9695670000001
 21
2980.3259419999999
 31
0.0
  0
LINE
  5
7B27
  8
1
  6
CONTINUOUS
 10
4101.9695670000001
 20
2938.3259419999999
 30
0.0
 11
4226.9695670000001
 21
2938.3259419999999
 31
0.0
  0
LINE
  5
7B28
  8
1
  6
CONTINUOUS
 10
4101.9695670000001
 20
3303.3259419999999
 30
0.0
 11
4226.9695670000001
 21
3303.3259419999999
 31
0.0
  0
LINE
  5
7B29
  8
1
  6
CONTINUOUS
 10
4101.9695670000001
 20
3345.3259419999999
 30
0.0
 11
4226.9695670000001
 21
3345.3259419999999
 31
0.0
  0
LINE
  5
7B2A
  8
1
  6
CONTINUOUS
 10
4048.9695670000001
 20
2799.3259419999999
 30
0.0
 11
4048.9695670000001
 21
2699.3259419999999
 31
0.0
  0
LINE
  5
7B2B
  8
1
  6
CONTINUOUS
 10
4101.9695670000001
 20
3174.3259419999999
 30
0.0
 11
4101.9695670000001
 21
3474.3259419999999
 31
0.0
  0
LINE
  5
7B2C
  8
1
  6
CONTINUOUS
 10
4021.9695670000001
 20
3174.3259419999999
 30
0.0
 11
4021.9695670000001
 21
3474.3259419999999
 31
0.0
  0
LINE
  5
7B2D
  8
1
  6
CONTINUOUS
 10
4101.9695670000001
 20
2879.3259419999999
 30
0.0
 11
4101.9695670000001
 21
3039.3259419999999
 31
0.0
  0
LINE
  5
7B2E
  8
1
  6
CONTINUOUS
 10
4021.9695670000001
 20
2879.3259419999999
 30
0.0
 11
4021.9695670000001
 21
3039.3259419999999
 31
0.0
  0
LINE
  5
7B2F
  8
1
  6
CONTINUOUS
 10
4021.9695670000001
 20
3174.3259419999999
 30
0.0
 11
4101.9695670000001
 21
3174.3259419999999
 31
0.0
  0
LINE
  5
7B30
  8
1
  6
CONTINUOUS
 10
4021.9695670000001
 20
3474.3259419999999
 30
0.0
 11
4101.9695670000001
 21
3474.3259419999999
 31
0.0
  0
LINE
  5
7B31
  8
1
  6
CONTINUOUS
 10
4021.9695670000001
 20
2879.3259419999999
 30
0.0
 11
4101.9695670000001
 21
2879.3259419999999
 31
0.0
  0
LINE
  5
7B32
  8
1
  6
CONTINUOUS
 10
4021.9695670000001
 20
3039.3259419999999
 30
0.0
 11
4101.9695670000001
 21
3039.3259419999999
 31
0.0
  0
LINE
  5
7B33
  8
1
  6
CONTINUOUS
 10
4226.9695670000001
 20
3290.3259419999999
 30
0.0
 11
4756.9695670000001
 21
3290.3259419999999
 31
0.0
  0
LINE
  5
7B34
  8
1
  6
CONTINUOUS
 10
4808.9695670000001
 20
2799.3259419999999
 30
0.0
 11
4808.9695670000001
 21
2699.3259419999999
 31
0.0
  0
LINE
  5
7B35
  8
1
  6
CONTINUOUS
 10
4131.9695670000001
 20
3939.3259419999999
 30
0.0
 11
3991.9695670000001
 21
3939.3259419999999
 31
0.0
  0
LINE
  5
7B36
  8
1
  6
CONTINUOUS
 10
4226.9695670000001
 20
4020.3259419999999
 30
0.0
 11
4756.9695670000001
 21
4020.3259419999999
 31
0.0
  0
LINE
  5
7B37
  8
2
  6
CENTER
 10
4491.9695670000001
 20
4050.3385499999999
 30
0.0
 11
4491.9695670000001
 21
2518.4730669999999
 31
0.0
  0
LINE
  5
7B39
  8
2
  6
CENTER
 10
2052.4891989999992
 20
4110.4383809999999
 30
0.0
 11
2052.4891989999992
 21
2454.2194319999999
 31
0.0
  0
LINE
  5
7B3A
  8
2
  6
CENTER
 10
3905.1602039999989
 20
3324.3259419999999
 30
0.0
 11
4849.5487649999986
 21
3324.3259419999999
 31
0.0
  0
LINE
  5
7B3B
  8
2
  6
CENTER
 10
3157.3259354842262
 20
5628.6655482729293
 30
0.0
 11
1440.8962750000001
 21
5628.6655482729293
 31
0.0
  0
LINE
  5
7B3D
  8
4
  6
CONTINUOUS
 10
5550.0
 20
1500.0
 30
0.0
 11
5550.0
 21
900.0
 31
0.0
  0
LINE
  5
7B3E
  8
4
  6
CONTINUOUS
 10
3450.0
 20
1500.0
 30
0.0
 11
3450.0
 21
900.0
 31
0.0
  0
LINE
  5
7B3F
  8
4
  6
CONTINUOUS
 10
1950.0
 20
1500.0
 30
0.0
 11
1950.0
 21
900.0
 31
0.0
  0
LINE
  5
7B42
  8
4
  6
CONTINUOUS
 10
1950.0
 20
900.0
 30
0.0
 11
5550.0
 21
900.0
 31
0.0
  0
LINE
  5
7B43
  8
4
  6
CONTINUOUS
 10
1950.0
 20
1200.0
 30
0.0
 11
5550.0
 21
1200.0
 31
0.0
  0
TEXT
  5
7B44
  8
4
  6
CONTINUOUS
 10
2065.5062429999989
 20
1294.6290779999999
 30
0.0
 40
150.0
  1
機器名称
  0
TEXT
  5
7B45
  8
4
  6
CONTINUOUS
 10
2058.7743179999989
 20
964.9354699999999
 30
0.0
 40
150.0
  1
機器型番
  0
TEXT
  5
7B46
  8
4
  6
CONTINUOUS
 10
3533.0362359999999
 20
1267.7153069999999
 30
0.0
 40
150.0
  1
ミツヤ多翼送風機
  0
TEXT
  5
7B47
  8
4
  6
CONTINUOUS
 10
3559.9634869999991
 20
951.47875299999987
 30
0.0
 40
150.0
  1
MF#4 1/2-4
  0
TEXT
  5
7B49
  8
4
  6
CONTINUOUS
 10
2714.3572960000001
 20
7150.2865239999992
 30
0.0
 40
162.0
  1
床置ベット
  0
TEXT
  5
7B4A
  8
4
  6
CONTINUOUS
 10
948.50278000000014
 20
7601.6429289999996
 30
0.0
 40
216.0
  1
ベルト駆動式片吸込両持多翼ファン
  0
LINE
  5
7B4B
  8
4
  6
CONTINUOUS
 10
750.0
 20
7408.2262629999996
 30
0.0
 11
5550.0
 21
7408.2262629999996
 31
0.0
  0
LINE
  5
7B4C
  8
4
  6
CONTINUOUS
 10
750.0
 20
8008.2262629999996
 30
0.0
 11
5550.0
 21
8008.2262629999996
 31
0.0
  0
LINE
  5
7B4D
  8
4
  6
CONTINUOUS
 10
1950.0
 20
1500.0
 30
0.0
 11
5550.0
 21
1500.0
 31
0.0
  0
LINE
  5
7B4E
  8
4
  6
CONTINUOUS
 10
750.0
 20
8008.2262629999996
 30
0.0
 11
750.0
 21
7408.2262629999996
 31
0.0
  0
TEXT
  5
7B4F
  8
4
  6
CONTINUOUS
 10
1118.017082859383
 20
7146.9584329999998
 30
0.0
 40
162.0
  1
左回転左横向
  0
TEXT
  5
7B50
  8
4
  6
CONTINUOUS
 10
4406.9086779999989
 20
8118.1832439999989
 30
0.0
 40
168.0
  1
No.
  0
TEXT
  5
7B51
  8
4
  6
CONTINUOUS
 10
3933.8881879999999
 20
7150.2865239999992
 30
0.0
 40
162.0
  1
縮尺：1/30
  0
LINE
  5
7B52
  8
4
  6
CONTINUOUS
 10
5550.0
 20
8008.2262629999996
 30
0.0
 11
5550.0
 21
7408.2262629999996
 31
0.0
  0
LINE
  5
7B54
  8
4
  6
CONTINUOUS
 10
4321.8522670000002
 20
8043.7907490000007
 30
0.0
 11
4321.8522670000002
 21
8359.9567849999985
 31
0.0
  0
LINE
  5
7B55
  8
4
  6
CONTINUOUS
 10
4321.8522670000002
 20
8359.9567849999985
 30
0.0
 11
5550.0
 21
8359.9567849999985
 31
0.0
  0
LINE
  5
7B56
  8
4
  6
CONTINUOUS
 10
5550.0
 20
8359.9567849999985
 30
0.0
 11
5550.0
 21
8043.7907490000007
 31
0.0
  0
LINE
  5
7B57
  8
4
  6
CONTINUOUS
 10
5550.0
 20
8043.7907490000007
 30
0.0
 11
4321.8522670000002
 21
8043.7907490000007
 31
0.0
  0
DIMENSION
  5
7B6F
  8
3
  6
CONTINUOUS
  2
*D1
 10
1402.4473330000001
 20
3290.3259419999999
 30
0.0
 11
1402.4473330000001
 21
3615.7414819999999
 31
0.0
 70
   128
 13
1517.4891990000001
 23
4020.3259419999999
 33
0.0
 14
1517.4891990000001
 24
3290.3259419999999
 34
0.0
 50
90.0
1001
ACAD
1000
DSTYLE
1002
{
1070
   287
1070
     3
1070
   287
1070
     3
1070
    40
1040
30.0
1070
   143
1040
0.039
1070
   172
1070
     1
1070
   271
1070
     0
1070
   279
1070
     0
1070
   288
1070
     1
1002
}
  0
DIMENSION
  5
7B7C
  8
3
  6
CONTINUOUS
  2
*D2
 10
1213.5496109999999
 20
3324.3259419999999
 30
0.0
 11
1213.5496109999999
 21
3623.2903520000009
 31
0.0
 70
   128
 13
1517.4891990000001
 23
4020.3259419999999
 33
0.0
 14
1400.78277
 24
3324.3259419999999
 34
0.0
 50
90.0
1001
ACAD
1000
DSTYLE
1002
{
1070
   287
1070
     3
1070
   287
1070
     3
1070
    40
1040
30.0
1070
   143
1040
0.039
1070
   172
1070
     1
1070
   271
1070
     0
1070
   279
1070
     0
1070
   288
1070
     1
1002
}
  0
DIMENSION
  5
7B96
  8
3
  6
CONTINUOUS
  2
*D3
 10
1213.5496109999999
 20
2699.3259419999999
 30
0.0
 11
1138.549610999999
 21
3011.8259420000009
 31
0.0
 70
     0
 13
1400.78277
 23
3324.3259419999999
 33
0.0
 14
1582.4891990000001
 24
2699.3259419999999
 34
0.0
 50
90.0
1001
ACAD
1000
DSTYLE
1002
{
1070
   287
1070
     4
1070
   287
1070
     4
1070
    40
1040
30.0
1070
    75
1070
     1
1070
   143
1040
0.039
1070
   172
1070
     1
1070
   271
1070
     0
1070
   279
1070
     1
1070
   288
1070
     1
1002
}
  0
DIMENSION
  5
7BA3
  8
3
  6
CONTINUOUS
  2
*D4
 10
2052.4891989999992
 20
4204.5532999999987
 30
0.0
 11
1795.3545790000001
 21
4204.5532999999987
 31
0.0
 70
   128
 13
1517.4891990000001
 23
4060.3259420000009
 33
0.0
 14
2052.4891989999992
 24
4110.4383809999999
 34
0.0
1001
ACAD
1000
DSTYLE
1002
{
1070
   287
1070
     3
1070
   287
1070
     3
1070
    40
1040
30.0
1070
   143
1040
0.039
1070
   172
1070
     1
1070
   271
1070
     0
1070
   279
1070
     0
1070
   288
1070
     1
1002
}
  0
DIMENSION
  5
7BBC
  8
3
  6
CONTINUOUS
  2
*D5
 10
2052.4891989999992
 20
2427.419958
 30
0.0
 11
1788.203485
 21
2427.419958
 31
0.0
 70
   128
 13
1582.4891990000001
 23
2699.3259419999999
 33
0.0
 14
2052.4891989999992
 24
2454.2194319999999
 34
0.0
1001
ACAD
1000
DSTYLE
1002
{
1070
   287
1070
     3
1070
   287
1070
     3
1070
    40
1040
30.0
1070
   143
1040
0.039
1070
   172
1070
     1
1070
   271
1070
     0
1070
   279
1070
     0
1070
   288
1070
     1
1002
}
  0
DIMENSION
  5
7BC8
  8
3
  6
CONTINUOUS
  2
*D6
 10
3082.4891989999992
 20
2427.419958
 30
0.0
 11
2567.4891989999992
 21
2502.419958
 31
0.0
 70
     0
 13
2052.4891989999992
 23
2454.2194319999999
 33
0.0
 14
3082.4891989999992
 24
2699.3259419999999
 34
0.0
1001
ACAD
1000
DSTYLE
1002
{
1070
   287
1070
     4
1070
   287
1070
     4
1070
    40
1040
30.0
1070
    75
1070
     1
1070
   143
1040
0.039
1070
   172
1070
     1
1070
   271
1070
     0
1070
   279
1070
     1
1070
   288
1070
     1
1002
}
  0
DIMENSION
  5
7BD5
  8
3
  6
CONTINUOUS
  2
*D7
 10
1009.540087
 20
2699.3259420000009
 30
0.0
 11
1009.540087
 21
3366.6287750000001
 31
0.0
 70
   128
 13
1517.4891990000001
 23
4075.3259419999999
 33
0.0
 14
1582.4891990000001
 24
2699.3259419999999
 34
0.0
 50
90.0
1001
ACAD
1000
DSTYLE
1002
{
1070
   287
1070
     3
1070
   287
1070
     3
1070
    40
1040
30.0
1070
   143
1040
0.039
1070
   172
1070
     1
1070
   271
1070
     0
1070
   279
1070
     0
1070
   288
1070
     1
1002
}
  0
DIMENSION
  5
7BE2
  8
3
  6
CONTINUOUS
  2
*D8
 10
4491.9695670000001
 20
2454.8429540000002
 30
0.0
 11
4286.2552809999997
 21
2454.8429540000002
 31
0.0
 70
   128
 13
4048.9695670000001
 23
2699.3259419999999
 33
0.0
 14
4491.9695670000001
 24
2518.4730669999999
 34
0.0
1001
ACAD
1000
DSTYLE
1002
{
1070
   287
1070
     3
1070
   287
1070
     3
1070
    40
1040
30.0
1070
   143
1040
0.039
1070
   172
1070
     1
1070
   271
1070
     0
1070
   279
1070
     0
1070
   288
1070
     1
1002
}
  0
DIMENSION
  5
7BF0
  8
3
  6
CONTINUOUS
  2
*D9
 10
4808.9695670000001
 20
2454.8429540000002
 30
0.0
 11
4660.1347429999987
 21
2449.2283809999999
 31
0.0
 70
   128
 13
4491.9695670000001
 23
2518.4730669999999
 33
0.0
 14
4808.9695670000001
 24
2699.3259419999999
 34
0.0
1001
ACAD
1000
DSTYLE
1002
{
1070
   287
1070
     4
1070
   287
1070
     4
1070
    40
1040
30.0
1070
    75
1070
     1
1070
   143
1040
0.039
1070
   172
1070
     1
1070
   271
1070
     0
1070
   279
1070
     1
1070
   288
1070
     1
1002
}
  0
DIMENSION
  5
7BFD
  8
3
  6
CONTINUOUS
  2
*D10
 10
4226.9695670000001
 20
4121.5157449999997
 30
0.0
 11
4484.5098399999997
 21
4121.5157449999997
 31
0.0
 70
   128
 13
4756.9695670000001
 23
4020.3259419999999
 33
0.0
 14
4226.9695670000001
 24
4020.3259419999999
 34
0.0
1001
ACAD
1000
DSTYLE
1002
{
1070
   287
1070
     3
1070
   287
1070
     3
1070
    40
1040
30.0
1070
   143
1040
0.039
1070
   172
1070
     1
1070
   271
1070
     0
1070
   279
1070
     0
1070
   288
1070
     1
1002
}
  0
LINE
  5
7BFE
  8
1
  6
CONTINUOUS
 10
4758.9695670000001
 20
3701.3259419999999
 30
0.0
 11
4758.9695670000001
 21
2947.3259419999999
 31
0.0
  0
DIMENSION
  5
7C0E
  8
3
  6
CONTINUOUS
  2
*D11
 10
5036.0911680000008
 20
2947.3259419999999
 30
0.0
 11
5036.0911679999999
 21
3291.140089999999
 31
0.0
 70
   128
 13
4758.9695670000001
 23
3701.3259419999999
 33
0.0
 14
4758.9695670000001
 24
2947.3259419999999
 34
0.0
 50
90.0
1001
ACAD
1000
DSTYLE
1002
{
1070
   287
1070
     3
1070
   287
1070
     3
1070
     3
1000
φ<>
1070
    40
1040
30.0
1070
   143
1040
0.039
1070
   172
1070
     1
1070
   271
1070
     0
1070
   279
1070
     0
1070
   288
1070
     1
1002
}
  0
DIMENSION
  5
7C2A
  8
3
  6
CONTINUOUS
  2
*D12
 10
4491.9695670000001
 20
4332.8840600000003
 30
0.0
 11
4644.6942893934875
 21
4415.3143608444771
 31
0.0
 70
   128
 13
4758.9695670000001
 23
3701.3259419999999
 33
0.0
 14
4491.9695670000001
 24
4291.9777139999997
 34
0.0
1001
ACAD
1000
DSTYLE
1002
{
1070
   288
1070
     1
1070
   172
1070
     1
1070
    40
1040
30.0
1070
   271
1070
     0
1070
   143
1040
0.039
1002
}
  0
DIMENSION
  5
7C36
  8
3
  6
CONTINUOUS
  2
*D13
 10
3991.9695670000001
 20
4332.8840600000003
 30
0.0
 11
4241.9695670000001
 21
4482.8840600000003
 31
0.0
 70
     0
  1
MAX\P560
 13
4491.9695670000001
 23
4291.9777139999997
 33
0.0
 14
3991.9695670000001
 24
3939.3259419999999
 34
0.0
1001
ACAD
1000
DSTYLE
1002
{
1070
   287
1070
     4
1070
   287
1070
     4
1070
    40
1040
30.0
1070
    75
1070
     1
1070
   143
1040
0.039
1070
   172
1070
     1
1070
   271
1070
     0
1070
   279
1070
     1
1070
   288
1070
     1
1002
}
  0
DIMENSION
  5
7C43
  8
3
  6
CONTINUOUS
  2
*D14
 10
3082.4891989999992
 20
6180.8809432729277
 30
0.0
 11
2308.4081319999991
 21
6180.8809432729277
 31
0.0
 70
   128
 13
1582.489198999999
 23
5945.6655482729284
 33
0.0
 14
3082.4891989999992
 24
5945.6655482729284
 34
0.0
1001
ACAD
1000
DSTYLE
1002
{
1070
   287
1070
     3
1070
   287
1070
     3
1070
    40
1040
30.0
1070
   143
1040
0.039
1070
   172
1070
     1
1070
   271
1070
     0
1070
   279
1070
     0
1070
   288
1070
     1
1002
}
  0
DIMENSION
  5
7C50
  8
3
  6
CONTINUOUS
  2
*D15
 10
3343.567625000001
 20
5185.6655482729293
 30
0.0
 11
3343.5676250000001
 21
5524.3253722729278
 31
0.0
 70
   128
 13
3082.4891989999992
 23
5945.6655482729284
 33
0.0
 14
3082.4891989999992
 24
5185.6655482729293
 34
0.0
 50
90.0
1001
ACAD
1000
DSTYLE
1002
{
1070
   287
1070
     3
1070
   287
1070
     3
1070
    40
1040
30.0
1070
   143
1040
0.039
1070
   172
1070
     1
1070
   271
1070
     0
1070
   279
1070
     0
1070
   288
1070
     1
1002
}
  0
DIMENSION
  5
7C76
  8
3
  6
CONTINUOUS
  2
*D16
 10
2638.4867250000002
 20
4204.5532999999987
 30
0.0
 11
2345.4879620000002
 21
4279.5532999999987
 31
0.0
 70
     0
 13
2052.4891989999992
 23
4110.4383809999999
 33
0.0
 14
2638.4867250000002
 24
3324.3259419999999
 34
0.0
1001
ACAD
1000
DSTYLE
1002
{
1070
   287
1070
     4
1070
   287
1070
     4
1070
    40
1040
30.0
1070
    75
1070
     1
1070
   143
1040
0.039
1070
   172
1070
     1
1070
   271
1070
     0
1070
   279
1070
     1
1070
   288
1070
     1
1002
}
  0
DIMENSION
  5
7D1D
  8
3
  2
*D17
 10
3082.4891989999992
 20
4368.9446253464821
 30
0.0
 11
2324.2927161943689
 21
4368.9446253464821
 31
0.0
 70
   128
 13
1517.4891990000001
 23
4060.3259420000009
 33
0.0
 14
3082.4891989999992
 24
2799.3259419999999
 34
0.0
1001
ACAD
1000
DSTYLE
1002
{
1070
   287
1070
     3
1070
   287
1070
     3
1070
    40
1040
30.0
1070
   143
1040
0.039
1070
   172
1070
     1
1070
   271
1070
     0
1070
   279
1070
     0
1070
   288
1070
     1
1002
}
  0
ENDSEC
  0
EOF
