  0
SECTION
  2
HEADER
  9
$ACADVER
  1
AC1009
  9
$INSBASE
 10
0.0
 20
0.0
 30
0.0
  9
$EXTMIN
 10
750.0
 20
900.0
 30
0.0
  9
$EXTMAX
 10
5550.0
 20
8359.9567849999985
 30
0.0
  9
$LIMMIN
 10
0.0
 20
0.0
  9
$LIMMAX
 10
297.0
 20
210.0
  9
$ORTHOMODE
 70
     0
  9
$REGENMODE
 70
     1
  9
$FILLMODE
 70
     0
  9
$QTEXTMODE
 70
     0
  9
$MIRRTEXT
 70
     1
  9
$DRAGMODE
 70
     2
  9
$LTSCALE
 40
100.0
  9
$OSMODE
 70
    37
  9
$ATTMODE
 70
     1
  9
$TEXTSIZE
 40
180.0
  9
$TRACEWID
 40
0.05
  9
$TEXTSTYLE
  7
STANDARD
  9
$CLAYER
  8
3
  9
$CELTYPE
  6
BYLAYER
  9
$CECOLOR
 62
   256
  9
$DIMSCALE
 40
30.0
  9
$DIMASZ
 40
2.0
  9
$DIMEXO
 40
0.5
  9
$DIMDLI
 40
10.0
  9
$DIMRND
 40
0.0
  9
$DIMDLE
 40
0.0
  9
$DIMEXE
 40
1.0
  9
$DIMTP
 40
1.0
  9
$DIMTM
 40
1.0
  9
$DIMTXT
 40
3.0
  9
$DIMCEN
 40
0.0
  9
$DIMTSZ
 40
0.0
  9
$DIMTOL
 70
     0
  9
$DIMLIM
 70
     0
  9
$DIMTIH
 70
     0
  9
$DIMTOH
 70
     0
  9
$DIMSE1
 70
     0
  9
$DIMSE2
 70
     0
  9
$DIMTAD
 70
     1
  9
$DIMZIN
 70
     8
  9
$DIMBLK
  1

  9
$DIMASO
 70
     1
  9
$DIMSHO
 70
     1
  9
$DIMPOST
  1

  9
$DIMAPOST
  1

  9
$DIMALT
 70
     0
  9
$DIMALTD
 70
     2
  9
$DIMALTF
 40
0.039
  9
$DIMLFAC
 40
1.0
  9
$DIMTOFL
 70
     1
  9
$DIMTVP
 40
0.0
  9
$DIMTIX
 70
     0
  9
$DIMSOXD
 70
     0
  9
$DIMSAH
 70
     1
  9
$DIMBLK1
  1
OPEN
  9
$DIMBLK2
  1
OPEN
  9
$DIMSTYLE
  2
IGA
  9
$DIMCLRD
 70
     0
  9
$DIMCLRE
 70
     0
  9
$DIMCLRT
 70
     0
  9
$DIMTFAC
 40
10.0
  9
$DIMGAP
 40
1.0
  9
$LUNITS
 70
     2
  9
$LUPREC
 70
     3
  9
$SKETCHINC
 40
0.1
  9
$FILLETRAD
 40
0.0
  9
$AUNITS
 70
     0
  9
$AUPREC
 70
     0
  9
$MENU
  1
acad
  9
$ELEVATION
 40
0.0
  9
$PELEVATION
 40
0.0
  9
$THICKNESS
 40
0.0
  9
$LIMCHECK
 70
     0
  9
$BLIPMODE
 70
     0
  9
$CHAMFERA
 40
0.5
  9
$CHAMFERB
 40
0.5
  9
$SKPOLY
 70
     0
  9
$TDCREATE
 40
2450744.6164864581
  9
$TDUPDATE
 40
2454953.773090092
  9
$TDINDWG
 40
0.0114318056
  9
$TDUSRTIMER
 40
0.0114318056
  9
$USRTIMER
 70
     1
  9
$ANGBASE
 50
0.0
  9
$ANGDIR
 70
     0
  9
$PDMODE
 70
     0
  9
$PDSIZE
 40
0.0
  9
$PLINEWID
 40
0.0
  9
$COORDS
 70
     1
  9
$SPLFRAME
 70
     0
  9
$SPLINETYPE
 70
     6
  9
$SPLINESEGS
 70
     8
  9
$ATTDIA
 70
     0
  9
$ATTREQ
 70
     1
  9
$HANDLING
 70
 10241
  9
$HANDSEED
  5
7E0A
  9
$SURFTAB1
 70
     6
  9
$SURFTAB2
 70
     6
  9
$SURFTYPE
 70
     6
  9
$SURFU
 70
     6
  9
$SURFV
 70
     6
  9
$UCSNAME
  2

  9
$UCSORG
 10
0.0
 20
0.0
 30
0.0
  9
$UCSXDIR
 10
1.0
 20
0.0
 30
0.0
  9
$UCSYDIR
 10
0.0
 20
1.0
 30
0.0
  9
$PUCSNAME
  2

  9
$PUCSORG
 10
0.0
 20
0.0
 30
0.0
  9
$PUCSXDIR
 10
1.0
 20
0.0
 30
0.0
  9
$PUCSYDIR
 10
0.0
 20
1.0
 30
0.0
  9
$USERI1
 70
     0
  9
$USERI2
 70
     0
  9
$USERI3
 70
     0
  9
$USERI4
 70
     0
  9
$USERI5
 70
     0
  9
$USERR1
 40
0.0
  9
$USERR2
 40
0.0
  9
$USERR3
 40
0.0
  9
$USERR4
 40
0.0
  9
$USERR5
 40
0.0
  9
$WORLDVIEW
 70
     1
  9
$SHADEDGE
 70
     3
  9
$SHADEDIF
 70
    70
  9
$TILEMODE
 70
     1
  9
$MAXACTVP
 70
    16
  9
$PLIMCHECK
 70
     0
  9
$PEXTMIN
 10
1.0000000000000000E+020
 20
1.0000000000000000E+020
 30
1.0000000000000000E+020
  9
$PEXTMAX
 10
-1.0000000000000000E+020
 20
-1.0000000000000000E+020
 30
-1.0000000000000000E+020
  9
$PLIMMIN
 10
0.0
 20
0.0
  9
$PLIMMAX
 10
12.0
 20
9.0
  9
$UNITMODE
 70
     0
  9
$VISRETAIN
 70
     0
  9
$PLINEGEN
 70
     0
  9
$PSLTSCALE
 70
     1
  0
ENDSEC
  0
SECTION
  2
TABLES
  0
TABLE
  2
VPORT
 70
     2
  0
VPORT
  2
*ACTIVE
 70
     0
 10
0.0
 20
0.0
 11
1.0
 21
1.0
 12
9437.9954746499006
 22
4629.9199394653269
 13
0.0
 23
0.0
 14
10.0
 24
10.0
 15
10.0
 25
10.0
 16
0.0
 26
0.0
 36
1.0
 17
0.0
 27
0.0
 37
0.0
 40
7517.061441529765
 41
3.1666666666666661
 42
50.0
 43
0.0
 44
0.0
 50
0.0
 51
0.0
 71
     0
 72
   100
 73
     1
 74
     0
 75
     0
 76
     0
 77
     0
 78
     0
  0
ENDTAB
  0
TABLE
  2
LTYPE
 70
     2
  0
LTYPE
  2
CONTINUOUS
 70
     0
  3
Solid line
 72
    65
 73
     0
 40
0.0
  0
LTYPE
  2
CENTER
 70
     0
  3
____ _ ____ _ ____ _ ____ _ ____ _ ____ _ ____ 
 72
    65
 73
     4
 40
2.0
 49
1.25
 49
-0.25
 49
0.25
 49
-0.25
  0
ENDTAB
  0
TABLE
  2
LAYER
 70
     6
  0
LAYER
  2
0
 70
     0
 62
     7
  6
CONTINUOUS
  0
LAYER
  2
3
 70
     0
 62
     2
  6
CONTINUOUS
  0
LAYER
  2
2
 70
     0
 62
     3
  6
CENTER
  0
LAYER
  2
1
 70
     0
 62
     4
  6
CONTINUOUS
  0
LAYER
  2
4
 70
     0
 62
     7
  6
CONTINUOUS
  0
LAYER
  2
DEFPOINTS
 70
     0
 62
     7
  6
CONTINUOUS
  0
ENDTAB
  0
TABLE
  2
STYLE
 70
     1
  0
STYLE
  2
STANDARD
 70
     0
 40
0.0
 41
1.0
 50
0.0
 71
     0
 42
180.0
  3
simplex.shx
  4
extfont.shx
  0
ENDTAB
  0
TABLE
  2
VIEW
 70
     0
  0
ENDTAB
  0
TABLE
  2
UCS
 70
     0
  0
ENDTAB
  0
TABLE
  2
APPID
 70
     1
  0
APPID
  2
ACAD
 70
     0
  0
ENDTAB
  0
TABLE
  2
DIMSTYLE
 70
     1
  0
DIMSTYLE
  2
IGA
 70
     0
  3

  4

  5

  6
OPEN
  7
OPEN
 40
2.0
 41
2.0
 42
0.5
 43
10.0
 44
1.0
 45
0.0
 46
0.0
 47
1.0
 48
1.0
140
3.0
141
0.0
142
0.0
143
0.03937
144
1.0
145
0.0
146
10.0
147
1.0
 71
     0
 72
     0
 73
     0
 74
     0
 75
     0
 76
     0
 77
     1
 78
     8
170
     0
171
     2
172
     0
173
     1
174
     0
175
     0
176
     0
177
     0
178
     0
  0
ENDTAB
  0
ENDSEC
  0
SECTION
  2
BLOCKS
  0
BLOCK
  8
0
  2
$MODEL_SPACE
 70
     0
 10
0.0
 20
0.0
 30
0.0
  3
$MODEL_SPACE
  1

  0
ENDBLK
  5
1B
  8
0
  0
BLOCK
 67
     1
  8
0
  2
$PAPER_SPACE
 70
     0
 10
0.0
 20
0.0
 30
0.0
  3
$PAPER_SPACE
  1

  0
ENDBLK
  5
18
 67
     1
  8
0
  0
BLOCK
  8
0
  2
_OPEN
 70
     0
 10
0.0
 20
0.0
 30
0.0
  3
_OPEN
  1

  0
LINE
  5
7BB6
  8
0
  6
BYBLOCK
 62
     0
 10
-1.0
 20
0.166667
 30
0.0
 11
0.0
 21
0.0
 31
0.0
  0
LINE
  5
7BB7
  8
0
  6
BYBLOCK
 62
     0
 10
0.0
 20
0.0
 30
0.0
 11
-1.0
 21
-0.166667
 31
0.0
  0
LINE
  5
7BB8
  8
0
  6
BYBLOCK
 62
     0
 10
0.0
 20
0.0
 30
0.0
 11
-1.0
 21
0.0
 31
0.0
  0
ENDBLK
  5
7BB9
  8
0
  0
BLOCK
  8
0
  2
*D1
 70
     1
 10
0.0
 20
0.0
 30
0.0
  3
*D1
  1

  0
LINE
  5
7D6C
  8
3
  6
CONTINUOUS
 62
     0
 10
1611.3822130000001
 20
3260.960791
 30
0.0
 11
1409.657835
 21
3260.960791
 31
0.0
  0
LINE
  5
7D6D
  8
3
  6
CONTINUOUS
 62
     0
 10
1611.3822130000001
 20
2530.960791
 30
0.0
 11
1409.657835
 21
2530.960791
 31
0.0
  0
LINE
  5
7D6E
  8
3
  6
CONTINUOUS
 62
     0
 10
1439.657835
 20
3200.9607909999991
 30
0.0
 11
1439.657835
 21
2590.960791
 31
0.0
  0
INSERT
  5
7D6F
  8
3
  6
CONTINUOUS
 62
     0
  2
_OPEN
 10
1439.657835
 20
3260.960791
 30
0.0
 41
60.0
 42
60.0
 43
60.0
 50
90.0
  0
INSERT
  5
7D70
  8
3
  6
CONTINUOUS
 62
     0
  2
_OPEN
 10
1439.657835
 20
2530.960791
 30
0.0
 41
60.0
 42
60.0
 43
60.0
 50
270.0
  0
TEXT
  8
3
  40
90
  5
7DFA
  62
0
  72
0
  71
0
 10
1184.66
 20
2723.67
 30
0.000000
  1
730
  0
POINT
  5
7D72
  8
DEFPOINTS
  6
CONTINUOUS
 62
     0
 10
1626.3822130000001
 20
3260.960791
 30
0.0
  0
POINT
  5
7D73
  8
DEFPOINTS
  6
CONTINUOUS
 62
     0
 10
1626.3822130000001
 20
2530.960791
 30
0.0
  0
POINT
  5
7D74
  8
DEFPOINTS
  6
CONTINUOUS
 62
     0
 10
1439.657835
 20
2530.960791
 30
0.0
  0
ENDBLK
  5
7BC6
  8
0
  0
BLOCK
  8
0
  2
*D2
 70
     1
 10
0.0
 20
0.0
 30
0.0
  3
*D2
  1

  0
LINE
  5
7D75
  8
3
  6
CONTINUOUS
 62
     0
 10
1445.2018109999999
 20
3226.9607909999991
 30
0.0
 11
1212.3364489999999
 21
3226.9607909999991
 31
0.0
  0
LINE
  5
7D76
  8
3
  6
CONTINUOUS
 62
     0
 10
1576.3822130000001
 20
2530.960791
 30
0.0
 11
1212.3364489999999
 21
2530.960791
 31
0.0
  0
LINE
  5
7D77
  8
3
  6
CONTINUOUS
 62
     0
 10
1242.3364489999999
 20
3166.960791
 30
0.0
 11
1242.3364489999999
 21
2590.960791
 31
0.0
  0
INSERT
  5
7D78
  8
3
  6
CONTINUOUS
 62
     0
  2
_OPEN
 10
1242.3364489999999
 20
3226.9607909999991
 30
0.0
 41
60.0
 42
60.0
 43
60.0
 50
90.0
  0
INSERT
  5
7D79
  8
3
  6
CONTINUOUS
 62
     0
  2
_OPEN
 10
1242.3364489999999
 20
2530.960791
 30
0.0
 41
60.0
 42
60.0
 43
60.0
 50
270.0
  0
TEXT
  8
3
  40
90
  5
7DFB
  62
0
  72
0
  71
0
 10
987.336
 20
2723.67
 30
0.000000
  1
696
  0
POINT
  5
7D7B
  8
DEFPOINTS
  6
CONTINUOUS
 62
     0
 10
1460.2018109999999
 20
3226.9607909999991
 30
0.0
  0
POINT
  5
7D7C
  8
DEFPOINTS
  6
CONTINUOUS
 62
     0
 10
1591.3822130000001
 20
2530.960791
 30
0.0
  0
POINT
  5
7D7D
  8
DEFPOINTS
  6
CONTINUOUS
 62
     0
 10
1242.3364489999999
 20
2530.960791
 30
0.0
  0
ENDBLK
  5
7BD3
  8
0
  0
BLOCK
  8
0
  2
*D3
 70
     1
 10
0.0
 20
0.0
 30
0.0
  3
*D3
  1

  0
LINE
  5
7D7E
  8
3
  6
CONTINUOUS
 62
     0
 10
1445.2018109999999
 20
3226.9607909999991
 30
0.0
 11
1038.9327900000001
 21
3226.9607909999991
 31
0.0
  0
LINE
  5
7D7F
  8
3
  6
CONTINUOUS
 62
     0
 10
1676.382212999999
 20
2336.960791
 30
0.0
 11
1038.9327900000001
 21
2336.960791
 31
0.0
  0
LINE
  5
7D80
  8
3
  6
CONTINUOUS
 62
     0
 10
1068.9327900000001
 20
3166.960791
 30
0.0
 11
1068.9327900000001
 21
2396.960791
 31
0.0
  0
INSERT
  5
7D81
  8
3
  6
CONTINUOUS
 62
     0
  2
_OPEN
 10
1068.9327900000001
 20
3226.9607909999991
 30
0.0
 41
60.0
 42
60.0
 43
60.0
 50
90.0
  0
INSERT
  5
7D82
  8
3
  6
CONTINUOUS
 62
     0
  2
_OPEN
 10
1068.9327900000001
 20
2336.960791
 30
0.0
 41
60.0
 42
60.0
 43
60.0
 50
270.0
  0
TEXT
  8
3
  40
90
  5
7DFC
  62
0
  72
0
  71
0
 10
813.933
 20
2592.22
 30
0.000000
  1
890
  0
POINT
  5
7D84
  8
DEFPOINTS
  6
CONTINUOUS
 62
     0
 10
1460.2018109999999
 20
3226.9607909999991
 30
0.0
  0
POINT
  5
7D85
  8
DEFPOINTS
  6
CONTINUOUS
 62
     0
 10
1691.382212999999
 20
2336.960791
 30
0.0
  0
POINT
  5
7D86
  8
DEFPOINTS
  6
CONTINUOUS
 62
     0
 10
1068.9327900000001
 20
2336.960791
 30
0.0
  0
ENDBLK
  5
7BE0
  8
0
  0
BLOCK
  8
0
  2
*D4
 70
     1
 10
0.0
 20
0.0
 30
0.0
  3
*D4
  1

  0
LINE
  5
7D87
  8
3
  6
CONTINUOUS
 62
     0
 10
1676.382212999999
 20
2336.960791
 30
0.0
 11
1040.291029
 21
2336.960791
 31
0.0
  0
LINE
  5
7D88
  8
3
  6
CONTINUOUS
 62
     0
 10
1526.3822130000001
 20
2260.960791
 30
0.0
 11
1040.291029
 21
2260.960791
 31
0.0
  0
LINE
  5
7D89
  8
3
  6
CONTINUOUS
 62
     0
 10
1070.291029
 20
2396.960791
 30
0.0
 11
1070.291029
 21
2456.960791
 31
0.0
  0
LINE
  5
7D8A
  8
3
  6
CONTINUOUS
 62
     0
 10
1070.291029
 20
2200.9607909999991
 30
0.0
 11
1070.291029
 21
1939.5322195714291
 31
0.0
  0
LINE
  5
7D8B
  8
3
  6
CONTINUOUS
 62
     0
 10
1070.291029
 20
2336.960791
 30
0.0
 11
1070.291029
 21
2260.960791
 31
0.0
  0
INSERT
  5
7D8C
  8
3
  6
CONTINUOUS
 62
     0
  2
_OPEN
 10
1070.291029
 20
2336.960791
 30
0.0
 41
60.0
 42
60.0
 43
60.0
 50
270.0
  0
INSERT
  5
7D8D
  8
3
  6
CONTINUOUS
 62
     0
  2
_OPEN
 10
1070.291029
 20
2260.960791
 30
0.0
 41
60.0
 42
60.0
 43
60.0
 50
90.0
  0
TEXT
  8
3
  40
90
  5
7DFD
  62
0
  72
0
  71
0
 10
815.291
 20
1880.95
 30
0.000000
  1
76
  0
POINT
  5
7D8F
  8
DEFPOINTS
  6
CONTINUOUS
 62
     0
 10
1691.382212999999
 20
2336.960791
 30
0.0
  0
POINT
  5
7D90
  8
DEFPOINTS
  6
CONTINUOUS
 62
     0
 10
1541.3822130000001
 20
2260.960791
 30
0.0
  0
POINT
  5
7D91
  8
DEFPOINTS
  6
CONTINUOUS
 62
     0
 10
1070.291029
 20
2260.960791
 30
0.0
  0
ENDBLK
  5
7D34
  8
0
  0
BLOCK
  8
0
  2
*D5
 70
     1
 10
0.0
 20
0.0
 30
0.0
  3
*D5
  1

  0
LINE
  5
7D92
  8
3
  6
CONTINUOUS
 62
     0
 10
1626.3822130000001
 20
3315.960791
 30
0.0
 11
1626.3822130000001
 21
4078.1070759999998
 31
0.0
  0
LINE
  5
7D93
  8
3
  6
CONTINUOUS
 62
     0
 10
2161.382212999999
 20
4045.6877949999998
 30
0.0
 11
2161.382212999999
 21
4078.1070759999998
 31
0.0
  0
LINE
  5
7D94
  8
3
  6
CONTINUOUS
 62
     0
 10
1686.3822130000001
 20
4048.1070759999989
 30
0.0
 11
2101.382212999999
 21
4048.1070759999989
 31
0.0
  0
INSERT
  5
7D95
  8
3
  6
CONTINUOUS
 62
     0
  2
_OPEN
 10
1626.3822130000001
 20
4048.1070759999989
 30
0.0
 41
60.0
 42
60.0
 43
60.0
 50
180.0
  0
INSERT
  5
7D96
  8
3
  6
CONTINUOUS
 62
     0
  2
_OPEN
 10
2161.382212999999
 20
4048.1070759999989
 30
0.0
 41
60.0
 42
60.0
 43
60.0
  0
TEXT
  8
3
  40
90
  5
7DFE
  62
0
  72
0
  71
0
 10
1702.14
 20
3963.81
 30
0.000000
  1
535
  0
POINT
  5
7D98
  8
DEFPOINTS
  6
CONTINUOUS
 62
     0
 10
1626.3822130000001
 20
3300.960791
 30
0.0
  0
POINT
  5
7D99
  8
DEFPOINTS
  6
CONTINUOUS
 62
     0
 10
2161.382212999999
 20
4030.6877949999998
 30
0.0
  0
POINT
  5
7D9A
  8
DEFPOINTS
  6
CONTINUOUS
 62
     0
 10
2161.382212999999
 20
4048.1070759999989
 30
0.0
  0
ENDBLK
  5
7BFD
  8
0
  0
BLOCK
  8
0
  2
*D6
 70
     1
 10
0.0
 20
0.0
 30
0.0
  3
*D6
  1

  0
LINE
  5
7D9B
  8
3
  6
CONTINUOUS
 62
     0
 10
1541.3822130000001
 20
2245.9607909999991
 30
0.0
 11
1541.3822130000001
 21
1999.6248929999999
 31
0.0
  0
LINE
  5
7D9C
  8
3
  6
CONTINUOUS
 62
     0
 10
2161.382212999999
 20
2113.9771970000002
 30
0.0
 11
2161.382212999999
 21
1999.6248929999999
 31
0.0
  0
LINE
  5
7D9D
  8
3
  6
CONTINUOUS
 62
     0
 10
1601.3822130000001
 20
2029.6248929999999
 30
0.0
 11
2101.382212999999
 21
2029.6248929999999
 31
0.0
  0
INSERT
  5
7D9E
  8
3
  6
CONTINUOUS
 62
     0
  2
_OPEN
 10
1541.3822130000001
 20
2029.6248929999999
 30
0.0
 41
60.0
 42
60.0
 43
60.0
 50
180.0
  0
INSERT
  5
7D9F
  8
3
  6
CONTINUOUS
 62
     0
  2
_OPEN
 10
2161.382212999999
 20
2029.6248929999999
 30
0.0
 41
60.0
 42
60.0
 43
60.0
  0
TEXT
  8
3
  40
90
  5
7DFF
  62
0
  72
0
  71
0
 10
1654.30
 20
1945.32
 30
0.000000
  1
620
  0
POINT
  5
7DA1
  8
DEFPOINTS
  6
CONTINUOUS
 62
     0
 10
1541.3822130000001
 20
2260.960791
 30
0.0
  0
POINT
  5
7DA2
  8
DEFPOINTS
  6
CONTINUOUS
 62
     0
 10
2161.382212999999
 20
2128.9771969999988
 30
0.0
  0
POINT
  5
7DA3
  8
DEFPOINTS
  6
CONTINUOUS
 62
     0
 10
2161.382212999999
 20
2029.6248929999999
 30
0.0
  0
ENDBLK
  5
7CA9
  8
0
  0
BLOCK
  8
0
  2
*D7
 70
     1
 10
0.0
 20
0.0
 30
0.0
  3
*D7
  1

  0
LINE
  5
7DA4
  8
3
  6
CONTINUOUS
 62
     0
 10
3341.3822129999999
 20
2245.9607909999991
 30
0.0
 11
3341.3822129999999
 21
1999.6248929999999
 31
0.0
  0
LINE
  5
7DA5
  8
3
  6
CONTINUOUS
 62
     0
 10
2221.3822129999999
 20
2029.6248929999999
 30
0.0
 11
3281.3822129999999
 21
2029.6248929999999
 31
0.0
  0
INSERT
  5
7DA6
  8
3
  6
CONTINUOUS
 62
     0
  2
_OPEN
 10
2161.382212999999
 20
2029.6248929999999
 30
0.0
 41
60.0
 42
60.0
 43
60.0
 50
180.0
  0
INSERT
  5
7DA7
  8
3
  6
CONTINUOUS
 62
     0
  2
_OPEN
 10
3341.3822129999999
 20
2029.6248929999999
 30
0.0
 41
60.0
 42
60.0
 43
60.0
  0
TEXT
  8
3
  40
90
  5
7E00
  62
0
  72
0
  71
0
 10
2571.38
 20
1945.32
 30
0.000000
  1
1180
  0
POINT
  5
7DA9
  8
DEFPOINTS
  6
CONTINUOUS
 62
     0
 10
2161.382212999999
 20
2128.9771969999988
 30
0.0
  0
POINT
  5
7DAA
  8
DEFPOINTS
  6
CONTINUOUS
 62
     0
 10
3341.3822129999999
 20
2260.960791
 30
0.0
  0
POINT
  5
7DAB
  8
DEFPOINTS
  6
CONTINUOUS
 62
     0
 10
3341.3822129999999
 20
2029.6248929999999
 30
0.0
  0
ENDBLK
  5
7C9E
  8
0
  0
BLOCK
  8
0
  2
*D8
 70
     1
 10
0.0
 20
0.0
 30
0.0
  3
*D8
  1

  0
LINE
  5
7DAC
  8
3
  6
CONTINUOUS
 62
     0
 10
4860.883022
 20
3672.9607909999991
 30
0.0
 11
4860.883022
 21
4078.1070759999998
 31
0.0
  0
LINE
  5
7DAD
  8
3
  6
CONTINUOUS
 62
     0
 10
4330.883022
 20
3672.9607909999991
 30
0.0
 11
4330.883022
 21
4078.1070759999998
 31
0.0
  0
LINE
  5
7DAE
  8
3
  6
CONTINUOUS
 62
     0
 10
4800.883022
 20
4048.1070759999989
 30
0.0
 11
4390.8830219999991
 21
4048.1070759999989
 31
0.0
  0
INSERT
  5
7DAF
  8
3
  6
CONTINUOUS
 62
     0
  2
_OPEN
 10
4860.883022
 20
4048.1070759999989
 30
0.0
 41
60.0
 42
60.0
 43
60.0
  0
INSERT
  5
7DB0
  8
3
  6
CONTINUOUS
 62
     0
  2
_OPEN
 10
4330.883022
 20
4048.1070759999989
 30
0.0
 41
60.0
 42
60.0
 43
60.0
 50
180.0
  0
TEXT
  8
3
  40
90
  5
7E01
  62
0
  72
0
  71
0
 10
4428.76
 20
3963.81
 30
0.000000
  1
530
  0
POINT
  5
7DB2
  8
DEFPOINTS
  6
CONTINUOUS
 62
     0
 10
4860.883022
 20
3657.9607909999991
 30
0.0
  0
POINT
  5
7DB3
  8
DEFPOINTS
  6
CONTINUOUS
 62
     0
 10
4330.883022
 20
3657.9607909999991
 30
0.0
  0
POINT
  5
7DB4
  8
DEFPOINTS
  6
CONTINUOUS
 62
     0
 10
4330.883022
 20
4048.1070759999989
 30
0.0
  0
ENDBLK
  5
7C23
  8
0
  0
BLOCK
  8
0
  2
*D9
 70
     1
 10
0.0
 20
0.0
 30
0.0
  3
*D9
  1

  0
LINE
  5
7CEF
  8
0
  6
BYBLOCK
 62
     0
 10
4862.883022
 20
3618.960791
 30
0.0
 11
4862.883022
 21
4263.3339909999986
 31
0.0
  0
LINE
  5
7CF0
  8
0
  6
BYBLOCK
 62
     0
 10
4595.883022
 20
4216.7469200000014
 30
0.0
 11
4595.883022
 21
4263.3339909999986
 31
0.0
  0
LINE
  5
7CF1
  8
0
  6
BYBLOCK
 62
     0
 10
4802.883022
 20
4233.3339910000004
 30
0.0
 11
4655.883022
 21
4233.3339910000004
 31
0.0
  0
TEXT
  5
7CF2
  8
3
 62
     0
 10
4624.4503128409424
 20
4278.056101170856
 30
0.0
 40
90.0
  1
267
  0
INSERT
  5
7CF3
  8
0
  6
BYBLOCK
 62
     0
  2
_OPEN
 10
4862.883022
 20
4233.3339910000004
 30
0.0
 41
60.0
 42
60.0
 43
60.0
  0
INSERT
  5
7CF4
  8
0
  6
BYBLOCK
 62
     0
  2
_OPEN
 10
4595.883022
 20
4233.3339910000004
 30
0.0
 41
60.0
 42
60.0
 43
60.0
 50
180.0
  0
POINT
  5
7CF5
  8
DEFPOINTS
  6
BYBLOCK
 62
     0
 10
4862.883022
 20
3603.9607909999991
 30
0.0
  0
POINT
  5
7CF6
  8
DEFPOINTS
  6
BYBLOCK
 62
     0
 10
4595.883022
 20
4201.7469199999996
 30
0.0
  0
POINT
  5
7CF7
  8
DEFPOINTS
  6
BYBLOCK
 62
     0
 10
4595.883022
 20
4233.3339910000004
 30
0.0
  0
ENDBLK
  5
7CF8
  8
0
  0
BLOCK
  8
0
  2
*D10
 70
     1
 10
0.0
 20
0.0
 30
0.0
  3
*D10
  1

  0
LINE
  5
7DB5
  8
3
  6
CONTINUOUS
 62
     0
 10
4877.883022
 20
3603.9607909999991
 30
0.0
 11
5362.2706000000007
 21
3603.9607909999991
 31
0.0
  0
LINE
  5
7DB6
  8
3
  6
CONTINUOUS
 62
     0
 10
4877.883022
 20
2849.960791
 30
0.0
 11
5362.2706000000007
 21
2849.9607909999991
 31
0.0
  0
LINE
  5
7DB7
  8
3
  6
CONTINUOUS
 62
     0
 10
5332.2706000000007
 20
3543.9607909999991
 30
0.0
 11
5332.2706000000007
 21
2909.9607909999991
 31
0.0
  0
INSERT
  5
7DB8
  8
3
  6
CONTINUOUS
 62
     0
  2
_OPEN
 10
5332.2706000000007
 20
3603.9607909999991
 30
0.0
 41
60.0
 42
60.0
 43
60.0
 50
90.0
  0
INSERT
  5
7DB9
  8
3
  6
CONTINUOUS
 62
     0
  2
_OPEN
 10
5332.2706000000007
 20
2849.9607909999991
 30
0.0
 41
60.0
 42
60.0
 43
60.0
 50
270.0
  0
TEXT
  8
3
  40
90
  5
7E02
  62
0
  72
0
  71
0
 10
5077.27
 20
3070.22
 30
0.000000
  1
φ754
  0
POINT
  5
7DBB
  8
DEFPOINTS
  6
CONTINUOUS
 62
     0
 10
4862.883022
 20
3603.9607909999991
 30
0.0
  0
POINT
  5
7DBC
  8
DEFPOINTS
  6
CONTINUOUS
 62
     0
 10
4862.883022
 20
2849.960791
 30
0.0
  0
POINT
  5
7DBD
  8
DEFPOINTS
  6
CONTINUOUS
 62
     0
 10
5332.2706000000007
 20
2849.9607909999991
 30
0.0
  0
ENDBLK
  5
7D03
  8
0
  0
BLOCK
  8
0
  2
*D11
 70
     1
 10
0.0
 20
0.0
 30
0.0
  3
*D11
  1

  0
LINE
  5
7DBE
  8
3
  6
CONTINUOUS
 62
     0
 10
3995.883022
 20
2245.9607909999991
 30
0.0
 11
3995.883022
 21
1964.7135929999999
 31
0.0
  0
LINE
  5
7DBF
  8
3
  6
CONTINUOUS
 62
     0
 10
4595.883022
 20
2032.6147539999999
 30
0.0
 11
4595.883022
 21
1964.7135929999999
 31
0.0
  0
LINE
  5
7DC0
  8
3
  6
CONTINUOUS
 62
     0
 10
4055.8830219999991
 20
1994.713592999999
 30
0.0
 11
4535.883022
 21
1994.713592999999
 31
0.0
  0
INSERT
  5
7DC1
  8
3
  6
CONTINUOUS
 62
     0
  2
_OPEN
 10
3995.883022
 20
1994.713592999999
 30
0.0
 41
60.0
 42
60.0
 43
60.0
 50
180.0
  0
INSERT
  5
7DC2
  8
3
  6
CONTINUOUS
 62
     0
  2
_OPEN
 10
4595.883022
 20
1994.713592999999
 30
0.0
 41
60.0
 42
60.0
 43
60.0
  0
TEXT
  8
3
  40
90
  5
7E03
  62
0
  72
0
  71
0
 10
4135.77
 20
1910.41
 30
0.000000
  1
600
  0
POINT
  5
7DC4
  8
DEFPOINTS
  6
CONTINUOUS
 62
     0
 10
3995.883022
 20
2260.960791
 30
0.0
  0
POINT
  5
7DC5
  8
DEFPOINTS
  6
CONTINUOUS
 62
     0
 10
4595.883022
 20
2047.6147539999999
 30
0.0
  0
POINT
  5
7DC6
  8
DEFPOINTS
  6
CONTINUOUS
 62
     0
 10
4595.883022
 20
1994.713592999999
 30
0.0
  0
ENDBLK
  5
7CCE
  8
0
  0
BLOCK
  8
0
  2
*D12
 70
     1
 10
0.0
 20
0.0
 30
0.0
  3
*D12
  1

  0
LINE
  5
7DC7
  8
3
  6
CONTINUOUS
 62
     0
 10
5045.883022
 20
2245.9607909999991
 30
0.0
 11
5045.883022
 21
1964.7135929999999
 31
0.0
  0
LINE
  5
7DC8
  8
3
  6
CONTINUOUS
 62
     0
 10
4655.883022
 20
1994.713592999999
 30
0.0
 11
4985.883022
 21
1994.713592999999
 31
0.0
  0
INSERT
  5
7DC9
  8
3
  6
CONTINUOUS
 62
     0
  2
_OPEN
 10
4595.883022
 20
1994.713592999999
 30
0.0
 41
60.0
 42
60.0
 43
60.0
 50
180.0
  0
INSERT
  5
7DCA
  8
3
  6
CONTINUOUS
 62
     0
  2
_OPEN
 10
5045.883022
 20
1994.713592999999
 30
0.0
 41
60.0
 42
60.0
 43
60.0
  0
TEXT
  8
3
  40
90
  5
7E04
  62
0
  72
0
  71
0
 10
4640.88
 20
1910.41
 30
0.000000
  1
450
  0
POINT
  5
7DCC
  8
DEFPOINTS
  6
CONTINUOUS
 62
     0
 10
4595.883022
 20
2047.6147539999999
 30
0.0
  0
POINT
  5
7DCD
  8
DEFPOINTS
  6
CONTINUOUS
 62
     0
 10
5045.883022
 20
2260.960791
 30
0.0
  0
POINT
  5
7DCE
  8
DEFPOINTS
  6
CONTINUOUS
 62
     0
 10
5045.883022
 20
1994.713592999999
 30
0.0
  0
ENDBLK
  5
7CD8
  8
0
  0
BLOCK
  8
0
  2
*D13
 70
     1
 10
0.0
 20
0.0
 30
0.0
  3
*D13
  1

  0
LINE
  5
7DCF
  8
3
  6
CONTINUOUS
 62
     0
 10
1541.3822130000001
 20
6220.2249861831833
 30
0.0
 11
1541.3822130000001
 21
6402.7843471831829
 31
0.0
  0
LINE
  5
7DD0
  8
3
  6
CONTINUOUS
 62
     0
 10
3341.3822129999999
 20
6220.2249861831833
 30
0.0
 11
3341.3822129999999
 21
6402.7843471831829
 31
0.0
  0
LINE
  5
7DD1
  8
3
  6
CONTINUOUS
 62
     0
 10
1601.3822130000001
 20
6372.7843471831829
 30
0.0
 11
3281.3822129999999
 21
6372.7843471831829
 31
0.0
  0
INSERT
  5
7DD2
  8
3
  6
CONTINUOUS
 62
     0
  2
_OPEN
 10
1541.3822130000001
 20
6372.7843471831829
 30
0.0
 41
60.0
 42
60.0
 43
60.0
 50
180.0
  0
INSERT
  5
7DD3
  8
3
  6
CONTINUOUS
 62
     0
  2
_OPEN
 10
3341.3822129999999
 20
6372.7843471831829
 30
0.0
 41
60.0
 42
60.0
 43
60.0
  0
TEXT
  8
3
  40
90
  5
7E05
  62
0
  72
0
  71
0
 10
2192.45
 20
6288.48
 30
0.000000
  1
1800
  0
POINT
  5
7DD5
  8
DEFPOINTS
  6
CONTINUOUS
 62
     0
 10
1541.3822130000001
 20
6205.2249861831833
 30
0.0
  0
POINT
  5
7DD6
  8
DEFPOINTS
  6
CONTINUOUS
 62
     0
 10
3341.3822129999999
 20
6205.2249861831833
 30
0.0
  0
POINT
  5
7DD7
  8
DEFPOINTS
  6
CONTINUOUS
 62
     0
 10
3341.3822129999999
 20
6372.7843471831829
 30
0.0
  0
ENDBLK
  5
7C67
  8
0
  0
BLOCK
  8
0
  2
*D14
 70
     1
 10
0.0
 20
0.0
 30
0.0
  3
*D14
  1

  0
LINE
  5
7DD8
  8
3
  6
CONTINUOUS
 62
     0
 10
3356.382212999999
 20
6205.2249861831833
 30
0.0
 11
3658.1314020000009
 21
6205.2249861831833
 31
0.0
  0
LINE
  5
7DD9
  8
3
  6
CONTINUOUS
 62
     0
 10
3356.382212999999
 20
5155.2249861831833
 30
0.0
 11
3658.1314020000009
 21
5155.2249861831833
 31
0.0
  0
LINE
  5
7DDA
  8
3
  6
CONTINUOUS
 62
     0
 10
3628.1314020000009
 20
6145.2249861831833
 30
0.0
 11
3628.1314020000009
 21
5215.2249861831842
 31
0.0
  0
INSERT
  5
7DDB
  8
3
  6
CONTINUOUS
 62
     0
  2
_OPEN
 10
3628.1314020000009
 20
6205.2249861831833
 30
0.0
 41
60.0
 42
60.0
 43
60.0
 50
90.0
  0
INSERT
  5
7DDC
  8
3
  6
CONTINUOUS
 62
     0
  2
_OPEN
 10
3628.1314020000009
 20
5155.2249861831833
 30
0.0
 41
60.0
 42
60.0
 43
60.0
 50
270.0
  0
TEXT
  8
3
  40
90
  5
7E06
  62
0
  72
0
  71
0
 10
3373.13
 20
5544.28
 30
0.000000
  1
1050
  0
POINT
  5
7DDE
  8
DEFPOINTS
  6
CONTINUOUS
 62
     0
 10
3341.3822129999999
 20
6205.2249861831833
 30
0.0
  0
POINT
  5
7DDF
  8
DEFPOINTS
  6
CONTINUOUS
 62
     0
 10
3341.3822129999999
 20
5155.2249861831833
 30
0.0
  0
POINT
  5
7DE0
  8
DEFPOINTS
  6
CONTINUOUS
 62
     0
 10
3628.1314020000009
 20
5155.2249861831833
 30
0.0
  0
ENDBLK
  5
7C74
  8
0
  0
BLOCK
  8
0
  2
*D15
 70
     1
 10
0.0
 20
0.0
 30
0.0
  3
*D15
  1

  0
LINE
  5
7DE1
  8
3
  6
CONTINUOUS
 62
     0
 10
3980.883022
 20
3910.9607909999991
 30
0.0
 11
3804.4520160000002
 21
3910.9607909999991
 31
0.0
  0
LINE
  5
7DE2
  8
3
  6
CONTINUOUS
 62
     0
 10
3980.883022
 20
2260.960791
 30
0.0
 11
3804.4520160000002
 21
2260.960791
 31
0.0
  0
LINE
  5
7DE3
  8
3
  6
CONTINUOUS
 62
     0
 10
3834.4520160000011
 20
3850.9607909999991
 30
0.0
 11
3834.4520160000002
 21
2320.960791
 31
0.0
  0
INSERT
  5
7DE4
  8
3
  6
CONTINUOUS
 62
     0
  2
_OPEN
 10
3834.4520160000011
 20
3910.9607909999991
 30
0.0
 41
60.0
 42
60.0
 43
60.0
 50
90.0
  0
INSERT
  5
7DE5
  8
3
  6
CONTINUOUS
 62
     0
  2
_OPEN
 10
3834.4520160000002
 20
2260.960791
 30
0.0
 41
60.0
 42
60.0
 43
60.0
 50
270.0
  0
TEXT
  8
3
  40
90
  5
7E07
  62
0
  72
0
  71
0
 10
3579.45
 20
2925.42
 30
0.000000
  1
1650
  0
POINT
  5
7DE7
  8
DEFPOINTS
  6
CONTINUOUS
 62
     0
 10
3995.883022
 20
3910.9607909999991
 30
0.0
  0
POINT
  5
7DE8
  8
DEFPOINTS
  6
CONTINUOUS
 62
     0
 10
3995.883022
 20
2260.960791
 30
0.0
  0
POINT
  5
7DE9
  8
DEFPOINTS
  6
CONTINUOUS
 62
     0
 10
3834.4520160000002
 20
2260.960791
 30
0.0
  0
ENDBLK
  5
7C8D
  8
0
  0
BLOCK
  8
0
  2
*D16
 70
     1
 10
0.0
 20
0.0
 30
0.0
  3
*D16
  1

  0
LINE
  5
7DEA
  8
3
 62
     0
 10
2747.3797387455588
 20
3241.960791
 30
0.0
 11
2747.3797387455588
 21
4078.1070759999998
 31
0.0
  0
LINE
  5
7DEB
  8
3
 62
     0
 10
2221.3822129999999
 20
4048.1070759999989
 30
0.0
 11
2687.3797387455588
 21
4048.1070759999989
 31
0.0
  0
INSERT
  5
7DEC
  8
3
 62
     0
  2
_OPEN
 10
2161.382212999999
 20
4048.1070759999989
 30
0.0
 41
60.0
 42
60.0
 43
60.0
 50
180.0
  0
INSERT
  5
7DED
  8
3
 62
     0
  2
_OPEN
 10
2747.3797387455588
 20
4048.1070759999989
 30
0.0
 41
60.0
 42
60.0
 43
60.0
  0
TEXT
  8
3
  40
90
  5
7E08
  62
0
  72
0
  71
0
 10
2274.38
 20
3963.81
 30
0.000000
  1
586
  0
POINT
  5
7DEF
  8
DEFPOINTS
 62
     0
 10
2161.382212999999
 20
4030.6877949999998
 30
0.0
  0
POINT
  5
7DF0
  8
DEFPOINTS
 62
     0
 10
2747.3797387455588
 20
3226.9607909999991
 30
0.0
  0
POINT
  5
7DF1
  8
DEFPOINTS
 62
     0
 10
2747.3797387455588
 20
4048.1070759999989
 30
0.0
  0
ENDBLK
  5
7D1A
  8
0
  0
BLOCK
  8
0
  2
*D17
 70
     1
 10
0.0
 20
0.0
 30
0.0
  3
*D17
  1

  0
LINE
  5
7DF2
  8
3
 62
     0
 10
2146.3822129999999
 20
3734.942195528527
 30
0.0
 11
1038.9327900000001
 21
3734.942195528527
 31
0.0
  0
LINE
  5
7DF3
  8
3
 62
     0
 10
1068.9327899999989
 20
3286.960791
 30
0.0
 11
1068.9327900000001
 21
3674.942195528527
 31
0.0
  0
INSERT
  5
7DF4
  8
3
 62
     0
  2
_OPEN
 10
1068.9327899999989
 20
3226.9607909999991
 30
0.0
 41
60.0
 42
60.0
 43
60.0
 50
270.0
  0
INSERT
  5
7DF5
  8
3
 62
     0
  2
_OPEN
 10
1068.9327900000001
 20
3734.942195528527
 30
0.0
 41
60.0
 42
60.0
 43
60.0
 50
90.0
  0
TEXT
  8
3
  40
90
  5
7E09
  62
0
  72
0
  71
0
 10
813.933
 20
3321.65
 30
0.000000
  1
508
  0
POINT
  5
7DF7
  8
DEFPOINTS
 62
     0
 10
1460.2018109999999
 20
3226.9607909999991
 30
0.0
  0
POINT
  5
7DF8
  8
DEFPOINTS
 62
     0
 10
2161.382212999999
 20
3734.942195528527
 30
0.0
  0
POINT
  5
7DF9
  8
DEFPOINTS
 62
     0
 10
1068.9327900000001
 20
3734.942195528527
 30
0.0
  0
ENDBLK
  5
7D26
  8
0
  0
ENDSEC
  0
SECTION
  2
ENTITIES
  0
LINE
  5
7ACB
  8
1
  6
CONTINUOUS
 10
2810.8622129999999
 20
5451.2349861831826
 30
0.0
 11
2810.8622129999999
 21
5907.1749861831831
 31
0.0
  0
LINE
  5
7ACC
  8
1
  6
CONTINUOUS
 10
3139.8422129999999
 20
5451.2349861831826
 30
0.0
 11
3139.8422129999999
 21
5907.1749861831831
 31
0.0
  0
LINE
  5
7ACD
  8
1
  6
CONTINUOUS
 10
3191.3822129999999
 20
6072.2249861831833
 30
0.0
 11
3191.3822129999999
 21
5312.2249861831833
 31
0.0
  0
LINE
  5
7ACE
  8
1
  6
CONTINUOUS
 10
1626.3822130000001
 20
6060.2249861831833
 30
0.0
 11
1626.3822130000001
 21
5450.2249861831833
 31
0.0
  0
LINE
  5
7ACF
  8
1
  6
CONTINUOUS
 10
2749.1222130000001
 20
6020.2249861831833
 30
0.0
 11
2749.1222130000001
 21
5490.2249861831833
 31
0.0
  0
LINE
  5
7AD0
  8
1
  6
CONTINUOUS
 10
3341.3822129999999
 20
6205.2249861831833
 30
0.0
 11
3341.3822129999999
 21
5155.2249861831833
 31
0.0
  0
LINE
  5
7AD1
  8
1
  6
CONTINUOUS
 10
1541.3822130000001
 20
6205.2249861831833
 30
0.0
 11
1541.3822130000001
 21
5155.2249861831833
 31
0.0
  0
LINE
  5
7AD2
  8
1
  6
CONTINUOUS
 10
1591.3822130000001
 20
6155.2249861831833
 30
0.0
 11
1591.3822130000001
 21
5205.2249861831833
 31
0.0
  0
LINE
  5
7AD3
  8
1
  6
CONTINUOUS
 10
3291.3822129999999
 20
5205.2249861831833
 30
0.0
 11
3291.3822129999999
 21
6155.2249861831833
 31
0.0
  0
ARC
  5
7AD5
  8
1
  6
CONTINUOUS
 10
2191.3822129999999
 20
3256.960791
 30
0.0
 40
478.79000000000002
 50
97.430000000000021
 51
179.52000000000001
  0
LINE
  5
7AD6
  8
1
  6
CONTINUOUS
 10
1626.3822130000001
 20
2530.960791
 30
0.0
 11
2161.382212999999
 21
2546.960791
 31
0.0
  0
LINE
  5
7AD7
  8
1
  6
CONTINUOUS
 10
1791.3822130000001
 20
3576.9607909999991
 30
0.0
 11
2311.382212999999
 21
3576.9607909999991
 31
0.0
  0
LINE
  5
7AD8
  8
1
  6
CONTINUOUS
 10
1691.382212999999
 20
5312.2249861831833
 30
0.0
 11
2011.3822130000001
 21
5312.2249861831833
 31
0.0
  0
LINE
  5
7AD9
  8
1
  6
CONTINUOUS
 10
1626.3822130000001
 20
5490.2249861831833
 30
0.0
 11
2749.1222130000001
 21
5490.2249861831833
 31
0.0
  0
LINE
  5
7ADA
  8
1
  6
CONTINUOUS
 10
1791.3822130000001
 20
5255.2249861831833
 30
0.0
 11
3151.382212999999
 21
5255.2249861831833
 31
0.0
  0
LINE
  5
7ADB
  8
1
  6
CONTINUOUS
 10
1791.3822130000001
 20
5395.2249861831833
 30
0.0
 11
3151.382212999999
 21
5395.2249861831833
 31
0.0
  0
LINE
  5
7ADC
  8
1
  6
CONTINUOUS
 10
1691.382212999999
 20
2436.960791
 30
0.0
 11
3191.3822129999999
 21
2436.960791
 31
0.0
  0
LINE
  5
7ADD
  8
1
  6
CONTINUOUS
 10
1691.382212999999
 20
2336.960791
 30
0.0
 11
3191.3822129999999
 21
2336.960791
 31
0.0
  0
LINE
  5
7AE0
  8
1
  6
CONTINUOUS
 10
1541.3822130000001
 20
2260.960791
 30
0.0
 11
3341.3822129999999
 21
2260.960791
 31
0.0
  0
LINE
  5
7AE1
  8
1
  6
CONTINUOUS
 10
1541.3822130000001
 20
3910.9607909999991
 30
0.0
 11
3341.3822129999999
 21
3910.9607909999991
 31
0.0
  0
LINE
  5
7AE2
  8
1
  6
CONTINUOUS
 10
3341.3822129999999
 20
5155.2249861831833
 30
0.0
 11
1541.3822130000001
 21
5155.2249861831833
 31
0.0
  0
LINE
  5
7AE3
  8
1
  6
CONTINUOUS
 10
1591.3822130000001
 20
3860.9607909999991
 30
0.0
 11
3291.3822129999999
 21
3860.9607909999991
 31
0.0
  0
LINE
  5
7AE4
  8
1
  6
CONTINUOUS
 10
3291.3822129999999
 20
2310.960791
 30
0.0
 11
1591.3822130000001
 21
2310.960791
 31
0.0
  0
LINE
  5
7AE5
  8
1
  6
CONTINUOUS
 10
1591.3822130000001
 20
5205.2249861831833
 30
0.0
 11
3291.3822129999999
 21
5205.2249861831833
 31
0.0
  0
LINE
  5
7AE6
  8
1
  6
CONTINUOUS
 10
1791.3822130000001
 20
2436.960791
 30
0.0
 11
1791.3822130000001
 21
3576.9607909999991
 31
0.0
  0
LINE
  5
7AE8
  8
1
  6
CONTINUOUS
 10
1541.3822130000001
 20
3910.9607909999991
 30
0.0
 11
1541.3822130000001
 21
2260.960791
 31
0.0
  0
LINE
  5
7AE9
  8
1
  6
CONTINUOUS
 10
1591.3822130000001
 20
2310.960791
 30
0.0
 11
1591.3822130000001
 21
3860.9607909999991
 31
0.0
  0
LINE
  5
7AEA
  8
1
  6
CONTINUOUS
 10
1691.382212999999
 20
2436.960791
 30
0.0
 11
1691.382212999999
 21
2336.960791
 31
0.0
  0
LINE
  5
7AEB
  8
1
  6
CONTINUOUS
 10
1656.3822130000001
 20
3260.960791
 30
0.0
 11
1656.3822130000001
 21
2531.8607910000001
 31
0.0
  0
LINE
  5
7AEC
  8
1
  6
CONTINUOUS
 10
1712.612212999999
 20
3260.960791
 30
0.0
 11
1626.3822130000001
 21
3260.960791
 31
0.0
  0
LINE
  5
7AED
  8
1
  6
CONTINUOUS
 10
1626.3822130000001
 20
3300.960791
 30
0.0
 11
1626.3822130000001
 21
2490.960791
 31
0.0
  0
LINE
  5
7AEE
  8
1
  6
CONTINUOUS
 10
1691.382212999999
 20
5490.2249861831833
 30
0.0
 11
1691.382212999999
 21
5312.2249861831833
 31
0.0
  0
LINE
  5
7AEF
  8
1
  6
CONTINUOUS
 10
1791.3822130000001
 20
5255.2249861831833
 30
0.0
 11
1791.3822130000001
 21
5395.2249861831833
 31
0.0
  0
ARC
  5
7AF0
  8
1
  6
CONTINUOUS
 10
2200.3822129999999
 20
3187.960791
 30
0.0
 40
548.36999999999989
 50
5.3099999999999987
 51
97.430000000000021
  0
LINE
  5
7AF1
  8
1
  6
CONTINUOUS
 10
2311.382212999999
 20
3576.9607909999991
 30
0.0
 11
3151.382212999999
 21
2736.960791
 31
0.0
  0
LINE
  5
7AF3
  8
1
  6
CONTINUOUS
 10
3341.3822129999999
 20
3910.9607909999991
 30
0.0
 11
3341.3822129999999
 21
2260.960791
 31
0.0
  0
LINE
  5
7AF4
  8
1
  6
CONTINUOUS
 10
3291.3822129999999
 20
3860.9607909999991
 30
0.0
 11
3291.3822129999999
 21
2310.960791
 31
0.0
  0
LINE
  5
7AF5
  8
2
  6
CENTER
 10
3052.8622129999999
 20
2636.9607909999991
 30
0.0
 11
2892.8622129999999
 21
2636.9607909999991
 31
0.0
  0
ARC
  5
7AF6
  8
1
  6
CONTINUOUS
 10
2972.862212999999
 20
2636.9607909999991
 30
0.0
 40
162.0
 50
324.97000000000003
 51
215.02999999999989
  0
CIRCLE
  5
7AF7
  8
1
  6
CONTINUOUS
 10
2972.862212999999
 20
2636.9607909999991
 30
0.0
 40
80.0
  0
LINE
  5
7AF8
  8
1
  6
CONTINUOUS
 10
3024.3022129999999
 20
2698.2207910000002
 30
0.0
 11
2257.842212999999
 21
3341.830790999999
 31
0.0
  0
ARC
  5
7AF9
  8
1
  6
CONTINUOUS
 10
2114.3822129999999
 20
3179.960791
 30
0.0
 40
634.74000000000001
 50
274.25
 51
5.3099999999999987
  0
CIRCLE
  5
7AFA
  8
1
  6
CONTINUOUS
 10
2161.382212999999
 20
3226.9607909999991
 30
0.0
 40
150.0
  0
LINE
  5
7AFB
  8
1
  6
CONTINUOUS
 10
2818.8622129999999
 20
2494.960791
 30
0.0
 11
2840.202213
 21
2543.9707910000002
 31
0.0
  0
LINE
  5
7AFC
  8
1
  6
CONTINUOUS
 10
2818.8622129999999
 20
2436.960791
 30
0.0
 11
2818.8622129999999
 21
2494.960791
 31
0.0
  0
LINE
  5
7AFD
  8
2
  6
CENTER
 10
1460.2018109999999
 20
3226.9607909999991
 30
0.0
 11
3515.0376660000002
 21
3226.9607909999991
 31
0.0
  0
LINE
  5
7AFE
  8
2
  6
CENTER
 10
2161.382212999999
 20
6340.3812281831833
 30
0.0
 11
2161.382212999999
 21
5071.9246141831827
 31
0.0
  0
LINE
  5
7AFF
  8
1
  6
CONTINUOUS
 10
2930.4422129999998
 20
2569.130791
 30
0.0
 11
2081.8522130000001
 21
3099.7807910000001
 31
0.0
  0
LINE
  5
7B00
  8
2
  6
CENTER
 10
2972.862212999999
 20
2556.960791
 30
0.0
 11
2972.862212999999
 21
2716.9607909999991
 31
0.0
  0
LINE
  5
7B01
  8
1
  6
CONTINUOUS
 10
3126.8622129999999
 20
2436.960791
 30
0.0
 11
3126.8622129999999
 21
2494.960791
 31
0.0
  0
LINE
  5
7B02
  8
1
  6
CONTINUOUS
 10
3126.8622129999999
 20
2494.960791
 30
0.0
 11
3105.512213
 21
2543.9707910000002
 31
0.0
  0
LINE
  5
7B03
  8
1
  6
CONTINUOUS
 10
3151.382212999999
 20
2436.960791
 30
0.0
 11
3151.382212999999
 21
2736.960791
 31
0.0
  0
LINE
  5
7B04
  8
1
  6
CONTINUOUS
 10
3191.3822129999999
 20
2436.960791
 30
0.0
 11
3191.3822129999999
 21
2336.960791
 31
0.0
  0
LINE
  5
7B05
  8
1
  6
CONTINUOUS
 10
3139.8422129999999
 20
5451.2349861831826
 30
0.0
 11
2810.8622129999999
 21
5451.2349861831826
 31
0.0
  0
LINE
  5
7B06
  8
1
  6
CONTINUOUS
 10
2892.8622129999999
 20
5285.2249861831842
 30
0.0
 11
3052.8622129999999
 21
5285.2249861831842
 31
0.0
  0
LINE
  5
7B07
  8
1
  6
CONTINUOUS
 10
2892.8622129999999
 20
5365.2249861831833
 30
0.0
 11
3052.8622129999999
 21
5365.2249861831833
 31
0.0
  0
LINE
  5
7B08
  8
1
  6
CONTINUOUS
 10
2311.382212999999
 20
5312.2249861831833
 30
0.0
 11
2892.8622129999999
 21
5312.2249861831833
 31
0.0
  0
LINE
  5
7B09
  8
1
  6
CONTINUOUS
 10
2951.8622129999999
 20
5365.2249861831833
 30
0.0
 11
2951.8622129999999
 21
5451.2349861831826
 31
0.0
  0
LINE
  5
7B0A
  8
1
  6
CONTINUOUS
 10
2892.8622129999999
 20
5285.2249861831842
 30
0.0
 11
2892.8622129999999
 21
5365.2249861831833
 31
0.0
  0
LINE
  5
7B0B
  8
1
  6
CONTINUOUS
 10
2311.382212999999
 20
5285.2249861831842
 30
0.0
 11
2311.382212999999
 21
5365.2249861831833
 31
0.0
  0
LINE
  5
7B0C
  8
1
  6
CONTINUOUS
 10
2011.3822130000001
 20
5285.2249861831842
 30
0.0
 11
2011.3822130000001
 21
5365.2249861831833
 31
0.0
  0
LINE
  5
7B0D
  8
1
  6
CONTINUOUS
 10
2011.3822130000001
 20
5285.2249861831842
 30
0.0
 11
2311.382212999999
 21
5285.2249861831842
 31
0.0
  0
LINE
  5
7B0E
  8
1
  6
CONTINUOUS
 10
2011.3822130000001
 20
5365.2249861831833
 30
0.0
 11
2311.382212999999
 21
5365.2249861831833
 31
0.0
  0
LINE
  5
7B0F
  8
1
  6
CONTINUOUS
 10
2182.382212999999
 20
5365.2249861831833
 30
0.0
 11
2182.382212999999
 21
5490.2249861831833
 31
0.0
  0
LINE
  5
7B10
  8
1
  6
CONTINUOUS
 10
2140.3822129999999
 20
5365.2249861831833
 30
0.0
 11
2140.3822129999999
 21
5490.2249861831833
 31
0.0
  0
LINE
  5
7B11
  8
1
  6
CONTINUOUS
 10
3052.8622129999999
 20
5312.2249861831833
 30
0.0
 11
3191.3822129999999
 21
5312.2249861831833
 31
0.0
  0
LINE
  5
7B12
  8
1
  6
CONTINUOUS
 10
2993.862212999999
 20
5365.2249861831833
 30
0.0
 11
2993.862212999999
 21
5451.2349861831826
 31
0.0
  0
LINE
  5
7B13
  8
1
  6
CONTINUOUS
 10
3151.382212999999
 20
5255.2249861831833
 30
0.0
 11
3151.382212999999
 21
5395.2249861831833
 31
0.0
  0
LINE
  5
7B14
  8
1
  6
CONTINUOUS
 10
3052.8622129999999
 20
5285.2249861831842
 30
0.0
 11
3052.8622129999999
 21
5365.2249861831833
 31
0.0
  0
LINE
  5
7B15
  8
1
  6
CONTINUOUS
 10
1691.382212999999
 20
6072.2249861831833
 30
0.0
 11
3191.3822129999999
 21
6072.2249861831833
 31
0.0
  0
LINE
  5
7B16
  8
1
  6
CONTINUOUS
 10
1626.3822130000001
 20
6020.2249861831833
 30
0.0
 11
2749.1222130000001
 21
6020.2249861831833
 31
0.0
  0
LINE
  5
7B17
  8
1
  6
CONTINUOUS
 10
3341.3822129999999
 20
6205.2249861831833
 30
0.0
 11
1541.3822130000001
 21
6205.2249861831833
 31
0.0
  0
LINE
  5
7B18
  8
1
  6
CONTINUOUS
 10
3291.3822129999999
 20
6155.2249861831833
 30
0.0
 11
1591.3822130000001
 21
6155.2249861831833
 31
0.0
  0
LINE
  5
7B19
  8
1
  6
CONTINUOUS
 10
1691.382212999999
 20
6072.2249861831833
 30
0.0
 11
1691.382212999999
 21
6020.2249861831833
 31
0.0
  0
LINE
  5
7B1A
  8
1
  6
CONTINUOUS
 10
3139.8422129999999
 20
5907.1749861831831
 30
0.0
 11
2810.8622129999999
 21
5907.1749861831831
 31
0.0
  0
LINE
  5
7B67
  8
1
  6
CONTINUOUS
 10
5045.883022
 20
3910.9607909999991
 30
0.0
 11
5045.883022
 21
2260.960791
 31
0.0
  0
LINE
  5
7B68
  8
1
  6
CONTINUOUS
 10
3995.883022
 20
3910.9607909999991
 30
0.0
 11
3995.883022
 21
2260.960791
 31
0.0
  0
LINE
  5
7B69
  8
1
  6
CONTINUOUS
 10
4235.883022
 20
3576.9607909999991
 30
0.0
 11
4235.883022
 21
2436.960791
 31
0.0
  0
LINE
  5
7B6A
  8
1
  6
CONTINUOUS
 10
4095.883022
 20
3576.9607909999991
 30
0.0
 11
4095.883022
 21
2436.960791
 31
0.0
  0
LINE
  5
7B6B
  8
1
  6
CONTINUOUS
 10
4860.883022
 20
3657.9607909999991
 30
0.0
 11
4860.883022
 21
2436.960791
 31
0.0
  0
LINE
  5
7B6C
  8
1
  6
CONTINUOUS
 10
4330.883022
 20
3657.9607909999991
 30
0.0
 11
4330.883022
 21
2436.960791
 31
0.0
  0
LINE
  5
7B6D
  8
1
  6
CONTINUOUS
 10
4995.8830220000009
 20
2310.960791
 30
0.0
 11
4995.8830220000009
 21
3860.9607909999991
 31
0.0
  0
LINE
  5
7B6E
  8
1
  6
CONTINUOUS
 10
4045.883022
 20
3860.9607909999991
 30
0.0
 11
4045.883022
 21
2310.960791
 31
0.0
  0
LINE
  5
7B6F
  8
1
  6
CONTINUOUS
 10
5045.883022
 20
2260.960791
 30
0.0
 11
3995.883022
 21
2260.960791
 31
0.0
  0
LINE
  5
7B70
  8
1
  6
CONTINUOUS
 10
4330.883022
 20
3260.960791
 30
0.0
 11
4860.883022
 21
2530.960791
 31
0.0
  0
LINE
  5
7B71
  8
1
  6
CONTINUOUS
 10
4860.883022
 20
3260.960791
 30
0.0
 11
4330.883022
 21
2530.960791
 31
0.0
  0
LINE
  5
7B72
  8
1
  6
CONTINUOUS
 10
4912.8830219999991
 20
2436.960791
 30
0.0
 11
4095.883022
 21
2436.960791
 31
0.0
  0
LINE
  5
7B73
  8
1
  6
CONTINUOUS
 10
4912.8830219999991
 20
2336.960791
 30
0.0
 11
4152.883022
 21
2336.960791
 31
0.0
  0
LINE
  5
7B74
  8
1
  6
CONTINUOUS
 10
4330.883022
 20
2530.960791
 30
0.0
 11
4860.883022
 21
2530.960791
 31
0.0
  0
LINE
  5
7B75
  8
1
  6
CONTINUOUS
 10
4330.883022
 20
3260.960791
 30
0.0
 11
4860.883022
 21
3260.960791
 31
0.0
  0
LINE
  5
7B76
  8
1
  6
CONTINUOUS
 10
4045.883022
 20
2310.960791
 30
0.0
 11
4995.8830220000009
 21
2310.960791
 31
0.0
  0
LINE
  5
7B77
  8
1
  6
CONTINUOUS
 10
4205.883022
 20
3247.960791
 30
0.0
 11
4330.883022
 21
3247.960791
 31
0.0
  0
LINE
  5
7B78
  8
1
  6
CONTINUOUS
 10
4205.883022
 20
3205.9607909999991
 30
0.0
 11
4330.883022
 21
3205.9607909999991
 31
0.0
  0
LINE
  5
7B79
  8
1
  6
CONTINUOUS
 10
4205.883022
 20
2575.9607909999991
 30
0.0
 11
4330.883022
 21
2575.9607909999991
 31
0.0
  0
LINE
  5
7B7A
  8
1
  6
CONTINUOUS
 10
4205.883022
 20
2617.960791
 30
0.0
 11
4330.883022
 21
2617.960791
 31
0.0
  0
LINE
  5
7B7B
  8
1
  6
CONTINUOUS
 10
4125.883022
 20
2676.960791
 30
0.0
 11
4205.883022
 21
2676.960791
 31
0.0
  0
LINE
  5
7B7C
  8
1
  6
CONTINUOUS
 10
4125.883022
 20
2516.960791
 30
0.0
 11
4205.883022
 21
2516.960791
 31
0.0
  0
LINE
  5
7B7D
  8
1
  6
CONTINUOUS
 10
4125.883022
 20
3376.960791
 30
0.0
 11
4205.883022
 21
3376.960791
 31
0.0
  0
LINE
  5
7B7E
  8
1
  6
CONTINUOUS
 10
4125.883022
 20
3076.960791
 30
0.0
 11
4205.883022
 21
3076.960791
 31
0.0
  0
LINE
  5
7B7F
  8
1
  6
CONTINUOUS
 10
4125.883022
 20
2516.960791
 30
0.0
 11
4125.883022
 21
2676.960791
 31
0.0
  0
LINE
  5
7B80
  8
1
  6
CONTINUOUS
 10
4205.883022
 20
2516.960791
 30
0.0
 11
4205.883022
 21
2676.960791
 31
0.0
  0
LINE
  5
7B81
  8
1
  6
CONTINUOUS
 10
4125.883022
 20
3076.960791
 30
0.0
 11
4125.883022
 21
3376.960791
 31
0.0
  0
LINE
  5
7B82
  8
1
  6
CONTINUOUS
 10
4205.883022
 20
3076.960791
 30
0.0
 11
4205.883022
 21
3376.960791
 31
0.0
  0
LINE
  5
7B83
  8
1
  6
CONTINUOUS
 10
4152.883022
 20
2436.960791
 30
0.0
 11
4152.883022
 21
2336.960791
 31
0.0
  0
LINE
  5
7B86
  8
1
  6
CONTINUOUS
 10
4912.8830219999991
 20
2436.960791
 30
0.0
 11
4912.8830219999991
 21
2336.960791
 31
0.0
  0
LINE
  5
7B87
  8
1
  6
CONTINUOUS
 10
5045.883022
 20
3910.9607909999991
 30
0.0
 11
3995.883022
 21
3910.9607909999991
 31
0.0
  0
LINE
  5
7B88
  8
1
  6
CONTINUOUS
 10
4330.883022
 20
3657.9607909999991
 30
0.0
 11
4860.883022
 21
3657.9607909999991
 31
0.0
  0
LINE
  5
7B89
  8
1
  6
CONTINUOUS
 10
4995.8830220000009
 20
3860.9607909999991
 30
0.0
 11
4045.883022
 21
3860.9607909999991
 31
0.0
  0
LINE
  5
7B8A
  8
1
  6
CONTINUOUS
 10
4235.883022
 20
3576.9607909999991
 30
0.0
 11
4095.883022
 21
3576.9607909999991
 31
0.0
  0
LINE
  5
7B91
  8
2
  6
CENTER
 10
4595.883022
 20
4034.7145639999999
 30
0.0
 11
4595.883022
 21
2047.6147539999999
 31
0.0
  0
LINE
  5
7B92
  8
2
  6
CENTER
 10
3481.6327869999991
 20
5755.2249861831833
 30
0.0
 11
1443.9354039999989
 21
5755.2249861831833
 31
0.0
  0
LINE
  5
7B93
  8
2
  6
CENTER
 10
3883.316613
 20
3226.9607909999991
 30
0.0
 11
5186.1066920000003
 21
3226.9607909999991
 31
0.0
  0
LINE
  5
7B94
  8
2
  6
CENTER
 10
2161.382212999999
 20
4030.6877949999998
 30
0.0
 11
2161.382212999999
 21
2128.9771969999988
 31
0.0
  0
LINE
  5
7B95
  8
4
  6
CONTINUOUS
 10
5550.0
 20
1500.0
 30
0.0
 11
5550.0
 21
900.0
 31
0.0
  0
LINE
  5
7B96
  8
4
  6
CONTINUOUS
 10
3450.0
 20
1500.0
 30
0.0
 11
3450.0
 21
900.0
 31
0.0
  0
LINE
  5
7B97
  8
4
  6
CONTINUOUS
 10
1950.0
 20
1500.0
 30
0.0
 11
1950.0
 21
900.0
 31
0.0
  0
LINE
  5
7B9A
  8
4
  6
CONTINUOUS
 10
1950.0
 20
900.0
 30
0.0
 11
5550.0
 21
900.0
 31
0.0
  0
LINE
  5
7B9B
  8
4
  6
CONTINUOUS
 10
1950.0
 20
1200.0
 30
0.0
 11
5550.0
 21
1200.0
 31
0.0
  0
TEXT
  5
7B9C
  8
4
  6
CONTINUOUS
 10
2065.5062429999989
 20
1294.6290779999999
 30
0.0
 40
150.0
  1
機器名称
  0
TEXT
  5
7B9D
  8
4
  6
CONTINUOUS
 10
2058.7743179999989
 20
964.9354699999999
 30
0.0
 40
150.0
  1
機器型番
  0
TEXT
  5
7B9E
  8
4
  6
CONTINUOUS
 10
3533.0362359999999
 20
1267.7153069999999
 30
0.0
 40
150.0
  1
ミツヤ多翼送風機
  0
TEXT
  5
7B9F
  8
4
  6
CONTINUOUS
 10
3559.9634869999991
 20
951.47875299999987
 30
0.0
 40
150.0
  1
MF#4 1/2-4
  0
TEXT
  5
7BA1
  8
4
  6
CONTINUOUS
 10
2216.8019189999991
 20
7150.2865239999992
 30
0.0
 40
162.0
  1
天井吊枠防振ベット
  0
TEXT
  5
7BA2
  8
4
  6
CONTINUOUS
 10
948.50278000000014
 20
7601.6429289999996
 30
0.0
 40
216.0
  1
ベルト駆動式片吸込両持多翼ファン
  0
LINE
  5
7BA3
  8
4
  6
CONTINUOUS
 10
750.0
 20
7408.2262629999996
 30
0.0
 11
5550.0
 21
7408.2262629999996
 31
0.0
  0
LINE
  5
7BA4
  8
4
  6
CONTINUOUS
 10
750.0
 20
8008.2262629999996
 30
0.0
 11
5550.0
 21
8008.2262629999996
 31
0.0
  0
LINE
  5
7BA5
  8
4
  6
CONTINUOUS
 10
1950.0
 20
1500.0
 30
0.0
 11
5550.0
 21
1500.0
 31
0.0
  0
LINE
  5
7BA6
  8
4
  6
CONTINUOUS
 10
750.0
 20
8008.2262629999996
 30
0.0
 11
750.0
 21
7408.2262629999996
 31
0.0
  0
TEXT
  5
7BA7
  8
4
  6
CONTINUOUS
 10
909.22542199999998
 20
7146.9584329999998
 30
0.0
 40
162.0
  1
右回転左横向
  0
TEXT
  5
7BA8
  8
4
  6
CONTINUOUS
 10
4406.9086779999989
 20
8118.1832439999989
 30
0.0
 40
168.0
  1
No.
  0
TEXT
  5
7BA9
  8
4
  6
CONTINUOUS
 10
4166.2345210000003
 20
7150.2865239999992
 30
0.0
 40
162.0
  1
縮尺：1/30
  0
LINE
  5
7BAA
  8
4
  6
CONTINUOUS
 10
5550.0
 20
8008.2262629999996
 30
0.0
 11
5550.0
 21
7408.2262629999996
 31
0.0
  0
LINE
  5
7BAC
  8
4
  6
CONTINUOUS
 10
4321.8522670000002
 20
8043.7907490000007
 30
0.0
 11
4321.8522670000002
 21
8359.9567849999985
 31
0.0
  0
LINE
  5
7BAD
  8
4
  6
CONTINUOUS
 10
4321.8522670000002
 20
8359.9567849999985
 30
0.0
 11
5550.0
 21
8359.9567849999985
 31
0.0
  0
LINE
  5
7BAE
  8
4
  6
CONTINUOUS
 10
5550.0
 20
8359.9567849999985
 30
0.0
 11
5550.0
 21
8043.7907490000007
 31
0.0
  0
LINE
  5
7BAF
  8
4
  6
CONTINUOUS
 10
5550.0
 20
8043.7907490000007
 30
0.0
 11
4321.8522670000002
 21
8043.7907490000007
 31
0.0
  0
DIMENSION
  5
7BC7
  8
3
  6
CONTINUOUS
  2
*D1
 10
1439.657835
 20
2530.960791
 30
0.0
 11
1439.657835
 21
2882.9700269999998
 31
0.0
 70
   128
 13
1626.3822130000001
 23
3260.960791
 33
0.0
 14
1626.3822130000001
 24
2530.960791
 34
0.0
 50
90.0
1001
ACAD
1000
DSTYLE
1002
{
1070
   287
1070
     3
1070
    40
1040
30.0
1070
   143
1040
0.039
1070
   172
1070
     1
1070
   271
1070
     0
1070
   279
1070
     0
1070
   288
1070
     1
1002
}
  0
DIMENSION
  5
7BD4
  8
3
  6
CONTINUOUS
  2
*D2
 10
1242.3364489999999
 20
2530.960791
 30
0.0
 11
1242.3364489999999
 21
2882.9700269999998
 31
0.0
 70
   128
 13
1460.2018109999999
 23
3226.9607909999991
 33
0.0
 14
1591.3822130000001
 24
2530.960791
 34
0.0
 50
90.0
1001
ACAD
1000
DSTYLE
1002
{
1070
   287
1070
     3
1070
    40
1040
30.0
1070
   143
1040
0.039
1070
   172
1070
     1
1070
   271
1070
     0
1070
   279
1070
     0
1070
   288
1070
     1
1002
}
  0
DIMENSION
  5
7BE1
  8
3
  6
CONTINUOUS
  2
*D3
 10
1068.9327900000001
 20
2336.960791
 30
0.0
 11
1068.9327900000001
 21
2751.518673
 31
0.0
 70
   128
 13
1460.2018109999999
 23
3226.9607909999991
 33
0.0
 14
1691.382212999999
 24
2336.960791
 34
0.0
 50
90.0
1001
ACAD
1000
DSTYLE
1002
{
1070
   287
1070
     3
1070
    40
1040
30.0
1070
   143
1040
0.039
1070
   172
1070
     1
1070
   271
1070
     0
1070
   279
1070
     0
1070
   288
1070
     1
1002
}
  0
DIMENSION
  5
7BF1
  8
3
  6
CONTINUOUS
  2
*D4
 10
1070.291029
 20
2260.960791
 30
0.0
 11
1070.291029
 21
2040.246505285714
 31
0.0
 70
   128
 13
1691.382212999999
 23
2336.960791
 33
0.0
 14
1541.3822130000001
 24
2260.960791
 34
0.0
 50
90.0
1001
ACAD
1000
DSTYLE
1002
{
1070
   287
1070
     3
1070
    40
1040
30.0
1070
   143
1040
0.039
1070
   172
1070
     1
1070
   271
1070
     0
1070
   279
1070
     0
1070
   288
1070
     1
1002
}
  0
DIMENSION
  5
7BFE
  8
3
  6
CONTINUOUS
  2
*D5
 10
2161.382212999999
 20
4048.1070759999989
 30
0.0
 11
1882.136094
 21
4048.1070759999989
 31
0.0
 70
   128
 13
1626.3822130000001
 23
3300.960791
 33
0.0
 14
2161.382212999999
 24
4030.6877949999998
 34
0.0
1001
ACAD
1000
DSTYLE
1002
{
1070
   287
1070
     3
1070
    40
1040
30.0
1070
   143
1040
0.039
1070
   172
1070
     1
1070
   271
1070
     0
1070
   279
1070
     0
1070
   288
1070
     1
1002
}
  0
DIMENSION
  5
7C0B
  8
3
  6
CONTINUOUS
  2
*D6
 10
2161.382212999999
 20
2029.6248929999999
 30
0.0
 11
1834.3006069999999
 21
2029.6248929999999
 31
0.0
 70
   128
 13
1541.3822130000001
 23
2260.960791
 33
0.0
 14
2161.382212999999
 24
2128.9771969999988
 34
0.0
1001
ACAD
1000
DSTYLE
1002
{
1070
   287
1070
     3
1070
    40
1040
30.0
1070
   143
1040
0.039
1070
   172
1070
     1
1070
   271
1070
     0
1070
   279
1070
     0
1070
   288
1070
     1
1002
}
  0
DIMENSION
  5
7C17
  8
3
  6
CONTINUOUS
  2
*D7
 10
3341.3822129999999
 20
2029.6248929999999
 30
0.0
 11
2751.382212999999
 21
2104.6248929999988
 31
0.0
 70
     0
 13
2161.382212999999
 23
2128.9771969999988
 33
0.0
 14
3341.3822129999999
 24
2260.960791
 34
0.0
1001
ACAD
1000
DSTYLE
1002
{
1070
   287
1070
     4
1070
    40
1040
30.0
1070
    75
1070
     1
1070
   143
1040
0.039
1070
   172
1070
     1
1070
   271
1070
     0
1070
   279
1070
     1
1070
   288
1070
     1
1002
}
  0
DIMENSION
  5
7C24
  8
3
  6
CONTINUOUS
  2
*D8
 10
4330.883022
 20
4048.1070759999989
 30
0.0
 11
4608.7588619999997
 21
4048.1070759999989
 31
0.0
 70
   128
 13
4860.883022
 23
3657.9607909999991
 33
0.0
 14
4330.883022
 24
3657.9607909999991
 34
0.0
1001
ACAD
1000
DSTYLE
1002
{
1070
   287
1070
     3
1070
    40
1040
30.0
1070
   143
1040
0.039
1070
   172
1070
     1
1070
   271
1070
     0
1070
   279
1070
     0
1070
   288
1070
     1
1002
}
  0
LINE
  5
7C25
  8
1
  6
CONTINUOUS
 10
4862.883022
 20
3603.9607909999991
 30
0.0
 11
4862.883022
 21
2849.960791
 31
0.0
  0
DIMENSION
  5
7C35
  8
3
  6
CONTINUOUS
  2
*D9
 10
4595.883022
 20
4233.3339910000004
 30
0.0
 11
4740.1645985552268
 21
4323.0561011708551
 31
0.0
 70
   128
 13
4862.883022
 23
3603.9607909999991
 33
0.0
 14
4595.883022
 24
4201.7469199999996
 34
0.0
1001
ACAD
1000
DSTYLE
1002
{
1070
   288
1070
     1
1070
   172
1070
     1
1070
    40
1040
30.0
1070
   271
1070
     0
1070
   143
1040
0.039
1002
}
  0
DIMENSION
  5
7C42
  8
3
  6
CONTINUOUS
  2
*D10
 10
5332.2706000000007
 20
2849.9607909999991
 30
0.0
 11
5332.2705999999998
 21
3229.5236060000002
 31
0.0
 70
   128
 13
4862.883022
 23
3603.9607909999991
 33
0.0
 14
4862.883022
 24
2849.960791
 34
0.0
 50
90.0
1001
ACAD
1000
DSTYLE
1002
{
1070
   287
1070
     3
1070
     3
1000
φ<>
1070
    40
1040
30.0
1070
   143
1040
0.039
1070
   172
1070
     1
1070
   271
1070
     0
1070
   279
1070
     0
1070
   288
1070
     1
1002
}
  0
DIMENSION
  5
7C4F
  8
3
  6
CONTINUOUS
  2
*D11
 10
4595.883022
 20
1994.713592999999
 30
0.0
 11
4315.7665020000004
 21
1994.713592999999
 31
0.0
 70
   128
 13
3995.883022
 23
2260.960791
 33
0.0
 14
4595.883022
 24
2047.6147539999999
 34
0.0
1001
ACAD
1000
DSTYLE
1002
{
1070
   287
1070
     3
1070
    40
1040
30.0
1070
   143
1040
0.039
1070
   172
1070
     1
1070
   271
1070
     0
1070
   279
1070
     0
1070
   288
1070
     1
1002
}
  0
DIMENSION
  5
7C5B
  8
3
  6
CONTINUOUS
  2
*D12
 10
5045.883022
 20
1994.713592999999
 30
0.0
 11
4820.883022
 21
2069.713592999999
 31
0.0
 70
     0
 13
4595.883022
 23
2047.6147539999999
 33
0.0
 14
5045.883022
 24
2260.960791
 34
0.0
1001
ACAD
1000
DSTYLE
1002
{
1070
   287
1070
     4
1070
    40
1040
30.0
1070
    75
1070
     1
1070
   143
1040
0.039
1070
   172
1070
     1
1070
   271
1070
     0
1070
   279
1070
     1
1070
   288
1070
     1
1002
}
  0
DIMENSION
  5
7C68
  8
3
  6
CONTINUOUS
  2
*D13
 10
3341.3822129999999
 20
6372.7843471831829
 30
0.0
 11
2372.4498389999999
 21
6372.7843471831829
 31
0.0
 70
   128
 13
1541.3822130000001
 23
6205.2249861831833
 33
0.0
 14
3341.3822129999999
 24
6205.2249861831833
 34
0.0
1001
ACAD
1000
DSTYLE
1002
{
1070
   287
1070
     3
1070
    40
1040
30.0
1070
   143
1040
0.039
1070
   172
1070
     1
1070
   271
1070
     0
1070
   279
1070
     0
1070
   288
1070
     1
1002
}
  0
DIMENSION
  5
7C75
  8
3
  6
CONTINUOUS
  2
*D14
 10
3628.1314020000009
 20
5155.2249861831833
 30
0.0
 11
3628.131402
 21
5703.577418183183
 31
0.0
 70
   128
 13
3341.3822129999999
 23
6205.2249861831833
 33
0.0
 14
3341.3822129999999
 24
5155.2249861831833
 34
0.0
 50
90.0
1001
ACAD
1000
DSTYLE
1002
{
1070
   287
1070
     3
1070
    40
1040
30.0
1070
   143
1040
0.039
1070
   172
1070
     1
1070
   271
1070
     0
1070
   279
1070
     0
1070
   288
1070
     1
1002
}
  0
DIMENSION
  5
7C8E
  8
3
  6
CONTINUOUS
  2
*D15
 10
3834.4520160000002
 20
2260.960791
 30
0.0
 11
3834.4520159999988
 21
3084.722671999999
 31
0.0
 70
   128
 13
3995.883022
 23
3910.9607909999991
 33
0.0
 14
3995.883022
 24
2260.960791
 34
0.0
 50
90.0
1001
ACAD
1000
DSTYLE
1002
{
1070
   287
1070
     3
1070
    40
1040
30.0
1070
   143
1040
0.039
1070
   172
1070
     1
1070
   271
1070
     0
1070
   279
1070
     0
1070
   288
1070
     1
1002
}
  0
DIMENSION
  5
7D0F
  8
3
  2
*D16
 10
2747.3797387455588
 20
4048.1070759999989
 30
0.0
 11
2454.3809758727789
 21
4123.1070760000002
 31
0.0
 70
     0
 13
2161.382212999999
 23
4030.6877949999998
 33
0.0
 14
2747.3797387455588
 24
3226.9607909999991
 34
0.0
1001
ACAD
1000
DSTYLE
1002
{
1070
   287
1070
     4
1070
    40
1040
30.0
1070
    75
1070
     1
1070
   143
1040
0.039
1070
   172
1070
     1
1070
   271
1070
     0
1070
   279
1070
     1
1070
   288
1070
     1
1002
}
  0
DIMENSION
  5
7D27
  8
3
  2
*D17
 10
1068.9327900000001
 20
3734.942195528527
 30
0.0
 11
993.93278999999927
 21
3480.9514932642642
 31
0.0
 70
     0
 13
1460.2018109999999
 23
3226.9607909999991
 33
0.0
 14
2161.382212999999
 24
3734.942195528527
 34
0.0
 50
90.0
1001
ACAD
1000
DSTYLE
1002
{
1070
   287
1070
     4
1070
    40
1040
30.0
1070
    75
1070
     1
1070
   143
1040
0.039
1070
   172
1070
     1
1070
   271
1070
     0
1070
   279
1070
     1
1070
   288
1070
     1
1002
}
  0
LINE
  5
7D4D
  8
1
  6
CONTINUOUS
 10
1701.3822130000001
 20
3356.960791
 30
0.0
 11
2621.3822129999999
 21
3356.960791
 31
0.0
  0
LINE
  5
7D4E
  8
1
 10
2621.3822129999999
 20
3356.960791
 30
0.0
 11
2621.3822129999999
 21
2436.9607909999991
 31
0.0
  0
LINE
  5
7D4F
  8
1
 10
1701.3822130000001
 20
3356.960791
 30
0.0
 11
1701.382212999999
 21
2436.9607909999991
 31
0.0
  0
ENDSEC
  0
EOF
