  0
SECTION
  2
HEADER
  9
$ACADVER
  1
AC1009
  9
$INSBASE
 10
0.0
 20
0.0
 30
0.0
  9
$EXTMIN
 10
750.0
 20
900.0
 30
0.0
  9
$EXTMAX
 10
5550.0
 20
8359.9567849999985
 30
0.0
  9
$LIMMIN
 10
0.0
 20
0.0
  9
$LIMMAX
 10
297.0
 20
210.0
  9
$ORTHOMODE
 70
     0
  9
$REGENMODE
 70
     1
  9
$FILLMODE
 70
     0
  9
$QTEXTMODE
 70
     0
  9
$MIRRTEXT
 70
     1
  9
$DRAGMODE
 70
     2
  9
$LTSCALE
 40
100.0
  9
$OSMODE
 70
    37
  9
$ATTMODE
 70
     1
  9
$TEXTSIZE
 40
180.0
  9
$TRACEWID
 40
0.05
  9
$TEXTSTYLE
  7
STANDARD
  9
$CLAYER
  8
3
  9
$CELTYPE
  6
BYLAYER
  9
$CECOLOR
 62
   256
  9
$DIMSCALE
 40
30.0
  9
$DIMASZ
 40
2.0
  9
$DIMEXO
 40
0.5
  9
$DIMDLI
 40
10.0
  9
$DIMRND
 40
0.0
  9
$DIMDLE
 40
0.0
  9
$DIMEXE
 40
1.0
  9
$DIMTP
 40
1.0
  9
$DIMTM
 40
1.0
  9
$DIMTXT
 40
3.0
  9
$DIMCEN
 40
0.0
  9
$DIMTSZ
 40
0.0
  9
$DIMTOL
 70
     0
  9
$DIMLIM
 70
     0
  9
$DIMTIH
 70
     0
  9
$DIMTOH
 70
     0
  9
$DIMSE1
 70
     0
  9
$DIMSE2
 70
     0
  9
$DIMTAD
 70
     1
  9
$DIMZIN
 70
     8
  9
$DIMBLK
  1

  9
$DIMASO
 70
     1
  9
$DIMSHO
 70
     1
  9
$DIMPOST
  1

  9
$DIMAPOST
  1

  9
$DIMALT
 70
     0
  9
$DIMALTD
 70
     2
  9
$DIMALTF
 40
0.039
  9
$DIMLFAC
 40
1.0
  9
$DIMTOFL
 70
     1
  9
$DIMTVP
 40
0.0
  9
$DIMTIX
 70
     0
  9
$DIMSOXD
 70
     0
  9
$DIMSAH
 70
     1
  9
$DIMBLK1
  1
OPEN
  9
$DIMBLK2
  1
OPEN
  9
$DIMSTYLE
  2
IGA
  9
$DIMCLRD
 70
     0
  9
$DIMCLRE
 70
     0
  9
$DIMCLRT
 70
     0
  9
$DIMTFAC
 40
10.0
  9
$DIMGAP
 40
1.0
  9
$LUNITS
 70
     2
  9
$LUPREC
 70
     3
  9
$SKETCHINC
 40
0.1
  9
$FILLETRAD
 40
0.0
  9
$AUNITS
 70
     0
  9
$AUPREC
 70
     0
  9
$MENU
  1
acad
  9
$ELEVATION
 40
0.0
  9
$PELEVATION
 40
0.0
  9
$THICKNESS
 40
0.0
  9
$LIMCHECK
 70
     0
  9
$BLIPMODE
 70
     0
  9
$CHAMFERA
 40
0.5
  9
$CHAMFERB
 40
0.5
  9
$SKPOLY
 70
     0
  9
$TDCREATE
 40
2450744.6064136568
  9
$TDUPDATE
 40
2454953.7730389121
  9
$TDINDWG
 40
0.0048176968
  9
$TDUSRTIMER
 40
0.0048176968
  9
$USRTIMER
 70
     1
  9
$ANGBASE
 50
0.0
  9
$ANGDIR
 70
     0
  9
$PDMODE
 70
     0
  9
$PDSIZE
 40
0.0
  9
$PLINEWID
 40
0.0
  9
$COORDS
 70
     1
  9
$SPLFRAME
 70
     0
  9
$SPLINETYPE
 70
     6
  9
$SPLINESEGS
 70
     8
  9
$ATTDIA
 70
     0
  9
$ATTREQ
 70
     1
  9
$HANDLING
 70
 10241
  9
$HANDSEED
  5
7D6C
  9
$SURFTAB1
 70
     6
  9
$SURFTAB2
 70
     6
  9
$SURFTYPE
 70
     6
  9
$SURFU
 70
     6
  9
$SURFV
 70
     6
  9
$UCSNAME
  2

  9
$UCSORG
 10
0.0
 20
0.0
 30
0.0
  9
$UCSXDIR
 10
1.0
 20
0.0
 30
0.0
  9
$UCSYDIR
 10
0.0
 20
1.0
 30
0.0
  9
$PUCSNAME
  2

  9
$PUCSORG
 10
0.0
 20
0.0
 30
0.0
  9
$PUCSXDIR
 10
1.0
 20
0.0
 30
0.0
  9
$PUCSYDIR
 10
0.0
 20
1.0
 30
0.0
  9
$USERI1
 70
     0
  9
$USERI2
 70
     0
  9
$USERI3
 70
     0
  9
$USERI4
 70
     0
  9
$USERI5
 70
     0
  9
$USERR1
 40
0.0
  9
$USERR2
 40
0.0
  9
$USERR3
 40
0.0
  9
$USERR4
 40
0.0
  9
$USERR5
 40
0.0
  9
$WORLDVIEW
 70
     1
  9
$SHADEDGE
 70
     3
  9
$SHADEDIF
 70
    70
  9
$TILEMODE
 70
     1
  9
$MAXACTVP
 70
    16
  9
$PLIMCHECK
 70
     0
  9
$PEXTMIN
 10
1.0000000000000000E+020
 20
1.0000000000000000E+020
 30
1.0000000000000000E+020
  9
$PEXTMAX
 10
-1.0000000000000000E+020
 20
-1.0000000000000000E+020
 30
-1.0000000000000000E+020
  9
$PLIMMIN
 10
0.0
 20
0.0
  9
$PLIMMAX
 10
12.0
 20
9.0
  9
$UNITMODE
 70
     0
  9
$VISRETAIN
 70
     0
  9
$PLINEGEN
 70
     0
  9
$PSLTSCALE
 70
     1
  0
ENDSEC
  0
SECTION
  2
TABLES
  0
TABLE
  2
VPORT
 70
     2
  0
VPORT
  2
*ACTIVE
 70
     0
 10
0.0
 20
0.0
 11
1.0
 21
1.0
 12
9437.9954746499006
 22
4629.9199394653269
 13
0.0
 23
0.0
 14
10.0
 24
10.0
 15
10.0
 25
10.0
 16
0.0
 26
0.0
 36
1.0
 17
0.0
 27
0.0
 37
0.0
 40
7517.061441529765
 41
3.1666666666666661
 42
50.0
 43
0.0
 44
0.0
 50
0.0
 51
0.0
 71
     0
 72
   100
 73
     1
 74
     0
 75
     0
 76
     0
 77
     0
 78
     0
  0
ENDTAB
  0
TABLE
  2
LTYPE
 70
     2
  0
LTYPE
  2
CONTINUOUS
 70
     0
  3
Solid line
 72
    65
 73
     0
 40
0.0
  0
LTYPE
  2
CENTER
 70
     0
  3
____ _ ____ _ ____ _ ____ _ ____ _ ____ _ ____ 
 72
    65
 73
     4
 40
2.0
 49
1.25
 49
-0.25
 49
0.25
 49
-0.25
  0
ENDTAB
  0
TABLE
  2
LAYER
 70
     6
  0
LAYER
  2
0
 70
     0
 62
     7
  6
CONTINUOUS
  0
LAYER
  2
3
 70
     0
 62
     2
  6
CONTINUOUS
  0
LAYER
  2
2
 70
     0
 62
     3
  6
CENTER
  0
LAYER
  2
1
 70
     0
 62
     4
  6
CONTINUOUS
  0
LAYER
  2
4
 70
     0
 62
     7
  6
CONTINUOUS
  0
LAYER
  2
DEFPOINTS
 70
     0
 62
     7
  6
CONTINUOUS
  0
ENDTAB
  0
TABLE
  2
STYLE
 70
     1
  0
STYLE
  2
STANDARD
 70
     0
 40
0.0
 41
1.0
 50
0.0
 71
     0
 42
180.0
  3
simplex.shx
  4
extfont.shx
  0
ENDTAB
  0
TABLE
  2
VIEW
 70
     0
  0
ENDTAB
  0
TABLE
  2
UCS
 70
     0
  0
ENDTAB
  0
TABLE
  2
APPID
 70
     1
  0
APPID
  2
ACAD
 70
     0
  0
ENDTAB
  0
TABLE
  2
DIMSTYLE
 70
     1
  0
DIMSTYLE
  2
IGA
 70
     0
  3

  4

  5

  6
OPEN
  7
OPEN
 40
2.0
 41
2.0
 42
0.5
 43
10.0
 44
1.0
 45
0.0
 46
0.0
 47
1.0
 48
1.0
140
3.0
141
0.0
142
0.0
143
0.03937
144
1.0
145
0.0
146
10.0
147
1.0
 71
     0
 72
     0
 73
     0
 74
     0
 75
     0
 76
     0
 77
     1
 78
     8
170
     0
171
     2
172
     0
173
     1
174
     0
175
     0
176
     0
177
     0
178
     0
  0
ENDTAB
  0
ENDSEC
  0
SECTION
  2
BLOCKS
  0
BLOCK
  8
0
  2
$MODEL_SPACE
 70
     0
 10
0.0
 20
0.0
 30
0.0
  3
$MODEL_SPACE
  1

  0
ENDBLK
  5
1B
  8
0
  0
BLOCK
 67
     1
  8
0
  2
$PAPER_SPACE
 70
     0
 10
0.0
 20
0.0
 30
0.0
  3
$PAPER_SPACE
  1

  0
ENDBLK
  5
18
 67
     1
  8
0
  0
BLOCK
  8
0
  2
_OPEN
 70
     0
 10
0.0
 20
0.0
 30
0.0
  3
_OPEN
  1

  0
LINE
  5
7AFB
  8
0
  6
BYBLOCK
 62
     0
 10
-1.0
 20
0.166667
 30
0.0
 11
0.0
 21
0.0
 31
0.0
  0
LINE
  5
7AFC
  8
0
  6
BYBLOCK
 62
     0
 10
0.0
 20
0.0
 30
0.0
 11
-1.0
 21
-0.166667
 31
0.0
  0
LINE
  5
7AFD
  8
0
  6
BYBLOCK
 62
     0
 10
0.0
 20
0.0
 30
0.0
 11
-1.0
 21
0.0
 31
0.0
  0
ENDBLK
  5
7AFE
  8
0
  0
BLOCK
  8
0
  2
*D1
 70
     1
 10
0.0
 20
0.0
 30
0.0
  3
*D1
  1

  0
LINE
  5
7CD8
  8
3
  6
CONTINUOUS
 62
     0
 10
1618.3790919999999
 20
3524.5600229999991
 30
0.0
 11
1618.3790919999999
 21
3703.7118540000001
 31
0.0
  0
LINE
  5
7CD9
  8
3
  6
CONTINUOUS
 62
     0
 10
2348.3790920000001
 20
3524.5600229999991
 30
0.0
 11
2348.3790920000001
 21
3703.7118540000001
 31
0.0
  0
LINE
  5
7CDA
  8
3
  6
CONTINUOUS
 62
     0
 10
1678.379091999999
 20
3673.7118540000001
 30
0.0
 11
2288.3790920000001
 21
3673.7118540000001
 31
0.0
  0
INSERT
  5
7CDB
  8
3
  6
CONTINUOUS
 62
     0
  2
_OPEN
 10
1618.3790919999999
 20
3673.7118540000001
 30
0.0
 41
60.0
 42
60.0
 43
60.0
 50
180.0
  0
INSERT
  5
7CDC
  8
3
  6
CONTINUOUS
 62
     0
  2
_OPEN
 10
2348.3790920000001
 20
3673.7118540000001
 30
0.0
 41
60.0
 42
60.0
 43
60.0
  0
TEXT
  8
3
  40
90
  5
7D5D
  62
0
  72
0
  71
0
 10
1779.91
 20
3589.41
 30
0.000000
  1
730
  0
POINT
  5
7CDE
  8
DEFPOINTS
  6
CONTINUOUS
 62
     0
 10
1618.3790919999999
 20
3509.5600229999991
 30
0.0
  0
POINT
  5
7CDF
  8
DEFPOINTS
  6
CONTINUOUS
 62
     0
 10
2348.3790920000001
 20
3509.5600229999991
 30
0.0
  0
POINT
  5
7CE0
  8
DEFPOINTS
  6
CONTINUOUS
 62
     0
 10
2348.3790920000001
 20
3673.7118540000001
 30
0.0
  0
ENDBLK
  5
7B0B
  8
0
  0
BLOCK
  8
0
  2
*D2
 70
     1
 10
0.0
 20
0.0
 30
0.0
  3
*D2
  1

  0
LINE
  5
7CE1
  8
3
  6
CONTINUOUS
 62
     0
 10
1618.3790919999999
 20
3524.5600229999991
 30
0.0
 11
1618.3790919999999
 21
4050.8694780000001
 31
0.0
  0
LINE
  5
7CE2
  8
3
  6
CONTINUOUS
 62
     0
 10
2314.3790920000001
 20
4036.7194490000002
 30
0.0
 11
2314.3790920000001
 21
3990.8694780000001
 31
0.0
  0
LINE
  5
7CE3
  8
3
  6
CONTINUOUS
 62
     0
 10
1678.379091999999
 20
4020.8694780000001
 30
0.0
 11
2254.3790920000001
 21
4020.8694780000001
 31
0.0
  0
INSERT
  5
7CE4
  8
3
  6
CONTINUOUS
 62
     0
  2
_OPEN
 10
1618.3790919999999
 20
4020.8694780000001
 30
0.0
 41
60.0
 42
60.0
 43
60.0
 50
180.0
  0
INSERT
  5
7CE5
  8
3
  6
CONTINUOUS
 62
     0
  2
_OPEN
 10
2314.3790920000001
 20
4020.8694780000001
 30
0.0
 41
60.0
 42
60.0
 43
60.0
  0
TEXT
  8
3
  40
90
  5
7D5E
  62
0
  72
0
  71
0
 10
1773.59
 20
3936.57
 30
0.000000
  1
696
  0
POINT
  5
7CE7
  8
DEFPOINTS
  6
CONTINUOUS
 62
     0
 10
1618.3790919999999
 20
3509.5600229999991
 30
0.0
  0
POINT
  5
7CE8
  8
DEFPOINTS
  6
CONTINUOUS
 62
     0
 10
2314.3790920000001
 20
4051.7194490000002
 30
0.0
  0
POINT
  5
7CE9
  8
DEFPOINTS
  6
CONTINUOUS
 62
     0
 10
2314.3790920000001
 20
4020.8694780000001
 30
0.0
  0
ENDBLK
  5
7B18
  8
0
  0
BLOCK
  8
0
  2
*D3
 70
     1
 10
0.0
 20
0.0
 30
0.0
  3
*D3
  1

  0
LINE
  5
7CEA
  8
3
  6
CONTINUOUS
 62
     0
 10
2403.3790920000001
 20
3509.5600229999991
 30
0.0
 11
3202.6924399999998
 21
3509.5600229999991
 31
0.0
  0
LINE
  5
7CEB
  8
3
  6
CONTINUOUS
 62
     0
 10
3096.561048
 20
2974.560023
 30
0.0
 11
3202.6924399999998
 21
2974.560023
 31
0.0
  0
LINE
  5
7CEC
  8
3
  6
CONTINUOUS
 62
     0
 10
3172.6924399999998
 20
3449.5600229999991
 30
0.0
 11
3172.6924399999998
 21
3034.560023
 31
0.0
  0
INSERT
  5
7CED
  8
3
  6
CONTINUOUS
 62
     0
  2
_OPEN
 10
3172.6924399999998
 20
3509.5600229999991
 30
0.0
 41
60.0
 42
60.0
 43
60.0
 50
90.0
  0
INSERT
  5
7CEE
  8
3
  6
CONTINUOUS
 62
     0
  2
_OPEN
 10
3172.6924399999998
 20
2974.560023
 30
0.0
 41
60.0
 42
60.0
 43
60.0
 50
270.0
  0
TEXT
  8
3
  40
90
  5
7D5F
  62
0
  72
0
  71
0
 10
2917.69
 20
3085.20
 30
0.000000
  1
535
  0
POINT
  5
7CF0
  8
DEFPOINTS
  6
CONTINUOUS
 62
     0
 10
2388.3790920000001
 20
3509.5600229999991
 30
0.0
  0
POINT
  5
7CF1
  8
DEFPOINTS
  6
CONTINUOUS
 62
     0
 10
3081.561048
 20
2974.560023
 30
0.0
  0
POINT
  5
7CF2
  8
DEFPOINTS
  6
CONTINUOUS
 62
     0
 10
3172.6924399999998
 20
2974.560023
 30
0.0
  0
ENDBLK
  5
7B31
  8
0
  0
BLOCK
  8
0
  2
*D4
 70
     1
 10
0.0
 20
0.0
 30
0.0
  3
*D4
  1

  0
LINE
  5
7CF3
  8
3
  6
CONTINUOUS
 62
     0
 10
2799.3790920000001
 20
2349.5600229999991
 30
0.0
 11
3202.6924399999989
 21
2349.5600229999991
 31
0.0
  0
LINE
  5
7CF4
  8
3
  6
CONTINUOUS
 62
     0
 10
3172.6924399999998
 20
2914.5600229999991
 30
0.0
 11
3172.6924399999998
 21
2409.5600229999991
 31
0.0
  0
INSERT
  5
7CF5
  8
3
  6
CONTINUOUS
 62
     0
  2
_OPEN
 10
3172.6924399999998
 20
2974.560023
 30
0.0
 41
60.0
 42
60.0
 43
60.0
 50
90.0
  0
INSERT
  5
7CF6
  8
3
  6
CONTINUOUS
 62
     0
  2
_OPEN
 10
3172.6924399999998
 20
2349.5600229999991
 30
0.0
 41
60.0
 42
60.0
 43
60.0
 50
270.0
  0
TEXT
  8
3
  40
90
  5
7D60
  62
0
  72
0
  71
0
 10
2917.69
 20
2502.76
 30
0.000000
  1
625
  0
POINT
  5
7CF8
  8
DEFPOINTS
  6
CONTINUOUS
 62
     0
 10
3081.561048
 20
2974.560023
 30
0.0
  0
POINT
  5
7CF9
  8
DEFPOINTS
  6
CONTINUOUS
 62
     0
 10
2784.3790920000001
 20
2349.5600229999991
 30
0.0
  0
POINT
  5
7CFA
  8
DEFPOINTS
  6
CONTINUOUS
 62
     0
 10
3172.6924399999998
 20
2349.5600229999991
 30
0.0
  0
ENDBLK
  5
7B3D
  8
0
  0
BLOCK
  8
0
  2
*D5
 70
     1
 10
0.0
 20
0.0
 30
0.0
  3
*D5
  1

  0
LINE
  5
7CFB
  8
3
  6
CONTINUOUS
 62
     0
 10
2799.3790920000001
 20
2349.5600229999991
 30
0.0
 11
3202.6924399999998
 21
2349.5600229999991
 31
0.0
  0
LINE
  5
7CFC
  8
3
  6
CONTINUOUS
 62
     0
 10
2949.3790920000001
 20
2273.5600229999991
 30
0.0
 11
3202.6924399999998
 21
2273.5600229999991
 31
0.0
  0
LINE
  5
7CFD
  8
3
  6
CONTINUOUS
 62
     0
 10
3172.6924399999998
 20
2409.5600229999991
 30
0.0
 11
3172.6924399999998
 21
2469.5600229999991
 31
0.0
  0
LINE
  5
7CFE
  8
3
  6
CONTINUOUS
 62
     0
 10
3172.6924399999998
 20
2213.5600229999991
 30
0.0
 11
3172.6924399999998
 21
1952.131451571428
 31
0.0
  0
LINE
  5
7CFF
  8
3
  6
CONTINUOUS
 62
     0
 10
3172.6924399999998
 20
2349.5600229999991
 30
0.0
 11
3172.6924399999998
 21
2273.5600229999991
 31
0.0
  0
INSERT
  5
7D00
  8
3
  6
CONTINUOUS
 62
     0
  2
_OPEN
 10
3172.6924399999998
 20
2349.5600229999991
 30
0.0
 41
60.0
 42
60.0
 43
60.0
 50
270.0
  0
INSERT
  5
7D01
  8
3
  6
CONTINUOUS
 62
     0
  2
_OPEN
 10
3172.6924399999998
 20
2273.5600229999991
 30
0.0
 41
60.0
 42
60.0
 43
60.0
 50
90.0
  0
TEXT
  8
3
  40
90
  5
7D61
  62
0
  72
0
  71
0
 10
2917.69
 20
1893.55
 30
0.000000
  1
76
  0
POINT
  5
7D03
  8
DEFPOINTS
  6
CONTINUOUS
 62
     0
 10
2784.3790920000001
 20
2349.5600229999991
 30
0.0
  0
POINT
  5
7D04
  8
DEFPOINTS
  6
CONTINUOUS
 62
     0
 10
2934.3790920000001
 20
2273.5600229999991
 30
0.0
  0
POINT
  5
7D05
  8
DEFPOINTS
  6
CONTINUOUS
 62
     0
 10
3172.6924399999998
 20
2273.5600229999991
 30
0.0
  0
ENDBLK
  5
7C9A
  8
0
  0
BLOCK
  8
0
  2
*D6
 70
     1
 10
0.0
 20
0.0
 30
0.0
  3
*D6
  1

  0
LINE
  5
7D06
  8
3
  6
CONTINUOUS
 62
     0
 10
1134.3790919999999
 20
2258.560023
 30
0.0
 11
1134.3790919999999
 21
2008.91497
 31
0.0
  0
LINE
  5
7D07
  8
3
  6
CONTINUOUS
 62
     0
 10
2314.3790920000001
 20
2123.1510819999999
 30
0.0
 11
2314.3790920000001
 21
2008.91497
 31
0.0
  0
LINE
  5
7D08
  8
3
  6
CONTINUOUS
 62
     0
 10
1194.379091999999
 20
2038.9149699999989
 30
0.0
 11
2254.3790920000001
 21
2038.9149699999989
 31
0.0
  0
INSERT
  5
7D09
  8
3
  6
CONTINUOUS
 62
     0
  2
_OPEN
 10
1134.3790919999999
 20
2038.9149699999989
 30
0.0
 41
60.0
 42
60.0
 43
60.0
 50
180.0
  0
INSERT
  5
7D0A
  8
3
  6
CONTINUOUS
 62
     0
  2
_OPEN
 10
2314.3790920000001
 20
2038.9149699999989
 30
0.0
 41
60.0
 42
60.0
 43
60.0
  0
TEXT
  8
3
  40
90
  5
7D62
  62
0
  72
0
  71
0
 10
1571.46
 20
1954.61
 30
0.000000
  1
1180
  0
POINT
  5
7D0C
  8
DEFPOINTS
  6
CONTINUOUS
 62
     0
 10
1134.3790919999999
 20
2273.5600229999991
 30
0.0
  0
POINT
  5
7D0D
  8
DEFPOINTS
  6
CONTINUOUS
 62
     0
 10
2314.3790920000001
 20
2138.151081999999
 30
0.0
  0
POINT
  5
7D0E
  8
DEFPOINTS
  6
CONTINUOUS
 62
     0
 10
2314.3790920000001
 20
2038.9149699999989
 30
0.0
  0
ENDBLK
  5
7B5A
  8
0
  0
BLOCK
  8
0
  2
*D7
 70
     1
 10
0.0
 20
0.0
 30
0.0
  3
*D7
  1

  0
LINE
  5
7D0F
  8
3
  6
CONTINUOUS
 62
     0
 10
2934.3790920000001
 20
2258.560023
 30
0.0
 11
2934.3790920000001
 21
2008.91497
 31
0.0
  0
LINE
  5
7D10
  8
3
  6
CONTINUOUS
 62
     0
 10
2374.3790920000001
 20
2038.9149699999989
 30
0.0
 11
2874.3790920000001
 21
2038.9149699999989
 31
0.0
  0
INSERT
  5
7D11
  8
3
  6
CONTINUOUS
 62
     0
  2
_OPEN
 10
2314.3790920000001
 20
2038.9149699999989
 30
0.0
 41
60.0
 42
60.0
 43
60.0
 50
180.0
  0
INSERT
  5
7D12
  8
3
  6
CONTINUOUS
 62
     0
  2
_OPEN
 10
2934.3790920000001
 20
2038.9149699999989
 30
0.0
 41
60.0
 42
60.0
 43
60.0
  0
TEXT
  8
3
  40
90
  5
7D63
  62
0
  72
0
  71
0
 10
2444.38
 20
1954.61
 30
0.000000
  1
620
  0
POINT
  5
7D14
  8
DEFPOINTS
  6
CONTINUOUS
 62
     0
 10
2314.3790920000001
 20
2138.151081999999
 30
0.0
  0
POINT
  5
7D15
  8
DEFPOINTS
  6
CONTINUOUS
 62
     0
 10
2934.3790920000001
 20
2273.5600229999991
 30
0.0
  0
POINT
  5
7D16
  8
DEFPOINTS
  6
CONTINUOUS
 62
     0
 10
2934.3790920000001
 20
2038.9149699999989
 30
0.0
  0
ENDBLK
  5
7B66
  8
0
  0
BLOCK
  8
0
  2
*D8
 70
     1
 10
0.0
 20
0.0
 30
0.0
  3
*D8
  1

  0
LINE
  5
7D17
  8
3
  6
CONTINUOUS
 62
     0
 10
4824.797415
 20
3524.5600229999991
 30
0.0
 11
4824.797415
 21
4082.4292559999999
 31
0.0
  0
LINE
  5
7D18
  8
3
  6
CONTINUOUS
 62
     0
 10
4294.797415
 20
3524.5600229999991
 30
0.0
 11
4294.797415
 21
4082.4292559999999
 31
0.0
  0
LINE
  5
7D19
  8
3
  6
CONTINUOUS
 62
     0
 10
4764.797415
 20
4052.4292559999999
 30
0.0
 11
4354.797415
 21
4052.4292559999999
 31
0.0
  0
INSERT
  5
7D1A
  8
3
  6
CONTINUOUS
 62
     0
  2
_OPEN
 10
4824.797415
 20
4052.4292559999999
 30
0.0
 41
60.0
 42
60.0
 43
60.0
  0
INSERT
  5
7D1B
  8
3
  6
CONTINUOUS
 62
     0
  2
_OPEN
 10
4294.797415
 20
4052.4292559999999
 30
0.0
 41
60.0
 42
60.0
 43
60.0
 50
180.0
  0
TEXT
  8
3
  40
90
  5
7D64
  62
0
  72
0
  71
0
 10
4376.02
 20
3968.13
 30
0.000000
  1
530
  0
POINT
  5
7D1D
  8
DEFPOINTS
  6
CONTINUOUS
 62
     0
 10
4824.797415
 20
3509.5600229999991
 30
0.0
  0
POINT
  5
7D1E
  8
DEFPOINTS
  6
CONTINUOUS
 62
     0
 10
4294.797415
 20
3509.5600229999991
 30
0.0
  0
POINT
  5
7D1F
  8
DEFPOINTS
  6
CONTINUOUS
 62
     0
 10
4294.797415
 20
4052.4292559999999
 30
0.0
  0
ENDBLK
  5
7B73
  8
0
  0
BLOCK
  8
0
  2
*D9
 70
     1
 10
0.0
 20
0.0
 30
0.0
  3
*D9
  1

  0
LINE
  5
7D20
  8
3
  6
CONTINUOUS
 62
     0
 10
4841.797415
 20
3351.560023
 30
0.0
 11
5312.4294179999997
 21
3351.5600229999991
 31
0.0
  0
LINE
  5
7D21
  8
3
  6
CONTINUOUS
 62
     0
 10
4841.797415
 20
2597.560023
 30
0.0
 11
5312.4294179999997
 21
2597.5600229999991
 31
0.0
  0
LINE
  5
7D22
  8
3
  6
CONTINUOUS
 62
     0
 10
5282.4294180000006
 20
3291.5600229999991
 30
0.0
 11
5282.4294180000006
 21
2657.5600229999991
 31
0.0
  0
INSERT
  5
7D23
  8
3
  6
CONTINUOUS
 62
     0
  2
_OPEN
 10
5282.4294180000006
 20
3351.5600229999991
 30
0.0
 41
60.0
 42
60.0
 43
60.0
 50
90.0
  0
INSERT
  5
7D24
  8
3
  6
CONTINUOUS
 62
     0
  2
_OPEN
 10
5282.4294180000006
 20
2597.5600229999991
 30
0.0
 41
60.0
 42
60.0
 43
60.0
 50
270.0
  0
TEXT
  8
3
  40
90
  5
7D65
  62
0
  72
0
  71
0
 10
5027.43
 20
2807.47
 30
0.000000
  1
φ754
  0
POINT
  5
7D26
  8
DEFPOINTS
  6
CONTINUOUS
 62
     0
 10
4826.797415
 20
3351.560023
 30
0.0
  0
POINT
  5
7D27
  8
DEFPOINTS
  6
CONTINUOUS
 62
     0
 10
4826.797415
 20
2597.560023
 30
0.0
  0
POINT
  5
7D28
  8
DEFPOINTS
  6
CONTINUOUS
 62
     0
 10
5282.4294180000006
 20
2597.5600229999991
 30
0.0
  0
ENDBLK
  5
7C52
  8
0
  0
BLOCK
  8
0
  2
*D10
 70
     1
 10
0.0
 20
0.0
 30
0.0
  3
*D10
  1

  0
LINE
  5
7C5F
  8
0
  6
BYBLOCK
 62
     0
 10
4826.797415
 20
3366.560023
 30
0.0
 11
4826.797415
 21
4290.7238440000001
 31
0.0
  0
LINE
  5
7C60
  8
0
  6
BYBLOCK
 62
     0
 10
4559.797415
 20
4214.1349369999989
 30
0.0
 11
4559.797415
 21
4290.7238440000001
 31
0.0
  0
LINE
  5
7C61
  8
0
  6
BYBLOCK
 62
     0
 10
4766.797415
 20
4260.7238440000001
 30
0.0
 11
4619.7974149999991
 21
4260.7238440000001
 31
0.0
  0
TEXT
  5
7C62
  8
3
 62
     0
 10
4596.6281434124512
 20
4307.2805016518914
 30
0.0
 40
90.0
  1
267
  0
INSERT
  5
7C63
  8
0
  6
BYBLOCK
 62
     0
  2
_OPEN
 10
4826.797415
 20
4260.7238440000001
 30
0.0
 41
60.0
 42
60.0
 43
60.0
  0
INSERT
  5
7C64
  8
0
  6
BYBLOCK
 62
     0
  2
_OPEN
 10
4559.797415
 20
4260.7238440000001
 30
0.0
 41
60.0
 42
60.0
 43
60.0
 50
180.0
  0
POINT
  5
7C65
  8
DEFPOINTS
  6
BYBLOCK
 62
     0
 10
4826.797415
 20
3351.560023
 30
0.0
  0
POINT
  5
7C66
  8
DEFPOINTS
  6
BYBLOCK
 62
     0
 10
4559.797415
 20
4199.1349369999998
 30
0.0
  0
POINT
  5
7C67
  8
DEFPOINTS
  6
BYBLOCK
 62
     0
 10
4559.797415
 20
4260.7238440000001
 30
0.0
  0
ENDBLK
  5
7C68
  8
0
  0
BLOCK
  8
0
  2
*D11
 70
     1
 10
0.0
 20
0.0
 30
0.0
  3
*D11
  1

  0
LINE
  5
7D29
  8
3
  6
CONTINUOUS
 62
     0
 10
3944.797415
 20
3923.5600229999991
 30
0.0
 11
3799.6165030000011
 21
3923.5600229999991
 31
0.0
  0
LINE
  5
7D2A
  8
3
  6
CONTINUOUS
 62
     0
 10
3944.797415
 20
2273.5600229999991
 30
0.0
 11
3799.6165030000011
 21
2273.5600229999991
 31
0.0
  0
LINE
  5
7D2B
  8
3
  6
CONTINUOUS
 62
     0
 10
3829.6165030000011
 20
3863.5600229999991
 30
0.0
 11
3829.6165030000002
 21
2333.5600229999991
 31
0.0
  0
INSERT
  5
7D2C
  8
3
  6
CONTINUOUS
 62
     0
  2
_OPEN
 10
3829.6165030000011
 20
3923.5600229999991
 30
0.0
 41
60.0
 42
60.0
 43
60.0
 50
90.0
  0
INSERT
  5
7D2D
  8
3
  6
CONTINUOUS
 62
     0
  2
_OPEN
 10
3829.6165030000002
 20
2273.5600229999991
 30
0.0
 41
60.0
 42
60.0
 43
60.0
 50
270.0
  0
TEXT
  8
3
  40
90
  5
7D66
  62
0
  72
0
  71
0
 10
3574.62
 20
2851.66
 30
0.000000
  1
1650
  0
POINT
  5
7D2F
  8
DEFPOINTS
  6
CONTINUOUS
 62
     0
 10
3959.797415
 20
3923.5600229999991
 30
0.0
  0
POINT
  5
7D30
  8
DEFPOINTS
  6
CONTINUOUS
 62
     0
 10
3959.797415
 20
2273.5600229999991
 30
0.0
  0
POINT
  5
7D31
  8
DEFPOINTS
  6
CONTINUOUS
 62
     0
 10
3829.6165030000002
 20
2273.5600229999991
 30
0.0
  0
ENDBLK
  5
7B9E
  8
0
  0
BLOCK
  8
0
  2
*D12
 70
     1
 10
0.0
 20
0.0
 30
0.0
  3
*D12
  1

  0
LINE
  5
7D32
  8
3
  6
CONTINUOUS
 62
     0
 10
3959.797415
 20
2258.560023
 30
0.0
 11
3959.797415
 21
1998.2766939999999
 31
0.0
  0
LINE
  5
7D33
  8
3
  6
CONTINUOUS
 62
     0
 10
4559.797415
 20
2056.0079879999998
 30
0.0
 11
4559.797415
 21
1998.2766939999999
 31
0.0
  0
LINE
  5
7D34
  8
3
  6
CONTINUOUS
 62
     0
 10
4019.797415
 20
2028.2766939999999
 30
0.0
 11
4499.7974149999991
 21
2028.2766939999999
 31
0.0
  0
INSERT
  5
7D35
  8
3
  6
CONTINUOUS
 62
     0
  2
_OPEN
 10
3959.797415
 20
2028.2766939999999
 30
0.0
 41
60.0
 42
60.0
 43
60.0
 50
180.0
  0
INSERT
  5
7D36
  8
3
  6
CONTINUOUS
 62
     0
  2
_OPEN
 10
4559.797415
 20
2028.2766939999999
 30
0.0
 41
60.0
 42
60.0
 43
60.0
  0
TEXT
  8
3
  40
90
  5
7D67
  62
0
  72
0
  71
0
 10
4098.09
 20
1943.98
 30
0.000000
  1
600
  0
POINT
  5
7D38
  8
DEFPOINTS
  6
CONTINUOUS
 62
     0
 10
3959.797415
 20
2273.5600229999991
 30
0.0
  0
POINT
  5
7D39
  8
DEFPOINTS
  6
CONTINUOUS
 62
     0
 10
4559.797415
 20
2071.0079879999989
 30
0.0
  0
POINT
  5
7D3A
  8
DEFPOINTS
  6
CONTINUOUS
 62
     0
 10
4559.797415
 20
2028.2766939999999
 30
0.0
  0
ENDBLK
  5
7C33
  8
0
  0
BLOCK
  8
0
  2
*D13
 70
     1
 10
0.0
 20
0.0
 30
0.0
  3
*D13
  1

  0
LINE
  5
7D3B
  8
3
  6
CONTINUOUS
 62
     0
 10
5009.797415
 20
2258.560023
 30
0.0
 11
5009.797415
 21
1998.2766939999999
 31
0.0
  0
LINE
  5
7D3C
  8
3
  6
CONTINUOUS
 62
     0
 10
4619.7974149999991
 20
2028.2766939999999
 30
0.0
 11
4949.797415
 21
2028.2766939999999
 31
0.0
  0
INSERT
  5
7D3D
  8
3
  6
CONTINUOUS
 62
     0
  2
_OPEN
 10
4559.797415
 20
2028.2766939999999
 30
0.0
 41
60.0
 42
60.0
 43
60.0
 50
180.0
  0
INSERT
  5
7D3E
  8
3
  6
CONTINUOUS
 62
     0
  2
_OPEN
 10
5009.797415
 20
2028.2766939999999
 30
0.0
 41
60.0
 42
60.0
 43
60.0
  0
TEXT
  8
3
  40
90
  5
7D68
  62
0
  72
0
  71
0
 10
4604.80
 20
1943.98
 30
0.000000
  1
450
  0
POINT
  5
7D40
  8
DEFPOINTS
  6
CONTINUOUS
 62
     0
 10
4559.797415
 20
2071.0079879999989
 30
0.0
  0
POINT
  5
7D41
  8
DEFPOINTS
  6
CONTINUOUS
 62
     0
 10
5009.797415
 20
2273.5600229999991
 30
0.0
  0
POINT
  5
7D42
  8
DEFPOINTS
  6
CONTINUOUS
 62
     0
 10
5009.797415
 20
2028.2766939999999
 30
0.0
  0
ENDBLK
  5
7C3D
  8
0
  0
BLOCK
  8
0
  2
*D14
 70
     1
 10
0.0
 20
0.0
 30
0.0
  3
*D14
  1

  0
LINE
  5
7D43
  8
3
  6
CONTINUOUS
 62
     0
 10
1134.3790919999999
 20
5830.4090689999994
 30
0.0
 11
1134.3790919999999
 21
6059.9582499999997
 31
0.0
  0
LINE
  5
7D44
  8
3
  6
CONTINUOUS
 62
     0
 10
2934.3790920000001
 20
5830.4090689999994
 30
0.0
 11
2934.3790920000001
 21
6059.9582499999997
 31
0.0
  0
LINE
  5
7D45
  8
3
  6
CONTINUOUS
 62
     0
 10
1194.379091999999
 20
6029.9582499999988
 30
0.0
 11
2874.3790920000001
 21
6029.9582499999988
 31
0.0
  0
INSERT
  5
7D46
  8
3
  6
CONTINUOUS
 62
     0
  2
_OPEN
 10
1134.3790919999999
 20
6029.9582499999988
 30
0.0
 41
60.0
 42
60.0
 43
60.0
 50
180.0
  0
INSERT
  5
7D47
  8
3
  6
CONTINUOUS
 62
     0
  2
_OPEN
 10
2934.3790920000001
 20
6029.9582499999988
 30
0.0
 41
60.0
 42
60.0
 43
60.0
  0
TEXT
  8
3
  40
90
  5
7D69
  62
0
  72
0
  71
0
 10
1748.33
 20
5945.66
 30
0.000000
  1
1800
  0
POINT
  5
7D49
  8
DEFPOINTS
  6
CONTINUOUS
 62
     0
 10
1134.3790919999999
 20
5815.4090690000003
 30
0.0
  0
POINT
  5
7D4A
  8
DEFPOINTS
  6
CONTINUOUS
 62
     0
 10
2934.3790920000001
 20
5815.4090690000003
 30
0.0
  0
POINT
  5
7D4B
  8
DEFPOINTS
  6
CONTINUOUS
 62
     0
 10
2934.3790920000001
 20
6029.9582499999988
 30
0.0
  0
ENDBLK
  5
7BC4
  8
0
  0
BLOCK
  8
0
  2
*D15
 70
     1
 10
0.0
 20
0.0
 30
0.0
  3
*D15
  1

  0
LINE
  5
7D4C
  8
3
  6
CONTINUOUS
 62
     0
 10
2949.3790920000001
 20
5815.4090690000003
 30
0.0
 11
3284.8079480000001
 21
5815.4090690000003
 31
0.0
  0
LINE
  5
7D4D
  8
3
  6
CONTINUOUS
 62
     0
 10
2949.3790920000001
 20
4765.4090689999994
 30
0.0
 11
3284.8079480000001
 21
4765.4090689999994
 31
0.0
  0
LINE
  5
7D4E
  8
3
  6
CONTINUOUS
 62
     0
 10
3254.807948000001
 20
5755.4090689999994
 30
0.0
 11
3254.8079480000001
 21
4825.4090689999994
 31
0.0
  0
INSERT
  5
7D4F
  8
3
  6
CONTINUOUS
 62
     0
  2
_OPEN
 10
3254.807948000001
 20
5815.4090690000003
 30
0.0
 41
60.0
 42
60.0
 43
60.0
 50
90.0
  0
INSERT
  5
7D50
  8
3
  6
CONTINUOUS
 62
     0
  2
_OPEN
 10
3254.8079480000001
 20
4765.4090689999994
 30
0.0
 41
60.0
 42
60.0
 43
60.0
 50
270.0
  0
TEXT
  8
3
  40
90
  5
7D6A
  62
0
  72
0
  71
0
 10
2999.81
 20
5170.03
 30
0.000000
  1
1050
  0
POINT
  5
7D52
  8
DEFPOINTS
  6
CONTINUOUS
 62
     0
 10
2934.3790920000001
 20
5815.4090690000003
 30
0.0
  0
POINT
  5
7D53
  8
DEFPOINTS
  6
CONTINUOUS
 62
     0
 10
2934.3790920000001
 20
4765.4090689999994
 30
0.0
  0
POINT
  5
7D54
  8
DEFPOINTS
  6
CONTINUOUS
 62
     0
 10
3254.8079480000001
 20
4765.4090689999994
 30
0.0
  0
ENDBLK
  5
7BD1
  8
0
  0
BLOCK
  8
0
  2
*D16
 70
     1
 10
0.0
 20
0.0
 30
0.0
  3
*D16
  1

  0
LINE
  5
7D55
  8
3
  6
CONTINUOUS
 62
     0
 10
2822.6262681959588
 20
2989.560023
 30
0.0
 11
2822.6262681959588
 21
4050.8694780000001
 31
0.0
  0
LINE
  5
7D56
  8
3
  6
CONTINUOUS
 62
     0
 10
2374.3790920000001
 20
4020.8694780000001
 30
0.0
 11
2762.6262681959602
 21
4020.8694780000001
 31
0.0
  0
INSERT
  5
7D57
  8
3
  6
CONTINUOUS
 62
     0
  2
_OPEN
 10
2314.3790920000001
 20
4020.8694780000001
 30
0.0
 41
60.0
 42
60.0
 43
60.0
 50
180.0
  0
INSERT
  5
7D58
  8
3
  6
CONTINUOUS
 62
     0
  2
_OPEN
 10
2822.6262681959588
 20
4020.8694780000001
 30
0.0
 41
60.0
 42
60.0
 43
60.0
  0
TEXT
  8
3
  40
90
  5
7D6B
  62
0
  72
0
  71
0
 10
2388.50
 20
3936.57
 30
0.000000
  1
508
  0
POINT
  5
7D5A
  8
DEFPOINTS
  6
CONTINUOUS
 62
     0
 10
2314.3790920000001
 20
4051.7194490000002
 30
0.0
  0
POINT
  5
7D5B
  8
DEFPOINTS
  6
CONTINUOUS
 62
     0
 10
2822.6262681959588
 20
2974.560023
 30
0.0
  0
POINT
  5
7D5C
  8
DEFPOINTS
  6
CONTINUOUS
 62
     0
 10
2822.6262681959588
 20
4020.8694780000001
 30
0.0
  0
ENDBLK
  5
7C73
  8
0
  0
ENDSEC
  0
SECTION
  2
ENTITIES
  0
LINE
  5
7A7D
  8
1
  6
CONTINUOUS
 10
2934.3790920000001
 20
5815.4090690000003
 30
0.0
 11
2934.3790920000001
 21
4765.4090689999994
 31
0.0
  0
LINE
  5
7A7E
  8
1
  6
CONTINUOUS
 10
1134.3790919999999
 20
5815.4090690000003
 30
0.0
 11
1134.3790919999999
 21
4765.4090689999994
 31
0.0
  0
LINE
  5
7A7F
  8
1
  6
CONTINUOUS
 10
1624.3390919999999
 20
5100.4090690000003
 30
0.0
 11
2354.3390920000002
 21
5630.4090689999994
 31
0.0
  0
LINE
  5
7A80
  8
1
  6
CONTINUOUS
 10
1624.3390919999999
 20
5630.4090689999994
 30
0.0
 11
2354.3390920000002
 21
5100.4090690000003
 31
0.0
  0
LINE
  5
7A81
  8
1
  6
CONTINUOUS
 10
1624.3390919999999
 20
5100.4090690000003
 30
0.0
 11
1624.3390919999999
 21
5630.4090689999994
 31
0.0
  0
LINE
  5
7A82
  8
1
  6
CONTINUOUS
 10
2354.3390920000002
 20
5100.4090690000003
 30
0.0
 11
2354.3390920000002
 21
5630.4090689999994
 31
0.0
  0
LINE
  5
7A83
  8
1
  6
CONTINUOUS
 10
1284.379091999999
 20
5682.4090689999994
 30
0.0
 11
1284.379091999999
 21
4922.4090690000003
 31
0.0
  0
LINE
  5
7A84
  8
1
  6
CONTINUOUS
 10
1335.9190920000001
 20
5064.6790689999998
 30
0.0
 11
1335.9190920000001
 21
5520.6190689999994
 31
0.0
  0
LINE
  5
7A85
  8
1
  6
CONTINUOUS
 10
2823.7490919999991
 20
5100.4090690000003
 30
0.0
 11
2823.7490919999991
 21
5630.4090689999994
 31
0.0
  0
LINE
  5
7A86
  8
1
  6
CONTINUOUS
 10
1184.3790919999999
 20
5765.4090690000003
 30
0.0
 11
1184.3790919999999
 21
4815.4090690000003
 31
0.0
  0
LINE
  5
7A87
  8
1
  6
CONTINUOUS
 10
2884.3790920000001
 20
4815.4090690000003
 30
0.0
 11
2884.3790920000001
 21
5765.4090690000003
 31
0.0
  0
LINE
  5
7A88
  8
1
  6
CONTINUOUS
 10
5009.797415
 20
2273.5600229999991
 30
0.0
 11
3959.797415
 21
2273.5600229999991
 31
0.0
  0
LINE
  5
7A89
  8
1
  6
CONTINUOUS
 10
5009.797415
 20
3923.5600229999991
 30
0.0
 11
3959.797415
 21
3923.5600229999991
 31
0.0
  0
LINE
  5
7A8A
  8
1
  6
CONTINUOUS
 10
4876.797415
 20
2449.560023
 30
0.0
 11
4059.797415
 21
2449.560023
 31
0.0
  0
LINE
  5
7A8B
  8
1
  6
CONTINUOUS
 10
4876.797415
 20
2349.5600229999991
 30
0.0
 11
4116.7974149999991
 21
2349.5600229999991
 31
0.0
  0
LINE
  5
7A8C
  8
1
  6
CONTINUOUS
 10
4864.797415
 20
3509.5600229999991
 30
0.0
 11
4254.797415
 21
3509.5600229999991
 31
0.0
  0
LINE
  5
7A8D
  8
1
  6
CONTINUOUS
 10
4959.797415
 20
3873.5600229999991
 30
0.0
 11
4009.797415
 21
3873.5600229999991
 31
0.0
  0
LINE
  5
7A8E
  8
1
  6
CONTINUOUS
 10
4009.797415
 20
2323.560023
 30
0.0
 11
4959.797415
 21
2323.560023
 31
0.0
  0
LINE
  5
7A92
  8
1
  6
CONTINUOUS
 10
1134.3790919999999
 20
4765.4090689999994
 30
0.0
 11
2934.3790920000001
 21
4765.4090689999994
 31
0.0
  0
LINE
  5
7A93
  8
1
  6
CONTINUOUS
 10
2934.3790920000001
 20
3923.5600229999991
 30
0.0
 11
1134.3790919999999
 21
3923.5600229999991
 31
0.0
  0
LINE
  5
7A94
  8
1
  6
CONTINUOUS
 10
2934.3790920000001
 20
2273.5600229999991
 30
0.0
 11
1134.3790919999999
 21
2273.5600229999991
 31
0.0
  0
LINE
  5
7A95
  8
1
  6
CONTINUOUS
 10
2247.6390919999999
 20
3108.8900229999999
 30
0.0
 11
1467.3090919999991
 21
2721.2000229999999
 31
0.0
  0
LINE
  5
7A96
  8
1
  6
CONTINUOUS
 10
2358.8190920000002
 20
2831.290023
 30
0.0
 11
1526.6090919999999
 21
2573.1500230000001
 31
0.0
  0
POLYLINE
  5
7A99
  8
1
  6
CONTINUOUS
 66
     1
 10
0.0
 20
0.0
 30
0.0
  0
VERTEX
  5
7CD2
  8
1
  6
CONTINUOUS
 10
1618.3790919999999
 20
3509.5600229999991
 30
0.0
  0
VERTEX
  5
7CD3
  8
1
  6
CONTINUOUS
 10
1634.3790919999999
 20
2974.560023
 30
0.0
 42
0.4200000000000001
  0
VERTEX
  5
7CD4
  8
1
  6
CONTINUOUS
 10
2326.1690920000001
 20
2389.5400229999991
 30
0.0
 42
0.43
  0
VERTEX
  5
7CD5
  8
1
  6
CONTINUOUS
 10
2819.1490920000001
 20
3006.4800230000001
 30
0.0
 42
0.37
  0
VERTEX
  5
7CD6
  8
1
  6
CONTINUOUS
 10
2348.3790920000001
 20
3423.330023
 30
0.0
 42
0.34
  0
SEQEND
  5
7CD7
  8
1
  6
CONTINUOUS
  0
LINE
  5
7AA0
  8
1
  6
CONTINUOUS
 10
2388.3790920000001
 20
3509.5600229999991
 30
0.0
 11
1578.3790919999999
 21
3509.5600229999991
 31
0.0
  0
LINE
  5
7AA1
  8
1
  6
CONTINUOUS
 10
2348.3790920000001
 20
3479.5600229999991
 30
0.0
 11
1619.279092
 21
3479.5600229999991
 31
0.0
  0
LINE
  5
7AA2
  8
1
  6
CONTINUOUS
 10
2784.3790920000001
 20
2349.5600229999991
 30
0.0
 11
1284.379091999999
 21
2349.5600229999991
 31
0.0
  0
LINE
  5
7AA3
  8
1
  6
CONTINUOUS
 10
2784.3790919999992
 20
2449.560023
 30
0.0
 11
1284.379091999999
 21
2449.560023
 31
0.0
  0
LINE
  5
7AA4
  8
1
  6
CONTINUOUS
 10
1624.3390919999999
 20
5100.4090690000003
 30
0.0
 11
2823.7490919999991
 21
5100.4090690000003
 31
0.0
  0
LINE
  5
7AA5
  8
1
  6
CONTINUOUS
 10
2684.3790920000001
 20
5005.4090689999994
 30
0.0
 11
1324.3790919999999
 21
5005.4090689999994
 31
0.0
  0
LINE
  5
7AA6
  8
1
  6
CONTINUOUS
 10
2684.3790920000001
 20
4865.4090690000003
 30
0.0
 11
1324.3790919999999
 21
4865.4090690000003
 31
0.0
  0
LINE
  5
7AA7
  8
1
  6
CONTINUOUS
 10
2164.3790920000001
 20
3589.560023
 30
0.0
 11
1324.3790919999999
 21
2749.560023
 31
0.0
  0
LINE
  5
7AA8
  8
1
  6
CONTINUOUS
 10
2164.3790920000001
 20
4922.4090690000003
 30
0.0
 11
1582.899091999999
 21
4922.4090690000003
 31
0.0
  0
LINE
  5
7AA9
  8
1
  6
CONTINUOUS
 10
1184.3790919999999
 20
4815.4090690000003
 30
0.0
 11
2884.3790920000001
 21
4815.4090690000003
 31
0.0
  0
LINE
  5
7AAA
  8
1
  6
CONTINUOUS
 10
1184.3790919999999
 20
3873.5600229999991
 30
0.0
 11
2884.3790920000001
 21
3873.5600229999991
 31
0.0
  0
LINE
  5
7AAB
  8
1
  6
CONTINUOUS
 10
2884.3790920000001
 20
2323.560023
 30
0.0
 11
1184.3790919999999
 21
2323.560023
 31
0.0
  0
LINE
  5
7AAC
  8
1
  6
CONTINUOUS
 10
1134.3790919999999
 20
3923.5600229999991
 30
0.0
 11
1134.3790919999999
 21
2273.5600229999991
 31
0.0
  0
LINE
  5
7AAE
  8
1
  6
CONTINUOUS
 10
1184.3790919999999
 20
2323.560023
 30
0.0
 11
1184.3790919999999
 21
3873.5600229999991
 31
0.0
  0
LINE
  5
7AAF
  8
1
  6
CONTINUOUS
 10
1284.379091999999
 20
2449.560023
 30
0.0
 11
1284.379091999999
 21
2349.5600229999991
 31
0.0
  0
LINE
  5
7AB0
  8
1
  6
CONTINUOUS
 10
1324.3790919999999
 20
2449.560023
 30
0.0
 11
1324.3790919999999
 21
2749.560023
 31
0.0
  0
CIRCLE
  5
7AB1
  8
1
  6
CONTINUOUS
 10
1502.899091999999
 20
2649.560023
 30
0.0
 40
80.0
  0
ARC
  5
7AB2
  8
1
  6
CONTINUOUS
 10
1502.899091999999
 20
2649.560023
 30
0.0
 40
162.0
 50
324.97000000000003
 51
215.02999999999989
  0
LINE
  5
7AB3
  8
1
  6
CONTINUOUS
 10
1348.899091999999
 20
2507.5600229999991
 30
0.0
 11
1370.249092
 21
2556.5700230000002
 31
0.0
  0
LINE
  5
7AB4
  8
1
  6
CONTINUOUS
 10
1348.899091999999
 20
2449.560023
 30
0.0
 11
1348.899091999999
 21
2507.5600229999991
 31
0.0
  0
LINE
  5
7AB5
  8
2
  6
CENTER
 10
1422.899091999999
 20
2649.560023
 30
0.0
 11
1582.899091999999
 21
2649.560023
 31
0.0
  0
LINE
  5
7AB6
  8
2
  6
CENTER
 10
1502.899091999999
 20
2569.560023
 30
0.0
 11
1502.899091999999
 21
2729.560023
 31
0.0
  0
LINE
  5
7AB7
  8
1
  6
CONTINUOUS
 10
1656.899091999999
 20
2449.560023
 30
0.0
 11
1656.899091999999
 21
2507.5600229999991
 31
0.0
  0
LINE
  5
7AB8
  8
1
  6
CONTINUOUS
 10
1656.899091999999
 20
2507.5600229999991
 30
0.0
 11
1635.559092
 21
2556.5700230000002
 31
0.0
  0
LINE
  5
7AB9
  8
1
  6
CONTINUOUS
 10
1582.899091999999
 20
4975.4090690000003
 30
0.0
 11
1422.899091999999
 21
4975.4090690000003
 31
0.0
  0
LINE
  5
7ABA
  8
1
  6
CONTINUOUS
 10
1582.899091999999
 20
4895.4090689999994
 30
0.0
 11
1422.899091999999
 21
4895.4090689999994
 31
0.0
  0
LINE
  5
7ABB
  8
1
  6
CONTINUOUS
 10
1582.899091999999
 20
4895.4090689999994
 30
0.0
 11
1582.899091999999
 21
4975.4090690000003
 31
0.0
  0
LINE
  5
7ABC
  8
1
  6
CONTINUOUS
 10
1422.899091999999
 20
4895.4090689999994
 30
0.0
 11
1422.899091999999
 21
4975.4090690000003
 31
0.0
  0
LINE
  5
7ABD
  8
1
  6
CONTINUOUS
 10
1324.3790919999999
 20
4865.4090690000003
 30
0.0
 11
1324.3790919999999
 21
5005.4090689999994
 31
0.0
  0
LINE
  5
7ABE
  8
1
  6
CONTINUOUS
 10
1664.899091999999
 20
5064.6790689999998
 30
0.0
 11
1664.899091999999
 21
5100.4090690000003
 31
0.0
  0
LINE
  5
7ABF
  8
1
  6
CONTINUOUS
 10
1335.9190920000001
 20
5064.6790689999998
 30
0.0
 11
1664.899091999999
 21
5064.6790689999998
 31
0.0
  0
LINE
  5
7AC0
  8
1
  6
CONTINUOUS
 10
1481.899091999999
 20
4975.4090690000003
 30
0.0
 11
1481.899091999999
 21
5064.6790689999998
 31
0.0
  0
LINE
  5
7AC1
  8
1
  6
CONTINUOUS
 10
1523.899091999999
 20
4975.4090690000003
 30
0.0
 11
1523.899091999999
 21
5064.6790689999998
 31
0.0
  0
LINE
  5
7AC2
  8
1
  6
CONTINUOUS
 10
1422.899091999999
 20
4922.4090690000003
 30
0.0
 11
1284.379091999999
 21
4922.4090690000003
 31
0.0
  0
LINE
  5
7AC3
  8
1
  6
CONTINUOUS
 10
2934.3790920000001
 20
3923.5600229999991
 30
0.0
 11
2934.3790920000001
 21
2273.5600229999991
 31
0.0
  0
LINE
  5
7AC4
  8
1
  6
CONTINUOUS
 10
3959.797415
 20
3923.5600229999991
 30
0.0
 11
3959.797415
 21
2273.5600229999991
 31
0.0
  0
LINE
  5
7AC6
  8
1
  6
CONTINUOUS
 10
2348.3790920000001
 20
3423.330023
 30
0.0
 11
2348.3790920000001
 21
3509.5600229999991
 31
0.0
  0
LINE
  5
7AC7
  8
1
  6
CONTINUOUS
 10
4199.7974149999991
 20
3589.560023
 30
0.0
 11
4199.7974149999991
 21
2449.560023
 31
0.0
  0
LINE
  5
7AC8
  8
1
  6
CONTINUOUS
 10
4059.797415
 20
3589.560023
 30
0.0
 11
4059.797415
 21
2449.560023
 31
0.0
  0
LINE
  5
7AC9
  8
1
  6
CONTINUOUS
 10
2684.3790920000001
 20
2449.560023
 30
0.0
 11
2684.3790920000001
 21
3589.560023
 31
0.0
  0
LINE
  5
7ACA
  8
1
  6
CONTINUOUS
 10
4294.797415
 20
3509.5600229999991
 30
0.0
 11
4294.797415
 21
2449.560023
 31
0.0
  0
LINE
  5
7ACB
  8
1
  6
CONTINUOUS
 10
2884.3790920000001
 20
3873.5600229999991
 30
0.0
 11
2884.3790920000001
 21
2323.560023
 31
0.0
  0
LINE
  5
7ACC
  8
1
  6
CONTINUOUS
 10
4009.797415
 20
3873.5600229999991
 30
0.0
 11
4009.797415
 21
2323.560023
 31
0.0
  0
LINE
  5
7ACD
  8
2
  6
CENTER
 10
2314.3790920000001
 20
5977.4778690000003
 30
0.0
 11
2314.3790920000001
 21
4623.7268999999997
 31
0.0
  0
LINE
  5
7ACE
  8
2
  6
CENTER
 10
5131.7671259999988
 20
2974.560023
 30
0.0
 11
3863.8768559999999
 21
2974.560023
 31
0.0
  0
LINE
  5
7ACF
  8
1
  6
CONTINUOUS
 10
2784.3790920000001
 20
2449.560023
 30
0.0
 11
2784.3790920000001
 21
2349.5600229999991
 31
0.0
  0
CIRCLE
  5
7AD0
  8
1
  6
CONTINUOUS
 10
2314.3790920000001
 20
2974.560023
 30
0.0
 40
150.0
  0
LINE
  5
7AD1
  8
1
  6
CONTINUOUS
 10
4169.797415
 20
2995.560023
 30
0.0
 11
4294.797415
 21
2995.560023
 31
0.0
  0
LINE
  5
7AD2
  8
1
  6
CONTINUOUS
 10
4169.797415
 20
2953.560023
 30
0.0
 11
4294.797415
 21
2953.560023
 31
0.0
  0
LINE
  5
7AD3
  8
1
  6
CONTINUOUS
 10
4169.797415
 20
2588.560023
 30
0.0
 11
4294.797415
 21
2588.560023
 31
0.0
  0
LINE
  5
7AD4
  8
1
  6
CONTINUOUS
 10
4169.797415
 20
2630.560023
 30
0.0
 11
4294.797415
 21
2630.560023
 31
0.0
  0
LINE
  5
7AD5
  8
1
  6
CONTINUOUS
 10
4089.797415
 20
2689.560023
 30
0.0
 11
4169.797415
 21
2689.560023
 31
0.0
  0
LINE
  5
7AD6
  8
1
  6
CONTINUOUS
 10
4089.797415
 20
2529.560023
 30
0.0
 11
4169.797415
 21
2529.560023
 31
0.0
  0
LINE
  5
7AD7
  8
1
  6
CONTINUOUS
 10
4089.797415
 20
3124.560023
 30
0.0
 11
4169.797415
 21
3124.560023
 31
0.0
  0
LINE
  5
7AD8
  8
1
  6
CONTINUOUS
 10
4089.797415
 20
2824.560023
 30
0.0
 11
4169.797415
 21
2824.560023
 31
0.0
  0
LINE
  5
7AD9
  8
1
  6
CONTINUOUS
 10
4089.797415
 20
2529.560023
 30
0.0
 11
4089.797415
 21
2689.560023
 31
0.0
  0
LINE
  5
7ADA
  8
1
  6
CONTINUOUS
 10
4169.797415
 20
2529.560023
 30
0.0
 11
4169.797415
 21
2689.560023
 31
0.0
  0
LINE
  5
7ADB
  8
1
  6
CONTINUOUS
 10
4089.797415
 20
2824.560023
 30
0.0
 11
4089.797415
 21
3124.560023
 31
0.0
  0
LINE
  5
7ADC
  8
1
  6
CONTINUOUS
 10
4169.797415
 20
2824.560023
 30
0.0
 11
4169.797415
 21
3124.560023
 31
0.0
  0
LINE
  5
7ADD
  8
1
  6
CONTINUOUS
 10
4116.7974149999991
 20
2449.560023
 30
0.0
 11
4116.7974149999991
 21
2349.5600229999991
 31
0.0
  0
LINE
  5
7AE0
  8
1
  6
CONTINUOUS
 10
2335.3790920000001
 20
4975.4090690000003
 30
0.0
 11
2335.3790920000001
 21
5100.4090690000003
 31
0.0
  0
LINE
  5
7AE1
  8
1
  6
CONTINUOUS
 10
2293.3790920000001
 20
4975.4090690000003
 30
0.0
 11
2293.3790920000001
 21
5100.4090690000003
 31
0.0
  0
LINE
  5
7AE2
  8
1
  6
CONTINUOUS
 10
2464.3790920000001
 20
4975.4090690000003
 30
0.0
 11
2164.3790920000001
 21
4975.4090690000003
 31
0.0
  0
LINE
  5
7AE3
  8
1
  6
CONTINUOUS
 10
2464.3790920000001
 20
4895.4090689999994
 30
0.0
 11
2164.3790920000001
 21
4895.4090689999994
 31
0.0
  0
LINE
  5
7AE4
  8
1
  6
CONTINUOUS
 10
2464.3790920000001
 20
4895.4090689999994
 30
0.0
 11
2464.3790920000001
 21
4975.4090690000003
 31
0.0
  0
LINE
  5
7AE5
  8
1
  6
CONTINUOUS
 10
2164.3790920000001
 20
4895.4090689999994
 30
0.0
 11
2164.3790920000001
 21
4975.4090690000003
 31
0.0
  0
LINE
  5
7AE6
  8
1
  6
CONTINUOUS
 10
2684.3790920000001
 20
4865.4090690000003
 30
0.0
 11
2684.3790920000001
 21
5005.4090689999994
 31
0.0
  0
LINE
  5
7AE7
  8
1
  6
CONTINUOUS
 10
2784.3790920000001
 20
4922.4090690000003
 30
0.0
 11
2464.3790920000001
 21
4922.4090690000003
 31
0.0
  0
LINE
  5
7AE8
  8
1
  6
CONTINUOUS
 10
2684.3790920000001
 20
3589.560023
 30
0.0
 11
2164.3790920000001
 21
3589.560023
 31
0.0
  0
LINE
  5
7AE9
  8
1
  6
CONTINUOUS
 10
2784.3790920000001
 20
5100.4090690000003
 30
0.0
 11
2784.3790920000001
 21
4922.4090690000003
 31
0.0
  0
LINE
  5
7AEA
  8
1
  6
CONTINUOUS
 10
4199.7974149999991
 20
3589.560023
 30
0.0
 11
4059.797415
 21
3589.560023
 31
0.0
  0
LINE
  5
7AEB
  8
1
  6
CONTINUOUS
 10
5009.797415
 20
3923.5600229999991
 30
0.0
 11
5009.797415
 21
2273.5600229999991
 31
0.0
  0
LINE
  5
7AEC
  8
1
  6
CONTINUOUS
 10
4824.797415
 20
3509.5600229999991
 30
0.0
 11
4824.797415
 21
2449.560023
 31
0.0
  0
LINE
  5
7AED
  8
1
  6
CONTINUOUS
 10
4959.797415
 20
2323.560023
 30
0.0
 11
4959.797415
 21
3873.5600229999991
 31
0.0
  0
LINE
  5
7AEE
  8
1
  6
CONTINUOUS
 10
4876.797415
 20
2449.560023
 30
0.0
 11
4876.797415
 21
2349.5600229999991
 31
0.0
  0
LINE
  5
7AEF
  8
1
  6
CONTINUOUS
 10
1134.3790919999999
 20
5815.4090690000003
 30
0.0
 11
2934.3790920000001
 21
5815.4090690000003
 31
0.0
  0
LINE
  5
7AF0
  8
1
  6
CONTINUOUS
 10
1624.3390919999999
 20
5630.4090689999994
 30
0.0
 11
2823.7490919999991
 21
5630.4090689999994
 31
0.0
  0
LINE
  5
7AF1
  8
1
  6
CONTINUOUS
 10
2784.3790920000001
 20
5682.4090689999994
 30
0.0
 11
1284.379091999999
 21
5682.4090689999994
 31
0.0
  0
LINE
  5
7AF2
  8
1
  6
CONTINUOUS
 10
2884.3790920000001
 20
5765.4090690000003
 30
0.0
 11
1184.3790919999999
 21
5765.4090690000003
 31
0.0
  0
LINE
  5
7AF3
  8
1
  6
CONTINUOUS
 10
1335.9190920000001
 20
5520.6190689999994
 30
0.0
 11
1624.3390919999999
 21
5520.6190689999994
 31
0.0
  0
LINE
  5
7AF4
  8
1
  6
CONTINUOUS
 10
2784.3790920000001
 20
5682.4090689999994
 30
0.0
 11
2784.3790920000001
 21
5630.4090689999994
 31
0.0
  0
LINE
  5
7AF5
  8
2
  6
CENTER
 10
4559.797415
 20
4037.9140900000002
 30
0.0
 11
4559.797415
 21
2071.0079879999989
 31
0.0
  0
LINE
  5
7AF6
  8
2
  6
CENTER
 10
1013.751131
 20
5365.4090690000003
 30
0.0
 11
3100.641924
 21
5365.4090690000003
 31
0.0
  0
LINE
  5
7AF7
  8
2
  6
CENTER
 10
2314.3790920000001
 20
4051.7194490000002
 30
0.0
 11
2314.3790920000001
 21
2138.151081999999
 31
0.0
  0
LINE
  5
7AF8
  8
2
  6
CENTER
 10
3081.561048
 20
2974.560023
 30
0.0
 11
1038.6075510000001
 21
2974.560023
 31
0.0
  0
DIMENSION
  5
7B0C
  8
3
  6
CONTINUOUS
  2
*D1
 10
2348.3790920000001
 20
3673.7118540000001
 30
0.0
 11
1959.909492
 21
3673.7118540000001
 31
0.0
 70
   128
 13
1618.3790919999999
 23
3509.5600229999991
 33
0.0
 14
2348.3790920000001
 24
3509.5600229999991
 34
0.0
1001
ACAD
1000
DSTYLE
1002
{
1070
   287
1070
     3
1070
    40
1040
30.0
1070
   143
1040
0.039
1070
   172
1070
     1
1070
   271
1070
     0
1070
   279
1070
     0
1070
   288
1070
     1
1002
}
  0
DIMENSION
  5
7B19
  8
3
  6
CONTINUOUS
  2
*D2
 10
2314.3790920000001
 20
4020.8694780000001
 30
0.0
 11
1953.5928960000001
 21
4020.8694780000001
 31
0.0
 70
   128
 13
1618.3790919999999
 23
3509.5600229999991
 33
0.0
 14
2314.3790920000001
 24
4051.7194490000002
 34
0.0
1001
ACAD
1000
DSTYLE
1002
{
1070
   287
1070
     3
1070
    40
1040
30.0
1070
   143
1040
0.039
1070
   172
1070
     1
1070
   271
1070
     0
1070
   279
1070
     0
1070
   288
1070
     1
1002
}
  0
DIMENSION
  5
7B32
  8
3
  6
CONTINUOUS
  2
*D3
 10
3172.6924399999998
 20
2974.560023
 30
0.0
 11
3172.6924399999998
 21
3244.498775
 31
0.0
 70
   128
 13
2388.3790920000001
 23
3509.5600229999991
 33
0.0
 14
3081.561048
 24
2974.560023
 34
0.0
 50
90.0
1001
ACAD
1000
DSTYLE
1002
{
1070
   287
1070
     3
1070
    40
1040
30.0
1070
   143
1040
0.039
1070
   172
1070
     1
1070
   271
1070
     0
1070
   279
1070
     0
1070
   288
1070
     1
1002
}
  0
DIMENSION
  5
7B3E
  8
3
  6
CONTINUOUS
  2
*D4
 10
3172.6924399999998
 20
2349.5600229999991
 30
0.0
 11
3097.6924399999989
 21
2662.060023
 31
0.0
 70
     0
 13
3081.561048
 23
2974.560023
 33
0.0
 14
2784.3790920000001
 24
2349.5600229999991
 34
0.0
 50
90.0
1001
ACAD
1000
DSTYLE
1002
{
1070
   287
1070
     4
1070
    40
1040
30.0
1070
    75
1070
     1
1070
   143
1040
0.039
1070
   172
1070
     1
1070
   271
1070
     0
1070
   279
1070
     1
1070
   288
1070
     1
1002
}
  0
DIMENSION
  5
7B4E
  8
3
  6
CONTINUOUS
  2
*D5
 10
3172.6924399999998
 20
2273.5600229999991
 30
0.0
 11
3172.6924399999998
 21
2052.8457372857142
 31
0.0
 70
   128
 13
2784.3790920000001
 23
2349.5600229999991
 33
0.0
 14
2934.3790920000001
 24
2273.5600229999991
 34
0.0
 50
90.0
1001
ACAD
1000
DSTYLE
1002
{
1070
   287
1070
     3
1070
    40
1040
30.0
1070
   143
1040
0.039
1070
   172
1070
     1
1070
   271
1070
     0
1070
   279
1070
     0
1070
   288
1070
     1
1002
}
  0
DIMENSION
  5
7B5B
  8
3
  6
CONTINUOUS
  2
*D6
 10
2314.3790920000001
 20
2038.9149699999989
 30
0.0
 11
1751.4624240000001
 21
2038.9149699999989
 31
0.0
 70
   128
 13
1134.3790919999999
 23
2273.5600229999991
 33
0.0
 14
2314.3790920000001
 24
2138.151081999999
 34
0.0
1001
ACAD
1000
DSTYLE
1002
{
1070
   287
1070
     3
1070
    40
1040
30.0
1070
   143
1040
0.039
1070
   172
1070
     1
1070
   271
1070
     0
1070
   279
1070
     0
1070
   288
1070
     1
1002
}
  0
DIMENSION
  5
7B67
  8
3
  6
CONTINUOUS
  2
*D7
 10
2934.3790920000001
 20
2038.9149699999989
 30
0.0
 11
2624.3790920000001
 21
2113.9149699999989
 31
0.0
 70
     0
 13
2314.3790920000001
 23
2138.151081999999
 33
0.0
 14
2934.3790920000001
 24
2273.5600229999991
 34
0.0
1001
ACAD
1000
DSTYLE
1002
{
1070
   287
1070
     4
1070
    40
1040
30.0
1070
    75
1070
     1
1070
   143
1040
0.039
1070
   172
1070
     1
1070
   271
1070
     0
1070
   279
1070
     1
1070
   288
1070
     1
1002
}
  0
DIMENSION
  5
7B74
  8
3
  6
CONTINUOUS
  2
*D8
 10
4294.797415
 20
4052.4292559999999
 30
0.0
 11
4556.0229609999997
 21
4052.4292559999999
 31
0.0
 70
   128
 13
4824.797415
 23
3509.5600229999991
 33
0.0
 14
4294.797415
 24
3509.5600229999991
 34
0.0
1001
ACAD
1000
DSTYLE
1002
{
1070
   287
1070
     3
1070
    40
1040
30.0
1070
   143
1040
0.039
1070
   172
1070
     1
1070
   271
1070
     0
1070
   279
1070
     0
1070
   288
1070
     1
1002
}
  0
LINE
  5
7B75
  8
1
  6
CONTINUOUS
 10
4826.797415
 20
3351.560023
 30
0.0
 11
4826.797415
 21
2597.560023
 31
0.0
  0
DIMENSION
  5
7B84
  8
3
  6
CONTINUOUS
  2
*D9
 10
5282.4294180000006
 20
2597.5600229999991
 30
0.0
 11
5282.4294179999988
 21
2966.7726569999991
 31
0.0
 70
   128
 13
4826.797415
 23
3351.560023
 33
0.0
 14
4826.797415
 24
2597.560023
 34
0.0
 50
90.0
1001
ACAD
1000
DSTYLE
1002
{
1070
   287
1070
     3
1070
     3
1000
φ<>
1070
    40
1040
30.0
1070
   143
1040
0.039
1070
   172
1070
     1
1070
   271
1070
     0
1070
   279
1070
     0
1070
   288
1070
     1
1002
}
  0
DIMENSION
  5
7B92
  8
3
  6
CONTINUOUS
  2
*D10
 10
4559.797415
 20
4260.7238440000001
 30
0.0
 11
4712.3424291267374
 21
4352.2805016518914
 31
0.0
 70
   128
 13
4826.797415
 23
3351.560023
 33
0.0
 14
4559.797415
 24
4199.1349369999998
 34
0.0
1001
ACAD
1000
DSTYLE
1002
{
1070
   288
1070
     1
1070
   172
1070
     1
1070
    40
1040
30.0
1070
   271
1070
     0
1070
   143
1040
0.039
1002
}
  0
DIMENSION
  5
7B9F
  8
3
  6
CONTINUOUS
  2
*D11
 10
3829.6165030000002
 20
2273.5600229999991
 30
0.0
 11
3829.6165030000002
 21
3010.9563600000001
 31
0.0
 70
   128
 13
3959.797415
 23
3923.5600229999991
 33
0.0
 14
3959.797415
 24
2273.5600229999991
 34
0.0
 50
90.0
1001
ACAD
1000
DSTYLE
1002
{
1070
   287
1070
     3
1070
    40
1040
30.0
1070
   143
1040
0.039
1070
   172
1070
     1
1070
   271
1070
     0
1070
   279
1070
     0
1070
   288
1070
     1
1002
}
  0
DIMENSION
  5
7BAC
  8
3
  6
CONTINUOUS
  2
*D12
 10
4559.797415
 20
2028.2766939999999
 30
0.0
 11
4278.0935369999997
 21
2028.2766939999999
 31
0.0
 70
   128
 13
3959.797415
 23
2273.5600229999991
 33
0.0
 14
4559.797415
 24
2071.0079879999989
 34
0.0
1001
ACAD
1000
DSTYLE
1002
{
1070
   287
1070
     3
1070
    40
1040
30.0
1070
   143
1040
0.039
1070
   172
1070
     1
1070
   271
1070
     0
1070
   279
1070
     0
1070
   288
1070
     1
1002
}
  0
DIMENSION
  5
7BB8
  8
3
  6
CONTINUOUS
  2
*D13
 10
5009.797415
 20
2028.2766939999999
 30
0.0
 11
4784.7974149999991
 21
2103.2766940000001
 31
0.0
 70
     0
 13
4559.797415
 23
2071.0079879999989
 33
0.0
 14
5009.797415
 24
2273.5600229999991
 34
0.0
1001
ACAD
1000
DSTYLE
1002
{
1070
   287
1070
     4
1070
    40
1040
30.0
1070
    75
1070
     1
1070
   143
1040
0.039
1070
   172
1070
     1
1070
   271
1070
     0
1070
   279
1070
     1
1070
   288
1070
     1
1002
}
  0
DIMENSION
  5
7BC5
  8
3
  6
CONTINUOUS
  2
*D14
 10
2934.3790920000001
 20
6029.9582499999988
 30
0.0
 11
1928.3265919999999
 21
6029.9582499999988
 31
0.0
 70
   128
 13
1134.3790919999999
 23
5815.4090690000003
 33
0.0
 14
2934.3790920000001
 24
5815.4090690000003
 34
0.0
1001
ACAD
1000
DSTYLE
1002
{
1070
   287
1070
     3
1070
    40
1040
30.0
1070
   143
1040
0.039
1070
   172
1070
     1
1070
   271
1070
     0
1070
   279
1070
     0
1070
   288
1070
     1
1002
}
  0
DIMENSION
  5
7BD2
  8
3
  6
CONTINUOUS
  2
*D15
 10
3254.8079480000001
 20
4765.4090689999994
 30
0.0
 11
3254.8079479999992
 21
5329.3310280000014
 31
0.0
 70
   128
 13
2934.3790920000001
 23
5815.4090690000003
 33
0.0
 14
2934.3790920000001
 24
4765.4090689999994
 34
0.0
 50
90.0
1001
ACAD
1000
DSTYLE
1002
{
1070
   287
1070
     3
1070
    40
1040
30.0
1070
   143
1040
0.039
1070
   172
1070
     1
1070
   271
1070
     0
1070
   279
1070
     0
1070
   288
1070
     1
1002
}
  0
LINE
  5
7BDF
  8
4
  6
CONTINUOUS
 10
5550.0
 20
1500.0
 30
0.0
 11
5550.0
 21
900.0
 31
0.0
  0
LINE
  5
7BE0
  8
4
  6
CONTINUOUS
 10
3450.0
 20
1500.0
 30
0.0
 11
3450.0
 21
900.0
 31
0.0
  0
LINE
  5
7BE1
  8
4
  6
CONTINUOUS
 10
1950.0
 20
1500.0
 30
0.0
 11
1950.0
 21
900.0
 31
0.0
  0
LINE
  5
7BE4
  8
4
  6
CONTINUOUS
 10
1950.0
 20
900.0
 30
0.0
 11
5550.0
 21
900.0
 31
0.0
  0
LINE
  5
7BE5
  8
4
  6
CONTINUOUS
 10
1950.0
 20
1200.0
 30
0.0
 11
5550.0
 21
1200.0
 31
0.0
  0
TEXT
  5
7BE6
  8
4
  6
CONTINUOUS
 10
2065.5062429999989
 20
1294.6290779999999
 30
0.0
 40
150.0
  1
機器名称
  0
TEXT
  5
7BE7
  8
4
  6
CONTINUOUS
 10
2058.7743179999989
 20
964.9354699999999
 30
0.0
 40
150.0
  1
機器型番
  0
TEXT
  5
7BE8
  8
4
  6
CONTINUOUS
 10
3533.0362359999999
 20
1267.7153069999999
 30
0.0
 40
150.0
  1
ミツヤ多翼送風機
  0
TEXT
  5
7BE9
  8
4
  6
CONTINUOUS
 10
3559.9634869999991
 20
951.47875299999987
 30
0.0
 40
150.0
  1
MF#4 1/2-4
  0
TEXT
  5
7BEB
  8
4
  6
CONTINUOUS
 10
2149.403679
 20
7150.2865239999992
 30
0.0
 40
162.0
  1
天井吊枠防振ベット
  0
TEXT
  5
7BEC
  8
4
  6
CONTINUOUS
 10
948.50278000000014
 20
7601.6429289999996
 30
0.0
 40
216.0
  1
ベルト駆動式片吸込両持多翼ファン
  0
LINE
  5
7BED
  8
4
  6
CONTINUOUS
 10
750.0
 20
7408.2262629999996
 30
0.0
 11
5550.0
 21
7408.2262629999996
 31
0.0
  0
LINE
  5
7BEE
  8
4
  6
CONTINUOUS
 10
750.0
 20
8008.2262629999996
 30
0.0
 11
5550.0
 21
8008.2262629999996
 31
0.0
  0
LINE
  5
7BEF
  8
4
  6
CONTINUOUS
 10
1950.0
 20
1500.0
 30
0.0
 11
5550.0
 21
1500.0
 31
0.0
  0
LINE
  5
7BF0
  8
4
  6
CONTINUOUS
 10
750.0
 20
8008.2262629999996
 30
0.0
 11
750.0
 21
7408.2262629999996
 31
0.0
  0
TEXT
  5
7BF1
  8
4
  6
CONTINUOUS
 10
841.82718199999988
 20
7146.9584329999998
 30
0.0
 40
162.0
  1
右回転上向
  0
TEXT
  5
7BF2
  8
4
  6
CONTINUOUS
 10
4406.9086779999989
 20
8118.1832439999989
 30
0.0
 40
168.0
  1
No.
  0
TEXT
  5
7BF3
  8
4
  6
CONTINUOUS
 10
4249.5975740000003
 20
7150.2865239999992
 30
0.0
 40
162.0
  1
縮尺：1/30
  0
LINE
  5
7BF4
  8
4
  6
CONTINUOUS
 10
5550.0
 20
8008.2262629999996
 30
0.0
 11
5550.0
 21
7408.2262629999996
 31
0.0
  0
LINE
  5
7BF6
  8
4
  6
CONTINUOUS
 10
4321.8522670000002
 20
8043.7907490000007
 30
0.0
 11
4321.8522670000002
 21
8359.9567849999985
 31
0.0
  0
LINE
  5
7BF7
  8
4
  6
CONTINUOUS
 10
4321.8522670000002
 20
8359.9567849999985
 30
0.0
 11
5550.0
 21
8359.9567849999985
 31
0.0
  0
LINE
  5
7BF8
  8
4
  6
CONTINUOUS
 10
5550.0
 20
8359.9567849999985
 30
0.0
 11
5550.0
 21
8043.7907490000007
 31
0.0
  0
LINE
  5
7BF9
  8
4
  6
CONTINUOUS
 10
5550.0
 20
8043.7907490000007
 30
0.0
 11
4321.8522670000002
 21
8043.7907490000007
 31
0.0
  0
DIMENSION
  5
7C28
  8
3
  6
CONTINUOUS
  2
*D16
 10
2822.6262681959588
 20
4020.8694780000001
 30
0.0
 11
2568.5026800979799
 21
4095.8694780000001
 31
0.0
 70
     0
 13
2314.3790920000001
 23
4051.7194490000002
 33
0.0
 14
2822.6262681959588
 24
2974.560023
 34
0.0
1001
ACAD
1000
DSTYLE
1002
{
1070
   287
1070
     4
1070
    40
1040
30.0
1070
    75
1070
     1
1070
   143
1040
0.039
1070
   172
1070
     1
1070
   271
1070
     0
1070
   279
1070
     1
1070
   288
1070
     1
1002
}
  0
LINE
  5
7CB3
  8
1
 10
1854.3790919999999
 20
3369.560023
 30
0.0
 11
1854.3790919999999
 21
2449.560023
 31
0.0
  0
LINE
  5
7CB4
  8
1
 10
2774.3790920000001
 20
3369.560023
 30
0.0
 11
2774.3790920000001
 21
2449.560023
 31
0.0
  0
LINE
  5
7CB5
  8
1
  6
CONTINUOUS
 10
2774.3790920000001
 20
3369.560023
 30
0.0
 11
1854.3790919999999
 21
3369.560023
 31
0.0
  0
ENDSEC
  0
EOF
