  0
SECTION
  2
HEADER
  9
$ACADVER
  1
AC1009
  9
$INSBASE
 10
0.0
 20
0.0
 30
0.0
  9
$EXTMIN
 10
750.0
 20
900.0
 30
0.0
  9
$EXTMAX
 10
5550.0
 20
8359.9567849999985
 30
0.0
  9
$LIMMIN
 10
0.0
 20
0.0
  9
$LIMMAX
 10
297.0
 20
210.0
  9
$ORTHOMODE
 70
     0
  9
$REGENMODE
 70
     1
  9
$FILLMODE
 70
     0
  9
$QTEXTMODE
 70
     0
  9
$MIRRTEXT
 70
     1
  9
$DRAGMODE
 70
     2
  9
$LTSCALE
 40
100.0
  9
$OSMODE
 70
    37
  9
$ATTMODE
 70
     1
  9
$TEXTSIZE
 40
180.0
  9
$TRACEWID
 40
0.05
  9
$TEXTSTYLE
  7
STANDARD
  9
$CLAYER
  8
3
  9
$CELTYPE
  6
BYLAYER
  9
$CECOLOR
 62
   256
  9
$DIMSCALE
 40
30.0
  9
$DIMASZ
 40
2.0
  9
$DIMEXO
 40
0.5
  9
$DIMDLI
 40
10.0
  9
$DIMRND
 40
0.0
  9
$DIMDLE
 40
0.0
  9
$DIMEXE
 40
1.0
  9
$DIMTP
 40
1.0
  9
$DIMTM
 40
1.0
  9
$DIMTXT
 40
3.0
  9
$DIMCEN
 40
0.0
  9
$DIMTSZ
 40
0.0
  9
$DIMTOL
 70
     0
  9
$DIMLIM
 70
     0
  9
$DIMTIH
 70
     0
  9
$DIMTOH
 70
     0
  9
$DIMSE1
 70
     0
  9
$DIMSE2
 70
     0
  9
$DIMTAD
 70
     1
  9
$DIMZIN
 70
     8
  9
$DIMBLK
  1

  9
$DIMASO
 70
     1
  9
$DIMSHO
 70
     1
  9
$DIMPOST
  1

  9
$DIMAPOST
  1

  9
$DIMALT
 70
     0
  9
$DIMALTD
 70
     2
  9
$DIMALTF
 40
0.039
  9
$DIMLFAC
 40
1.0
  9
$DIMTOFL
 70
     1
  9
$DIMTVP
 40
0.0
  9
$DIMTIX
 70
     0
  9
$DIMSOXD
 70
     0
  9
$DIMSAH
 70
     1
  9
$DIMBLK1
  1
OPEN
  9
$DIMBLK2
  1
OPEN
  9
$DIMSTYLE
  2
IGA
  9
$DIMCLRD
 70
     0
  9
$DIMCLRE
 70
     0
  9
$DIMCLRT
 70
     0
  9
$DIMTFAC
 40
10.0
  9
$DIMGAP
 40
1.0
  9
$LUNITS
 70
     2
  9
$LUPREC
 70
     3
  9
$SKETCHINC
 40
0.1
  9
$FILLETRAD
 40
0.0
  9
$AUNITS
 70
     0
  9
$AUPREC
 70
     0
  9
$MENU
  1
acad
  9
$ELEVATION
 40
0.0
  9
$PELEVATION
 40
0.0
  9
$THICKNESS
 40
0.0
  9
$LIMCHECK
 70
     0
  9
$BLIPMODE
 70
     0
  9
$CHAMFERA
 40
0.5
  9
$CHAMFERB
 40
0.5
  9
$SKPOLY
 70
     0
  9
$TDCREATE
 40
2450744.5881374991
  9
$TDUPDATE
 40
2454953.7729837499
  9
$TDINDWG
 40
0.0067104398
  9
$TDUSRTIMER
 40
0.0067104398
  9
$USRTIMER
 70
     1
  9
$ANGBASE
 50
0.0
  9
$ANGDIR
 70
     0
  9
$PDMODE
 70
     0
  9
$PDSIZE
 40
0.0
  9
$PLINEWID
 40
0.0
  9
$COORDS
 70
     1
  9
$SPLFRAME
 70
     0
  9
$SPLINETYPE
 70
     6
  9
$SPLINESEGS
 70
     8
  9
$ATTDIA
 70
     0
  9
$ATTREQ
 70
     1
  9
$HANDLING
 70
 10241
  9
$HANDSEED
  5
7D53
  9
$SURFTAB1
 70
     6
  9
$SURFTAB2
 70
     6
  9
$SURFTYPE
 70
     6
  9
$SURFU
 70
     6
  9
$SURFV
 70
     6
  9
$UCSNAME
  2

  9
$UCSORG
 10
0.0
 20
0.0
 30
0.0
  9
$UCSXDIR
 10
1.0
 20
0.0
 30
0.0
  9
$UCSYDIR
 10
0.0
 20
1.0
 30
0.0
  9
$PUCSNAME
  2

  9
$PUCSORG
 10
0.0
 20
0.0
 30
0.0
  9
$PUCSXDIR
 10
1.0
 20
0.0
 30
0.0
  9
$PUCSYDIR
 10
0.0
 20
1.0
 30
0.0
  9
$USERI1
 70
     0
  9
$USERI2
 70
     0
  9
$USERI3
 70
     0
  9
$USERI4
 70
     0
  9
$USERI5
 70
     0
  9
$USERR1
 40
0.0
  9
$USERR2
 40
0.0
  9
$USERR3
 40
0.0
  9
$USERR4
 40
0.0
  9
$USERR5
 40
0.0
  9
$WORLDVIEW
 70
     1
  9
$SHADEDGE
 70
     3
  9
$SHADEDIF
 70
    70
  9
$TILEMODE
 70
     1
  9
$MAXACTVP
 70
    16
  9
$PLIMCHECK
 70
     0
  9
$PEXTMIN
 10
1.0000000000000000E+020
 20
1.0000000000000000E+020
 30
1.0000000000000000E+020
  9
$PEXTMAX
 10
-1.0000000000000000E+020
 20
-1.0000000000000000E+020
 30
-1.0000000000000000E+020
  9
$PLIMMIN
 10
0.0
 20
0.0
  9
$PLIMMAX
 10
12.0
 20
9.0
  9
$UNITMODE
 70
     0
  9
$VISRETAIN
 70
     0
  9
$PLINEGEN
 70
     0
  9
$PSLTSCALE
 70
     1
  0
ENDSEC
  0
SECTION
  2
TABLES
  0
TABLE
  2
VPORT
 70
     2
  0
VPORT
  2
*ACTIVE
 70
     0
 10
0.0
 20
0.0
 11
1.0
 21
1.0
 12
9437.9954746499006
 22
4629.9199394653269
 13
0.0
 23
0.0
 14
10.0
 24
10.0
 15
10.0
 25
10.0
 16
0.0
 26
0.0
 36
1.0
 17
0.0
 27
0.0
 37
0.0
 40
7517.061441529765
 41
3.1666666666666661
 42
50.0
 43
0.0
 44
0.0
 50
0.0
 51
0.0
 71
     0
 72
   100
 73
     1
 74
     0
 75
     0
 76
     0
 77
     0
 78
     0
  0
ENDTAB
  0
TABLE
  2
LTYPE
 70
     2
  0
LTYPE
  2
CONTINUOUS
 70
     0
  3
Solid line
 72
    65
 73
     0
 40
0.0
  0
LTYPE
  2
CENTER
 70
     0
  3
____ _ ____ _ ____ _ ____ _ ____ _ ____ _ ____ 
 72
    65
 73
     4
 40
2.0
 49
1.25
 49
-0.25
 49
0.25
 49
-0.25
  0
ENDTAB
  0
TABLE
  2
LAYER
 70
     6
  0
LAYER
  2
0
 70
     0
 62
     7
  6
CONTINUOUS
  0
LAYER
  2
3
 70
     0
 62
     2
  6
CONTINUOUS
  0
LAYER
  2
2
 70
     0
 62
     3
  6
CENTER
  0
LAYER
  2
1
 70
     0
 62
     4
  6
CONTINUOUS
  0
LAYER
  2
4
 70
     0
 62
     7
  6
CONTINUOUS
  0
LAYER
  2
DEFPOINTS
 70
     0
 62
     7
  6
CONTINUOUS
  0
ENDTAB
  0
TABLE
  2
STYLE
 70
     1
  0
STYLE
  2
STANDARD
 70
     0
 40
0.0
 41
1.0
 50
0.0
 71
     0
 42
180.0
  3
simplex.shx
  4
extfont.shx
  0
ENDTAB
  0
TABLE
  2
VIEW
 70
     0
  0
ENDTAB
  0
TABLE
  2
UCS
 70
     0
  0
ENDTAB
  0
TABLE
  2
APPID
 70
     1
  0
APPID
  2
ACAD
 70
     0
  0
ENDTAB
  0
TABLE
  2
DIMSTYLE
 70
     1
  0
DIMSTYLE
  2
IGA
 70
     0
  3

  4

  5

  6
OPEN
  7
OPEN
 40
2.0
 41
2.0
 42
0.5
 43
10.0
 44
1.0
 45
0.0
 46
0.0
 47
1.0
 48
1.0
140
3.0
141
0.0
142
0.0
143
0.03937
144
1.0
145
0.0
146
10.0
147
1.0
 71
     0
 72
     0
 73
     0
 74
     0
 75
     0
 76
     0
 77
     1
 78
     8
170
     0
171
     2
172
     0
173
     1
174
     0
175
     0
176
     0
177
     0
178
     0
  0
ENDTAB
  0
ENDSEC
  0
SECTION
  2
BLOCKS
  0
BLOCK
  8
0
  2
$MODEL_SPACE
 70
     0
 10
0.0
 20
0.0
 30
0.0
  3
$MODEL_SPACE
  1

  0
ENDBLK
  5
1B
  8
0
  0
BLOCK
 67
     1
  8
0
  2
$PAPER_SPACE
 70
     0
 10
0.0
 20
0.0
 30
0.0
  3
$PAPER_SPACE
  1

  0
ENDBLK
  5
18
 67
     1
  8
0
  0
BLOCK
  8
0
  2
_OPEN
 70
     0
 10
0.0
 20
0.0
 30
0.0
  3
_OPEN
  1

  0
LINE
  5
7B14
  8
0
  6
BYBLOCK
 62
     0
 10
-1.0
 20
0.166667
 30
0.0
 11
0.0
 21
0.0
 31
0.0
  0
LINE
  5
7B15
  8
0
  6
BYBLOCK
 62
     0
 10
0.0
 20
0.0
 30
0.0
 11
-1.0
 21
-0.166667
 31
0.0
  0
LINE
  5
7B16
  8
0
  6
BYBLOCK
 62
     0
 10
0.0
 20
0.0
 30
0.0
 11
-1.0
 21
0.0
 31
0.0
  0
ENDBLK
  5
7B17
  8
0
  0
BLOCK
  8
0
  2
*D1
 70
     1
 10
0.0
 20
0.0
 30
0.0
  3
*D1
  1

  0
LINE
  5
7CBF
  8
3
  6
CONTINUOUS
 62
     0
 10
2763.5409719999989
 20
3672.2739860000001
 30
0.0
 11
3095.7804990000009
 21
3672.2739859999988
 31
0.0
  0
LINE
  5
7CC0
  8
3
  6
CONTINUOUS
 62
     0
 10
2763.5409719999989
 20
2942.2739860000001
 30
0.0
 11
3095.780499
 21
2942.2739860000001
 31
0.0
  0
LINE
  5
7CC1
  8
3
  6
CONTINUOUS
 62
     0
 10
3065.7804990000009
 20
3612.2739860000001
 30
0.0
 11
3065.780499
 21
3002.2739860000001
 31
0.0
  0
INSERT
  5
7CC2
  8
3
  6
CONTINUOUS
 62
     0
  2
_OPEN
 10
3065.7804990000009
 20
3672.2739860000001
 30
0.0
 41
60.0
 42
60.0
 43
60.0
 50
90.0
  0
INSERT
  5
7CC3
  8
3
  6
CONTINUOUS
 62
     0
  2
_OPEN
 10
3065.780499
 20
2942.2739860000001
 30
0.0
 41
60.0
 42
60.0
 43
60.0
 50
270.0
  0
TEXT
  8
3
  40
90
  5
7D44
  62
0
  72
0
  71
0
 10
2810.78
 20
3138.47
 30
0.000000
  1
730
  0
POINT
  5
7CC5
  8
DEFPOINTS
  6
CONTINUOUS
 62
     0
 10
2748.5409719999998
 20
3672.2739860000001
 30
0.0
  0
POINT
  5
7CC6
  8
DEFPOINTS
  6
CONTINUOUS
 62
     0
 10
2748.5409719999998
 20
2942.2739860000001
 30
0.0
  0
POINT
  5
7CC7
  8
DEFPOINTS
  6
CONTINUOUS
 62
     0
 10
3065.780499
 20
2942.2739860000001
 30
0.0
  0
ENDBLK
  5
7B24
  8
0
  0
BLOCK
  8
0
  2
*D2
 70
     1
 10
0.0
 20
0.0
 30
0.0
  3
*D2
  1

  0
LINE
  5
7CC8
  8
3
  6
CONTINUOUS
 62
     0
 10
2798.5409719999998
 20
3672.2739860000001
 30
0.0
 11
3288.417691000001
 21
3672.2739859999988
 31
0.0
  0
LINE
  5
7CC9
  8
3
  6
CONTINUOUS
 62
     0
 10
2957.533265
 20
2976.2739860000001
 30
0.0
 11
3288.417691000001
 21
2976.2739859999988
 31
0.0
  0
LINE
  5
7CCA
  8
3
  6
CONTINUOUS
 62
     0
 10
3258.417691000001
 20
3612.2739859999988
 30
0.0
 11
3258.4176910000001
 21
3036.2739859999988
 31
0.0
  0
INSERT
  5
7CCB
  8
3
  6
CONTINUOUS
 62
     0
  2
_OPEN
 10
3258.417691000001
 20
3672.2739859999988
 30
0.0
 41
60.0
 42
60.0
 43
60.0
 50
90.0
  0
INSERT
  5
7CCC
  8
3
  6
CONTINUOUS
 62
     0
  2
_OPEN
 10
3258.4176910000001
 20
2976.2739859999988
 30
0.0
 41
60.0
 42
60.0
 43
60.0
 50
270.0
  0
TEXT
  8
3
  40
90
  5
7D45
  62
0
  72
0
  71
0
 10
3003.42
 20
3132.63
 30
0.000000
  1
696
  0
POINT
  5
7CCE
  8
DEFPOINTS
  6
CONTINUOUS
 62
     0
 10
2783.5409719999989
 20
3672.2739860000001
 30
0.0
  0
POINT
  5
7CCF
  8
DEFPOINTS
  6
CONTINUOUS
 62
     0
 10
2942.533265
 20
2976.2739860000001
 30
0.0
  0
POINT
  5
7CD0
  8
DEFPOINTS
  6
CONTINUOUS
 62
     0
 10
3258.4176910000001
 20
2976.2739859999988
 30
0.0
  0
ENDBLK
  5
7B31
  8
0
  0
BLOCK
  8
0
  2
*D3
 70
     1
 10
0.0
 20
0.0
 30
0.0
  3
*D3
  1

  0
LINE
  5
7CD1
  8
3
  6
CONTINUOUS
 62
     0
 10
2698.5409719999989
 20
2351.2739860000001
 30
0.0
 11
3288.4176910000001
 21
2351.2739859999988
 31
0.0
  0
LINE
  5
7CD2
  8
3
  6
CONTINUOUS
 62
     0
 10
3258.4176910000001
 20
2916.2739860000001
 30
0.0
 11
3258.4176910000001
 21
2411.2739859999988
 31
0.0
  0
INSERT
  5
7CD3
  8
3
  6
CONTINUOUS
 62
     0
  2
_OPEN
 10
3258.4176910000001
 20
2976.2739859999988
 30
0.0
 41
60.0
 42
60.0
 43
60.0
 50
90.0
  0
INSERT
  5
7CD4
  8
3
  6
CONTINUOUS
 62
     0
  2
_OPEN
 10
3258.4176910000001
 20
2351.2739859999988
 30
0.0
 41
60.0
 42
60.0
 43
60.0
 50
270.0
  0
TEXT
  8
3
  40
90
  5
7D46
  62
0
  72
0
  71
0
 10
3003.42
 20
2504.47
 30
0.000000
  1
625
  0
POINT
  5
7CD6
  8
DEFPOINTS
  6
CONTINUOUS
 62
     0
 10
2942.533265
 20
2976.2739860000001
 30
0.0
  0
POINT
  5
7CD7
  8
DEFPOINTS
  6
CONTINUOUS
 62
     0
 10
2683.5409719999989
 20
2351.2739860000001
 30
0.0
  0
POINT
  5
7CD8
  8
DEFPOINTS
  6
CONTINUOUS
 62
     0
 10
3258.4176910000001
 20
2351.2739859999988
 30
0.0
  0
ENDBLK
  5
7B3D
  8
0
  0
BLOCK
  8
0
  2
*D4
 70
     1
 10
0.0
 20
0.0
 30
0.0
  3
*D4
  1

  0
LINE
  5
7CD9
  8
3
  6
CONTINUOUS
 62
     0
 10
2698.5409719999989
 20
2351.2739860000001
 30
0.0
 11
3287.398788
 21
2351.2739859999988
 31
0.0
  0
LINE
  5
7CDA
  8
3
  6
CONTINUOUS
 62
     0
 10
2848.5409719999998
 20
2275.2739860000001
 30
0.0
 11
3287.398788
 21
2275.2739859999988
 31
0.0
  0
LINE
  5
7CDB
  8
3
  6
CONTINUOUS
 62
     0
 10
3257.398788
 20
2411.2739859999988
 30
0.0
 11
3257.398788
 21
2471.2739859999988
 31
0.0
  0
LINE
  5
7CDC
  8
3
  6
CONTINUOUS
 62
     0
 10
3257.398788
 20
2215.2739859999988
 30
0.0
 11
3257.398788
 21
1953.8454145714279
 31
0.0
  0
LINE
  5
7CDD
  8
3
  6
CONTINUOUS
 62
     0
 10
3257.398788
 20
2351.2739859999988
 30
0.0
 11
3257.398788
 21
2275.2739859999988
 31
0.0
  0
INSERT
  5
7CDE
  8
3
  6
CONTINUOUS
 62
     0
  2
_OPEN
 10
3257.398788
 20
2351.2739859999988
 30
0.0
 41
60.0
 42
60.0
 43
60.0
 50
270.0
  0
INSERT
  5
7CDF
  8
3
  6
CONTINUOUS
 62
     0
  2
_OPEN
 10
3257.398788
 20
2275.2739859999988
 30
0.0
 41
60.0
 42
60.0
 43
60.0
 50
90.0
  0
TEXT
  8
3
  40
90
  5
7D47
  62
0
  72
0
  71
0
 10
3002.40
 20
1895.26
 30
0.000000
  1
76
  0
POINT
  5
7CE1
  8
DEFPOINTS
  6
CONTINUOUS
 62
     0
 10
2683.5409719999989
 20
2351.2739860000001
 30
0.0
  0
POINT
  5
7CE2
  8
DEFPOINTS
  6
CONTINUOUS
 62
     0
 10
2833.5409719999989
 20
2275.2739860000001
 30
0.0
  0
POINT
  5
7CE3
  8
DEFPOINTS
  6
CONTINUOUS
 62
     0
 10
3257.398788
 20
2275.2739859999988
 30
0.0
  0
ENDBLK
  5
7C8F
  8
0
  0
BLOCK
  8
0
  2
*D5
 70
     1
 10
0.0
 20
0.0
 30
0.0
  3
*D5
  1

  0
LINE
  5
7CE4
  8
3
  6
CONTINUOUS
 62
     0
 10
2833.5409719999989
 20
2260.2739860000001
 30
0.0
 11
2833.5409719999989
 21
2003.741794
 31
0.0
  0
LINE
  5
7CE5
  8
3
  6
CONTINUOUS
 62
     0
 10
2213.5409719999998
 20
2176.944669
 30
0.0
 11
2213.5409719999998
 21
2003.741794
 31
0.0
  0
LINE
  5
7CE6
  8
3
  6
CONTINUOUS
 62
     0
 10
2773.5409719999998
 20
2033.741794
 30
0.0
 11
2273.5409719999998
 21
2033.741794
 31
0.0
  0
INSERT
  5
7CE7
  8
3
  6
CONTINUOUS
 62
     0
  2
_OPEN
 10
2833.5409719999989
 20
2033.741794
 30
0.0
 41
60.0
 42
60.0
 43
60.0
  0
INSERT
  5
7CE8
  8
3
  6
CONTINUOUS
 62
     0
  2
_OPEN
 10
2213.5409719999998
 20
2033.741794
 30
0.0
 41
60.0
 42
60.0
 43
60.0
 50
180.0
  0
TEXT
  8
3
  40
90
  5
7D48
  62
0
  72
0
  71
0
 10
2354.57
 20
1949.44
 30
0.000000
  1
620
  0
POINT
  5
7CEA
  8
DEFPOINTS
  6
CONTINUOUS
 62
     0
 10
2833.5409719999989
 20
2275.2739860000001
 30
0.0
  0
POINT
  5
7CEB
  8
DEFPOINTS
  6
CONTINUOUS
 62
     0
 10
2213.5409719999998
 20
2191.944669
 30
0.0
  0
POINT
  5
7CEC
  8
DEFPOINTS
  6
CONTINUOUS
 62
     0
 10
2213.5409719999998
 20
2033.741794
 30
0.0
  0
ENDBLK
  5
7C3F
  8
0
  0
BLOCK
  8
0
  2
*D6
 70
     1
 10
0.0
 20
0.0
 30
0.0
  3
*D6
  1

  0
LINE
  5
7CED
  8
3
  6
CONTINUOUS
 62
     0
 10
1033.5409719999991
 20
2260.2739860000001
 30
0.0
 11
1033.5409719999991
 21
2003.741794
 31
0.0
  0
LINE
  5
7CEE
  8
3
  6
CONTINUOUS
 62
     0
 10
2153.5409719999989
 20
2033.741794
 30
0.0
 11
1093.540972
 21
2033.741794
 31
0.0
  0
INSERT
  5
7CEF
  8
3
  6
CONTINUOUS
 62
     0
  2
_OPEN
 10
2213.5409719999998
 20
2033.741794
 30
0.0
 41
60.0
 42
60.0
 43
60.0
  0
INSERT
  5
7CF0
  8
3
  6
CONTINUOUS
 62
     0
  2
_OPEN
 10
1033.5409719999991
 20
2033.741794
 30
0.0
 41
60.0
 42
60.0
 43
60.0
 50
180.0
  0
TEXT
  8
3
  40
90
  5
7D49
  62
0
  72
0
  71
0
 10
1443.54
 20
1949.44
 30
0.000000
  1
1180
  0
POINT
  5
7CF2
  8
DEFPOINTS
  6
CONTINUOUS
 62
     0
 10
2213.5409719999998
 20
2191.944669
 30
0.0
  0
POINT
  5
7CF3
  8
DEFPOINTS
  6
CONTINUOUS
 62
     0
 10
1033.5409719999991
 20
2275.2739860000001
 30
0.0
  0
POINT
  5
7CF4
  8
DEFPOINTS
  6
CONTINUOUS
 62
     0
 10
1033.5409719999991
 20
2033.741794
 30
0.0
  0
ENDBLK
  5
7C34
  8
0
  0
BLOCK
  8
0
  2
*D7
 70
     1
 10
0.0
 20
0.0
 30
0.0
  3
*D7
  1

  0
LINE
  5
7CF5
  8
3
  6
CONTINUOUS
 62
     0
 10
2748.5409719999998
 20
3727.2739860000001
 30
0.0
 11
2748.5409719999998
 21
4103.0041680000004
 31
0.0
  0
LINE
  5
7CF6
  8
3
  6
CONTINUOUS
 62
     0
 10
2213.5409719999998
 20
4065.4569929999998
 30
0.0
 11
2213.5409719999998
 21
4103.0041680000004
 31
0.0
  0
LINE
  5
7CF7
  8
3
  6
CONTINUOUS
 62
     0
 10
2688.5409719999998
 20
4073.004167999999
 30
0.0
 11
2273.5409719999998
 21
4073.004167999999
 31
0.0
  0
INSERT
  5
7CF8
  8
3
  6
CONTINUOUS
 62
     0
  2
_OPEN
 10
2748.5409719999998
 20
4073.004167999999
 30
0.0
 41
60.0
 42
60.0
 43
60.0
  0
INSERT
  5
7CF9
  8
3
  6
CONTINUOUS
 62
     0
  2
_OPEN
 10
2213.5409719999998
 20
4073.004167999999
 30
0.0
 41
60.0
 42
60.0
 43
60.0
 50
180.0
  0
TEXT
  8
3
  40
90
  5
7D4A
  62
0
  72
0
  71
0
 10
2325.38
 20
3988.70
 30
0.000000
  1
535
  0
POINT
  5
7CFB
  8
DEFPOINTS
  6
CONTINUOUS
 62
     0
 10
2748.5409719999998
 20
3712.2739860000001
 30
0.0
  0
POINT
  5
7CFC
  8
DEFPOINTS
  6
CONTINUOUS
 62
     0
 10
2213.5409719999998
 20
4050.4569929999998
 30
0.0
  0
POINT
  5
7CFD
  8
DEFPOINTS
  6
CONTINUOUS
 62
     0
 10
2213.5409719999998
 20
4073.004167999999
 30
0.0
  0
ENDBLK
  5
7B73
  8
0
  0
BLOCK
  8
0
  2
*D8
 70
     1
 10
0.0
 20
0.0
 30
0.0
  3
*D8
  1

  0
LINE
  5
7CFE
  8
3
  6
CONTINUOUS
 62
     0
 10
4812.5811009999998
 20
3687.2739860000001
 30
0.0
 11
4812.5811009999998
 21
4103.0041680000004
 31
0.0
  0
LINE
  5
7CFF
  8
3
  6
CONTINUOUS
 62
     0
 10
4282.5811009999989
 20
3687.2739860000001
 30
0.0
 11
4282.5811009999989
 21
4103.0041680000004
 31
0.0
  0
LINE
  5
7D00
  8
3
  6
CONTINUOUS
 62
     0
 10
4752.5811009999989
 20
4073.004167999999
 30
0.0
 11
4342.5811009999989
 21
4073.004167999999
 31
0.0
  0
INSERT
  5
7D01
  8
3
  6
CONTINUOUS
 62
     0
  2
_OPEN
 10
4812.5811009999998
 20
4073.004167999999
 30
0.0
 41
60.0
 42
60.0
 43
60.0
  0
INSERT
  5
7D02
  8
3
  6
CONTINUOUS
 62
     0
  2
_OPEN
 10
4282.5811009999989
 20
4073.004167999999
 30
0.0
 41
60.0
 42
60.0
 43
60.0
 50
180.0
  0
TEXT
  8
3
  40
90
  5
7D4B
  62
0
  72
0
  71
0
 10
4380.18
 20
3988.70
 30
0.000000
  1
530
  0
POINT
  5
7D04
  8
DEFPOINTS
  6
CONTINUOUS
 62
     0
 10
4812.5811009999998
 20
3672.2739860000001
 30
0.0
  0
POINT
  5
7D05
  8
DEFPOINTS
  6
CONTINUOUS
 62
     0
 10
4282.5811009999989
 20
3672.2739860000001
 30
0.0
  0
POINT
  5
7D06
  8
DEFPOINTS
  6
CONTINUOUS
 62
     0
 10
4282.5811009999989
 20
4073.004167999999
 30
0.0
  0
ENDBLK
  5
7B80
  8
0
  0
BLOCK
  8
0
  2
*D9
 70
     1
 10
0.0
 20
0.0
 30
0.0
  3
*D9
  1

  0
LINE
  5
7C57
  8
0
  6
BYBLOCK
 62
     0
 10
4814.5811009999989
 20
3368.2739860000001
 30
0.0
 11
4814.5811009999989
 21
4307.1668770000006
 31
0.0
  0
LINE
  5
7C58
  8
0
  6
BYBLOCK
 62
     0
 10
4547.5811009999998
 20
4260.6350490000004
 30
0.0
 11
4547.5811009999998
 21
4307.1668770000006
 31
0.0
  0
LINE
  5
7C59
  8
0
  6
BYBLOCK
 62
     0
 10
4754.5811009999998
 20
4277.1668769999997
 30
0.0
 11
4607.5811009999998
 21
4277.1668769999997
 31
0.0
  0
TEXT
  5
7C5A
  8
3
 62
     0
 10
4577.336795422827
 20
4327.6125382309719
 30
0.0
 40
90.0
  1
267
  0
INSERT
  5
7C5B
  8
0
  6
BYBLOCK
 62
     0
  2
_OPEN
 10
4814.5811009999989
 20
4277.1668769999997
 30
0.0
 41
60.0
 42
60.0
 43
60.0
  0
INSERT
  5
7C5C
  8
0
  6
BYBLOCK
 62
     0
  2
_OPEN
 10
4547.5811009999998
 20
4277.1668769999997
 30
0.0
 41
60.0
 42
60.0
 43
60.0
 50
180.0
  0
POINT
  5
7C5D
  8
DEFPOINTS
  6
BYBLOCK
 62
     0
 10
4814.5811009999989
 20
3353.2739860000001
 30
0.0
  0
POINT
  5
7C5E
  8
DEFPOINTS
  6
BYBLOCK
 62
     0
 10
4547.5811009999998
 20
4245.6350490000004
 30
0.0
  0
POINT
  5
7C5F
  8
DEFPOINTS
  6
BYBLOCK
 62
     0
 10
4547.5811009999998
 20
4277.1668769999997
 30
0.0
  0
ENDBLK
  5
7C60
  8
0
  0
BLOCK
  8
0
  2
*D10
 70
     1
 10
0.0
 20
0.0
 30
0.0
  3
*D10
  1

  0
LINE
  5
7D07
  8
3
  6
CONTINUOUS
 62
     0
 10
4829.5811009999998
 20
3353.2739860000001
 30
0.0
 11
5273.1823800000002
 21
3353.2739860000001
 31
0.0
  0
LINE
  5
7D08
  8
3
  6
CONTINUOUS
 62
     0
 10
4829.5811009999998
 20
2599.2739860000001
 30
0.0
 11
5273.1823800000002
 21
2599.2739860000001
 31
0.0
  0
LINE
  5
7D09
  8
3
  6
CONTINUOUS
 62
     0
 10
5243.1823800000002
 20
3293.2739859999988
 30
0.0
 11
5243.1823800000002
 21
2659.2739860000001
 31
0.0
  0
INSERT
  5
7D0A
  8
3
  6
CONTINUOUS
 62
     0
  2
_OPEN
 10
5243.1823800000002
 20
3353.2739860000001
 30
0.0
 41
60.0
 42
60.0
 43
60.0
 50
90.0
  0
INSERT
  5
7D0B
  8
3
  6
CONTINUOUS
 62
     0
  2
_OPEN
 10
5243.1823800000002
 20
2599.2739860000001
 30
0.0
 41
60.0
 42
60.0
 43
60.0
 50
270.0
  0
TEXT
  8
3
  40
90
  5
7D4C
  62
0
  72
0
  71
0
 10
4988.18
 20
2817.06
 30
0.000000
  1
φ754
  0
POINT
  5
7D0D
  8
DEFPOINTS
  6
CONTINUOUS
 62
     0
 10
4814.5811009999989
 20
3353.2739860000001
 30
0.0
  0
POINT
  5
7D0E
  8
DEFPOINTS
  6
CONTINUOUS
 62
     0
 10
4814.5811009999989
 20
2599.2739860000001
 30
0.0
  0
POINT
  5
7D0F
  8
DEFPOINTS
  6
CONTINUOUS
 62
     0
 10
5243.1823800000002
 20
2599.2739860000001
 30
0.0
  0
ENDBLK
  5
7C6B
  8
0
  0
BLOCK
  8
0
  2
*D11
 70
     1
 10
0.0
 20
0.0
 30
0.0
  3
*D11
  1

  0
LINE
  5
7D10
  8
3
  6
CONTINUOUS
 62
     0
 10
3932.5811009999989
 20
3925.2739860000001
 30
0.0
 11
3718.7669170000008
 21
3925.2739860000001
 31
0.0
  0
LINE
  5
7D11
  8
3
  6
CONTINUOUS
 62
     0
 10
3932.5811009999989
 20
2275.2739860000001
 30
0.0
 11
3718.7669169999999
 21
2275.2739860000001
 31
0.0
  0
LINE
  5
7D12
  8
3
  6
CONTINUOUS
 62
     0
 10
3748.7669170000008
 20
3865.2739860000001
 30
0.0
 11
3748.7669170000008
 21
2335.2739860000001
 31
0.0
  0
INSERT
  5
7D13
  8
3
  6
CONTINUOUS
 62
     0
  2
_OPEN
 10
3748.7669170000008
 20
3925.2739860000001
 30
0.0
 41
60.0
 42
60.0
 43
60.0
 50
90.0
  0
INSERT
  5
7D14
  8
3
  6
CONTINUOUS
 62
     0
  2
_OPEN
 10
3748.7669170000008
 20
2275.2739860000001
 30
0.0
 41
60.0
 42
60.0
 43
60.0
 50
270.0
  0
TEXT
  8
3
  40
90
  5
7D4D
  62
0
  72
0
  71
0
 10
3493.77
 20
2817.06
 30
0.000000
  1
1650
  0
POINT
  5
7D16
  8
DEFPOINTS
  6
CONTINUOUS
 62
     0
 10
3947.5811010000002
 20
3925.2739860000001
 30
0.0
  0
POINT
  5
7D17
  8
DEFPOINTS
  6
CONTINUOUS
 62
     0
 10
3947.5811010000002
 20
2275.2739860000001
 30
0.0
  0
POINT
  5
7D18
  8
DEFPOINTS
  6
CONTINUOUS
 62
     0
 10
3748.7669170000008
 20
2275.2739860000001
 30
0.0
  0
ENDBLK
  5
7BAB
  8
0
  0
BLOCK
  8
0
  2
*D12
 70
     1
 10
0.0
 20
0.0
 30
0.0
  3
*D12
  1

  0
LINE
  5
7D19
  8
3
  6
CONTINUOUS
 62
     0
 10
3947.5811010000002
 20
2260.2739860000001
 30
0.0
 11
3947.5811010000002
 21
2021.5784269999999
 31
0.0
  0
LINE
  5
7D1A
  8
3
  6
CONTINUOUS
 62
     0
 10
4547.5811009999998
 20
2064.095538999999
 30
0.0
 11
4547.5811009999998
 21
2081.578426999999
 31
0.0
  0
LINE
  5
7D1B
  8
3
  6
CONTINUOUS
 62
     0
 10
4007.5811009999989
 20
2051.5784269999999
 30
0.0
 11
4487.5811009999989
 21
2051.5784269999999
 31
0.0
  0
INSERT
  5
7D1C
  8
3
  6
CONTINUOUS
 62
     0
  2
_OPEN
 10
3947.5811010000002
 20
2051.5784269999999
 30
0.0
 41
60.0
 42
60.0
 43
60.0
 50
180.0
  0
INSERT
  5
7D1D
  8
3
  6
CONTINUOUS
 62
     0
  2
_OPEN
 10
4547.5811009999998
 20
2051.5784269999999
 30
0.0
 41
60.0
 42
60.0
 43
60.0
  0
TEXT
  8
3
  40
90
  5
7D4E
  62
0
  72
0
  71
0
 10
4088.30
 20
1967.28
 30
0.000000
  1
600
  0
POINT
  5
7D1F
  8
DEFPOINTS
  6
CONTINUOUS
 62
     0
 10
3947.5811010000002
 20
2275.2739860000001
 30
0.0
  0
POINT
  5
7D20
  8
DEFPOINTS
  6
CONTINUOUS
 62
     0
 10
4547.5811009999998
 20
2049.0955389999999
 30
0.0
  0
POINT
  5
7D21
  8
DEFPOINTS
  6
CONTINUOUS
 62
     0
 10
4547.5811009999998
 20
2051.5784269999999
 30
0.0
  0
ENDBLK
  5
7C15
  8
0
  0
BLOCK
  8
0
  2
*D13
 70
     1
 10
0.0
 20
0.0
 30
0.0
  3
*D13
  1

  0
LINE
  5
7D22
  8
3
  6
CONTINUOUS
 62
     0
 10
4997.5811009999998
 20
2260.2739860000001
 30
0.0
 11
4997.5811009999998
 21
2021.5784269999999
 31
0.0
  0
LINE
  5
7D23
  8
3
  6
CONTINUOUS
 62
     0
 10
4607.5811009999998
 20
2051.5784269999999
 30
0.0
 11
4937.5811009999998
 21
2051.5784269999999
 31
0.0
  0
INSERT
  5
7D24
  8
3
  6
CONTINUOUS
 62
     0
  2
_OPEN
 10
4547.5811009999998
 20
2051.5784269999999
 30
0.0
 41
60.0
 42
60.0
 43
60.0
 50
180.0
  0
INSERT
  5
7D25
  8
3
  6
CONTINUOUS
 62
     0
  2
_OPEN
 10
4997.5811009999998
 20
2051.5784269999999
 30
0.0
 41
60.0
 42
60.0
 43
60.0
  0
TEXT
  8
3
  40
90
  5
7D4F
  62
0
  72
0
  71
0
 10
4592.58
 20
1967.28
 30
0.000000
  1
450
  0
POINT
  5
7D27
  8
DEFPOINTS
  6
CONTINUOUS
 62
     0
 10
4547.5811009999998
 20
2049.0955389999999
 30
0.0
  0
POINT
  5
7D28
  8
DEFPOINTS
  6
CONTINUOUS
 62
     0
 10
4997.5811009999998
 20
2275.2739860000001
 30
0.0
  0
POINT
  5
7D29
  8
DEFPOINTS
  6
CONTINUOUS
 62
     0
 10
4997.5811009999998
 20
2051.5784269999999
 30
0.0
  0
ENDBLK
  5
7C1F
  8
0
  0
BLOCK
  8
0
  2
*D14
 70
     1
 10
0.0
 20
0.0
 30
0.0
  3
*D14
  1

  0
LINE
  5
7D2A
  8
3
  6
CONTINUOUS
 62
     0
 10
1033.5409719999991
 20
6324.3265135561314
 30
0.0
 11
1033.5409719999991
 21
6514.3106015561298
 31
0.0
  0
LINE
  5
7D2B
  8
3
  6
CONTINUOUS
 62
     0
 10
2833.5409719999989
 20
6324.3265135561314
 30
0.0
 11
2833.5409719999989
 21
6514.3106015561298
 31
0.0
  0
LINE
  5
7D2C
  8
3
  6
CONTINUOUS
 62
     0
 10
1093.540972
 20
6484.3106015561298
 30
0.0
 11
2773.5409719999998
 21
6484.3106015561298
 31
0.0
  0
INSERT
  5
7D2D
  8
3
  6
CONTINUOUS
 62
     0
  2
_OPEN
 10
1033.5409719999991
 20
6484.3106015561298
 30
0.0
 41
60.0
 42
60.0
 43
60.0
 50
180.0
  0
INSERT
  5
7D2E
  8
3
  6
CONTINUOUS
 62
     0
  2
_OPEN
 10
2833.5409719999989
 20
6484.3106015561298
 30
0.0
 41
60.0
 42
60.0
 43
60.0
  0
TEXT
  8
3
  40
90
  5
7D50
  62
0
  72
0
  71
0
 10
1700.77
 20
6400.01
 30
0.000000
  1
1800
  0
POINT
  5
7D30
  8
DEFPOINTS
  6
CONTINUOUS
 62
     0
 10
1033.5409719999991
 20
6309.3265135561296
 30
0.0
  0
POINT
  5
7D31
  8
DEFPOINTS
  6
CONTINUOUS
 62
     0
 10
2833.5409719999989
 20
6309.3265135561296
 30
0.0
  0
POINT
  5
7D32
  8
DEFPOINTS
  6
CONTINUOUS
 62
     0
 10
2833.5409719999989
 20
6484.3106015561298
 30
0.0
  0
ENDBLK
  5
7BD1
  8
0
  0
BLOCK
  8
0
  2
*D15
 70
     1
 10
0.0
 20
0.0
 30
0.0
  3
*D15
  1

  0
LINE
  5
7D33
  8
3
  6
CONTINUOUS
 62
     0
 10
2848.5409719999998
 20
6309.3265135561296
 30
0.0
 11
3142.4804280000012
 21
6309.3265135561296
 31
0.0
  0
LINE
  5
7D34
  8
3
  6
CONTINUOUS
 62
     0
 10
2848.5409719999998
 20
5259.3265135561296
 30
0.0
 11
3142.4804280000012
 21
5259.3265135561296
 31
0.0
  0
LINE
  5
7D35
  8
3
  6
CONTINUOUS
 62
     0
 10
3112.4804280000012
 20
6249.3265135561296
 30
0.0
 11
3112.4804280000012
 21
5319.3265135561314
 31
0.0
  0
INSERT
  5
7D36
  8
3
  6
CONTINUOUS
 62
     0
  2
_OPEN
 10
3112.4804280000012
 20
6309.3265135561296
 30
0.0
 41
60.0
 42
60.0
 43
60.0
 50
90.0
  0
INSERT
  5
7D37
  8
3
  6
CONTINUOUS
 62
     0
  2
_OPEN
 10
3112.4804280000012
 20
5259.3265135561296
 30
0.0
 41
60.0
 42
60.0
 43
60.0
 50
270.0
  0
TEXT
  8
3
  40
90
  5
7D51
  62
0
  72
0
  71
0
 10
2857.48
 20
5601.69
 30
0.000000
  1
1050
  0
POINT
  5
7D39
  8
DEFPOINTS
  6
CONTINUOUS
 62
     0
 10
2833.5409719999989
 20
6309.3265135561296
 30
0.0
  0
POINT
  5
7D3A
  8
DEFPOINTS
  6
CONTINUOUS
 62
     0
 10
2833.5409719999989
 20
5259.3265135561296
 30
0.0
  0
POINT
  5
7D3B
  8
DEFPOINTS
  6
CONTINUOUS
 62
     0
 10
3112.4804280000012
 20
5259.3265135561296
 30
0.0
  0
ENDBLK
  5
7BDE
  8
0
  0
BLOCK
  8
0
  2
*D16
 70
     1
 10
0.0
 20
0.0
 30
0.0
  3
*D16
  1

  0
LINE
  5
7D3C
  8
3
 62
     0
 10
1627.540972
 20
2991.3073212259278
 30
0.0
 11
1627.540972
 21
4103.0041680000004
 31
0.0
  0
LINE
  5
7D3D
  8
3
 62
     0
 10
2153.5409719999989
 20
4073.004167999999
 30
0.0
 11
1687.5409719999991
 21
4073.004167999999
 31
0.0
  0
INSERT
  5
7D3E
  8
3
 62
     0
  2
_OPEN
 10
2213.5409719999998
 20
4073.004167999999
 30
0.0
 41
60.0
 42
60.0
 43
60.0
  0
INSERT
  5
7D3F
  8
3
 62
     0
  2
_OPEN
 10
1627.540972
 20
4073.004167999999
 30
0.0
 41
60.0
 42
60.0
 43
60.0
 50
180.0
  0
TEXT
  8
3
  40
90
  5
7D52
  62
0
  72
0
  71
0
 10
1740.54
 20
3988.70
 30
0.000000
  1
586
  0
POINT
  5
7D41
  8
DEFPOINTS
 62
     0
 10
2213.5409719999998
 20
4050.4569929999998
 30
0.0
  0
POINT
  5
7D42
  8
DEFPOINTS
 62
     0
 10
1627.540972
 20
2976.3073212259278
 30
0.0
  0
POINT
  5
7D43
  8
DEFPOINTS
 62
     0
 10
1627.540972
 20
4073.004167999999
 30
0.0
  0
ENDBLK
  5
7C82
  8
0
  0
ENDSEC
  0
SECTION
  2
ENTITIES
  0
LINE
  5
7A7A
  8
1
  6
CONTINUOUS
 10
1564.060972
 20
5555.3365135561307
 30
0.0
 11
1564.060972
 21
6011.2765135561312
 31
0.0
  0
LINE
  5
7A7B
  8
1
  6
CONTINUOUS
 10
1235.080972
 20
5555.3365135561307
 30
0.0
 11
1235.080972
 21
6011.2765135561312
 31
0.0
  0
LINE
  5
7A7C
  8
1
  6
CONTINUOUS
 10
1183.540972
 20
6176.3265135561296
 30
0.0
 11
1183.540972
 21
5416.3265135561296
 31
0.0
  0
LINE
  5
7A7D
  8
1
  6
CONTINUOUS
 10
2748.5409719999998
 20
6164.3265135561296
 30
0.0
 11
2748.5409719999998
 21
5554.3265135561296
 31
0.0
  0
LINE
  5
7A7E
  8
1
  6
CONTINUOUS
 10
1625.800972
 20
6124.3265135561296
 30
0.0
 11
1625.800972
 21
5594.3265135561296
 31
0.0
  0
LINE
  5
7A7F
  8
1
  6
CONTINUOUS
 10
1083.5409719999991
 20
6259.3265135561296
 30
0.0
 11
1083.5409719999991
 21
5309.3265135561296
 31
0.0
  0
LINE
  5
7A80
  8
1
  6
CONTINUOUS
 10
2783.5409719999989
 20
5309.3265135561296
 30
0.0
 11
2783.5409719999989
 21
6259.3265135561296
 31
0.0
  0
LINE
  5
7A81
  8
1
  6
CONTINUOUS
 10
1033.5409719999991
 20
6309.3265135561296
 30
0.0
 11
1033.5409719999991
 21
5259.3265135561296
 31
0.0
  0
LINE
  5
7A82
  8
1
  6
CONTINUOUS
 10
2833.5409719999989
 20
5259.3265135561296
 30
0.0
 11
2833.5409719999989
 21
6309.3265135561296
 31
0.0
  0
LINE
  5
7A83
  8
1
  6
CONTINUOUS
 10
1083.5409719999991
 20
3875.2739860000001
 30
0.0
 11
2783.5409719999989
 21
3875.2739860000001
 31
0.0
  0
LINE
  5
7A84
  8
1
  6
CONTINUOUS
 10
2783.5409719999989
 20
2325.2739860000001
 30
0.0
 11
1083.5409719999991
 21
2325.2739860000001
 31
0.0
  0
LINE
  5
7A85
  8
1
  6
CONTINUOUS
 10
1083.5409719999991
 20
5309.3265135561296
 30
0.0
 11
2783.5409719999989
 21
5309.3265135561296
 31
0.0
  0
LINE
  5
7A86
  8
1
  6
CONTINUOUS
 10
1033.5409719999991
 20
3925.2739860000001
 30
0.0
 11
2833.5409719999989
 21
3925.2739860000001
 31
0.0
  0
LINE
  5
7A87
  8
1
  6
CONTINUOUS
 10
2833.5409719999989
 20
2275.2739860000001
 30
0.0
 11
1033.5409719999991
 21
2275.2739860000001
 31
0.0
  0
LINE
  5
7A88
  8
1
  6
CONTINUOUS
 10
1033.5409719999991
 20
5259.3265135561296
 30
0.0
 11
2833.5409719999989
 21
5259.3265135561296
 31
0.0
  0
LINE
  5
7A89
  8
1
  6
CONTINUOUS
 10
2748.5409719999998
 20
2902.2739860000001
 30
0.0
 11
2748.5409719999998
 21
3712.2739860000001
 31
0.0
  0
ARC
  5
7A8C
  8
1
  6
CONTINUOUS
 10
2260.5409719999989
 20
3023.2739860000001
 30
0.0
 40
634.74000000000001
 50
94.25
 51
185.31
  0
LINE
  5
7A8D
  8
1
  6
CONTINUOUS
 10
2718.5409719999998
 20
2942.2739860000001
 30
0.0
 11
2718.5409719999998
 21
3671.3739860000001
 31
0.0
  0
LINE
  5
7A8E
  8
1
  6
CONTINUOUS
 10
2583.5409719999989
 20
2451.2739860000001
 30
0.0
 11
2583.5409719999989
 21
3591.2739860000001
 31
0.0
  0
LINE
  5
7A8F
  8
1
  6
CONTINUOUS
 10
2063.5409719999989
 20
3591.2739860000001
 30
0.0
 11
1223.540972
 21
2751.2739860000001
 31
0.0
  0
LINE
  5
7A90
  8
1
  6
CONTINUOUS
 10
1083.5409719999991
 20
2325.2739860000001
 30
0.0
 11
1083.5409719999991
 21
3875.2739860000001
 31
0.0
  0
LINE
  5
7A91
  8
1
  6
CONTINUOUS
 10
1033.5409719999991
 20
2275.2739860000001
 30
0.0
 11
1033.5409719999991
 21
3925.2739860000001
 31
0.0
  0
LINE
  5
7A92
  8
1
  6
CONTINUOUS
 10
2146.800972
 20
3110.6039860000001
 30
0.0
 11
1366.4709720000001
 21
2722.913986
 31
0.0
  0
LINE
  5
7A93
  8
1
  6
CONTINUOUS
 10
2257.9809719999989
 20
2833.0039859999988
 30
0.0
 11
1425.770972
 21
2574.8639859999989
 31
0.0
  0
LINE
  5
7A95
  8
1
  6
CONTINUOUS
 10
2683.5409719999989
 20
2451.2739860000001
 30
0.0
 11
1183.540972
 21
2451.2739860000001
 31
0.0
  0
ARC
  5
7A96
  8
1
  6
CONTINUOUS
 10
2174.5409719999989
 20
3015.2739860000001
 30
0.0
 40
548.36999999999989
 50
185.31
 51
277.43000000000001
  0
LINE
  5
7A97
  8
1
  6
CONTINUOUS
 10
2683.5409719999989
 20
2351.2739860000001
 30
0.0
 11
1183.540972
 21
2351.2739860000001
 31
0.0
  0
LINE
  5
7A98
  8
1
  6
CONTINUOUS
 10
1183.540972
 20
2451.2739860000001
 30
0.0
 11
1183.540972
 21
2351.2739860000001
 31
0.0
  0
LINE
  5
7A99
  8
1
  6
CONTINUOUS
 10
1556.060972
 20
2509.2739860000001
 30
0.0
 11
1534.7209720000001
 21
2558.2839859999999
 31
0.0
  0
LINE
  5
7A9A
  8
1
  6
CONTINUOUS
 10
1556.060972
 20
2451.2739860000001
 30
0.0
 11
1556.060972
 21
2509.2739860000001
 31
0.0
  0
LINE
  5
7A9B
  8
2
  6
CENTER
 10
1402.060972
 20
2571.2739860000001
 30
0.0
 11
1402.060972
 21
2731.2739860000001
 31
0.0
  0
LINE
  5
7A9C
  8
2
  6
CENTER
 10
1322.060972
 20
2651.2739860000001
 30
0.0
 11
1482.060972
 21
2651.2739860000001
 31
0.0
  0
LINE
  5
7A9D
  8
1
  6
CONTINUOUS
 10
1248.060972
 20
2451.2739860000001
 30
0.0
 11
1248.060972
 21
2509.2739860000001
 31
0.0
  0
LINE
  5
7A9E
  8
1
  6
CONTINUOUS
 10
1248.060972
 20
2509.2739860000001
 30
0.0
 11
1269.4109719999999
 21
2558.2839859999999
 31
0.0
  0
ARC
  5
7A9F
  8
1
  6
CONTINUOUS
 10
1402.060972
 20
2651.2739860000001
 30
0.0
 40
162.0
 50
324.97000000000003
 51
215.02999999999989
  0
CIRCLE
  5
7AA0
  8
1
  6
CONTINUOUS
 10
1402.060972
 20
2651.2739860000001
 30
0.0
 40
80.0
  0
LINE
  5
7AA1
  8
1
  6
CONTINUOUS
 10
1223.540972
 20
2451.2739860000001
 30
0.0
 11
1223.540972
 21
2751.2739860000001
 31
0.0
  0
LINE
  5
7AA3
  8
1
  6
CONTINUOUS
 10
2662.3109720000002
 20
2942.2739860000001
 30
0.0
 11
2748.5409719999998
 21
2942.2739860000001
 31
0.0
  0
LINE
  5
7AA4
  8
2
  6
CENTER
 10
5079.7148420000012
 20
2976.2739860000001
 30
0.0
 11
3815.374585
 21
2976.2739860000001
 31
0.0
  0
LINE
  5
7AA5
  8
2
  6
CENTER
 10
2213.5409719999998
 20
6448.0860665561313
 30
0.0
 11
2213.5409719999998
 21
5205.8578205561307
 31
0.0
  0
ARC
  5
7AA6
  8
1
  6
CONTINUOUS
 10
2183.5409719999989
 20
2946.2739860000001
 30
0.0
 40
478.79000000000002
 50
277.43000000000001
 51
359.51999999999992
  0
LINE
  5
7AA7
  8
1
  6
CONTINUOUS
 10
2683.5409719999989
 20
2451.2739860000001
 30
0.0
 11
2683.5409719999989
 21
2351.2739860000001
 31
0.0
  0
CIRCLE
  5
7AA8
  8
1
  6
CONTINUOUS
 10
2213.5409719999998
 20
2976.2739860000001
 30
0.0
 40
150.0
  0
LINE
  5
7AAA
  8
1
  6
CONTINUOUS
 10
2748.5409719999998
 20
5594.3265135561296
 30
0.0
 11
1625.800972
 21
5594.3265135561296
 31
0.0
  0
LINE
  5
7AAB
  8
1
  6
CONTINUOUS
 10
2583.5409719999989
 20
5359.3265135561296
 30
0.0
 11
1223.540972
 21
5359.3265135561296
 31
0.0
  0
LINE
  5
7AAC
  8
1
  6
CONTINUOUS
 10
2583.5409719999989
 20
5499.3265135561296
 30
0.0
 11
1223.540972
 21
5499.3265135561296
 31
0.0
  0
LINE
  5
7AAD
  8
1
  6
CONTINUOUS
 10
2063.5409719999989
 20
5416.3265135561296
 30
0.0
 11
1482.060972
 21
5416.3265135561296
 31
0.0
  0
LINE
  5
7AAE
  8
1
  6
CONTINUOUS
 10
1423.060972
 20
5469.3265135561296
 30
0.0
 11
1423.060972
 21
5555.3365135561307
 31
0.0
  0
LINE
  5
7AAF
  8
1
  6
CONTINUOUS
 10
1381.060972
 20
5469.3265135561296
 30
0.0
 11
1381.060972
 21
5555.3365135561307
 31
0.0
  0
LINE
  5
7AB0
  8
1
  6
CONTINUOUS
 10
1235.080972
 20
5555.3365135561307
 30
0.0
 11
1564.060972
 21
5555.3365135561307
 31
0.0
  0
LINE
  5
7AB1
  8
1
  6
CONTINUOUS
 10
1223.540972
 20
5359.3265135561296
 30
0.0
 11
1223.540972
 21
5499.3265135561296
 31
0.0
  0
LINE
  5
7AB2
  8
1
  6
CONTINUOUS
 10
1322.060972
 20
5389.3265135561314
 30
0.0
 11
1322.060972
 21
5469.3265135561296
 31
0.0
  0
LINE
  5
7AB3
  8
1
  6
CONTINUOUS
 10
1482.060972
 20
5389.3265135561314
 30
0.0
 11
1482.060972
 21
5469.3265135561296
 31
0.0
  0
LINE
  5
7AB4
  8
1
  6
CONTINUOUS
 10
1482.060972
 20
5389.3265135561314
 30
0.0
 11
1322.060972
 21
5389.3265135561314
 31
0.0
  0
LINE
  5
7AB5
  8
1
  6
CONTINUOUS
 10
1482.060972
 20
5469.3265135561296
 30
0.0
 11
1322.060972
 21
5469.3265135561296
 31
0.0
  0
LINE
  5
7AB6
  8
1
  6
CONTINUOUS
 10
1322.060972
 20
5416.3265135561296
 30
0.0
 11
1183.540972
 21
5416.3265135561296
 31
0.0
  0
LINE
  5
7AB7
  8
1
  6
CONTINUOUS
 10
2748.5409719999998
 20
3672.2739860000001
 30
0.0
 11
2213.5409719999998
 21
3656.2739860000001
 31
0.0
  0
LINE
  5
7AB8
  8
1
  6
CONTINUOUS
 10
2683.5409719999989
 20
5416.3265135561296
 30
0.0
 11
2363.5409719999998
 21
5416.3265135561296
 31
0.0
  0
LINE
  5
7AB9
  8
1
  6
CONTINUOUS
 10
2583.5409719999989
 20
3591.2739860000001
 30
0.0
 11
2063.5409719999989
 21
3591.2739860000001
 31
0.0
  0
LINE
  5
7ABA
  8
1
  6
CONTINUOUS
 10
2583.5409719999989
 20
5359.3265135561296
 30
0.0
 11
2583.5409719999989
 21
5499.3265135561296
 31
0.0
  0
LINE
  5
7ABB
  8
1
  6
CONTINUOUS
 10
2063.5409719999989
 20
5389.3265135561314
 30
0.0
 11
2063.5409719999989
 21
5469.3265135561296
 31
0.0
  0
LINE
  5
7ABC
  8
1
  6
CONTINUOUS
 10
2363.5409719999998
 20
5389.3265135561314
 30
0.0
 11
2363.5409719999998
 21
5469.3265135561296
 31
0.0
  0
LINE
  5
7ABD
  8
1
  6
CONTINUOUS
 10
2363.5409719999998
 20
5389.3265135561314
 30
0.0
 11
2063.5409719999989
 21
5389.3265135561314
 31
0.0
  0
LINE
  5
7ABE
  8
1
  6
CONTINUOUS
 10
2363.5409719999998
 20
5469.3265135561296
 30
0.0
 11
2063.5409719999989
 21
5469.3265135561296
 31
0.0
  0
LINE
  5
7ABF
  8
1
  6
CONTINUOUS
 10
2192.5409719999989
 20
5469.3265135561296
 30
0.0
 11
2192.5409719999989
 21
5594.3265135561296
 31
0.0
  0
LINE
  5
7AC0
  8
1
  6
CONTINUOUS
 10
2234.5409719999998
 20
5469.3265135561296
 30
0.0
 11
2234.5409719999998
 21
5594.3265135561296
 31
0.0
  0
LINE
  5
7AC1
  8
1
  6
CONTINUOUS
 10
2683.5409719999989
 20
5594.3265135561296
 30
0.0
 11
2683.5409719999989
 21
5416.3265135561296
 31
0.0
  0
LINE
  5
7AC4
  8
1
  6
CONTINUOUS
 10
4282.5811009999989
 20
3672.2739860000001
 30
0.0
 11
4282.5811009999989
 21
2451.2739860000001
 31
0.0
  0
LINE
  5
7AC5
  8
1
  6
CONTINUOUS
 10
4812.5811009999998
 20
3672.2739860000001
 30
0.0
 11
4812.5811009999998
 21
2451.2739860000001
 31
0.0
  0
LINE
  5
7AC6
  8
1
  6
CONTINUOUS
 10
4812.5811009999998
 20
3672.2739860000001
 30
0.0
 11
4282.5811009999989
 21
2942.2739860000001
 31
0.0
  0
LINE
  5
7AC7
  8
1
  6
CONTINUOUS
 10
4282.5811009999989
 20
3672.2739860000001
 30
0.0
 11
4812.5811009999998
 21
2942.2739860000001
 31
0.0
  0
LINE
  5
7AC8
  8
1
  6
CONTINUOUS
 10
4047.5811010000002
 20
3591.2739860000001
 30
0.0
 11
4047.5811010000002
 21
2451.2739860000001
 31
0.0
  0
LINE
  5
7AC9
  8
1
  6
CONTINUOUS
 10
4187.5811009999998
 20
3591.2739860000001
 30
0.0
 11
4187.5811009999998
 21
2451.2739860000001
 31
0.0
  0
LINE
  5
7ACA
  8
1
  6
CONTINUOUS
 10
4947.5811009999998
 20
2325.2739860000001
 30
0.0
 11
4947.5811009999998
 21
3875.2739860000001
 31
0.0
  0
LINE
  5
7ACB
  8
1
  6
CONTINUOUS
 10
3997.5811010000002
 20
3875.2739860000001
 30
0.0
 11
3997.5811010000002
 21
2325.2739860000001
 31
0.0
  0
LINE
  5
7ACC
  8
1
  6
CONTINUOUS
 10
2783.5409719999989
 20
3875.2739860000001
 30
0.0
 11
2783.5409719999989
 21
2325.2739860000001
 31
0.0
  0
LINE
  5
7ACD
  8
1
  6
CONTINUOUS
 10
4997.5811009999998
 20
2275.2739860000001
 30
0.0
 11
4997.5811009999998
 21
3925.2739860000001
 31
0.0
  0
LINE
  5
7ACE
  8
1
  6
CONTINUOUS
 10
3947.5811010000002
 20
3925.2739860000001
 30
0.0
 11
3947.5811010000002
 21
2275.2739860000001
 31
0.0
  0
LINE
  5
7ACF
  8
1
  6
CONTINUOUS
 10
2833.5409719999989
 20
3925.2739860000001
 30
0.0
 11
2833.5409719999989
 21
2275.2739860000001
 31
0.0
  0
LINE
  5
7AD0
  8
1
  6
CONTINUOUS
 10
4864.5811009999989
 20
2351.2739860000001
 30
0.0
 11
4104.5811009999989
 21
2351.2739860000001
 31
0.0
  0
LINE
  5
7AD1
  8
1
  6
CONTINUOUS
 10
4864.5811009999989
 20
2451.2739860000001
 30
0.0
 11
4047.5811010000002
 21
2451.2739860000001
 31
0.0
  0
LINE
  5
7AD2
  8
1
  6
CONTINUOUS
 10
4157.5811009999989
 20
2632.2739860000001
 30
0.0
 11
4282.5811009999989
 21
2632.2739860000001
 31
0.0
  0
LINE
  5
7AD3
  8
1
  6
CONTINUOUS
 10
4157.5811009999989
 20
2590.2739860000001
 30
0.0
 11
4282.5811009999989
 21
2590.2739860000001
 31
0.0
  0
LINE
  5
7AD4
  8
1
  6
CONTINUOUS
 10
4157.5811009999989
 20
2955.2739860000001
 30
0.0
 11
4282.5811009999989
 21
2955.2739860000001
 31
0.0
  0
LINE
  5
7AD5
  8
1
  6
CONTINUOUS
 10
4157.5811009999989
 20
2997.2739860000001
 30
0.0
 11
4282.5811009999989
 21
2997.2739860000001
 31
0.0
  0
LINE
  5
7AD6
  8
1
  6
CONTINUOUS
 10
3997.5811010000002
 20
2325.2739860000001
 30
0.0
 11
4947.5811009999998
 21
2325.2739860000001
 31
0.0
  0
LINE
  5
7AD7
  8
1
  6
CONTINUOUS
 10
3947.5811010000002
 20
2275.2739860000001
 30
0.0
 11
4997.5811009999998
 21
2275.2739860000001
 31
0.0
  0
LINE
  5
7AD8
  8
1
  6
CONTINUOUS
 10
4104.5811009999989
 20
2451.2739860000001
 30
0.0
 11
4104.5811009999989
 21
2351.2739860000001
 31
0.0
  0
LINE
  5
7AD9
  8
1
  6
CONTINUOUS
 10
4157.5811009999989
 20
2826.2739860000001
 30
0.0
 11
4157.5811009999989
 21
3126.2739860000001
 31
0.0
  0
LINE
  5
7ADA
  8
1
  6
CONTINUOUS
 10
4077.5811009999989
 20
2826.2739860000001
 30
0.0
 11
4077.5811009999989
 21
3126.2739860000001
 31
0.0
  0
LINE
  5
7ADB
  8
1
  6
CONTINUOUS
 10
4157.5811009999989
 20
2531.2739860000001
 30
0.0
 11
4157.5811009999989
 21
2691.2739860000001
 31
0.0
  0
LINE
  5
7ADC
  8
1
  6
CONTINUOUS
 10
4077.5811009999989
 20
2531.2739860000001
 30
0.0
 11
4077.5811009999989
 21
2691.2739860000001
 31
0.0
  0
LINE
  5
7ADD
  8
1
  6
CONTINUOUS
 10
4077.5811009999989
 20
2826.2739860000001
 30
0.0
 11
4157.5811009999989
 21
2826.2739860000001
 31
0.0
  0
LINE
  5
7ADE
  8
1
  6
CONTINUOUS
 10
4077.5811009999989
 20
3126.2739860000001
 30
0.0
 11
4157.5811009999989
 21
3126.2739860000001
 31
0.0
  0
LINE
  5
7ADF
  8
1
  6
CONTINUOUS
 10
4077.5811009999989
 20
2531.2739860000001
 30
0.0
 11
4157.5811009999989
 21
2531.2739860000001
 31
0.0
  0
LINE
  5
7AE0
  8
1
  6
CONTINUOUS
 10
4077.5811009999989
 20
2691.2739860000001
 30
0.0
 11
4157.5811009999989
 21
2691.2739860000001
 31
0.0
  0
LINE
  5
7AE3
  8
1
  6
CONTINUOUS
 10
4282.5811009999989
 20
2942.2739860000001
 30
0.0
 11
4812.5811009999998
 21
2942.2739860000001
 31
0.0
  0
LINE
  5
7AE4
  8
1
  6
CONTINUOUS
 10
4864.5811009999989
 20
2451.2739860000001
 30
0.0
 11
4864.5811009999989
 21
2351.2739860000001
 31
0.0
  0
LINE
  5
7AE5
  8
1
  6
CONTINUOUS
 10
4947.5811009999998
 20
3875.2739860000001
 30
0.0
 11
3997.5811010000002
 21
3875.2739860000001
 31
0.0
  0
LINE
  5
7AE6
  8
1
  6
CONTINUOUS
 10
4997.5811009999998
 20
3925.2739860000001
 30
0.0
 11
3947.5811010000002
 21
3925.2739860000001
 31
0.0
  0
LINE
  5
7AE7
  8
1
  6
CONTINUOUS
 10
4187.5811009999998
 20
3591.2739860000001
 30
0.0
 11
4047.5811010000002
 21
3591.2739860000001
 31
0.0
  0
LINE
  5
7AE8
  8
1
  6
CONTINUOUS
 10
4282.5811009999989
 20
3672.2739860000001
 30
0.0
 11
4812.5811009999998
 21
3672.2739860000001
 31
0.0
  0
LINE
  5
7AE9
  8
1
  6
CONTINUOUS
 10
2783.5409719999989
 20
6259.3265135561296
 30
0.0
 11
1083.5409719999991
 21
6259.3265135561296
 31
0.0
  0
LINE
  5
7AEA
  8
1
  6
CONTINUOUS
 10
2833.5409719999989
 20
6309.3265135561296
 30
0.0
 11
1033.5409719999991
 21
6309.3265135561296
 31
0.0
  0
LINE
  5
7AEB
  8
1
  6
CONTINUOUS
 10
2748.5409719999998
 20
6124.3265135561296
 30
0.0
 11
1625.800972
 21
6124.3265135561296
 31
0.0
  0
LINE
  5
7AEC
  8
1
  6
CONTINUOUS
 10
2683.5409719999989
 20
6176.3265135561296
 30
0.0
 11
1183.540972
 21
6176.3265135561296
 31
0.0
  0
LINE
  5
7AED
  8
1
  6
CONTINUOUS
 10
1235.080972
 20
6011.2765135561312
 30
0.0
 11
1564.060972
 21
6011.2765135561312
 31
0.0
  0
LINE
  5
7AEE
  8
1
  6
CONTINUOUS
 10
2683.5409719999989
 20
6176.3265135561296
 30
0.0
 11
2683.5409719999989
 21
6124.3265135561296
 31
0.0
  0
LINE
  5
7AEF
  8
2
  6
CENTER
 10
898.43320000000006
 20
5859.3265135561296
 30
0.0
 11
2931.5182180000002
 21
5859.3265135561296
 31
0.0
  0
LINE
  5
7AF0
  8
2
  6
CENTER
 10
4547.5811009999998
 20
4044.8786409999989
 30
0.0
 11
4547.5811009999998
 21
2049.0955389999999
 31
0.0
  0
LINE
  5
7AF1
  8
2
  6
CENTER
 10
2942.533265
 20
2976.2739860000001
 30
0.0
 11
965.87687899999992
 21
2976.2739860000001
 31
0.0
  0
LINE
  5
7AF2
  8
2
  6
CENTER
 10
2213.5409719999998
 20
4050.4569929999998
 30
0.0
 11
2213.5409719999998
 21
2191.944669
 31
0.0
  0
LINE
  5
7AF3
  8
4
  6
CONTINUOUS
 10
5550.0
 20
1500.0
 30
0.0
 11
5550.0
 21
900.0
 31
0.0
  0
LINE
  5
7AF4
  8
4
  6
CONTINUOUS
 10
3450.0
 20
1500.0
 30
0.0
 11
3450.0
 21
900.0
 31
0.0
  0
LINE
  5
7AF5
  8
4
  6
CONTINUOUS
 10
1950.0
 20
1500.0
 30
0.0
 11
1950.0
 21
900.0
 31
0.0
  0
LINE
  5
7AF8
  8
4
  6
CONTINUOUS
 10
1950.0
 20
900.0
 30
0.0
 11
5550.0
 21
900.0
 31
0.0
  0
LINE
  5
7AF9
  8
4
  6
CONTINUOUS
 10
1950.0
 20
1200.0
 30
0.0
 11
5550.0
 21
1200.0
 31
0.0
  0
TEXT
  5
7AFA
  8
4
  6
CONTINUOUS
 10
2065.5062429999989
 20
1294.6290779999999
 30
0.0
 40
150.0
  1
機器名称
  0
TEXT
  5
7AFB
  8
4
  6
CONTINUOUS
 10
2058.7743179999989
 20
964.9354699999999
 30
0.0
 40
150.0
  1
機器型番
  0
TEXT
  5
7AFC
  8
4
  6
CONTINUOUS
 10
3533.0362359999999
 20
1267.7153069999999
 30
0.0
 40
150.0
  1
ミツヤ多翼送風機
  0
TEXT
  5
7AFD
  8
4
  6
CONTINUOUS
 10
3559.9634869999991
 20
951.47875299999987
 30
0.0
 40
150.0
  1
MF#4 1/2-4
  0
TEXT
  5
7AFF
  8
4
  6
CONTINUOUS
 10
2218.6851459999998
 20
7150.2865239999992
 30
0.0
 40
162.0
  1
天井吊枠防振ベット
  0
TEXT
  5
7B00
  8
4
  6
CONTINUOUS
 10
948.50278000000014
 20
7601.6429289999996
 30
0.0
 40
216.0
  1
ベルト駆動式片吸込両持多翼ファン
  0
LINE
  5
7B01
  8
4
  6
CONTINUOUS
 10
750.0
 20
7408.2262629999996
 30
0.0
 11
5550.0
 21
7408.2262629999996
 31
0.0
  0
LINE
  5
7B02
  8
4
  6
CONTINUOUS
 10
750.0
 20
8008.2262629999996
 30
0.0
 11
5550.0
 21
8008.2262629999996
 31
0.0
  0
LINE
  5
7B03
  8
4
  6
CONTINUOUS
 10
1950.0
 20
1500.0
 30
0.0
 11
5550.0
 21
1500.0
 31
0.0
  0
LINE
  5
7B04
  8
4
  6
CONTINUOUS
 10
750.0
 20
8008.2262629999996
 30
0.0
 11
750.0
 21
7408.2262629999996
 31
0.0
  0
TEXT
  5
7B05
  8
4
  6
CONTINUOUS
 10
911.1086489999999
 20
7146.9584329999998
 30
0.0
 40
162.0
  1
右回転右横向
  0
TEXT
  5
7B06
  8
4
  6
CONTINUOUS
 10
4406.9086779999989
 20
8118.1832439999989
 30
0.0
 40
168.0
  1
No.
  0
TEXT
  5
7B07
  8
4
  6
CONTINUOUS
 10
4197.2140360000003
 20
7150.2865239999992
 30
0.0
 40
162.0
  1
縮尺：1/30
  0
LINE
  5
7B08
  8
4
  6
CONTINUOUS
 10
5550.0
 20
8008.2262629999996
 30
0.0
 11
5550.0
 21
7408.2262629999996
 31
0.0
  0
LINE
  5
7B0A
  8
4
  6
CONTINUOUS
 10
4321.8522670000002
 20
8043.7907490000007
 30
0.0
 11
4321.8522670000002
 21
8359.9567849999985
 31
0.0
  0
LINE
  5
7B0B
  8
4
  6
CONTINUOUS
 10
4321.8522670000002
 20
8359.9567849999985
 30
0.0
 11
5550.0
 21
8359.9567849999985
 31
0.0
  0
LINE
  5
7B0C
  8
4
  6
CONTINUOUS
 10
5550.0
 20
8359.9567849999985
 30
0.0
 11
5550.0
 21
8043.7907490000007
 31
0.0
  0
LINE
  5
7B0D
  8
4
  6
CONTINUOUS
 10
5550.0
 20
8043.7907490000007
 30
0.0
 11
4321.8522670000002
 21
8043.7907490000007
 31
0.0
  0
DIMENSION
  5
7B25
  8
3
  6
CONTINUOUS
  2
*D1
 10
3065.780499
 20
2942.2739860000001
 30
0.0
 11
3065.780499
 21
3297.7669470000001
 31
0.0
 70
   128
 13
2748.5409719999998
 23
3672.2739860000001
 33
0.0
 14
2748.5409719999998
 24
2942.2739860000001
 34
0.0
 50
90.0
1001
ACAD
1000
DSTYLE
1002
{
1070
   287
1070
     3
1070
    40
1040
30.0
1070
   143
1040
0.039
1070
   172
1070
     1
1070
   271
1070
     0
1070
   279
1070
     0
1070
   288
1070
     1
1002
}
  0
DIMENSION
  5
7B32
  8
3
  6
CONTINUOUS
  2
*D2
 10
3258.4176910000001
 20
2976.2739859999988
 30
0.0
 11
3258.4176910000001
 21
3291.9337319999991
 31
0.0
 70
   128
 13
2783.5409719999989
 23
3672.2739860000001
 33
0.0
 14
2942.533265
 24
2976.2739860000001
 34
0.0
 50
90.0
1001
ACAD
1000
DSTYLE
1002
{
1070
   287
1070
     3
1070
    40
1040
30.0
1070
   143
1040
0.039
1070
   172
1070
     1
1070
   271
1070
     0
1070
   279
1070
     0
1070
   288
1070
     1
1002
}
  0
DIMENSION
  5
7B3E
  8
3
  6
CONTINUOUS
  2
*D3
 10
3258.4176910000001
 20
2351.2739859999988
 30
0.0
 11
3183.4176909999992
 21
2663.7739860000001
 31
0.0
 70
     0
 13
2942.533265
 23
2976.2739860000001
 33
0.0
 14
2683.5409719999989
 24
2351.2739860000001
 34
0.0
 50
90.0
1001
ACAD
1000
DSTYLE
1002
{
1070
   287
1070
     4
1070
    40
1040
30.0
1070
    75
1070
     1
1070
   143
1040
0.039
1070
   172
1070
     1
1070
   271
1070
     0
1070
   279
1070
     1
1070
   288
1070
     1
1002
}
  0
DIMENSION
  5
7B4E
  8
3
  6
CONTINUOUS
  2
*D4
 10
3257.398788
 20
2275.2739859999988
 30
0.0
 11
3257.3987879999991
 21
2054.5597002857139
 31
0.0
 70
   128
 13
2683.5409719999989
 23
2351.2739860000001
 33
0.0
 14
2833.5409719999989
 24
2275.2739860000001
 34
0.0
 50
90.0
1001
ACAD
1000
DSTYLE
1002
{
1070
   287
1070
     3
1070
    40
1040
30.0
1070
   143
1040
0.039
1070
   172
1070
     1
1070
   271
1070
     0
1070
   279
1070
     0
1070
   288
1070
     1
1002
}
  0
DIMENSION
  5
7B5B
  8
3
  6
CONTINUOUS
  2
*D5
 10
2213.5409719999998
 20
2033.741794
 30
0.0
 11
2534.568851
 21
2033.741794
 31
0.0
 70
   128
 13
2833.5409719999989
 23
2275.2739860000001
 33
0.0
 14
2213.5409719999998
 24
2191.944669
 34
0.0
1001
ACAD
1000
DSTYLE
1002
{
1070
   287
1070
     3
1070
    40
1040
30.0
1070
   143
1040
0.039
1070
   172
1070
     1
1070
   271
1070
     0
1070
   279
1070
     0
1070
   288
1070
     1
1002
}
  0
DIMENSION
  5
7B67
  8
3
  6
CONTINUOUS
  2
*D6
 10
1033.5409719999991
 20
2033.741794
 30
0.0
 11
1623.5409719999991
 21
2108.741794
 31
0.0
 70
     0
 13
2213.5409719999998
 23
2191.944669
 33
0.0
 14
1033.5409719999991
 24
2275.2739860000001
 34
0.0
1001
ACAD
1000
DSTYLE
1002
{
1070
   287
1070
     4
1070
    40
1040
30.0
1070
    75
1070
     1
1070
   143
1040
0.039
1070
   172
1070
     1
1070
   271
1070
     0
1070
   279
1070
     1
1070
   288
1070
     1
1002
}
  0
DIMENSION
  5
7B74
  8
3
  6
CONTINUOUS
  2
*D7
 10
2213.5409719999998
 20
4073.004167999999
 30
0.0
 11
2505.381378
 21
4073.004167999999
 31
0.0
 70
   128
 13
2748.5409719999998
 23
3712.2739860000001
 33
0.0
 14
2213.5409719999998
 24
4050.4569929999998
 34
0.0
1001
ACAD
1000
DSTYLE
1002
{
1070
   287
1070
     3
1070
    40
1040
30.0
1070
   143
1040
0.039
1070
   172
1070
     1
1070
   271
1070
     0
1070
   279
1070
     0
1070
   288
1070
     1
1002
}
  0
DIMENSION
  5
7B81
  8
3
  6
CONTINUOUS
  2
*D8
 10
4282.5811009999989
 20
4073.004167999999
 30
0.0
 11
4560.1781759999994
 21
4073.004167999999
 31
0.0
 70
   128
 13
4812.5811009999998
 23
3672.2739860000001
 33
0.0
 14
4282.5811009999989
 24
3672.2739860000001
 34
0.0
1001
ACAD
1000
DSTYLE
1002
{
1070
   287
1070
     3
1070
    40
1040
30.0
1070
   143
1040
0.039
1070
   172
1070
     1
1070
   271
1070
     0
1070
   279
1070
     0
1070
   288
1070
     1
1002
}
  0
LINE
  5
7B82
  8
1
  6
CONTINUOUS
 10
4814.5811009999989
 20
3353.2739860000001
 30
0.0
 11
4814.5811009999989
 21
2599.2739860000001
 31
0.0
  0
DIMENSION
  5
7B92
  8
3
  6
CONTINUOUS
  2
*D9
 10
4547.5811009999998
 20
4277.1668769999997
 30
0.0
 11
4693.0510811371132
 21
4372.6125382309729
 31
0.0
 70
   128
 13
4814.5811009999989
 23
3353.2739860000001
 33
0.0
 14
4547.5811009999998
 24
4245.6350490000004
 34
0.0
1001
ACAD
1000
DSTYLE
1002
{
1070
   288
1070
     1
1070
   172
1070
     1
1070
    40
1040
30.0
1070
   271
1070
     0
1070
   143
1040
0.039
1002
}
  0
DIMENSION
  5
7B9F
  8
3
  6
CONTINUOUS
  2
*D10
 10
5243.1823800000002
 20
2599.2739860000001
 30
0.0
 11
5243.1823800000002
 21
2976.3587090000001
 31
0.0
 70
   128
 13
4814.5811009999989
 23
3353.2739860000001
 33
0.0
 14
4814.5811009999989
 24
2599.2739860000001
 34
0.0
 50
90.0
1001
ACAD
1000
DSTYLE
1002
{
1070
   287
1070
     3
1070
     3
1000
φ<>
1070
    40
1040
30.0
1070
   143
1040
0.039
1070
   172
1070
     1
1070
   271
1070
     0
1070
   279
1070
     0
1070
   288
1070
     1
1002
}
  0
DIMENSION
  5
7BAC
  8
3
  6
CONTINUOUS
  2
*D11
 10
3748.7669170000008
 20
2275.2739860000001
 30
0.0
 11
3748.7669169999999
 21
2976.3587090000001
 31
0.0
 70
   128
 13
3947.5811010000002
 23
3925.2739860000001
 33
0.0
 14
3947.5811010000002
 24
2275.2739860000001
 34
0.0
 50
90.0
1001
ACAD
1000
DSTYLE
1002
{
1070
   287
1070
     3
1070
    40
1040
30.0
1070
   143
1040
0.039
1070
   172
1070
     1
1070
   271
1070
     0
1070
   279
1070
     0
1070
   288
1070
     1
1002
}
  0
DIMENSION
  5
7BB9
  8
3
  6
CONTINUOUS
  2
*D12
 10
4547.5811009999998
 20
2051.5784269999999
 30
0.0
 11
4268.3036169999996
 21
2051.5784269999999
 31
0.0
 70
   128
 13
3947.5811010000002
 23
2275.2739860000001
 33
0.0
 14
4547.5811009999998
 24
2049.0955389999999
 34
0.0
1001
ACAD
1000
DSTYLE
1002
{
1070
   287
1070
     3
1070
    40
1040
30.0
1070
   143
1040
0.039
1070
   172
1070
     1
1070
   271
1070
     0
1070
   279
1070
     0
1070
   288
1070
     1
1002
}
  0
DIMENSION
  5
7BC5
  8
3
  6
CONTINUOUS
  2
*D13
 10
4997.5811009999998
 20
2051.5784269999999
 30
0.0
 11
4772.5811009999998
 21
2126.5784269999999
 31
0.0
 70
     0
 13
4547.5811009999998
 23
2049.0955389999999
 33
0.0
 14
4997.5811009999998
 24
2275.2739860000001
 34
0.0
1001
ACAD
1000
DSTYLE
1002
{
1070
   287
1070
     4
1070
    40
1040
30.0
1070
    75
1070
     1
1070
   143
1040
0.039
1070
   172
1070
     1
1070
   271
1070
     0
1070
   279
1070
     1
1070
   288
1070
     1
1002
}
  0
DIMENSION
  5
7BD2
  8
3
  6
CONTINUOUS
  2
*D14
 10
2833.5409719999989
 20
6484.3106015561298
 30
0.0
 11
1880.769871
 21
6484.3106015561298
 31
0.0
 70
   128
 13
1033.5409719999991
 23
6309.3265135561296
 33
0.0
 14
2833.5409719999989
 24
6309.3265135561296
 34
0.0
1001
ACAD
1000
DSTYLE
1002
{
1070
   287
1070
     3
1070
    40
1040
30.0
1070
   143
1040
0.039
1070
   172
1070
     1
1070
   271
1070
     0
1070
   279
1070
     0
1070
   288
1070
     1
1002
}
  0
DIMENSION
  5
7BDF
  8
3
  6
CONTINUOUS
  2
*D15
 10
3112.4804280000012
 20
5259.3265135561296
 30
0.0
 11
3112.4804279999998
 21
5760.991254556131
 31
0.0
 70
   128
 13
2833.5409719999989
 23
6309.3265135561296
 33
0.0
 14
2833.5409719999989
 24
5259.3265135561296
 34
0.0
 50
90.0
1001
ACAD
1000
DSTYLE
1002
{
1070
   287
1070
     3
1070
    40
1040
30.0
1070
   143
1040
0.039
1070
   172
1070
     1
1070
   271
1070
     0
1070
   279
1070
     0
1070
   288
1070
     1
1002
}
  0
DIMENSION
  5
7C77
  8
3
  2
*D16
 10
1627.540972
 20
4073.004167999999
 30
0.0
 11
1920.5409719999991
 21
4148.0041679999986
 31
0.0
 70
     0
 13
2213.5409719999998
 23
4050.4569929999998
 33
0.0
 14
1627.540972
 24
2976.3073212259278
 34
0.0
1001
ACAD
1000
DSTYLE
1002
{
1070
   287
1070
     4
1070
    40
1040
30.0
1070
    75
1070
     1
1070
   143
1040
0.039
1070
   172
1070
     1
1070
   271
1070
     0
1070
   279
1070
     1
1070
   288
1070
     1
1002
}
  0
LINE
  5
7CA8
  8
1
 10
1753.540972
 20
3371.2739860000001
 30
0.0
 11
1753.540972
 21
2451.2739860000001
 31
0.0
  0
LINE
  5
7CA9
  8
1
 10
2673.5409719999998
 20
3371.2739860000001
 30
0.0
 11
2673.5409719999998
 21
2451.2739860000001
 31
0.0
  0
LINE
  5
7CAA
  8
1
  6
CONTINUOUS
 10
2673.5409719999998
 20
3371.2739860000001
 30
0.0
 11
1753.540972
 21
3371.2739860000001
 31
0.0
  0
ENDSEC
  0
EOF
