  0
SECTION
  2
HEADER
  9
$ACADVER
  1
AC1009
  9
$INSBASE
 10
0.0
 20
0.0
 30
0.0
  9
$EXTMIN
 10
750.0
 20
900.0
 30
0.0
  9
$EXTMAX
 10
5550.0
 20
8359.9567849999985
 30
0.0
  9
$LIMMIN
 10
0.0
 20
0.0
  9
$LIMMAX
 10
297.0
 20
210.0
  9
$ORTHOMODE
 70
     0
  9
$REGENMODE
 70
     1
  9
$FILLMODE
 70
     0
  9
$QTEXTMODE
 70
     0
  9
$MIRRTEXT
 70
     1
  9
$DRAGMODE
 70
     2
  9
$LTSCALE
 40
100.0
  9
$OSMODE
 70
    37
  9
$ATTMODE
 70
     1
  9
$TEXTSIZE
 40
180.0
  9
$TRACEWID
 40
0.05
  9
$TEXTSTYLE
  7
STANDARD
  9
$CLAYER
  8
3
  9
$CELTYPE
  6
BYLAYER
  9
$CECOLOR
 62
   256
  9
$DIMSCALE
 40
30.0
  9
$DIMASZ
 40
2.0
  9
$DIMEXO
 40
0.5
  9
$DIMDLI
 40
10.0
  9
$DIMRND
 40
0.0
  9
$DIMDLE
 40
0.0
  9
$DIMEXE
 40
1.0
  9
$DIMTP
 40
1.0
  9
$DIMTM
 40
1.0
  9
$DIMTXT
 40
3.0
  9
$DIMCEN
 40
0.0
  9
$DIMTSZ
 40
0.0
  9
$DIMTOL
 70
     0
  9
$DIMLIM
 70
     0
  9
$DIMTIH
 70
     0
  9
$DIMTOH
 70
     0
  9
$DIMSE1
 70
     0
  9
$DIMSE2
 70
     0
  9
$DIMTAD
 70
     1
  9
$DIMZIN
 70
     8
  9
$DIMBLK
  1

  9
$DIMASO
 70
     1
  9
$DIMSHO
 70
     1
  9
$DIMPOST
  1

  9
$DIMAPOST
  1

  9
$DIMALT
 70
     0
  9
$DIMALTD
 70
     2
  9
$DIMALTF
 40
0.039
  9
$DIMLFAC
 40
1.0
  9
$DIMTOFL
 70
     1
  9
$DIMTVP
 40
0.0
  9
$DIMTIX
 70
     0
  9
$DIMSOXD
 70
     0
  9
$DIMSAH
 70
     1
  9
$DIMBLK1
  1
OPEN
  9
$DIMBLK2
  1
OPEN
  9
$DIMSTYLE
  2
IGA
  9
$DIMCLRD
 70
     0
  9
$DIMCLRE
 70
     0
  9
$DIMCLRT
 70
     0
  9
$DIMTFAC
 40
10.0
  9
$DIMGAP
 40
1.0
  9
$LUNITS
 70
     2
  9
$LUPREC
 70
     3
  9
$SKETCHINC
 40
0.1
  9
$FILLETRAD
 40
0.0
  9
$AUNITS
 70
     0
  9
$AUPREC
 70
     0
  9
$MENU
  1
acad
  9
$ELEVATION
 40
0.0
  9
$PELEVATION
 40
0.0
  9
$THICKNESS
 40
0.0
  9
$LIMCHECK
 70
     0
  9
$BLIPMODE
 70
     0
  9
$CHAMFERA
 40
0.5
  9
$CHAMFERB
 40
0.5
  9
$SKPOLY
 70
     0
  9
$TDCREATE
 40
2450744.6419060179
  9
$TDUPDATE
 40
2454953.7729338421
  9
$TDINDWG
 40
0.0055974537
  9
$TDUSRTIMER
 40
0.0055974537
  9
$USRTIMER
 70
     1
  9
$ANGBASE
 50
0.0
  9
$ANGDIR
 70
     0
  9
$PDMODE
 70
     0
  9
$PDSIZE
 40
0.0
  9
$PLINEWID
 40
0.0
  9
$COORDS
 70
     1
  9
$SPLFRAME
 70
     0
  9
$SPLINETYPE
 70
     6
  9
$SPLINESEGS
 70
     8
  9
$ATTDIA
 70
     0
  9
$ATTREQ
 70
     1
  9
$HANDLING
 70
 10241
  9
$HANDSEED
  5
7EC0
  9
$SURFTAB1
 70
     6
  9
$SURFTAB2
 70
     6
  9
$SURFTYPE
 70
     6
  9
$SURFU
 70
     6
  9
$SURFV
 70
     6
  9
$UCSNAME
  2

  9
$UCSORG
 10
0.0
 20
0.0
 30
0.0
  9
$UCSXDIR
 10
1.0
 20
0.0
 30
0.0
  9
$UCSYDIR
 10
0.0
 20
1.0
 30
0.0
  9
$PUCSNAME
  2

  9
$PUCSORG
 10
0.0
 20
0.0
 30
0.0
  9
$PUCSXDIR
 10
1.0
 20
0.0
 30
0.0
  9
$PUCSYDIR
 10
0.0
 20
1.0
 30
0.0
  9
$USERI1
 70
     0
  9
$USERI2
 70
     0
  9
$USERI3
 70
     0
  9
$USERI4
 70
     0
  9
$USERI5
 70
     0
  9
$USERR1
 40
0.0
  9
$USERR2
 40
0.0
  9
$USERR3
 40
0.0
  9
$USERR4
 40
0.0
  9
$USERR5
 40
0.0
  9
$WORLDVIEW
 70
     1
  9
$SHADEDGE
 70
     3
  9
$SHADEDIF
 70
    70
  9
$TILEMODE
 70
     1
  9
$MAXACTVP
 70
    16
  9
$PLIMCHECK
 70
     0
  9
$PEXTMIN
 10
1.0000000000000000E+020
 20
1.0000000000000000E+020
 30
1.0000000000000000E+020
  9
$PEXTMAX
 10
-1.0000000000000000E+020
 20
-1.0000000000000000E+020
 30
-1.0000000000000000E+020
  9
$PLIMMIN
 10
0.0
 20
0.0
  9
$PLIMMAX
 10
12.0
 20
9.0
  9
$UNITMODE
 70
     0
  9
$VISRETAIN
 70
     0
  9
$PLINEGEN
 70
     0
  9
$PSLTSCALE
 70
     1
  0
ENDSEC
  0
SECTION
  2
TABLES
  0
TABLE
  2
VPORT
 70
     2
  0
VPORT
  2
*ACTIVE
 70
     0
 10
0.0
 20
0.0
 11
1.0
 21
1.0
 12
9437.9954746499006
 22
4629.9199394653269
 13
0.0
 23
0.0
 14
10.0
 24
10.0
 15
10.0
 25
10.0
 16
0.0
 26
0.0
 36
1.0
 17
0.0
 27
0.0
 37
0.0
 40
7517.061441529765
 41
3.1666666666666661
 42
50.0
 43
0.0
 44
0.0
 50
0.0
 51
0.0
 71
     0
 72
   100
 73
     1
 74
     0
 75
     0
 76
     0
 77
     0
 78
     0
  0
ENDTAB
  0
TABLE
  2
LTYPE
 70
     2
  0
LTYPE
  2
CONTINUOUS
 70
     0
  3
Solid line
 72
    65
 73
     0
 40
0.0
  0
LTYPE
  2
CENTER
 70
     0
  3
____ _ ____ _ ____ _ ____ _ ____ _ ____ _ ____ 
 72
    65
 73
     4
 40
2.0
 49
1.25
 49
-0.25
 49
0.25
 49
-0.25
  0
ENDTAB
  0
TABLE
  2
LAYER
 70
     6
  0
LAYER
  2
0
 70
     0
 62
     7
  6
CONTINUOUS
  0
LAYER
  2
3
 70
     0
 62
     2
  6
CONTINUOUS
  0
LAYER
  2
2
 70
     0
 62
     3
  6
CENTER
  0
LAYER
  2
1
 70
     0
 62
     4
  6
CONTINUOUS
  0
LAYER
  2
4
 70
     0
 62
     7
  6
CONTINUOUS
  0
LAYER
  2
DEFPOINTS
 70
     0
 62
     7
  6
CONTINUOUS
  0
ENDTAB
  0
TABLE
  2
STYLE
 70
     1
  0
STYLE
  2
STANDARD
 70
     0
 40
0.0
 41
1.0
 50
0.0
 71
     0
 42
180.0
  3
simplex.shx
  4
extfont.shx
  0
ENDTAB
  0
TABLE
  2
VIEW
 70
     0
  0
ENDTAB
  0
TABLE
  2
UCS
 70
     0
  0
ENDTAB
  0
TABLE
  2
APPID
 70
     1
  0
APPID
  2
ACAD
 70
     0
  0
ENDTAB
  0
TABLE
  2
DIMSTYLE
 70
     1
  0
DIMSTYLE
  2
IGA
 70
     0
  3

  4

  5

  6
OPEN
  7
OPEN
 40
2.0
 41
2.0
 42
0.5
 43
10.0
 44
1.0
 45
0.0
 46
0.0
 47
1.0
 48
1.0
140
3.0
141
0.0
142
0.0
143
0.03937
144
1.0
145
0.0
146
10.0
147
1.0
 71
     0
 72
     0
 73
     0
 74
     0
 75
     0
 76
     0
 77
     1
 78
     8
170
     0
171
     2
172
     0
173
     1
174
     0
175
     0
176
     0
177
     0
178
     0
  0
ENDTAB
  0
ENDSEC
  0
SECTION
  2
BLOCKS
  0
BLOCK
  8
0
  2
$MODEL_SPACE
 70
     0
 10
0.0
 20
0.0
 30
0.0
  3
$MODEL_SPACE
  1

  0
ENDBLK
  5
1B
  8
0
  0
BLOCK
 67
     1
  8
0
  2
$PAPER_SPACE
 70
     0
 10
0.0
 20
0.0
 30
0.0
  3
$PAPER_SPACE
  1

  0
ENDBLK
  5
18
 67
     1
  8
0
  0
BLOCK
  8
0
  2
_OPEN
 70
     0
 10
0.0
 20
0.0
 30
0.0
  3
_OPEN
  1

  0
LINE
  5
7B14
  8
0
  6
BYBLOCK
 62
     0
 10
-1.0
 20
0.166667
 30
0.0
 11
0.0
 21
0.0
 31
0.0
  0
LINE
  5
7B15
  8
0
  6
BYBLOCK
 62
     0
 10
0.0
 20
0.0
 30
0.0
 11
-1.0
 21
-0.166667
 31
0.0
  0
LINE
  5
7B16
  8
0
  6
BYBLOCK
 62
     0
 10
0.0
 20
0.0
 30
0.0
 11
-1.0
 21
0.0
 31
0.0
  0
ENDBLK
  5
7B17
  8
0
  0
BLOCK
  8
0
  2
*D1
 70
     1
 10
0.0
 20
0.0
 30
0.0
  3
*D1
  1

  0
LINE
  5
7E22
  8
3
  6
CONTINUOUS
 62
     0
 10
2772.2440693275439
 20
3374.516525
 30
0.0
 11
3084.5360613275452
 21
3374.516525
 31
0.0
  0
LINE
  5
7E23
  8
3
  6
CONTINUOUS
 62
     0
 10
2772.2440693275439
 20
2644.516525
 30
0.0
 11
3084.5360613275452
 21
2644.5165249999991
 31
0.0
  0
LINE
  5
7E24
  8
3
  6
CONTINUOUS
 62
     0
 10
3054.5360613275452
 20
3314.516525
 30
0.0
 11
3054.5360613275438
 21
2704.516525
 31
0.0
  0
INSERT
  5
7E25
  8
3
  6
CONTINUOUS
 62
     0
  2
_OPEN
 10
3054.5360613275452
 20
3374.516525
 30
0.0
 41
60.0
 42
60.0
 43
60.0
 50
90.0
  0
INSERT
  5
7E26
  8
3
  6
CONTINUOUS
 62
     0
  2
_OPEN
 10
3054.5360613275438
 20
2644.516525
 30
0.0
 41
60.0
 42
60.0
 43
60.0
 50
270.0
  0
TEXT
  8
3
  40
90
  5
7EB0
  62
0
  72
0
  71
0
 10
2799.54
 20
2847.20
 30
0.000000
  1
730
  0
POINT
  5
7E28
  8
DEFPOINTS
  6
CONTINUOUS
 62
     0
 10
2757.2440693275439
 20
3374.516525
 30
0.0
  0
POINT
  5
7E29
  8
DEFPOINTS
  6
CONTINUOUS
 62
     0
 10
2757.2440693275439
 20
2644.516525
 30
0.0
  0
POINT
  5
7E2A
  8
DEFPOINTS
  6
CONTINUOUS
 62
     0
 10
3054.5360613275438
 20
2644.516525
 30
0.0
  0
ENDBLK
  5
7B24
  8
0
  0
BLOCK
  8
0
  2
*D2
 70
     1
 10
0.0
 20
0.0
 30
0.0
  3
*D2
  1

  0
LINE
  5
7E2B
  8
3
  6
CONTINUOUS
 62
     0
 10
2965.7253983275441
 20
3340.516525
 30
0.0
 11
3280.5799473275451
 21
3340.5165249999991
 31
0.0
  0
LINE
  5
7E2C
  8
3
  6
CONTINUOUS
 62
     0
 10
2857.2440693275439
 20
2644.516525
 30
0.0
 11
3280.5799473275451
 21
2644.5165249999991
 31
0.0
  0
LINE
  5
7E2D
  8
3
  6
CONTINUOUS
 62
     0
 10
3250.5799473275451
 20
3280.5165249999991
 30
0.0
 11
3250.5799473275438
 21
2704.5165249999991
 31
0.0
  0
INSERT
  5
7E2E
  8
3
  6
CONTINUOUS
 62
     0
  2
_OPEN
 10
3250.5799473275451
 20
3340.5165249999991
 30
0.0
 41
60.0
 42
60.0
 43
60.0
 50
90.0
  0
INSERT
  5
7E2F
  8
3
  6
CONTINUOUS
 62
     0
  2
_OPEN
 10
3250.5799473275438
 20
2644.5165249999991
 30
0.0
 41
60.0
 42
60.0
 43
60.0
 50
270.0
  0
TEXT
  8
3
  40
90
  5
7EB1
  62
0
  72
0
  71
0
 10
2995.58
 20
2847.20
 30
0.000000
  1
696
  0
POINT
  5
7E31
  8
DEFPOINTS
  6
CONTINUOUS
 62
     0
 10
2950.7253983275441
 20
3340.516525
 30
0.0
  0
POINT
  5
7E32
  8
DEFPOINTS
  6
CONTINUOUS
 62
     0
 10
2842.2440693275439
 20
2644.516525
 30
0.0
  0
POINT
  5
7E33
  8
DEFPOINTS
  6
CONTINUOUS
 62
     0
 10
3250.5799473275438
 20
2644.5165249999991
 30
0.0
  0
ENDBLK
  5
7B31
  8
0
  0
BLOCK
  8
0
  2
*D3
 70
     1
 10
0.0
 20
0.0
 30
0.0
  3
*D3
  1

  0
LINE
  5
7E34
  8
3
  6
CONTINUOUS
 62
     0
 10
2965.7253983275441
 20
3340.516525
 30
0.0
 11
3510.4244903275448
 21
3340.5165249999991
 31
0.0
  0
LINE
  5
7E35
  8
3
  6
CONTINUOUS
 62
     0
 10
2707.244069327543
 20
2450.516525
 30
0.0
 11
3510.4244903275448
 21
2450.5165249999991
 31
0.0
  0
LINE
  5
7E36
  8
3
  6
CONTINUOUS
 62
     0
 10
3480.4244903275448
 20
3280.5165249999991
 30
0.0
 11
3480.4244903275439
 21
2510.5165249999991
 31
0.0
  0
INSERT
  5
7E37
  8
3
  6
CONTINUOUS
 62
     0
  2
_OPEN
 10
3480.4244903275448
 20
3340.5165249999991
 30
0.0
 41
60.0
 42
60.0
 43
60.0
 50
90.0
  0
INSERT
  5
7E38
  8
3
  6
CONTINUOUS
 62
     0
  2
_OPEN
 10
3480.4244903275439
 20
2450.5165249999991
 30
0.0
 41
60.0
 42
60.0
 43
60.0
 50
270.0
  0
TEXT
  8
3
  40
90
  5
7EB2
  62
0
  72
0
  71
0
 10
3225.42
 20
2651.30
 30
0.000000
  1
890
  0
POINT
  5
7E3A
  8
DEFPOINTS
  6
CONTINUOUS
 62
     0
 10
2950.7253983275441
 20
3340.516525
 30
0.0
  0
POINT
  5
7E3B
  8
DEFPOINTS
  6
CONTINUOUS
 62
     0
 10
2692.2440693275439
 20
2450.516525
 30
0.0
  0
POINT
  5
7E3C
  8
DEFPOINTS
  6
CONTINUOUS
 62
     0
 10
3480.4244903275439
 20
2450.5165249999991
 30
0.0
  0
ENDBLK
  5
7B3E
  8
0
  0
BLOCK
  8
0
  2
*D4
 70
     1
 10
0.0
 20
0.0
 30
0.0
  3
*D4
  1

  0
LINE
  5
7E3D
  8
3
  6
CONTINUOUS
 62
     0
 10
2707.244069327543
 20
2450.516525
 30
0.0
 11
3510.7613063275439
 21
2450.5165249999991
 31
0.0
  0
LINE
  5
7E3E
  8
3
  6
CONTINUOUS
 62
     0
 10
2857.2440693275439
 20
2374.516525
 30
0.0
 11
3510.7613063275439
 21
2374.5165249999991
 31
0.0
  0
LINE
  5
7E3F
  8
3
  6
CONTINUOUS
 62
     0
 10
3480.7613063275439
 20
2510.5165249999991
 30
0.0
 11
3480.7613063275439
 21
2570.5165249999991
 31
0.0
  0
LINE
  5
7E40
  8
3
  6
CONTINUOUS
 62
     0
 10
3480.7613063275439
 20
2314.5165249999991
 30
0.0
 11
3480.7613063275439
 21
2053.087953571428
 31
0.0
  0
LINE
  5
7E41
  8
3
  6
CONTINUOUS
 62
     0
 10
3480.7613063275439
 20
2450.5165249999991
 30
0.0
 11
3480.7613063275439
 21
2374.5165249999991
 31
0.0
  0
INSERT
  5
7E42
  8
3
  6
CONTINUOUS
 62
     0
  2
_OPEN
 10
3480.7613063275439
 20
2450.5165249999991
 30
0.0
 41
60.0
 42
60.0
 43
60.0
 50
270.0
  0
INSERT
  5
7E43
  8
3
  6
CONTINUOUS
 62
     0
  2
_OPEN
 10
3480.7613063275439
 20
2374.5165249999991
 30
0.0
 41
60.0
 42
60.0
 43
60.0
 50
90.0
  0
TEXT
  8
3
  40
90
  5
7EB3
  62
0
  72
0
  71
0
 10
3225.76
 20
1994.50
 30
0.000000
  1
76
  0
POINT
  5
7E45
  8
DEFPOINTS
  6
CONTINUOUS
 62
     0
 10
2692.2440693275439
 20
2450.516525
 30
0.0
  0
POINT
  5
7E46
  8
DEFPOINTS
  6
CONTINUOUS
 62
     0
 10
2842.2440693275439
 20
2374.516525
 30
0.0
  0
POINT
  5
7E47
  8
DEFPOINTS
  6
CONTINUOUS
 62
     0
 10
3480.7613063275439
 20
2374.5165249999991
 30
0.0
  0
ENDBLK
  5
7DEA
  8
0
  0
BLOCK
  8
0
  2
*D5
 70
     1
 10
0.0
 20
0.0
 30
0.0
  3
*D5
  1

  0
LINE
  5
7E48
  8
3
  6
CONTINUOUS
 62
     0
 10
2757.2440693275439
 20
3429.516525
 30
0.0
 11
2757.2440693275439
 21
4205.1436090000007
 31
0.0
  0
LINE
  5
7E49
  8
3
  6
CONTINUOUS
 62
     0
 10
2222.2440693275439
 20
4124.1666100000002
 30
0.0
 11
2222.2440693275439
 21
4205.1436090000007
 31
0.0
  0
LINE
  5
7E4A
  8
3
  6
CONTINUOUS
 62
     0
 10
2697.2440693275439
 20
4175.1436089999997
 30
0.0
 11
2282.2440693275439
 21
4175.1436089999997
 31
0.0
  0
INSERT
  5
7E4B
  8
3
  6
CONTINUOUS
 62
     0
  2
_OPEN
 10
2757.2440693275439
 20
4175.1436089999997
 30
0.0
 41
60.0
 42
60.0
 43
60.0
  0
INSERT
  5
7E4C
  8
3
  6
CONTINUOUS
 62
     0
  2
_OPEN
 10
2222.2440693275439
 20
4175.1436089999997
 30
0.0
 41
60.0
 42
60.0
 43
60.0
 50
180.0
  0
TEXT
  8
3
  40
90
  5
7EB4
  62
0
  72
0
  71
0
 10
2313.44
 20
4090.84
 30
0.000000
  1
535
  0
POINT
  5
7E4E
  8
DEFPOINTS
  6
CONTINUOUS
 62
     0
 10
2757.2440693275439
 20
3414.5165249999991
 30
0.0
  0
POINT
  5
7E4F
  8
DEFPOINTS
  6
CONTINUOUS
 62
     0
 10
2222.2440693275439
 20
4109.1666100000002
 30
0.0
  0
POINT
  5
7E50
  8
DEFPOINTS
  6
CONTINUOUS
 62
     0
 10
2222.2440693275439
 20
4175.1436089999997
 30
0.0
  0
ENDBLK
  5
7B5B
  8
0
  0
BLOCK
  8
0
  2
*D6
 70
     1
 10
0.0
 20
0.0
 30
0.0
  3
*D6
  1

  0
LINE
  5
7E51
  8
3
  6
CONTINUOUS
 62
     0
 10
1042.244069327543
 20
2359.516525
 30
0.0
 11
1042.244069327543
 21
2067.6648829999999
 31
0.0
  0
LINE
  5
7E52
  8
3
  6
CONTINUOUS
 62
     0
 10
2222.2440693275439
 20
2275.170431
 30
0.0
 11
2222.2440693275439
 21
2067.6648829999999
 31
0.0
  0
LINE
  5
7E53
  8
3
  6
CONTINUOUS
 62
     0
 10
1102.2440693275439
 20
2097.664882999999
 30
0.0
 11
2162.244069327543
 21
2097.664882999999
 31
0.0
  0
INSERT
  5
7E54
  8
3
  6
CONTINUOUS
 62
     0
  2
_OPEN
 10
1042.244069327543
 20
2097.664882999999
 30
0.0
 41
60.0
 42
60.0
 43
60.0
 50
180.0
  0
INSERT
  5
7E55
  8
3
  6
CONTINUOUS
 62
     0
  2
_OPEN
 10
2222.2440693275439
 20
2097.664882999999
 30
0.0
 41
60.0
 42
60.0
 43
60.0
  0
TEXT
  8
3
  40
90
  5
7EB5
  62
0
  72
0
  71
0
 10
1434.63
 20
2013.36
 30
0.000000
  1
1180
  0
POINT
  5
7E57
  8
DEFPOINTS
  6
CONTINUOUS
 62
     0
 10
1042.244069327543
 20
2374.516525
 30
0.0
  0
POINT
  5
7E58
  8
DEFPOINTS
  6
CONTINUOUS
 62
     0
 10
2222.2440693275439
 20
2290.1704309999991
 30
0.0
  0
POINT
  5
7E59
  8
DEFPOINTS
  6
CONTINUOUS
 62
     0
 10
2222.2440693275439
 20
2097.664882999999
 30
0.0
  0
ENDBLK
  5
7C35
  8
0
  0
BLOCK
  8
0
  2
*D7
 70
     1
 10
0.0
 20
0.0
 30
0.0
  3
*D7
  1

  0
LINE
  5
7E5A
  8
3
  6
CONTINUOUS
 62
     0
 10
2842.2440693275439
 20
2359.516525
 30
0.0
 11
2842.2440693275439
 21
2067.6648829999999
 31
0.0
  0
LINE
  5
7E5B
  8
3
  6
CONTINUOUS
 62
     0
 10
2282.2440693275439
 20
2097.664882999999
 30
0.0
 11
2782.2440693275439
 21
2097.664882999999
 31
0.0
  0
INSERT
  5
7E5C
  8
3
  6
CONTINUOUS
 62
     0
  2
_OPEN
 10
2222.2440693275439
 20
2097.664882999999
 30
0.0
 41
60.0
 42
60.0
 43
60.0
 50
180.0
  0
INSERT
  5
7E5D
  8
3
  6
CONTINUOUS
 62
     0
  2
_OPEN
 10
2842.2440693275439
 20
2097.664882999999
 30
0.0
 41
60.0
 42
60.0
 43
60.0
  0
TEXT
  8
3
  40
90
  5
7EB6
  62
0
  72
0
  71
0
 10
2352.24
 20
2013.36
 30
0.000000
  1
620
  0
POINT
  5
7E5F
  8
DEFPOINTS
  6
CONTINUOUS
 62
     0
 10
2222.2440693275439
 20
2290.1704309999991
 30
0.0
  0
POINT
  5
7E60
  8
DEFPOINTS
  6
CONTINUOUS
 62
     0
 10
2842.2440693275439
 20
2374.516525
 30
0.0
  0
POINT
  5
7E61
  8
DEFPOINTS
  6
CONTINUOUS
 62
     0
 10
2842.2440693275439
 20
2097.664882999999
 30
0.0
  0
ENDBLK
  5
7C2A
  8
0
  0
BLOCK
  8
0
  2
*D8
 70
     1
 10
0.0
 20
0.0
 30
0.0
  3
*D8
  1

  0
LINE
  5
7E62
  8
3
  6
CONTINUOUS
 62
     0
 10
4410.3190223275442
 20
3786.516525
 30
0.0
 11
4410.3190223275442
 21
4198.3884219999991
 31
0.0
  0
LINE
  5
7E63
  8
3
  6
CONTINUOUS
 62
     0
 10
4940.3190223275442
 20
3786.516525
 30
0.0
 11
4940.3190223275442
 21
4198.3884219999991
 31
0.0
  0
LINE
  5
7E64
  8
3
  6
CONTINUOUS
 62
     0
 10
4470.3190223275442
 20
4168.388422
 30
0.0
 11
4880.3190223275442
 21
4168.388422
 31
0.0
  0
INSERT
  5
7E65
  8
3
  6
CONTINUOUS
 62
     0
  2
_OPEN
 10
4410.3190223275442
 20
4168.388422
 30
0.0
 41
60.0
 42
60.0
 43
60.0
 50
180.0
  0
INSERT
  5
7E66
  8
3
  6
CONTINUOUS
 62
     0
  2
_OPEN
 10
4940.3190223275442
 20
4168.388422
 30
0.0
 41
60.0
 42
60.0
 43
60.0
  0
TEXT
  8
3
  40
90
  5
7EB7
  62
0
  72
0
  71
0
 10
4503.73
 20
4084.09
 30
0.000000
  1
530
  0
POINT
  5
7E68
  8
DEFPOINTS
  6
CONTINUOUS
 62
     0
 10
4410.3190223275442
 20
3771.516525
 30
0.0
  0
POINT
  5
7E69
  8
DEFPOINTS
  6
CONTINUOUS
 62
     0
 10
4940.3190223275442
 20
3771.516525
 30
0.0
  0
POINT
  5
7E6A
  8
DEFPOINTS
  6
CONTINUOUS
 62
     0
 10
4940.3190223275442
 20
4168.388422
 30
0.0
  0
ENDBLK
  5
7B81
  8
0
  0
BLOCK
  8
0
  2
*D9
 70
     1
 10
0.0
 20
0.0
 30
0.0
  3
*D9
  1

  0
LINE
  5
7E6B
  8
3
  6
CONTINUOUS
 62
     0
 10
4957.3190223275451
 20
3717.516525
 30
0.0
 11
5410.0221263275453
 21
3717.516525
 31
0.0
  0
LINE
  5
7E6C
  8
3
  6
CONTINUOUS
 62
     0
 10
4957.3190223275451
 20
2963.516525
 30
0.0
 11
5410.0221263275453
 21
2963.5165249999991
 31
0.0
  0
LINE
  5
7E6D
  8
3
  6
CONTINUOUS
 62
     0
 10
5380.0221263275462
 20
3657.516525
 30
0.0
 11
5380.0221263275462
 21
3023.5165249999991
 31
0.0
  0
INSERT
  5
7E6E
  8
3
  6
CONTINUOUS
 62
     0
  2
_OPEN
 10
5380.0221263275462
 20
3717.516525
 30
0.0
 41
60.0
 42
60.0
 43
60.0
 50
90.0
  0
INSERT
  5
7E6F
  8
3
  6
CONTINUOUS
 62
     0
  2
_OPEN
 10
5380.0221263275462
 20
2963.5165249999991
 30
0.0
 41
60.0
 42
60.0
 43
60.0
 50
270.0
  0
TEXT
  8
3
  40
90
  5
7EB8
  62
0
  72
0
  71
0
 10
5125.02
 20
3198.47
 30
0.000000
  1
φ754
  0
POINT
  5
7E71
  8
DEFPOINTS
  6
CONTINUOUS
 62
     0
 10
4942.3190223275442
 20
3717.516525
 30
0.0
  0
POINT
  5
7E72
  8
DEFPOINTS
  6
CONTINUOUS
 62
     0
 10
4942.3190223275442
 20
2963.516525
 30
0.0
  0
POINT
  5
7E73
  8
DEFPOINTS
  6
CONTINUOUS
 62
     0
 10
5380.0221263275462
 20
2963.5165249999991
 30
0.0
  0
ENDBLK
  5
7DB8
  8
0
  0
BLOCK
  8
0
  2
*D10
 70
     1
 10
0.0
 20
0.0
 30
0.0
  3
*D10
  1

  0
LINE
  5
7DA4
  8
0
  6
BYBLOCK
 62
     0
 10
4942.3190223275442
 20
3732.5165249999991
 30
0.0
 11
4942.3190223275442
 21
4401.0440859999999
 31
0.0
  0
LINE
  5
7DA5
  8
0
  6
BYBLOCK
 62
     0
 10
4675.3190223275451
 20
4323.5385700000006
 30
0.0
 11
4675.3190223275451
 21
4401.0440859999999
 31
0.0
  0
LINE
  5
7DA6
  8
0
  6
BYBLOCK
 62
     0
 10
4882.3190223275442
 20
4371.0440859999999
 30
0.0
 11
4735.3190223275433
 21
4371.0440859999999
 31
0.0
  0
TEXT
  5
7DA7
  8
3
 62
     0
 10
4704.0930582777992
 20
4428.5732356437184
 30
0.0
 40
90.0
  1
267
  0
INSERT
  5
7DA8
  8
0
  6
BYBLOCK
 62
     0
  2
_OPEN
 10
4942.3190223275442
 20
4371.0440859999999
 30
0.0
 41
60.0
 42
60.0
 43
60.0
  0
INSERT
  5
7DA9
  8
0
  6
BYBLOCK
 62
     0
  2
_OPEN
 10
4675.3190223275451
 20
4371.0440859999999
 30
0.0
 41
60.0
 42
60.0
 43
60.0
 50
180.0
  0
POINT
  5
7DAA
  8
DEFPOINTS
  6
BYBLOCK
 62
     0
 10
4942.3190223275442
 20
3717.516525
 30
0.0
  0
POINT
  5
7DAB
  8
DEFPOINTS
  6
BYBLOCK
 62
     0
 10
4675.3190223275451
 20
4308.5385700000006
 30
0.0
  0
POINT
  5
7DAC
  8
DEFPOINTS
  6
BYBLOCK
 62
     0
 10
4675.3190223275451
 20
4371.0440859999999
 30
0.0
  0
ENDBLK
  5
7DAD
  8
0
  0
BLOCK
  8
0
  2
*D11
 70
     1
 10
0.0
 20
0.0
 30
0.0
  3
*D11
  1

  0
LINE
  5
7E74
  8
3
  6
CONTINUOUS
 62
     0
 10
4060.3190223275442
 20
4024.516525
 30
0.0
 11
3916.8737353275451
 21
4024.516525
 31
0.0
  0
LINE
  5
7E75
  8
3
  6
CONTINUOUS
 62
     0
 10
4060.3190223275442
 20
2374.516525
 30
0.0
 11
3916.8737353275451
 21
2374.516525
 31
0.0
  0
LINE
  5
7E76
  8
3
  6
CONTINUOUS
 62
     0
 10
3946.873735327546
 20
3964.516525
 30
0.0
 11
3946.8737353275451
 21
2434.516525
 31
0.0
  0
INSERT
  5
7E77
  8
3
  6
CONTINUOUS
 62
     0
  2
_OPEN
 10
3946.873735327546
 20
4024.516525
 30
0.0
 41
60.0
 42
60.0
 43
60.0
 50
90.0
  0
INSERT
  5
7E78
  8
3
  6
CONTINUOUS
 62
     0
  2
_OPEN
 10
3946.8737353275451
 20
2374.516525
 30
0.0
 41
60.0
 42
60.0
 43
60.0
 50
270.0
  0
TEXT
  8
3
  40
90
  5
7EB9
  62
0
  72
0
  71
0
 10
3691.87
 20
2989.05
 30
0.000000
  1
1650
  0
POINT
  5
7E7A
  8
DEFPOINTS
  6
CONTINUOUS
 62
     0
 10
4075.3190223275442
 20
4024.516525
 30
0.0
  0
POINT
  5
7E7B
  8
DEFPOINTS
  6
CONTINUOUS
 62
     0
 10
4075.3190223275442
 20
2374.516525
 30
0.0
  0
POINT
  5
7E7C
  8
DEFPOINTS
  6
CONTINUOUS
 62
     0
 10
3946.8737353275451
 20
2374.516525
 30
0.0
  0
ENDBLK
  5
7BAC
  8
0
  0
BLOCK
  8
0
  2
*D12
 70
     1
 10
0.0
 20
0.0
 30
0.0
  3
*D12
  1

  0
LINE
  5
7E7D
  8
3
  6
CONTINUOUS
 62
     0
 10
4075.3190223275442
 20
2359.516525
 30
0.0
 11
4075.3190223275442
 21
2079.6139549999998
 31
0.0
  0
LINE
  5
7E7E
  8
3
  6
CONTINUOUS
 62
     0
 10
4675.3190223275451
 20
2195.659134
 30
0.0
 11
4675.3190223275451
 21
2079.6139549999998
 31
0.0
  0
LINE
  5
7E7F
  8
3
  6
CONTINUOUS
 62
     0
 10
4135.3190223275442
 20
2109.6139549999998
 30
0.0
 11
4615.3190223275442
 21
2109.6139549999998
 31
0.0
  0
INSERT
  5
7E80
  8
3
  6
CONTINUOUS
 62
     0
  2
_OPEN
 10
4075.3190223275442
 20
2109.6139549999998
 30
0.0
 41
60.0
 42
60.0
 43
60.0
 50
180.0
  0
INSERT
  5
7E81
  8
3
  6
CONTINUOUS
 62
     0
  2
_OPEN
 10
4675.3190223275451
 20
2109.6139549999998
 30
0.0
 41
60.0
 42
60.0
 43
60.0
  0
TEXT
  8
3
  40
90
  5
7EBA
  62
0
  72
0
  71
0
 10
4206.28
 20
2025.31
 30
0.000000
  1
600
  0
POINT
  5
7E83
  8
DEFPOINTS
  6
CONTINUOUS
 62
     0
 10
4075.3190223275442
 20
2374.516525
 30
0.0
  0
POINT
  5
7E84
  8
DEFPOINTS
  6
CONTINUOUS
 62
     0
 10
4675.3190223275451
 20
2210.659134
 30
0.0
  0
POINT
  5
7E85
  8
DEFPOINTS
  6
CONTINUOUS
 62
     0
 10
4675.3190223275451
 20
2109.6139549999998
 30
0.0
  0
ENDBLK
  5
7C20
  8
0
  0
BLOCK
  8
0
  2
*D13
 70
     1
 10
0.0
 20
0.0
 30
0.0
  3
*D13
  1

  0
LINE
  5
7E86
  8
3
  6
CONTINUOUS
 62
     0
 10
5125.3190223275451
 20
2359.516525
 30
0.0
 11
5125.3190223275451
 21
2079.6139549999998
 31
0.0
  0
LINE
  5
7E87
  8
3
  6
CONTINUOUS
 62
     0
 10
4735.3190223275433
 20
2109.6139549999998
 30
0.0
 11
5065.3190223275442
 21
2109.6139549999998
 31
0.0
  0
INSERT
  5
7E88
  8
3
  6
CONTINUOUS
 62
     0
  2
_OPEN
 10
4675.3190223275451
 20
2109.6139549999998
 30
0.0
 41
60.0
 42
60.0
 43
60.0
 50
180.0
  0
INSERT
  5
7E89
  8
3
  6
CONTINUOUS
 62
     0
  2
_OPEN
 10
5125.3190223275451
 20
2109.6139549999998
 30
0.0
 41
60.0
 42
60.0
 43
60.0
  0
TEXT
  8
3
  40
90
  5
7EBB
  62
0
  72
0
  71
0
 10
4720.32
 20
2025.31
 30
0.000000
  1
450
  0
POINT
  5
7E8B
  8
DEFPOINTS
  6
CONTINUOUS
 62
     0
 10
4675.3190223275451
 20
2210.659134
 30
0.0
  0
POINT
  5
7E8C
  8
DEFPOINTS
  6
CONTINUOUS
 62
     0
 10
5125.3190223275451
 20
2374.516525
 30
0.0
  0
POINT
  5
7E8D
  8
DEFPOINTS
  6
CONTINUOUS
 62
     0
 10
5125.3190223275451
 20
2109.6139549999998
 30
0.0
  0
ENDBLK
  5
7C15
  8
0
  0
BLOCK
  8
0
  2
*D14
 70
     1
 10
0.0
 20
0.0
 30
0.0
  3
*D14
  1

  0
LINE
  5
7E8E
  8
3
  6
CONTINUOUS
 62
     0
 10
1042.244069327543
 20
6163.6676451620451
 30
0.0
 11
1042.244069327543
 21
6394.0613941620441
 31
0.0
  0
LINE
  5
7E8F
  8
3
  6
CONTINUOUS
 62
     0
 10
2842.2440693275439
 20
6163.6676451620451
 30
0.0
 11
2842.2440693275439
 21
6394.0613941620441
 31
0.0
  0
LINE
  5
7E90
  8
3
  6
CONTINUOUS
 62
     0
 10
1102.2440693275439
 20
6364.061394162045
 30
0.0
 11
2782.2440693275439
 21
6364.061394162045
 31
0.0
  0
INSERT
  5
7E91
  8
3
  6
CONTINUOUS
 62
     0
  2
_OPEN
 10
1042.244069327543
 20
6364.061394162045
 30
0.0
 41
60.0
 42
60.0
 43
60.0
 50
180.0
  0
INSERT
  5
7E92
  8
3
  6
CONTINUOUS
 62
     0
  2
_OPEN
 10
2842.2440693275439
 20
6364.061394162045
 30
0.0
 41
60.0
 42
60.0
 43
60.0
  0
TEXT
  8
3
  40
90
  5
7EBC
  62
0
  72
0
  71
0
 10
1759.11
 20
6279.76
 30
0.000000
  1
1800
  0
POINT
  5
7E94
  8
DEFPOINTS
  6
CONTINUOUS
 62
     0
 10
1042.244069327543
 20
6148.667645162046
 30
0.0
  0
POINT
  5
7E95
  8
DEFPOINTS
  6
CONTINUOUS
 62
     0
 10
2842.2440693275439
 20
6148.667645162046
 30
0.0
  0
POINT
  5
7E96
  8
DEFPOINTS
  6
CONTINUOUS
 62
     0
 10
2842.2440693275439
 20
6364.061394162045
 30
0.0
  0
ENDBLK
  5
7BD2
  8
0
  0
BLOCK
  8
0
  2
*D15
 70
     1
 10
0.0
 20
0.0
 30
0.0
  3
*D15
  1

  0
LINE
  5
7E97
  8
3
  6
CONTINUOUS
 62
     0
 10
2857.2440693275439
 20
6148.667645162046
 30
0.0
 11
3199.458349327545
 21
6148.667645162046
 31
0.0
  0
LINE
  5
7E98
  8
3
  6
CONTINUOUS
 62
     0
 10
2857.2440693275439
 20
5098.6676451620451
 30
0.0
 11
3199.458349327545
 21
5098.6676451620451
 31
0.0
  0
LINE
  5
7E99
  8
3
  6
CONTINUOUS
 62
     0
 10
3169.458349327545
 20
6088.6676451620451
 30
0.0
 11
3169.458349327545
 21
5158.6676451620451
 31
0.0
  0
INSERT
  5
7E9A
  8
3
  6
CONTINUOUS
 62
     0
  2
_OPEN
 10
3169.458349327545
 20
6148.667645162046
 30
0.0
 41
60.0
 42
60.0
 43
60.0
 50
90.0
  0
INSERT
  5
7E9B
  8
3
  6
CONTINUOUS
 62
     0
  2
_OPEN
 10
3169.458349327545
 20
5098.6676451620451
 30
0.0
 41
60.0
 42
60.0
 43
60.0
 50
270.0
  0
TEXT
  8
3
  40
90
  5
7EBD
  62
0
  72
0
  71
0
 10
2914.46
 20
5414.40
 30
0.000000
  1
1050
  0
POINT
  5
7E9D
  8
DEFPOINTS
  6
CONTINUOUS
 62
     0
 10
2842.2440693275439
 20
6148.667645162046
 30
0.0
  0
POINT
  5
7E9E
  8
DEFPOINTS
  6
CONTINUOUS
 62
     0
 10
2842.2440693275439
 20
5098.6676451620451
 30
0.0
  0
POINT
  5
7E9F
  8
DEFPOINTS
  6
CONTINUOUS
 62
     0
 10
3169.458349327545
 20
5098.6676451620451
 30
0.0
  0
ENDBLK
  5
7BDF
  8
0
  0
BLOCK
  8
0
  2
*D16
 70
     1
 10
0.0
 20
0.0
 30
0.0
  3
*D16
  1

  0
LINE
  5
7EA0
  8
3
 62
     0
 10
1636.2440693275439
 20
3355.4831897740719
 30
0.0
 11
1636.2440693275439
 21
4205.1436090000007
 31
0.0
  0
LINE
  5
7EA1
  8
3
 62
     0
 10
2162.244069327543
 20
4175.1436089999997
 30
0.0
 11
1696.244069327543
 21
4175.1436089999997
 31
0.0
  0
INSERT
  5
7EA2
  8
3
 62
     0
  2
_OPEN
 10
2222.2440693275439
 20
4175.1436089999997
 30
0.0
 41
60.0
 42
60.0
 43
60.0
  0
INSERT
  5
7EA3
  8
3
 62
     0
  2
_OPEN
 10
1636.2440693275439
 20
4175.1436089999997
 30
0.0
 41
60.0
 42
60.0
 43
60.0
 50
180.0
  0
TEXT
  8
3
  40
90
  5
7EBE
  62
0
  72
0
  71
0
 10
1749.24
 20
4090.84
 30
0.000000
  1
586
  0
POINT
  5
7EA5
  8
DEFPOINTS
 62
     0
 10
2222.2440693275439
 20
4109.1666100000002
 30
0.0
  0
POINT
  5
7EA6
  8
DEFPOINTS
 62
     0
 10
1636.2440693275439
 20
3340.4831897740719
 30
0.0
  0
POINT
  5
7EA7
  8
DEFPOINTS
 62
     0
 10
1636.2440693275439
 20
4175.1436089999997
 30
0.0
  0
ENDBLK
  5
7DD0
  8
0
  0
BLOCK
  8
0
  2
*D17
 70
     1
 10
0.0
 20
0.0
 30
0.0
  3
*D17
  1

  0
LINE
  5
7EA8
  8
3
 62
     0
 10
2237.2440693275439
 20
3848.497929528527
 30
0.0
 11
3510.4244903275439
 21
3848.4979295285261
 31
0.0
  0
LINE
  5
7EA9
  8
3
 62
     0
 10
3480.4244903275439
 20
3400.516525
 30
0.0
 11
3480.4244903275439
 21
3788.497929528527
 31
0.0
  0
INSERT
  5
7EAA
  8
3
 62
     0
  2
_OPEN
 10
3480.4244903275439
 20
3340.5165249999991
 30
0.0
 41
60.0
 42
60.0
 43
60.0
 50
270.0
  0
INSERT
  5
7EAB
  8
3
 62
     0
  2
_OPEN
 10
3480.4244903275439
 20
3848.4979295285261
 30
0.0
 41
60.0
 42
60.0
 43
60.0
 50
90.0
  0
TEXT
  8
3
  40
90
  5
7EBF
  62
0
  72
0
  71
0
 10
3225.42
 20
3435.21
 30
0.000000
  1
508
  0
POINT
  5
7EAD
  8
DEFPOINTS
 62
     0
 10
2950.7253983275441
 20
3340.516525
 30
0.0
  0
POINT
  5
7EAE
  8
DEFPOINTS
 62
     0
 10
2222.2440693275439
 20
3848.497929528527
 30
0.0
  0
POINT
  5
7EAF
  8
DEFPOINTS
 62
     0
 10
3480.4244903275439
 20
3848.4979295285261
 30
0.0
  0
ENDBLK
  5
7DDC
  8
0
  0
ENDSEC
  0
SECTION
  2
ENTITIES
  0
LINE
  5
7A7A
  8
1
  6
CONTINUOUS
 10
2842.2440693275439
 20
6148.667645162046
 30
0.0
 11
2842.2440693275439
 21
5098.6676451620451
 31
0.0
  0
LINE
  5
7A7B
  8
1
  6
CONTINUOUS
 10
1042.244069327543
 20
6148.667645162046
 30
0.0
 11
1042.244069327543
 21
5098.6676451620451
 31
0.0
  0
LINE
  5
7A7C
  8
1
  6
CONTINUOUS
 10
1634.5040693275439
 20
5963.6676451620451
 30
0.0
 11
1634.5040693275439
 21
5433.667645162046
 31
0.0
  0
LINE
  5
7A7D
  8
1
  6
CONTINUOUS
 10
2757.2440693275439
 20
6003.6676451620451
 30
0.0
 11
2757.2440693275439
 21
5393.6676451620451
 31
0.0
  0
LINE
  5
7A7E
  8
1
  6
CONTINUOUS
 10
1192.2440693275439
 20
6015.667645162046
 30
0.0
 11
1192.2440693275439
 21
5255.6676451620451
 31
0.0
  0
LINE
  5
7A7F
  8
1
  6
CONTINUOUS
 10
1243.784069327543
 20
5394.6776451620453
 30
0.0
 11
1243.784069327543
 21
5850.6176451620449
 31
0.0
  0
LINE
  5
7A80
  8
1
  6
CONTINUOUS
 10
1572.7640693275439
 20
5394.6776451620453
 30
0.0
 11
1572.7640693275439
 21
5850.6176451620449
 31
0.0
  0
LINE
  5
7A81
  8
1
  6
CONTINUOUS
 10
1092.244069327543
 20
6098.6676451620451
 30
0.0
 11
1092.244069327543
 21
5148.667645162046
 31
0.0
  0
LINE
  5
7A82
  8
1
  6
CONTINUOUS
 10
2792.2440693275439
 20
5148.667645162046
 30
0.0
 11
2792.2440693275439
 21
6098.6676451620451
 31
0.0
  0
LINE
  5
7A85
  8
1
  6
CONTINUOUS
 10
2842.2440693275439
 20
4024.516525
 30
0.0
 11
2842.2440693275439
 21
2374.516525
 31
0.0
  0
LINE
  5
7A86
  8
1
  6
CONTINUOUS
 10
1042.244069327543
 20
4024.516525
 30
0.0
 11
1042.244069327543
 21
2374.516525
 31
0.0
  0
LINE
  5
7A8A
  8
1
  6
CONTINUOUS
 10
2072.2440693275439
 20
3690.516525
 30
0.0
 11
1232.2440693275439
 21
2850.516525
 31
0.0
  0
LINE
  5
7A8B
  8
1
  6
CONTINUOUS
 10
2592.2440693275439
 20
2550.516525
 30
0.0
 11
2592.2440693275439
 21
3690.516525
 31
0.0
  0
ARC
  5
7A8C
  8
1
  6
CONTINUOUS
 10
2183.2440693275439
 20
3301.516525
 30
0.0
 40
548.36999999999989
 50
82.569999999999993
 51
174.69
  0
ARC
  5
7A8D
  8
1
  6
CONTINUOUS
 10
2192.2440693275439
 20
3370.516525
 30
0.0
 40
478.79000000000002
 50
0.48
 51
82.569999999999993
  0
LINE
  5
7A8E
  8
1
  6
CONTINUOUS
 10
1092.244069327543
 20
2424.516525
 30
0.0
 11
1092.244069327543
 21
3974.516525
 31
0.0
  0
LINE
  5
7A8F
  8
1
  6
CONTINUOUS
 10
2792.2440693275439
 20
3974.516525
 30
0.0
 11
2792.2440693275439
 21
2424.516525
 31
0.0
  0
LINE
  5
7A90
  8
1
  6
CONTINUOUS
 10
2842.2440693275439
 20
2374.516525
 30
0.0
 11
1042.244069327543
 21
2374.516525
 31
0.0
  0
LINE
  5
7A91
  8
1
  6
CONTINUOUS
 10
1453.184069327544
 20
2682.6865250000001
 30
0.0
 11
2301.7740693275441
 21
3213.3365250000002
 31
0.0
  0
LINE
  5
7A92
  8
1
  6
CONTINUOUS
 10
1359.3240693275429
 20
2811.7765250000002
 30
0.0
 11
2125.7840693275439
 21
3455.3865249999999
 31
0.0
  0
LINE
  5
7A93
  8
1
  6
CONTINUOUS
 10
2692.2440693275439
 20
2450.516525
 30
0.0
 11
1192.2440693275439
 21
2450.516525
 31
0.0
  0
LINE
  5
7A94
  8
1
  6
CONTINUOUS
 10
2692.2440693275439
 20
2550.516525
 30
0.0
 11
1192.2440693275439
 21
2550.516525
 31
0.0
  0
ARC
  5
7A95
  8
1
  6
CONTINUOUS
 10
2269.2440693275439
 20
3293.5165249999991
 30
0.0
 40
634.74000000000001
 50
174.69
 51
265.75
  0
LINE
  5
7A96
  8
1
  6
CONTINUOUS
 10
2792.2440693275439
 20
2424.516525
 30
0.0
 11
1092.244069327543
 21
2424.516525
 31
0.0
  0
LINE
  5
7A97
  8
1
  6
CONTINUOUS
 10
1192.2440693275439
 20
2550.516525
 30
0.0
 11
1192.2440693275439
 21
2450.516525
 31
0.0
  0
LINE
  5
7A98
  8
1
  6
CONTINUOUS
 10
1232.2440693275439
 20
2550.516525
 30
0.0
 11
1232.2440693275439
 21
2850.516525
 31
0.0
  0
CIRCLE
  5
7A99
  8
1
  6
CONTINUOUS
 10
1410.7640693275439
 20
2750.516525
 30
0.0
 40
80.0
  0
ARC
  5
7A9A
  8
1
  6
CONTINUOUS
 10
1410.7640693275439
 20
2750.516525
 30
0.0
 40
162.0
 50
324.97000000000003
 51
215.02999999999989
  0
LINE
  5
7A9B
  8
1
  6
CONTINUOUS
 10
1256.7640693275439
 20
2608.516525
 30
0.0
 11
1278.1140693275429
 21
2657.5265250000002
 31
0.0
  0
LINE
  5
7A9C
  8
1
  6
CONTINUOUS
 10
1256.7640693275439
 20
2550.516525
 30
0.0
 11
1256.7640693275439
 21
2608.516525
 31
0.0
  0
LINE
  5
7A9D
  8
2
  6
CENTER
 10
1330.7640693275439
 20
2750.516525
 30
0.0
 11
1490.7640693275439
 21
2750.516525
 31
0.0
  0
LINE
  5
7A9E
  8
2
  6
CENTER
 10
1410.7640693275439
 20
2670.516525
 30
0.0
 11
1410.7640693275439
 21
2830.516525
 31
0.0
  0
LINE
  5
7A9F
  8
1
  6
CONTINUOUS
 10
1564.7640693275439
 20
2550.516525
 30
0.0
 11
1564.7640693275439
 21
2608.516525
 31
0.0
  0
LINE
  5
7AA0
  8
1
  6
CONTINUOUS
 10
1564.7640693275439
 20
2608.516525
 30
0.0
 11
1543.424069327544
 21
2657.5265250000002
 31
0.0
  0
LINE
  5
7AA1
  8
2
  6
CENTER
 10
2222.2440693275439
 20
6265.5655111620435
 30
0.0
 11
2222.2440693275439
 21
5042.164993162045
 31
0.0
  0
LINE
  5
7AA2
  8
2
  6
CENTER
 10
5220.6251083275438
 20
3340.516525
 30
0.0
 11
3985.3977523275448
 21
3340.516525
 31
0.0
  0
LINE
  5
7AA3
  8
1
  6
CONTINUOUS
 10
2757.2440693275439
 20
3414.5165249999991
 30
0.0
 11
2757.2440693275439
 21
2604.516525
 31
0.0
  0
LINE
  5
7AA4
  8
1
  6
CONTINUOUS
 10
2671.0140693275439
 20
3374.516525
 30
0.0
 11
2757.2440693275439
 21
3374.516525
 31
0.0
  0
LINE
  5
7AA5
  8
1
  6
CONTINUOUS
 10
2727.244069327543
 20
3374.516525
 30
0.0
 11
2727.244069327543
 21
2645.4165250000001
 31
0.0
  0
LINE
  5
7AA6
  8
1
  6
CONTINUOUS
 10
2692.2440693275439
 20
2550.516525
 30
0.0
 11
2692.2440693275439
 21
2450.516525
 31
0.0
  0
CIRCLE
  5
7AA7
  8
1
  6
CONTINUOUS
 10
2222.2440693275439
 20
3340.516525
 30
0.0
 40
150.0
  0
LINE
  5
7AA8
  8
1
  6
CONTINUOUS
 10
2757.2440693275439
 20
2644.516525
 30
0.0
 11
2222.2440693275439
 21
2660.516525
 31
0.0
  0
LINE
  5
7AA9
  8
1
  6
CONTINUOUS
 10
1042.244069327543
 20
5098.6676451620451
 30
0.0
 11
2842.2440693275439
 21
5098.6676451620451
 31
0.0
  0
LINE
  5
7AAA
  8
1
  6
CONTINUOUS
 10
2842.2440693275439
 20
4024.516525
 30
0.0
 11
1042.244069327543
 21
4024.516525
 31
0.0
  0
LINE
  5
7AAC
  8
1
  6
CONTINUOUS
 10
2592.2440693275439
 20
5338.6676451620451
 30
0.0
 11
1232.2440693275439
 21
5338.6676451620451
 31
0.0
  0
LINE
  5
7AAD
  8
1
  6
CONTINUOUS
 10
2592.2440693275439
 20
5198.6676451620451
 30
0.0
 11
1232.2440693275439
 21
5198.6676451620451
 31
0.0
  0
LINE
  5
7AAE
  8
1
  6
CONTINUOUS
 10
2757.2440693275439
 20
5433.667645162046
 30
0.0
 11
1634.5040693275439
 21
5433.667645162046
 31
0.0
  0
LINE
  5
7AAF
  8
1
  6
CONTINUOUS
 10
2072.2440693275439
 20
5255.6676451620451
 30
0.0
 11
1490.7640693275439
 21
5255.6676451620451
 31
0.0
  0
LINE
  5
7AB0
  8
1
  6
CONTINUOUS
 10
1092.244069327543
 20
3974.516525
 30
0.0
 11
2792.2440693275439
 21
3974.516525
 31
0.0
  0
LINE
  5
7AB1
  8
1
  6
CONTINUOUS
 10
1092.244069327543
 20
5148.667645162046
 30
0.0
 11
2792.2440693275439
 21
5148.667645162046
 31
0.0
  0
LINE
  5
7AB2
  8
1
  6
CONTINUOUS
 10
1490.7640693275439
 20
5308.667645162046
 30
0.0
 11
1330.7640693275439
 21
5308.667645162046
 31
0.0
  0
LINE
  5
7AB3
  8
1
  6
CONTINUOUS
 10
1490.7640693275439
 20
5228.6676451620451
 30
0.0
 11
1330.7640693275439
 21
5228.6676451620451
 31
0.0
  0
LINE
  5
7AB4
  8
1
  6
CONTINUOUS
 10
1490.7640693275439
 20
5228.6676451620451
 30
0.0
 11
1490.7640693275439
 21
5308.667645162046
 31
0.0
  0
LINE
  5
7AB5
  8
1
  6
CONTINUOUS
 10
1330.7640693275439
 20
5228.6676451620451
 30
0.0
 11
1330.7640693275439
 21
5308.667645162046
 31
0.0
  0
LINE
  5
7AB6
  8
1
  6
CONTINUOUS
 10
1232.2440693275439
 20
5198.6676451620451
 30
0.0
 11
1232.2440693275439
 21
5338.6676451620451
 31
0.0
  0
LINE
  5
7AB7
  8
1
  6
CONTINUOUS
 10
1243.784069327543
 20
5394.6776451620453
 30
0.0
 11
1572.7640693275439
 21
5394.6776451620453
 31
0.0
  0
LINE
  5
7AB8
  8
1
  6
CONTINUOUS
 10
1389.7640693275439
 20
5308.667645162046
 30
0.0
 11
1389.7640693275439
 21
5394.6776451620453
 31
0.0
  0
LINE
  5
7AB9
  8
1
  6
CONTINUOUS
 10
1431.7640693275439
 20
5308.667645162046
 30
0.0
 11
1431.7640693275439
 21
5394.6776451620453
 31
0.0
  0
LINE
  5
7ABA
  8
1
  6
CONTINUOUS
 10
1330.7640693275439
 20
5255.6676451620451
 30
0.0
 11
1192.2440693275439
 21
5255.6676451620451
 31
0.0
  0
LINE
  5
7ABB
  8
1
  6
CONTINUOUS
 10
2243.244069327543
 20
5308.667645162046
 30
0.0
 11
2243.244069327543
 21
5433.667645162046
 31
0.0
  0
LINE
  5
7ABC
  8
1
  6
CONTINUOUS
 10
2201.2440693275439
 20
5308.667645162046
 30
0.0
 11
2201.2440693275439
 21
5433.667645162046
 31
0.0
  0
LINE
  5
7ABD
  8
1
  6
CONTINUOUS
 10
2372.2440693275439
 20
5308.667645162046
 30
0.0
 11
2072.2440693275439
 21
5308.667645162046
 31
0.0
  0
LINE
  5
7ABE
  8
1
  6
CONTINUOUS
 10
2372.2440693275439
 20
5228.6676451620451
 30
0.0
 11
2072.2440693275439
 21
5228.6676451620451
 31
0.0
  0
LINE
  5
7ABF
  8
1
  6
CONTINUOUS
 10
2372.2440693275439
 20
5228.6676451620451
 30
0.0
 11
2372.2440693275439
 21
5308.667645162046
 31
0.0
  0
LINE
  5
7AC0
  8
1
  6
CONTINUOUS
 10
2072.2440693275439
 20
5228.6676451620451
 30
0.0
 11
2072.2440693275439
 21
5308.667645162046
 31
0.0
  0
LINE
  5
7AC1
  8
1
  6
CONTINUOUS
 10
2592.2440693275439
 20
5198.6676451620451
 30
0.0
 11
2592.2440693275439
 21
5338.6676451620451
 31
0.0
  0
LINE
  5
7AC2
  8
1
  6
CONTINUOUS
 10
2692.2440693275439
 20
5255.6676451620451
 30
0.0
 11
2372.2440693275439
 21
5255.6676451620451
 31
0.0
  0
LINE
  5
7AC3
  8
1
  6
CONTINUOUS
 10
2592.2440693275439
 20
3690.516525
 30
0.0
 11
2072.2440693275439
 21
3690.516525
 31
0.0
  0
LINE
  5
7AC4
  8
1
  6
CONTINUOUS
 10
2692.2440693275439
 20
5433.667645162046
 30
0.0
 11
2692.2440693275439
 21
5255.6676451620451
 31
0.0
  0
LINE
  5
7AC5
  8
1
  6
CONTINUOUS
 10
5125.3190223275451
 20
4024.516525
 30
0.0
 11
5125.3190223275451
 21
2374.516525
 31
0.0
  0
LINE
  5
7AC6
  8
1
  6
CONTINUOUS
 10
4075.3190223275442
 20
4024.516525
 30
0.0
 11
4075.3190223275442
 21
2374.516525
 31
0.0
  0
LINE
  5
7AC7
  8
1
  6
CONTINUOUS
 10
4315.3190223275442
 20
3690.516525
 30
0.0
 11
4315.3190223275442
 21
2550.516525
 31
0.0
  0
LINE
  5
7AC8
  8
1
  6
CONTINUOUS
 10
4175.3190223275451
 20
3690.516525
 30
0.0
 11
4175.3190223275451
 21
2550.516525
 31
0.0
  0
LINE
  5
7AC9
  8
1
  6
CONTINUOUS
 10
4940.3190223275442
 20
3771.516525
 30
0.0
 11
4940.3190223275442
 21
2550.516525
 31
0.0
  0
LINE
  5
7ACA
  8
1
  6
CONTINUOUS
 10
4410.3190223275442
 20
3771.516525
 30
0.0
 11
4410.3190223275442
 21
2550.516525
 31
0.0
  0
LINE
  5
7ACB
  8
1
  6
CONTINUOUS
 10
5075.3190223275442
 20
2424.516525
 30
0.0
 11
5075.3190223275442
 21
3974.516525
 31
0.0
  0
LINE
  5
7ACC
  8
1
  6
CONTINUOUS
 10
4125.3190223275442
 20
3974.516525
 30
0.0
 11
4125.3190223275442
 21
2424.516525
 31
0.0
  0
LINE
  5
7ACD
  8
1
  6
CONTINUOUS
 10
5125.3190223275451
 20
2374.516525
 30
0.0
 11
4075.3190223275442
 21
2374.516525
 31
0.0
  0
LINE
  5
7ACE
  8
1
  6
CONTINUOUS
 10
4410.3190223275442
 20
3374.516525
 30
0.0
 11
4940.3190223275442
 21
2644.516525
 31
0.0
  0
LINE
  5
7ACF
  8
1
  6
CONTINUOUS
 10
4940.3190223275442
 20
3374.516525
 30
0.0
 11
4410.3190223275442
 21
2644.516525
 31
0.0
  0
LINE
  5
7AD0
  8
1
  6
CONTINUOUS
 10
4992.3190223275442
 20
2550.516525
 30
0.0
 11
4175.3190223275451
 21
2550.516525
 31
0.0
  0
LINE
  5
7AD1
  8
1
  6
CONTINUOUS
 10
4992.3190223275442
 20
2450.516525
 30
0.0
 11
4232.3190223275433
 21
2450.516525
 31
0.0
  0
LINE
  5
7AD2
  8
1
  6
CONTINUOUS
 10
4410.3190223275442
 20
2644.516525
 30
0.0
 11
4940.3190223275442
 21
2644.516525
 31
0.0
  0
LINE
  5
7AD3
  8
1
  6
CONTINUOUS
 10
4410.3190223275442
 20
3374.516525
 30
0.0
 11
4940.3190223275442
 21
3374.516525
 31
0.0
  0
LINE
  5
7AD4
  8
1
  6
CONTINUOUS
 10
4125.3190223275442
 20
2424.516525
 30
0.0
 11
5075.3190223275442
 21
2424.516525
 31
0.0
  0
LINE
  5
7AD5
  8
1
  6
CONTINUOUS
 10
4285.3190223275442
 20
3361.516525
 30
0.0
 11
4410.3190223275442
 21
3361.516525
 31
0.0
  0
LINE
  5
7AD6
  8
1
  6
CONTINUOUS
 10
4285.3190223275442
 20
3319.516525
 30
0.0
 11
4410.3190223275442
 21
3319.516525
 31
0.0
  0
LINE
  5
7AD7
  8
1
  6
CONTINUOUS
 10
4285.3190223275442
 20
2689.516525
 30
0.0
 11
4410.3190223275442
 21
2689.516525
 31
0.0
  0
LINE
  5
7AD8
  8
1
  6
CONTINUOUS
 10
4285.3190223275442
 20
2731.5165249999991
 30
0.0
 11
4410.3190223275442
 21
2731.5165249999991
 31
0.0
  0
LINE
  5
7AD9
  8
1
  6
CONTINUOUS
 10
4205.3190223275442
 20
2790.516525
 30
0.0
 11
4285.3190223275442
 21
2790.516525
 31
0.0
  0
LINE
  5
7ADA
  8
1
  6
CONTINUOUS
 10
4205.3190223275442
 20
2630.516525
 30
0.0
 11
4285.3190223275442
 21
2630.516525
 31
0.0
  0
LINE
  5
7ADB
  8
1
  6
CONTINUOUS
 10
4205.3190223275442
 20
3490.516525
 30
0.0
 11
4285.3190223275442
 21
3490.516525
 31
0.0
  0
LINE
  5
7ADC
  8
1
  6
CONTINUOUS
 10
4205.3190223275442
 20
3190.516525
 30
0.0
 11
4285.3190223275442
 21
3190.516525
 31
0.0
  0
LINE
  5
7ADD
  8
1
  6
CONTINUOUS
 10
4205.3190223275442
 20
2630.516525
 30
0.0
 11
4205.3190223275442
 21
2790.516525
 31
0.0
  0
LINE
  5
7ADE
  8
1
  6
CONTINUOUS
 10
4285.3190223275442
 20
2630.516525
 30
0.0
 11
4285.3190223275442
 21
2790.516525
 31
0.0
  0
LINE
  5
7ADF
  8
1
  6
CONTINUOUS
 10
4205.3190223275442
 20
3190.516525
 30
0.0
 11
4205.3190223275442
 21
3490.516525
 31
0.0
  0
LINE
  5
7AE0
  8
1
  6
CONTINUOUS
 10
4285.3190223275442
 20
3190.516525
 30
0.0
 11
4285.3190223275442
 21
3490.516525
 31
0.0
  0
LINE
  5
7AE1
  8
1
  6
CONTINUOUS
 10
4232.3190223275433
 20
2550.516525
 30
0.0
 11
4232.3190223275433
 21
2450.516525
 31
0.0
  0
LINE
  5
7AE4
  8
1
  6
CONTINUOUS
 10
4992.3190223275442
 20
2550.516525
 30
0.0
 11
4992.3190223275442
 21
2450.516525
 31
0.0
  0
LINE
  5
7AE5
  8
1
  6
CONTINUOUS
 10
5125.3190223275451
 20
4024.516525
 30
0.0
 11
4075.3190223275442
 21
4024.516525
 31
0.0
  0
LINE
  5
7AE6
  8
1
  6
CONTINUOUS
 10
4410.3190223275442
 20
3771.516525
 30
0.0
 11
4940.3190223275442
 21
3771.516525
 31
0.0
  0
LINE
  5
7AE7
  8
1
  6
CONTINUOUS
 10
5075.3190223275442
 20
3974.516525
 30
0.0
 11
4125.3190223275442
 21
3974.516525
 31
0.0
  0
LINE
  5
7AE8
  8
1
  6
CONTINUOUS
 10
4315.3190223275442
 20
3690.516525
 30
0.0
 11
4175.3190223275451
 21
3690.516525
 31
0.0
  0
LINE
  5
7AE9
  8
1
  6
CONTINUOUS
 10
1042.244069327543
 20
6148.667645162046
 30
0.0
 11
2842.2440693275439
 21
6148.667645162046
 31
0.0
  0
LINE
  5
7AEA
  8
1
  6
CONTINUOUS
 10
2757.2440693275439
 20
5963.6676451620451
 30
0.0
 11
1634.5040693275439
 21
5963.6676451620451
 31
0.0
  0
LINE
  5
7AEB
  8
1
  6
CONTINUOUS
 10
2692.2440693275439
 20
6015.667645162046
 30
0.0
 11
1192.2440693275439
 21
6015.667645162046
 31
0.0
  0
LINE
  5
7AEC
  8
1
  6
CONTINUOUS
 10
2792.2440693275439
 20
6098.6676451620451
 30
0.0
 11
1092.244069327543
 21
6098.6676451620451
 31
0.0
  0
LINE
  5
7AED
  8
1
  6
CONTINUOUS
 10
1243.784069327543
 20
5850.6176451620449
 30
0.0
 11
1572.7640693275439
 21
5850.6176451620449
 31
0.0
  0
LINE
  5
7AEE
  8
1
  6
CONTINUOUS
 10
2692.2440693275439
 20
6015.667645162046
 30
0.0
 11
2692.2440693275439
 21
5963.6676451620451
 31
0.0
  0
LINE
  5
7AEF
  8
2
  6
CENTER
 10
1000.493574327543
 20
5698.6676451620451
 30
0.0
 11
2972.5878473275438
 21
5698.6676451620451
 31
0.0
  0
LINE
  5
7AF0
  8
2
  6
CENTER
 10
4675.3190223275451
 20
4180.6732219999994
 30
0.0
 11
4675.3190223275451
 21
2210.659134
 31
0.0
  0
LINE
  5
7AF1
  8
2
  6
CENTER
 10
2950.7253983275441
 20
3340.516525
 30
0.0
 11
935.39766832754401
 21
3340.516525
 31
0.0
  0
LINE
  5
7AF2
  8
2
  6
CENTER
 10
2222.2440693275439
 20
4109.1666100000002
 30
0.0
 11
2222.2440693275439
 21
2290.1704309999991
 31
0.0
  0
LINE
  5
7AF3
  8
4
  6
CONTINUOUS
 10
5550.0
 20
1500.0
 30
0.0
 11
5550.0
 21
900.0
 31
0.0
  0
LINE
  5
7AF4
  8
4
  6
CONTINUOUS
 10
3450.0
 20
1500.0
 30
0.0
 11
3450.0
 21
900.0
 31
0.0
  0
LINE
  5
7AF5
  8
4
  6
CONTINUOUS
 10
1950.0
 20
1500.0
 30
0.0
 11
1950.0
 21
900.0
 31
0.0
  0
LINE
  5
7AF8
  8
4
  6
CONTINUOUS
 10
1950.0
 20
900.0
 30
0.0
 11
5550.0
 21
900.0
 31
0.0
  0
LINE
  5
7AF9
  8
4
  6
CONTINUOUS
 10
1950.0
 20
1200.0
 30
0.0
 11
5550.0
 21
1200.0
 31
0.0
  0
TEXT
  5
7AFA
  8
4
  6
CONTINUOUS
 10
2065.5062429999989
 20
1294.6290779999999
 30
0.0
 40
150.0
  1
機器名称
  0
TEXT
  5
7AFB
  8
4
  6
CONTINUOUS
 10
2058.7743179999989
 20
964.9354699999999
 30
0.0
 40
150.0
  1
機器型番
  0
TEXT
  5
7AFC
  8
4
  6
CONTINUOUS
 10
3533.0362359999999
 20
1267.7153069999999
 30
0.0
 40
150.0
  1
ミツヤ多翼送風機
  0
TEXT
  5
7AFD
  8
4
  6
CONTINUOUS
 10
3559.9634869999991
 20
951.47875299999987
 30
0.0
 40
150.0
  1
MF#4 1/2-4
  0
TEXT
  5
7AFF
  8
4
  6
CONTINUOUS
 10
2186.4501149999992
 20
7150.2865239999992
 30
0.0
 40
162.0
  1
天井吊枠防振ベット
  0
TEXT
  5
7B00
  8
4
  6
CONTINUOUS
 10
948.50278000000014
 20
7601.6429289999996
 30
0.0
 40
216.0
  1
ベルト駆動式片吸込両持多翼ファン
  0
LINE
  5
7B01
  8
4
  6
CONTINUOUS
 10
750.0
 20
7408.2262629999996
 30
0.0
 11
5550.0
 21
7408.2262629999996
 31
0.0
  0
LINE
  5
7B02
  8
4
  6
CONTINUOUS
 10
750.0
 20
8008.2262629999996
 30
0.0
 11
5550.0
 21
8008.2262629999996
 31
0.0
  0
LINE
  5
7B03
  8
4
  6
CONTINUOUS
 10
1950.0
 20
1500.0
 30
0.0
 11
5550.0
 21
1500.0
 31
0.0
  0
LINE
  5
7B04
  8
4
  6
CONTINUOUS
 10
750.0
 20
8008.2262629999996
 30
0.0
 11
750.0
 21
7408.2262629999996
 31
0.0
  0
TEXT
  5
7B05
  8
4
  6
CONTINUOUS
 10
878.87361799999985
 20
7146.9584329999998
 30
0.0
 40
162.0
  1
左回転右横向
  0
TEXT
  5
7B06
  8
4
  6
CONTINUOUS
 10
4406.9086779999989
 20
8118.1832439999989
 30
0.0
 40
168.0
  1
No.
  0
TEXT
  5
7B07
  8
4
  6
CONTINUOUS
 10
4166.2345210000003
 20
7150.2865239999992
 30
0.0
 40
162.0
  1
縮尺：1/30
  0
LINE
  5
7B08
  8
4
  6
CONTINUOUS
 10
5550.0
 20
8008.2262629999996
 30
0.0
 11
5550.0
 21
7408.2262629999996
 31
0.0
  0
LINE
  5
7B0A
  8
4
  6
CONTINUOUS
 10
4321.8522670000002
 20
8043.7907490000007
 30
0.0
 11
4321.8522670000002
 21
8359.9567849999985
 31
0.0
  0
LINE
  5
7B0B
  8
4
  6
CONTINUOUS
 10
4321.8522670000002
 20
8359.9567849999985
 30
0.0
 11
5550.0
 21
8359.9567849999985
 31
0.0
  0
LINE
  5
7B0C
  8
4
  6
CONTINUOUS
 10
5550.0
 20
8359.9567849999985
 30
0.0
 11
5550.0
 21
8043.7907490000007
 31
0.0
  0
LINE
  5
7B0D
  8
4
  6
CONTINUOUS
 10
5550.0
 20
8043.7907490000007
 30
0.0
 11
4321.8522670000002
 21
8043.7907490000007
 31
0.0
  0
DIMENSION
  5
7B25
  8
3
  6
CONTINUOUS
  2
*D1
 10
3054.5360613275438
 20
2644.516525
 30
0.0
 11
3054.5360613275438
 21
3006.496001
 31
0.0
 70
   128
 13
2757.2440693275439
 23
3374.516525
 33
0.0
 14
2757.2440693275439
 24
2644.516525
 34
0.0
 50
90.0
1001
ACAD
1000
DSTYLE
1002
{
1070
   287
1070
     3
1070
    40
1040
30.0
1070
   143
1040
0.039
1070
   172
1070
     1
1070
   271
1070
     0
1070
   279
1070
     0
1070
   288
1070
     1
1002
}
  0
DIMENSION
  5
7B32
  8
3
  6
CONTINUOUS
  2
*D2
 10
3250.5799473275438
 20
2644.5165249999991
 30
0.0
 11
3250.5799473275438
 21
3006.496001
 31
0.0
 70
   128
 13
2950.7253983275441
 23
3340.516525
 33
0.0
 14
2842.2440693275439
 24
2644.516525
 34
0.0
 50
90.0
1001
ACAD
1000
DSTYLE
1002
{
1070
   287
1070
     3
1070
    40
1040
30.0
1070
   143
1040
0.039
1070
   172
1070
     1
1070
   271
1070
     0
1070
   279
1070
     0
1070
   288
1070
     1
1002
}
  0
DIMENSION
  5
7B3F
  8
3
  6
CONTINUOUS
  2
*D3
 10
3480.4244903275439
 20
2450.5165249999991
 30
0.0
 11
3480.4244903275439
 21
2810.5955250000002
 31
0.0
 70
   128
 13
2950.7253983275441
 23
3340.516525
 33
0.0
 14
2692.2440693275439
 24
2450.516525
 34
0.0
 50
90.0
1001
ACAD
1000
DSTYLE
1002
{
1070
   287
1070
     3
1070
    40
1040
30.0
1070
   143
1040
0.039
1070
   172
1070
     1
1070
   271
1070
     0
1070
   279
1070
     0
1070
   288
1070
     1
1002
}
  0
DIMENSION
  5
7B4F
  8
3
  6
CONTINUOUS
  2
*D4
 10
3480.7613063275439
 20
2374.5165249999991
 30
0.0
 11
3480.761306327543
 21
2153.8022392857151
 31
0.0
 70
   128
 13
2692.2440693275439
 23
2450.516525
 33
0.0
 14
2842.2440693275439
 24
2374.516525
 34
0.0
 50
90.0
1001
ACAD
1000
DSTYLE
1002
{
1070
   287
1070
     3
1070
    40
1040
30.0
1070
   143
1040
0.039
1070
   172
1070
     1
1070
   271
1070
     0
1070
   279
1070
     0
1070
   288
1070
     1
1002
}
  0
DIMENSION
  5
7B5C
  8
3
  6
CONTINUOUS
  2
*D5
 10
2222.2440693275439
 20
4175.1436089999997
 30
0.0
 11
2493.4449693275442
 21
4175.1436089999997
 31
0.0
 70
   128
 13
2757.2440693275439
 23
3414.5165249999991
 33
0.0
 14
2222.2440693275439
 24
4109.1666100000002
 34
0.0
1001
ACAD
1000
DSTYLE
1002
{
1070
   287
1070
     3
1070
    40
1040
30.0
1070
   143
1040
0.039
1070
   172
1070
     1
1070
   271
1070
     0
1070
   279
1070
     0
1070
   288
1070
     1
1002
}
  0
DIMENSION
  5
7B69
  8
3
  6
CONTINUOUS
  2
*D6
 10
2222.2440693275439
 20
2097.664882999999
 30
0.0
 11
1614.6275453275441
 21
2097.664882999999
 31
0.0
 70
   128
 13
1042.244069327543
 23
2374.516525
 33
0.0
 14
2222.2440693275439
 24
2290.1704309999991
 34
0.0
1001
ACAD
1000
DSTYLE
1002
{
1070
   287
1070
     3
1070
    40
1040
30.0
1070
   143
1040
0.039
1070
   172
1070
     1
1070
   271
1070
     0
1070
   279
1070
     0
1070
   288
1070
     1
1002
}
  0
DIMENSION
  5
7B75
  8
3
  6
CONTINUOUS
  2
*D7
 10
2842.2440693275439
 20
2097.664882999999
 30
0.0
 11
2532.2440693275439
 21
2172.664882999999
 31
0.0
 70
     0
 13
2222.2440693275439
 23
2290.1704309999991
 33
0.0
 14
2842.2440693275439
 24
2374.516525
 34
0.0
1001
ACAD
1000
DSTYLE
1002
{
1070
   287
1070
     4
1070
    40
1040
30.0
1070
    75
1070
     1
1070
   143
1040
0.039
1070
   172
1070
     1
1070
   271
1070
     0
1070
   279
1070
     1
1070
   288
1070
     1
1002
}
  0
DIMENSION
  5
7B82
  8
3
  6
CONTINUOUS
  2
*D8
 10
4940.3190223275442
 20
4168.388422
 30
0.0
 11
4683.7283383275426
 21
4168.388422
 31
0.0
 70
   128
 13
4410.3190223275442
 23
3771.516525
 33
0.0
 14
4940.3190223275442
 24
3771.516525
 34
0.0
1001
ACAD
1000
DSTYLE
1002
{
1070
   287
1070
     3
1070
    40
1040
30.0
1070
   143
1040
0.039
1070
   172
1070
     1
1070
   271
1070
     0
1070
   279
1070
     0
1070
   288
1070
     1
1002
}
  0
LINE
  5
7B83
  8
1
  6
CONTINUOUS
 10
4942.3190223275442
 20
3717.516525
 30
0.0
 11
4942.3190223275442
 21
2963.516525
 31
0.0
  0
DIMENSION
  5
7B92
  8
3
  6
CONTINUOUS
  2
*D9
 10
5380.0221263275462
 20
2963.5165249999991
 30
0.0
 11
5380.0221263275453
 21
3357.765809
 31
0.0
 70
   128
 13
4942.3190223275442
 23
3717.516525
 33
0.0
 14
4942.3190223275442
 24
2963.516525
 34
0.0
 50
90.0
1001
ACAD
1000
DSTYLE
1002
{
1070
   287
1070
     3
1070
     3
1000
φ<>
1070
    40
1040
30.0
1070
   143
1040
0.039
1070
   172
1070
     1
1070
   271
1070
     0
1070
   279
1070
     0
1070
   288
1070
     1
1002
}
  0
DIMENSION
  5
7BA0
  8
3
  6
CONTINUOUS
  2
*D10
 10
4675.3190223275451
 20
4371.0440859999999
 30
0.0
 11
4819.8073439920854
 21
4473.5732356437184
 31
0.0
 70
   128
 13
4942.3190223275442
 23
3717.516525
 33
0.0
 14
4675.3190223275451
 24
4308.5385700000006
 34
0.0
1001
ACAD
1000
DSTYLE
1002
{
1070
   288
1070
     1
1070
   172
1070
     1
1070
    40
1040
30.0
1070
   271
1070
     0
1070
   143
1040
0.039
1002
}
  0
DIMENSION
  5
7BAD
  8
3
  6
CONTINUOUS
  2
*D11
 10
3946.8737353275451
 20
2374.516525
 30
0.0
 11
3946.8737353275451
 21
3148.354957
 31
0.0
 70
   128
 13
4075.3190223275442
 23
4024.516525
 33
0.0
 14
4075.3190223275442
 24
2374.516525
 34
0.0
 50
90.0
1001
ACAD
1000
DSTYLE
1002
{
1070
   287
1070
     3
1070
    40
1040
30.0
1070
   143
1040
0.039
1070
   172
1070
     1
1070
   271
1070
     0
1070
   279
1070
     0
1070
   288
1070
     1
1002
}
  0
DIMENSION
  5
7BBA
  8
3
  6
CONTINUOUS
  2
*D12
 10
4675.3190223275451
 20
2109.6139549999998
 30
0.0
 11
4386.2824133275444
 21
2109.6139549999998
 31
0.0
 70
   128
 13
4075.3190223275442
 23
2374.516525
 33
0.0
 14
4675.3190223275451
 24
2210.659134
 34
0.0
1001
ACAD
1000
DSTYLE
1002
{
1070
   287
1070
     3
1070
    40
1040
30.0
1070
   143
1040
0.039
1070
   172
1070
     1
1070
   271
1070
     0
1070
   279
1070
     0
1070
   288
1070
     1
1002
}
  0
DIMENSION
  5
7BC6
  8
3
  6
CONTINUOUS
  2
*D13
 10
5125.3190223275451
 20
2109.6139549999998
 30
0.0
 11
4900.3190223275442
 21
2184.6139549999998
 31
0.0
 70
     0
 13
4675.3190223275451
 23
2210.659134
 33
0.0
 14
5125.3190223275451
 24
2374.516525
 34
0.0
1001
ACAD
1000
DSTYLE
1002
{
1070
   287
1070
     4
1070
    40
1040
30.0
1070
    75
1070
     1
1070
   143
1040
0.039
1070
   172
1070
     1
1070
   271
1070
     0
1070
   279
1070
     1
1070
   288
1070
     1
1002
}
  0
DIMENSION
  5
7BD3
  8
3
  6
CONTINUOUS
  2
*D14
 10
2842.2440693275439
 20
6364.061394162045
 30
0.0
 11
1939.1139683275439
 21
6364.061394162045
 31
0.0
 70
   128
 13
1042.244069327543
 23
6148.667645162046
 33
0.0
 14
2842.2440693275439
 24
6148.667645162046
 34
0.0
1001
ACAD
1000
DSTYLE
1002
{
1070
   287
1070
     3
1070
    40
1040
30.0
1070
   143
1040
0.039
1070
   172
1070
     1
1070
   271
1070
     0
1070
   279
1070
     0
1070
   288
1070
     1
1002
}
  0
DIMENSION
  5
7BE0
  8
3
  6
CONTINUOUS
  2
*D15
 10
3169.458349327545
 20
5098.6676451620451
 30
0.0
 11
3169.4583493275441
 21
5573.7043421620447
 31
0.0
 70
   128
 13
2842.2440693275439
 23
6148.667645162046
 33
0.0
 14
2842.2440693275439
 24
5098.6676451620451
 34
0.0
 50
90.0
1001
ACAD
1000
DSTYLE
1002
{
1070
   287
1070
     3
1070
    40
1040
30.0
1070
   143
1040
0.039
1070
   172
1070
     1
1070
   271
1070
     0
1070
   279
1070
     0
1070
   288
1070
     1
1002
}
  0
DIMENSION
  5
7DC5
  8
3
  2
*D16
 10
1636.2440693275439
 20
4175.1436089999997
 30
0.0
 11
1929.244069327543
 21
4250.1436090000007
 31
0.0
 70
     0
 13
2222.2440693275439
 23
4109.1666100000002
 33
0.0
 14
1636.2440693275439
 24
3340.4831897740719
 34
0.0
1001
ACAD
1000
DSTYLE
1002
{
1070
   287
1070
     4
1070
    40
1040
30.0
1070
    75
1070
     1
1070
   143
1040
0.039
1070
   172
1070
     1
1070
   271
1070
     0
1070
   279
1070
     1
1070
   288
1070
     1
1002
}
  0
DIMENSION
  5
7DDD
  8
3
  2
*D17
 10
3480.4244903275439
 20
3848.4979295285261
 30
0.0
 11
3405.424490327543
 21
3594.5072272642642
 31
0.0
 70
     0
 13
2950.7253983275441
 23
3340.516525
 33
0.0
 14
2222.2440693275439
 24
3848.497929528527
 34
0.0
 50
90.0
1001
ACAD
1000
DSTYLE
1002
{
1070
   287
1070
     4
1070
    40
1040
30.0
1070
    75
1070
     1
1070
   143
1040
0.039
1070
   172
1070
     1
1070
   271
1070
     0
1070
   279
1070
     1
1070
   288
1070
     1
1002
}
  0
LINE
  5
7E03
  8
1
  6
CONTINUOUS
 10
2682.2440693275439
 20
3470.516525
 30
0.0
 11
1762.2440693275439
 21
3470.516525
 31
0.0
  0
LINE
  5
7E04
  8
1
 10
1762.2440693275439
 20
3470.516525
 30
0.0
 11
1762.2440693275439
 21
2550.516525
 31
0.0
  0
LINE
  5
7E05
  8
1
 10
2682.2440693275439
 20
3470.516525
 30
0.0
 11
2682.2440693275439
 21
2550.516525
 31
0.0
  0
ENDSEC
  0
EOF
