  0
SECTION
  2
HEADER
  9
$ACADVER
  1
AC1009
  9
$INSBASE
 10
0.0
 20
0.0
 30
0.0
  9
$EXTMIN
 10
750.0
 20
900.0
 30
0.0
  9
$EXTMAX
 10
5550.0
 20
8359.9567849999985
 30
0.0
  9
$LIMMIN
 10
0.0
 20
0.0
  9
$LIMMAX
 10
297.0
 20
210.0
  9
$ORTHOMODE
 70
     0
  9
$REGENMODE
 70
     1
  9
$FILLMODE
 70
     0
  9
$QTEXTMODE
 70
     0
  9
$MIRRTEXT
 70
     1
  9
$DRAGMODE
 70
     2
  9
$LTSCALE
 40
100.0
  9
$OSMODE
 70
    37
  9
$ATTMODE
 70
     1
  9
$TEXTSIZE
 40
180.0
  9
$TRACEWID
 40
0.05
  9
$TEXTSTYLE
  7
STANDARD
  9
$CLAYER
  8
3
  9
$CELTYPE
  6
BYLAYER
  9
$CECOLOR
 62
   256
  9
$DIMSCALE
 40
30.0
  9
$DIMASZ
 40
2.0
  9
$DIMEXO
 40
0.5
  9
$DIMDLI
 40
10.0
  9
$DIMRND
 40
0.0
  9
$DIMDLE
 40
0.0
  9
$DIMEXE
 40
1.0
  9
$DIMTP
 40
1.0
  9
$DIMTM
 40
1.0
  9
$DIMTXT
 40
3.0
  9
$DIMCEN
 40
0.0
  9
$DIMTSZ
 40
0.0
  9
$DIMTOL
 70
     0
  9
$DIMLIM
 70
     0
  9
$DIMTIH
 70
     0
  9
$DIMTOH
 70
     0
  9
$DIMSE1
 70
     0
  9
$DIMSE2
 70
     0
  9
$DIMTAD
 70
     1
  9
$DIMZIN
 70
     8
  9
$DIMBLK
  1

  9
$DIMASO
 70
     1
  9
$DIMSHO
 70
     1
  9
$DIMPOST
  1

  9
$DIMAPOST
  1

  9
$DIMALT
 70
     0
  9
$DIMALTD
 70
     2
  9
$DIMALTF
 40
0.039
  9
$DIMLFAC
 40
1.0
  9
$DIMTOFL
 70
     1
  9
$DIMTVP
 40
0.0
  9
$DIMTIX
 70
     0
  9
$DIMSOXD
 70
     0
  9
$DIMSAH
 70
     1
  9
$DIMBLK1
  1
OPEN
  9
$DIMBLK2
  1
OPEN
  9
$DIMSTYLE
  2
IGA
  9
$DIMCLRD
 70
     0
  9
$DIMCLRE
 70
     0
  9
$DIMCLRT
 70
     0
  9
$DIMTFAC
 40
10.0
  9
$DIMGAP
 40
1.0
  9
$LUNITS
 70
     2
  9
$LUPREC
 70
     3
  9
$SKETCHINC
 40
0.1
  9
$FILLETRAD
 40
0.0
  9
$AUNITS
 70
     0
  9
$AUPREC
 70
     0
  9
$MENU
  1
acad
  9
$ELEVATION
 40
0.0
  9
$PELEVATION
 40
0.0
  9
$THICKNESS
 40
0.0
  9
$LIMCHECK
 70
     0
  9
$BLIPMODE
 70
     0
  9
$CHAMFERA
 40
0.5
  9
$CHAMFERB
 40
0.5
  9
$SKPOLY
 70
     0
  9
$TDCREATE
 40
2450744.5968569438
  9
$TDUPDATE
 40
2454953.7728842939
  9
$TDINDWG
 40
0.0128902662
  9
$TDUSRTIMER
 40
0.0128902662
  9
$USRTIMER
 70
     1
  9
$ANGBASE
 50
0.0
  9
$ANGDIR
 70
     0
  9
$PDMODE
 70
     0
  9
$PDSIZE
 40
0.0
  9
$PLINEWID
 40
0.0
  9
$COORDS
 70
     1
  9
$SPLFRAME
 70
     0
  9
$SPLINETYPE
 70
     6
  9
$SPLINESEGS
 70
     8
  9
$ATTDIA
 70
     0
  9
$ATTREQ
 70
     1
  9
$HANDLING
 70
 10241
  9
$HANDSEED
  5
7E3C
  9
$SURFTAB1
 70
     6
  9
$SURFTAB2
 70
     6
  9
$SURFTYPE
 70
     6
  9
$SURFU
 70
     6
  9
$SURFV
 70
     6
  9
$UCSNAME
  2

  9
$UCSORG
 10
0.0
 20
0.0
 30
0.0
  9
$UCSXDIR
 10
1.0
 20
0.0
 30
0.0
  9
$UCSYDIR
 10
0.0
 20
1.0
 30
0.0
  9
$PUCSNAME
  2

  9
$PUCSORG
 10
0.0
 20
0.0
 30
0.0
  9
$PUCSXDIR
 10
1.0
 20
0.0
 30
0.0
  9
$PUCSYDIR
 10
0.0
 20
1.0
 30
0.0
  9
$USERI1
 70
     0
  9
$USERI2
 70
     0
  9
$USERI3
 70
     0
  9
$USERI4
 70
     0
  9
$USERI5
 70
     0
  9
$USERR1
 40
0.0
  9
$USERR2
 40
0.0
  9
$USERR3
 40
0.0
  9
$USERR4
 40
0.0
  9
$USERR5
 40
0.0
  9
$WORLDVIEW
 70
     1
  9
$SHADEDGE
 70
     3
  9
$SHADEDIF
 70
    70
  9
$TILEMODE
 70
     1
  9
$MAXACTVP
 70
    16
  9
$PLIMCHECK
 70
     0
  9
$PEXTMIN
 10
1.0000000000000000E+020
 20
1.0000000000000000E+020
 30
1.0000000000000000E+020
  9
$PEXTMAX
 10
-1.0000000000000000E+020
 20
-1.0000000000000000E+020
 30
-1.0000000000000000E+020
  9
$PLIMMIN
 10
0.0
 20
0.0
  9
$PLIMMAX
 10
12.0
 20
9.0
  9
$UNITMODE
 70
     0
  9
$VISRETAIN
 70
     0
  9
$PLINEGEN
 70
     0
  9
$PSLTSCALE
 70
     1
  0
ENDSEC
  0
SECTION
  2
TABLES
  0
TABLE
  2
VPORT
 70
     2
  0
VPORT
  2
*ACTIVE
 70
     0
 10
0.0
 20
0.0
 11
1.0
 21
1.0
 12
9437.9954746499006
 22
4629.9199394653269
 13
0.0
 23
0.0
 14
10.0
 24
10.0
 15
10.0
 25
10.0
 16
0.0
 26
0.0
 36
1.0
 17
0.0
 27
0.0
 37
0.0
 40
7517.061441529765
 41
3.1666666666666661
 42
50.0
 43
0.0
 44
0.0
 50
0.0
 51
0.0
 71
     0
 72
   100
 73
     1
 74
     0
 75
     0
 76
     0
 77
     0
 78
     0
  0
ENDTAB
  0
TABLE
  2
LTYPE
 70
     2
  0
LTYPE
  2
CONTINUOUS
 70
     0
  3
Solid line
 72
    65
 73
     0
 40
0.0
  0
LTYPE
  2
CENTER
 70
     0
  3
____ _ ____ _ ____ _ ____ _ ____ _ ____ _ ____ 
 72
    65
 73
     4
 40
2.0
 49
1.25
 49
-0.25
 49
0.25
 49
-0.25
  0
ENDTAB
  0
TABLE
  2
LAYER
 70
     6
  0
LAYER
  2
0
 70
     0
 62
     7
  6
CONTINUOUS
  0
LAYER
  2
3
 70
     0
 62
     2
  6
CONTINUOUS
  0
LAYER
  2
2
 70
     0
 62
     3
  6
CENTER
  0
LAYER
  2
1
 70
     0
 62
     4
  6
CONTINUOUS
  0
LAYER
  2
4
 70
     0
 62
     7
  6
CONTINUOUS
  0
LAYER
  2
DEFPOINTS
 70
     0
 62
     7
  6
CONTINUOUS
  0
ENDTAB
  0
TABLE
  2
STYLE
 70
     1
  0
STYLE
  2
STANDARD
 70
     0
 40
0.0
 41
1.0
 50
0.0
 71
     0
 42
180.0
  3
simplex.shx
  4
extfont.shx
  0
ENDTAB
  0
TABLE
  2
VIEW
 70
     0
  0
ENDTAB
  0
TABLE
  2
UCS
 70
     0
  0
ENDTAB
  0
TABLE
  2
APPID
 70
     1
  0
APPID
  2
ACAD
 70
     0
  0
ENDTAB
  0
TABLE
  2
DIMSTYLE
 70
     1
  0
DIMSTYLE
  2
IGA
 70
     0
  3

  4

  5

  6
OPEN
  7
OPEN
 40
2.0
 41
2.0
 42
0.5
 43
10.0
 44
1.0
 45
0.0
 46
0.0
 47
1.0
 48
1.0
140
3.0
141
0.0
142
0.0
143
0.03937
144
1.0
145
0.0
146
10.0
147
1.0
 71
     0
 72
     0
 73
     0
 74
     0
 75
     0
 76
     0
 77
     1
 78
     8
170
     0
171
     2
172
     0
173
     1
174
     0
175
     0
176
     0
177
     0
178
     0
  0
ENDTAB
  0
ENDSEC
  0
SECTION
  2
BLOCKS
  0
BLOCK
  8
0
  2
$MODEL_SPACE
 70
     0
 10
0.0
 20
0.0
 30
0.0
  3
$MODEL_SPACE
  1

  0
ENDBLK
  5
1B
  8
0
  0
BLOCK
 67
     1
  8
0
  2
$PAPER_SPACE
 70
     0
 10
0.0
 20
0.0
 30
0.0
  3
$PAPER_SPACE
  1

  0
ENDBLK
  5
18
 67
     1
  8
0
  0
BLOCK
  8
0
  2
_OPEN
 70
     0
 10
0.0
 20
0.0
 30
0.0
  3
_OPEN
  1

  0
LINE
  5
7BC6
  8
0
  6
BYBLOCK
 62
     0
 10
-1.0
 20
0.166667
 30
0.0
 11
0.0
 21
0.0
 31
0.0
  0
LINE
  5
7BC7
  8
0
  6
BYBLOCK
 62
     0
 10
0.0
 20
0.0
 30
0.0
 11
-1.0
 21
-0.166667
 31
0.0
  0
LINE
  5
7BC8
  8
0
  6
BYBLOCK
 62
     0
 10
0.0
 20
0.0
 30
0.0
 11
-1.0
 21
0.0
 31
0.0
  0
ENDBLK
  5
7BC9
  8
0
  0
BLOCK
  8
0
  2
*D1
 70
     1
 10
0.0
 20
0.0
 30
0.0
  3
*D1
  1

  0
LINE
  5
7DA8
  8
3
  6
CONTINUOUS
 62
     0
 10
2605.9447340000002
 20
3824.852609
 30
0.0
 11
2605.9447340000002
 21
3992.5590770000008
 31
0.0
  0
LINE
  5
7DA9
  8
3
  6
CONTINUOUS
 62
     0
 10
1875.9447339999999
 20
3824.852609
 30
0.0
 11
1875.9447339999999
 21
3992.5590770000008
 31
0.0
  0
LINE
  5
7DAA
  8
3
  6
CONTINUOUS
 62
     0
 10
2545.9447340000002
 20
3962.5590769999999
 30
0.0
 11
1935.944733999999
 21
3962.5590769999999
 31
0.0
  0
INSERT
  5
7DAB
  8
3
  6
CONTINUOUS
 62
     0
  2
_OPEN
 10
2605.9447340000002
 20
3962.5590769999999
 30
0.0
 41
60.0
 42
60.0
 43
60.0
  0
INSERT
  5
7DAC
  8
3
  6
CONTINUOUS
 62
     0
  2
_OPEN
 10
1875.9447339999999
 20
3962.5590769999999
 30
0.0
 41
60.0
 42
60.0
 43
60.0
 50
180.0
  0
TEXT
  8
3
  40
90
  5
7E2D
  62
0
  72
0
  71
0
 10
2057.34
 20
3878.26
 30
0.000000
  1
730
  0
POINT
  5
7DAE
  8
DEFPOINTS
  6
CONTINUOUS
 62
     0
 10
2605.9447340000002
 20
3809.852609
 30
0.0
  0
POINT
  5
7DAF
  8
DEFPOINTS
  6
CONTINUOUS
 62
     0
 10
1875.9447339999999
 20
3809.852609
 30
0.0
  0
POINT
  5
7DB0
  8
DEFPOINTS
  6
CONTINUOUS
 62
     0
 10
1875.9447339999999
 20
3962.5590769999999
 30
0.0
  0
ENDBLK
  5
7BD6
  8
0
  0
BLOCK
  8
0
  2
*D2
 70
     1
 10
0.0
 20
0.0
 30
0.0
  3
*D2
  1

  0
LINE
  5
7DB1
  8
3
  6
CONTINUOUS
 62
     0
 10
2605.9447340000002
 20
3824.852609
 30
0.0
 11
2605.9447340000002
 21
4355.3712269999996
 31
0.0
  0
LINE
  5
7DB2
  8
3
  6
CONTINUOUS
 62
     0
 10
1909.9447339999999
 20
4341.3370379999997
 30
0.0
 11
1909.9447339999999
 21
4295.3712269999996
 31
0.0
  0
LINE
  5
7DB3
  8
3
  6
CONTINUOUS
 62
     0
 10
2545.9447340000002
 20
4325.3712269999996
 30
0.0
 11
1969.9447339999999
 21
4325.3712269999996
 31
0.0
  0
INSERT
  5
7DB4
  8
3
  6
CONTINUOUS
 62
     0
  2
_OPEN
 10
2605.9447340000002
 20
4325.3712269999996
 30
0.0
 41
60.0
 42
60.0
 43
60.0
  0
INSERT
  5
7DB5
  8
3
  6
CONTINUOUS
 62
     0
  2
_OPEN
 10
1909.9447339999999
 20
4325.3712269999996
 30
0.0
 41
60.0
 42
60.0
 43
60.0
 50
180.0
  0
TEXT
  8
3
  40
90
  5
7E2E
  62
0
  72
0
  71
0
 10
2050.97
 20
4241.07
 30
0.000000
  1
696
  0
POINT
  5
7DB7
  8
DEFPOINTS
  6
CONTINUOUS
 62
     0
 10
2605.9447340000002
 20
3809.852609
 30
0.0
  0
POINT
  5
7DB8
  8
DEFPOINTS
  6
CONTINUOUS
 62
     0
 10
1909.9447339999999
 20
4356.3370380000006
 30
0.0
  0
POINT
  5
7DB9
  8
DEFPOINTS
  6
CONTINUOUS
 62
     0
 10
1909.9447339999999
 20
4325.3712269999996
 30
0.0
  0
ENDBLK
  5
7BE3
  8
0
  0
BLOCK
  8
0
  2
*D3
 70
     1
 10
0.0
 20
0.0
 30
0.0
  3
*D3
  1

  0
LINE
  5
7DBA
  8
3
  6
CONTINUOUS
 62
     0
 10
1820.9447339999999
 20
3809.852609
 30
0.0
 11
1085.6231740000001
 21
3809.852609
 31
0.0
  0
LINE
  5
7DBB
  8
3
  6
CONTINUOUS
 62
     0
 10
1145.945535999999
 20
3274.8526089999991
 30
0.0
 11
1085.6231740000001
 21
3274.8526089999991
 31
0.0
  0
LINE
  5
7DBC
  8
3
  6
CONTINUOUS
 62
     0
 10
1115.6231740000001
 20
3749.852609
 30
0.0
 11
1115.6231740000001
 21
3334.852609
 31
0.0
  0
INSERT
  5
7DBD
  8
3
  6
CONTINUOUS
 62
     0
  2
_OPEN
 10
1115.6231740000001
 20
3809.852609
 30
0.0
 41
60.0
 42
60.0
 43
60.0
 50
90.0
  0
INSERT
  5
7DBE
  8
3
  6
CONTINUOUS
 62
     0
  2
_OPEN
 10
1115.6231740000001
 20
3274.8526089999991
 30
0.0
 41
60.0
 42
60.0
 43
60.0
 50
270.0
  0
TEXT
  8
3
  40
90
  5
7E2F
  62
0
  72
0
  71
0
 10
860.623
 20
3383.16
 30
0.000000
  1
535
  0
POINT
  5
7DC0
  8
DEFPOINTS
  6
CONTINUOUS
 62
     0
 10
1835.944733999999
 20
3809.852609
 30
0.0
  0
POINT
  5
7DC1
  8
DEFPOINTS
  6
CONTINUOUS
 62
     0
 10
1160.9455359999999
 20
3274.8526089999991
 30
0.0
  0
POINT
  5
7DC2
  8
DEFPOINTS
  6
CONTINUOUS
 62
     0
 10
1115.6231740000001
 20
3274.8526089999991
 30
0.0
  0
ENDBLK
  5
7C09
  8
0
  0
BLOCK
  8
0
  2
*D4
 70
     1
 10
0.0
 20
0.0
 30
0.0
  3
*D4
  1

  0
LINE
  5
7DC3
  8
3
  6
CONTINUOUS
 62
     0
 10
1424.9447339999999
 20
2649.852609
 30
0.0
 11
1085.6231739999989
 21
2649.852609
 31
0.0
  0
LINE
  5
7DC4
  8
3
  6
CONTINUOUS
 62
     0
 10
1115.6231740000001
 20
3214.852609
 30
0.0
 11
1115.6231740000001
 21
2709.852609
 31
0.0
  0
INSERT
  5
7DC5
  8
3
  6
CONTINUOUS
 62
     0
  2
_OPEN
 10
1115.6231740000001
 20
3274.8526089999991
 30
0.0
 41
60.0
 42
60.0
 43
60.0
 50
90.0
  0
INSERT
  5
7DC6
  8
3
  6
CONTINUOUS
 62
     0
  2
_OPEN
 10
1115.6231740000001
 20
2649.852609
 30
0.0
 41
60.0
 42
60.0
 43
60.0
 50
270.0
  0
TEXT
  8
3
  40
90
  5
7E30
  62
0
  72
0
  71
0
 10
860.623
 20
2803.05
 30
0.000000
  1
625
  0
POINT
  5
7DC8
  8
DEFPOINTS
  6
CONTINUOUS
 62
     0
 10
1160.9455359999999
 20
3274.8526089999991
 30
0.0
  0
POINT
  5
7DC9
  8
DEFPOINTS
  6
CONTINUOUS
 62
     0
 10
1439.9447339999999
 20
2649.852609
 30
0.0
  0
POINT
  5
7DCA
  8
DEFPOINTS
  6
CONTINUOUS
 62
     0
 10
1115.6231740000001
 20
2649.852609
 30
0.0
  0
ENDBLK
  5
7C15
  8
0
  0
BLOCK
  8
0
  2
*D5
 70
     1
 10
0.0
 20
0.0
 30
0.0
  3
*D5
  1

  0
LINE
  5
7DCB
  8
3
  6
CONTINUOUS
 62
     0
 10
1424.9447339999999
 20
2649.852609
 30
0.0
 11
1085.6231740000001
 21
2649.852609
 31
0.0
  0
LINE
  5
7DCC
  8
3
  6
CONTINUOUS
 62
     0
 10
1274.944733999999
 20
2573.852609
 30
0.0
 11
1085.6231740000001
 21
2573.852609
 31
0.0
  0
LINE
  5
7DCD
  8
3
  6
CONTINUOUS
 62
     0
 10
1115.6231740000001
 20
2709.852609
 30
0.0
 11
1115.6231740000001
 21
2769.852609
 31
0.0
  0
LINE
  5
7DCE
  8
3
  6
CONTINUOUS
 62
     0
 10
1115.6231740000001
 20
2513.852609
 30
0.0
 11
1115.6231740000001
 21
2252.424037571428
 31
0.0
  0
LINE
  5
7DCF
  8
3
  6
CONTINUOUS
 62
     0
 10
1115.6231740000001
 20
2649.852609
 30
0.0
 11
1115.6231740000001
 21
2573.852609
 31
0.0
  0
INSERT
  5
7DD0
  8
3
  6
CONTINUOUS
 62
     0
  2
_OPEN
 10
1115.6231740000001
 20
2649.852609
 30
0.0
 41
60.0
 42
60.0
 43
60.0
 50
270.0
  0
INSERT
  5
7DD1
  8
3
  6
CONTINUOUS
 62
     0
  2
_OPEN
 10
1115.6231740000001
 20
2573.852609
 30
0.0
 41
60.0
 42
60.0
 43
60.0
 50
90.0
  0
TEXT
  8
3
  40
90
  5
7E31
  62
0
  72
0
  71
0
 10
860.623
 20
2193.84
 30
0.000000
  1
76
  0
POINT
  5
7DD3
  8
DEFPOINTS
  6
CONTINUOUS
 62
     0
 10
1439.9447339999999
 20
2649.852609
 30
0.0
  0
POINT
  5
7DD4
  8
DEFPOINTS
  6
CONTINUOUS
 62
     0
 10
1289.9447339999999
 20
2573.852609
 30
0.0
  0
POINT
  5
7DD5
  8
DEFPOINTS
  6
CONTINUOUS
 62
     0
 10
1115.6231740000001
 20
2573.852609
 30
0.0
  0
ENDBLK
  5
7D69
  8
0
  0
BLOCK
  8
0
  2
*D6
 70
     1
 10
0.0
 20
0.0
 30
0.0
  3
*D6
  1

  0
LINE
  5
7DD6
  8
3
  6
CONTINUOUS
 62
     0
 10
1289.9447339999999
 20
2558.852609
 30
0.0
 11
1289.9447339999999
 21
2309.452162
 31
0.0
  0
LINE
  5
7DD7
  8
3
  6
CONTINUOUS
 62
     0
 10
1909.9447339999999
 20
2499.2207509999998
 30
0.0
 11
1909.9447339999999
 21
2309.452162
 31
0.0
  0
LINE
  5
7DD8
  8
3
  6
CONTINUOUS
 62
     0
 10
1349.9447339999999
 20
2339.452162
 30
0.0
 11
1849.9447339999999
 21
2339.452162
 31
0.0
  0
INSERT
  5
7DD9
  8
3
  6
CONTINUOUS
 62
     0
  2
_OPEN
 10
1289.9447339999999
 20
2339.452162
 30
0.0
 41
60.0
 42
60.0
 43
60.0
 50
180.0
  0
INSERT
  5
7DDA
  8
3
  6
CONTINUOUS
 62
     0
  2
_OPEN
 10
1909.9447339999999
 20
2339.452162
 30
0.0
 41
60.0
 42
60.0
 43
60.0
  0
TEXT
  8
3
  40
90
  5
7E32
  62
0
  72
0
  71
0
 10
1406.99
 20
2255.15
 30
0.000000
  1
620
  0
POINT
  5
7DDC
  8
DEFPOINTS
  6
CONTINUOUS
 62
     0
 10
1289.9447339999999
 20
2573.852609
 30
0.0
  0
POINT
  5
7DDD
  8
DEFPOINTS
  6
CONTINUOUS
 62
     0
 10
1909.9447339999999
 20
2514.2207509999998
 30
0.0
  0
POINT
  5
7DDE
  8
DEFPOINTS
  6
CONTINUOUS
 62
     0
 10
1909.9447339999999
 20
2339.452162
 30
0.0
  0
ENDBLK
  5
7C32
  8
0
  0
BLOCK
  8
0
  2
*D7
 70
     1
 10
0.0
 20
0.0
 30
0.0
  3
*D7
  1

  0
LINE
  5
7DDF
  8
3
  6
CONTINUOUS
 62
     0
 10
3089.9447340000002
 20
2558.852609
 30
0.0
 11
3089.9447340000002
 21
2309.452162
 31
0.0
  0
LINE
  5
7DE0
  8
3
  6
CONTINUOUS
 62
     0
 10
1969.9447339999999
 20
2339.452162
 30
0.0
 11
3029.9447340000002
 21
2339.452162
 31
0.0
  0
INSERT
  5
7DE1
  8
3
  6
CONTINUOUS
 62
     0
  2
_OPEN
 10
1909.9447339999999
 20
2339.452162
 30
0.0
 41
60.0
 42
60.0
 43
60.0
 50
180.0
  0
INSERT
  5
7DE2
  8
3
  6
CONTINUOUS
 62
     0
  2
_OPEN
 10
3089.9447340000002
 20
2339.452162
 30
0.0
 41
60.0
 42
60.0
 43
60.0
  0
TEXT
  8
3
  40
90
  5
7E33
  62
0
  72
0
  71
0
 10
2319.94
 20
2255.15
 30
0.000000
  1
1180
  0
POINT
  5
7DE4
  8
DEFPOINTS
  6
CONTINUOUS
 62
     0
 10
1909.9447339999999
 20
2514.2207509999998
 30
0.0
  0
POINT
  5
7DE5
  8
DEFPOINTS
  6
CONTINUOUS
 62
     0
 10
3089.9447340000002
 20
2573.852609
 30
0.0
  0
POINT
  5
7DE6
  8
DEFPOINTS
  6
CONTINUOUS
 62
     0
 10
3089.9447340000002
 20
2339.452162
 30
0.0
  0
ENDBLK
  5
7C3E
  8
0
  0
BLOCK
  8
0
  2
*D8
 70
     1
 10
0.0
 20
0.0
 30
0.0
  3
*D8
  1

  0
LINE
  5
7DE7
  8
3
  6
CONTINUOUS
 62
     0
 10
4812.1133179999997
 20
3651.852609
 30
0.0
 11
5264.6144870000007
 21
3651.852609
 31
0.0
  0
LINE
  5
7DE8
  8
3
  6
CONTINUOUS
 62
     0
 10
4812.1133179999997
 20
2897.852609
 30
0.0
 11
5264.6144870000007
 21
2897.8526089999991
 31
0.0
  0
LINE
  5
7DE9
  8
3
  6
CONTINUOUS
 62
     0
 10
5234.6144870000007
 20
3591.852609
 30
0.0
 11
5234.6144870000007
 21
2957.8526089999991
 31
0.0
  0
INSERT
  5
7DEA
  8
3
  6
CONTINUOUS
 62
     0
  2
_OPEN
 10
5234.6144870000007
 20
3651.852609
 30
0.0
 41
60.0
 42
60.0
 43
60.0
 50
90.0
  0
INSERT
  5
7DEB
  8
3
  6
CONTINUOUS
 62
     0
  2
_OPEN
 10
5234.6144870000007
 20
2897.8526089999991
 30
0.0
 41
60.0
 42
60.0
 43
60.0
 50
270.0
  0
TEXT
  8
3
  40
90
  5
7E34
  62
0
  72
0
  71
0
 10
4979.61
 20
3115.83
 30
0.000000
  1
φ754
  0
POINT
  5
7DED
  8
DEFPOINTS
  6
CONTINUOUS
 62
     0
 10
4797.1133179999997
 20
3651.852609
 30
0.0
  0
POINT
  5
7DEE
  8
DEFPOINTS
  6
CONTINUOUS
 62
     0
 10
4797.1133179999997
 20
2897.852609
 30
0.0
  0
POINT
  5
7DEF
  8
DEFPOINTS
  6
CONTINUOUS
 62
     0
 10
5234.6144870000007
 20
2897.8526089999991
 30
0.0
  0
ENDBLK
  5
7D44
  8
0
  0
BLOCK
  8
0
  2
*D9
 70
     1
 10
0.0
 20
0.0
 30
0.0
  3
*D9
  1

  0
LINE
  5
7D30
  8
0
  6
BYBLOCK
 62
     0
 10
4797.1133179999997
 20
3666.8526090000009
 30
0.0
 11
4797.1133179999997
 21
4603.2895559999997
 31
0.0
  0
LINE
  5
7D31
  8
0
  6
BYBLOCK
 62
     0
 10
4530.1133179999997
 20
4554.1700309999997
 30
0.0
 11
4530.1133179999997
 21
4603.2895559999997
 31
0.0
  0
LINE
  5
7D32
  8
0
  6
BYBLOCK
 62
     0
 10
4737.1133179999997
 20
4573.2895560000006
 30
0.0
 11
4590.1133179999988
 21
4573.2895560000006
 31
0.0
  0
TEXT
  5
7D33
  8
3
 62
     0
 10
4558.9820503244709
 20
4633.5894042995496
 30
0.0
 40
90.0
  1
267
  0
INSERT
  5
7D34
  8
0
  6
BYBLOCK
 62
     0
  2
_OPEN
 10
4797.1133179999997
 20
4573.2895560000006
 30
0.0
 41
60.0
 42
60.0
 43
60.0
  0
INSERT
  5
7D35
  8
0
  6
BYBLOCK
 62
     0
  2
_OPEN
 10
4530.1133179999997
 20
4573.2895560000006
 30
0.0
 41
60.0
 42
60.0
 43
60.0
 50
180.0
  0
POINT
  5
7D36
  8
DEFPOINTS
  6
BYBLOCK
 62
     0
 10
4797.1133179999997
 20
3651.852609
 30
0.0
  0
POINT
  5
7D37
  8
DEFPOINTS
  6
BYBLOCK
 62
     0
 10
4530.1133179999997
 20
4539.1700309999997
 30
0.0
  0
POINT
  5
7D38
  8
DEFPOINTS
  6
BYBLOCK
 62
     0
 10
4530.1133179999997
 20
4573.2895560000006
 30
0.0
  0
ENDBLK
  5
7D39
  8
0
  0
BLOCK
  8
0
  2
*D10
 70
     1
 10
0.0
 20
0.0
 30
0.0
  3
*D10
  1

  0
LINE
  5
7DF0
  8
3
  6
CONTINUOUS
 62
     0
 10
3915.1133180000002
 20
4164.2787689999996
 30
0.0
 11
3688.605688000001
 21
4164.2787689999996
 31
0.0
  0
LINE
  5
7DF1
  8
3
  6
CONTINUOUS
 62
     0
 10
3915.1133180000002
 20
2514.278769
 30
0.0
 11
3688.6056880000001
 21
2514.278769
 31
0.0
  0
LINE
  5
7DF2
  8
3
  6
CONTINUOUS
 62
     0
 10
3718.605688000001
 20
4104.2787689999986
 30
0.0
 11
3718.605688000001
 21
2574.278769
 31
0.0
  0
INSERT
  5
7DF3
  8
3
  6
CONTINUOUS
 62
     0
  2
_OPEN
 10
3718.605688000001
 20
4164.2787689999996
 30
0.0
 41
60.0
 42
60.0
 43
60.0
 50
90.0
  0
INSERT
  5
7DF4
  8
3
  6
CONTINUOUS
 62
     0
  2
_OPEN
 10
3718.605688000001
 20
2514.278769
 30
0.0
 41
60.0
 42
60.0
 43
60.0
 50
270.0
  0
TEXT
  8
3
  40
90
  5
7E35
  62
0
  72
0
  71
0
 10
3463.61
 20
3204.94
 30
0.000000
  1
1650
  0
POINT
  5
7DF6
  8
DEFPOINTS
  6
CONTINUOUS
 62
     0
 10
3930.1133180000002
 20
4164.2787689999996
 30
0.0
  0
POINT
  5
7DF7
  8
DEFPOINTS
  6
CONTINUOUS
 62
     0
 10
3930.1133180000002
 20
2514.278769
 30
0.0
  0
POINT
  5
7DF8
  8
DEFPOINTS
  6
CONTINUOUS
 62
     0
 10
3718.605688000001
 20
2514.278769
 30
0.0
  0
ENDBLK
  5
7C76
  8
0
  0
BLOCK
  8
0
  2
*D11
 70
     1
 10
0.0
 20
0.0
 30
0.0
  3
*D11
  1

  0
LINE
  5
7DF9
  8
3
  6
CONTINUOUS
 62
     0
 10
3930.1133180000002
 20
2499.278769
 30
0.0
 11
3930.1133180000002
 21
2258.5311620000002
 31
0.0
  0
LINE
  5
7DFA
  8
3
  6
CONTINUOUS
 62
     0
 10
4530.1133179999997
 20
2271.3591849999998
 30
0.0
 11
4530.1133179999997
 21
2318.5311620000002
 31
0.0
  0
LINE
  5
7DFB
  8
3
  6
CONTINUOUS
 62
     0
 10
3990.1133180000002
 20
2288.5311620000002
 30
0.0
 11
4470.1133179999997
 21
2288.5311620000002
 31
0.0
  0
INSERT
  5
7DFC
  8
3
  6
CONTINUOUS
 62
     0
  2
_OPEN
 10
3930.1133180000002
 20
2288.5311620000002
 30
0.0
 41
60.0
 42
60.0
 43
60.0
 50
180.0
  0
INSERT
  5
7DFD
  8
3
  6
CONTINUOUS
 62
     0
  2
_OPEN
 10
4530.1133179999997
 20
2288.5311620000002
 30
0.0
 41
60.0
 42
60.0
 43
60.0
  0
TEXT
  8
3
  40
90
  5
7E36
  62
0
  72
0
  71
0
 10
4054.56
 20
2204.23
 30
0.000000
  1
600
  0
POINT
  5
7DFF
  8
DEFPOINTS
  6
CONTINUOUS
 62
     0
 10
3930.1133180000002
 20
2514.278769
 30
0.0
  0
POINT
  5
7E00
  8
DEFPOINTS
  6
CONTINUOUS
 62
     0
 10
4530.1133179999997
 20
2256.3591849999998
 30
0.0
  0
POINT
  5
7E01
  8
DEFPOINTS
  6
CONTINUOUS
 62
     0
 10
4530.1133179999997
 20
2288.5311620000002
 30
0.0
  0
ENDBLK
  5
7C83
  8
0
  0
BLOCK
  8
0
  2
*D12
 70
     1
 10
0.0
 20
0.0
 30
0.0
  3
*D12
  1

  0
LINE
  5
7E02
  8
3
  6
CONTINUOUS
 62
     0
 10
4980.1133179999997
 20
2499.278769
 30
0.0
 11
4980.1133179999997
 21
2258.5311620000002
 31
0.0
  0
LINE
  5
7E03
  8
3
  6
CONTINUOUS
 62
     0
 10
4590.1133179999988
 20
2288.5311620000002
 30
0.0
 11
4920.1133179999997
 21
2288.5311620000002
 31
0.0
  0
INSERT
  5
7E04
  8
3
  6
CONTINUOUS
 62
     0
  2
_OPEN
 10
4530.1133179999997
 20
2288.5311620000002
 30
0.0
 41
60.0
 42
60.0
 43
60.0
 50
180.0
  0
INSERT
  5
7E05
  8
3
  6
CONTINUOUS
 62
     0
  2
_OPEN
 10
4980.1133179999997
 20
2288.5311620000002
 30
0.0
 41
60.0
 42
60.0
 43
60.0
  0
TEXT
  8
3
  40
90
  5
7E37
  62
0
  72
0
  71
0
 10
4575.11
 20
2204.23
 30
0.000000
  1
450
  0
POINT
  5
7E07
  8
DEFPOINTS
  6
CONTINUOUS
 62
     0
 10
4530.1133179999997
 20
2256.3591849999998
 30
0.0
  0
POINT
  5
7E08
  8
DEFPOINTS
  6
CONTINUOUS
 62
     0
 10
4980.1133179999997
 20
2514.278769
 30
0.0
  0
POINT
  5
7E09
  8
DEFPOINTS
  6
CONTINUOUS
 62
     0
 10
4980.1133179999997
 20
2288.5311620000002
 30
0.0
  0
ENDBLK
  5
7C8F
  8
0
  0
BLOCK
  8
0
  2
*D13
 70
     1
 10
0.0
 20
0.0
 30
0.0
  3
*D13
  1

  0
LINE
  5
7E0A
  8
3
  6
CONTINUOUS
 62
     0
 10
1289.9447339999999
 20
6138.9664069999999
 30
0.0
 11
1289.9447339999999
 21
6341.9103930000001
 31
0.0
  0
LINE
  5
7E0B
  8
3
  6
CONTINUOUS
 62
     0
 10
3089.9447340000002
 20
6138.9664069999999
 30
0.0
 11
3089.9447340000002
 21
6341.9103930000001
 31
0.0
  0
LINE
  5
7E0C
  8
3
  6
CONTINUOUS
 62
     0
 10
1349.9447339999999
 20
6311.9103930000001
 30
0.0
 11
3029.9447340000002
 21
6311.9103930000001
 31
0.0
  0
INSERT
  5
7E0D
  8
3
  6
CONTINUOUS
 62
     0
  2
_OPEN
 10
1289.9447339999999
 20
6311.9103930000001
 30
0.0
 41
60.0
 42
60.0
 43
60.0
 50
180.0
  0
INSERT
  5
7E0E
  8
3
  6
CONTINUOUS
 62
     0
  2
_OPEN
 10
3089.9447340000002
 20
6311.9103930000001
 30
0.0
 41
60.0
 42
60.0
 43
60.0
  0
TEXT
  8
3
  40
90
  5
7E38
  62
0
  72
0
  71
0
 10
1967.53
 20
6227.61
 30
0.000000
  1
1800
  0
POINT
  5
7E10
  8
DEFPOINTS
  6
CONTINUOUS
 62
     0
 10
1289.9447339999999
 20
6123.9664070000008
 30
0.0
  0
POINT
  5
7E11
  8
DEFPOINTS
  6
CONTINUOUS
 62
     0
 10
3089.9447340000002
 20
6123.9664070000008
 30
0.0
  0
POINT
  5
7E12
  8
DEFPOINTS
  6
CONTINUOUS
 62
     0
 10
3089.9447340000002
 20
6311.9103930000001
 30
0.0
  0
ENDBLK
  5
7CE0
  8
0
  0
BLOCK
  8
0
  2
*D14
 70
     1
 10
0.0
 20
0.0
 30
0.0
  3
*D14
  1

  0
LINE
  5
7E13
  8
3
  6
CONTINUOUS
 62
     0
 10
3104.9447340000002
 20
6123.9664070000008
 30
0.0
 11
3413.266579000001
 21
6123.9664070000008
 31
0.0
  0
LINE
  5
7E14
  8
3
  6
CONTINUOUS
 62
     0
 10
3104.9447340000002
 20
5073.9664069999999
 30
0.0
 11
3413.2665790000001
 21
5073.9664069999999
 31
0.0
  0
LINE
  5
7E15
  8
3
  6
CONTINUOUS
 62
     0
 10
3383.2665790000001
 20
6063.9664069999999
 30
0.0
 11
3383.2665790000001
 21
5133.966406999999
 31
0.0
  0
INSERT
  5
7E16
  8
3
  6
CONTINUOUS
 62
     0
  2
_OPEN
 10
3383.2665790000001
 20
6123.9664070000008
 30
0.0
 41
60.0
 42
60.0
 43
60.0
 50
90.0
  0
INSERT
  5
7E17
  8
3
  6
CONTINUOUS
 62
     0
  2
_OPEN
 10
3383.2665790000001
 20
5073.9664069999999
 30
0.0
 41
60.0
 42
60.0
 43
60.0
 50
270.0
  0
TEXT
  8
3
  40
90
  5
7E39
  62
0
  72
0
  71
0
 10
3128.27
 20
5448.63
 30
0.000000
  1
1050
  0
POINT
  5
7E19
  8
DEFPOINTS
  6
CONTINUOUS
 62
     0
 10
3089.9447340000002
 20
6123.9664070000008
 30
0.0
  0
POINT
  5
7E1A
  8
DEFPOINTS
  6
CONTINUOUS
 62
     0
 10
3089.9447340000002
 20
5073.9664069999999
 30
0.0
  0
POINT
  5
7E1B
  8
DEFPOINTS
  6
CONTINUOUS
 62
     0
 10
3383.2665790000001
 20
5073.9664069999999
 30
0.0
  0
ENDBLK
  5
7CA9
  8
0
  0
BLOCK
  8
0
  2
*D15
 70
     1
 10
0.0
 20
0.0
 30
0.0
  3
*D15
  1

  0
LINE
  5
7E1C
  8
3
  6
CONTINUOUS
 62
     0
 10
1401.6975578040399
 20
3289.852609
 30
0.0
 11
1401.6975578040399
 21
4355.3712269999996
 31
0.0
  0
LINE
  5
7E1D
  8
3
  6
CONTINUOUS
 62
     0
 10
1849.9447339999999
 20
4325.3712269999996
 30
0.0
 11
1461.6975578040399
 21
4325.3712269999996
 31
0.0
  0
INSERT
  5
7E1E
  8
3
  6
CONTINUOUS
 62
     0
  2
_OPEN
 10
1909.9447339999999
 20
4325.3712269999996
 30
0.0
 41
60.0
 42
60.0
 43
60.0
  0
INSERT
  5
7E1F
  8
3
  6
CONTINUOUS
 62
     0
  2
_OPEN
 10
1401.6975578040399
 20
4325.3712269999996
 30
0.0
 41
60.0
 42
60.0
 43
60.0
 50
180.0
  0
TEXT
  8
3
  40
90
  5
7E3A
  62
0
  72
0
  71
0
 10
1475.82
 20
4241.07
 30
0.000000
  1
508
  0
POINT
  5
7E21
  8
DEFPOINTS
  6
CONTINUOUS
 62
     0
 10
1909.9447339999999
 20
4356.3370380000006
 30
0.0
  0
POINT
  5
7E22
  8
DEFPOINTS
  6
CONTINUOUS
 62
     0
 10
1401.6975578040399
 20
3274.8526089999991
 30
0.0
  0
POINT
  5
7E23
  8
DEFPOINTS
  6
CONTINUOUS
 62
     0
 10
1401.6975578040399
 20
4325.3712269999996
 30
0.0
  0
ENDBLK
  5
7D4F
  8
0
  0
BLOCK
  8
0
  2
*D16
 70
     1
 10
0.0
 20
0.0
 30
0.0
  3
*D16
  1

  0
LINE
  5
7E24
  8
3
  6
CONTINUOUS
 62
     0
 10
4265.1133179999997
 20
3765.278769
 30
0.0
 11
4265.1133179999997
 21
4335.3658909999986
 31
0.0
  0
LINE
  5
7E25
  8
3
  6
CONTINUOUS
 62
     0
 10
4795.1133179999997
 20
3765.278769
 30
0.0
 11
4795.1133179999997
 21
4335.3658909999986
 31
0.0
  0
LINE
  5
7E26
  8
3
  6
CONTINUOUS
 62
     0
 10
4325.1133179999988
 20
4305.3658910000004
 30
0.0
 11
4735.1133179999988
 21
4305.3658910000004
 31
0.0
  0
INSERT
  5
7E27
  8
3
  6
CONTINUOUS
 62
     0
  2
_OPEN
 10
4265.1133179999997
 20
4305.3658910000004
 30
0.0
 41
60.0
 42
60.0
 43
60.0
 50
180.0
  0
INSERT
  5
7E28
  8
3
  6
CONTINUOUS
 62
     0
  2
_OPEN
 10
4795.1133179999997
 20
4305.3658910000004
 30
0.0
 41
60.0
 42
60.0
 43
60.0
  0
TEXT
  8
3
  40
90
  5
7E3B
  62
0
  72
0
  71
0
 10
4337.09
 20
4221.07
 30
0.000000
  1
530
  0
POINT
  5
7E2A
  8
DEFPOINTS
  6
CONTINUOUS
 62
     0
 10
4265.1133179999997
 20
3750.2787689999991
 30
0.0
  0
POINT
  5
7E2B
  8
DEFPOINTS
  6
CONTINUOUS
 62
     0
 10
4795.1133179999997
 20
3750.2787689999991
 30
0.0
  0
POINT
  5
7E2C
  8
DEFPOINTS
  6
CONTINUOUS
 62
     0
 10
4795.1133179999997
 20
4305.3658910000004
 30
0.0
  0
ENDBLK
  5
7D10
  8
0
  0
ENDSEC
  0
SECTION
  2
ENTITIES
  0
LINE
  5
7AD3
  8
1
  6
CONTINUOUS
 10
1439.9447339999999
 20
5990.9664069999999
 30
0.0
 11
2939.9447340000002
 21
5990.9664069999999
 31
0.0
  0
LINE
  5
7AD4
  8
1
  6
CONTINUOUS
 10
2059.9447340000002
 20
5230.9664069999999
 30
0.0
 11
2641.4247340000002
 21
5230.9664069999999
 31
0.0
  0
ARC
  5
7AD5
  8
1
  6
CONTINUOUS
 10
2721.4247340000002
 20
2949.852609
 30
0.0
 40
162.0
 50
324.97000000000003
 51
215.02999999999989
  0
LINE
  5
7AD6
  8
1
  6
CONTINUOUS
 10
2059.9447340000002
 20
3889.852609
 30
0.0
 11
2899.9447340000002
 21
3049.852609
 31
0.0
  0
LINE
  5
7AD7
  8
1
  6
CONTINUOUS
 10
2888.4047340000002
 20
5829.1764069999999
 30
0.0
 11
2599.9847340000001
 21
5829.1764069999999
 31
0.0
  0
LINE
  5
7AD8
  8
1
  6
CONTINUOUS
 10
2888.4047340000002
 20
5373.2364070000003
 30
0.0
 11
2559.4247340000002
 21
5373.2364070000003
 31
0.0
  0
LINE
  5
7AD9
  8
1
  6
CONTINUOUS
 10
1539.9447339999999
 20
5173.9664069999999
 30
0.0
 11
2899.9447340000002
 21
5173.9664069999999
 31
0.0
  0
LINE
  5
7ADA
  8
1
  6
CONTINUOUS
 10
1539.9447339999999
 20
5313.9664069999999
 30
0.0
 11
2899.9447340000002
 21
5313.9664069999999
 31
0.0
  0
LINE
  5
7ADB
  8
1
  6
CONTINUOUS
 10
1439.9447339999999
 20
2749.852609
 30
0.0
 11
2939.9447340000002
 21
2749.852609
 31
0.0
  0
LINE
  5
7ADC
  8
1
  6
CONTINUOUS
 10
1439.9447339999999
 20
2649.852609
 30
0.0
 11
2939.9447340000002
 21
2649.852609
 31
0.0
  0
LINE
  5
7ADD
  8
1
  6
CONTINUOUS
 10
1835.944733999999
 20
3809.852609
 30
0.0
 11
2645.9447340000002
 21
3809.852609
 31
0.0
  0
POLYLINE
  5
7ADE
  8
1
  6
CONTINUOUS
 66
     1
 10
0.0
 20
0.0
 30
0.0
  0
VERTEX
  5
7DA2
  8
1
  6
CONTINUOUS
 10
2605.9447340000002
 20
3809.852609
 30
0.0
  0
VERTEX
  5
7DA3
  8
1
  6
CONTINUOUS
 10
2589.9447340000002
 20
3274.8526089999991
 30
0.0
 42
-0.4200000000000001
  0
VERTEX
  5
7DA4
  8
1
  6
CONTINUOUS
 10
1898.154734
 20
2689.832609
 30
0.0
 42
-0.43
  0
VERTEX
  5
7DA5
  8
1
  6
CONTINUOUS
 10
1405.1747339999999
 20
3306.7726090000001
 30
0.0
 42
-0.37
  0
VERTEX
  5
7DA6
  8
1
  6
CONTINUOUS
 10
1875.9447339999999
 20
3723.622609
 30
0.0
 42
-0.34
  0
SEQEND
  5
7DA7
  8
1
  6
CONTINUOUS
  0
LINE
  5
7AE5
  8
1
  6
CONTINUOUS
 10
1865.5047340000001
 20
3131.582609
 30
0.0
 11
2697.7147340000001
 21
2873.4426090000002
 31
0.0
  0
LINE
  5
7AE6
  8
1
  6
CONTINUOUS
 10
1976.684733999999
 20
3409.182609
 30
0.0
 11
2757.0147339999999
 21
3021.4926089999999
 31
0.0
  0
LINE
  5
7AE7
  8
1
  6
CONTINUOUS
 10
1289.9447339999999
 20
2573.852609
 30
0.0
 11
3089.9447340000002
 21
2573.852609
 31
0.0
  0
LINE
  5
7AE8
  8
1
  6
CONTINUOUS
 10
1289.9447339999999
 20
4223.8526089999996
 30
0.0
 11
3089.9447340000002
 21
4223.8526089999996
 31
0.0
  0
LINE
  5
7AE9
  8
1
  6
CONTINUOUS
 10
3089.9447340000002
 20
5073.9664069999999
 30
0.0
 11
1289.9447339999999
 21
5073.9664069999999
 31
0.0
  0
LINE
  5
7AEA
  8
1
  6
CONTINUOUS
 10
3089.9447340000002
 20
6123.9664070000008
 30
0.0
 11
1289.9447339999999
 21
6123.9664070000008
 31
0.0
  0
LINE
  5
7AEB
  8
1
  6
CONTINUOUS
 10
1339.9447339999999
 20
4173.8526089999996
 30
0.0
 11
3039.9447340000002
 21
4173.8526089999996
 31
0.0
  0
LINE
  5
7AEC
  8
1
  6
CONTINUOUS
 10
3039.9447340000002
 20
2623.852609
 30
0.0
 11
1339.9447339999999
 21
2623.852609
 31
0.0
  0
LINE
  5
7AED
  8
1
  6
CONTINUOUS
 10
1339.9447339999999
 20
5123.9664070000008
 30
0.0
 11
3039.9447340000002
 21
5123.9664070000008
 31
0.0
  0
LINE
  5
7AEE
  8
1
  6
CONTINUOUS
 10
3039.9447340000002
 20
6073.9664069999999
 30
0.0
 11
1339.9447339999999
 21
6073.9664069999999
 31
0.0
  0
LINE
  5
7AEF
  8
1
  6
CONTINUOUS
 10
1400.574734
 20
5408.9664069999999
 30
0.0
 11
1400.574734
 21
5938.9664069999999
 31
0.0
  0
LINE
  5
7AF0
  8
1
  6
CONTINUOUS
 10
1869.984733999999
 20
5408.9664069999999
 30
0.0
 11
1869.984733999999
 21
5938.9664069999999
 31
0.0
  0
LINE
  5
7AF1
  8
1
  6
CONTINUOUS
 10
2599.9847340000001
 20
5408.9664069999999
 30
0.0
 11
2599.9847340000001
 21
5938.9664069999999
 31
0.0
  0
LINE
  5
7AF2
  8
1
  6
CONTINUOUS
 10
2599.9847340000001
 20
5938.9664069999999
 30
0.0
 11
1869.984733999999
 21
5408.9664069999999
 31
0.0
  0
LINE
  5
7AF3
  8
1
  6
CONTINUOUS
 10
2599.9847340000001
 20
5408.9664069999999
 30
0.0
 11
1869.984733999999
 21
5938.9664069999999
 31
0.0
  0
LINE
  5
7AF4
  8
1
  6
CONTINUOUS
 10
1289.9447339999999
 20
6123.9664070000008
 30
0.0
 11
1289.9447339999999
 21
5073.9664069999999
 31
0.0
  0
LINE
  5
7AF5
  8
1
  6
CONTINUOUS
 10
1339.9447339999999
 20
6073.9664069999999
 30
0.0
 11
1339.9447339999999
 21
5123.9664070000008
 31
0.0
  0
LINE
  5
7AF6
  8
1
  6
CONTINUOUS
 10
1539.9447339999999
 20
2749.852609
 30
0.0
 11
1539.9447339999999
 21
3889.852609
 31
0.0
  0
LINE
  5
7AF7
  8
1
  6
CONTINUOUS
 10
1875.9447339999999
 20
3723.622609
 30
0.0
 11
1875.9447339999999
 21
3809.852609
 31
0.0
  0
LINE
  5
7AFA
  8
1
  6
CONTINUOUS
 10
1289.9447339999999
 20
4223.8526089999996
 30
0.0
 11
1289.9447339999999
 21
2573.852609
 31
0.0
  0
LINE
  5
7AFB
  8
1
  6
CONTINUOUS
 10
1339.9447339999999
 20
2623.852609
 30
0.0
 11
1339.9447339999999
 21
4173.8526089999996
 31
0.0
  0
LINE
  5
7AFE
  8
1
  6
CONTINUOUS
 10
1439.9447339999999
 20
2749.852609
 30
0.0
 11
1439.9447339999999
 21
2649.852609
 31
0.0
  0
CIRCLE
  5
7AFF
  8
1
  6
CONTINUOUS
 10
1909.9447339999999
 20
3274.8526089999991
 30
0.0
 40
150.0
  0
LINE
  5
7B00
  8
1
  6
CONTINUOUS
 10
2567.4247340000002
 20
2807.852609
 30
0.0
 11
2588.7647339999999
 21
2856.8626089999998
 31
0.0
  0
LINE
  5
7B01
  8
1
  6
CONTINUOUS
 10
2567.4247340000002
 20
2749.852609
 30
0.0
 11
2567.4247340000002
 21
2807.852609
 31
0.0
  0
LINE
  5
7B02
  8
2
  6
CENTER
 10
1160.9455359999999
 20
3274.8526089999991
 30
0.0
 11
3187.938905
 21
3274.8526089999991
 31
0.0
  0
LINE
  5
7B03
  8
2
  6
CENTER
 10
1909.9447339999999
 20
6193.523443
 30
0.0
 11
1909.9447339999999
 21
4981.8623559999996
 31
0.0
  0
LINE
  5
7B04
  8
1
  6
CONTINUOUS
 10
1539.9447339999999
 20
3889.852609
 30
0.0
 11
2059.9447340000002
 21
3889.852609
 31
0.0
  0
LINE
  5
7B05
  8
1
  6
CONTINUOUS
 10
1439.9447339999999
 20
5230.9664069999999
 30
0.0
 11
1759.9447339999999
 21
5230.9664069999999
 31
0.0
  0
LINE
  5
7B06
  8
1
  6
CONTINUOUS
 10
2599.9847340000001
 20
5408.9664069999999
 30
0.0
 11
1400.574734
 21
5408.9664069999999
 31
0.0
  0
LINE
  5
7B08
  8
1
  6
CONTINUOUS
 10
1439.9447339999999
 20
5408.9664069999999
 30
0.0
 11
1439.9447339999999
 21
5230.9664069999999
 31
0.0
  0
LINE
  5
7B09
  8
1
  6
CONTINUOUS
 10
1539.9447339999999
 20
5173.9664069999999
 30
0.0
 11
1539.9447339999999
 21
5313.9664069999999
 31
0.0
  0
LINE
  5
7B0A
  8
1
  6
CONTINUOUS
 10
2559.4247340000002
 20
5373.2364070000003
 30
0.0
 11
2559.4247340000002
 21
5408.9664069999999
 31
0.0
  0
LINE
  5
7B0B
  8
1
  6
CONTINUOUS
 10
2059.9447340000002
 20
5203.9664069999999
 30
0.0
 11
2059.9447340000002
 21
5283.9664069999999
 31
0.0
  0
LINE
  5
7B0C
  8
1
  6
CONTINUOUS
 10
1759.9447339999999
 20
5203.9664069999999
 30
0.0
 11
1759.9447339999999
 21
5283.9664069999999
 31
0.0
  0
LINE
  5
7B0D
  8
1
  6
CONTINUOUS
 10
1759.9447339999999
 20
5203.9664069999999
 30
0.0
 11
2059.9447340000002
 21
5203.9664069999999
 31
0.0
  0
LINE
  5
7B0E
  8
1
  6
CONTINUOUS
 10
1759.9447339999999
 20
5283.9664069999999
 30
0.0
 11
2059.9447340000002
 21
5283.9664069999999
 31
0.0
  0
LINE
  5
7B0F
  8
1
  6
CONTINUOUS
 10
1930.944733999999
 20
5283.9664069999999
 30
0.0
 11
1930.944733999999
 21
5408.9664069999999
 31
0.0
  0
LINE
  5
7B10
  8
1
  6
CONTINUOUS
 10
1888.9447339999999
 20
5283.9664069999999
 30
0.0
 11
1888.9447339999999
 21
5408.9664069999999
 31
0.0
  0
LINE
  5
7B11
  8
1
  6
CONTINUOUS
 10
1875.9447339999999
 20
3779.852609
 30
0.0
 11
2605.0447340000001
 21
3779.852609
 31
0.0
  0
LINE
  5
7B12
  8
1
  6
CONTINUOUS
 10
2599.9847340000001
 20
5938.9664069999999
 30
0.0
 11
1400.574734
 21
5938.9664069999999
 31
0.0
  0
LINE
  5
7B13
  8
1
  6
CONTINUOUS
 10
1439.9447339999999
 20
5990.9664069999999
 30
0.0
 11
1439.9447339999999
 21
5938.9664069999999
 31
0.0
  0
LINE
  5
7B14
  8
1
  6
CONTINUOUS
 10
2888.4047340000002
 20
5373.2364070000003
 30
0.0
 11
2888.4047340000002
 21
5829.1764069999999
 31
0.0
  0
LINE
  5
7B15
  8
1
  6
CONTINUOUS
 10
2939.9447340000002
 20
5990.9664069999999
 30
0.0
 11
2939.9447340000002
 21
5230.9664069999999
 31
0.0
  0
LINE
  5
7B16
  8
1
  6
CONTINUOUS
 10
3089.9447340000002
 20
6123.9664070000008
 30
0.0
 11
3089.9447340000002
 21
5073.9664069999999
 31
0.0
  0
LINE
  5
7B20
  8
1
  6
CONTINUOUS
 10
3039.9447340000002
 20
5123.9664070000008
 30
0.0
 11
3039.9447340000002
 21
6073.9664069999999
 31
0.0
  0
LINE
  5
7B23
  8
1
  6
CONTINUOUS
 10
4980.1133179999997
 20
2514.278769
 30
0.0
 11
3930.1133180000002
 21
2514.278769
 31
0.0
  0
LINE
  5
7B24
  8
1
  6
CONTINUOUS
 10
4980.1133179999997
 20
4164.2787689999996
 30
0.0
 11
3930.1133180000002
 21
4164.2787689999996
 31
0.0
  0
LINE
  5
7B25
  8
1
  6
CONTINUOUS
 10
4847.1133179999988
 20
2690.278769
 30
0.0
 11
4030.1133180000002
 21
2690.278769
 31
0.0
  0
LINE
  5
7B26
  8
1
  6
CONTINUOUS
 10
4847.1133179999988
 20
2590.278769
 30
0.0
 11
4087.1133180000002
 21
2590.278769
 31
0.0
  0
LINE
  5
7B27
  8
1
  6
CONTINUOUS
 10
4835.1133179999997
 20
3750.2787689999991
 30
0.0
 11
4225.1133179999997
 21
3750.2787689999991
 31
0.0
  0
LINE
  5
7B28
  8
1
  6
CONTINUOUS
 10
4930.1133179999997
 20
4114.2787689999996
 30
0.0
 11
3980.1133180000002
 21
4114.2787689999996
 31
0.0
  0
LINE
  5
7B29
  8
1
  6
CONTINUOUS
 10
3980.1133180000002
 20
2564.278769
 30
0.0
 11
4930.1133179999997
 21
2564.278769
 31
0.0
  0
LINE
  5
7B47
  8
1
  6
CONTINUOUS
 10
3089.9447340000002
 20
4223.8526089999996
 30
0.0
 11
3089.9447340000002
 21
2573.852609
 31
0.0
  0
LINE
  5
7B4A
  8
1
  6
CONTINUOUS
 10
3039.9447340000002
 20
4173.8526089999996
 30
0.0
 11
3039.9447340000002
 21
2623.852609
 31
0.0
  0
LINE
  5
7B4C
  8
2
  6
CENTER
 10
2721.4247340000002
 20
2869.852609
 30
0.0
 11
2721.4247340000002
 21
3029.852609
 31
0.0
  0
LINE
  5
7B4D
  8
2
  6
CENTER
 10
2801.4247340000002
 20
2949.852609
 30
0.0
 11
2641.4247340000002
 21
2949.852609
 31
0.0
  0
LINE
  5
7B4E
  8
1
  6
CONTINUOUS
 10
2875.4247340000002
 20
2749.852609
 30
0.0
 11
2875.4247340000002
 21
2807.852609
 31
0.0
  0
LINE
  5
7B4F
  8
1
  6
CONTINUOUS
 10
2875.4247340000002
 20
2807.852609
 30
0.0
 11
2854.0747339999998
 21
2856.8626089999998
 31
0.0
  0
CIRCLE
  5
7B50
  8
1
  6
CONTINUOUS
 10
2721.4247340000002
 20
2949.852609
 30
0.0
 40
80.0
  0
LINE
  5
7B51
  8
1
  6
CONTINUOUS
 10
2899.9447340000002
 20
2749.852609
 30
0.0
 11
2899.9447340000002
 21
3049.852609
 31
0.0
  0
LINE
  5
7B52
  8
1
  6
CONTINUOUS
 10
2939.9447340000002
 20
2749.852609
 30
0.0
 11
2939.9447340000002
 21
2649.852609
 31
0.0
  0
LINE
  5
7B5D
  8
1
  6
CONTINUOUS
 10
2801.4247340000002
 20
5230.9664069999999
 30
0.0
 11
2939.9447340000002
 21
5230.9664069999999
 31
0.0
  0
LINE
  5
7B5E
  8
1
  6
CONTINUOUS
 10
2700.4247340000002
 20
5283.9664069999999
 30
0.0
 11
2700.4247340000002
 21
5373.2364070000003
 31
0.0
  0
LINE
  5
7B5F
  8
1
  6
CONTINUOUS
 10
2742.4247340000002
 20
5283.9664069999999
 30
0.0
 11
2742.4247340000002
 21
5373.2364070000003
 31
0.0
  0
LINE
  5
7B60
  8
1
  6
CONTINUOUS
 10
2899.9447340000002
 20
5173.9664069999999
 30
0.0
 11
2899.9447340000002
 21
5313.9664069999999
 31
0.0
  0
LINE
  5
7B61
  8
1
  6
CONTINUOUS
 10
2801.4247340000002
 20
5203.9664069999999
 30
0.0
 11
2801.4247340000002
 21
5283.9664069999999
 31
0.0
  0
LINE
  5
7B62
  8
1
  6
CONTINUOUS
 10
2641.4247340000002
 20
5203.9664069999999
 30
0.0
 11
2641.4247340000002
 21
5283.9664069999999
 31
0.0
  0
LINE
  5
7B63
  8
1
  6
CONTINUOUS
 10
2641.4247340000002
 20
5203.9664069999999
 30
0.0
 11
2801.4247340000002
 21
5203.9664069999999
 31
0.0
  0
LINE
  5
7B64
  8
1
  6
CONTINUOUS
 10
2641.4247340000002
 20
5283.9664069999999
 30
0.0
 11
2801.4247340000002
 21
5283.9664069999999
 31
0.0
  0
LINE
  5
7B70
  8
1
  6
CONTINUOUS
 10
3930.1133180000002
 20
4164.2787689999996
 30
0.0
 11
3930.1133180000002
 21
2514.278769
 31
0.0
  0
LINE
  5
7B73
  8
1
  6
CONTINUOUS
 10
4170.1133179999997
 20
3830.2787689999991
 30
0.0
 11
4170.1133179999997
 21
2690.278769
 31
0.0
  0
LINE
  5
7B74
  8
1
  6
CONTINUOUS
 10
4030.1133180000002
 20
3830.2787689999991
 30
0.0
 11
4030.1133180000002
 21
2690.278769
 31
0.0
  0
LINE
  5
7B76
  8
1
  6
CONTINUOUS
 10
4265.1133179999997
 20
3750.2787689999991
 30
0.0
 11
4265.1133179999997
 21
2690.278769
 31
0.0
  0
LINE
  5
7B78
  8
1
  6
CONTINUOUS
 10
3980.1133180000002
 20
4114.2787689999996
 30
0.0
 11
3980.1133180000002
 21
2564.278769
 31
0.0
  0
LINE
  5
7B7D
  8
1
  6
CONTINUOUS
 10
4140.1133179999997
 20
3236.278769
 30
0.0
 11
4265.1133179999997
 21
3236.278769
 31
0.0
  0
LINE
  5
7B7E
  8
1
  6
CONTINUOUS
 10
4140.1133179999997
 20
3194.278769
 30
0.0
 11
4265.1133179999997
 21
3194.278769
 31
0.0
  0
LINE
  5
7B7F
  8
1
  6
CONTINUOUS
 10
4140.1133179999997
 20
2829.278769
 30
0.0
 11
4265.1133179999997
 21
2829.278769
 31
0.0
  0
LINE
  5
7B80
  8
1
  6
CONTINUOUS
 10
4140.1133179999997
 20
2871.2787689999991
 30
0.0
 11
4265.1133179999997
 21
2871.2787689999991
 31
0.0
  0
LINE
  5
7B81
  8
1
  6
CONTINUOUS
 10
4060.1133180000002
 20
2930.278769
 30
0.0
 11
4140.1133179999997
 21
2930.278769
 31
0.0
  0
LINE
  5
7B82
  8
1
  6
CONTINUOUS
 10
4060.1133180000002
 20
2770.278769
 30
0.0
 11
4140.1133179999997
 21
2770.278769
 31
0.0
  0
LINE
  5
7B83
  8
1
  6
CONTINUOUS
 10
4060.1133180000002
 20
3365.2787689999991
 30
0.0
 11
4140.1133179999997
 21
3365.2787689999991
 31
0.0
  0
LINE
  5
7B84
  8
1
  6
CONTINUOUS
 10
4060.1133180000002
 20
3065.278769
 30
0.0
 11
4140.1133179999997
 21
3065.278769
 31
0.0
  0
LINE
  5
7B85
  8
1
  6
CONTINUOUS
 10
4060.1133180000002
 20
2770.278769
 30
0.0
 11
4060.1133180000002
 21
2930.278769
 31
0.0
  0
LINE
  5
7B86
  8
1
  6
CONTINUOUS
 10
4140.1133179999997
 20
2770.278769
 30
0.0
 11
4140.1133179999997
 21
2930.278769
 31
0.0
  0
LINE
  5
7B87
  8
1
  6
CONTINUOUS
 10
4060.1133180000002
 20
3065.278769
 30
0.0
 11
4060.1133180000002
 21
3365.2787689999991
 31
0.0
  0
LINE
  5
7B88
  8
1
  6
CONTINUOUS
 10
4140.1133179999997
 20
3065.278769
 30
0.0
 11
4140.1133179999997
 21
3365.2787689999991
 31
0.0
  0
LINE
  5
7B89
  8
1
  6
CONTINUOUS
 10
4087.1133180000002
 20
2690.278769
 30
0.0
 11
4087.1133180000002
 21
2590.278769
 31
0.0
  0
LINE
  5
7B96
  8
1
  6
CONTINUOUS
 10
4170.1133179999997
 20
3830.2787689999991
 30
0.0
 11
4030.1133180000002
 21
3830.2787689999991
 31
0.0
  0
LINE
  5
7B97
  8
1
  6
CONTINUOUS
 10
4980.1133179999997
 20
4164.2787689999996
 30
0.0
 11
4980.1133179999997
 21
2514.278769
 31
0.0
  0
LINE
  5
7B98
  8
1
  6
CONTINUOUS
 10
4795.1133179999997
 20
3750.2787689999991
 30
0.0
 11
4795.1133179999997
 21
2690.278769
 31
0.0
  0
LINE
  5
7B99
  8
1
  6
CONTINUOUS
 10
4930.1133179999997
 20
2564.278769
 30
0.0
 11
4930.1133179999997
 21
4114.2787689999996
 31
0.0
  0
LINE
  5
7B9A
  8
1
  6
CONTINUOUS
 10
4847.1133179999988
 20
2690.278769
 30
0.0
 11
4847.1133179999988
 21
2590.278769
 31
0.0
  0
LINE
  5
7BA1
  8
2
  6
CENTER
 10
3166.3505220000002
 20
5673.9664069999999
 30
0.0
 11
1146.0411699999991
 21
5673.9664069999999
 31
0.0
  0
LINE
  5
7BA2
  8
2
  6
CENTER
 10
4530.1133179999997
 20
4539.1700309999997
 30
0.0
 11
4530.1133179999997
 21
4495.1138709999996
 31
0.0
  0
LINE
  5
7BA3
  8
2
  6
CENTER
 10
3825.0251909999988
 20
3274.8526089999991
 30
0.0
 11
5062.6303020000014
 21
3274.8526089999991
 31
0.0
  0
LINE
  5
7BA4
  8
2
  6
CENTER
 10
1909.9447339999999
 20
4356.3370380000006
 30
0.0
 11
1909.9447339999999
 21
2514.2207509999998
 31
0.0
  0
LINE
  5
7BA5
  8
4
  6
CONTINUOUS
 10
5550.0
 20
1500.0
 30
0.0
 11
5550.0
 21
900.0
 31
0.0
  0
LINE
  5
7BA6
  8
4
  6
CONTINUOUS
 10
3450.0
 20
1500.0
 30
0.0
 11
3450.0
 21
900.0
 31
0.0
  0
LINE
  5
7BA7
  8
4
  6
CONTINUOUS
 10
1950.0
 20
1500.0
 30
0.0
 11
1950.0
 21
900.0
 31
0.0
  0
LINE
  5
7BAA
  8
4
  6
CONTINUOUS
 10
1950.0
 20
900.0
 30
0.0
 11
5550.0
 21
900.0
 31
0.0
  0
LINE
  5
7BAB
  8
4
  6
CONTINUOUS
 10
1950.0
 20
1200.0
 30
0.0
 11
5550.0
 21
1200.0
 31
0.0
  0
TEXT
  5
7BAC
  8
4
  6
CONTINUOUS
 10
2065.5062429999989
 20
1294.6290779999999
 30
0.0
 40
150.0
  1
機器名称
  0
TEXT
  5
7BAD
  8
4
  6
CONTINUOUS
 10
2058.7743179999989
 20
964.9354699999999
 30
0.0
 40
150.0
  1
機器型番
  0
TEXT
  5
7BAE
  8
4
  6
CONTINUOUS
 10
3533.0362359999999
 20
1267.7153069999999
 30
0.0
 40
150.0
  1
ミツヤ多翼送風機
  0
TEXT
  5
7BAF
  8
4
  6
CONTINUOUS
 10
3559.9634869999991
 20
951.47875299999987
 30
0.0
 40
150.0
  1
MF#4 1/2-4
  0
TEXT
  5
7BB1
  8
4
  6
CONTINUOUS
 10
2187.7055989999999
 20
7150.2865239999992
 30
0.0
 40
162.0
  1
天井吊枠防振ベット
  0
TEXT
  5
7BB2
  8
4
  6
CONTINUOUS
 10
948.50278000000014
 20
7601.6429289999996
 30
0.0
 40
216.0
  1
ベルト駆動式片吸込両持多翼ファン
  0
LINE
  5
7BB3
  8
4
  6
CONTINUOUS
 10
750.0
 20
7408.2262629999996
 30
0.0
 11
5550.0
 21
7408.2262629999996
 31
0.0
  0
LINE
  5
7BB4
  8
4
  6
CONTINUOUS
 10
750.0
 20
8008.2262629999996
 30
0.0
 11
5550.0
 21
8008.2262629999996
 31
0.0
  0
LINE
  5
7BB5
  8
4
  6
CONTINUOUS
 10
1950.0
 20
1500.0
 30
0.0
 11
5550.0
 21
1500.0
 31
0.0
  0
LINE
  5
7BB6
  8
4
  6
CONTINUOUS
 10
750.0
 20
8008.2262629999996
 30
0.0
 11
750.0
 21
7408.2262629999996
 31
0.0
  0
TEXT
  5
7BB7
  8
4
  6
CONTINUOUS
 10
880.12910199999999
 20
7146.9584329999998
 30
0.0
 40
162.0
  1
左回転上向
  0
TEXT
  5
7BB8
  8
4
  6
CONTINUOUS
 10
4406.9086779999989
 20
8118.1832439999989
 30
0.0
 40
168.0
  1
No.
  0
TEXT
  5
7BB9
  8
4
  6
CONTINUOUS
 10
4150.7447630000006
 20
7150.2865239999992
 30
0.0
 40
162.0
  1
縮尺：1/30
  0
LINE
  5
7BBA
  8
4
  6
CONTINUOUS
 10
5550.0
 20
8008.2262629999996
 30
0.0
 11
5550.0
 21
7408.2262629999996
 31
0.0
  0
LINE
  5
7BBC
  8
4
  6
CONTINUOUS
 10
4321.8522670000002
 20
8043.7907490000007
 30
0.0
 11
4321.8522670000002
 21
8359.9567849999985
 31
0.0
  0
LINE
  5
7BBD
  8
4
  6
CONTINUOUS
 10
4321.8522670000002
 20
8359.9567849999985
 30
0.0
 11
5550.0
 21
8359.9567849999985
 31
0.0
  0
LINE
  5
7BBE
  8
4
  6
CONTINUOUS
 10
5550.0
 20
8359.9567849999985
 30
0.0
 11
5550.0
 21
8043.7907490000007
 31
0.0
  0
LINE
  5
7BBF
  8
4
  6
CONTINUOUS
 10
5550.0
 20
8043.7907490000007
 30
0.0
 11
4321.8522670000002
 21
8043.7907490000007
 31
0.0
  0
DIMENSION
  5
7BD7
  8
3
  6
CONTINUOUS
  2
*D1
 10
1875.9447339999999
 20
3962.5590769999999
 30
0.0
 11
2237.3407889999999
 21
3962.5590769999999
 31
0.0
 70
   128
 13
2605.9447340000002
 23
3809.852609
 33
0.0
 14
1875.9447339999999
 24
3809.852609
 34
0.0
1001
ACAD
1000
DSTYLE
1002
{
1070
   287
1070
     3
1070
    40
1040
30.0
1070
   143
1040
0.039
1070
   172
1070
     1
1070
   271
1070
     0
1070
   279
1070
     0
1070
   288
1070
     1
1002
}
  0
DIMENSION
  5
7BE4
  8
3
  6
CONTINUOUS
  2
*D2
 10
1909.9447339999999
 20
4325.3712269999996
 30
0.0
 11
2230.9709959999991
 21
4325.3712269999996
 31
0.0
 70
   128
 13
2605.9447340000002
 23
3809.852609
 33
0.0
 14
1909.9447339999999
 24
4356.3370380000006
 34
0.0
1001
ACAD
1000
DSTYLE
1002
{
1070
   287
1070
     3
1070
    40
1040
30.0
1070
   143
1040
0.039
1070
   172
1070
     1
1070
   271
1070
     0
1070
   279
1070
     0
1070
   288
1070
     1
1002
}
  0
DIMENSION
  5
7C0A
  8
3
  6
CONTINUOUS
  2
*D3
 10
1115.6231740000001
 20
3274.8526089999991
 30
0.0
 11
1115.6231740000001
 21
3542.460822
 31
0.0
 70
   128
 13
1835.944733999999
 23
3809.852609
 33
0.0
 14
1160.9455359999999
 24
3274.8526089999991
 34
0.0
 50
90.0
1001
ACAD
1000
DSTYLE
1002
{
1070
   287
1070
     3
1070
    40
1040
30.0
1070
   143
1040
0.039
1070
   172
1070
     1
1070
   271
1070
     0
1070
   279
1070
     0
1070
   288
1070
     1
1002
}
  0
DIMENSION
  5
7C16
  8
3
  6
CONTINUOUS
  2
*D4
 10
1115.6231740000001
 20
2649.852609
 30
0.0
 11
1040.6231739999989
 21
2962.352609
 31
0.0
 70
     0
 13
1160.9455359999999
 23
3274.8526089999991
 33
0.0
 14
1439.9447339999999
 24
2649.852609
 34
0.0
 50
90.0
1001
ACAD
1000
DSTYLE
1002
{
1070
   287
1070
     4
1070
    40
1040
30.0
1070
    75
1070
     1
1070
   143
1040
0.039
1070
   172
1070
     1
1070
   271
1070
     0
1070
   279
1070
     1
1070
   288
1070
     1
1002
}
  0
DIMENSION
  5
7C26
  8
3
  6
CONTINUOUS
  2
*D5
 10
1115.6231740000001
 20
2573.852609
 30
0.0
 11
1115.6231740000001
 21
2353.1383232857152
 31
0.0
 70
   128
 13
1439.9447339999999
 23
2649.852609
 33
0.0
 14
1289.9447339999999
 24
2573.852609
 34
0.0
 50
90.0
1001
ACAD
1000
DSTYLE
1002
{
1070
   287
1070
     3
1070
    40
1040
30.0
1070
   143
1040
0.039
1070
   172
1070
     1
1070
   271
1070
     0
1070
   279
1070
     0
1070
   288
1070
     1
1002
}
  0
DIMENSION
  5
7C33
  8
3
  6
CONTINUOUS
  2
*D6
 10
1909.9447339999999
 20
2339.452162
 30
0.0
 11
1586.9872419999999
 21
2339.452162
 31
0.0
 70
   128
 13
1289.9447339999999
 23
2573.852609
 33
0.0
 14
1909.9447339999999
 24
2514.2207509999998
 34
0.0
1001
ACAD
1000
DSTYLE
1002
{
1070
   287
1070
     3
1070
    40
1040
30.0
1070
   143
1040
0.039
1070
   172
1070
     1
1070
   271
1070
     0
1070
   279
1070
     0
1070
   288
1070
     1
1002
}
  0
DIMENSION
  5
7C3F
  8
3
  6
CONTINUOUS
  2
*D7
 10
3089.9447340000002
 20
2339.452162
 30
0.0
 11
2499.9447340000002
 21
2414.452162
 31
0.0
 70
     0
 13
1909.9447339999999
 23
2514.2207509999998
 33
0.0
 14
3089.9447340000002
 24
2573.852609
 34
0.0
1001
ACAD
1000
DSTYLE
1002
{
1070
   287
1070
     4
1070
    40
1040
30.0
1070
    75
1070
     1
1070
   143
1040
0.039
1070
   172
1070
     1
1070
   271
1070
     0
1070
   279
1070
     1
1070
   288
1070
     1
1002
}
  0
LINE
  5
7C4D
  8
1
  6
CONTINUOUS
 10
4797.1133179999997
 20
3651.852609
 30
0.0
 11
4797.1133179999997
 21
2897.852609
 31
0.0
  0
DIMENSION
  5
7C5C
  8
3
  6
CONTINUOUS
  2
*D8
 10
5234.6144870000007
 20
2897.8526089999991
 30
0.0
 11
5234.6144869999989
 21
3275.1255689999998
 31
0.0
 70
   128
 13
4797.1133179999997
 23
3651.852609
 33
0.0
 14
4797.1133179999997
 24
2897.852609
 34
0.0
 50
90.0
1001
ACAD
1000
DSTYLE
1002
{
1070
   287
1070
     3
1070
     3
1000
φ<>
1070
    40
1040
30.0
1070
   143
1040
0.039
1070
   172
1070
     1
1070
   271
1070
     0
1070
   279
1070
     0
1070
   288
1070
     1
1002
}
  0
DIMENSION
  5
7C6A
  8
3
  6
CONTINUOUS
  2
*D9
 10
4530.1133179999997
 20
4573.2895560000006
 30
0.0
 11
4674.6963360387554
 21
4678.5894042995487
 31
0.0
 70
   128
 13
4797.1133179999997
 23
3651.852609
 33
0.0
 14
4530.1133179999997
 24
4539.1700309999997
 34
0.0
1001
ACAD
1000
DSTYLE
1002
{
1070
   288
1070
     1
1070
   172
1070
     1
1070
    40
1040
30.0
1070
   271
1070
     0
1070
   143
1040
0.039
1002
}
  0
DIMENSION
  5
7C77
  8
3
  6
CONTINUOUS
  2
*D10
 10
3718.605688000001
 20
2514.278769
 30
0.0
 11
3718.6056880000001
 21
3364.2373200000002
 31
0.0
 70
   128
 13
3930.1133180000002
 23
4164.2787689999996
 33
0.0
 14
3930.1133180000002
 24
2514.278769
 34
0.0
 50
90.0
1001
ACAD
1000
DSTYLE
1002
{
1070
   287
1070
     3
1070
    40
1040
30.0
1070
   143
1040
0.039
1070
   172
1070
     1
1070
   271
1070
     0
1070
   279
1070
     0
1070
   288
1070
     1
1002
}
  0
DIMENSION
  5
7C84
  8
3
  6
CONTINUOUS
  2
*D11
 10
4530.1133179999997
 20
2288.5311620000002
 30
0.0
 11
4234.5582430000013
 21
2288.5311620000002
 31
0.0
 70
   128
 13
3930.1133180000002
 23
2514.278769
 33
0.0
 14
4530.1133179999997
 24
2256.3591849999998
 34
0.0
1001
ACAD
1000
DSTYLE
1002
{
1070
   287
1070
     3
1070
    40
1040
30.0
1070
   143
1040
0.039
1070
   172
1070
     1
1070
   271
1070
     0
1070
   279
1070
     0
1070
   288
1070
     1
1002
}
  0
DIMENSION
  5
7C90
  8
3
  6
CONTINUOUS
  2
*D12
 10
4980.1133179999997
 20
2288.5311620000002
 30
0.0
 11
4755.1133179999997
 21
2363.5311620000002
 31
0.0
 70
     0
 13
4530.1133179999997
 23
2256.3591849999998
 33
0.0
 14
4980.1133179999997
 24
2514.278769
 34
0.0
1001
ACAD
1000
DSTYLE
1002
{
1070
   287
1070
     4
1070
    40
1040
30.0
1070
    75
1070
     1
1070
   143
1040
0.039
1070
   172
1070
     1
1070
   271
1070
     0
1070
   279
1070
     1
1070
   288
1070
     1
1002
}
  0
DIMENSION
  5
7C9D
  8
3
  6
CONTINUOUS
  2
*D13
 10
3089.9447340000002
 20
6311.9103930000001
 30
0.0
 11
2147.5283169999998
 21
6311.9103930000001
 31
0.0
 70
   128
 13
1289.9447339999999
 23
6123.9664070000008
 33
0.0
 14
3089.9447340000002
 24
6123.9664070000008
 34
0.0
1001
ACAD
1000
DSTYLE
1002
{
1070
   287
1070
     3
1070
    40
1040
30.0
1070
   143
1040
0.039
1070
   172
1070
     1
1070
   271
1070
     0
1070
   279
1070
     0
1070
   288
1070
     1
1002
}
  0
DIMENSION
  5
7CAA
  8
3
  6
CONTINUOUS
  2
*D14
 10
3383.2665790000001
 20
5073.9664069999999
 30
0.0
 11
3383.2665790000001
 21
5607.9319159999995
 31
0.0
 70
   128
 13
3089.9447340000002
 23
6123.9664070000008
 33
0.0
 14
3089.9447340000002
 24
5073.9664069999999
 34
0.0
 50
90.0
1001
ACAD
1000
DSTYLE
1002
{
1070
   287
1070
     3
1070
    40
1040
30.0
1070
   143
1040
0.039
1070
   172
1070
     1
1070
   271
1070
     0
1070
   279
1070
     0
1070
   288
1070
     1
1002
}
  0
DIMENSION
  5
7CD5
  8
3
  6
CONTINUOUS
  2
*D15
 10
1401.6975578040399
 20
4325.3712269999996
 30
0.0
 11
1655.8211459020199
 21
4400.3712269999996
 31
0.0
 70
     0
 13
1909.9447339999999
 23
4356.3370380000006
 33
0.0
 14
1401.6975578040399
 24
3274.8526089999991
 34
0.0
1001
ACAD
1000
DSTYLE
1002
{
1070
   287
1070
     4
1070
    40
1040
30.0
1070
    75
1070
     1
1070
   143
1040
0.039
1070
   172
1070
     1
1070
   271
1070
     0
1070
   279
1070
     1
1070
   288
1070
     1
1002
}
  0
DIMENSION
  5
7D11
  8
3
  6
CONTINUOUS
  2
*D16
 10
4795.1133179999997
 20
4305.3658910000004
 30
0.0
 11
4517.0855220000012
 21
4305.3658910000004
 31
0.0
 70
   128
 13
4265.1133179999997
 23
3750.2787689999991
 33
0.0
 14
4795.1133179999997
 24
3750.2787689999991
 34
0.0
1001
ACAD
1000
DSTYLE
1002
{
1070
   287
1070
     3
1070
    40
1040
30.0
1070
   143
1040
0.039
1070
   172
1070
     1
1070
   271
1070
     0
1070
   279
1070
     0
1070
   288
1070
     1
1002
}
  0
LINE
  5
7D12
  8
2
  6
CENTER
 10
4530.1133179999997
 20
4199.9503590000004
 30
0.0
 11
4530.1133179999997
 21
2256.3591849999998
 31
0.0
  0
LINE
  5
7D82
  8
1
 10
1449.944733999999
 20
3669.852609
 30
0.0
 11
1449.944733999999
 21
2749.852609
 31
0.0
  0
LINE
  5
7D83
  8
1
 10
2369.9447340000002
 20
3669.852609
 30
0.0
 11
2369.9447340000002
 21
2749.852609
 31
0.0
  0
LINE
  5
7D84
  8
1
  6
CONTINUOUS
 10
1449.944733999999
 20
3669.852609
 30
0.0
 11
2369.9447340000002
 21
3669.852609
 31
0.0
  0
ENDSEC
  0
EOF
