  0
SECTION
  2
HEADER
  9
$ACADVER
  1
AC1009
  9
$INSBASE
 10
0.0
 20
0.0
 30
0.0
  9
$EXTMIN
 10
750.0
 20
900.0
 30
0.0
  9
$EXTMAX
 10
5550.0
 20
8359.9567849999985
 30
0.0
  9
$LIMMIN
 10
0.0
 20
0.0
  9
$LIMMAX
 10
297.0
 20
210.0
  9
$ORTHOMODE
 70
     0
  9
$REGENMODE
 70
     1
  9
$FILLMODE
 70
     0
  9
$QTEXTMODE
 70
     0
  9
$MIRRTEXT
 70
     1
  9
$DRAGMODE
 70
     2
  9
$LTSCALE
 40
100.0
  9
$OSMODE
 70
    37
  9
$ATTMODE
 70
     1
  9
$TEXTSIZE
 40
180.0
  9
$TRACEWID
 40
0.05
  9
$TEXTSTYLE
  7
STANDARD
  9
$CLAYER
  8
3
  9
$CELTYPE
  6
BYLAYER
  9
$CECOLOR
 62
   256
  9
$DIMSCALE
 40
30.0
  9
$DIMASZ
 40
2.0
  9
$DIMEXO
 40
0.5
  9
$DIMDLI
 40
10.0
  9
$DIMRND
 40
0.0
  9
$DIMDLE
 40
0.0
  9
$DIMEXE
 40
1.0
  9
$DIMTP
 40
1.0
  9
$DIMTM
 40
1.0
  9
$DIMTXT
 40
3.0
  9
$DIMCEN
 40
0.0
  9
$DIMTSZ
 40
0.0
  9
$DIMTOL
 70
     0
  9
$DIMLIM
 70
     0
  9
$DIMTIH
 70
     0
  9
$DIMTOH
 70
     0
  9
$DIMSE1
 70
     0
  9
$DIMSE2
 70
     0
  9
$DIMTAD
 70
     1
  9
$DIMZIN
 70
     8
  9
$DIMBLK
  1

  9
$DIMASO
 70
     1
  9
$DIMSHO
 70
     1
  9
$DIMPOST
  1

  9
$DIMAPOST
  1

  9
$DIMALT
 70
     0
  9
$DIMALTD
 70
     2
  9
$DIMALTF
 40
0.039
  9
$DIMLFAC
 40
1.0
  9
$DIMTOFL
 70
     1
  9
$DIMTVP
 40
0.0
  9
$DIMTIX
 70
     0
  9
$DIMSOXD
 70
     0
  9
$DIMSAH
 70
     1
  9
$DIMBLK1
  1
OPEN
  9
$DIMBLK2
  1
OPEN
  9
$DIMSTYLE
  2
IGA
  9
$DIMCLRD
 70
     0
  9
$DIMCLRE
 70
     0
  9
$DIMCLRT
 70
     0
  9
$DIMTFAC
 40
10.0
  9
$DIMGAP
 40
1.0
  9
$LUNITS
 70
     2
  9
$LUPREC
 70
     3
  9
$SKETCHINC
 40
0.1
  9
$FILLETRAD
 40
0.0
  9
$AUNITS
 70
     0
  9
$AUPREC
 70
     0
  9
$MENU
  1
acad
  9
$ELEVATION
 40
0.0
  9
$PELEVATION
 40
0.0
  9
$THICKNESS
 40
0.0
  9
$LIMCHECK
 70
     0
  9
$BLIPMODE
 70
     0
  9
$CHAMFERA
 40
0.5
  9
$CHAMFERB
 40
0.5
  9
$SKPOLY
 70
     0
  9
$TDCREATE
 40
2450744.5566596058
  9
$TDUPDATE
 40
2454953.7727793981
  9
$TDINDWG
 40
0.0112172222
  9
$TDUSRTIMER
 40
0.0112172222
  9
$USRTIMER
 70
     1
  9
$ANGBASE
 50
0.0
  9
$ANGDIR
 70
     0
  9
$PDMODE
 70
     0
  9
$PDSIZE
 40
0.0
  9
$PLINEWID
 40
0.0
  9
$COORDS
 70
     1
  9
$SPLFRAME
 70
     0
  9
$SPLINETYPE
 70
     6
  9
$SPLINESEGS
 70
     8
  9
$ATTDIA
 70
     0
  9
$ATTREQ
 70
     1
  9
$HANDLING
 70
 10241
  9
$HANDSEED
  5
7E9D
  9
$SURFTAB1
 70
     6
  9
$SURFTAB2
 70
     6
  9
$SURFTYPE
 70
     6
  9
$SURFU
 70
     6
  9
$SURFV
 70
     6
  9
$UCSNAME
  2

  9
$UCSORG
 10
0.0
 20
0.0
 30
0.0
  9
$UCSXDIR
 10
1.0
 20
0.0
 30
0.0
  9
$UCSYDIR
 10
0.0
 20
1.0
 30
0.0
  9
$PUCSNAME
  2

  9
$PUCSORG
 10
0.0
 20
0.0
 30
0.0
  9
$PUCSXDIR
 10
1.0
 20
0.0
 30
0.0
  9
$PUCSYDIR
 10
0.0
 20
1.0
 30
0.0
  9
$USERI1
 70
     0
  9
$USERI2
 70
     0
  9
$USERI3
 70
     0
  9
$USERI4
 70
     0
  9
$USERI5
 70
     0
  9
$USERR1
 40
0.0
  9
$USERR2
 40
0.0
  9
$USERR3
 40
0.0
  9
$USERR4
 40
0.0
  9
$USERR5
 40
0.0
  9
$WORLDVIEW
 70
     1
  9
$SHADEDGE
 70
     3
  9
$SHADEDIF
 70
    70
  9
$TILEMODE
 70
     1
  9
$MAXACTVP
 70
    16
  9
$PLIMCHECK
 70
     0
  9
$PEXTMIN
 10
1.0000000000000000E+020
 20
1.0000000000000000E+020
 30
1.0000000000000000E+020
  9
$PEXTMAX
 10
-1.0000000000000000E+020
 20
-1.0000000000000000E+020
 30
-1.0000000000000000E+020
  9
$PLIMMIN
 10
0.0
 20
0.0
  9
$PLIMMAX
 10
12.0
 20
9.0
  9
$UNITMODE
 70
     0
  9
$VISRETAIN
 70
     0
  9
$PLINEGEN
 70
     0
  9
$PSLTSCALE
 70
     1
  0
ENDSEC
  0
SECTION
  2
TABLES
  0
TABLE
  2
VPORT
 70
     2
  0
VPORT
  2
*ACTIVE
 70
     0
 10
0.0
 20
0.0
 11
1.0
 21
1.0
 12
9438.3127791764127
 22
4630.026921240782
 13
0.0
 23
0.0
 14
10.0
 24
10.0
 15
10.0
 25
10.0
 16
0.0
 26
0.0
 36
1.0
 17
0.0
 27
0.0
 37
0.0
 40
7517.3600294599864
 41
3.1666666666666661
 42
50.0
 43
0.0
 44
0.0
 50
0.0
 51
0.0
 71
     0
 72
   100
 73
     1
 74
     0
 75
     0
 76
     0
 77
     0
 78
     0
  0
ENDTAB
  0
TABLE
  2
LTYPE
 70
     2
  0
LTYPE
  2
CONTINUOUS
 70
     0
  3
Solid line
 72
    65
 73
     0
 40
0.0
  0
LTYPE
  2
CENTER
 70
     0
  3
____ _ ____ _ ____ _ ____ _ ____ _ ____ _ ____ 
 72
    65
 73
     4
 40
2.0
 49
1.25
 49
-0.25
 49
0.25
 49
-0.25
  0
ENDTAB
  0
TABLE
  2
LAYER
 70
     6
  0
LAYER
  2
0
 70
     0
 62
     7
  6
CONTINUOUS
  0
LAYER
  2
3
 70
     0
 62
     2
  6
CONTINUOUS
  0
LAYER
  2
2
 70
     0
 62
     3
  6
CENTER
  0
LAYER
  2
1
 70
     0
 62
     4
  6
CONTINUOUS
  0
LAYER
  2
4
 70
     0
 62
     7
  6
CONTINUOUS
  0
LAYER
  2
DEFPOINTS
 70
     0
 62
     7
  6
CONTINUOUS
  0
ENDTAB
  0
TABLE
  2
STYLE
 70
     1
  0
STYLE
  2
STANDARD
 70
     0
 40
0.0
 41
1.0
 50
0.0
 71
     0
 42
180.0
  3
simplex.shx
  4
extfont.shx
  0
ENDTAB
  0
TABLE
  2
VIEW
 70
     0
  0
ENDTAB
  0
TABLE
  2
UCS
 70
     0
  0
ENDTAB
  0
TABLE
  2
APPID
 70
     1
  0
APPID
  2
ACAD
 70
     0
  0
ENDTAB
  0
TABLE
  2
DIMSTYLE
 70
     1
  0
DIMSTYLE
  2
IGA
 70
     0
  3

  4

  5

  6
OPEN
  7
OPEN
 40
2.0
 41
2.0
 42
0.5
 43
10.0
 44
1.0
 45
0.0
 46
0.0
 47
1.0
 48
1.0
140
3.0
141
0.0
142
0.0
143
0.03937
144
1.0
145
0.0
146
10.0
147
1.0
 71
     0
 72
     0
 73
     0
 74
     0
 75
     0
 76
     0
 77
     1
 78
     8
170
     0
171
     2
172
     0
173
     1
174
     0
175
     0
176
     0
177
     0
178
     0
  0
ENDTAB
  0
ENDSEC
  0
SECTION
  2
BLOCKS
  0
BLOCK
  8
0
  2
$MODEL_SPACE
 70
     0
 10
0.0
 20
0.0
 30
0.0
  3
$MODEL_SPACE
  1

  0
ENDBLK
  5
1B
  8
0
  0
BLOCK
 67
     1
  8
0
  2
$PAPER_SPACE
 70
     0
 10
0.0
 20
0.0
 30
0.0
  3
$PAPER_SPACE
  1

  0
ENDBLK
  5
18
 67
     1
  8
0
  0
BLOCK
  8
0
  2
_OPEN
 70
     0
 10
0.0
 20
0.0
 30
0.0
  3
_OPEN
  1

  0
LINE
  5
7B9A
  8
0
  6
BYBLOCK
 62
     0
 10
-1.0
 20
0.166667
 30
0.0
 11
0.0
 21
0.0
 31
0.0
  0
LINE
  5
7B9B
  8
0
  6
BYBLOCK
 62
     0
 10
0.0
 20
0.0
 30
0.0
 11
-1.0
 21
-0.166667
 31
0.0
  0
LINE
  5
7B9C
  8
0
  6
BYBLOCK
 62
     0
 10
0.0
 20
0.0
 30
0.0
 11
-1.0
 21
0.0
 31
0.0
  0
ENDBLK
  5
7B9D
  8
0
  0
BLOCK
  8
0
  2
*D1
 70
     1
 10
0.0
 20
0.0
 30
0.0
  3
*D1
  1

  0
LINE
  5
7DF5
  8
3
  6
CONTINUOUS
 62
     0
 10
1663.2916250000001
 20
3559.5038140000001
 30
0.0
 11
1488.8365679999999
 21
3559.5038140000001
 31
0.0
  0
LINE
  5
7DF6
  8
3
  6
CONTINUOUS
 62
     0
 10
1663.2916250000001
 20
2829.5038140000001
 30
0.0
 11
1488.8365679999999
 21
2829.5038140000001
 31
0.0
  0
LINE
  5
7DF7
  8
3
  6
CONTINUOUS
 62
     0
 10
1518.8365679999999
 20
3499.5038140000001
 30
0.0
 11
1518.8365679999999
 21
2889.5038140000001
 31
0.0
  0
INSERT
  5
7DF8
  8
3
  6
CONTINUOUS
 62
     0
  2
_OPEN
 10
1518.8365679999999
 20
3559.5038140000001
 30
0.0
 41
60.0
 42
60.0
 43
60.0
 50
90.0
  0
INSERT
  5
7DF9
  8
3
  6
CONTINUOUS
 62
     0
  2
_OPEN
 10
1518.8365679999999
 20
2829.5038140000001
 30
0.0
 41
60.0
 42
60.0
 43
60.0
 50
270.0
  0
TEXT
  8
3
  40
90
  5
7E8B
  62
0
  72
0
  71
0
 10
1263.84
 20
3016.67
 30
0.000000
  1
730
  0
POINT
  5
7DFB
  8
DEFPOINTS
  6
CONTINUOUS
 62
     0
 10
1678.2916249999989
 20
3559.5038140000001
 30
0.0
  0
POINT
  5
7DFC
  8
DEFPOINTS
  6
CONTINUOUS
 62
     0
 10
1678.2916249999989
 20
2829.5038140000001
 30
0.0
  0
POINT
  5
7DFD
  8
DEFPOINTS
  6
CONTINUOUS
 62
     0
 10
1518.8365679999999
 20
2829.5038140000001
 30
0.0
  0
ENDBLK
  5
7BAA
  8
0
  0
BLOCK
  8
0
  2
*D2
 70
     1
 10
0.0
 20
0.0
 30
0.0
  3
*D2
  1

  0
LINE
  5
7DFE
  8
3
  6
CONTINUOUS
 62
     0
 10
1501.630701999999
 20
3525.5038140000001
 30
0.0
 11
1313.960243
 21
3525.5038140000001
 31
0.0
  0
LINE
  5
7DFF
  8
3
  6
CONTINUOUS
 62
     0
 10
1663.2916250000001
 20
2829.5038140000001
 30
0.0
 11
1313.960243
 21
2829.5038140000001
 31
0.0
  0
LINE
  5
7E00
  8
3
  6
CONTINUOUS
 62
     0
 10
1343.960243
 20
3465.5038140000001
 30
0.0
 11
1343.960243
 21
2889.5038140000001
 31
0.0
  0
INSERT
  5
7E01
  8
3
  6
CONTINUOUS
 62
     0
  2
_OPEN
 10
1343.960243
 20
3525.5038140000001
 30
0.0
 41
60.0
 42
60.0
 43
60.0
 50
90.0
  0
INSERT
  5
7E02
  8
3
  6
CONTINUOUS
 62
     0
  2
_OPEN
 10
1343.960243
 20
2829.5038140000001
 30
0.0
 41
60.0
 42
60.0
 43
60.0
 50
270.0
  0
TEXT
  8
3
  40
90
  5
7E8C
  62
0
  72
0
  71
0
 10
1088.96
 20
3029.15
 30
0.000000
  1
696
  0
POINT
  5
7E04
  8
DEFPOINTS
  6
CONTINUOUS
 62
     0
 10
1516.6307019999999
 20
3525.5038140000001
 30
0.0
  0
POINT
  5
7E05
  8
DEFPOINTS
  6
CONTINUOUS
 62
     0
 10
1678.2916249999989
 20
2829.5038140000001
 30
0.0
  0
POINT
  5
7E06
  8
DEFPOINTS
  6
CONTINUOUS
 62
     0
 10
1343.960243
 20
2829.5038140000001
 30
0.0
  0
ENDBLK
  5
7BB7
  8
0
  0
BLOCK
  8
0
  2
*D3
 70
     1
 10
0.0
 20
0.0
 30
0.0
  3
*D3
  1

  0
LINE
  5
7E07
  8
3
  6
CONTINUOUS
 62
     0
 10
1501.630701999999
 20
3525.5038140000001
 30
0.0
 11
1139.083918999999
 21
3525.5038140000001
 31
0.0
  0
LINE
  5
7E08
  8
3
  6
CONTINUOUS
 62
     0
 10
1728.2916249999989
 20
2635.5038140000001
 30
0.0
 11
1139.083918999999
 21
2635.5038140000001
 31
0.0
  0
LINE
  5
7E09
  8
3
  6
CONTINUOUS
 62
     0
 10
1169.083918999999
 20
3465.5038140000001
 30
0.0
 11
1169.083918999999
 21
2695.5038140000001
 31
0.0
  0
INSERT
  5
7E0A
  8
3
  6
CONTINUOUS
 62
     0
  2
_OPEN
 10
1169.083918999999
 20
3525.5038140000001
 30
0.0
 41
60.0
 42
60.0
 43
60.0
 50
90.0
  0
INSERT
  5
7E0B
  8
3
  6
CONTINUOUS
 62
     0
  2
_OPEN
 10
1169.083918999999
 20
2635.5038140000001
 30
0.0
 41
60.0
 42
60.0
 43
60.0
 50
270.0
  0
TEXT
  8
3
  40
90
  5
7E8D
  62
0
  72
0
  71
0
 10
914.084
 20
2921.20
 30
0.000000
  1
890
  0
POINT
  5
7E0D
  8
DEFPOINTS
  6
CONTINUOUS
 62
     0
 10
1516.6307019999999
 20
3525.5038140000001
 30
0.0
  0
POINT
  5
7E0E
  8
DEFPOINTS
  6
CONTINUOUS
 62
     0
 10
1743.2916250000001
 20
2635.5038140000001
 30
0.0
  0
POINT
  5
7E0F
  8
DEFPOINTS
  6
CONTINUOUS
 62
     0
 10
1169.083918999999
 20
2635.5038140000001
 30
0.0
  0
ENDBLK
  5
7D68
  8
0
  0
BLOCK
  8
0
  2
*D4
 70
     1
 10
0.0
 20
0.0
 30
0.0
  3
*D4
  1

  0
LINE
  5
7E10
  8
3
  6
CONTINUOUS
 62
     0
 10
1728.2916249999989
 20
2635.5038140000001
 30
0.0
 11
1140.79856
 21
2635.5038140000001
 31
0.0
  0
LINE
  5
7E11
  8
3
  6
CONTINUOUS
 62
     0
 10
1678.2916249999989
 20
2509.5038140000001
 30
0.0
 11
1140.79856
 21
2509.5038140000001
 31
0.0
  0
LINE
  5
7E12
  8
3
  6
CONTINUOUS
 62
     0
 10
1170.79856
 20
2695.5038140000001
 30
0.0
 11
1170.79856
 21
2755.5038140000001
 31
0.0
  0
LINE
  5
7E13
  8
3
  6
CONTINUOUS
 62
     0
 10
1170.79856
 20
2449.5038140000001
 30
0.0
 11
1170.79856
 21
2119.5038140000001
 31
0.0
  0
LINE
  5
7E14
  8
3
  6
CONTINUOUS
 62
     0
 10
1170.79856
 20
2635.5038140000001
 30
0.0
 11
1170.79856
 21
2509.5038140000001
 31
0.0
  0
INSERT
  5
7E15
  8
3
  6
CONTINUOUS
 62
     0
  2
_OPEN
 10
1170.79856
 20
2635.5038140000001
 30
0.0
 41
60.0
 42
60.0
 43
60.0
 50
270.0
  0
INSERT
  5
7E16
  8
3
  6
CONTINUOUS
 62
     0
  2
_OPEN
 10
1170.79856
 20
2509.5038140000001
 30
0.0
 41
60.0
 42
60.0
 43
60.0
 50
90.0
  0
TEXT
  8
3
  40
90
  5
7E8E
  62
0
  72
0
  71
0
 10
915.799
 20
2095.20
 30
0.000000
  1
126
  0
POINT
  5
7E18
  8
DEFPOINTS
  6
CONTINUOUS
 62
     0
 10
1743.2916250000001
 20
2635.5038140000001
 30
0.0
  0
POINT
  5
7E19
  8
DEFPOINTS
  6
CONTINUOUS
 62
     0
 10
1693.2916250000001
 20
2509.5038140000001
 30
0.0
  0
POINT
  5
7E1A
  8
DEFPOINTS
  6
CONTINUOUS
 62
     0
 10
1170.79856
 20
2509.5038140000001
 30
0.0
  0
ENDBLK
  5
7D5D
  8
0
  0
BLOCK
  8
0
  2
*D5
 70
     1
 10
0.0
 20
0.0
 30
0.0
  3
*D5
  1

  0
LINE
  5
7E1B
  8
3
  6
CONTINUOUS
 62
     0
 10
1693.2916250000001
 20
2494.5038140000001
 30
0.0
 11
1693.2916250000001
 21
2213.1949969999991
 31
0.0
  0
LINE
  5
7E1C
  8
3
  6
CONTINUOUS
 62
     0
 10
2213.2916249999989
 20
2289.8022190000002
 30
0.0
 11
2213.2916249999989
 21
2213.1949969999991
 31
0.0
  0
LINE
  5
7E1D
  8
3
  6
CONTINUOUS
 62
     0
 10
1753.2916250000001
 20
2243.1949970000001
 30
0.0
 11
2153.2916249999998
 21
2243.1949970000001
 31
0.0
  0
INSERT
  5
7E1E
  8
3
  6
CONTINUOUS
 62
     0
  2
_OPEN
 10
1693.2916250000001
 20
2243.1949970000001
 30
0.0
 41
60.0
 42
60.0
 43
60.0
 50
180.0
  0
INSERT
  5
7E1F
  8
3
  6
CONTINUOUS
 62
     0
  2
_OPEN
 10
2213.2916249999989
 20
2243.1949970000001
 30
0.0
 41
60.0
 42
60.0
 43
60.0
  0
TEXT
  8
3
  40
90
  5
7E8F
  62
0
  72
0
  71
0
 10
1756.67
 20
2158.89
 30
0.000000
  1
520
  0
POINT
  5
7E21
  8
DEFPOINTS
  6
CONTINUOUS
 62
     0
 10
1693.2916250000001
 20
2509.5038140000001
 30
0.0
  0
POINT
  5
7E22
  8
DEFPOINTS
  6
CONTINUOUS
 62
     0
 10
2213.2916249999989
 20
2304.8022190000002
 30
0.0
  0
POINT
  5
7E23
  8
DEFPOINTS
  6
CONTINUOUS
 62
     0
 10
2213.2916249999989
 20
2243.1949970000001
 30
0.0
  0
ENDBLK
  5
7D05
  8
0
  0
BLOCK
  8
0
  2
*D6
 70
     1
 10
0.0
 20
0.0
 30
0.0
  3
*D6
  1

  0
LINE
  5
7E24
  8
3
  6
CONTINUOUS
 62
     0
 10
3293.2916249999998
 20
2494.5038140000001
 30
0.0
 11
3293.2916249999998
 21
2213.1949969999991
 31
0.0
  0
LINE
  5
7E25
  8
3
  6
CONTINUOUS
 62
     0
 10
2273.2916249999998
 20
2243.1949970000001
 30
0.0
 11
3233.2916249999989
 21
2243.1949970000001
 31
0.0
  0
INSERT
  5
7E26
  8
3
  6
CONTINUOUS
 62
     0
  2
_OPEN
 10
2213.2916249999989
 20
2243.1949970000001
 30
0.0
 41
60.0
 42
60.0
 43
60.0
 50
180.0
  0
INSERT
  5
7E27
  8
3
  6
CONTINUOUS
 62
     0
  2
_OPEN
 10
3293.2916249999998
 20
2243.1949970000001
 30
0.0
 41
60.0
 42
60.0
 43
60.0
  0
TEXT
  8
3
  40
90
  5
7E90
  62
0
  72
0
  71
0
 10
2573.29
 20
2158.89
 30
0.000000
  1
1080
  0
POINT
  5
7E29
  8
DEFPOINTS
  6
CONTINUOUS
 62
     0
 10
2213.2916249999989
 20
2304.8022190000002
 30
0.0
  0
POINT
  5
7E2A
  8
DEFPOINTS
  6
CONTINUOUS
 62
     0
 10
3293.2916249999998
 20
2509.5038140000001
 30
0.0
  0
POINT
  5
7E2B
  8
DEFPOINTS
  6
CONTINUOUS
 62
     0
 10
3293.2916249999998
 20
2243.1949970000001
 30
0.0
  0
ENDBLK
  5
7CFA
  8
0
  0
BLOCK
  8
0
  2
*D7
 70
     1
 10
0.0
 20
0.0
 30
0.0
  3
*D7
  1

  0
LINE
  5
7E2C
  8
3
  6
CONTINUOUS
 62
     0
 10
1678.2916249999989
 20
3614.5038140000001
 30
0.0
 11
1678.2916249999989
 21
4241.9780020000007
 31
0.0
  0
LINE
  5
7E2D
  8
3
  6
CONTINUOUS
 62
     0
 10
2213.2916249999989
 20
4182.0546009999989
 30
0.0
 11
2213.2916249999989
 21
4241.9780020000007
 31
0.0
  0
LINE
  5
7E2E
  8
3
  6
CONTINUOUS
 62
     0
 10
1738.2916250000001
 20
4211.9780020000007
 30
0.0
 11
2153.2916249999998
 21
4211.9780020000007
 31
0.0
  0
INSERT
  5
7E2F
  8
3
  6
CONTINUOUS
 62
     0
  2
_OPEN
 10
1678.2916249999989
 20
4211.9780020000007
 30
0.0
 41
60.0
 42
60.0
 43
60.0
 50
180.0
  0
INSERT
  5
7E30
  8
3
  6
CONTINUOUS
 62
     0
  2
_OPEN
 10
2213.2916249999989
 20
4211.9780020000007
 30
0.0
 41
60.0
 42
60.0
 43
60.0
  0
TEXT
  8
3
  40
90
  5
7E91
  62
0
  72
0
  71
0
 10
1756.67
 20
4127.68
 30
0.000000
  1
535
  0
POINT
  5
7E32
  8
DEFPOINTS
  6
CONTINUOUS
 62
     0
 10
1678.2916249999989
 20
3599.5038140000001
 30
0.0
  0
POINT
  5
7E33
  8
DEFPOINTS
  6
CONTINUOUS
 62
     0
 10
2213.2916249999989
 20
4167.0546009999998
 30
0.0
  0
POINT
  5
7E34
  8
DEFPOINTS
  6
CONTINUOUS
 62
     0
 10
2213.2916249999989
 20
4211.9780020000007
 30
0.0
  0
ENDBLK
  5
7C13
  8
0
  0
BLOCK
  8
0
  2
*D8
 70
     1
 10
0.0
 20
0.0
 30
0.0
  3
*D8
  1

  0
LINE
  5
7E35
  8
3
  6
CONTINUOUS
 62
     0
 10
4967.4411566097751
 20
3971.5038140000001
 30
0.0
 11
4967.4411566097751
 21
4144.6496799999986
 31
0.0
  0
LINE
  5
7E36
  8
3
  6
CONTINUOUS
 62
     0
 10
4437.4411566097751
 20
3971.5038140000001
 30
0.0
 11
4437.4411566097751
 21
4144.6496799999986
 31
0.0
  0
LINE
  5
7E37
  8
3
  6
CONTINUOUS
 62
     0
 10
4907.4411566097751
 20
4114.6496799999986
 30
0.0
 11
4497.4411566097751
 21
4114.6496799999986
 31
0.0
  0
INSERT
  5
7E38
  8
3
  6
CONTINUOUS
 62
     0
  2
_OPEN
 10
4967.4411566097751
 20
4114.6496799999986
 30
0.0
 41
60.0
 42
60.0
 43
60.0
  0
INSERT
  5
7E39
  8
3
  6
CONTINUOUS
 62
     0
  2
_OPEN
 10
4437.4411566097751
 20
4114.6496799999986
 30
0.0
 41
60.0
 42
60.0
 43
60.0
 50
180.0
  0
TEXT
  8
3
  40
90
  5
7E92
  62
0
  72
0
  71
0
 10
4507.64
 20
4030.35
 30
0.000000
  1
530
  0
POINT
  5
7E3B
  8
DEFPOINTS
  6
CONTINUOUS
 62
     0
 10
4967.4411566097751
 20
3956.5038140000001
 30
0.0
  0
POINT
  5
7E3C
  8
DEFPOINTS
  6
CONTINUOUS
 62
     0
 10
4437.4411566097751
 20
3956.5038140000001
 30
0.0
  0
POINT
  5
7E3D
  8
DEFPOINTS
  6
CONTINUOUS
 62
     0
 10
4437.4411566097751
 20
4114.6496799999986
 30
0.0
  0
ENDBLK
  5
7D46
  8
0
  0
BLOCK
  8
0
  2
*D9
 70
     1
 10
0.0
 20
0.0
 30
0.0
  3
*D9
  1

  0
LINE
  5
7E3E
  8
3
  6
CONTINUOUS
 62
     0
 10
4984.441156609776
 20
3902.5038140000001
 30
0.0
 11
5279.7451356097763
 21
3902.5038140000001
 31
0.0
  0
LINE
  5
7E3F
  8
3
  6
CONTINUOUS
 62
     0
 10
4984.441156609776
 20
3148.5038140000001
 30
0.0
 11
5279.7451356097763
 21
3148.5038139999988
 31
0.0
  0
LINE
  5
7E40
  8
3
  6
CONTINUOUS
 62
     0
 10
5249.7451356097763
 20
3842.5038140000001
 30
0.0
 11
5249.7451356097763
 21
3208.5038139999988
 31
0.0
  0
INSERT
  5
7E41
  8
3
  6
CONTINUOUS
 62
     0
  2
_OPEN
 10
5249.7451356097763
 20
3902.5038140000001
 30
0.0
 41
60.0
 42
60.0
 43
60.0
 50
90.0
  0
INSERT
  5
7E42
  8
3
  6
CONTINUOUS
 62
     0
  2
_OPEN
 10
5249.7451356097763
 20
3148.5038139999988
 30
0.0
 41
60.0
 42
60.0
 43
60.0
 50
270.0
  0
TEXT
  8
3
  40
90
  5
7E93
  62
0
  72
0
  71
0
 10
4994.75
 20
3347.44
 30
0.000000
  1
φ754
  0
POINT
  5
7E44
  8
DEFPOINTS
  6
CONTINUOUS
 62
     0
 10
4969.4411566097751
 20
3902.5038140000001
 30
0.0
  0
POINT
  5
7E45
  8
DEFPOINTS
  6
CONTINUOUS
 62
     0
 10
4969.4411566097751
 20
3148.5038140000001
 30
0.0
  0
POINT
  5
7E46
  8
DEFPOINTS
  6
CONTINUOUS
 62
     0
 10
5249.7451356097763
 20
3148.5038139999988
 30
0.0
  0
ENDBLK
  5
7D93
  8
0
  0
BLOCK
  8
0
  2
*D10
 70
     1
 10
0.0
 20
0.0
 30
0.0
  3
*D10
  1

  0
LINE
  5
7D75
  8
0
  6
BYBLOCK
 62
     0
 10
4969.4411566097751
 20
3917.5038140000001
 30
0.0
 11
4969.4411566097751
 21
4369.3261860000002
 31
0.0
  0
LINE
  5
7D76
  8
0
  6
BYBLOCK
 62
     0
 10
4702.4411566097751
 20
4292.8932109999987
 30
0.0
 11
4702.4411566097751
 21
4369.3261860000002
 31
0.0
  0
LINE
  5
7D77
  8
0
  6
BYBLOCK
 62
     0
 10
4909.4411566097751
 20
4339.3261860000002
 30
0.0
 11
4762.4411566097751
 21
4339.3261860000002
 31
0.0
  0
TEXT
  5
7D78
  8
3
 62
     0
 10
4731.8453319681366
 20
4379.4405550736083
 30
0.0
 40
90.0
  1
267
  0
INSERT
  5
7D79
  8
0
  6
BYBLOCK
 62
     0
  2
_OPEN
 10
4969.4411566097751
 20
4339.3261860000002
 30
0.0
 41
60.0
 42
60.0
 43
60.0
  0
INSERT
  5
7D7A
  8
0
  6
BYBLOCK
 62
     0
  2
_OPEN
 10
4702.4411566097751
 20
4339.3261860000002
 30
0.0
 41
60.0
 42
60.0
 43
60.0
 50
180.0
  0
POINT
  5
7D7B
  8
DEFPOINTS
  6
BYBLOCK
 62
     0
 10
4969.4411566097751
 20
3902.5038140000001
 30
0.0
  0
POINT
  5
7D7C
  8
DEFPOINTS
  6
BYBLOCK
 62
     0
 10
4702.4411566097751
 20
4277.8932109999996
 30
0.0
  0
POINT
  5
7D7D
  8
DEFPOINTS
  6
BYBLOCK
 62
     0
 10
4702.4411566097751
 20
4339.3261860000002
 30
0.0
  0
ENDBLK
  5
7D7E
  8
0
  0
BLOCK
  8
0
  2
*D11
 70
     1
 10
0.0
 20
0.0
 30
0.0
  3
*D11
  1

  0
LINE
  5
7E47
  8
3
  6
CONTINUOUS
 62
     0
 10
4202.4411566097751
 20
3890.5038140000001
 30
0.0
 11
4202.4411566097751
 21
4369.3261860000002
 31
0.0
  0
LINE
  5
7E48
  8
3
  6
CONTINUOUS
 62
     0
 10
4642.4411566097751
 20
4339.3261860000002
 30
0.0
 11
4262.4411566097751
 21
4339.3261860000002
 31
0.0
  0
INSERT
  5
7E49
  8
3
  6
CONTINUOUS
 62
     0
  2
_OPEN
 10
4702.4411566097751
 20
4339.3261860000002
 30
0.0
 41
60.0
 42
60.0
 43
60.0
  0
INSERT
  5
7E4A
  8
3
  6
CONTINUOUS
 62
     0
  2
_OPEN
 10
4202.4411566097751
 20
4339.3261860000002
 30
0.0
 41
60.0
 42
60.0
 43
60.0
 50
180.0
  0
TEXT
  8
3
  40
90
  5
7E94
  62
0
  72
0
  71
0
 10
4272.44
 20
4330.03
 30
0.000000
  1
MAX
  0
TEXT
  8
3
  40
90
  5
7E95
  62
0
  72
0
  71
0
 10
4272.44
 20
4213.03
 30
0.000000
  1
560
  0
POINT
  5
7E4C
  8
DEFPOINTS
  6
CONTINUOUS
 62
     0
 10
4702.4411566097751
 20
4277.8932109999996
 30
0.0
  0
POINT
  5
7E4D
  8
DEFPOINTS
  6
CONTINUOUS
 62
     0
 10
4202.4411566097751
 20
3875.5038140000001
 30
0.0
  0
POINT
  5
7E4E
  8
DEFPOINTS
  6
CONTINUOUS
 62
     0
 10
4202.4411566097751
 20
4339.3261860000002
 30
0.0
  0
ENDBLK
  5
7D88
  8
0
  0
BLOCK
  8
0
  2
*D12
 70
     1
 10
0.0
 20
0.0
 30
0.0
  3
*D12
  1

  0
LINE
  5
7E4F
  8
3
  6
CONTINUOUS
 62
     0
 10
4144.4411566097751
 20
2494.5038140000001
 30
0.0
 11
4144.4411566097751
 21
2194.1362789999989
 31
0.0
  0
LINE
  5
7E50
  8
3
  6
CONTINUOUS
 62
     0
 10
4702.4411566097751
 20
2275.6229719999992
 30
0.0
 11
4702.4411566097751
 21
2194.1362789999989
 31
0.0
  0
LINE
  5
7E51
  8
3
  6
CONTINUOUS
 62
     0
 10
4204.4411566097751
 20
2224.1362789999998
 30
0.0
 11
4642.4411566097751
 21
2224.1362789999998
 31
0.0
  0
INSERT
  5
7E52
  8
3
  6
CONTINUOUS
 62
     0
  2
_OPEN
 10
4144.4411566097751
 20
2224.1362789999998
 30
0.0
 41
60.0
 42
60.0
 43
60.0
 50
180.0
  0
INSERT
  5
7E53
  8
3
  6
CONTINUOUS
 62
     0
  2
_OPEN
 10
4702.4411566097751
 20
2224.1362789999998
 30
0.0
 41
60.0
 42
60.0
 43
60.0
  0
TEXT
  8
3
  40
90
  5
7E96
  62
0
  72
0
  71
0
 10
4251.57
 20
2139.84
 30
0.000000
  1
558
  0
POINT
  5
7E55
  8
DEFPOINTS
  6
CONTINUOUS
 62
     0
 10
4144.4411566097751
 20
2509.5038140000001
 30
0.0
  0
POINT
  5
7E56
  8
DEFPOINTS
  6
CONTINUOUS
 62
     0
 10
4702.4411566097751
 20
2290.6229719999992
 30
0.0
  0
POINT
  5
7E57
  8
DEFPOINTS
  6
CONTINUOUS
 62
     0
 10
4702.4411566097751
 20
2224.1362789999998
 30
0.0
  0
ENDBLK
  5
7D1B
  8
0
  0
BLOCK
  8
0
  2
*D13
 70
     1
 10
0.0
 20
0.0
 30
0.0
  3
*D13
  1

  0
LINE
  5
7E58
  8
3
  6
CONTINUOUS
 62
     0
 10
5134.4411566097751
 20
2494.5038140000001
 30
0.0
 11
5134.4411566097751
 21
2194.1362789999989
 31
0.0
  0
LINE
  5
7E59
  8
3
  6
CONTINUOUS
 62
     0
 10
4762.4411566097751
 20
2224.1362789999998
 30
0.0
 11
5074.441156609776
 21
2224.1362789999998
 31
0.0
  0
INSERT
  5
7E5A
  8
3
  6
CONTINUOUS
 62
     0
  2
_OPEN
 10
4702.4411566097751
 20
2224.1362789999998
 30
0.0
 41
60.0
 42
60.0
 43
60.0
 50
180.0
  0
INSERT
  5
7E5B
  8
3
  6
CONTINUOUS
 62
     0
  2
_OPEN
 10
5134.4411566097751
 20
2224.1362789999998
 30
0.0
 41
60.0
 42
60.0
 43
60.0
  0
TEXT
  8
3
  40
90
  5
7E97
  62
0
  72
0
  71
0
 10
4738.44
 20
2139.84
 30
0.000000
  1
432
  0
POINT
  5
7E5D
  8
DEFPOINTS
  6
CONTINUOUS
 62
     0
 10
4702.4411566097751
 20
2290.6229719999992
 30
0.0
  0
POINT
  5
7E5E
  8
DEFPOINTS
  6
CONTINUOUS
 62
     0
 10
5134.4411566097751
 20
2509.5038140000001
 30
0.0
  0
POINT
  5
7E5F
  8
DEFPOINTS
  6
CONTINUOUS
 62
     0
 10
5134.4411566097751
 20
2224.1362789999998
 30
0.0
  0
ENDBLK
  5
7D25
  8
0
  0
BLOCK
  8
0
  2
*D14
 70
     1
 10
0.0
 20
0.0
 30
0.0
  3
*D14
  1

  0
LINE
  5
7E60
  8
3
  6
CONTINUOUS
 62
     0
 10
1693.2916250000001
 20
6145.7602247881759
 30
0.0
 11
1693.2916250000001
 21
6346.7158327881762
 31
0.0
  0
LINE
  5
7E61
  8
3
  6
CONTINUOUS
 62
     0
 10
3293.2916249999998
 20
6145.7602247881759
 30
0.0
 11
3293.2916249999998
 21
6346.7158327881762
 31
0.0
  0
LINE
  5
7E62
  8
3
  6
CONTINUOUS
 62
     0
 10
1753.2916250000001
 20
6316.7158327881762
 30
0.0
 11
3233.2916249999989
 21
6316.7158327881762
 31
0.0
  0
INSERT
  5
7E63
  8
3
  6
CONTINUOUS
 62
     0
  2
_OPEN
 10
1693.2916250000001
 20
6316.7158327881762
 30
0.0
 41
60.0
 42
60.0
 43
60.0
 50
180.0
  0
INSERT
  5
7E64
  8
3
  6
CONTINUOUS
 62
     0
  2
_OPEN
 10
3293.2916249999998
 20
6316.7158327881762
 30
0.0
 41
60.0
 42
60.0
 43
60.0
  0
TEXT
  8
3
  40
90
  5
7E98
  62
0
  72
0
  71
0
 10
2268.81
 20
6232.42
 30
0.000000
  1
1600
  0
POINT
  5
7E66
  8
DEFPOINTS
  6
CONTINUOUS
 62
     0
 10
1693.2916250000001
 20
6130.7602247881759
 30
0.0
  0
POINT
  5
7E67
  8
DEFPOINTS
  6
CONTINUOUS
 62
     0
 10
3293.2916249999998
 20
6130.7602247881759
 30
0.0
  0
POINT
  5
7E68
  8
DEFPOINTS
  6
CONTINUOUS
 62
     0
 10
3293.2916249999998
 20
6316.7158327881762
 30
0.0
  0
ENDBLK
  5
7D10
  8
0
  0
BLOCK
  8
0
  2
*D15
 70
     1
 10
0.0
 20
0.0
 30
0.0
  3
*D15
  1

  0
LINE
  5
7E69
  8
3
  6
CONTINUOUS
 62
     0
 10
3308.2916249999989
 20
6130.7602247881759
 30
0.0
 11
3578.0279100000012
 21
6130.7602247881759
 31
0.0
  0
LINE
  5
7E6A
  8
3
  6
CONTINUOUS
 62
     0
 10
3308.2916249999989
 20
5140.7602247881759
 30
0.0
 11
3578.0279100000012
 21
5140.7602247881759
 31
0.0
  0
LINE
  5
7E6B
  8
3
  6
CONTINUOUS
 62
     0
 10
3548.0279100000012
 20
6070.7602247881759
 30
0.0
 11
3548.0279100000012
 21
5200.7602247881759
 31
0.0
  0
INSERT
  5
7E6C
  8
3
  6
CONTINUOUS
 62
     0
  2
_OPEN
 10
3548.0279100000012
 20
6130.7602247881759
 30
0.0
 41
60.0
 42
60.0
 43
60.0
 50
90.0
  0
INSERT
  5
7E6D
  8
3
  6
CONTINUOUS
 62
     0
  2
_OPEN
 10
3548.0279100000012
 20
5140.7602247881759
 30
0.0
 41
60.0
 42
60.0
 43
60.0
 50
270.0
  0
TEXT
  8
3
  40
90
  5
7E99
  62
0
  72
0
  71
0
 10
3293.03
 20
5457.92
 30
0.000000
  1
990
  0
POINT
  5
7E6F
  8
DEFPOINTS
  6
CONTINUOUS
 62
     0
 10
3293.2916249999998
 20
6130.7602247881759
 30
0.0
  0
POINT
  5
7E70
  8
DEFPOINTS
  6
CONTINUOUS
 62
     0
 10
3293.2916249999998
 20
5140.7602247881759
 30
0.0
  0
POINT
  5
7E71
  8
DEFPOINTS
  6
CONTINUOUS
 62
     0
 10
3548.0279100000012
 20
5140.7602247881759
 30
0.0
  0
ENDBLK
  5
7CAB
  8
0
  0
BLOCK
  8
0
  2
*D16
 70
     1
 10
0.0
 20
0.0
 30
0.0
  3
*D16
  1

  0
LINE
  5
7E72
  8
3
  6
CONTINUOUS
 62
     0
 10
2198.2916249999989
 20
4033.4852185285272
 30
0.0
 11
1139.083918999999
 21
4033.4852185285272
 31
0.0
  0
LINE
  5
7E73
  8
3
  6
CONTINUOUS
 62
     0
 10
1169.083918999999
 20
3585.5038140000001
 30
0.0
 11
1169.083918999999
 21
3973.4852185285258
 31
0.0
  0
INSERT
  5
7E74
  8
3
  6
CONTINUOUS
 62
     0
  2
_OPEN
 10
1169.083918999999
 20
3525.5038140000001
 30
0.0
 41
60.0
 42
60.0
 43
60.0
 50
270.0
  0
INSERT
  5
7E75
  8
3
  6
CONTINUOUS
 62
     0
  2
_OPEN
 10
1169.083918999999
 20
4033.4852185285272
 30
0.0
 41
60.0
 42
60.0
 43
60.0
 50
90.0
  0
TEXT
  8
3
  40
90
  5
7E9A
  62
0
  72
0
  71
0
 10
914.084
 20
3620.19
 30
0.000000
  1
508
  0
POINT
  5
7E77
  8
DEFPOINTS
  6
CONTINUOUS
 62
     0
 10
1516.6307019999999
 20
3525.5038140000001
 30
0.0
  0
POINT
  5
7E78
  8
DEFPOINTS
  6
CONTINUOUS
 62
     0
 10
2213.2916249999989
 20
4033.4852185285272
 30
0.0
  0
POINT
  5
7E79
  8
DEFPOINTS
  6
CONTINUOUS
 62
     0
 10
1169.083918999999
 20
4033.4852185285272
 30
0.0
  0
ENDBLK
  5
7DB6
  8
0
  0
BLOCK
  8
0
  2
*D17
 70
     1
 10
0.0
 20
0.0
 30
0.0
  3
*D17
  1

  0
LINE
  5
7E7A
  8
3
  6
CONTINUOUS
 62
     0
 10
2799.289150999999
 20
3540.5038140000001
 30
0.0
 11
2799.289150999999
 21
4241.9780020000007
 31
0.0
  0
LINE
  5
7E7B
  8
3
  6
CONTINUOUS
 62
     0
 10
2273.2916249999998
 20
4211.9780020000007
 30
0.0
 11
2739.289150999999
 21
4211.9780020000007
 31
0.0
  0
INSERT
  5
7E7C
  8
3
  6
CONTINUOUS
 62
     0
  2
_OPEN
 10
2213.2916249999989
 20
4211.9780020000007
 30
0.0
 41
60.0
 42
60.0
 43
60.0
 50
180.0
  0
INSERT
  5
7E7D
  8
3
  6
CONTINUOUS
 62
     0
  2
_OPEN
 10
2799.289150999999
 20
4211.9780020000007
 30
0.0
 41
60.0
 42
60.0
 43
60.0
  0
TEXT
  8
3
  40
90
  5
7E9B
  62
0
  72
0
  71
0
 10
2326.29
 20
4127.68
 30
0.000000
  1
586
  0
POINT
  5
7E7F
  8
DEFPOINTS
  6
CONTINUOUS
 62
     0
 10
2213.2916249999989
 20
4167.0546009999998
 30
0.0
  0
POINT
  5
7E80
  8
DEFPOINTS
  6
CONTINUOUS
 62
     0
 10
2799.289150999999
 20
3525.5038140000001
 30
0.0
  0
POINT
  5
7E81
  8
DEFPOINTS
  6
CONTINUOUS
 62
     0
 10
2799.289150999999
 20
4211.9780020000007
 30
0.0
  0
ENDBLK
  5
7CEF
  8
0
  0
BLOCK
  8
0
  2
*D18
 70
     1
 10
0.0
 20
0.0
 30
0.0
  3
*D18
  1

  0
LINE
  5
7E82
  8
3
 62
     0
 10
1678.2916249999989
 20
3614.5038140000001
 30
0.0
 11
1678.2916249999989
 21
4422.8979424445461
 31
0.0
  0
LINE
  5
7E83
  8
3
 62
     0
 10
3293.2916249999998
 20
2624.5038140000001
 30
0.0
 11
3293.2916249999998
 21
4422.8979424445461
 31
0.0
  0
LINE
  5
7E84
  8
3
 62
     0
 10
1738.2916250000001
 20
4392.8979424445461
 30
0.0
 11
3233.2916249999989
 21
4392.8979424445461
 31
0.0
  0
INSERT
  5
7E85
  8
3
 62
     0
  2
_OPEN
 10
1678.2916249999989
 20
4392.8979424445461
 30
0.0
 41
60.0
 42
60.0
 43
60.0
 50
180.0
  0
INSERT
  5
7E86
  8
3
 62
     0
  2
_OPEN
 10
3293.2916249999998
 20
4392.8979424445461
 30
0.0
 41
60.0
 42
60.0
 43
60.0
  0
TEXT
  8
3
  40
90
  5
7E9C
  62
0
  72
0
  71
0
 10
2262.03
 20
4308.60
 30
0.000000
  1
1615
  0
POINT
  5
7E88
  8
DEFPOINTS
 62
     0
 10
1678.2916249999989
 20
3599.5038140000001
 30
0.0
  0
POINT
  5
7E89
  8
DEFPOINTS
 62
     0
 10
3293.2916249999998
 20
2609.5038140000001
 30
0.0
  0
POINT
  5
7E8A
  8
DEFPOINTS
 62
     0
 10
3293.2916249999998
 20
4392.8979424445461
 30
0.0
  0
ENDBLK
  5
7D9F
  8
0
  0
ENDSEC
  0
SECTION
  2
ENTITIES
  0
LINE
  5
7ABD
  8
1
  6
CONTINUOUS
 10
1678.2916249999989
 20
6003.7602247881759
 30
0.0
 11
1678.2916249999989
 21
5393.7602247881759
 31
0.0
  0
LINE
  5
7ABE
  8
1
  6
CONTINUOUS
 10
2801.0316250000001
 20
5963.7602247881759
 30
0.0
 11
2801.0316250000001
 21
5433.7602247881759
 31
0.0
  0
LINE
  5
7ABF
  8
1
  6
CONTINUOUS
 10
3293.2916249999998
 20
6130.7602247881759
 30
0.0
 11
3293.2916249999998
 21
5140.7602247881759
 31
0.0
  0
LINE
  5
7AC0
  8
1
  6
CONTINUOUS
 10
3253.2916249999998
 20
6130.7602247881759
 30
0.0
 11
3253.2916249999998
 21
5140.7602247881759
 31
0.0
  0
LINE
  5
7AC1
  8
1
  6
CONTINUOUS
 10
1693.2916250000001
 20
2609.5038140000001
 30
0.0
 11
3293.2916249999998
 21
2609.5038140000001
 31
0.0
  0
LINE
  5
7AC2
  8
1
  6
CONTINUOUS
 10
1693.2916250000001
 20
2509.5038140000001
 30
0.0
 11
3293.2916249999998
 21
2509.5038140000001
 31
0.0
  0
LINE
  5
7AC3
  8
1
  6
CONTINUOUS
 10
1693.2916250000001
 20
2609.5038140000001
 30
0.0
 11
1693.2916250000001
 21
2509.5038140000001
 31
0.0
  0
LINE
  5
7AC4
  8
1
  6
CONTINUOUS
 10
3293.2916249999998
 20
2609.5038140000001
 30
0.0
 11
3293.2916249999998
 21
2509.5038140000001
 31
0.0
  0
ARC
  5
7AC6
  8
1
  6
CONTINUOUS
 10
2243.2916249999989
 20
3555.5038140000001
 30
0.0
 40
478.79000000000002
 50
97.430000000000021
 51
179.52000000000001
  0
LINE
  5
7AC7
  8
1
  6
CONTINUOUS
 10
1678.2916249999989
 20
2829.5038140000001
 30
0.0
 11
2213.2916249999989
 21
2845.5038140000001
 31
0.0
  0
LINE
  5
7AC8
  8
1
  6
CONTINUOUS
 10
1843.2916250000001
 20
3875.5038140000001
 30
0.0
 11
2363.2916249999998
 21
3875.5038140000001
 31
0.0
  0
LINE
  5
7AC9
  8
1
  6
CONTINUOUS
 10
1733.2916250000001
 20
5255.7602247881759
 30
0.0
 11
2063.2916249999989
 21
5255.7602247881759
 31
0.0
  0
LINE
  5
7ACA
  8
1
  6
CONTINUOUS
 10
1678.2916249999989
 20
5433.7602247881759
 30
0.0
 11
2801.0316250000001
 21
5433.7602247881759
 31
0.0
  0
LINE
  5
7ACB
  8
1
  6
CONTINUOUS
 10
1843.2916250000001
 20
5198.7602247881759
 30
0.0
 11
3203.2916249999998
 21
5198.7602247881759
 31
0.0
  0
LINE
  5
7ACC
  8
1
  6
CONTINUOUS
 10
1843.2916250000001
 20
5338.7602247881759
 30
0.0
 11
3203.2916249999998
 21
5338.7602247881759
 31
0.0
  0
LINE
  5
7ACD
  8
1
  6
CONTINUOUS
 10
1743.2916250000001
 20
2735.5038140000001
 30
0.0
 11
3243.2916249999989
 21
2735.5038140000001
 31
0.0
  0
LINE
  5
7ACE
  8
1
  6
CONTINUOUS
 10
1743.2916250000001
 20
2635.5038140000001
 30
0.0
 11
3243.2916249999989
 21
2635.5038140000001
 31
0.0
  0
LINE
  5
7AD1
  8
1
  6
CONTINUOUS
 10
1843.2916250000001
 20
2735.5038140000001
 30
0.0
 11
1843.2916250000001
 21
3875.5038140000001
 31
0.0
  0
LINE
  5
7AD2
  8
1
  6
CONTINUOUS
 10
1743.2916250000001
 20
2735.5038140000001
 30
0.0
 11
1743.2916250000001
 21
2635.5038140000001
 31
0.0
  0
LINE
  5
7AD3
  8
1
  6
CONTINUOUS
 10
1708.2916250000001
 20
3559.5038140000001
 30
0.0
 11
1708.2916250000001
 21
2830.4038139999998
 31
0.0
  0
LINE
  5
7AD4
  8
1
  6
CONTINUOUS
 10
1764.5216250000001
 20
3559.5038140000001
 30
0.0
 11
1678.2916249999989
 21
3559.5038140000001
 31
0.0
  0
LINE
  5
7AD5
  8
1
  6
CONTINUOUS
 10
1678.2916249999989
 20
3599.5038140000001
 30
0.0
 11
1678.2916249999989
 21
2789.5038140000001
 31
0.0
  0
LINE
  5
7AD7
  8
1
  6
CONTINUOUS
 10
1843.2916250000001
 20
5198.7602247881759
 30
0.0
 11
1843.2916250000001
 21
5338.7602247881759
 31
0.0
  0
LINE
  5
7AD8
  8
1
  6
CONTINUOUS
 10
1733.2916250000001
 20
5140.7602247881759
 30
0.0
 11
1693.2916250000001
 21
5140.7602247881759
 31
0.0
  0
LINE
  5
7AD9
  8
1
  6
CONTINUOUS
 10
1733.2916250000001
 20
5433.7602247881759
 30
0.0
 11
1733.2916250000001
 21
5140.7602247881759
 31
0.0
  0
LINE
  5
7ADA
  8
1
  6
CONTINUOUS
 10
1693.2916250000001
 20
5433.7602247881759
 30
0.0
 11
1693.2916250000001
 21
5140.7602247881759
 31
0.0
  0
ARC
  5
7ADB
  8
1
  6
CONTINUOUS
 10
2252.2916249999989
 20
3486.5038140000001
 30
0.0
 40
548.36999999999989
 50
5.3099999999999987
 51
97.430000000000021
  0
LINE
  5
7ADC
  8
2
  6
CENTER
 10
3104.7716249999999
 20
2935.5038140000001
 30
0.0
 11
2944.7716249999989
 21
2935.5038140000001
 31
0.0
  0
ARC
  5
7ADD
  8
1
  6
CONTINUOUS
 10
3024.7716249999999
 20
2935.5038140000001
 30
0.0
 40
162.0
 50
324.97000000000003
 51
215.02999999999989
  0
CIRCLE
  5
7ADE
  8
1
  6
CONTINUOUS
 10
3024.7716249999999
 20
2935.5038140000001
 30
0.0
 40
80.0
  0
LINE
  5
7ADF
  8
1
  6
CONTINUOUS
 10
2363.2916249999998
 20
3875.5038140000001
 30
0.0
 11
3203.2916249999998
 21
3035.5038140000001
 31
0.0
  0
LINE
  5
7AE0
  8
1
  6
CONTINUOUS
 10
3076.2116249999999
 20
2996.763813999999
 30
0.0
 11
2309.7516249999999
 21
3640.373814
 31
0.0
  0
ARC
  5
7AE1
  8
1
  6
CONTINUOUS
 10
2166.2916249999989
 20
3478.5038140000001
 30
0.0
 40
634.74000000000001
 50
274.25
 51
5.3099999999999987
  0
CIRCLE
  5
7AE2
  8
1
  6
CONTINUOUS
 10
2213.2916249999989
 20
3525.5038140000001
 30
0.0
 40
150.0
  0
LINE
  5
7AE3
  8
1
  6
CONTINUOUS
 10
2870.7716249999999
 20
2793.5038140000001
 30
0.0
 11
2892.111625
 21
2842.5138139999999
 31
0.0
  0
LINE
  5
7AE4
  8
1
  6
CONTINUOUS
 10
2870.7716249999999
 20
2735.5038140000001
 30
0.0
 11
2870.7716249999999
 21
2793.5038140000001
 31
0.0
  0
LINE
  5
7AE5
  8
2
  6
CENTER
 10
1516.6307019999999
 20
3525.5038140000001
 30
0.0
 11
3020.7819890000001
 21
3525.5038140000001
 31
0.0
  0
LINE
  5
7AE6
  8
2
  6
CENTER
 10
2213.2916249999989
 20
6170.3356217881756
 30
0.0
 11
2213.2916249999989
 21
5086.5733987881758
 31
0.0
  0
LINE
  5
7AE8
  8
1
  6
CONTINUOUS
 10
2982.3516249999989
 20
2867.6738140000002
 30
0.0
 11
2133.7616249999992
 21
3398.3238139999989
 31
0.0
  0
LINE
  5
7AE9
  8
2
  6
CENTER
 10
3024.7716249999999
 20
2855.5038140000001
 30
0.0
 11
3024.7716249999999
 21
3015.5038140000001
 31
0.0
  0
LINE
  5
7AEA
  8
1
  6
CONTINUOUS
 10
3178.7716249999989
 20
2735.5038140000001
 30
0.0
 11
3178.7716249999989
 21
2793.5038140000001
 31
0.0
  0
LINE
  5
7AEB
  8
1
  6
CONTINUOUS
 10
3178.7716249999989
 20
2793.5038140000001
 30
0.0
 11
3157.4216249999999
 21
2842.5138139999999
 31
0.0
  0
LINE
  5
7AEC
  8
1
  6
CONTINUOUS
 10
3203.2916249999998
 20
2735.5038140000001
 30
0.0
 11
3203.2916249999998
 21
3035.5038140000001
 31
0.0
  0
LINE
  5
7AED
  8
1
  6
CONTINUOUS
 10
3243.2916249999989
 20
2735.5038140000001
 30
0.0
 11
3243.2916249999989
 21
2635.5038140000001
 31
0.0
  0
LINE
  5
7AEE
  8
1
  6
CONTINUOUS
 10
3191.7516249999999
 20
5850.7102247881758
 30
0.0
 11
2862.7716249999999
 21
5850.7102247881758
 31
0.0
  0
LINE
  5
7AEF
  8
1
  6
CONTINUOUS
 10
3191.7516249999999
 20
5394.7702247881762
 30
0.0
 11
2862.7716249999999
 21
5394.7702247881762
 31
0.0
  0
LINE
  5
7AF0
  8
1
  6
CONTINUOUS
 10
2944.7716249999989
 20
5228.760224788175
 30
0.0
 11
3104.7716249999999
 21
5228.760224788175
 31
0.0
  0
LINE
  5
7AF1
  8
1
  6
CONTINUOUS
 10
2944.7716249999989
 20
5308.7602247881759
 30
0.0
 11
3104.7716249999999
 21
5308.7602247881759
 31
0.0
  0
LINE
  5
7AF2
  8
1
  6
CONTINUOUS
 10
2363.2916249999998
 20
5255.7602247881759
 30
0.0
 11
2944.7716249999989
 21
5255.7602247881759
 31
0.0
  0
LINE
  5
7AF3
  8
1
  6
CONTINUOUS
 10
3003.7716249999999
 20
5308.7602247881759
 30
0.0
 11
3003.7716249999999
 21
5394.7702247881762
 31
0.0
  0
LINE
  5
7AF4
  8
1
  6
CONTINUOUS
 10
2862.7716249999999
 20
5394.7702247881762
 30
0.0
 11
2862.7716249999999
 21
5850.7102247881758
 31
0.0
  0
LINE
  5
7AF5
  8
1
  6
CONTINUOUS
 10
2944.7716249999989
 20
5228.760224788175
 30
0.0
 11
2944.7716249999989
 21
5308.7602247881759
 31
0.0
  0
LINE
  5
7AF6
  8
1
  6
CONTINUOUS
 10
2363.2916249999998
 20
5228.760224788175
 30
0.0
 11
2363.2916249999998
 21
5308.7602247881759
 31
0.0
  0
LINE
  5
7AF7
  8
1
  6
CONTINUOUS
 10
2063.2916249999989
 20
5228.760224788175
 30
0.0
 11
2063.2916249999989
 21
5308.7602247881759
 31
0.0
  0
LINE
  5
7AF8
  8
1
  6
CONTINUOUS
 10
2063.2916249999989
 20
5228.760224788175
 30
0.0
 11
2363.2916249999998
 21
5228.760224788175
 31
0.0
  0
LINE
  5
7AF9
  8
1
  6
CONTINUOUS
 10
2063.2916249999989
 20
5308.7602247881759
 30
0.0
 11
2363.2916249999998
 21
5308.7602247881759
 31
0.0
  0
LINE
  5
7AFA
  8
1
  6
CONTINUOUS
 10
2234.2916249999998
 20
5308.7602247881759
 30
0.0
 11
2234.2916249999998
 21
5433.7602247881759
 31
0.0
  0
LINE
  5
7AFB
  8
1
  6
CONTINUOUS
 10
2192.2916249999998
 20
5308.7602247881759
 30
0.0
 11
2192.2916249999998
 21
5433.7602247881759
 31
0.0
  0
LINE
  5
7AFC
  8
1
  6
CONTINUOUS
 10
3104.7716249999999
 20
5255.7602247881759
 30
0.0
 11
3253.2916249999998
 21
5255.7602247881759
 31
0.0
  0
LINE
  5
7AFD
  8
1
  6
CONTINUOUS
 10
3045.7716249999999
 20
5308.7602247881759
 30
0.0
 11
3045.7716249999999
 21
5394.7702247881762
 31
0.0
  0
LINE
  5
7AFE
  8
1
  6
CONTINUOUS
 10
3191.7516249999999
 20
5394.7702247881762
 30
0.0
 11
3191.7516249999999
 21
5850.7102247881758
 31
0.0
  0
LINE
  5
7AFF
  8
1
  6
CONTINUOUS
 10
3203.2916249999998
 20
5198.7602247881759
 30
0.0
 11
3203.2916249999998
 21
5338.7602247881759
 31
0.0
  0
LINE
  5
7B00
  8
1
  6
CONTINUOUS
 10
3104.7716249999999
 20
5228.760224788175
 30
0.0
 11
3104.7716249999999
 21
5308.7602247881759
 31
0.0
  0
LINE
  5
7B01
  8
1
  6
CONTINUOUS
 10
3293.2916249999998
 20
5140.7602247881759
 30
0.0
 11
3253.2916249999998
 21
5140.7602247881759
 31
0.0
  0
LINE
  5
7B02
  8
1
  6
CONTINUOUS
 10
1733.2916250000001
 20
6015.7602247881759
 30
0.0
 11
3253.2916249999998
 21
6015.7602247881759
 31
0.0
  0
LINE
  5
7B03
  8
1
  6
CONTINUOUS
 10
1678.2916249999989
 20
5963.7602247881759
 30
0.0
 11
2801.0316250000001
 21
5963.7602247881759
 31
0.0
  0
LINE
  5
7B04
  8
1
  6
CONTINUOUS
 10
1733.2916250000001
 20
6130.7602247881759
 30
0.0
 11
1733.2916250000001
 21
5963.7602247881759
 31
0.0
  0
LINE
  5
7B05
  8
1
  6
CONTINUOUS
 10
1733.2916250000001
 20
6130.7602247881759
 30
0.0
 11
1693.2916250000001
 21
6130.7602247881759
 31
0.0
  0
LINE
  5
7B06
  8
1
  6
CONTINUOUS
 10
1693.2916250000001
 20
6130.7602247881759
 30
0.0
 11
1693.2916250000001
 21
5963.7602247881759
 31
0.0
  0
LINE
  5
7B07
  8
1
  6
CONTINUOUS
 10
3293.2916249999998
 20
6130.7602247881759
 30
0.0
 11
3253.2916249999998
 21
6130.7602247881759
 31
0.0
  0
LINE
  5
7B12
  8
1
  6
CONTINUOUS
 10
5134.4411566097751
 20
2609.5038140000001
 30
0.0
 11
4144.4411566097751
 21
2609.5038140000001
 31
0.0
  0
LINE
  5
7B13
  8
1
  6
CONTINUOUS
 10
5134.4411566097751
 20
2509.5038140000001
 30
0.0
 11
4144.4411566097751
 21
2509.5038140000001
 31
0.0
  0
LINE
  5
7B15
  8
1
  6
CONTINUOUS
 10
4144.4411566097751
 20
2609.5038140000001
 30
0.0
 11
4144.4411566097751
 21
2509.5038140000001
 31
0.0
  0
LINE
  5
7B16
  8
1
  6
CONTINUOUS
 10
5134.4411566097751
 20
2609.5038140000001
 30
0.0
 11
5134.4411566097751
 21
2509.5038140000001
 31
0.0
  0
LINE
  5
7B54
  8
1
  6
CONTINUOUS
 10
4437.4411566097751
 20
3559.5038140000001
 30
0.0
 11
4967.4411566097751
 21
2829.5038140000001
 31
0.0
  0
LINE
  5
7B55
  8
1
  6
CONTINUOUS
 10
4967.4411566097751
 20
3559.5038140000001
 30
0.0
 11
4437.4411566097751
 21
2829.5038140000001
 31
0.0
  0
LINE
  5
7B56
  8
1
  6
CONTINUOUS
 10
5019.441156609776
 20
2735.5038140000001
 30
0.0
 11
4202.4411566097751
 21
2735.5038140000001
 31
0.0
  0
LINE
  5
7B57
  8
1
  6
CONTINUOUS
 10
5019.441156609776
 20
2635.5038140000001
 30
0.0
 11
4259.4411566097751
 21
2635.5038140000001
 31
0.0
  0
LINE
  5
7B58
  8
1
  6
CONTINUOUS
 10
4437.4411566097751
 20
3956.5038140000001
 30
0.0
 11
4967.4411566097751
 21
3956.5038140000001
 31
0.0
  0
LINE
  5
7B59
  8
1
  6
CONTINUOUS
 10
4437.4411566097751
 20
2829.5038140000001
 30
0.0
 11
4967.4411566097751
 21
2829.5038140000001
 31
0.0
  0
LINE
  5
7B5A
  8
1
  6
CONTINUOUS
 10
4437.4411566097751
 20
3559.5038140000001
 30
0.0
 11
4967.4411566097751
 21
3559.5038140000001
 31
0.0
  0
LINE
  5
7B5C
  8
1
  6
CONTINUOUS
 10
4312.4411566097751
 20
3546.5038140000001
 30
0.0
 11
4437.4411566097751
 21
3546.5038140000001
 31
0.0
  0
LINE
  5
7B5D
  8
1
  6
CONTINUOUS
 10
4312.4411566097751
 20
3504.5038140000001
 30
0.0
 11
4437.4411566097751
 21
3504.5038140000001
 31
0.0
  0
LINE
  5
7B5E
  8
1
  6
CONTINUOUS
 10
4312.4411566097751
 20
2874.5038140000001
 30
0.0
 11
4437.4411566097751
 21
2874.5038140000001
 31
0.0
  0
LINE
  5
7B5F
  8
1
  6
CONTINUOUS
 10
4312.4411566097751
 20
2916.5038140000001
 30
0.0
 11
4437.4411566097751
 21
2916.5038140000001
 31
0.0
  0
LINE
  5
7B60
  8
1
  6
CONTINUOUS
 10
4232.4411566097751
 20
2975.5038140000001
 30
0.0
 11
4312.4411566097751
 21
2975.5038140000001
 31
0.0
  0
LINE
  5
7B61
  8
1
  6
CONTINUOUS
 10
4232.4411566097751
 20
2815.5038140000001
 30
0.0
 11
4312.4411566097751
 21
2815.5038140000001
 31
0.0
  0
LINE
  5
7B62
  8
1
  6
CONTINUOUS
 10
4232.4411566097751
 20
3675.5038140000001
 30
0.0
 11
4312.4411566097751
 21
3675.5038140000001
 31
0.0
  0
LINE
  5
7B63
  8
1
  6
CONTINUOUS
 10
4232.4411566097751
 20
3375.5038140000001
 30
0.0
 11
4312.4411566097751
 21
3375.5038140000001
 31
0.0
  0
LINE
  5
7B64
  8
1
  6
CONTINUOUS
 10
4232.4411566097751
 20
2815.5038140000001
 30
0.0
 11
4232.4411566097751
 21
2975.5038140000001
 31
0.0
  0
LINE
  5
7B65
  8
1
  6
CONTINUOUS
 10
4312.4411566097751
 20
2815.5038140000001
 30
0.0
 11
4312.4411566097751
 21
2975.5038140000001
 31
0.0
  0
LINE
  5
7B66
  8
1
  6
CONTINUOUS
 10
4232.4411566097751
 20
3375.5038140000001
 30
0.0
 11
4232.4411566097751
 21
3675.5038140000001
 31
0.0
  0
LINE
  5
7B67
  8
1
  6
CONTINUOUS
 10
4312.4411566097751
 20
3375.5038140000001
 30
0.0
 11
4312.4411566097751
 21
3675.5038140000001
 31
0.0
  0
LINE
  5
7B68
  8
1
  6
CONTINUOUS
 10
4342.4411566097751
 20
3875.5038140000001
 30
0.0
 11
4342.4411566097751
 21
2735.5038140000001
 31
0.0
  0
LINE
  5
7B69
  8
1
  6
CONTINUOUS
 10
4342.4411566097751
 20
3875.5038140000001
 30
0.0
 11
4202.4411566097751
 21
3875.5038140000001
 31
0.0
  0
LINE
  5
7B6A
  8
1
  6
CONTINUOUS
 10
4202.4411566097751
 20
3875.5038140000001
 30
0.0
 11
4202.4411566097751
 21
2735.5038140000001
 31
0.0
  0
LINE
  5
7B6B
  8
1
  6
CONTINUOUS
 10
4259.4411566097751
 20
2735.5038140000001
 30
0.0
 11
4259.4411566097751
 21
2635.5038140000001
 31
0.0
  0
LINE
  5
7B6C
  8
1
  6
CONTINUOUS
 10
4437.4411566097751
 20
3956.5038140000001
 30
0.0
 11
4437.4411566097751
 21
2735.5038140000001
 31
0.0
  0
LINE
  5
7B6D
  8
1
  6
CONTINUOUS
 10
5019.441156609776
 20
2735.5038140000001
 30
0.0
 11
5019.441156609776
 21
2635.5038140000001
 31
0.0
  0
LINE
  5
7B6E
  8
1
  6
CONTINUOUS
 10
4967.4411566097751
 20
3956.5038140000001
 30
0.0
 11
4967.4411566097751
 21
2735.5038140000001
 31
0.0
  0
LINE
  5
7B75
  8
2
  6
CENTER
 10
4702.4411566097751
 20
4097.6186270000007
 30
0.0
 11
4702.4411566097751
 21
2290.6229719999992
 31
0.0
  0
LINE
  5
7B76
  8
2
  6
CENTER
 10
3408.4773380000001
 20
5698.7602247881759
 30
0.0
 11
1560.019687
 21
5698.7602247881759
 31
0.0
  0
LINE
  5
7B77
  8
2
  6
CENTER
 10
2213.2916249999989
 20
4217.6540530000002
 30
0.0
 11
2213.2916249999989
 21
2355.4016710000001
 31
0.0
  0
LINE
  5
7B78
  8
2
  6
CENTER
 10
4064.0149096097748
 20
3525.5038140000001
 30
0.0
 11
5084.2317466097738
 21
3525.5038140000001
 31
0.0
  0
LINE
  5
7B79
  8
4
  6
CONTINUOUS
 10
5550.0
 20
1500.0
 30
0.0
 11
5550.0
 21
900.0
 31
0.0
  0
LINE
  5
7B7A
  8
4
  6
CONTINUOUS
 10
3450.0
 20
1500.0
 30
0.0
 11
3450.0
 21
900.0
 31
0.0
  0
LINE
  5
7B7B
  8
4
  6
CONTINUOUS
 10
1950.0
 20
1500.0
 30
0.0
 11
1950.0
 21
900.0
 31
0.0
  0
LINE
  5
7B7E
  8
4
  6
CONTINUOUS
 10
1950.0
 20
900.0
 30
0.0
 11
5550.0
 21
900.0
 31
0.0
  0
LINE
  5
7B7F
  8
4
  6
CONTINUOUS
 10
1950.0
 20
1200.0
 30
0.0
 11
5550.0
 21
1200.0
 31
0.0
  0
TEXT
  5
7B80
  8
4
  6
CONTINUOUS
 10
2065.5062429999989
 20
1294.6290779999999
 30
0.0
 40
150.0
  1
機器名称
  0
TEXT
  5
7B81
  8
4
  6
CONTINUOUS
 10
2058.7743179999989
 20
964.9354699999999
 30
0.0
 40
150.0
  1
機器型番
  0
TEXT
  5
7B82
  8
4
  6
CONTINUOUS
 10
3533.0362359999999
 20
1267.7153069999999
 30
0.0
 40
150.0
  1
ミツヤ多翼送風機
  0
TEXT
  5
7B83
  8
4
  6
CONTINUOUS
 10
3559.9634869999991
 20
951.47875299999987
 30
0.0
 40
150.0
  1
MF#4 1/2-4
  0
TEXT
  5
7B85
  8
4
  6
CONTINUOUS
 10
2265.154387
 20
7150.2865239999992
 30
0.0
 40
162.0
  1
天井吊防振ベット
  0
TEXT
  5
7B86
  8
4
  6
CONTINUOUS
 10
948.50278000000014
 20
7601.6429289999996
 30
0.0
 40
216.0
  1
ベルト駆動式片吸込両持多翼ファン
  0
LINE
  5
7B87
  8
4
  6
CONTINUOUS
 10
750.0
 20
7408.2262629999996
 30
0.0
 11
5550.0
 21
7408.2262629999996
 31
0.0
  0
LINE
  5
7B88
  8
4
  6
CONTINUOUS
 10
750.0
 20
8008.2262629999996
 30
0.0
 11
5550.0
 21
8008.2262629999996
 31
0.0
  0
LINE
  5
7B89
  8
4
  6
CONTINUOUS
 10
1950.0
 20
1500.0
 30
0.0
 11
5550.0
 21
1500.0
 31
0.0
  0
LINE
  5
7B8A
  8
4
  6
CONTINUOUS
 10
750.0
 20
8008.2262629999996
 30
0.0
 11
750.0
 21
7408.2262629999996
 31
0.0
  0
TEXT
  5
7B8B
  8
4
  6
CONTINUOUS
 10
957.57789100000002
 20
7146.9584329999998
 30
0.0
 40
162.0
  1
右回転左横向
  0
TEXT
  5
7B8C
  8
4
  6
CONTINUOUS
 10
4406.9086779999989
 20
8118.1832439999989
 30
0.0
 40
168.0
  1
No.
  0
TEXT
  5
7B8D
  8
4
  6
CONTINUOUS
 10
3933.8881879999999
 20
7150.2865239999992
 30
0.0
 40
162.0
  1
縮尺：1/30
  0
LINE
  5
7B8E
  8
4
  6
CONTINUOUS
 10
5550.0
 20
8008.2262629999996
 30
0.0
 11
5550.0
 21
7408.2262629999996
 31
0.0
  0
LINE
  5
7B90
  8
4
  6
CONTINUOUS
 10
4321.8522670000002
 20
8043.7907490000007
 30
0.0
 11
4321.8522670000002
 21
8359.9567849999985
 31
0.0
  0
LINE
  5
7B91
  8
4
  6
CONTINUOUS
 10
4321.8522670000002
 20
8359.9567849999985
 30
0.0
 11
5550.0
 21
8359.9567849999985
 31
0.0
  0
LINE
  5
7B92
  8
4
  6
CONTINUOUS
 10
5550.0
 20
8359.9567849999985
 30
0.0
 11
5550.0
 21
8043.7907490000007
 31
0.0
  0
LINE
  5
7B93
  8
4
  6
CONTINUOUS
 10
5550.0
 20
8043.7907490000007
 30
0.0
 11
4321.8522670000002
 21
8043.7907490000007
 31
0.0
  0
DIMENSION
  5
7BAB
  8
3
  6
CONTINUOUS
  2
*D1
 10
1518.8365679999999
 20
2829.5038140000001
 30
0.0
 11
1518.8365679999999
 21
3175.9696610000001
 31
0.0
 70
   128
 13
1678.2916249999989
 23
3559.5038140000001
 33
0.0
 14
1678.2916249999989
 24
2829.5038140000001
 34
0.0
 50
90.0
1001
ACAD
1000
DSTYLE
1002
{
1070
   287
1070
     3
1070
    40
1040
30.0
1070
   143
1040
0.039
1070
   172
1070
     1
1070
   271
1070
     0
1070
   279
1070
     0
1070
   288
1070
     1
1002
}
  0
DIMENSION
  5
7BB8
  8
3
  6
CONTINUOUS
  2
*D2
 10
1343.960243
 20
2829.5038140000001
 30
0.0
 11
1343.960243
 21
3188.451697
 31
0.0
 70
   128
 13
1516.6307019999999
 23
3525.5038140000001
 33
0.0
 14
1678.2916249999989
 24
2829.5038140000001
 34
0.0
 50
90.0
1001
ACAD
1000
DSTYLE
1002
{
1070
   287
1070
     3
1070
    40
1040
30.0
1070
   143
1040
0.039
1070
   172
1070
     1
1070
   271
1070
     0
1070
   279
1070
     0
1070
   288
1070
     1
1002
}
  0
DIMENSION
  5
7BD1
  8
3
  6
CONTINUOUS
  2
*D3
 10
1169.083918999999
 20
2635.5038140000001
 30
0.0
 11
1094.083918999999
 21
3080.5038140000001
 31
0.0
 70
     0
 13
1516.6307019999999
 23
3525.5038140000001
 33
0.0
 14
1743.2916250000001
 24
2635.5038140000001
 34
0.0
 50
90.0
1001
ACAD
1000
DSTYLE
1002
{
1070
   287
1070
     3
1070
    40
1040
30.0
1070
   143
1040
0.039
1070
   172
1070
     1
1070
   271
1070
     0
1070
   279
1070
     0
1070
   288
1070
     1
1002
}
  0
DIMENSION
  5
7BE1
  8
3
  6
CONTINUOUS
  2
*D4
 10
1170.79856
 20
2509.5038140000001
 30
0.0
 11
1170.798559999999
 21
2254.5038140000001
 31
0.0
 70
   128
 13
1743.2916250000001
 23
2635.5038140000001
 33
0.0
 14
1693.2916250000001
 24
2509.5038140000001
 34
0.0
 50
90.0
1001
ACAD
1000
DSTYLE
1002
{
1070
   287
1070
     3
1070
    40
1040
30.0
1070
   143
1040
0.039
1070
   172
1070
     1
1070
   271
1070
     0
1070
   279
1070
     0
1070
   288
1070
     1
1002
}
  0
DIMENSION
  5
7BFB
  8
3
  6
CONTINUOUS
  2
*D5
 10
2213.2916249999989
 20
2243.1949970000001
 30
0.0
 11
1936.6674949999999
 21
2243.1949970000001
 31
0.0
 70
   128
 13
1693.2916250000001
 23
2509.5038140000001
 33
0.0
 14
2213.2916249999989
 24
2304.8022190000002
 34
0.0
1001
ACAD
1000
DSTYLE
1002
{
1070
   287
1070
     3
1070
    40
1040
30.0
1070
   143
1040
0.039
1070
   172
1070
     1
1070
   271
1070
     0
1070
   279
1070
     0
1070
   288
1070
     1
1002
}
  0
DIMENSION
  5
7C07
  8
3
  6
CONTINUOUS
  2
*D6
 10
3293.2916249999998
 20
2243.1949970000001
 30
0.0
 11
2753.2916249999998
 21
2318.1949970000001
 31
0.0
 70
     0
 13
2213.2916249999989
 23
2304.8022190000002
 33
0.0
 14
3293.2916249999998
 24
2509.5038140000001
 34
0.0
1001
ACAD
1000
DSTYLE
1002
{
1070
   287
1070
     4
1070
    40
1040
30.0
1070
    75
1070
     1
1070
   143
1040
0.039
1070
   172
1070
     1
1070
   271
1070
     0
1070
   279
1070
     1
1070
   288
1070
     1
1002
}
  0
DIMENSION
  5
7C14
  8
3
  6
CONTINUOUS
  2
*D7
 10
2213.2916249999989
 20
4211.9780020000007
 30
0.0
 11
1936.6674949999999
 21
4211.9780020000007
 31
0.0
 70
   128
 13
1678.2916249999989
 23
3599.5038140000001
 33
0.0
 14
2213.2916249999989
 24
4167.0546009999998
 34
0.0
1001
ACAD
1000
DSTYLE
1002
{
1070
   287
1070
     3
1070
    40
1040
30.0
1070
   143
1040
0.039
1070
   172
1070
     1
1070
   271
1070
     0
1070
   279
1070
     0
1070
   288
1070
     1
1002
}
  0
DIMENSION
  5
7C2D
  8
3
  6
CONTINUOUS
  2
*D8
 10
4437.4411566097751
 20
4114.6496799999986
 30
0.0
 11
4687.6426676097753
 21
4114.6496799999986
 31
0.0
 70
   128
 13
4967.4411566097751
 23
3956.5038140000001
 33
0.0
 14
4437.4411566097751
 24
3956.5038140000001
 34
0.0
1001
ACAD
1000
DSTYLE
1002
{
1070
   287
1070
     3
1070
    40
1040
30.0
1070
   143
1040
0.039
1070
   172
1070
     1
1070
   271
1070
     0
1070
   279
1070
     0
1070
   288
1070
     1
1002
}
  0
LINE
  5
7C2E
  8
1
  6
CONTINUOUS
 10
4969.4411566097751
 20
3902.5038140000001
 30
0.0
 11
4969.4411566097751
 21
3148.5038140000001
 31
0.0
  0
DIMENSION
  5
7C3D
  8
3
  6
CONTINUOUS
  2
*D9
 10
5249.7451356097763
 20
3148.5038139999988
 30
0.0
 11
5249.7451356097754
 21
3506.7434130000001
 31
0.0
 70
   128
 13
4969.4411566097751
 23
3902.5038140000001
 33
0.0
 14
4969.4411566097751
 24
3148.5038140000001
 34
0.0
 50
90.0
1001
ACAD
1000
DSTYLE
1002
{
1070
   287
1070
     3
1070
     3
1000
φ<>
1070
    40
1040
30.0
1070
   143
1040
0.039
1070
   172
1070
     1
1070
   271
1070
     0
1070
   279
1070
     0
1070
   288
1070
     1
1002
}
  0
DIMENSION
  5
7C4B
  8
3
  6
CONTINUOUS
  2
*D10
 10
4702.4411566097751
 20
4339.3261860000002
 30
0.0
 11
4847.559617682422
 21
4424.4405550736083
 31
0.0
 70
   128
 13
4969.4411566097751
 23
3902.5038140000001
 33
0.0
 14
4702.4411566097751
 24
4277.8932109999996
 34
0.0
1001
ACAD
1000
DSTYLE
1002
{
1070
   288
1070
     1
1070
   172
1070
     1
1070
    40
1040
30.0
1070
   271
1070
     0
1070
   143
1040
0.039
1002
}
  0
DIMENSION
  5
7C57
  8
3
  6
CONTINUOUS
  2
*D11
 10
4202.4411566097751
 20
4339.3261860000002
 30
0.0
 11
4452.4411566097751
 21
4489.3261860000002
 31
0.0
 70
     0
  1
MAX\P560
 13
4702.4411566097751
 23
4277.8932109999996
 33
0.0
 14
4202.4411566097751
 24
3875.5038140000001
 34
0.0
1001
ACAD
1000
DSTYLE
1002
{
1070
   287
1070
     4
1070
    40
1040
30.0
1070
    75
1070
     1
1070
   143
1040
0.039
1070
   172
1070
     1
1070
   271
1070
     0
1070
   279
1070
     1
1070
   288
1070
     1
1002
}
  0
DIMENSION
  5
7C64
  8
3
  6
CONTINUOUS
  2
*D12
 10
4702.4411566097751
 20
2224.1362789999998
 30
0.0
 11
4431.5737516097752
 21
2224.1362789999998
 31
0.0
 70
   128
 13
4144.4411566097751
 23
2509.5038140000001
 33
0.0
 14
4702.4411566097751
 24
2290.6229719999992
 34
0.0
1001
ACAD
1000
DSTYLE
1002
{
1070
   287
1070
     3
1070
    40
1040
30.0
1070
   143
1040
0.039
1070
   172
1070
     1
1070
   271
1070
     0
1070
   279
1070
     0
1070
   288
1070
     1
1002
}
  0
DIMENSION
  5
7C70
  8
3
  6
CONTINUOUS
  2
*D13
 10
5134.4411566097751
 20
2224.1362789999998
 30
0.0
 11
4918.4411566097751
 21
2299.1362789999998
 31
0.0
 70
     0
 13
4702.4411566097751
 23
2290.6229719999992
 33
0.0
 14
5134.4411566097751
 24
2509.5038140000001
 34
0.0
1001
ACAD
1000
DSTYLE
1002
{
1070
   287
1070
     4
1070
    40
1040
30.0
1070
    75
1070
     1
1070
   143
1040
0.039
1070
   172
1070
     1
1070
   271
1070
     0
1070
   279
1070
     1
1070
   288
1070
     1
1002
}
  0
DIMENSION
  5
7C9F
  8
3
  6
CONTINUOUS
  2
*D14
 10
3293.2916249999998
 20
6316.7158327881762
 30
0.0
 11
2448.805292999999
 21
6316.7158327881762
 31
0.0
 70
   128
 13
1693.2916250000001
 23
6130.7602247881759
 33
0.0
 14
3293.2916249999998
 24
6130.7602247881759
 34
0.0
1001
ACAD
1000
DSTYLE
1002
{
1070
   287
1070
     3
1070
    40
1040
30.0
1070
   143
1040
0.039
1070
   172
1070
     1
1070
   271
1070
     0
1070
   279
1070
     0
1070
   288
1070
     1
1002
}
  0
DIMENSION
  5
7CAC
  8
3
  6
CONTINUOUS
  2
*D15
 10
3548.0279100000012
 20
5140.7602247881759
 30
0.0
 11
3548.0279099999998
 21
5617.2187657881759
 31
0.0
 70
   128
 13
3293.2916249999998
 23
6130.7602247881759
 33
0.0
 14
3293.2916249999998
 24
5140.7602247881759
 34
0.0
 50
90.0
1001
ACAD
1000
DSTYLE
1002
{
1070
   287
1070
     3
1070
    40
1040
30.0
1070
   143
1040
0.039
1070
   172
1070
     1
1070
   271
1070
     0
1070
   279
1070
     0
1070
   288
1070
     1
1002
}
  0
DIMENSION
  5
7CBD
  8
3
  6
CONTINUOUS
  2
*D16
 10
1169.083918999999
 20
4033.4852185285272
 30
0.0
 11
1094.083918999999
 21
3779.4945162642639
 31
0.0
 70
     0
 13
1516.6307019999999
 23
3525.5038140000001
 33
0.0
 14
2213.2916249999989
 24
4033.4852185285272
 34
0.0
 50
90.0
1001
ACAD
1000
DSTYLE
1002
{
1070
   287
1070
     4
1070
    40
1040
30.0
1070
    75
1070
     1
1070
   143
1040
0.039
1070
   172
1070
     1
1070
   271
1070
     0
1070
   279
1070
     1
1070
   288
1070
     1
1002
}
  0
DIMENSION
  5
7CF0
  8
3
  6
CONTINUOUS
  2
*D17
 10
2799.289150999999
 20
4211.9780020000007
 30
0.0
 11
2506.2903879999999
 21
4286.9780019999998
 31
0.0
 70
     0
 13
2213.2916249999989
 23
4167.0546009999998
 33
0.0
 14
2799.289150999999
 24
3525.5038140000001
 34
0.0
1001
ACAD
1000
DSTYLE
1002
{
1070
   287
1070
     4
1070
    40
1040
30.0
1070
    75
1070
     1
1070
   143
1040
0.039
1070
   172
1070
     1
1070
   271
1070
     0
1070
   279
1070
     1
1070
   288
1070
     1
1002
}
  0
DIMENSION
  5
7DA0
  8
3
  2
*D18
 10
3293.2916249999998
 20
4392.8979424445461
 30
0.0
 11
2442.0275205934049
 21
4392.8979424445461
 31
0.0
 70
   128
 13
1678.2916249999989
 23
3599.5038140000001
 33
0.0
 14
3293.2916249999998
 24
2609.5038140000001
 34
0.0
1001
ACAD
1000
DSTYLE
1002
{
1070
   287
1070
     3
1070
    40
1040
30.0
1070
   143
1040
0.039
1070
   172
1070
     1
1070
   271
1070
     0
1070
   279
1070
     0
1070
   288
1070
     1
1002
}
  0
LINE
  5
7DCF
  8
1
 10
2673.2916249999998
 20
3655.5038140000011
 30
0.0
 11
2673.2916249999998
 21
2735.5038140000001
 31
0.0
  0
LINE
  5
7DD0
  8
1
 10
1753.2916250000001
 20
3655.5038140000001
 30
0.0
 11
1753.2916250000001
 21
2735.5038140000001
 31
0.0
  0
LINE
  5
7DD1
  8
1
  6
CONTINUOUS
 10
1753.2916250000001
 20
3655.5038140000001
 30
0.0
 11
2673.2916249999998
 21
3655.5038140000011
 31
0.0
  0
ENDSEC
  0
EOF
