  0
SECTION
  2
HEADER
  9
$ACADVER
  1
AC1009
  9
$INSBASE
 10
0.0
 20
0.0
 30
0.0
  9
$EXTMIN
 10
750.0
 20
900.0
 30
0.0
  9
$EXTMAX
 10
5550.0
 20
8359.9567849999985
 30
0.0
  9
$LIMMIN
 10
0.0
 20
0.0
  9
$LIMMAX
 10
297.0
 20
210.0
  9
$ORTHOMODE
 70
     0
  9
$REGENMODE
 70
     1
  9
$FILLMODE
 70
     0
  9
$QTEXTMODE
 70
     0
  9
$MIRRTEXT
 70
     1
  9
$DRAGMODE
 70
     2
  9
$LTSCALE
 40
100.0
  9
$OSMODE
 70
    37
  9
$ATTMODE
 70
     1
  9
$TEXTSIZE
 40
180.0
  9
$TRACEWID
 40
0.05
  9
$TEXTSTYLE
  7
STANDARD
  9
$CLAYER
  8
3
  9
$CELTYPE
  6
BYLAYER
  9
$CECOLOR
 62
   256
  9
$DIMSCALE
 40
30.0
  9
$DIMASZ
 40
2.0
  9
$DIMEXO
 40
0.5
  9
$DIMDLI
 40
10.0
  9
$DIMRND
 40
0.0
  9
$DIMDLE
 40
0.0
  9
$DIMEXE
 40
1.0
  9
$DIMTP
 40
1.0
  9
$DIMTM
 40
1.0
  9
$DIMTXT
 40
3.0
  9
$DIMCEN
 40
0.0
  9
$DIMTSZ
 40
0.0
  9
$DIMTOL
 70
     0
  9
$DIMLIM
 70
     0
  9
$DIMTIH
 70
     0
  9
$DIMTOH
 70
     0
  9
$DIMSE1
 70
     0
  9
$DIMSE2
 70
     0
  9
$DIMTAD
 70
     1
  9
$DIMZIN
 70
     8
  9
$DIMBLK
  1

  9
$DIMASO
 70
     1
  9
$DIMSHO
 70
     1
  9
$DIMPOST
  1

  9
$DIMAPOST
  1

  9
$DIMALT
 70
     0
  9
$DIMALTD
 70
     2
  9
$DIMALTF
 40
0.039
  9
$DIMLFAC
 40
1.0
  9
$DIMTOFL
 70
     1
  9
$DIMTVP
 40
0.0
  9
$DIMTIX
 70
     0
  9
$DIMSOXD
 70
     0
  9
$DIMSAH
 70
     1
  9
$DIMBLK1
  1
OPEN
  9
$DIMBLK2
  1
OPEN
  9
$DIMSTYLE
  2
IGA
  9
$DIMCLRD
 70
     0
  9
$DIMCLRE
 70
     0
  9
$DIMCLRT
 70
     0
  9
$DIMTFAC
 40
10.0
  9
$DIMGAP
 40
1.0
  9
$LUNITS
 70
     2
  9
$LUPREC
 70
     3
  9
$SKETCHINC
 40
0.1
  9
$FILLETRAD
 40
0.0
  9
$AUNITS
 70
     0
  9
$AUPREC
 70
     0
  9
$MENU
  1
acad
  9
$ELEVATION
 40
0.0
  9
$PELEVATION
 40
0.0
  9
$THICKNESS
 40
0.0
  9
$LIMCHECK
 70
     0
  9
$BLIPMODE
 70
     0
  9
$CHAMFERA
 40
0.5
  9
$CHAMFERB
 40
0.5
  9
$SKPOLY
 70
     0
  9
$TDCREATE
 40
2450744.5461856481
  9
$TDUPDATE
 40
2454953.772729849
  9
$TDINDWG
 40
0.0066669792
  9
$TDUSRTIMER
 40
0.0066669792
  9
$USRTIMER
 70
     1
  9
$ANGBASE
 50
0.0
  9
$ANGDIR
 70
     0
  9
$PDMODE
 70
     0
  9
$PDSIZE
 40
0.0
  9
$PLINEWID
 40
0.0
  9
$COORDS
 70
     1
  9
$SPLFRAME
 70
     0
  9
$SPLINETYPE
 70
     6
  9
$SPLINESEGS
 70
     8
  9
$ATTDIA
 70
     0
  9
$ATTREQ
 70
     1
  9
$HANDLING
 70
 10241
  9
$HANDSEED
  5
7DD1
  9
$SURFTAB1
 70
     6
  9
$SURFTAB2
 70
     6
  9
$SURFTYPE
 70
     6
  9
$SURFU
 70
     6
  9
$SURFV
 70
     6
  9
$UCSNAME
  2

  9
$UCSORG
 10
0.0
 20
0.0
 30
0.0
  9
$UCSXDIR
 10
1.0
 20
0.0
 30
0.0
  9
$UCSYDIR
 10
0.0
 20
1.0
 30
0.0
  9
$PUCSNAME
  2

  9
$PUCSORG
 10
0.0
 20
0.0
 30
0.0
  9
$PUCSXDIR
 10
1.0
 20
0.0
 30
0.0
  9
$PUCSYDIR
 10
0.0
 20
1.0
 30
0.0
  9
$USERI1
 70
     0
  9
$USERI2
 70
     0
  9
$USERI3
 70
     0
  9
$USERI4
 70
     0
  9
$USERI5
 70
     0
  9
$USERR1
 40
0.0
  9
$USERR2
 40
0.0
  9
$USERR3
 40
0.0
  9
$USERR4
 40
0.0
  9
$USERR5
 40
0.0
  9
$WORLDVIEW
 70
     1
  9
$SHADEDGE
 70
     3
  9
$SHADEDIF
 70
    70
  9
$TILEMODE
 70
     1
  9
$MAXACTVP
 70
    16
  9
$PLIMCHECK
 70
     0
  9
$PEXTMIN
 10
1.0000000000000000E+020
 20
1.0000000000000000E+020
 30
1.0000000000000000E+020
  9
$PEXTMAX
 10
-1.0000000000000000E+020
 20
-1.0000000000000000E+020
 30
-1.0000000000000000E+020
  9
$PLIMMIN
 10
0.0
 20
0.0
  9
$PLIMMAX
 10
12.0
 20
9.0
  9
$UNITMODE
 70
     0
  9
$VISRETAIN
 70
     0
  9
$PLINEGEN
 70
     0
  9
$PSLTSCALE
 70
     1
  0
ENDSEC
  0
SECTION
  2
TABLES
  0
TABLE
  2
VPORT
 70
     2
  0
VPORT
  2
*ACTIVE
 70
     0
 10
0.0
 20
0.0
 11
1.0
 21
1.0
 12
9437.9954746499006
 22
4629.9199394653269
 13
0.0
 23
0.0
 14
10.0
 24
10.0
 15
10.0
 25
10.0
 16
0.0
 26
0.0
 36
1.0
 17
0.0
 27
0.0
 37
0.0
 40
7517.061441529765
 41
3.1666666666666661
 42
50.0
 43
0.0
 44
0.0
 50
0.0
 51
0.0
 71
     0
 72
   100
 73
     1
 74
     0
 75
     0
 76
     0
 77
     0
 78
     0
  0
ENDTAB
  0
TABLE
  2
LTYPE
 70
     2
  0
LTYPE
  2
CONTINUOUS
 70
     0
  3
Solid line
 72
    65
 73
     0
 40
0.0
  0
LTYPE
  2
CENTER
 70
     0
  3
____ _ ____ _ ____ _ ____ _ ____ _ ____ _ ____ 
 72
    65
 73
     4
 40
2.0
 49
1.25
 49
-0.25
 49
0.25
 49
-0.25
  0
ENDTAB
  0
TABLE
  2
LAYER
 70
     6
  0
LAYER
  2
0
 70
     0
 62
     7
  6
CONTINUOUS
  0
LAYER
  2
3
 70
     0
 62
     2
  6
CONTINUOUS
  0
LAYER
  2
2
 70
     0
 62
     3
  6
CENTER
  0
LAYER
  2
1
 70
     0
 62
     4
  6
CONTINUOUS
  0
LAYER
  2
4
 70
     0
 62
     7
  6
CONTINUOUS
  0
LAYER
  2
DEFPOINTS
 70
     0
 62
     7
  6
CONTINUOUS
  0
ENDTAB
  0
TABLE
  2
STYLE
 70
     1
  0
STYLE
  2
STANDARD
 70
     0
 40
0.0
 41
1.0
 50
0.0
 71
     0
 42
180.0
  3
simplex.shx
  4
extfont.shx
  0
ENDTAB
  0
TABLE
  2
VIEW
 70
     0
  0
ENDTAB
  0
TABLE
  2
UCS
 70
     0
  0
ENDTAB
  0
TABLE
  2
APPID
 70
     1
  0
APPID
  2
ACAD
 70
     0
  0
ENDTAB
  0
TABLE
  2
DIMSTYLE
 70
     1
  0
DIMSTYLE
  2
IGA
 70
     0
  3

  4

  5

  6
OPEN
  7
OPEN
 40
2.0
 41
2.0
 42
0.5
 43
10.0
 44
1.0
 45
0.0
 46
0.0
 47
1.0
 48
1.0
140
3.0
141
0.0
142
0.0
143
0.03937
144
1.0
145
0.0
146
10.0
147
1.0
 71
     0
 72
     0
 73
     0
 74
     0
 75
     0
 76
     0
 77
     1
 78
     8
170
     0
171
     2
172
     0
173
     1
174
     0
175
     0
176
     0
177
     0
178
     0
  0
ENDTAB
  0
ENDSEC
  0
SECTION
  2
BLOCKS
  0
BLOCK
  8
0
  2
$MODEL_SPACE
 70
     0
 10
0.0
 20
0.0
 30
0.0
  3
$MODEL_SPACE
  1

  0
ENDBLK
  5
1B
  8
0
  0
BLOCK
 67
     1
  8
0
  2
$PAPER_SPACE
 70
     0
 10
0.0
 20
0.0
 30
0.0
  3
$PAPER_SPACE
  1

  0
ENDBLK
  5
18
 67
     1
  8
0
  0
BLOCK
  8
0
  2
_OPEN
 70
     0
 10
0.0
 20
0.0
 30
0.0
  3
_OPEN
  1

  0
LINE
  5
7B06
  8
0
  6
BYBLOCK
 62
     0
 10
-1.0
 20
0.166667
 30
0.0
 11
0.0
 21
0.0
 31
0.0
  0
LINE
  5
7B07
  8
0
  6
BYBLOCK
 62
     0
 10
0.0
 20
0.0
 30
0.0
 11
-1.0
 21
-0.166667
 31
0.0
  0
LINE
  5
7B08
  8
0
  6
BYBLOCK
 62
     0
 10
0.0
 20
0.0
 30
0.0
 11
-1.0
 21
0.0
 31
0.0
  0
ENDBLK
  5
7B09
  8
0
  0
BLOCK
  8
0
  2
*D1
 70
     1
 10
0.0
 20
0.0
 30
0.0
  3
*D1
  1

  0
LINE
  5
7D33
  8
3
  6
CONTINUOUS
 62
     0
 10
1581.187132
 20
3688.2010679999999
 30
0.0
 11
1581.187132
 21
3825.6962749999998
 31
0.0
  0
LINE
  5
7D34
  8
3
  6
CONTINUOUS
 62
     0
 10
2311.187132
 20
3688.2010679999999
 30
0.0
 11
2311.187132
 21
3825.6962749999998
 31
0.0
  0
LINE
  5
7D35
  8
3
  6
CONTINUOUS
 62
     0
 10
1641.1871319999991
 20
3795.6962749999989
 30
0.0
 11
2251.187132
 21
3795.6962749999989
 31
0.0
  0
INSERT
  5
7D36
  8
3
  6
CONTINUOUS
 62
     0
  2
_OPEN
 10
1581.187132
 20
3795.6962749999989
 30
0.0
 41
60.0
 42
60.0
 43
60.0
 50
180.0
  0
INSERT
  5
7D37
  8
3
  6
CONTINUOUS
 62
     0
  2
_OPEN
 10
2311.187132
 20
3795.6962749999989
 30
0.0
 41
60.0
 42
60.0
 43
60.0
  0
TEXT
  8
3
  40
90
  5
7DC0
  62
0
  72
0
  71
0
 10
1785.76
 20
3711.40
 30
0.000000
  1
730
  0
POINT
  5
7D39
  8
DEFPOINTS
  6
CONTINUOUS
 62
     0
 10
1581.187132
 20
3673.2010679999999
 30
0.0
  0
POINT
  5
7D3A
  8
DEFPOINTS
  6
CONTINUOUS
 62
     0
 10
2311.187132
 20
3673.2010679999999
 30
0.0
  0
POINT
  5
7D3B
  8
DEFPOINTS
  6
CONTINUOUS
 62
     0
 10
2311.187132
 20
3795.6962749999989
 30
0.0
  0
ENDBLK
  5
7B16
  8
0
  0
BLOCK
  8
0
  2
*D2
 70
     1
 10
0.0
 20
0.0
 30
0.0
  3
*D2
  1

  0
LINE
  5
7D3C
  8
3
  6
CONTINUOUS
 62
     0
 10
1581.187132
 20
3688.2010679999999
 30
0.0
 11
1581.187132
 21
4004.4245509999992
 31
0.0
  0
LINE
  5
7D3D
  8
3
  6
CONTINUOUS
 62
     0
 10
2277.1871319999991
 20
3888.5407914434609
 30
0.0
 11
2277.1871319999991
 21
4004.4245509999992
 31
0.0
  0
LINE
  5
7D3E
  8
3
  6
CONTINUOUS
 62
     0
 10
1641.1871319999991
 20
3974.4245510000001
 30
0.0
 11
2217.187132
 21
3974.4245510000001
 31
0.0
  0
INSERT
  5
7D3F
  8
3
  6
CONTINUOUS
 62
     0
  2
_OPEN
 10
1581.187132
 20
3974.4245510000001
 30
0.0
 41
60.0
 42
60.0
 43
60.0
 50
180.0
  0
INSERT
  5
7D40
  8
3
  6
CONTINUOUS
 62
     0
  2
_OPEN
 10
2277.1871319999991
 20
3974.4245510000001
 30
0.0
 41
60.0
 42
60.0
 43
60.0
  0
TEXT
  8
3
  40
90
  5
7DC1
  62
0
  72
0
  71
0
 10
1795.70
 20
3890.12
 30
0.000000
  1
696
  0
POINT
  5
7D42
  8
DEFPOINTS
  6
CONTINUOUS
 62
     0
 10
1581.187132
 20
3673.2010679999999
 30
0.0
  0
POINT
  5
7D43
  8
DEFPOINTS
  6
CONTINUOUS
 62
     0
 10
2277.1871319999991
 20
3873.5407914434618
 30
0.0
  0
POINT
  5
7D44
  8
DEFPOINTS
  6
CONTINUOUS
 62
     0
 10
2277.1871319999991
 20
3974.4245510000001
 30
0.0
  0
ENDBLK
  5
7B23
  8
0
  0
BLOCK
  8
0
  2
*D3
 70
     1
 10
0.0
 20
0.0
 30
0.0
  3
*D3
  1

  0
LINE
  5
7D45
  8
3
  6
CONTINUOUS
 62
     0
 10
2366.1871319999991
 20
3673.2010679999999
 30
0.0
 11
3093.7551460000009
 21
3673.2010679999989
 31
0.0
  0
LINE
  5
7D46
  8
3
  6
CONTINUOUS
 62
     0
 10
3050.5805289999989
 20
3138.2010679999999
 30
0.0
 11
3093.7551460000009
 21
3138.2010679999989
 31
0.0
  0
LINE
  5
7D47
  8
3
  6
CONTINUOUS
 62
     0
 10
3063.755146
 20
3613.2010679999999
 30
0.0
 11
3063.755146
 21
3198.2010679999989
 31
0.0
  0
INSERT
  5
7D48
  8
3
  6
CONTINUOUS
 62
     0
  2
_OPEN
 10
3063.755146
 20
3673.2010679999999
 30
0.0
 41
60.0
 42
60.0
 43
60.0
 50
90.0
  0
INSERT
  5
7D49
  8
3
  6
CONTINUOUS
 62
     0
  2
_OPEN
 10
3063.755146
 20
3138.2010679999999
 30
0.0
 41
60.0
 42
60.0
 43
60.0
 50
270.0
  0
TEXT
  8
3
  40
90
  5
7DC2
  62
0
  72
0
  71
0
 10
2808.76
 20
3244.19
 30
0.000000
  1
535
  0
POINT
  5
7D4B
  8
DEFPOINTS
  6
CONTINUOUS
 62
     0
 10
2351.187132
 20
3673.2010679999999
 30
0.0
  0
POINT
  5
7D4C
  8
DEFPOINTS
  6
CONTINUOUS
 62
     0
 10
3035.5805289999998
 20
3138.2010679999999
 30
0.0
  0
POINT
  5
7D4D
  8
DEFPOINTS
  6
CONTINUOUS
 62
     0
 10
3063.755146
 20
3138.2010679999999
 30
0.0
  0
ENDBLK
  5
7B3C
  8
0
  0
BLOCK
  8
0
  2
*D4
 70
     1
 10
0.0
 20
0.0
 30
0.0
  3
*D4
  1

  0
LINE
  5
7D4E
  8
3
  6
CONTINUOUS
 62
     0
 10
2762.187132
 20
2513.2010679999999
 30
0.0
 11
3093.755146
 21
2513.2010679999989
 31
0.0
  0
LINE
  5
7D4F
  8
3
  6
CONTINUOUS
 62
     0
 10
3063.755146
 20
3078.2010679999999
 30
0.0
 11
3063.755146
 21
2573.2010679999989
 31
0.0
  0
INSERT
  5
7D50
  8
3
  6
CONTINUOUS
 62
     0
  2
_OPEN
 10
3063.755146
 20
3138.2010679999999
 30
0.0
 41
60.0
 42
60.0
 43
60.0
 50
90.0
  0
INSERT
  5
7D51
  8
3
  6
CONTINUOUS
 62
     0
  2
_OPEN
 10
3063.755146
 20
2513.2010679999999
 30
0.0
 41
60.0
 42
60.0
 43
60.0
 50
270.0
  0
TEXT
  8
3
  40
90
  5
7DC3
  62
0
  72
0
  71
0
 10
2808.76
 20
2666.40
 30
0.000000
  1
625
  0
POINT
  5
7D53
  8
DEFPOINTS
  6
CONTINUOUS
 62
     0
 10
3035.5805289999998
 20
3138.2010679999999
 30
0.0
  0
POINT
  5
7D54
  8
DEFPOINTS
  6
CONTINUOUS
 62
     0
 10
2747.187132
 20
2513.2010679999999
 30
0.0
  0
POINT
  5
7D55
  8
DEFPOINTS
  6
CONTINUOUS
 62
     0
 10
3063.755146
 20
2513.2010679999999
 30
0.0
  0
ENDBLK
  5
7B48
  8
0
  0
BLOCK
  8
0
  2
*D5
 70
     1
 10
0.0
 20
0.0
 30
0.0
  3
*D5
  1

  0
LINE
  5
7D56
  8
3
  6
CONTINUOUS
 62
     0
 10
2762.187132
 20
2513.2010679999999
 30
0.0
 11
3093.755146
 21
2513.2010679999989
 31
0.0
  0
LINE
  5
7D57
  8
3
  6
CONTINUOUS
 62
     0
 10
2812.187132
 20
2387.2010679999989
 30
0.0
 11
3093.755146
 21
2387.2010679999989
 31
0.0
  0
LINE
  5
7D58
  8
3
  6
CONTINUOUS
 62
     0
 10
3063.755146
 20
2573.2010679999989
 30
0.0
 11
3063.755146
 21
2633.2010679999989
 31
0.0
  0
LINE
  5
7D59
  8
3
  6
CONTINUOUS
 62
     0
 10
3063.755146
 20
2327.2010679999989
 30
0.0
 11
3063.755146
 21
1997.2010679999989
 31
0.0
  0
LINE
  5
7D5A
  8
3
  6
CONTINUOUS
 62
     0
 10
3063.755146
 20
2513.2010679999999
 30
0.0
 11
3063.755146
 21
2387.2010679999989
 31
0.0
  0
INSERT
  5
7D5B
  8
3
  6
CONTINUOUS
 62
     0
  2
_OPEN
 10
3063.755146
 20
2513.2010679999999
 30
0.0
 41
60.0
 42
60.0
 43
60.0
 50
270.0
  0
INSERT
  5
7D5C
  8
3
  6
CONTINUOUS
 62
     0
  2
_OPEN
 10
3063.755146
 20
2387.2010679999989
 30
0.0
 41
60.0
 42
60.0
 43
60.0
 50
90.0
  0
TEXT
  8
3
  40
90
  5
7DC4
  62
0
  72
0
  71
0
 10
2808.76
 20
1972.90
 30
0.000000
  1
126
  0
POINT
  5
7D5E
  8
DEFPOINTS
  6
CONTINUOUS
 62
     0
 10
2747.187132
 20
2513.2010679999999
 30
0.0
  0
POINT
  5
7D5F
  8
DEFPOINTS
  6
CONTINUOUS
 62
     0
 10
2797.187132
 20
2387.2010679999989
 30
0.0
  0
POINT
  5
7D60
  8
DEFPOINTS
  6
CONTINUOUS
 62
     0
 10
3063.755146
 20
2387.2010679999989
 30
0.0
  0
ENDBLK
  5
7CE4
  8
0
  0
BLOCK
  8
0
  2
*D6
 70
     1
 10
0.0
 20
0.0
 30
0.0
  3
*D6
  1

  0
LINE
  5
7D61
  8
3
  6
CONTINUOUS
 62
     0
 10
2381.187132
 20
3673.2010679999999
 30
0.0
 11
3292.739723000001
 21
3673.2010679999989
 31
0.0
  0
LINE
  5
7D62
  8
3
  6
CONTINUOUS
 62
     0
 10
2812.187132
 20
2387.2010679999989
 30
0.0
 11
3292.7397230000001
 21
2387.2010679999989
 31
0.0
  0
LINE
  5
7D63
  8
3
  6
CONTINUOUS
 62
     0
 10
3262.739723000001
 20
3613.2010679999989
 30
0.0
 11
3262.739723000001
 21
2447.2010679999989
 31
0.0
  0
INSERT
  5
7D64
  8
3
  6
CONTINUOUS
 62
     0
  2
_OPEN
 10
3262.739723000001
 20
3673.2010679999989
 30
0.0
 41
60.0
 42
60.0
 43
60.0
 50
90.0
  0
INSERT
  5
7D65
  8
3
  6
CONTINUOUS
 62
     0
  2
_OPEN
 10
3262.739723000001
 20
2387.2010679999989
 30
0.0
 41
60.0
 42
60.0
 43
60.0
 50
270.0
  0
TEXT
  8
3
  40
90
  5
7DC5
  62
0
  72
0
  71
0
 10
3007.74
 20
2951.27
 30
0.000000
  1
1286
  0
POINT
  5
7D67
  8
DEFPOINTS
  6
CONTINUOUS
 62
     0
 10
2366.1871319999991
 20
3673.2010679999999
 30
0.0
  0
POINT
  5
7D68
  8
DEFPOINTS
  6
CONTINUOUS
 62
     0
 10
2797.187132
 20
2387.2010679999989
 30
0.0
  0
POINT
  5
7D69
  8
DEFPOINTS
  6
CONTINUOUS
 62
     0
 10
3262.739723000001
 20
2387.2010679999989
 30
0.0
  0
ENDBLK
  5
7C51
  8
0
  0
BLOCK
  8
0
  2
*D7
 70
     1
 10
0.0
 20
0.0
 30
0.0
  3
*D7
  1

  0
LINE
  5
7D6A
  8
3
  6
CONTINUOUS
 62
     0
 10
1197.187132
 20
2372.2010679999999
 30
0.0
 11
1197.187132
 21
2177.0006689999991
 31
0.0
  0
LINE
  5
7D6B
  8
3
  6
CONTINUOUS
 62
     0
 10
2277.1871319999991
 20
2283.177361999999
 30
0.0
 11
2277.1871319999991
 21
2177.0006689999991
 31
0.0
  0
LINE
  5
7D6C
  8
3
  6
CONTINUOUS
 62
     0
 10
1257.187132
 20
2207.000669
 30
0.0
 11
2217.187132
 21
2207.000669
 31
0.0
  0
INSERT
  5
7D6D
  8
3
  6
CONTINUOUS
 62
     0
  2
_OPEN
 10
1197.187132
 20
2207.000669
 30
0.0
 41
60.0
 42
60.0
 43
60.0
 50
180.0
  0
INSERT
  5
7D6E
  8
3
  6
CONTINUOUS
 62
     0
  2
_OPEN
 10
2277.1871319999991
 20
2207.000669
 30
0.0
 41
60.0
 42
60.0
 43
60.0
  0
TEXT
  8
3
  40
90
  5
7DC6
  62
0
  72
0
  71
0
 10
1567.15
 20
2122.70
 30
0.000000
  1
1080
  0
POINT
  5
7D70
  8
DEFPOINTS
  6
CONTINUOUS
 62
     0
 10
1197.187132
 20
2387.2010679999989
 30
0.0
  0
POINT
  5
7D71
  8
DEFPOINTS
  6
CONTINUOUS
 62
     0
 10
2277.1871319999991
 20
2298.1773619999999
 30
0.0
  0
POINT
  5
7D72
  8
DEFPOINTS
  6
CONTINUOUS
 62
     0
 10
2277.1871319999991
 20
2207.000669
 30
0.0
  0
ENDBLK
  5
7B72
  8
0
  0
BLOCK
  8
0
  2
*D8
 70
     1
 10
0.0
 20
0.0
 30
0.0
  3
*D8
  1

  0
LINE
  5
7D73
  8
3
  6
CONTINUOUS
 62
     0
 10
2797.187132
 20
2372.2010679999999
 30
0.0
 11
2797.187132
 21
2177.0006689999991
 31
0.0
  0
LINE
  5
7D74
  8
3
  6
CONTINUOUS
 62
     0
 10
2337.1871319999991
 20
2207.000669
 30
0.0
 11
2737.187132
 21
2207.000669
 31
0.0
  0
INSERT
  5
7D75
  8
3
  6
CONTINUOUS
 62
     0
  2
_OPEN
 10
2277.1871319999991
 20
2207.000669
 30
0.0
 41
60.0
 42
60.0
 43
60.0
 50
180.0
  0
INSERT
  5
7D76
  8
3
  6
CONTINUOUS
 62
     0
  2
_OPEN
 10
2797.187132
 20
2207.000669
 30
0.0
 41
60.0
 42
60.0
 43
60.0
  0
TEXT
  8
3
  40
90
  5
7DC7
  62
0
  72
0
  71
0
 10
2357.19
 20
2122.70
 30
0.000000
  1
520
  0
POINT
  5
7D78
  8
DEFPOINTS
  6
CONTINUOUS
 62
     0
 10
2277.1871319999991
 20
2298.1773619999999
 30
0.0
  0
POINT
  5
7D79
  8
DEFPOINTS
  6
CONTINUOUS
 62
     0
 10
2797.187132
 20
2387.2010679999989
 30
0.0
  0
POINT
  5
7D7A
  8
DEFPOINTS
  6
CONTINUOUS
 62
     0
 10
2797.187132
 20
2207.000669
 30
0.0
  0
ENDBLK
  5
7B7E
  8
0
  0
BLOCK
  8
0
  2
*D9
 70
     1
 10
0.0
 20
0.0
 30
0.0
  3
*D9
  1

  0
LINE
  5
7D7B
  8
3
  6
CONTINUOUS
 62
     0
 10
4381.5592282264561
 20
3688.2010679999999
 30
0.0
 11
4381.5592282264561
 21
3785.9789040000001
 31
0.0
  0
LINE
  5
7D7C
  8
3
  6
CONTINUOUS
 62
     0
 10
4911.5592282264561
 20
3688.2010679999999
 30
0.0
 11
4911.5592282264561
 21
3785.9789040000001
 31
0.0
  0
LINE
  5
7D7D
  8
3
  6
CONTINUOUS
 62
     0
 10
4441.5592282264561
 20
3755.9789040000001
 30
0.0
 11
4851.5592282264561
 21
3755.9789040000001
 31
0.0
  0
INSERT
  5
7D7E
  8
3
  6
CONTINUOUS
 62
     0
  2
_OPEN
 10
4381.5592282264561
 20
3755.9789040000001
 30
0.0
 41
60.0
 42
60.0
 43
60.0
 50
180.0
  0
INSERT
  5
7D7F
  8
3
  6
CONTINUOUS
 62
     0
  2
_OPEN
 10
4911.5592282264561
 20
3755.9789040000001
 30
0.0
 41
60.0
 42
60.0
 43
60.0
  0
TEXT
  8
3
  40
90
  5
7DC8
  62
0
  72
0
  71
0
 10
4477.00
 20
3671.68
 30
0.000000
  1
530
  0
POINT
  5
7D81
  8
DEFPOINTS
  6
CONTINUOUS
 62
     0
 10
4381.5592282264561
 20
3673.2010679999999
 30
0.0
  0
POINT
  5
7D82
  8
DEFPOINTS
  6
CONTINUOUS
 62
     0
 10
4911.5592282264561
 20
3673.2010679999999
 30
0.0
  0
POINT
  5
7D83
  8
DEFPOINTS
  6
CONTINUOUS
 62
     0
 10
4911.5592282264561
 20
3755.9789040000001
 30
0.0
  0
ENDBLK
  5
7BA3
  8
0
  0
BLOCK
  8
0
  2
*D10
 70
     1
 10
0.0
 20
0.0
 30
0.0
  3
*D10
  1

  0
LINE
  5
7D84
  8
3
  6
CONTINUOUS
 62
     0
 10
4928.5592282264561
 20
3515.2010679999989
 30
0.0
 11
5183.8294332264577
 21
3515.2010679999989
 31
0.0
  0
LINE
  5
7D85
  8
3
  6
CONTINUOUS
 62
     0
 10
4928.5592282264561
 20
2761.2010679999999
 30
0.0
 11
5183.8294332264577
 21
2761.2010679999989
 31
0.0
  0
LINE
  5
7D86
  8
3
  6
CONTINUOUS
 62
     0
 10
5153.8294332264577
 20
3455.2010679999989
 30
0.0
 11
5153.8294332264577
 21
2821.2010679999989
 31
0.0
  0
INSERT
  5
7D87
  8
3
  6
CONTINUOUS
 62
     0
  2
_OPEN
 10
5153.8294332264577
 20
3515.2010679999989
 30
0.0
 41
60.0
 42
60.0
 43
60.0
 50
90.0
  0
INSERT
  5
7D88
  8
3
  6
CONTINUOUS
 62
     0
  2
_OPEN
 10
5153.8294332264577
 20
2761.2010679999989
 30
0.0
 41
60.0
 42
60.0
 43
60.0
 50
270.0
  0
TEXT
  8
3
  40
90
  5
7DC9
  62
0
  72
0
  71
0
 10
4898.83
 20
2976.09
 30
0.000000
  1
φ754
  0
POINT
  5
7D8A
  8
DEFPOINTS
  6
CONTINUOUS
 62
     0
 10
4913.5592282264561
 20
3515.2010679999989
 30
0.0
  0
POINT
  5
7D8B
  8
DEFPOINTS
  6
CONTINUOUS
 62
     0
 10
4913.5592282264561
 20
2761.2010679999999
 30
0.0
  0
POINT
  5
7D8C
  8
DEFPOINTS
  6
CONTINUOUS
 62
     0
 10
5153.8294332264577
 20
2761.2010679999989
 30
0.0
  0
ENDBLK
  5
7CB2
  8
0
  0
BLOCK
  8
0
  2
*D11
 70
     1
 10
0.0
 20
0.0
 30
0.0
  3
*D11
  1

  0
LINE
  5
7C94
  8
0
  6
BYBLOCK
 62
     0
 10
4913.5592282264561
 20
3530.2010679999999
 30
0.0
 11
4913.5592282264561
 21
3964.7071579999988
 31
0.0
  0
LINE
  5
7C95
  8
0
  6
BYBLOCK
 62
     0
 10
4646.5592282264561
 20
3898.6794539999992
 30
0.0
 11
4646.5592282264561
 21
3964.7071579999988
 31
0.0
  0
LINE
  5
7C96
  8
0
  6
BYBLOCK
 62
     0
 10
4853.5592282264561
 20
3934.7071580000002
 30
0.0
 11
4706.5592282264552
 21
3934.7071580000002
 31
0.0
  0
TEXT
  5
7C97
  8
3
 62
     0
 10
4670.9232746498392
 20
3979.2508448425392
 30
0.0
 40
90.0
  1
267
  0
INSERT
  5
7C98
  8
0
  6
BYBLOCK
 62
     0
  2
_OPEN
 10
4913.5592282264561
 20
3934.7071580000002
 30
0.0
 41
60.0
 42
60.0
 43
60.0
  0
INSERT
  5
7C99
  8
0
  6
BYBLOCK
 62
     0
  2
_OPEN
 10
4646.5592282264561
 20
3934.7071580000002
 30
0.0
 41
60.0
 42
60.0
 43
60.0
 50
180.0
  0
POINT
  5
7C9A
  8
DEFPOINTS
  6
BYBLOCK
 62
     0
 10
4913.5592282264561
 20
3515.2010679999989
 30
0.0
  0
POINT
  5
7C9B
  8
DEFPOINTS
  6
BYBLOCK
 62
     0
 10
4646.5592282264561
 20
3883.6794540000001
 30
0.0
  0
POINT
  5
7C9C
  8
DEFPOINTS
  6
BYBLOCK
 62
     0
 10
4646.5592282264561
 20
3934.7071580000002
 30
0.0
  0
ENDBLK
  5
7C9D
  8
0
  0
BLOCK
  8
0
  2
*D12
 70
     1
 10
0.0
 20
0.0
 30
0.0
  3
*D12
  1

  0
LINE
  5
7D8D
  8
3
  6
CONTINUOUS
 62
     0
 10
4146.5592282264561
 20
3768.2010679999989
 30
0.0
 11
4146.5592282264561
 21
3964.7071579999988
 31
0.0
  0
LINE
  5
7D8E
  8
3
  6
CONTINUOUS
 62
     0
 10
4586.5592282264561
 20
3934.7071580000002
 30
0.0
 11
4206.5592282264552
 21
3934.7071580000002
 31
0.0
  0
INSERT
  5
7D8F
  8
3
  6
CONTINUOUS
 62
     0
  2
_OPEN
 10
4646.5592282264561
 20
3934.7071580000002
 30
0.0
 41
60.0
 42
60.0
 43
60.0
  0
INSERT
  5
7D90
  8
3
  6
CONTINUOUS
 62
     0
  2
_OPEN
 10
4146.5592282264561
 20
3934.7071580000002
 30
0.0
 41
60.0
 42
60.0
 43
60.0
 50
180.0
  0
TEXT
  8
3
  40
90
  5
7DCA
  62
0
  72
0
  71
0
 10
4216.56
 20
3925.41
 30
0.000000
  1
MAX
  0
TEXT
  8
3
  40
90
  5
7DCB
  62
0
  72
0
  71
0
 10
4216.56
 20
3808.41
 30
0.000000
  1
560
  0
POINT
  5
7D92
  8
DEFPOINTS
  6
CONTINUOUS
 62
     0
 10
4646.5592282264561
 20
3883.6794540000001
 30
0.0
  0
POINT
  5
7D93
  8
DEFPOINTS
  6
CONTINUOUS
 62
     0
 10
4146.5592282264561
 20
3753.2010679999999
 30
0.0
  0
POINT
  5
7D94
  8
DEFPOINTS
  6
CONTINUOUS
 62
     0
 10
4146.5592282264561
 20
3934.7071580000002
 30
0.0
  0
ENDBLK
  5
7CA7
  8
0
  0
BLOCK
  8
0
  2
*D13
 70
     1
 10
0.0
 20
0.0
 30
0.0
  3
*D13
  1

  0
LINE
  5
7D95
  8
3
  6
CONTINUOUS
 62
     0
 10
4088.5592282264561
 20
2372.2010679999999
 30
0.0
 11
4088.5592282264561
 21
2093.6247919999992
 31
0.0
  0
LINE
  5
7D96
  8
3
  6
CONTINUOUS
 62
     0
 10
4646.5592282264561
 20
2113.0447589999999
 30
0.0
 11
4646.5592282264561
 21
2153.6247920000001
 31
0.0
  0
LINE
  5
7D97
  8
3
  6
CONTINUOUS
 62
     0
 10
4148.5592282264561
 20
2123.6247920000001
 30
0.0
 11
4586.5592282264561
 21
2123.6247920000001
 31
0.0
  0
INSERT
  5
7D98
  8
3
  6
CONTINUOUS
 62
     0
  2
_OPEN
 10
4088.5592282264561
 20
2123.6247920000001
 30
0.0
 41
60.0
 42
60.0
 43
60.0
 50
180.0
  0
INSERT
  5
7D99
  8
3
  6
CONTINUOUS
 62
     0
  2
_OPEN
 10
4646.5592282264561
 20
2123.6247920000001
 30
0.0
 41
60.0
 42
60.0
 43
60.0
  0
TEXT
  8
3
  40
90
  5
7DCC
  62
0
  72
0
  71
0
 10
4178.90
 20
2039.32
 30
0.000000
  1
558
  0
POINT
  5
7D9B
  8
DEFPOINTS
  6
CONTINUOUS
 62
     0
 10
4088.5592282264561
 20
2387.2010679999989
 30
0.0
  0
POINT
  5
7D9C
  8
DEFPOINTS
  6
CONTINUOUS
 62
     0
 10
4646.5592282264561
 20
2098.044758999999
 30
0.0
  0
POINT
  5
7D9D
  8
DEFPOINTS
  6
CONTINUOUS
 62
     0
 10
4646.5592282264561
 20
2123.6247920000001
 30
0.0
  0
ENDBLK
  5
7C73
  8
0
  0
BLOCK
  8
0
  2
*D14
 70
     1
 10
0.0
 20
0.0
 30
0.0
  3
*D14
  1

  0
LINE
  5
7D9E
  8
3
  6
CONTINUOUS
 62
     0
 10
5078.5592282264561
 20
2372.2010679999999
 30
0.0
 11
5078.5592282264561
 21
2093.6247919999992
 31
0.0
  0
LINE
  5
7D9F
  8
3
  6
CONTINUOUS
 62
     0
 10
4706.5592282264552
 20
2123.6247920000001
 30
0.0
 11
5018.559228226457
 21
2123.6247920000001
 31
0.0
  0
INSERT
  5
7DA0
  8
3
  6
CONTINUOUS
 62
     0
  2
_OPEN
 10
4646.5592282264561
 20
2123.6247920000001
 30
0.0
 41
60.0
 42
60.0
 43
60.0
 50
180.0
  0
INSERT
  5
7DA1
  8
3
  6
CONTINUOUS
 62
     0
  2
_OPEN
 10
5078.5592282264561
 20
2123.6247920000001
 30
0.0
 41
60.0
 42
60.0
 43
60.0
  0
TEXT
  8
3
  40
90
  5
7DCD
  62
0
  72
0
  71
0
 10
4682.56
 20
2039.32
 30
0.000000
  1
432
  0
POINT
  5
7DA3
  8
DEFPOINTS
  6
CONTINUOUS
 62
     0
 10
4646.5592282264561
 20
2098.044758999999
 30
0.0
  0
POINT
  5
7DA4
  8
DEFPOINTS
  6
CONTINUOUS
 62
     0
 10
5078.5592282264561
 20
2387.2010679999989
 30
0.0
  0
POINT
  5
7DA5
  8
DEFPOINTS
  6
CONTINUOUS
 62
     0
 10
5078.5592282264561
 20
2123.6247920000001
 30
0.0
  0
ENDBLK
  5
7C7D
  8
0
  0
BLOCK
  8
0
  2
*D15
 70
     1
 10
0.0
 20
0.0
 30
0.0
  3
*D15
  1

  0
LINE
  5
7DA6
  8
3
  6
CONTINUOUS
 62
     0
 10
1197.187132
 20
6189.6250389999996
 30
0.0
 11
1197.187132
 21
6424.5120749999987
 31
0.0
  0
LINE
  5
7DA7
  8
3
  6
CONTINUOUS
 62
     0
 10
2797.187132
 20
6189.6250389999996
 30
0.0
 11
2797.187132
 21
6424.5120749999987
 31
0.0
  0
LINE
  5
7DA8
  8
3
  6
CONTINUOUS
 62
     0
 10
1257.187132
 20
6394.5120749999996
 30
0.0
 11
2737.187132
 21
6394.5120749999996
 31
0.0
  0
INSERT
  5
7DA9
  8
3
  6
CONTINUOUS
 62
     0
  2
_OPEN
 10
1197.187132
 20
6394.5120749999996
 30
0.0
 41
60.0
 42
60.0
 43
60.0
 50
180.0
  0
INSERT
  5
7DAA
  8
3
  6
CONTINUOUS
 62
     0
  2
_OPEN
 10
2797.187132
 20
6394.5120749999996
 30
0.0
 41
60.0
 42
60.0
 43
60.0
  0
TEXT
  8
3
  40
90
  5
7DCE
  62
0
  72
0
  71
0
 10
1731.11
 20
6310.21
 30
0.000000
  1
1600
  0
POINT
  5
7DAC
  8
DEFPOINTS
  6
CONTINUOUS
 62
     0
 10
1197.187132
 20
6174.6250390000014
 30
0.0
  0
POINT
  5
7DAD
  8
DEFPOINTS
  6
CONTINUOUS
 62
     0
 10
2797.187132
 20
6174.6250390000014
 30
0.0
  0
POINT
  5
7DAE
  8
DEFPOINTS
  6
CONTINUOUS
 62
     0
 10
2797.187132
 20
6394.5120749999996
 30
0.0
  0
ENDBLK
  5
7C68
  8
0
  0
BLOCK
  8
0
  2
*D16
 70
     1
 10
0.0
 20
0.0
 30
0.0
  3
*D16
  1

  0
LINE
  5
7DAF
  8
3
  6
CONTINUOUS
 62
     0
 10
2812.187132
 20
6174.6250390000014
 30
0.0
 11
3083.8185350000008
 21
6174.6250390000014
 31
0.0
  0
LINE
  5
7DB0
  8
3
  6
CONTINUOUS
 62
     0
 10
2812.187132
 20
5184.6250390000014
 30
0.0
 11
3083.8185350000008
 21
5184.6250390000014
 31
0.0
  0
LINE
  5
7DB1
  8
3
  6
CONTINUOUS
 62
     0
 10
3053.8185350000008
 20
6114.6250389999996
 30
0.0
 11
3053.8185350000008
 21
5244.6250389999996
 31
0.0
  0
INSERT
  5
7DB2
  8
3
  6
CONTINUOUS
 62
     0
  2
_OPEN
 10
3053.8185350000008
 20
6174.6250390000014
 30
0.0
 41
60.0
 42
60.0
 43
60.0
 50
90.0
  0
INSERT
  5
7DB3
  8
3
  6
CONTINUOUS
 62
     0
  2
_OPEN
 10
3053.8185350000008
 20
5184.6250390000014
 30
0.0
 41
60.0
 42
60.0
 43
60.0
 50
270.0
  0
TEXT
  8
3
  40
90
  5
7DCF
  62
0
  72
0
  71
0
 10
2798.82
 20
5591.73
 30
0.000000
  1
990
  0
POINT
  5
7DB5
  8
DEFPOINTS
  6
CONTINUOUS
 62
     0
 10
2797.187132
 20
6174.6250390000014
 30
0.0
  0
POINT
  5
7DB6
  8
DEFPOINTS
  6
CONTINUOUS
 62
     0
 10
2797.187132
 20
5184.6250390000014
 30
0.0
  0
POINT
  5
7DB7
  8
DEFPOINTS
  6
CONTINUOUS
 62
     0
 10
3053.8185350000008
 20
5184.6250390000014
 30
0.0
  0
ENDBLK
  5
7C10
  8
0
  0
BLOCK
  8
0
  2
*D17
 70
     1
 10
0.0
 20
0.0
 30
0.0
  3
*D17
  1

  0
LINE
  5
7DB8
  8
3
  6
CONTINUOUS
 62
     0
 10
2785.4343081959601
 20
3153.2010679999989
 30
0.0
 11
2785.4343081959601
 21
4004.4245509999992
 31
0.0
  0
LINE
  5
7DB9
  8
3
  6
CONTINUOUS
 62
     0
 10
2337.1871319999991
 20
3974.4245510000001
 30
0.0
 11
2725.4343081959601
 21
3974.4245510000001
 31
0.0
  0
INSERT
  5
7DBA
  8
3
  6
CONTINUOUS
 62
     0
  2
_OPEN
 10
2277.1871319999991
 20
3974.4245510000001
 30
0.0
 41
60.0
 42
60.0
 43
60.0
 50
180.0
  0
INSERT
  5
7DBB
  8
3
  6
CONTINUOUS
 62
     0
  2
_OPEN
 10
2785.4343081959601
 20
3974.4245510000001
 30
0.0
 41
60.0
 42
60.0
 43
60.0
  0
TEXT
  8
3
  40
90
  5
7DD0
  62
0
  72
0
  71
0
 10
2351.31
 20
3890.12
 30
0.000000
  1
508
  0
POINT
  5
7DBD
  8
DEFPOINTS
  6
CONTINUOUS
 62
     0
 10
2277.1871319999991
 20
3873.5407914434618
 30
0.0
  0
POINT
  5
7DBE
  8
DEFPOINTS
  6
CONTINUOUS
 62
     0
 10
2785.4343081959601
 20
3138.2010679999999
 30
0.0
  0
POINT
  5
7DBF
  8
DEFPOINTS
  6
CONTINUOUS
 62
     0
 10
2785.4343081959601
 20
3974.4245510000001
 30
0.0
  0
ENDBLK
  5
7CBD
  8
0
  0
ENDSEC
  0
SECTION
  2
ENTITIES
  0
LINE
  5
7A73
  8
1
  6
CONTINUOUS
 10
2797.187132
 20
6174.6250390000014
 30
0.0
 11
2797.187132
 21
5184.6250390000014
 31
0.0
  0
LINE
  5
7A74
  8
1
  6
CONTINUOUS
 10
1197.187132
 20
6174.6250390000014
 30
0.0
 11
1197.187132
 21
5184.6250390000014
 31
0.0
  0
LINE
  5
7A75
  8
1
  6
CONTINUOUS
 10
1237.187132
 20
6174.6250390000014
 30
0.0
 11
1237.187132
 21
5184.6250390000014
 31
0.0
  0
LINE
  5
7A76
  8
1
  6
CONTINUOUS
 10
1587.1471320000001
 20
5477.6250390000014
 30
0.0
 11
2317.1471320000001
 21
6007.6250389999996
 31
0.0
  0
LINE
  5
7A77
  8
1
  6
CONTINUOUS
 10
1587.1471320000001
 20
6007.6250389999996
 30
0.0
 11
2317.1471320000001
 21
5477.6250390000014
 31
0.0
  0
LINE
  5
7A78
  8
1
  6
CONTINUOUS
 10
1587.1471320000001
 20
5477.6250390000014
 30
0.0
 11
1587.1471320000001
 21
6007.6250389999996
 31
0.0
  0
LINE
  5
7A79
  8
1
  6
CONTINUOUS
 10
2317.1471320000001
 20
5477.6250390000014
 30
0.0
 11
2317.1471320000001
 21
6007.6250389999996
 31
0.0
  0
LINE
  5
7A7A
  8
1
  6
CONTINUOUS
 10
2786.5571319999999
 20
5477.6250390000014
 30
0.0
 11
2786.5571319999999
 21
6007.6250389999996
 31
0.0
  0
LINE
  5
7A7B
  8
1
  6
CONTINUOUS
 10
5078.5592282264561
 20
2387.2010679999989
 30
0.0
 11
4088.5592282264561
 21
2387.2010679999989
 31
0.0
  0
LINE
  5
7A7C
  8
1
  6
CONTINUOUS
 10
5078.5592282264561
 20
2487.2010679999999
 30
0.0
 11
4088.5592282264561
 21
2487.2010679999999
 31
0.0
  0
LINE
  5
7A7D
  8
1
  6
CONTINUOUS
 10
4963.5592282264561
 20
2613.2010679999999
 30
0.0
 11
4146.5592282264561
 21
2613.2010679999999
 31
0.0
  0
LINE
  5
7A7E
  8
1
  6
CONTINUOUS
 10
4963.5592282264561
 20
2513.2010679999999
 30
0.0
 11
4203.5592282264552
 21
2513.2010679999999
 31
0.0
  0
LINE
  5
7A7F
  8
1
  6
CONTINUOUS
 10
4951.5592282264561
 20
3673.2010679999999
 30
0.0
 11
4341.5592282264561
 21
3673.2010679999999
 31
0.0
  0
POLYLINE
  5
7A81
  8
1
  6
CONTINUOUS
 66
     1
 10
0.0
 20
0.0
 30
0.0
  0
VERTEX
  5
7D2D
  8
1
  6
CONTINUOUS
 10
1581.187132
 20
3673.2010679999999
 30
0.0
  0
VERTEX
  5
7D2E
  8
1
  6
CONTINUOUS
 10
1597.187132
 20
3138.2010679999999
 30
0.0
 42
0.4200000000000001
  0
VERTEX
  5
7D2F
  8
1
  6
CONTINUOUS
 10
2288.977132
 20
2553.1810679999999
 30
0.0
 42
0.43
  0
VERTEX
  5
7D30
  8
1
  6
CONTINUOUS
 10
2781.957132
 20
3170.1210679999999
 30
0.0
 42
0.37
  0
VERTEX
  5
7D31
  8
1
  6
CONTINUOUS
 10
2311.187132
 20
3586.9710679999989
 30
0.0
 42
0.34
  0
SEQEND
  5
7D32
  8
1
  6
CONTINUOUS
  0
LINE
  5
7A88
  8
1
  6
CONTINUOUS
 10
2797.187132
 20
2487.2010679999999
 30
0.0
 11
1197.187132
 21
2487.2010679999999
 31
0.0
  0
LINE
  5
7A89
  8
1
  6
CONTINUOUS
 10
2797.187132
 20
2387.2010679999989
 30
0.0
 11
1197.187132
 21
2387.2010679999989
 31
0.0
  0
LINE
  5
7A8A
  8
1
  6
CONTINUOUS
 10
1197.187132
 20
2487.2010679999999
 30
0.0
 11
1197.187132
 21
2387.2010679999989
 31
0.0
  0
LINE
  5
7A8B
  8
1
  6
CONTINUOUS
 10
2797.187132
 20
2487.2010679999999
 30
0.0
 11
2797.187132
 21
2387.2010679999989
 31
0.0
  0
LINE
  5
7A8E
  8
1
  6
CONTINUOUS
 10
4088.5592282264561
 20
2487.2010679999999
 30
0.0
 11
4088.5592282264561
 21
2387.2010679999989
 31
0.0
  0
LINE
  5
7A90
  8
1
  6
CONTINUOUS
 10
2210.4471319999998
 20
3272.5310679999998
 30
0.0
 11
1430.1171320000001
 21
2884.8410680000002
 31
0.0
  0
LINE
  5
7A91
  8
1
  6
CONTINUOUS
 10
2321.6271320000001
 20
2994.931067999999
 30
0.0
 11
1489.4171319999989
 21
2736.791068
 31
0.0
  0
LINE
  5
7A94
  8
1
  6
CONTINUOUS
 10
2351.187132
 20
3673.2010679999999
 30
0.0
 11
1541.187132
 21
3673.2010679999999
 31
0.0
  0
LINE
  5
7A95
  8
1
  6
CONTINUOUS
 10
2311.187132
 20
3643.2010679999989
 30
0.0
 11
1582.0871320000001
 21
3643.2010679999989
 31
0.0
  0
LINE
  5
7A96
  8
1
  6
CONTINUOUS
 10
2747.187132
 20
2513.2010679999999
 30
0.0
 11
1247.187132
 21
2513.2010679999999
 31
0.0
  0
LINE
  5
7A97
  8
1
  6
CONTINUOUS
 10
2747.187132
 20
2613.2010679999999
 30
0.0
 11
1247.187132
 21
2613.2010679999999
 31
0.0
  0
LINE
  5
7A98
  8
1
  6
CONTINUOUS
 10
1587.1471320000001
 20
5477.6250390000014
 30
0.0
 11
2786.5571319999999
 21
5477.6250390000014
 31
0.0
  0
LINE
  5
7A99
  8
1
  6
CONTINUOUS
 10
2647.187132
 20
5382.6250389999996
 30
0.0
 11
1287.187132
 21
5382.6250389999996
 31
0.0
  0
LINE
  5
7A9A
  8
1
  6
CONTINUOUS
 10
2647.187132
 20
5242.6250389999996
 30
0.0
 11
1287.187132
 21
5242.6250389999996
 31
0.0
  0
LINE
  5
7A9B
  8
1
  6
CONTINUOUS
 10
2127.1871319999991
 20
3753.2010679999999
 30
0.0
 11
1287.187132
 21
2913.2010679999999
 31
0.0
  0
LINE
  5
7A9C
  8
1
  6
CONTINUOUS
 10
2127.1871319999991
 20
5299.6250390000014
 30
0.0
 11
1545.707132
 21
5299.6250390000014
 31
0.0
  0
LINE
  5
7A9E
  8
1
  6
CONTINUOUS
 10
1247.187132
 20
2613.2010679999999
 30
0.0
 11
1247.187132
 21
2513.2010679999999
 31
0.0
  0
LINE
  5
7A9F
  8
1
  6
CONTINUOUS
 10
1287.187132
 20
2613.2010679999999
 30
0.0
 11
1287.187132
 21
2913.2010679999999
 31
0.0
  0
CIRCLE
  5
7AA0
  8
1
  6
CONTINUOUS
 10
1465.707132
 20
2813.2010679999999
 30
0.0
 40
80.0
  0
ARC
  5
7AA1
  8
1
  6
CONTINUOUS
 10
1465.707132
 20
2813.2010679999999
 30
0.0
 40
162.0
 50
324.97000000000003
 51
215.02999999999989
  0
LINE
  5
7AA2
  8
1
  6
CONTINUOUS
 10
1311.707132
 20
2671.2010679999999
 30
0.0
 11
1333.0571319999999
 21
2720.2110680000001
 31
0.0
  0
LINE
  5
7AA3
  8
1
  6
CONTINUOUS
 10
1311.707132
 20
2613.2010679999999
 30
0.0
 11
1311.707132
 21
2671.2010679999999
 31
0.0
  0
LINE
  5
7AA4
  8
2
  6
CENTER
 10
1385.707132
 20
2813.2010679999999
 30
0.0
 11
1545.707132
 21
2813.2010679999999
 31
0.0
  0
LINE
  5
7AA5
  8
2
  6
CENTER
 10
1465.707132
 20
2733.2010679999999
 30
0.0
 11
1465.707132
 21
2893.2010679999989
 31
0.0
  0
LINE
  5
7AA6
  8
1
  6
CONTINUOUS
 10
1619.707132
 20
2613.2010679999999
 30
0.0
 11
1619.707132
 21
2671.2010679999999
 31
0.0
  0
LINE
  5
7AA7
  8
1
  6
CONTINUOUS
 10
1619.707132
 20
2671.2010679999999
 30
0.0
 11
1598.3671320000001
 21
2720.2110680000001
 31
0.0
  0
LINE
  5
7AA8
  8
1
  6
CONTINUOUS
 10
1197.187132
 20
5184.6250390000014
 30
0.0
 11
1237.187132
 21
5184.6250390000014
 31
0.0
  0
LINE
  5
7AA9
  8
1
  6
CONTINUOUS
 10
1545.707132
 20
5352.6250390000014
 30
0.0
 11
1385.707132
 21
5352.6250390000014
 31
0.0
  0
LINE
  5
7AAA
  8
1
  6
CONTINUOUS
 10
1545.707132
 20
5272.6250390000014
 30
0.0
 11
1385.707132
 21
5272.6250390000014
 31
0.0
  0
LINE
  5
7AAB
  8
1
  6
CONTINUOUS
 10
1545.707132
 20
5272.6250390000014
 30
0.0
 11
1545.707132
 21
5352.6250390000014
 31
0.0
  0
LINE
  5
7AAC
  8
1
  6
CONTINUOUS
 10
1385.707132
 20
5272.6250390000014
 30
0.0
 11
1385.707132
 21
5352.6250390000014
 31
0.0
  0
LINE
  5
7AAD
  8
1
  6
CONTINUOUS
 10
1287.187132
 20
5242.6250389999996
 30
0.0
 11
1287.187132
 21
5382.6250389999996
 31
0.0
  0
LINE
  5
7AAE
  8
1
  6
CONTINUOUS
 10
1298.7271319999991
 20
5441.895039
 30
0.0
 11
1298.7271319999991
 21
5897.8350389999996
 31
0.0
  0
LINE
  5
7AAF
  8
1
  6
CONTINUOUS
 10
1627.707132
 20
5441.895039
 30
0.0
 11
1627.707132
 21
5477.6250390000014
 31
0.0
  0
LINE
  5
7AB0
  8
1
  6
CONTINUOUS
 10
1298.7271319999991
 20
5441.895039
 30
0.0
 11
1627.707132
 21
5441.895039
 31
0.0
  0
LINE
  5
7AB1
  8
1
  6
CONTINUOUS
 10
1444.707132
 20
5352.6250390000014
 30
0.0
 11
1444.707132
 21
5441.895039
 31
0.0
  0
LINE
  5
7AB2
  8
1
  6
CONTINUOUS
 10
1486.707132
 20
5352.6250390000014
 30
0.0
 11
1486.707132
 21
5441.895039
 31
0.0
  0
LINE
  5
7AB3
  8
1
  6
CONTINUOUS
 10
1298.7271319999991
 20
5897.8350389999996
 30
0.0
 11
1587.1471320000001
 21
5897.8350389999996
 31
0.0
  0
LINE
  5
7AB4
  8
1
  6
CONTINUOUS
 10
1385.707132
 20
5299.6250390000014
 30
0.0
 11
1237.187132
 21
5299.6250390000014
 31
0.0
  0
LINE
  5
7AB6
  8
2
  6
CENTER
 10
2277.1871319999991
 20
6143.2369850000014
 30
0.0
 11
2277.1871319999991
 21
5144.7145879999998
 31
0.0
  0
LINE
  5
7AB7
  8
2
  6
CENTER
 10
4999.8118692264561
 20
3138.2010679999999
 30
0.0
 11
4007.997218226456
 21
3138.2010679999999
 31
0.0
  0
LINE
  5
7AB8
  8
1
  6
CONTINUOUS
 10
2311.187132
 20
3586.9710679999989
 30
0.0
 11
2311.187132
 21
3673.2010679999999
 31
0.0
  0
LINE
  5
7AB9
  8
1
  6
CONTINUOUS
 10
2747.187132
 20
2613.2010679999999
 30
0.0
 11
2747.187132
 21
2513.2010679999999
 31
0.0
  0
CIRCLE
  5
7ABA
  8
1
  6
CONTINUOUS
 10
2277.1871319999991
 20
3138.2010679999999
 30
0.0
 40
150.0
  0
LINE
  5
7ABB
  8
1
  6
CONTINUOUS
 10
2647.187132
 20
3753.2010679999999
 30
0.0
 11
2127.1871319999991
 21
3753.2010679999999
 31
0.0
  0
LINE
  5
7ABC
  8
1
  6
CONTINUOUS
 10
2647.187132
 20
2613.2010679999999
 30
0.0
 11
2647.187132
 21
3753.2010679999999
 31
0.0
  0
LINE
  5
7ABE
  8
1
  6
CONTINUOUS
 10
4256.5592282264561
 20
3159.2010679999989
 30
0.0
 11
4381.5592282264561
 21
3159.2010679999989
 31
0.0
  0
LINE
  5
7ABF
  8
1
  6
CONTINUOUS
 10
4256.5592282264561
 20
3117.2010679999989
 30
0.0
 11
4381.5592282264561
 21
3117.2010679999989
 31
0.0
  0
LINE
  5
7AC0
  8
1
  6
CONTINUOUS
 10
4256.5592282264561
 20
2752.2010679999989
 30
0.0
 11
4381.5592282264561
 21
2752.2010679999989
 31
0.0
  0
LINE
  5
7AC1
  8
1
  6
CONTINUOUS
 10
4256.5592282264561
 20
2794.2010679999999
 30
0.0
 11
4381.5592282264561
 21
2794.2010679999999
 31
0.0
  0
LINE
  5
7AC2
  8
1
  6
CONTINUOUS
 10
4176.5592282264561
 20
2853.2010679999999
 30
0.0
 11
4256.5592282264561
 21
2853.2010679999999
 31
0.0
  0
LINE
  5
7AC3
  8
1
  6
CONTINUOUS
 10
4176.5592282264561
 20
2693.2010679999999
 30
0.0
 11
4256.5592282264561
 21
2693.2010679999999
 31
0.0
  0
LINE
  5
7AC4
  8
1
  6
CONTINUOUS
 10
4176.5592282264561
 20
3288.2010679999999
 30
0.0
 11
4256.5592282264561
 21
3288.2010679999999
 31
0.0
  0
LINE
  5
7AC5
  8
1
  6
CONTINUOUS
 10
4176.5592282264561
 20
2988.2010679999999
 30
0.0
 11
4256.5592282264561
 21
2988.2010679999999
 31
0.0
  0
LINE
  5
7AC6
  8
1
  6
CONTINUOUS
 10
4176.5592282264561
 20
2693.2010679999999
 30
0.0
 11
4176.5592282264561
 21
2853.2010679999999
 31
0.0
  0
LINE
  5
7AC7
  8
1
  6
CONTINUOUS
 10
4256.5592282264561
 20
2693.2010679999999
 30
0.0
 11
4256.5592282264561
 21
2853.2010679999999
 31
0.0
  0
LINE
  5
7AC8
  8
1
  6
CONTINUOUS
 10
4176.5592282264561
 20
2988.2010679999999
 30
0.0
 11
4176.5592282264561
 21
3288.2010679999999
 31
0.0
  0
LINE
  5
7AC9
  8
1
  6
CONTINUOUS
 10
4256.5592282264561
 20
2988.2010679999999
 30
0.0
 11
4256.5592282264561
 21
3288.2010679999999
 31
0.0
  0
LINE
  5
7ACA
  8
1
  6
CONTINUOUS
 10
4286.5592282264561
 20
3753.2010679999999
 30
0.0
 11
4286.5592282264561
 21
2613.2010679999999
 31
0.0
  0
LINE
  5
7ACB
  8
1
  6
CONTINUOUS
 10
4286.5592282264561
 20
3753.2010679999999
 30
0.0
 11
4146.5592282264561
 21
3753.2010679999999
 31
0.0
  0
LINE
  5
7ACC
  8
1
  6
CONTINUOUS
 10
4146.5592282264561
 20
3753.2010679999999
 30
0.0
 11
4146.5592282264561
 21
2613.2010679999999
 31
0.0
  0
LINE
  5
7ACD
  8
1
  6
CONTINUOUS
 10
4203.5592282264552
 20
2613.2010679999999
 30
0.0
 11
4203.5592282264552
 21
2513.2010679999999
 31
0.0
  0
LINE
  5
7ACE
  8
1
  6
CONTINUOUS
 10
4381.5592282264561
 20
3673.2010679999999
 30
0.0
 11
4381.5592282264561
 21
2613.2010679999999
 31
0.0
  0
LINE
  5
7ACF
  8
1
  6
CONTINUOUS
 10
2757.187132
 20
5184.6250390000014
 30
0.0
 11
2797.187132
 21
5184.6250390000014
 31
0.0
  0
LINE
  5
7AD0
  8
1
  6
CONTINUOUS
 10
2757.187132
 20
5477.6250390000014
 30
0.0
 11
2757.187132
 21
5184.6250390000014
 31
0.0
  0
LINE
  5
7AD1
  8
1
  6
CONTINUOUS
 10
2298.187132
 20
5352.6250390000014
 30
0.0
 11
2298.187132
 21
5477.6250390000014
 31
0.0
  0
LINE
  5
7AD2
  8
1
  6
CONTINUOUS
 10
2256.187132
 20
5352.6250390000014
 30
0.0
 11
2256.187132
 21
5477.6250390000014
 31
0.0
  0
LINE
  5
7AD3
  8
1
  6
CONTINUOUS
 10
2427.187132
 20
5352.6250390000014
 30
0.0
 11
2127.1871319999991
 21
5352.6250390000014
 31
0.0
  0
LINE
  5
7AD4
  8
1
  6
CONTINUOUS
 10
2427.187132
 20
5272.6250390000014
 30
0.0
 11
2127.1871319999991
 21
5272.6250390000014
 31
0.0
  0
LINE
  5
7AD5
  8
1
  6
CONTINUOUS
 10
2427.187132
 20
5272.6250390000014
 30
0.0
 11
2427.187132
 21
5352.6250390000014
 31
0.0
  0
LINE
  5
7AD6
  8
1
  6
CONTINUOUS
 10
2127.1871319999991
 20
5272.6250390000014
 30
0.0
 11
2127.1871319999991
 21
5352.6250390000014
 31
0.0
  0
LINE
  5
7AD7
  8
1
  6
CONTINUOUS
 10
2647.187132
 20
5242.6250389999996
 30
0.0
 11
2647.187132
 21
5382.6250389999996
 31
0.0
  0
LINE
  5
7AD8
  8
1
  6
CONTINUOUS
 10
2757.187132
 20
5299.6250390000014
 30
0.0
 11
2427.187132
 21
5299.6250390000014
 31
0.0
  0
LINE
  5
7AD9
  8
1
  6
CONTINUOUS
 10
5078.5592282264561
 20
2487.2010679999999
 30
0.0
 11
5078.5592282264561
 21
2387.2010679999989
 31
0.0
  0
LINE
  5
7ADA
  8
1
  6
CONTINUOUS
 10
4963.5592282264561
 20
2613.2010679999999
 30
0.0
 11
4963.5592282264561
 21
2513.2010679999999
 31
0.0
  0
LINE
  5
7ADB
  8
1
  6
CONTINUOUS
 10
4911.5592282264561
 20
3673.2010679999999
 30
0.0
 11
4911.5592282264561
 21
2613.2010679999999
 31
0.0
  0
LINE
  5
7ADC
  8
1
  6
CONTINUOUS
 10
1587.1471320000001
 20
6007.6250389999996
 30
0.0
 11
2786.5571319999999
 21
6007.6250389999996
 31
0.0
  0
LINE
  5
7ADD
  8
1
  6
CONTINUOUS
 10
2757.187132
 20
6059.6250390000014
 30
0.0
 11
1237.187132
 21
6059.6250390000014
 31
0.0
  0
LINE
  5
7ADE
  8
1
  6
CONTINUOUS
 10
1197.187132
 20
6174.6250390000014
 30
0.0
 11
1237.187132
 21
6174.6250390000014
 31
0.0
  0
LINE
  5
7ADF
  8
1
  6
CONTINUOUS
 10
2757.187132
 20
6174.6250390000014
 30
0.0
 11
2757.187132
 21
6007.6250389999996
 31
0.0
  0
LINE
  5
7AE0
  8
1
  6
CONTINUOUS
 10
2757.187132
 20
6174.6250390000014
 30
0.0
 11
2797.187132
 21
6174.6250390000014
 31
0.0
  0
LINE
  5
7AE1
  8
2
  6
CENTER
 10
1119.3695210000001
 20
5742.6250389999996
 30
0.0
 11
2894.8326829999992
 21
5742.6250389999996
 31
0.0
  0
LINE
  5
7AE2
  8
2
  6
CENTER
 10
4646.5592282264561
 20
3721.8208370000002
 30
0.0
 11
4646.5592282264561
 21
2098.044758999999
 31
0.0
  0
LINE
  5
7AE3
  8
2
  6
CENTER
 10
2277.1871319999991
 20
3873.5407914434618
 30
0.0
 11
2277.1871319999991
 21
2298.1773619999999
 31
0.0
  0
LINE
  5
7AE4
  8
2
  6
CENTER
 10
3035.5805289999998
 20
3138.2010679999999
 30
0.0
 11
1191.843965
 21
3138.2010679999999
 31
0.0
  0
LINE
  5
7AE5
  8
4
  6
CONTINUOUS
 10
5550.0
 20
1500.0
 30
0.0
 11
5550.0
 21
900.0
 31
0.0
  0
LINE
  5
7AE6
  8
4
  6
CONTINUOUS
 10
3450.0
 20
1500.0
 30
0.0
 11
3450.0
 21
900.0
 31
0.0
  0
LINE
  5
7AE7
  8
4
  6
CONTINUOUS
 10
1950.0
 20
1500.0
 30
0.0
 11
1950.0
 21
900.0
 31
0.0
  0
LINE
  5
7AEA
  8
4
  6
CONTINUOUS
 10
1950.0
 20
900.0
 30
0.0
 11
5550.0
 21
900.0
 31
0.0
  0
LINE
  5
7AEB
  8
4
  6
CONTINUOUS
 10
1950.0
 20
1200.0
 30
0.0
 11
5550.0
 21
1200.0
 31
0.0
  0
TEXT
  5
7AEC
  8
4
  6
CONTINUOUS
 10
2065.5062429999989
 20
1294.6290779999999
 30
0.0
 40
150.0
  1
機器名称
  0
TEXT
  5
7AED
  8
4
  6
CONTINUOUS
 10
2058.7743179999989
 20
964.9354699999999
 30
0.0
 40
150.0
  1
機器型番
  0
TEXT
  5
7AEE
  8
4
  6
CONTINUOUS
 10
3533.0362359999999
 20
1267.7153069999999
 30
0.0
 40
150.0
  1
ミツヤ多翼送風機
  0
TEXT
  5
7AEF
  8
4
  6
CONTINUOUS
 10
3559.9634869999991
 20
951.47875299999987
 30
0.0
 40
150.0
  1
MF#4 1/2-4
  0
TEXT
  5
7AF1
  8
4
  6
CONTINUOUS
 10
2218.685113999999
 20
7150.2865239999992
 30
0.0
 40
162.0
  1
天井吊防振ベット
  0
TEXT
  5
7AF2
  8
4
  6
CONTINUOUS
 10
948.50278000000014
 20
7601.6429289999996
 30
0.0
 40
216.0
  1
ベルト駆動式片吸込両持多翼ファン
  0
LINE
  5
7AF3
  8
4
  6
CONTINUOUS
 10
750.0
 20
7408.2262629999996
 30
0.0
 11
5550.0
 21
7408.2262629999996
 31
0.0
  0
LINE
  5
7AF4
  8
4
  6
CONTINUOUS
 10
750.0
 20
8008.2262629999996
 30
0.0
 11
5550.0
 21
8008.2262629999996
 31
0.0
  0
LINE
  5
7AF5
  8
4
  6
CONTINUOUS
 10
1950.0
 20
1500.0
 30
0.0
 11
5550.0
 21
1500.0
 31
0.0
  0
LINE
  5
7AF6
  8
4
  6
CONTINUOUS
 10
750.0
 20
8008.2262629999996
 30
0.0
 11
750.0
 21
7408.2262629999996
 31
0.0
  0
TEXT
  5
7AF7
  8
4
  6
CONTINUOUS
 10
911.10861799999986
 20
7146.9584329999998
 30
0.0
 40
162.0
  1
右回転上向
  0
TEXT
  5
7AF8
  8
4
  6
CONTINUOUS
 10
4406.9086779999989
 20
8118.1832439999989
 30
0.0
 40
168.0
  1
No.
  0
TEXT
  5
7AF9
  8
4
  6
CONTINUOUS
 10
3933.8881879999999
 20
7150.2865239999992
 30
0.0
 40
162.0
  1
縮尺：1/30
  0
LINE
  5
7AFA
  8
4
  6
CONTINUOUS
 10
5550.0
 20
8008.2262629999996
 30
0.0
 11
5550.0
 21
7408.2262629999996
 31
0.0
  0
LINE
  5
7AFC
  8
4
  6
CONTINUOUS
 10
4321.8522670000002
 20
8043.7907490000007
 30
0.0
 11
4321.8522670000002
 21
8359.9567849999985
 31
0.0
  0
LINE
  5
7AFD
  8
4
  6
CONTINUOUS
 10
4321.8522670000002
 20
8359.9567849999985
 30
0.0
 11
5550.0
 21
8359.9567849999985
 31
0.0
  0
LINE
  5
7AFE
  8
4
  6
CONTINUOUS
 10
5550.0
 20
8359.9567849999985
 30
0.0
 11
5550.0
 21
8043.7907490000007
 31
0.0
  0
LINE
  5
7AFF
  8
4
  6
CONTINUOUS
 10
5550.0
 20
8043.7907490000007
 30
0.0
 11
4321.8522670000002
 21
8043.7907490000007
 31
0.0
  0
DIMENSION
  5
7B17
  8
3
  6
CONTINUOUS
  2
*D1
 10
2311.187132
 20
3795.6962749999989
 30
0.0
 11
1965.7590139999991
 21
3795.6962749999989
 31
0.0
 70
   128
 13
1581.187132
 23
3673.2010679999999
 33
0.0
 14
2311.187132
 24
3673.2010679999999
 34
0.0
1001
ACAD
1000
DSTYLE
1002
{
1070
   287
1070
     3
1070
    40
1040
30.0
1070
   143
1040
0.039
1070
   172
1070
     1
1070
   271
1070
     0
1070
   279
1070
     0
1070
   288
1070
     1
1002
}
  0
DIMENSION
  5
7B24
  8
3
  6
CONTINUOUS
  2
*D2
 10
2277.1871319999991
 20
3974.4245510000001
 30
0.0
 11
1975.6956259999999
 21
3974.4245510000001
 31
0.0
 70
   128
 13
1581.187132
 23
3673.2010679999999
 33
0.0
 14
2277.1871319999991
 24
3873.5407914434618
 34
0.0
1001
ACAD
1000
DSTYLE
1002
{
1070
   287
1070
     3
1070
    40
1040
30.0
1070
   143
1040
0.039
1070
   172
1070
     1
1070
   271
1070
     0
1070
   279
1070
     0
1070
   288
1070
     1
1002
}
  0
DIMENSION
  5
7B3D
  8
3
  6
CONTINUOUS
  2
*D3
 10
3063.755146
 20
3138.2010679999999
 30
0.0
 11
3063.755146
 21
3403.4870659999988
 31
0.0
 70
   128
 13
2351.187132
 23
3673.2010679999999
 33
0.0
 14
3035.5805289999998
 24
3138.2010679999999
 34
0.0
 50
90.0
1001
ACAD
1000
DSTYLE
1002
{
1070
   287
1070
     3
1070
    40
1040
30.0
1070
   143
1040
0.039
1070
   172
1070
     1
1070
   271
1070
     0
1070
   279
1070
     0
1070
   288
1070
     1
1002
}
  0
DIMENSION
  5
7B49
  8
3
  6
CONTINUOUS
  2
*D4
 10
3063.755146
 20
2513.2010679999999
 30
0.0
 11
2988.7551459999991
 21
2825.7010679999999
 31
0.0
 70
     0
 13
3035.5805289999998
 23
3138.2010679999999
 33
0.0
 14
2747.187132
 24
2513.2010679999999
 34
0.0
 50
90.0
1001
ACAD
1000
DSTYLE
1002
{
1070
   287
1070
     4
1070
    40
1040
30.0
1070
    75
1070
     1
1070
   143
1040
0.039
1070
   172
1070
     1
1070
   271
1070
     0
1070
   279
1070
     1
1070
   288
1070
     1
1002
}
  0
DIMENSION
  5
7B59
  8
3
  6
CONTINUOUS
  2
*D5
 10
3063.755146
 20
2387.2010679999989
 30
0.0
 11
3063.755146
 21
2132.2010679999999
 31
0.0
 70
   128
 13
2747.187132
 23
2513.2010679999999
 33
0.0
 14
2797.187132
 24
2387.2010679999989
 34
0.0
 50
90.0
1001
ACAD
1000
DSTYLE
1002
{
1070
   287
1070
     3
1070
    40
1040
30.0
1070
   143
1040
0.039
1070
   172
1070
     1
1070
   271
1070
     0
1070
   279
1070
     0
1070
   288
1070
     1
1002
}
  0
DIMENSION
  5
7B66
  8
3
  6
CONTINUOUS
  2
*D6
 10
3262.739723000001
 20
2387.2010679999989
 30
0.0
 11
3262.7397230000001
 21
3110.5713059999998
 31
0.0
 70
   128
 13
2366.1871319999991
 23
3673.2010679999999
 33
0.0
 14
2797.187132
 24
2387.2010679999989
 34
0.0
 50
90.0
1001
ACAD
1000
DSTYLE
1002
{
1070
   287
1070
     3
1070
    40
1040
30.0
1070
   143
1040
0.039
1070
   172
1070
     1
1070
   271
1070
     0
1070
   279
1070
     0
1070
   288
1070
     1
1002
}
  0
DIMENSION
  5
7B73
  8
3
  6
CONTINUOUS
  2
*D7
 10
2277.1871319999991
 20
2207.000669
 30
0.0
 11
1747.1534590000001
 21
2207.000669
 31
0.0
 70
   128
 13
1197.187132
 23
2387.2010679999989
 33
0.0
 14
2277.1871319999991
 24
2298.1773619999999
 34
0.0
1001
ACAD
1000
DSTYLE
1002
{
1070
   287
1070
     3
1070
    40
1040
30.0
1070
   143
1040
0.039
1070
   172
1070
     1
1070
   271
1070
     0
1070
   279
1070
     0
1070
   288
1070
     1
1002
}
  0
DIMENSION
  5
7B7F
  8
3
  6
CONTINUOUS
  2
*D8
 10
2797.187132
 20
2207.000669
 30
0.0
 11
2537.187132
 21
2282.0006689999991
 31
0.0
 70
     0
 13
2277.1871319999991
 23
2298.1773619999999
 33
0.0
 14
2797.187132
 24
2387.2010679999989
 34
0.0
1001
ACAD
1000
DSTYLE
1002
{
1070
   287
1070
     4
1070
    40
1040
30.0
1070
    75
1070
     1
1070
   143
1040
0.039
1070
   172
1070
     1
1070
   271
1070
     0
1070
   279
1070
     1
1070
   288
1070
     1
1002
}
  0
DIMENSION
  5
7BA4
  8
3
  6
CONTINUOUS
  2
*D9
 10
4911.5592282264561
 20
3755.9789040000001
 30
0.0
 11
4656.9985862264557
 21
3755.9789040000001
 31
0.0
 70
   128
 13
4381.5592282264561
 23
3673.2010679999999
 33
0.0
 14
4911.5592282264561
 24
3673.2010679999999
 34
0.0
1001
ACAD
1000
DSTYLE
1002
{
1070
   287
1070
     3
1070
    40
1040
30.0
1070
   143
1040
0.039
1070
   172
1070
     1
1070
   271
1070
     0
1070
   279
1070
     0
1070
   288
1070
     1
1002
}
  0
LINE
  5
7BA5
  8
1
  6
CONTINUOUS
 10
4913.5592282264561
 20
3515.2010679999989
 30
0.0
 11
4913.5592282264561
 21
2761.2010679999999
 31
0.0
  0
DIMENSION
  5
7BB4
  8
3
  6
CONTINUOUS
  2
*D10
 10
5153.8294332264577
 20
2761.2010679999989
 30
0.0
 11
5153.8294332264568
 21
3135.394663
 31
0.0
 70
   128
 13
4913.5592282264561
 23
3515.2010679999989
 33
0.0
 14
4913.5592282264561
 24
2761.2010679999999
 34
0.0
 50
90.0
1001
ACAD
1000
DSTYLE
1002
{
1070
   287
1070
     3
1070
     3
1000
φ<>
1070
    40
1040
30.0
1070
   143
1040
0.039
1070
   172
1070
     1
1070
   271
1070
     0
1070
   279
1070
     0
1070
   288
1070
     1
1002
}
  0
DIMENSION
  5
7BC2
  8
3
  6
CONTINUOUS
  2
*D11
 10
4646.5592282264561
 20
3934.7071580000002
 30
0.0
 11
4786.6375603641236
 21
4024.2508448425401
 31
0.0
 70
   128
 13
4913.5592282264561
 23
3515.2010679999989
 33
0.0
 14
4646.5592282264561
 24
3883.6794540000001
 34
0.0
1001
ACAD
1000
DSTYLE
1002
{
1070
   288
1070
     1
1070
   172
1070
     1
1070
    40
1040
30.0
1070
   271
1070
     0
1070
   143
1040
0.039
1002
}
  0
DIMENSION
  5
7BCE
  8
3
  6
CONTINUOUS
  2
*D12
 10
4146.5592282264561
 20
3934.7071580000002
 30
0.0
 11
4396.5592282264561
 21
4084.7071579999988
 31
0.0
 70
     0
  1
MAX\P560
 13
4646.5592282264561
 23
3883.6794540000001
 33
0.0
 14
4146.5592282264561
 24
3753.2010679999999
 34
0.0
1001
ACAD
1000
DSTYLE
1002
{
1070
   287
1070
     4
1070
    40
1040
30.0
1070
    75
1070
     1
1070
   143
1040
0.039
1070
   172
1070
     1
1070
   271
1070
     0
1070
   279
1070
     1
1070
   288
1070
     1
1002
}
  0
DIMENSION
  5
7BEB
  8
3
  6
CONTINUOUS
  2
*D13
 10
4646.5592282264561
 20
2123.6247920000001
 30
0.0
 11
4358.9001042264563
 21
2123.6247920000001
 31
0.0
 70
   128
 13
4088.5592282264561
 23
2387.2010679999989
 33
0.0
 14
4646.5592282264561
 24
2098.044758999999
 34
0.0
1001
ACAD
1000
DSTYLE
1002
{
1070
   287
1070
     3
1070
    40
1040
30.0
1070
   143
1040
0.039
1070
   172
1070
     1
1070
   271
1070
     0
1070
   279
1070
     0
1070
   288
1070
     1
1002
}
  0
DIMENSION
  5
7BF7
  8
3
  6
CONTINUOUS
  2
*D14
 10
5078.5592282264561
 20
2123.6247920000001
 30
0.0
 11
4862.5592282264561
 21
2198.6247919999992
 31
0.0
 70
     0
 13
4646.5592282264561
 23
2098.044758999999
 33
0.0
 14
5078.5592282264561
 24
2387.2010679999989
 34
0.0
1001
ACAD
1000
DSTYLE
1002
{
1070
   287
1070
     4
1070
    40
1040
30.0
1070
    75
1070
     1
1070
   143
1040
0.039
1070
   172
1070
     1
1070
   271
1070
     0
1070
   279
1070
     1
1070
   288
1070
     1
1002
}
  0
DIMENSION
  5
7C04
  8
3
  6
CONTINUOUS
  2
*D15
 10
2797.187132
 20
6394.5120749999996
 30
0.0
 11
1911.107634
 21
6394.5120749999996
 31
0.0
 70
   128
 13
1197.187132
 23
6174.6250390000014
 33
0.0
 14
2797.187132
 24
6174.6250390000014
 34
0.0
1001
ACAD
1000
DSTYLE
1002
{
1070
   287
1070
     3
1070
    40
1040
30.0
1070
   143
1040
0.039
1070
   172
1070
     1
1070
   271
1070
     0
1070
   279
1070
     0
1070
   288
1070
     1
1002
}
  0
DIMENSION
  5
7C11
  8
3
  6
CONTINUOUS
  2
*D16
 10
3053.8185350000008
 20
5184.6250390000014
 30
0.0
 11
3053.8185349999999
 21
5751.0277550000001
 31
0.0
 70
   128
 13
2797.187132
 23
6174.6250390000014
 33
0.0
 14
2797.187132
 24
5184.6250390000014
 34
0.0
 50
90.0
1001
ACAD
1000
DSTYLE
1002
{
1070
   287
1070
     3
1070
    40
1040
30.0
1070
   143
1040
0.039
1070
   172
1070
     1
1070
   271
1070
     0
1070
   279
1070
     0
1070
   288
1070
     1
1002
}
  0
DIMENSION
  5
7C5D
  8
3
  6
CONTINUOUS
  2
*D17
 10
2785.4343081959601
 20
3974.4245510000001
 30
0.0
 11
2531.3107200979798
 21
4049.4245510000001
 31
0.0
 70
     0
 13
2277.1871319999991
 23
3873.5407914434618
 33
0.0
 14
2785.4343081959601
 24
3138.2010679999999
 34
0.0
1001
ACAD
1000
DSTYLE
1002
{
1070
   287
1070
     4
1070
    40
1040
30.0
1070
    75
1070
     1
1070
   143
1040
0.039
1070
   172
1070
     1
1070
   271
1070
     0
1070
   279
1070
     1
1070
   288
1070
     1
1002
}
  0
LINE
  5
7CFD
  8
1
  6
CONTINUOUS
 10
2737.187132
 20
3533.2010679999989
 30
0.0
 11
1817.187132
 21
3533.2010679999989
 31
0.0
  0
LINE
  5
7CFE
  8
1
 10
1817.187132
 20
3533.2010679999989
 30
0.0
 11
1817.187132
 21
2613.2010679999999
 31
0.0
  0
LINE
  5
7CFF
  8
1
 10
2737.187132
 20
3533.2010679999989
 30
0.0
 11
2737.187132
 21
2613.2010679999999
 31
0.0
  0
ENDSEC
  0
EOF
