  0
SECTION
  2
HEADER
  9
$ACADVER
  1
AC1009
  9
$INSBASE
 10
0.0
 20
0.0
 30
0.0
  9
$EXTMIN
 10
750.0
 20
900.0
 30
0.0
  9
$EXTMAX
 10
5550.0
 20
8359.9567849999985
 30
0.0
  9
$LIMMIN
 10
0.0
 20
0.0
  9
$LIMMAX
 10
297.0
 20
210.0
  9
$ORTHOMODE
 70
     0
  9
$REGENMODE
 70
     1
  9
$FILLMODE
 70
     0
  9
$QTEXTMODE
 70
     0
  9
$MIRRTEXT
 70
     1
  9
$DRAGMODE
 70
     2
  9
$LTSCALE
 40
100.0
  9
$OSMODE
 70
    37
  9
$ATTMODE
 70
     1
  9
$TEXTSIZE
 40
180.0
  9
$TRACEWID
 40
0.05
  9
$TEXTSTYLE
  7
STANDARD
  9
$CLAYER
  8
3
  9
$CELTYPE
  6
BYLAYER
  9
$CECOLOR
 62
   256
  9
$DIMSCALE
 40
30.0
  9
$DIMASZ
 40
2.0
  9
$DIMEXO
 40
0.5
  9
$DIMDLI
 40
10.0
  9
$DIMRND
 40
0.0
  9
$DIMDLE
 40
0.0
  9
$DIMEXE
 40
1.0
  9
$DIMTP
 40
1.0
  9
$DIMTM
 40
1.0
  9
$DIMTXT
 40
3.0
  9
$DIMCEN
 40
0.0
  9
$DIMTSZ
 40
0.0
  9
$DIMTOL
 70
     0
  9
$DIMLIM
 70
     0
  9
$DIMTIH
 70
     0
  9
$DIMTOH
 70
     0
  9
$DIMSE1
 70
     0
  9
$DIMSE2
 70
     0
  9
$DIMTAD
 70
     1
  9
$DIMZIN
 70
     8
  9
$DIMBLK
  1

  9
$DIMASO
 70
     1
  9
$DIMSHO
 70
     1
  9
$DIMPOST
  1

  9
$DIMAPOST
  1

  9
$DIMALT
 70
     0
  9
$DIMALTD
 70
     2
  9
$DIMALTF
 40
0.039
  9
$DIMLFAC
 40
1.0
  9
$DIMTOFL
 70
     1
  9
$DIMTVP
 40
0.0
  9
$DIMTIX
 70
     0
  9
$DIMSOXD
 70
     0
  9
$DIMSAH
 70
     1
  9
$DIMBLK1
  1
OPEN
  9
$DIMBLK2
  1
OPEN
  9
$DIMSTYLE
  2
IGA
  9
$DIMCLRD
 70
     0
  9
$DIMCLRE
 70
     0
  9
$DIMCLRT
 70
     0
  9
$DIMTFAC
 40
10.0
  9
$DIMGAP
 40
1.0
  9
$LUNITS
 70
     2
  9
$LUPREC
 70
     3
  9
$SKETCHINC
 40
0.1
  9
$FILLETRAD
 40
0.0
  9
$AUNITS
 70
     0
  9
$AUPREC
 70
     0
  9
$MENU
  1
acad
  9
$ELEVATION
 40
0.0
  9
$PELEVATION
 40
0.0
  9
$THICKNESS
 40
0.0
  9
$LIMCHECK
 70
     0
  9
$BLIPMODE
 70
     0
  9
$CHAMFERA
 40
0.5
  9
$CHAMFERB
 40
0.5
  9
$SKPOLY
 70
     0
  9
$TDCREATE
 40
2450744.4892512732
  9
$TDUPDATE
 40
2454953.7726752311
  9
$TDINDWG
 40
0.0062546759
  9
$TDUSRTIMER
 40
0.0062546759
  9
$USRTIMER
 70
     1
  9
$ANGBASE
 50
0.0
  9
$ANGDIR
 70
     0
  9
$PDMODE
 70
     0
  9
$PDSIZE
 40
0.0
  9
$PLINEWID
 40
0.0
  9
$COORDS
 70
     1
  9
$SPLFRAME
 70
     0
  9
$SPLINETYPE
 70
     6
  9
$SPLINESEGS
 70
     8
  9
$ATTDIA
 70
     0
  9
$ATTREQ
 70
     1
  9
$HANDLING
 70
 10241
  9
$HANDSEED
  5
7DA6
  9
$SURFTAB1
 70
     6
  9
$SURFTAB2
 70
     6
  9
$SURFTYPE
 70
     6
  9
$SURFU
 70
     6
  9
$SURFV
 70
     6
  9
$UCSNAME
  2

  9
$UCSORG
 10
0.0
 20
0.0
 30
0.0
  9
$UCSXDIR
 10
1.0
 20
0.0
 30
0.0
  9
$UCSYDIR
 10
0.0
 20
1.0
 30
0.0
  9
$PUCSNAME
  2

  9
$PUCSORG
 10
0.0
 20
0.0
 30
0.0
  9
$PUCSXDIR
 10
1.0
 20
0.0
 30
0.0
  9
$PUCSYDIR
 10
0.0
 20
1.0
 30
0.0
  9
$USERI1
 70
     0
  9
$USERI2
 70
     0
  9
$USERI3
 70
     0
  9
$USERI4
 70
     0
  9
$USERI5
 70
     0
  9
$USERR1
 40
0.0
  9
$USERR2
 40
0.0
  9
$USERR3
 40
0.0
  9
$USERR4
 40
0.0
  9
$USERR5
 40
0.0
  9
$WORLDVIEW
 70
     1
  9
$SHADEDGE
 70
     3
  9
$SHADEDIF
 70
    70
  9
$TILEMODE
 70
     1
  9
$MAXACTVP
 70
    16
  9
$PLIMCHECK
 70
     0
  9
$PEXTMIN
 10
1.0000000000000000E+020
 20
1.0000000000000000E+020
 30
1.0000000000000000E+020
  9
$PEXTMAX
 10
-1.0000000000000000E+020
 20
-1.0000000000000000E+020
 30
-1.0000000000000000E+020
  9
$PLIMMIN
 10
0.0
 20
0.0
  9
$PLIMMAX
 10
12.0
 20
9.0
  9
$UNITMODE
 70
     0
  9
$VISRETAIN
 70
     0
  9
$PLINEGEN
 70
     0
  9
$PSLTSCALE
 70
     1
  0
ENDSEC
  0
SECTION
  2
TABLES
  0
TABLE
  2
VPORT
 70
     2
  0
VPORT
  2
*ACTIVE
 70
     0
 10
0.0
 20
0.0
 11
1.0
 21
1.0
 12
9437.9954746499006
 22
4629.9199394653269
 13
0.0
 23
0.0
 14
10.0
 24
10.0
 15
10.0
 25
10.0
 16
0.0
 26
0.0
 36
1.0
 17
0.0
 27
0.0
 37
0.0
 40
7517.061441529765
 41
3.1666666666666661
 42
50.0
 43
0.0
 44
0.0
 50
0.0
 51
0.0
 71
     0
 72
   100
 73
     1
 74
     0
 75
     0
 76
     0
 77
     0
 78
     0
  0
ENDTAB
  0
TABLE
  2
LTYPE
 70
     2
  0
LTYPE
  2
CONTINUOUS
 70
     0
  3
Solid line
 72
    65
 73
     0
 40
0.0
  0
LTYPE
  2
CENTER
 70
     0
  3
____ _ ____ _ ____ _ ____ _ ____ _ ____ _ ____ 
 72
    65
 73
     4
 40
2.0
 49
1.25
 49
-0.25
 49
0.25
 49
-0.25
  0
ENDTAB
  0
TABLE
  2
LAYER
 70
     6
  0
LAYER
  2
0
 70
     0
 62
     7
  6
CONTINUOUS
  0
LAYER
  2
3
 70
     0
 62
     2
  6
CONTINUOUS
  0
LAYER
  2
2
 70
     0
 62
     3
  6
CENTER
  0
LAYER
  2
1
 70
     0
 62
     4
  6
CONTINUOUS
  0
LAYER
  2
4
 70
     0
 62
     7
  6
CONTINUOUS
  0
LAYER
  2
DEFPOINTS
 70
     0
 62
     7
  6
CONTINUOUS
  0
ENDTAB
  0
TABLE
  2
STYLE
 70
     1
  0
STYLE
  2
STANDARD
 70
     0
 40
0.0
 41
1.0
 50
0.0
 71
     0
 42
180.0
  3
simplex.shx
  4
extfont.shx
  0
ENDTAB
  0
TABLE
  2
VIEW
 70
     0
  0
ENDTAB
  0
TABLE
  2
UCS
 70
     0
  0
ENDTAB
  0
TABLE
  2
APPID
 70
     1
  0
APPID
  2
ACAD
 70
     0
  0
ENDTAB
  0
TABLE
  2
DIMSTYLE
 70
     1
  0
DIMSTYLE
  2
IGA
 70
     0
  3

  4

  5

  6
OPEN
  7
OPEN
 40
2.0
 41
2.0
 42
0.5
 43
10.0
 44
1.0
 45
0.0
 46
0.0
 47
1.0
 48
1.0
140
3.0
141
0.0
142
0.0
143
0.03937
144
1.0
145
0.0
146
10.0
147
1.0
 71
     0
 72
     0
 73
     0
 74
     0
 75
     0
 76
     0
 77
     1
 78
     8
170
     0
171
     2
172
     0
173
     1
174
     0
175
     0
176
     0
177
     0
178
     0
  0
ENDTAB
  0
ENDSEC
  0
SECTION
  2
BLOCKS
  0
BLOCK
  8
0
  2
$MODEL_SPACE
 70
     0
 10
0.0
 20
0.0
 30
0.0
  3
$MODEL_SPACE
  1

  0
ENDBLK
  5
1B
  8
0
  0
BLOCK
 67
     1
  8
0
  2
$PAPER_SPACE
 70
     0
 10
0.0
 20
0.0
 30
0.0
  3
$PAPER_SPACE
  1

  0
ENDBLK
  5
18
 67
     1
  8
0
  0
BLOCK
  8
0
  2
_OPEN
 70
     0
 10
0.0
 20
0.0
 30
0.0
  3
_OPEN
  1

  0
LINE
  5
7AE3
  8
0
  6
BYBLOCK
 62
     0
 10
-1.0
 20
0.166667
 30
0.0
 11
0.0
 21
0.0
 31
0.0
  0
LINE
  5
7AE4
  8
0
  6
BYBLOCK
 62
     0
 10
0.0
 20
0.0
 30
0.0
 11
-1.0
 21
-0.166667
 31
0.0
  0
LINE
  5
7AE5
  8
0
  6
BYBLOCK
 62
     0
 10
0.0
 20
0.0
 30
0.0
 11
-1.0
 21
0.0
 31
0.0
  0
ENDBLK
  5
7AE6
  8
0
  0
BLOCK
  8
0
  2
*D1
 70
     1
 10
0.0
 20
0.0
 30
0.0
  3
*D1
  1

  0
LINE
  5
7CFE
  8
3
  6
CONTINUOUS
 62
     0
 10
2576.2570009999999
 20
4108.3326100000004
 30
0.0
 11
2797.0679300000002
 21
4108.3326100000004
 31
0.0
  0
LINE
  5
7CFF
  8
3
  6
CONTINUOUS
 62
     0
 10
2576.2570009999999
 20
3378.332609999999
 30
0.0
 11
2797.0679300000002
 21
3378.332609999999
 31
0.0
  0
LINE
  5
7D00
  8
3
  6
CONTINUOUS
 62
     0
 10
2767.0679300000002
 20
4048.3326099999999
 30
0.0
 11
2767.0679300000002
 21
3438.332609999999
 31
0.0
  0
INSERT
  5
7D01
  8
3
  6
CONTINUOUS
 62
     0
  2
_OPEN
 10
2767.0679300000002
 20
4108.3326100000004
 30
0.0
 41
60.0
 42
60.0
 43
60.0
 50
90.0
  0
INSERT
  5
7D02
  8
3
  6
CONTINUOUS
 62
     0
  2
_OPEN
 10
2767.0679300000002
 20
3378.332609999999
 30
0.0
 41
60.0
 42
60.0
 43
60.0
 50
270.0
  0
TEXT
  8
3
  40
90
  5
7D94
  62
0
  72
0
  71
0
 10
2512.07
 20
3599.08
 30
0.000000
  1
730
  0
POINT
  5
7D04
  8
DEFPOINTS
  6
CONTINUOUS
 62
     0
 10
2561.257000999999
 20
4108.3326100000004
 30
0.0
  0
POINT
  5
7D05
  8
DEFPOINTS
  6
CONTINUOUS
 62
     0
 10
2561.257000999999
 20
3378.332609999999
 30
0.0
  0
POINT
  5
7D06
  8
DEFPOINTS
  6
CONTINUOUS
 62
     0
 10
2767.0679300000002
 20
3378.332609999999
 30
0.0
  0
ENDBLK
  5
7AF3
  8
0
  0
BLOCK
  8
0
  2
*D2
 70
     1
 10
0.0
 20
0.0
 30
0.0
  3
*D2
  1

  0
LINE
  5
7D07
  8
3
  6
CONTINUOUS
 62
     0
 10
2576.2570009999999
 20
4108.3326100000004
 30
0.0
 11
2972.5952579999998
 21
4108.3326100000004
 31
0.0
  0
LINE
  5
7D08
  8
3
  6
CONTINUOUS
 62
     0
 10
2716.6412099999998
 20
3412.332609999999
 30
0.0
 11
2972.5952579999998
 21
3412.332609999999
 31
0.0
  0
LINE
  5
7D09
  8
3
  6
CONTINUOUS
 62
     0
 10
2942.5952579999998
 20
4048.3326099999999
 30
0.0
 11
2942.5952579999998
 21
3472.3326099999999
 31
0.0
  0
INSERT
  5
7D0A
  8
3
  6
CONTINUOUS
 62
     0
  2
_OPEN
 10
2942.5952579999998
 20
4108.3326100000004
 30
0.0
 41
60.0
 42
60.0
 43
60.0
 50
90.0
  0
INSERT
  5
7D0B
  8
3
  6
CONTINUOUS
 62
     0
  2
_OPEN
 10
2942.5952579999998
 20
3412.332609999999
 30
0.0
 41
60.0
 42
60.0
 43
60.0
 50
270.0
  0
TEXT
  8
3
  40
90
  5
7D95
  62
0
  72
0
  71
0
 10
2687.60
 20
3611.18
 30
0.000000
  1
696
  0
POINT
  5
7D0D
  8
DEFPOINTS
  6
CONTINUOUS
 62
     0
 10
2561.257000999999
 20
4108.3326100000004
 30
0.0
  0
POINT
  5
7D0E
  8
DEFPOINTS
  6
CONTINUOUS
 62
     0
 10
2701.6412099999998
 20
3412.332609999999
 30
0.0
  0
POINT
  5
7D0F
  8
DEFPOINTS
  6
CONTINUOUS
 62
     0
 10
2942.5952579999998
 20
3412.332609999999
 30
0.0
  0
ENDBLK
  5
7B00
  8
0
  0
BLOCK
  8
0
  2
*D3
 70
     1
 10
0.0
 20
0.0
 30
0.0
  3
*D3
  1

  0
LINE
  5
7D10
  8
3
  6
CONTINUOUS
 62
     0
 10
2511.2570009999999
 20
2787.332609999999
 30
0.0
 11
2972.5952579999998
 21
2787.332609999999
 31
0.0
  0
LINE
  5
7D11
  8
3
  6
CONTINUOUS
 62
     0
 10
2942.5952579999998
 20
3352.332609999999
 30
0.0
 11
2942.5952579999998
 21
2847.3326099999999
 31
0.0
  0
INSERT
  5
7D12
  8
3
  6
CONTINUOUS
 62
     0
  2
_OPEN
 10
2942.5952579999998
 20
3412.332609999999
 30
0.0
 41
60.0
 42
60.0
 43
60.0
 50
90.0
  0
INSERT
  5
7D13
  8
3
  6
CONTINUOUS
 62
     0
  2
_OPEN
 10
2942.5952579999998
 20
2787.332609999999
 30
0.0
 41
60.0
 42
60.0
 43
60.0
 50
270.0
  0
TEXT
  8
3
  40
90
  5
7D96
  62
0
  72
0
  71
0
 10
2687.60
 20
2940.53
 30
0.000000
  1
625
  0
POINT
  5
7D15
  8
DEFPOINTS
  6
CONTINUOUS
 62
     0
 10
2701.6412099999998
 20
3412.332609999999
 30
0.0
  0
POINT
  5
7D16
  8
DEFPOINTS
  6
CONTINUOUS
 62
     0
 10
2496.2570009999999
 20
2787.332609999999
 30
0.0
  0
POINT
  5
7D17
  8
DEFPOINTS
  6
CONTINUOUS
 62
     0
 10
2942.5952579999998
 20
2787.332609999999
 30
0.0
  0
ENDBLK
  5
7B0C
  8
0
  0
BLOCK
  8
0
  2
*D4
 70
     1
 10
0.0
 20
0.0
 30
0.0
  3
*D4
  1

  0
LINE
  5
7D18
  8
3
  6
CONTINUOUS
 62
     0
 10
2511.2570009999999
 20
2787.332609999999
 30
0.0
 11
2972.4605580000002
 21
2787.332609999999
 31
0.0
  0
LINE
  5
7D19
  8
3
  6
CONTINUOUS
 62
     0
 10
2561.257000999999
 20
2661.3326099999999
 30
0.0
 11
2972.4605580000002
 21
2661.3326099999999
 31
0.0
  0
LINE
  5
7D1A
  8
3
  6
CONTINUOUS
 62
     0
 10
2942.4605580000002
 20
2847.3326099999999
 30
0.0
 11
2942.4605580000002
 21
2907.3326099999999
 31
0.0
  0
LINE
  5
7D1B
  8
3
  6
CONTINUOUS
 62
     0
 10
2942.4605580000002
 20
2601.3326099999999
 30
0.0
 11
2942.4605580000002
 21
2271.332609999999
 31
0.0
  0
LINE
  5
7D1C
  8
3
  6
CONTINUOUS
 62
     0
 10
2942.4605580000002
 20
2787.332609999999
 30
0.0
 11
2942.4605580000002
 21
2661.3326099999999
 31
0.0
  0
INSERT
  5
7D1D
  8
3
  6
CONTINUOUS
 62
     0
  2
_OPEN
 10
2942.4605580000002
 20
2787.332609999999
 30
0.0
 41
60.0
 42
60.0
 43
60.0
 50
270.0
  0
INSERT
  5
7D1E
  8
3
  6
CONTINUOUS
 62
     0
  2
_OPEN
 10
2942.4605580000002
 20
2661.3326099999999
 30
0.0
 41
60.0
 42
60.0
 43
60.0
 50
90.0
  0
TEXT
  8
3
  40
90
  5
7D97
  62
0
  72
0
  71
0
 10
2687.46
 20
2247.03
 30
0.000000
  1
126
  0
POINT
  5
7D20
  8
DEFPOINTS
  6
CONTINUOUS
 62
     0
 10
2496.2570009999999
 20
2787.332609999999
 30
0.0
  0
POINT
  5
7D21
  8
DEFPOINTS
  6
CONTINUOUS
 62
     0
 10
2546.2570009999999
 20
2661.3326099999999
 30
0.0
  0
POINT
  5
7D22
  8
DEFPOINTS
  6
CONTINUOUS
 62
     0
 10
2942.4605580000002
 20
2661.3326099999999
 30
0.0
  0
ENDBLK
  5
7CAC
  8
0
  0
BLOCK
  8
0
  2
*D5
 70
     1
 10
0.0
 20
0.0
 30
0.0
  3
*D5
  1

  0
LINE
  5
7D23
  8
3
  6
CONTINUOUS
 62
     0
 10
2576.2570009999999
 20
4148.3326100000004
 30
0.0
 11
3195.4597700000008
 21
4148.3326100000004
 31
0.0
  0
LINE
  5
7D24
  8
3
  6
CONTINUOUS
 62
     0
 10
2561.257000999999
 20
2661.3326099999999
 30
0.0
 11
3195.4597699999999
 21
2661.332609999999
 31
0.0
  0
LINE
  5
7D25
  8
3
  6
CONTINUOUS
 62
     0
 10
3165.4597700000008
 20
4088.3326100000008
 30
0.0
 11
3165.4597699999999
 21
2721.332609999999
 31
0.0
  0
INSERT
  5
7D26
  8
3
  6
CONTINUOUS
 62
     0
  2
_OPEN
 10
3165.4597700000008
 20
4148.3326100000004
 30
0.0
 41
60.0
 42
60.0
 43
60.0
 50
90.0
  0
INSERT
  5
7D27
  8
3
  6
CONTINUOUS
 62
     0
  2
_OPEN
 10
3165.4597699999999
 20
2661.332609999999
 30
0.0
 41
60.0
 42
60.0
 43
60.0
 50
270.0
  0
TEXT
  8
3
  40
90
  5
7D98
  62
0
  72
0
  71
0
 10
2910.46
 20
3305.08
 30
0.000000
  1
1487
  0
POINT
  5
7D29
  8
DEFPOINTS
  6
CONTINUOUS
 62
     0
 10
2561.257000999999
 20
4148.3326100000004
 30
0.0
  0
POINT
  5
7D2A
  8
DEFPOINTS
  6
CONTINUOUS
 62
     0
 10
2546.2570009999999
 20
2661.3326099999999
 30
0.0
  0
POINT
  5
7D2B
  8
DEFPOINTS
  6
CONTINUOUS
 62
     0
 10
3165.4597699999999
 20
2661.332609999999
 30
0.0
  0
ENDBLK
  5
7C27
  8
0
  0
BLOCK
  8
0
  2
*D6
 70
     1
 10
0.0
 20
0.0
 30
0.0
  3
*D6
  1

  0
LINE
  5
7D2C
  8
3
  6
CONTINUOUS
 62
     0
 10
946.25700099999995
 20
2646.332609999999
 30
0.0
 11
946.25700099999995
 21
2383.4839350000002
 31
0.0
  0
LINE
  5
7D2D
  8
3
  6
CONTINUOUS
 62
     0
 10
2026.2570009999999
 20
2533.608913
 30
0.0
 11
2026.2570009999999
 21
2383.4839350000002
 31
0.0
  0
LINE
  5
7D2E
  8
3
  6
CONTINUOUS
 62
     0
 10
1006.2570009999999
 20
2413.4839350000002
 30
0.0
 11
1966.2570009999999
 21
2413.4839350000002
 31
0.0
  0
INSERT
  5
7D2F
  8
3
  6
CONTINUOUS
 62
     0
  2
_OPEN
 10
946.25700099999995
 20
2413.4839350000002
 30
0.0
 41
60.0
 42
60.0
 43
60.0
 50
180.0
  0
INSERT
  5
7D30
  8
3
  6
CONTINUOUS
 62
     0
  2
_OPEN
 10
2026.2570009999999
 20
2413.4839350000002
 30
0.0
 41
60.0
 42
60.0
 43
60.0
  0
TEXT
  8
3
  40
90
  5
7D99
  62
0
  72
0
  71
0
 10
1305.60
 20
2329.18
 30
0.000000
  1
1080
  0
POINT
  5
7D32
  8
DEFPOINTS
  6
CONTINUOUS
 62
     0
 10
946.25700099999995
 20
2661.3326099999999
 30
0.0
  0
POINT
  5
7D33
  8
DEFPOINTS
  6
CONTINUOUS
 62
     0
 10
2026.2570009999999
 20
2548.608913
 30
0.0
  0
POINT
  5
7D34
  8
DEFPOINTS
  6
CONTINUOUS
 62
     0
 10
2026.2570009999999
 20
2413.4839350000002
 30
0.0
  0
ENDBLK
  5
7C32
  8
0
  0
BLOCK
  8
0
  2
*D7
 70
     1
 10
0.0
 20
0.0
 30
0.0
  3
*D7
  1

  0
LINE
  5
7D35
  8
3
  6
CONTINUOUS
 62
     0
 10
2546.2570009999999
 20
2646.332609999999
 30
0.0
 11
2546.2570009999999
 21
2383.4839350000002
 31
0.0
  0
LINE
  5
7D36
  8
3
  6
CONTINUOUS
 62
     0
 10
2086.257000999999
 20
2413.4839350000002
 30
0.0
 11
2486.2570009999999
 21
2413.4839350000002
 31
0.0
  0
INSERT
  5
7D37
  8
3
  6
CONTINUOUS
 62
     0
  2
_OPEN
 10
2026.2570009999999
 20
2413.4839350000002
 30
0.0
 41
60.0
 42
60.0
 43
60.0
 50
180.0
  0
INSERT
  5
7D38
  8
3
  6
CONTINUOUS
 62
     0
  2
_OPEN
 10
2546.2570009999999
 20
2413.4839350000002
 30
0.0
 41
60.0
 42
60.0
 43
60.0
  0
TEXT
  8
3
  40
90
  5
7D9A
  62
0
  72
0
  71
0
 10
2106.26
 20
2329.18
 30
0.000000
  1
520
  0
POINT
  5
7D3A
  8
DEFPOINTS
  6
CONTINUOUS
 62
     0
 10
2026.2570009999999
 20
2548.608913
 30
0.0
  0
POINT
  5
7D3B
  8
DEFPOINTS
  6
CONTINUOUS
 62
     0
 10
2546.2570009999999
 20
2661.3326099999999
 30
0.0
  0
POINT
  5
7D3C
  8
DEFPOINTS
  6
CONTINUOUS
 62
     0
 10
2546.2570009999999
 20
2413.4839350000002
 30
0.0
  0
ENDBLK
  5
7C3C
  8
0
  0
BLOCK
  8
0
  2
*D8
 70
     1
 10
0.0
 20
0.0
 30
0.0
  3
*D8
  1

  0
LINE
  5
7D3D
  8
3
  6
CONTINUOUS
 62
     0
 10
2561.257000999999
 20
4163.3326100000004
 30
0.0
 11
2561.257000999999
 21
4245.6510579999986
 31
0.0
  0
LINE
  5
7D3E
  8
3
  6
CONTINUOUS
 62
     0
 10
2026.2570009999999
 20
4152.2350229999993
 30
0.0
 11
2026.2570009999999
 21
4245.6510579999986
 31
0.0
  0
LINE
  5
7D3F
  8
3
  6
CONTINUOUS
 62
     0
 10
2501.2570009999999
 20
4215.6510579999986
 30
0.0
 11
2086.257000999999
 21
4215.6510579999986
 31
0.0
  0
INSERT
  5
7D40
  8
3
  6
CONTINUOUS
 62
     0
  2
_OPEN
 10
2561.257000999999
 20
4215.6510579999986
 30
0.0
 41
60.0
 42
60.0
 43
60.0
  0
INSERT
  5
7D41
  8
3
  6
CONTINUOUS
 62
     0
  2
_OPEN
 10
2026.2570009999999
 20
4215.6510579999986
 30
0.0
 41
60.0
 42
60.0
 43
60.0
 50
180.0
  0
TEXT
  8
3
  40
90
  5
7D9B
  62
0
  72
0
  71
0
 10
2111.55
 20
4131.35
 30
0.000000
  1
535
  0
POINT
  5
7D43
  8
DEFPOINTS
  6
CONTINUOUS
 62
     0
 10
2561.257000999999
 20
4148.3326100000004
 30
0.0
  0
POINT
  5
7D44
  8
DEFPOINTS
  6
CONTINUOUS
 62
     0
 10
2026.2570009999999
 20
4137.2350229999993
 30
0.0
  0
POINT
  5
7D45
  8
DEFPOINTS
  6
CONTINUOUS
 62
     0
 10
2026.2570009999999
 20
4215.6510579999986
 30
0.0
  0
ENDBLK
  5
7B4F
  8
0
  0
BLOCK
  8
0
  2
*D9
 70
     1
 10
0.0
 20
0.0
 30
0.0
  3
*D9
  1

  0
LINE
  5
7D46
  8
3
  6
CONTINUOUS
 62
     0
 10
4513.4425039999987
 20
4123.3326100000013
 30
0.0
 11
4513.4425039999987
 21
4251.6612739999991
 31
0.0
  0
LINE
  5
7D47
  8
3
  6
CONTINUOUS
 62
     0
 10
5043.4425039999996
 20
4123.3326100000013
 30
0.0
 11
5043.4425039999996
 21
4251.6612739999991
 31
0.0
  0
LINE
  5
7D48
  8
3
  6
CONTINUOUS
 62
     0
 10
4573.4425039999987
 20
4221.661274
 30
0.0
 11
4983.4425039999996
 21
4221.661274
 31
0.0
  0
INSERT
  5
7D49
  8
3
  6
CONTINUOUS
 62
     0
  2
_OPEN
 10
4513.4425039999987
 20
4221.661274
 30
0.0
 41
60.0
 42
60.0
 43
60.0
 50
180.0
  0
INSERT
  5
7D4A
  8
3
  6
CONTINUOUS
 62
     0
  2
_OPEN
 10
5043.4425039999996
 20
4221.661274
 30
0.0
 41
60.0
 42
60.0
 43
60.0
  0
TEXT
  8
3
  40
90
  5
7D9C
  62
0
  72
0
  71
0
 10
4597.81
 20
4137.36
 30
0.000000
  1
530
  0
POINT
  5
7D4C
  8
DEFPOINTS
  6
CONTINUOUS
 62
     0
 10
4513.4425039999987
 20
4108.3326100000004
 30
0.0
  0
POINT
  5
7D4D
  8
DEFPOINTS
  6
CONTINUOUS
 62
     0
 10
5043.4425039999996
 20
4108.3326100000004
 30
0.0
  0
POINT
  5
7D4E
  8
DEFPOINTS
  6
CONTINUOUS
 62
     0
 10
5043.4425039999996
 20
4221.661274
 30
0.0
  0
ENDBLK
  5
7B68
  8
0
  0
BLOCK
  8
0
  2
*D10
 70
     1
 10
0.0
 20
0.0
 30
0.0
  3
*D10
  1

  0
LINE
  5
7C96
  8
0
  6
BYBLOCK
 62
     0
 10
5045.4425039999996
 20
3804.3326099999999
 30
0.0
 11
5045.4425039999996
 21
4449.9978570000003
 31
0.0
  0
LINE
  5
7C97
  8
0
  6
BYBLOCK
 62
     0
 10
4778.4425039999996
 20
4407.0807520000008
 30
0.0
 11
4778.4425039999996
 21
4449.9978570000003
 31
0.0
  0
LINE
  5
7C98
  8
0
  6
BYBLOCK
 62
     0
 10
4985.4425039999987
 20
4419.9978570000012
 30
0.0
 11
4838.4425039999987
 21
4419.9978570000012
 31
0.0
  0
TEXT
  5
7C99
  8
3
 62
     0
 10
4811.0537918852606
 20
4462.600986583132
 30
0.0
 40
90.0
  1
267
  0
INSERT
  5
7C9A
  8
0
  6
BYBLOCK
 62
     0
  2
_OPEN
 10
5045.4425039999996
 20
4419.9978570000012
 30
0.0
 41
60.0
 42
60.0
 43
60.0
  0
INSERT
  5
7C9B
  8
0
  6
BYBLOCK
 62
     0
  2
_OPEN
 10
4778.4425039999996
 20
4419.9978570000012
 30
0.0
 41
60.0
 42
60.0
 43
60.0
 50
180.0
  0
POINT
  5
7C9C
  8
DEFPOINTS
  6
BYBLOCK
 62
     0
 10
5045.4425039999996
 20
3789.3326099999999
 30
0.0
  0
POINT
  5
7C9D
  8
DEFPOINTS
  6
BYBLOCK
 62
     0
 10
4778.4425039999996
 20
4392.0807519999998
 30
0.0
  0
POINT
  5
7C9E
  8
DEFPOINTS
  6
BYBLOCK
 62
     0
 10
4778.4425039999996
 20
4419.9978570000012
 30
0.0
  0
ENDBLK
  5
7C9F
  8
0
  0
BLOCK
  8
0
  2
*D11
 70
     1
 10
0.0
 20
0.0
 30
0.0
  3
*D11
  1

  0
LINE
  5
7D4F
  8
3
  6
CONTINUOUS
 62
     0
 10
4278.4425039999996
 20
4042.332609999999
 30
0.0
 11
4278.4425039999996
 21
4449.9978570000003
 31
0.0
  0
LINE
  5
7D50
  8
3
  6
CONTINUOUS
 62
     0
 10
4718.4425039999996
 20
4419.9978570000012
 30
0.0
 11
4338.4425039999987
 21
4419.9978570000012
 31
0.0
  0
INSERT
  5
7D51
  8
3
  6
CONTINUOUS
 62
     0
  2
_OPEN
 10
4778.4425039999996
 20
4419.9978570000012
 30
0.0
 41
60.0
 42
60.0
 43
60.0
  0
INSERT
  5
7D52
  8
3
  6
CONTINUOUS
 62
     0
  2
_OPEN
 10
4278.4425039999996
 20
4419.9978570000012
 30
0.0
 41
60.0
 42
60.0
 43
60.0
 50
180.0
  0
TEXT
  8
3
  40
90
  5
7D9D
  62
0
  72
0
  71
0
 10
4348.44
 20
4410.70
 30
0.000000
  1
MAX
  0
TEXT
  8
3
  40
90
  5
7D9E
  62
0
  72
0
  71
0
 10
4348.44
 20
4293.70
 30
0.000000
  1
560
  0
POINT
  5
7D54
  8
DEFPOINTS
  6
CONTINUOUS
 62
     0
 10
4778.4425039999996
 20
4392.0807519999998
 30
0.0
  0
POINT
  5
7D55
  8
DEFPOINTS
  6
CONTINUOUS
 62
     0
 10
4278.4425039999996
 20
4027.3326099999999
 30
0.0
  0
POINT
  5
7D56
  8
DEFPOINTS
  6
CONTINUOUS
 62
     0
 10
4278.4425039999996
 20
4419.9978570000012
 30
0.0
  0
ENDBLK
  5
7C7E
  8
0
  0
BLOCK
  8
0
  2
*D12
 70
     1
 10
0.0
 20
0.0
 30
0.0
  3
*D12
  1

  0
LINE
  5
7D57
  8
3
  6
CONTINUOUS
 62
     0
 10
5060.4425039999996
 20
3789.3326099999999
 30
0.0
 11
5373.1851080000006
 21
3789.332609999999
 31
0.0
  0
LINE
  5
7D58
  8
3
  6
CONTINUOUS
 62
     0
 10
5060.4425039999996
 20
3035.3326099999999
 30
0.0
 11
5373.1851080000006
 21
3035.332609999999
 31
0.0
  0
LINE
  5
7D59
  8
3
  6
CONTINUOUS
 62
     0
 10
5343.1851080000006
 20
3729.332609999999
 30
0.0
 11
5343.1851080000006
 21
3095.332609999999
 31
0.0
  0
INSERT
  5
7D5A
  8
3
  6
CONTINUOUS
 62
     0
  2
_OPEN
 10
5343.1851080000006
 20
3789.332609999999
 30
0.0
 41
60.0
 42
60.0
 43
60.0
 50
90.0
  0
INSERT
  5
7D5B
  8
3
  6
CONTINUOUS
 62
     0
  2
_OPEN
 10
5343.1851080000006
 20
3035.332609999999
 30
0.0
 41
60.0
 42
60.0
 43
60.0
 50
270.0
  0
TEXT
  8
3
  40
90
  5
7D9F
  62
0
  72
0
  71
0
 10
5088.19
 20
3256.99
 30
0.000000
  1
φ754
  0
POINT
  5
7D5D
  8
DEFPOINTS
  6
CONTINUOUS
 62
     0
 10
5045.4425039999996
 20
3789.3326099999999
 30
0.0
  0
POINT
  5
7D5E
  8
DEFPOINTS
  6
CONTINUOUS
 62
     0
 10
5045.4425039999996
 20
3035.3326099999999
 30
0.0
  0
POINT
  5
7D5F
  8
DEFPOINTS
  6
CONTINUOUS
 62
     0
 10
5343.1851080000006
 20
3035.332609999999
 30
0.0
  0
ENDBLK
  5
7C89
  8
0
  0
BLOCK
  8
0
  2
*D13
 70
     1
 10
0.0
 20
0.0
 30
0.0
  3
*D13
  1

  0
LINE
  5
7D60
  8
3
  6
CONTINUOUS
 62
     0
 10
4220.4425039999996
 20
2646.332609999999
 30
0.0
 11
4220.4425039999996
 21
2379.9806680000002
 31
0.0
  0
LINE
  5
7D61
  8
3
  6
CONTINUOUS
 62
     0
 10
4778.4425039999996
 20
2434.486594
 30
0.0
 11
4778.4425039999996
 21
2379.9806680000002
 31
0.0
  0
LINE
  5
7D62
  8
3
  6
CONTINUOUS
 62
     0
 10
4280.4425039999987
 20
2409.9806680000002
 30
0.0
 11
4718.4425039999996
 21
2409.9806680000002
 31
0.0
  0
INSERT
  5
7D63
  8
3
  6
CONTINUOUS
 62
     0
  2
_OPEN
 10
4220.4425039999996
 20
2409.9806680000002
 30
0.0
 41
60.0
 42
60.0
 43
60.0
 50
180.0
  0
INSERT
  5
7D64
  8
3
  6
CONTINUOUS
 62
     0
  2
_OPEN
 10
4778.4425039999996
 20
2409.9806680000002
 30
0.0
 41
60.0
 42
60.0
 43
60.0
  0
TEXT
  8
3
  40
90
  5
7DA0
  62
0
  72
0
  71
0
 10
4339.18
 20
2325.68
 30
0.000000
  1
558
  0
POINT
  5
7D66
  8
DEFPOINTS
  6
CONTINUOUS
 62
     0
 10
4220.4425039999996
 20
2661.3326099999999
 30
0.0
  0
POINT
  5
7D67
  8
DEFPOINTS
  6
CONTINUOUS
 62
     0
 10
4778.4425039999996
 20
2449.486594
 30
0.0
  0
POINT
  5
7D68
  8
DEFPOINTS
  6
CONTINUOUS
 62
     0
 10
4778.4425039999996
 20
2409.9806680000002
 30
0.0
  0
ENDBLK
  5
7C53
  8
0
  0
BLOCK
  8
0
  2
*D14
 70
     1
 10
0.0
 20
0.0
 30
0.0
  3
*D14
  1

  0
LINE
  5
7D69
  8
3
  6
CONTINUOUS
 62
     0
 10
5210.4425039999987
 20
2646.332609999999
 30
0.0
 11
5210.4425039999987
 21
2379.9806680000002
 31
0.0
  0
LINE
  5
7D6A
  8
3
  6
CONTINUOUS
 62
     0
 10
4838.4425039999987
 20
2409.9806680000002
 30
0.0
 11
5150.4425039999996
 21
2409.9806680000002
 31
0.0
  0
INSERT
  5
7D6B
  8
3
  6
CONTINUOUS
 62
     0
  2
_OPEN
 10
4778.4425039999996
 20
2409.9806680000002
 30
0.0
 41
60.0
 42
60.0
 43
60.0
 50
180.0
  0
INSERT
  5
7D6C
  8
3
  6
CONTINUOUS
 62
     0
  2
_OPEN
 10
5210.4425039999987
 20
2409.9806680000002
 30
0.0
 41
60.0
 42
60.0
 43
60.0
  0
TEXT
  8
3
  40
90
  5
7DA1
  62
0
  72
0
  71
0
 10
4814.44
 20
2325.68
 30
0.000000
  1
432
  0
POINT
  5
7D6E
  8
DEFPOINTS
  6
CONTINUOUS
 62
     0
 10
4778.4425039999996
 20
2449.486594
 30
0.0
  0
POINT
  5
7D6F
  8
DEFPOINTS
  6
CONTINUOUS
 62
     0
 10
5210.4425039999987
 20
2661.3326099999999
 30
0.0
  0
POINT
  5
7D70
  8
DEFPOINTS
  6
CONTINUOUS
 62
     0
 10
5210.4425039999987
 20
2409.9806680000002
 30
0.0
  0
ENDBLK
  5
7C5D
  8
0
  0
BLOCK
  8
0
  2
*D15
 70
     1
 10
0.0
 20
0.0
 30
0.0
  3
*D15
  1

  0
LINE
  5
7D71
  8
3
  6
CONTINUOUS
 62
     0
 10
946.25700099999995
 20
6327.2676179999999
 30
0.0
 11
946.25700099999995
 21
6487.4009180000003
 31
0.0
  0
LINE
  5
7D72
  8
3
  6
CONTINUOUS
 62
     0
 10
2546.2570009999999
 20
6327.2676179999999
 30
0.0
 11
2546.2570009999999
 21
6487.4009180000003
 31
0.0
  0
LINE
  5
7D73
  8
3
  6
CONTINUOUS
 62
     0
 10
1006.2570009999999
 20
6457.4009180000012
 30
0.0
 11
2486.2570009999999
 21
6457.4009180000012
 31
0.0
  0
INSERT
  5
7D74
  8
3
  6
CONTINUOUS
 62
     0
  2
_OPEN
 10
946.25700099999995
 20
6457.4009180000012
 30
0.0
 41
60.0
 42
60.0
 43
60.0
 50
180.0
  0
INSERT
  5
7D75
  8
3
  6
CONTINUOUS
 62
     0
  2
_OPEN
 10
2546.2570009999999
 20
6457.4009180000012
 30
0.0
 41
60.0
 42
60.0
 43
60.0
  0
TEXT
  8
3
  40
90
  5
7DA2
  62
0
  72
0
  71
0
 10
1528.14
 20
6373.10
 30
0.000000
  1
1600
  0
POINT
  5
7D77
  8
DEFPOINTS
  6
CONTINUOUS
 62
     0
 10
946.25700099999995
 20
6312.2676179999989
 30
0.0
  0
POINT
  5
7D78
  8
DEFPOINTS
  6
CONTINUOUS
 62
     0
 10
2546.2570009999999
 20
6312.2676179999989
 30
0.0
  0
POINT
  5
7D79
  8
DEFPOINTS
  6
CONTINUOUS
 62
     0
 10
2546.2570009999999
 20
6457.4009180000012
 30
0.0
  0
ENDBLK
  5
7BCF
  8
0
  0
BLOCK
  8
0
  2
*D16
 70
     1
 10
0.0
 20
0.0
 30
0.0
  3
*D16
  1

  0
LINE
  5
7D7A
  8
3
  6
CONTINUOUS
 62
     0
 10
2561.257000999999
 20
6312.2676179999989
 30
0.0
 11
2904.9690850000011
 21
6312.2676179999989
 31
0.0
  0
LINE
  5
7D7B
  8
3
  6
CONTINUOUS
 62
     0
 10
2561.257000999999
 20
5322.2676179999999
 30
0.0
 11
2904.9690850000011
 21
5322.2676179999999
 31
0.0
  0
LINE
  5
7D7C
  8
3
  6
CONTINUOUS
 62
     0
 10
2874.9690850000011
 20
6252.2676179999999
 30
0.0
 11
2874.9690850000011
 21
5382.2676179999999
 31
0.0
  0
INSERT
  5
7D7D
  8
3
  6
CONTINUOUS
 62
     0
  2
_OPEN
 10
2874.9690850000011
 20
6312.2676179999989
 30
0.0
 41
60.0
 42
60.0
 43
60.0
 50
90.0
  0
INSERT
  5
7D7E
  8
3
  6
CONTINUOUS
 62
     0
  2
_OPEN
 10
2874.9690850000011
 20
5322.2676179999999
 30
0.0
 41
60.0
 42
60.0
 43
60.0
 50
270.0
  0
TEXT
  8
3
  40
90
  5
7DA3
  62
0
  72
0
  71
0
 10
2619.97
 20
5679.05
 30
0.000000
  1
990
  0
POINT
  5
7D80
  8
DEFPOINTS
  6
CONTINUOUS
 62
     0
 10
2546.2570009999999
 20
6312.2676179999989
 30
0.0
  0
POINT
  5
7D81
  8
DEFPOINTS
  6
CONTINUOUS
 62
     0
 10
2546.2570009999999
 20
5322.2676179999999
 30
0.0
  0
POINT
  5
7D82
  8
DEFPOINTS
  6
CONTINUOUS
 62
     0
 10
2874.9690850000011
 20
5322.2676179999999
 30
0.0
  0
ENDBLK
  5
7BDC
  8
0
  0
BLOCK
  8
0
  2
*D17
 70
     1
 10
0.0
 20
0.0
 30
0.0
  3
*D17
  1

  0
LINE
  5
7D83
  8
3
  6
CONTINUOUS
 62
     0
 10
1440.2594750000001
 20
3427.3326099999999
 30
0.0
 11
1440.2594750000001
 21
4245.6510579999986
 31
0.0
  0
LINE
  5
7D84
  8
3
  6
CONTINUOUS
 62
     0
 10
1966.2570009999999
 20
4215.6510579999986
 30
0.0
 11
1500.2594750000001
 21
4215.6510579999986
 31
0.0
  0
INSERT
  5
7D85
  8
3
  6
CONTINUOUS
 62
     0
  2
_OPEN
 10
2026.2570009999999
 20
4215.6510579999986
 30
0.0
 41
60.0
 42
60.0
 43
60.0
  0
INSERT
  5
7D86
  8
3
  6
CONTINUOUS
 62
     0
  2
_OPEN
 10
1440.2594750000001
 20
4215.6510579999986
 30
0.0
 41
60.0
 42
60.0
 43
60.0
 50
180.0
  0
TEXT
  8
3
  40
90
  5
7DA4
  62
0
  72
0
  71
0
 10
1553.26
 20
4131.35
 30
0.000000
  1
586
  0
POINT
  5
7D88
  8
DEFPOINTS
  6
CONTINUOUS
 62
     0
 10
2026.2570009999999
 20
4137.2350229999993
 30
0.0
  0
POINT
  5
7D89
  8
DEFPOINTS
  6
CONTINUOUS
 62
     0
 10
1440.2594750000001
 20
3412.332609999999
 30
0.0
  0
POINT
  5
7D8A
  8
DEFPOINTS
  6
CONTINUOUS
 62
     0
 10
1440.2594750000001
 20
4215.6510579999986
 30
0.0
  0
ENDBLK
  5
7C47
  8
0
  0
BLOCK
  8
0
  2
*D18
 70
     1
 10
0.0
 20
0.0
 30
0.0
  3
*D18
  1

  0
LINE
  5
7D8B
  8
3
 62
     0
 10
2561.257000999999
 20
4163.3326100000004
 30
0.0
 11
2561.257000999999
 21
4449.9978570000003
 31
0.0
  0
LINE
  5
7D8C
  8
3
 62
     0
 10
946.25700099999995
 20
2776.3326099999999
 30
0.0
 11
946.25700099999995
 21
4449.9978570000003
 31
0.0
  0
LINE
  5
7D8D
  8
3
 62
     0
 10
2501.2570009999999
 20
4419.9978570000012
 30
0.0
 11
1006.2570009999999
 21
4419.9978570000012
 31
0.0
  0
INSERT
  5
7D8E
  8
3
 62
     0
  2
_OPEN
 10
2561.257000999999
 20
4419.9978570000012
 30
0.0
 41
60.0
 42
60.0
 43
60.0
  0
INSERT
  5
7D8F
  8
3
 62
     0
  2
_OPEN
 10
946.25700099999995
 20
4419.9978570000012
 30
0.0
 41
60.0
 42
60.0
 43
60.0
 50
180.0
  0
TEXT
  8
3
  40
90
  5
7DA5
  62
0
  72
0
  71
0
 10
1595.19
 20
4335.70
 30
0.000000
  1
1615
  0
POINT
  5
7D91
  8
DEFPOINTS
 62
     0
 10
2561.257000999999
 20
4148.3326100000004
 30
0.0
  0
POINT
  5
7D92
  8
DEFPOINTS
 62
     0
 10
946.25700099999995
 20
2761.3326099999999
 30
0.0
  0
POINT
  5
7D93
  8
DEFPOINTS
 62
     0
 10
946.25700099999995
 20
4419.9978570000012
 30
0.0
  0
ENDBLK
  5
7CD6
  8
0
  0
ENDSEC
  0
SECTION
  2
ENTITIES
  0
LINE
  5
7A71
  8
1
  6
CONTINUOUS
 10
986.25700099999983
 20
6312.2676179999989
 30
0.0
 11
986.25700099999983
 21
5322.2676179999999
 31
0.0
  0
LINE
  5
7A72
  8
1
  6
CONTINUOUS
 10
946.25700099999995
 20
6312.2676179999989
 30
0.0
 11
946.25700099999995
 21
5322.2676179999999
 31
0.0
  0
LINE
  5
7A73
  8
1
  6
CONTINUOUS
 10
2561.257000999999
 20
6185.2676180000008
 30
0.0
 11
2561.257000999999
 21
5575.2676179999999
 31
0.0
  0
LINE
  5
7A74
  8
1
  6
CONTINUOUS
 10
1438.5170009999999
 20
6145.2676179999999
 30
0.0
 11
1438.5170009999999
 21
5615.2676179999999
 31
0.0
  0
ARC
  5
7A75
  8
1
  6
CONTINUOUS
 10
1987.2570009999999
 20
3451.3326099999999
 30
0.0
 40
548.36999999999989
 50
185.31
 51
277.43000000000001
  0
LINE
  5
7A76
  8
1
  6
CONTINUOUS
 10
2546.2570009999999
 20
2661.3326099999999
 30
0.0
 11
946.25700099999995
 21
2661.3326099999999
 31
0.0
  0
LINE
  5
7A77
  8
1
  6
CONTINUOUS
 10
2546.2570009999999
 20
2761.3326099999999
 30
0.0
 11
946.25700099999995
 21
2761.3326099999999
 31
0.0
  0
LINE
  5
7A78
  8
1
  6
CONTINUOUS
 10
946.25700099999995
 20
2761.3326099999999
 30
0.0
 11
946.25700099999995
 21
2661.3326099999999
 31
0.0
  0
LINE
  5
7A79
  8
1
  6
CONTINUOUS
 10
2546.2570009999999
 20
2761.3326099999999
 30
0.0
 11
2546.2570009999999
 21
2661.3326099999999
 31
0.0
  0
ARC
  5
7A7A
  8
1
  6
CONTINUOUS
 10
2073.257000999999
 20
3459.3326099999999
 30
0.0
 40
634.74000000000001
 50
94.25
 51
185.31
  0
LINE
  5
7A7B
  8
1
  6
CONTINUOUS
 10
1959.5170009999999
 20
3546.6626099999999
 30
0.0
 11
1179.187001
 21
3158.9726099999998
 31
0.0
  0
LINE
  5
7A7C
  8
1
  6
CONTINUOUS
 10
2070.697001
 20
3269.0626099999999
 30
0.0
 11
1238.487001
 21
3010.9226100000001
 31
0.0
  0
LINE
  5
7A7F
  8
1
  6
CONTINUOUS
 10
2496.2570009999999
 20
2887.3326099999999
 30
0.0
 11
996.25700099999995
 21
2887.332609999999
 31
0.0
  0
LINE
  5
7A80
  8
1
  6
CONTINUOUS
 10
2496.2570009999999
 20
2787.332609999999
 30
0.0
 11
996.25700099999995
 21
2787.332609999999
 31
0.0
  0
LINE
  5
7A81
  8
1
  6
CONTINUOUS
 10
1876.2570009999999
 20
4027.3326099999999
 30
0.0
 11
1036.257000999999
 21
3187.3326099999999
 31
0.0
  0
LINE
  5
7A83
  8
1
  6
CONTINUOUS
 10
996.25700099999995
 20
2887.332609999999
 30
0.0
 11
996.25700099999995
 21
2787.332609999999
 31
0.0
  0
LINE
  5
7A84
  8
1
  6
CONTINUOUS
 10
1368.777000999999
 20
2945.332609999999
 30
0.0
 11
1347.437001
 21
2994.3426100000001
 31
0.0
  0
LINE
  5
7A85
  8
1
  6
CONTINUOUS
 10
1368.777000999999
 20
2887.332609999999
 30
0.0
 11
1368.777000999999
 21
2945.332609999999
 31
0.0
  0
LINE
  5
7A86
  8
2
  6
CENTER
 10
1214.7770009999999
 20
3007.3326099999999
 30
0.0
 11
1214.7770009999999
 21
3167.3326099999999
 31
0.0
  0
LINE
  5
7A87
  8
2
  6
CENTER
 10
1134.7770009999999
 20
3087.3326099999999
 30
0.0
 11
1294.777000999999
 21
3087.3326099999999
 31
0.0
  0
LINE
  5
7A88
  8
1
  6
CONTINUOUS
 10
1060.777000999999
 20
2887.332609999999
 30
0.0
 11
1060.777000999999
 21
2945.332609999999
 31
0.0
  0
LINE
  5
7A89
  8
1
  6
CONTINUOUS
 10
1060.777000999999
 20
2945.332609999999
 30
0.0
 11
1082.1270010000001
 21
2994.3426100000001
 31
0.0
  0
ARC
  5
7A8A
  8
1
  6
CONTINUOUS
 10
1214.7770009999999
 20
3087.3326099999999
 30
0.0
 40
162.0
 50
324.97000000000003
 51
215.02999999999989
  0
CIRCLE
  5
7A8B
  8
1
  6
CONTINUOUS
 10
1214.7770009999999
 20
3087.3326099999999
 30
0.0
 40
80.0
  0
LINE
  5
7A8C
  8
1
  6
CONTINUOUS
 10
1036.257000999999
 20
2887.332609999999
 30
0.0
 11
1036.257000999999
 21
3187.3326099999999
 31
0.0
  0
LINE
  5
7A8E
  8
1
  6
CONTINUOUS
 10
2475.0270009999999
 20
3378.332609999999
 30
0.0
 11
2561.257000999999
 21
3378.332609999999
 31
0.0
  0
LINE
  5
7A8F
  8
1
  6
CONTINUOUS
 10
2561.257000999999
 20
3338.3326099999999
 30
0.0
 11
2561.257000999999
 21
4148.3326100000004
 31
0.0
  0
LINE
  5
7A90
  8
2
  6
CENTER
 10
5183.6062899999997
 20
3412.332609999999
 30
0.0
 11
4180.5036650000002
 21
3412.332609999999
 31
0.0
  0
LINE
  5
7A91
  8
2
  6
CENTER
 10
2026.2570009999999
 20
6433.2458169999991
 30
0.0
 11
2026.2570009999999
 21
5280.9368839999997
 31
0.0
  0
LINE
  5
7A93
  8
1
  6
CONTINUOUS
 10
2561.257000999999
 20
4108.3326100000004
 30
0.0
 11
2026.2570009999999
 21
4092.332609999999
 31
0.0
  0
ARC
  5
7A94
  8
1
  6
CONTINUOUS
 10
1996.2570009999999
 20
3382.3326099999999
 30
0.0
 40
478.79000000000002
 50
277.43000000000001
 51
359.51999999999992
  0
LINE
  5
7A95
  8
1
  6
CONTINUOUS
 10
2531.2570009999999
 20
3378.332609999999
 30
0.0
 11
2531.2570009999999
 21
4107.4326099999998
 31
0.0
  0
LINE
  5
7A96
  8
1
  6
CONTINUOUS
 10
2496.2570009999999
 20
2887.332609999999
 30
0.0
 11
2496.2570009999999
 21
2787.332609999999
 31
0.0
  0
CIRCLE
  5
7A97
  8
1
  6
CONTINUOUS
 10
2026.2570009999999
 20
3412.332609999999
 30
0.0
 40
150.0
  0
LINE
  5
7A98
  8
1
  6
CONTINUOUS
 10
2396.257000999999
 20
2887.332609999999
 30
0.0
 11
2396.257000999999
 21
4027.3326099999999
 31
0.0
  0
LINE
  5
7A99
  8
1
  6
CONTINUOUS
 10
2396.257000999999
 20
4027.3326099999999
 30
0.0
 11
1876.2570009999999
 21
4027.3326099999999
 31
0.0
  0
LINE
  5
7A9A
  8
1
  6
CONTINUOUS
 10
2561.257000999999
 20
5615.2676179999999
 30
0.0
 11
1438.5170009999999
 21
5615.2676179999999
 31
0.0
  0
LINE
  5
7A9B
  8
1
  6
CONTINUOUS
 10
2396.257000999999
 20
5380.2676179999999
 30
0.0
 11
1036.257000999999
 21
5380.2676179999999
 31
0.0
  0
LINE
  5
7A9C
  8
1
  6
CONTINUOUS
 10
2396.257000999999
 20
5520.2676179999999
 30
0.0
 11
1036.257000999999
 21
5520.2676179999999
 31
0.0
  0
LINE
  5
7A9D
  8
1
  6
CONTINUOUS
 10
1876.2570009999999
 20
5437.2676179999989
 30
0.0
 11
1294.777000999999
 21
5437.2676179999989
 31
0.0
  0
LINE
  5
7A9E
  8
1
  6
CONTINUOUS
 10
946.25700099999995
 20
5322.2676179999999
 30
0.0
 11
986.25700099999983
 21
5322.2676179999999
 31
0.0
  0
LINE
  5
7A9F
  8
1
  6
CONTINUOUS
 10
1047.797000999999
 20
6032.2176179999997
 30
0.0
 11
1376.7770009999999
 21
6032.2176179999997
 31
0.0
  0
LINE
  5
7AA0
  8
1
  6
CONTINUOUS
 10
1235.777000999999
 20
5490.2676179999999
 30
0.0
 11
1235.777000999999
 21
5576.2776180000001
 31
0.0
  0
LINE
  5
7AA1
  8
1
  6
CONTINUOUS
 10
1193.777000999999
 20
5490.2676179999999
 30
0.0
 11
1193.777000999999
 21
5576.2776180000001
 31
0.0
  0
LINE
  5
7AA2
  8
1
  6
CONTINUOUS
 10
1047.797000999999
 20
5576.2776180000001
 30
0.0
 11
1376.7770009999999
 21
5576.2776180000001
 31
0.0
  0
LINE
  5
7AA3
  8
1
  6
CONTINUOUS
 10
1376.7770009999999
 20
5576.2776180000001
 30
0.0
 11
1376.7770009999999
 21
6032.2176179999997
 31
0.0
  0
LINE
  5
7AA4
  8
1
  6
CONTINUOUS
 10
1047.797000999999
 20
5576.2776180000001
 30
0.0
 11
1047.797000999999
 21
6032.2176179999997
 31
0.0
  0
LINE
  5
7AA5
  8
1
  6
CONTINUOUS
 10
1036.257000999999
 20
5380.2676179999999
 30
0.0
 11
1036.257000999999
 21
5520.2676179999999
 31
0.0
  0
LINE
  5
7AA6
  8
1
  6
CONTINUOUS
 10
1134.7770009999999
 20
5410.2676179999999
 30
0.0
 11
1134.7770009999999
 21
5490.2676179999999
 31
0.0
  0
LINE
  5
7AA7
  8
1
  6
CONTINUOUS
 10
1294.777000999999
 20
5410.2676179999999
 30
0.0
 11
1294.777000999999
 21
5490.2676179999999
 31
0.0
  0
LINE
  5
7AA8
  8
1
  6
CONTINUOUS
 10
1294.777000999999
 20
5410.2676179999999
 30
0.0
 11
1134.7770009999999
 21
5410.2676179999999
 31
0.0
  0
LINE
  5
7AA9
  8
1
  6
CONTINUOUS
 10
1294.777000999999
 20
5490.2676179999999
 30
0.0
 11
1134.7770009999999
 21
5490.2676179999999
 31
0.0
  0
LINE
  5
7AAA
  8
1
  6
CONTINUOUS
 10
1134.7770009999999
 20
5437.2676179999989
 30
0.0
 11
986.25700099999983
 21
5437.2676179999989
 31
0.0
  0
LINE
  5
7AAB
  8
1
  6
CONTINUOUS
 10
2546.2570009999999
 20
5615.2676179999999
 30
0.0
 11
2546.2570009999999
 21
5322.2676179999999
 31
0.0
  0
LINE
  5
7AAC
  8
1
  6
CONTINUOUS
 10
2506.2570009999999
 20
5615.2676179999999
 30
0.0
 11
2506.2570009999999
 21
5322.2676179999999
 31
0.0
  0
LINE
  5
7AAD
  8
1
  6
CONTINUOUS
 10
2506.2570009999999
 20
5322.2676179999999
 30
0.0
 11
2546.2570009999999
 21
5322.2676179999999
 31
0.0
  0
LINE
  5
7AAE
  8
1
  6
CONTINUOUS
 10
2506.2570009999999
 20
5437.2676179999989
 30
0.0
 11
2176.2570009999999
 21
5437.2676179999989
 31
0.0
  0
LINE
  5
7AAF
  8
1
  6
CONTINUOUS
 10
2396.257000999999
 20
5380.2676179999999
 30
0.0
 11
2396.257000999999
 21
5520.2676179999999
 31
0.0
  0
LINE
  5
7AB0
  8
1
  6
CONTINUOUS
 10
1876.2570009999999
 20
5410.2676179999999
 30
0.0
 11
1876.2570009999999
 21
5490.2676179999999
 31
0.0
  0
LINE
  5
7AB1
  8
1
  6
CONTINUOUS
 10
2176.2570009999999
 20
5410.2676179999999
 30
0.0
 11
2176.2570009999999
 21
5490.2676179999999
 31
0.0
  0
LINE
  5
7AB2
  8
1
  6
CONTINUOUS
 10
2176.2570009999999
 20
5410.2676179999999
 30
0.0
 11
1876.2570009999999
 21
5410.2676179999999
 31
0.0
  0
LINE
  5
7AB3
  8
1
  6
CONTINUOUS
 10
2176.2570009999999
 20
5490.2676179999999
 30
0.0
 11
1876.2570009999999
 21
5490.2676179999999
 31
0.0
  0
LINE
  5
7AB4
  8
1
  6
CONTINUOUS
 10
2005.2570009999999
 20
5490.2676179999999
 30
0.0
 11
2005.2570009999999
 21
5615.2676179999999
 31
0.0
  0
LINE
  5
7AB5
  8
1
  6
CONTINUOUS
 10
2047.2570009999999
 20
5490.2676179999999
 30
0.0
 11
2047.2570009999999
 21
5615.2676179999999
 31
0.0
  0
LINE
  5
7AB7
  8
1
  6
CONTINUOUS
 10
5210.4425039999987
 20
2761.3326099999999
 30
0.0
 11
4220.4425039999996
 21
2761.3326099999999
 31
0.0
  0
LINE
  5
7AB8
  8
1
  6
CONTINUOUS
 10
5210.4425039999987
 20
2661.3326099999999
 30
0.0
 11
4220.4425039999996
 21
2661.3326099999999
 31
0.0
  0
LINE
  5
7ABB
  8
1
  6
CONTINUOUS
 10
4220.4425039999996
 20
2761.3326099999999
 30
0.0
 11
4220.4425039999996
 21
2661.3326099999999
 31
0.0
  0
LINE
  5
7ABC
  8
1
  6
CONTINUOUS
 10
5210.4425039999987
 20
2761.3326099999999
 30
0.0
 11
5210.4425039999987
 21
2661.3326099999999
 31
0.0
  0
LINE
  5
7ABD
  8
1
  6
CONTINUOUS
 10
5095.4425039999996
 20
2787.332609999999
 30
0.0
 11
4335.4425039999987
 21
2787.332609999999
 31
0.0
  0
LINE
  5
7ABE
  8
1
  6
CONTINUOUS
 10
5095.4425039999996
 20
2887.332609999999
 30
0.0
 11
4278.4425039999996
 21
2887.332609999999
 31
0.0
  0
LINE
  5
7ABF
  8
1
  6
CONTINUOUS
 10
4388.4425039999987
 20
3068.3326099999999
 30
0.0
 11
4513.4425039999987
 21
3068.3326099999999
 31
0.0
  0
LINE
  5
7AC0
  8
1
  6
CONTINUOUS
 10
4388.4425039999987
 20
3026.3326099999999
 30
0.0
 11
4513.4425039999987
 21
3026.3326099999999
 31
0.0
  0
LINE
  5
7AC1
  8
1
  6
CONTINUOUS
 10
4388.4425039999987
 20
3391.3326099999999
 30
0.0
 11
4513.4425039999987
 21
3391.3326099999999
 31
0.0
  0
LINE
  5
7AC2
  8
1
  6
CONTINUOUS
 10
4388.4425039999987
 20
3433.3326099999999
 30
0.0
 11
4513.4425039999987
 21
3433.3326099999999
 31
0.0
  0
LINE
  5
7AC4
  8
1
  6
CONTINUOUS
 10
4335.4425039999987
 20
2887.332609999999
 30
0.0
 11
4335.4425039999987
 21
2787.332609999999
 31
0.0
  0
LINE
  5
7AC5
  8
1
  6
CONTINUOUS
 10
4278.4425039999996
 20
4027.3326099999999
 30
0.0
 11
4278.4425039999996
 21
2887.332609999999
 31
0.0
  0
LINE
  5
7AC6
  8
1
  6
CONTINUOUS
 10
4418.4425039999996
 20
4027.3326099999999
 30
0.0
 11
4278.4425039999996
 21
4027.3326099999999
 31
0.0
  0
LINE
  5
7AC7
  8
1
  6
CONTINUOUS
 10
4418.4425039999996
 20
4027.3326099999999
 30
0.0
 11
4418.4425039999996
 21
2887.332609999999
 31
0.0
  0
LINE
  5
7AC8
  8
1
  6
CONTINUOUS
 10
4388.4425039999987
 20
3262.3326099999999
 30
0.0
 11
4388.4425039999987
 21
3562.3326099999999
 31
0.0
  0
LINE
  5
7AC9
  8
1
  6
CONTINUOUS
 10
4308.4425039999996
 20
3262.3326099999999
 30
0.0
 11
4308.4425039999996
 21
3562.3326099999999
 31
0.0
  0
LINE
  5
7ACA
  8
1
  6
CONTINUOUS
 10
4388.4425039999987
 20
2967.3326099999999
 30
0.0
 11
4388.4425039999987
 21
3127.332609999999
 31
0.0
  0
LINE
  5
7ACB
  8
1
  6
CONTINUOUS
 10
4308.4425039999996
 20
2967.3326099999999
 30
0.0
 11
4308.4425039999996
 21
3127.332609999999
 31
0.0
  0
LINE
  5
7ACC
  8
1
  6
CONTINUOUS
 10
4308.4425039999996
 20
3262.3326099999999
 30
0.0
 11
4388.4425039999987
 21
3262.3326099999999
 31
0.0
  0
LINE
  5
7ACD
  8
1
  6
CONTINUOUS
 10
4308.4425039999996
 20
3562.3326099999999
 30
0.0
 11
4388.4425039999987
 21
3562.3326099999999
 31
0.0
  0
LINE
  5
7ACE
  8
1
  6
CONTINUOUS
 10
4308.4425039999996
 20
2967.3326099999999
 30
0.0
 11
4388.4425039999987
 21
2967.3326099999999
 31
0.0
  0
LINE
  5
7ACF
  8
1
  6
CONTINUOUS
 10
4308.4425039999996
 20
3127.332609999999
 30
0.0
 11
4388.4425039999987
 21
3127.332609999999
 31
0.0
  0
LINE
  5
7AD0
  8
1
  6
CONTINUOUS
 10
4513.4425039999987
 20
3378.332609999999
 30
0.0
 11
5043.4425039999996
 21
3378.332609999999
 31
0.0
  0
LINE
  5
7AD1
  8
1
  6
CONTINUOUS
 10
4513.4425039999987
 20
4108.3326100000004
 30
0.0
 11
5043.4425039999996
 21
4108.3326100000004
 31
0.0
  0
LINE
  5
7AD2
  8
1
  6
CONTINUOUS
 10
4513.4425039999987
 20
4108.3326100000004
 30
0.0
 11
4513.4425039999987
 21
2887.332609999999
 31
0.0
  0
LINE
  5
7AD3
  8
1
  6
CONTINUOUS
 10
5043.4425039999996
 20
4108.3326100000004
 30
0.0
 11
5043.4425039999996
 21
2887.332609999999
 31
0.0
  0
LINE
  5
7AD4
  8
1
  6
CONTINUOUS
 10
5095.4425039999996
 20
2887.332609999999
 30
0.0
 11
5095.4425039999996
 21
2787.332609999999
 31
0.0
  0
LINE
  5
7AD5
  8
1
  6
CONTINUOUS
 10
5043.4425039999996
 20
4108.3326100000004
 30
0.0
 11
4513.4425039999987
 21
3378.332609999999
 31
0.0
  0
LINE
  5
7AD6
  8
1
  6
CONTINUOUS
 10
4513.4425039999987
 20
4108.3326100000004
 30
0.0
 11
5043.4425039999996
 21
3378.332609999999
 31
0.0
  0
LINE
  5
7AD7
  8
1
  6
CONTINUOUS
 10
2561.257000999999
 20
6145.2676179999999
 30
0.0
 11
1438.5170009999999
 21
6145.2676179999999
 31
0.0
  0
LINE
  5
7AD8
  8
1
  6
CONTINUOUS
 10
2506.2570009999999
 20
6197.2676179999999
 30
0.0
 11
986.25700099999983
 21
6197.2676179999999
 31
0.0
  0
LINE
  5
7AD9
  8
1
  6
CONTINUOUS
 10
946.25700099999995
 20
6312.2676179999989
 30
0.0
 11
986.25700099999983
 21
6312.2676179999989
 31
0.0
  0
LINE
  5
7ADA
  8
1
  6
CONTINUOUS
 10
2506.2570009999999
 20
6312.2676179999989
 30
0.0
 11
2546.2570009999999
 21
6312.2676179999989
 31
0.0
  0
LINE
  5
7ADB
  8
1
  6
CONTINUOUS
 10
2506.2570009999999
 20
6312.2676179999989
 30
0.0
 11
2506.2570009999999
 21
6145.2676179999999
 31
0.0
  0
LINE
  5
7ADC
  8
1
  6
CONTINUOUS
 10
2546.2570009999999
 20
6312.2676179999989
 30
0.0
 11
2546.2570009999999
 21
6145.2676179999999
 31
0.0
  0
LINE
  5
7ADD
  8
2
  6
CENTER
 10
852.83512299999995
 20
5880.2676179999999
 30
0.0
 11
2701.6412099999998
 21
5880.2676179999999
 31
0.0
  0
LINE
  5
7ADE
  8
2
  6
CENTER
 10
4778.4425039999996
 20
4392.0807519999998
 30
0.0
 11
4778.4425039999996
 21
4365.0998079999999
 31
0.0
  0
LINE
  5
7ADF
  8
2
  6
CENTER
 10
2026.2570009999999
 20
4137.2350229999993
 30
0.0
 11
2026.2570009999999
 21
2548.608913
 31
0.0
  0
LINE
  5
7AE0
  8
2
  6
CENTER
 10
2701.6412099999998
 20
3412.332609999999
 30
0.0
 11
1073.1598939999999
 21
3412.332609999999
 31
0.0
  0
DIMENSION
  5
7AF4
  8
3
  6
CONTINUOUS
  2
*D1
 10
2767.0679300000002
 20
3378.332609999999
 30
0.0
 11
2767.0679300000002
 21
3758.3813869999999
 31
0.0
 70
   128
 13
2561.257000999999
 23
4108.3326100000004
 33
0.0
 14
2561.257000999999
 24
3378.332609999999
 34
0.0
 50
90.0
1001
ACAD
1000
DSTYLE
1002
{
1070
   287
1070
     3
1070
    40
1040
30.0
1070
   143
1040
0.039
1070
   172
1070
     1
1070
   271
1070
     0
1070
   279
1070
     0
1070
   288
1070
     1
1002
}
  0
DIMENSION
  5
7B01
  8
3
  6
CONTINUOUS
  2
*D2
 10
2942.5952579999998
 20
3412.332609999999
 30
0.0
 11
2942.5952579999998
 21
3770.4778529999999
 31
0.0
 70
   128
 13
2561.257000999999
 23
4108.3326100000004
 33
0.0
 14
2701.6412099999998
 24
3412.332609999999
 34
0.0
 50
90.0
1001
ACAD
1000
DSTYLE
1002
{
1070
   287
1070
     3
1070
    40
1040
30.0
1070
   143
1040
0.039
1070
   172
1070
     1
1070
   271
1070
     0
1070
   279
1070
     0
1070
   288
1070
     1
1002
}
  0
DIMENSION
  5
7B0D
  8
3
  6
CONTINUOUS
  2
*D3
 10
2942.5952579999998
 20
2787.332609999999
 30
0.0
 11
2867.5952579999989
 21
3099.8326099999999
 31
0.0
 70
     0
 13
2701.6412099999998
 23
3412.332609999999
 33
0.0
 14
2496.2570009999999
 24
2787.332609999999
 34
0.0
 50
90.0
1001
ACAD
1000
DSTYLE
1002
{
1070
   287
1070
     4
1070
    40
1040
30.0
1070
    75
1070
     1
1070
   143
1040
0.039
1070
   172
1070
     1
1070
   271
1070
     0
1070
   279
1070
     1
1070
   288
1070
     1
1002
}
  0
DIMENSION
  5
7B1D
  8
3
  6
CONTINUOUS
  2
*D4
 10
2942.4605580000002
 20
2661.3326099999999
 30
0.0
 11
2942.4605580000002
 21
2406.3326099999999
 31
0.0
 70
   128
 13
2496.2570009999999
 23
2787.332609999999
 33
0.0
 14
2546.2570009999999
 24
2661.3326099999999
 34
0.0
 50
90.0
1001
ACAD
1000
DSTYLE
1002
{
1070
   287
1070
     3
1070
    40
1040
30.0
1070
   143
1040
0.039
1070
   172
1070
     1
1070
   271
1070
     0
1070
   279
1070
     0
1070
   288
1070
     1
1002
}
  0
DIMENSION
  5
7B2A
  8
3
  6
CONTINUOUS
  2
*D5
 10
3165.4597699999999
 20
2661.332609999999
 30
0.0
 11
3165.4597699999999
 21
3464.3760900000002
 31
0.0
 70
   128
 13
2561.257000999999
 23
4148.3326100000004
 33
0.0
 14
2546.2570009999999
 24
2661.3326099999999
 34
0.0
 50
90.0
1001
ACAD
1000
DSTYLE
1002
{
1070
   287
1070
     3
1070
    40
1040
30.0
1070
   143
1040
0.039
1070
   172
1070
     1
1070
   271
1070
     0
1070
   279
1070
     0
1070
   288
1070
     1
1002
}
  0
DIMENSION
  5
7B37
  8
3
  6
CONTINUOUS
  2
*D6
 10
2026.2570009999999
 20
2413.4839350000002
 30
0.0
 11
1485.5965329999999
 21
2413.4839350000002
 31
0.0
 70
   128
 13
946.25700099999995
 23
2661.3326099999999
 33
0.0
 14
2026.2570009999999
 24
2548.608913
 34
0.0
1001
ACAD
1000
DSTYLE
1002
{
1070
   287
1070
     3
1070
    40
1040
30.0
1070
   143
1040
0.039
1070
   172
1070
     1
1070
   271
1070
     0
1070
   279
1070
     0
1070
   288
1070
     1
1002
}
  0
DIMENSION
  5
7B43
  8
3
  6
CONTINUOUS
  2
*D7
 10
2546.2570009999999
 20
2413.4839350000002
 30
0.0
 11
2286.2570009999999
 21
2488.4839350000002
 31
0.0
 70
     0
 13
2026.2570009999999
 23
2548.608913
 33
0.0
 14
2546.2570009999999
 24
2661.3326099999999
 34
0.0
1001
ACAD
1000
DSTYLE
1002
{
1070
   287
1070
     4
1070
    40
1040
30.0
1070
    75
1070
     1
1070
   143
1040
0.039
1070
   172
1070
     1
1070
   271
1070
     0
1070
   279
1070
     1
1070
   288
1070
     1
1002
}
  0
DIMENSION
  5
7B50
  8
3
  6
CONTINUOUS
  2
*D8
 10
2026.2570009999999
 20
4215.6510579999986
 30
0.0
 11
2291.5528810000001
 21
4215.6510579999986
 31
0.0
 70
   128
 13
2561.257000999999
 23
4148.3326100000004
 33
0.0
 14
2026.2570009999999
 24
4137.2350229999993
 34
0.0
1001
ACAD
1000
DSTYLE
1002
{
1070
   287
1070
     3
1070
    40
1040
30.0
1070
   143
1040
0.039
1070
   172
1070
     1
1070
   271
1070
     0
1070
   279
1070
     0
1070
   288
1070
     1
1002
}
  0
DIMENSION
  5
7B69
  8
3
  6
CONTINUOUS
  2
*D9
 10
5043.4425039999996
 20
4221.661274
 30
0.0
 11
4777.8127329999998
 21
4221.661274
 31
0.0
 70
   128
 13
4513.4425039999987
 23
4108.3326100000004
 33
0.0
 14
5043.4425039999996
 24
4108.3326100000004
 34
0.0
1001
ACAD
1000
DSTYLE
1002
{
1070
   287
1070
     3
1070
    40
1040
30.0
1070
   143
1040
0.039
1070
   172
1070
     1
1070
   271
1070
     0
1070
   279
1070
     0
1070
   288
1070
     1
1002
}
  0
LINE
  5
7B6A
  8
1
  6
CONTINUOUS
 10
5045.4425039999996
 20
3789.3326099999999
 30
0.0
 11
5045.4425039999996
 21
3035.3326099999999
 31
0.0
  0
DIMENSION
  5
7B7A
  8
3
  6
CONTINUOUS
  2
*D10
 10
4778.4425039999996
 20
4419.9978570000012
 30
0.0
 11
4926.7680775995468
 21
4507.6009865831329
 31
0.0
 70
   128
 13
5045.4425039999996
 23
3789.3326099999999
 33
0.0
 14
4778.4425039999996
 24
4392.0807519999998
 34
0.0
1001
ACAD
1000
DSTYLE
1002
{
1070
   288
1070
     1
1070
   172
1070
     1
1070
    40
1040
30.0
1070
   271
1070
     0
1070
   143
1040
0.039
1002
}
  0
DIMENSION
  5
7B86
  8
3
  6
CONTINUOUS
  2
*D11
 10
4278.4425039999996
 20
4419.9978570000012
 30
0.0
 11
4528.4425039999996
 21
4569.9978570000003
 31
0.0
 70
     0
  1
MAX\P560
 13
4778.4425039999996
 23
4392.0807519999998
 33
0.0
 14
4278.4425039999996
 24
4027.3326099999999
 34
0.0
1001
ACAD
1000
DSTYLE
1002
{
1070
   287
1070
     4
1070
    40
1040
30.0
1070
    75
1070
     1
1070
   143
1040
0.039
1070
   172
1070
     1
1070
   271
1070
     0
1070
   279
1070
     1
1070
   288
1070
     1
1002
}
  0
DIMENSION
  5
7B93
  8
3
  6
CONTINUOUS
  2
*D12
 10
5343.1851080000006
 20
3035.332609999999
 30
0.0
 11
5343.1851079999997
 21
3416.294508
 31
0.0
 70
   128
 13
5045.4425039999996
 23
3789.3326099999999
 33
0.0
 14
5045.4425039999996
 24
3035.3326099999999
 34
0.0
 50
90.0
1001
ACAD
1000
DSTYLE
1002
{
1070
   287
1070
     3
1070
     3
1000
φ<>
1070
    40
1040
30.0
1070
   143
1040
0.039
1070
   172
1070
     1
1070
   271
1070
     0
1070
   279
1070
     0
1070
   288
1070
     1
1002
}
  0
DIMENSION
  5
7BA0
  8
3
  6
CONTINUOUS
  2
*D13
 10
4778.4425039999996
 20
2409.9806680000002
 30
0.0
 11
4519.1849639999991
 21
2409.9806680000002
 31
0.0
 70
   128
 13
4220.4425039999996
 23
2661.3326099999999
 33
0.0
 14
4778.4425039999996
 24
2449.486594
 34
0.0
1001
ACAD
1000
DSTYLE
1002
{
1070
   287
1070
     3
1070
    40
1040
30.0
1070
   143
1040
0.039
1070
   172
1070
     1
1070
   271
1070
     0
1070
   279
1070
     0
1070
   288
1070
     1
1002
}
  0
DIMENSION
  5
7BAC
  8
3
  6
CONTINUOUS
  2
*D14
 10
5210.4425039999987
 20
2409.9806680000002
 30
0.0
 11
4994.4425039999996
 21
2484.9806680000002
 31
0.0
 70
     0
 13
4778.4425039999996
 23
2449.486594
 33
0.0
 14
5210.4425039999987
 24
2661.3326099999999
 34
0.0
1001
ACAD
1000
DSTYLE
1002
{
1070
   287
1070
     4
1070
    40
1040
30.0
1070
    75
1070
     1
1070
   143
1040
0.039
1070
   172
1070
     1
1070
   271
1070
     0
1070
   279
1070
     1
1070
   288
1070
     1
1002
}
  0
LINE
  5
7BC3
  8
2
  6
CENTER
 10
4778.4425039999996
 20
4201.2683079999988
 30
0.0
 11
4778.4425039999996
 21
2449.486594
 31
0.0
  0
DIMENSION
  5
7BD0
  8
3
  6
CONTINUOUS
  2
*D15
 10
2546.2570009999999
 20
6457.4009180000012
 30
0.0
 11
1708.1367439999999
 21
6457.4009180000012
 31
0.0
 70
   128
 13
946.25700099999995
 23
6312.2676179999989
 33
0.0
 14
2546.2570009999999
 24
6312.2676179999989
 34
0.0
1001
ACAD
1000
DSTYLE
1002
{
1070
   287
1070
     3
1070
    40
1040
30.0
1070
   143
1040
0.039
1070
   172
1070
     1
1070
   271
1070
     0
1070
   279
1070
     0
1070
   288
1070
     1
1002
}
  0
DIMENSION
  5
7BDD
  8
3
  6
CONTINUOUS
  2
*D16
 10
2874.9690850000011
 20
5322.2676179999999
 30
0.0
 11
2874.9690850000002
 21
5838.3503250000003
 31
0.0
 70
   128
 13
2546.2570009999999
 23
6312.2676179999989
 33
0.0
 14
2546.2570009999999
 24
5322.2676179999999
 34
0.0
 50
90.0
1001
ACAD
1000
DSTYLE
1002
{
1070
   287
1070
     3
1070
    40
1040
30.0
1070
   143
1040
0.039
1070
   172
1070
     1
1070
   271
1070
     0
1070
   279
1070
     0
1070
   288
1070
     1
1002
}
  0
LINE
  5
7BDE
  8
4
  6
CONTINUOUS
 10
5550.0
 20
1500.0
 30
0.0
 11
5550.0
 21
900.0
 31
0.0
  0
LINE
  5
7BDF
  8
4
  6
CONTINUOUS
 10
3450.0
 20
1500.0
 30
0.0
 11
3450.0
 21
900.0
 31
0.0
  0
LINE
  5
7BE0
  8
4
  6
CONTINUOUS
 10
1950.0
 20
1500.0
 30
0.0
 11
1950.0
 21
900.0
 31
0.0
  0
LINE
  5
7BE3
  8
4
  6
CONTINUOUS
 10
1950.0
 20
900.0
 30
0.0
 11
5550.0
 21
900.0
 31
0.0
  0
LINE
  5
7BE4
  8
4
  6
CONTINUOUS
 10
1950.0
 20
1200.0
 30
0.0
 11
5550.0
 21
1200.0
 31
0.0
  0
TEXT
  5
7BE5
  8
4
  6
CONTINUOUS
 10
2065.5062429999989
 20
1294.6290779999999
 30
0.0
 40
150.0
  1
機器名称
  0
TEXT
  5
7BE6
  8
4
  6
CONTINUOUS
 10
2058.7743179999989
 20
964.9354699999999
 30
0.0
 40
150.0
  1
機器型番
  0
TEXT
  5
7BE7
  8
4
  6
CONTINUOUS
 10
3533.0362359999999
 20
1267.7153069999999
 30
0.0
 40
150.0
  1
ミツヤ多翼送風機
  0
TEXT
  5
7BE8
  8
4
  6
CONTINUOUS
 10
3559.9634869999991
 20
951.47875299999987
 30
0.0
 40
150.0
  1
MF#4 1/2-4
  0
TEXT
  5
7BEA
  8
4
  6
CONTINUOUS
 10
2218.6851160000001
 20
7150.2865239999992
 30
0.0
 40
162.0
  1
天井吊防振ベット
  0
TEXT
  5
7BEB
  8
4
  6
CONTINUOUS
 10
948.50278000000014
 20
7601.6429289999996
 30
0.0
 40
216.0
  1
ベルト駆動式片吸込両持多翼ファン
  0
LINE
  5
7BEC
  8
4
  6
CONTINUOUS
 10
750.0
 20
7408.2262629999996
 30
0.0
 11
5550.0
 21
7408.2262629999996
 31
0.0
  0
LINE
  5
7BED
  8
4
  6
CONTINUOUS
 10
750.0
 20
8008.2262629999996
 30
0.0
 11
5550.0
 21
8008.2262629999996
 31
0.0
  0
LINE
  5
7BEE
  8
4
  6
CONTINUOUS
 10
1950.0
 20
1500.0
 30
0.0
 11
5550.0
 21
1500.0
 31
0.0
  0
LINE
  5
7BEF
  8
4
  6
CONTINUOUS
 10
750.0
 20
8008.2262629999996
 30
0.0
 11
750.0
 21
7408.2262629999996
 31
0.0
  0
TEXT
  5
7BF0
  8
4
  6
CONTINUOUS
 10
911.10861899999986
 20
7146.9584329999998
 30
0.0
 40
162.0
  1
右回転右横向
  0
TEXT
  5
7BF1
  8
4
  6
CONTINUOUS
 10
4406.9086779999989
 20
8118.1832439999989
 30
0.0
 40
168.0
  1
No.
  0
TEXT
  5
7BF2
  8
4
  6
CONTINUOUS
 10
3933.8881879999999
 20
7150.2865239999992
 30
0.0
 40
162.0
  1
縮尺：1/30
  0
LINE
  5
7BF3
  8
4
  6
CONTINUOUS
 10
5550.0
 20
8008.2262629999996
 30
0.0
 11
5550.0
 21
7408.2262629999996
 31
0.0
  0
LINE
  5
7BF5
  8
4
  6
CONTINUOUS
 10
4321.8522670000002
 20
8043.7907490000007
 30
0.0
 11
4321.8522670000002
 21
8359.9567849999985
 31
0.0
  0
LINE
  5
7BF6
  8
4
  6
CONTINUOUS
 10
4321.8522670000002
 20
8359.9567849999985
 30
0.0
 11
5550.0
 21
8359.9567849999985
 31
0.0
  0
LINE
  5
7BF7
  8
4
  6
CONTINUOUS
 10
5550.0
 20
8359.9567849999985
 30
0.0
 11
5550.0
 21
8043.7907490000007
 31
0.0
  0
LINE
  5
7BF8
  8
4
  6
CONTINUOUS
 10
5550.0
 20
8043.7907490000007
 30
0.0
 11
4321.8522670000002
 21
8043.7907490000007
 31
0.0
  0
DIMENSION
  5
7C48
  8
3
  6
CONTINUOUS
  2
*D17
 10
1440.2594750000001
 20
4215.6510579999986
 30
0.0
 11
1733.2582379999999
 21
4290.6510579999986
 31
0.0
 70
     0
 13
2026.2570009999999
 23
4137.2350229999993
 33
0.0
 14
1440.2594750000001
 24
3412.332609999999
 34
0.0
1001
ACAD
1000
DSTYLE
1002
{
1070
   287
1070
     4
1070
    40
1040
30.0
1070
    75
1070
     1
1070
   143
1040
0.039
1070
   172
1070
     1
1070
   271
1070
     0
1070
   279
1070
     1
1070
   288
1070
     1
1002
}
  0
LINE
  5
7CC5
  8
1
  6
CONTINUOUS
 10
2486.2570009999999
 20
3807.3326099999999
 30
0.0
 11
1566.2570009999999
 21
3807.332609999999
 31
0.0
  0
LINE
  5
7CC6
  8
1
 10
1566.2570009999999
 20
3807.332609999999
 30
0.0
 11
1566.2570009999999
 21
2887.332609999999
 31
0.0
  0
LINE
  5
7CC7
  8
1
 10
2486.2570009999999
 20
3807.3326099999999
 30
0.0
 11
2486.257000999999
 21
2887.332609999999
 31
0.0
  0
DIMENSION
  5
7CCA
  8
3
  2
*D18
 10
946.25700099999995
 20
4419.9978570000012
 30
0.0
 11
1775.1903324607699
 21
4419.9978570000012
 31
0.0
 70
   128
 13
2561.257000999999
 23
4148.3326100000004
 33
0.0
 14
946.25700099999995
 24
2761.3326099999999
 34
0.0
1001
ACAD
1000
DSTYLE
1002
{
1070
   287
1070
     3
1070
    40
1040
30.0
1070
   143
1040
0.039
1070
   172
1070
     1
1070
   271
1070
     0
1070
   279
1070
     0
1070
   288
1070
     1
1002
}
  0
ENDSEC
  0
EOF
