  0
SECTION
  2
HEADER
  9
$ACADVER
  1
AC1009
  9
$INSBASE
 10
0.0
 20
0.0
 30
0.0
  9
$EXTMIN
 10
750.0
 20
900.0
 30
0.0
  9
$EXTMAX
 10
5550.0
 20
8359.9567849999985
 30
0.0
  9
$LIMMIN
 10
0.0
 20
0.0
  9
$LIMMAX
 10
297.0
 20
210.0
  9
$ORTHOMODE
 70
     0
  9
$REGENMODE
 70
     1
  9
$FILLMODE
 70
     0
  9
$QTEXTMODE
 70
     0
  9
$MIRRTEXT
 70
     1
  9
$DRAGMODE
 70
     2
  9
$LTSCALE
 40
100.0
  9
$OSMODE
 70
    37
  9
$ATTMODE
 70
     1
  9
$TEXTSIZE
 40
180.0
  9
$TRACEWID
 40
0.05
  9
$TEXTSTYLE
  7
STANDARD
  9
$CLAYER
  8
3
  9
$CELTYPE
  6
BYLAYER
  9
$CECOLOR
 62
   256
  9
$DIMSCALE
 40
30.0
  9
$DIMASZ
 40
2.0
  9
$DIMEXO
 40
0.5
  9
$DIMDLI
 40
10.0
  9
$DIMRND
 40
0.0
  9
$DIMDLE
 40
0.0
  9
$DIMEXE
 40
1.0
  9
$DIMTP
 40
1.0
  9
$DIMTM
 40
1.0
  9
$DIMTXT
 40
3.0
  9
$DIMCEN
 40
0.0
  9
$DIMTSZ
 40
0.0
  9
$DIMTOL
 70
     0
  9
$DIMLIM
 70
     0
  9
$DIMTIH
 70
     0
  9
$DIMTOH
 70
     0
  9
$DIMSE1
 70
     0
  9
$DIMSE2
 70
     0
  9
$DIMTAD
 70
     1
  9
$DIMZIN
 70
     8
  9
$DIMBLK
  1

  9
$DIMASO
 70
     1
  9
$DIMSHO
 70
     1
  9
$DIMPOST
  1

  9
$DIMAPOST
  1

  9
$DIMALT
 70
     0
  9
$DIMALTD
 70
     2
  9
$DIMALTF
 40
0.039
  9
$DIMLFAC
 40
1.0
  9
$DIMTOFL
 70
     1
  9
$DIMTVP
 40
0.0
  9
$DIMTIX
 70
     0
  9
$DIMSOXD
 70
     0
  9
$DIMSAH
 70
     1
  9
$DIMBLK1
  1
OPEN
  9
$DIMBLK2
  1
OPEN
  9
$DIMSTYLE
  2
IGA
  9
$DIMCLRD
 70
     0
  9
$DIMCLRE
 70
     0
  9
$DIMCLRT
 70
     0
  9
$DIMTFAC
 40
10.0
  9
$DIMGAP
 40
1.0
  9
$LUNITS
 70
     2
  9
$LUPREC
 70
     3
  9
$SKETCHINC
 40
0.1
  9
$FILLETRAD
 40
0.0
  9
$AUNITS
 70
     0
  9
$AUPREC
 70
     0
  9
$MENU
  1
acad
  9
$ELEVATION
 40
0.0
  9
$PELEVATION
 40
0.0
  9
$THICKNESS
 40
0.0
  9
$LIMCHECK
 70
     0
  9
$BLIPMODE
 70
     0
  9
$CHAMFERA
 40
0.5
  9
$CHAMFERB
 40
0.5
  9
$SKPOLY
 70
     0
  9
$TDCREATE
 40
2450744.536995138
  9
$TDUPDATE
 40
2454953.772575405
  9
$TDINDWG
 40
0.0066513079
  9
$TDUSRTIMER
 40
0.0066513079
  9
$USRTIMER
 70
     1
  9
$ANGBASE
 50
0.0
  9
$ANGDIR
 70
     0
  9
$PDMODE
 70
     0
  9
$PDSIZE
 40
0.0
  9
$PLINEWID
 40
0.0
  9
$COORDS
 70
     1
  9
$SPLFRAME
 70
     0
  9
$SPLINETYPE
 70
     6
  9
$SPLINESEGS
 70
     8
  9
$ATTDIA
 70
     0
  9
$ATTREQ
 70
     1
  9
$HANDLING
 70
 10241
  9
$HANDSEED
  5
7E62
  9
$SURFTAB1
 70
     6
  9
$SURFTAB2
 70
     6
  9
$SURFTYPE
 70
     6
  9
$SURFU
 70
     6
  9
$SURFV
 70
     6
  9
$UCSNAME
  2

  9
$UCSORG
 10
0.0
 20
0.0
 30
0.0
  9
$UCSXDIR
 10
1.0
 20
0.0
 30
0.0
  9
$UCSYDIR
 10
0.0
 20
1.0
 30
0.0
  9
$PUCSNAME
  2

  9
$PUCSORG
 10
0.0
 20
0.0
 30
0.0
  9
$PUCSXDIR
 10
1.0
 20
0.0
 30
0.0
  9
$PUCSYDIR
 10
0.0
 20
1.0
 30
0.0
  9
$USERI1
 70
     0
  9
$USERI2
 70
     0
  9
$USERI3
 70
     0
  9
$USERI4
 70
     0
  9
$USERI5
 70
     0
  9
$USERR1
 40
0.0
  9
$USERR2
 40
0.0
  9
$USERR3
 40
0.0
  9
$USERR4
 40
0.0
  9
$USERR5
 40
0.0
  9
$WORLDVIEW
 70
     1
  9
$SHADEDGE
 70
     3
  9
$SHADEDIF
 70
    70
  9
$TILEMODE
 70
     1
  9
$MAXACTVP
 70
    16
  9
$PLIMCHECK
 70
     0
  9
$PEXTMIN
 10
1.0000000000000000E+020
 20
1.0000000000000000E+020
 30
1.0000000000000000E+020
  9
$PEXTMAX
 10
-1.0000000000000000E+020
 20
-1.0000000000000000E+020
 30
-1.0000000000000000E+020
  9
$PLIMMIN
 10
0.0
 20
0.0
  9
$PLIMMAX
 10
12.0
 20
9.0
  9
$UNITMODE
 70
     0
  9
$VISRETAIN
 70
     0
  9
$PLINEGEN
 70
     0
  9
$PSLTSCALE
 70
     1
  0
ENDSEC
  0
SECTION
  2
TABLES
  0
TABLE
  2
VPORT
 70
     2
  0
VPORT
  2
*ACTIVE
 70
     0
 10
0.0
 20
0.0
 11
1.0
 21
1.0
 12
9437.9954746499006
 22
4629.9199394653269
 13
0.0
 23
0.0
 14
10.0
 24
10.0
 15
10.0
 25
10.0
 16
0.0
 26
0.0
 36
1.0
 17
0.0
 27
0.0
 37
0.0
 40
7517.061441529765
 41
3.1666666666666661
 42
50.0
 43
0.0
 44
0.0
 50
0.0
 51
0.0
 71
     0
 72
   100
 73
     1
 74
     0
 75
     0
 76
     0
 77
     0
 78
     0
  0
ENDTAB
  0
TABLE
  2
LTYPE
 70
     2
  0
LTYPE
  2
CONTINUOUS
 70
     0
  3
Solid line
 72
    65
 73
     0
 40
0.0
  0
LTYPE
  2
CENTER
 70
     0
  3
____ _ ____ _ ____ _ ____ _ ____ _ ____ _ ____ 
 72
    65
 73
     4
 40
2.0
 49
1.25
 49
-0.25
 49
0.25
 49
-0.25
  0
ENDTAB
  0
TABLE
  2
LAYER
 70
     6
  0
LAYER
  2
0
 70
     0
 62
     7
  6
CONTINUOUS
  0
LAYER
  2
3
 70
     0
 62
     2
  6
CONTINUOUS
  0
LAYER
  2
2
 70
     0
 62
     3
  6
CENTER
  0
LAYER
  2
1
 70
     0
 62
     4
  6
CONTINUOUS
  0
LAYER
  2
4
 70
     0
 62
     7
  6
CONTINUOUS
  0
LAYER
  2
DEFPOINTS
 70
     0
 62
     7
  6
CONTINUOUS
  0
ENDTAB
  0
TABLE
  2
STYLE
 70
     1
  0
STYLE
  2
STANDARD
 70
     0
 40
0.0
 41
1.0
 50
0.0
 71
     0
 42
180.0
  3
simplex.shx
  4
extfont.shx
  0
ENDTAB
  0
TABLE
  2
VIEW
 70
     0
  0
ENDTAB
  0
TABLE
  2
UCS
 70
     0
  0
ENDTAB
  0
TABLE
  2
APPID
 70
     1
  0
APPID
  2
ACAD
 70
     0
  0
ENDTAB
  0
TABLE
  2
DIMSTYLE
 70
     1
  0
DIMSTYLE
  2
IGA
 70
     0
  3

  4

  5

  6
OPEN
  7
OPEN
 40
2.0
 41
2.0
 42
0.5
 43
10.0
 44
1.0
 45
0.0
 46
0.0
 47
1.0
 48
1.0
140
3.0
141
0.0
142
0.0
143
0.03937
144
1.0
145
0.0
146
10.0
147
1.0
 71
     0
 72
     0
 73
     0
 74
     0
 75
     0
 76
     0
 77
     1
 78
     8
170
     0
171
     2
172
     0
173
     1
174
     0
175
     0
176
     0
177
     0
178
     0
  0
ENDTAB
  0
ENDSEC
  0
SECTION
  2
BLOCKS
  0
BLOCK
  8
0
  2
$MODEL_SPACE
 70
     0
 10
0.0
 20
0.0
 30
0.0
  3
$MODEL_SPACE
  1

  0
ENDBLK
  5
1B
  8
0
  0
BLOCK
 67
     1
  8
0
  2
$PAPER_SPACE
 70
     0
 10
0.0
 20
0.0
 30
0.0
  3
$PAPER_SPACE
  1

  0
ENDBLK
  5
18
 67
     1
  8
0
  0
BLOCK
  8
0
  2
_OPEN
 70
     0
 10
0.0
 20
0.0
 30
0.0
  3
_OPEN
  1

  0
LINE
  5
7BA6
  8
0
  6
BYBLOCK
 62
     0
 10
-1.0
 20
0.166667
 30
0.0
 11
0.0
 21
0.0
 31
0.0
  0
LINE
  5
7BA7
  8
0
  6
BYBLOCK
 62
     0
 10
0.0
 20
0.0
 30
0.0
 11
-1.0
 21
-0.166667
 31
0.0
  0
LINE
  5
7BA8
  8
0
  6
BYBLOCK
 62
     0
 10
0.0
 20
0.0
 30
0.0
 11
-1.0
 21
0.0
 31
0.0
  0
ENDBLK
  5
7BA9
  8
0
  0
BLOCK
  8
0
  2
*D1
 70
     1
 10
0.0
 20
0.0
 30
0.0
  3
*D1
  1

  0
LINE
  5
7DC4
  8
3
  6
CONTINUOUS
 62
     0
 10
2670.0166800000002
 20
3927.090095
 30
0.0
 11
2670.0166800000002
 21
4152.2638689999994
 31
0.0
  0
LINE
  5
7DC5
  8
3
  6
CONTINUOUS
 62
     0
 10
1940.01668
 20
3927.090095
 30
0.0
 11
1940.01668
 21
4152.2638689999994
 31
0.0
  0
LINE
  5
7DC6
  8
3
  6
CONTINUOUS
 62
     0
 10
2610.0166800000002
 20
4122.2638690000003
 30
0.0
 11
2000.01668
 21
4122.2638690000003
 31
0.0
  0
INSERT
  5
7DC7
  8
3
  6
CONTINUOUS
 62
     0
  2
_OPEN
 10
2670.0166800000002
 20
4122.2638690000003
 30
0.0
 41
60.0
 42
60.0
 43
60.0
  0
INSERT
  5
7DC8
  8
3
  6
CONTINUOUS
 62
     0
  2
_OPEN
 10
1940.01668
 20
4122.2638690000003
 30
0.0
 41
60.0
 42
60.0
 43
60.0
 50
180.0
  0
TEXT
  8
3
  40
90
  5
7E51
  62
0
  72
0
  71
0
 10
2129.04
 20
4037.96
 30
0.000000
  1
730
  0
POINT
  5
7DCA
  8
DEFPOINTS
  6
CONTINUOUS
 62
     0
 10
2670.0166800000002
 20
3912.090095
 30
0.0
  0
POINT
  5
7DCB
  8
DEFPOINTS
  6
CONTINUOUS
 62
     0
 10
1940.01668
 20
3912.090095
 30
0.0
  0
POINT
  5
7DCC
  8
DEFPOINTS
  6
CONTINUOUS
 62
     0
 10
1940.01668
 20
4122.2638690000003
 30
0.0
  0
ENDBLK
  5
7D00
  8
0
  0
BLOCK
  8
0
  2
*D2
 70
     1
 10
0.0
 20
0.0
 30
0.0
  3
*D2
  1

  0
LINE
  5
7DCD
  8
3
  6
CONTINUOUS
 62
     0
 10
2670.0166800000002
 20
3927.090095
 30
0.0
 11
2670.0166800000002
 21
4313.1472759999997
 31
0.0
  0
LINE
  5
7DCE
  8
3
  6
CONTINUOUS
 62
     0
 10
1974.01668
 20
4184.5715190000001
 30
0.0
 11
1974.01668
 21
4313.1472759999997
 31
0.0
  0
LINE
  5
7DCF
  8
3
  6
CONTINUOUS
 62
     0
 10
2610.0166800000002
 20
4283.1472759999997
 30
0.0
 11
2034.01668
 21
4283.1472759999997
 31
0.0
  0
INSERT
  5
7DD0
  8
3
  6
CONTINUOUS
 62
     0
  2
_OPEN
 10
2670.0166800000002
 20
4283.1472759999997
 30
0.0
 41
60.0
 42
60.0
 43
60.0
  0
INSERT
  5
7DD1
  8
3
  6
CONTINUOUS
 62
     0
  2
_OPEN
 10
1974.01668
 20
4283.1472759999997
 30
0.0
 41
60.0
 42
60.0
 43
60.0
 50
180.0
  0
TEXT
  8
3
  40
90
  5
7E52
  62
0
  72
0
  71
0
 10
2122.84
 20
4198.85
 30
0.000000
  1
696
  0
POINT
  5
7DD3
  8
DEFPOINTS
  6
CONTINUOUS
 62
     0
 10
2670.0166800000002
 20
3912.090095
 30
0.0
  0
POINT
  5
7DD4
  8
DEFPOINTS
  6
CONTINUOUS
 62
     0
 10
1974.01668
 20
4169.5715190000001
 30
0.0
  0
POINT
  5
7DD5
  8
DEFPOINTS
  6
CONTINUOUS
 62
     0
 10
1974.01668
 20
4283.1472759999997
 30
0.0
  0
ENDBLK
  5
7CF5
  8
0
  0
BLOCK
  8
0
  2
*D3
 70
     1
 10
0.0
 20
0.0
 30
0.0
  3
*D3
  1

  0
LINE
  5
7DD6
  8
3
  6
CONTINUOUS
 62
     0
 10
1885.01668
 20
3912.090095
 30
0.0
 11
1288.2592729999999
 21
3912.090095
 31
0.0
  0
LINE
  5
7DD7
  8
3
  6
CONTINUOUS
 62
     0
 10
1369.475117
 20
3377.090095
 30
0.0
 11
1288.2592729999999
 21
3377.090095
 31
0.0
  0
LINE
  5
7DD8
  8
3
  6
CONTINUOUS
 62
     0
 10
1318.2592729999999
 20
3852.090095
 30
0.0
 11
1318.2592729999999
 21
3437.090095
 31
0.0
  0
INSERT
  5
7DD9
  8
3
  6
CONTINUOUS
 62
     0
  2
_OPEN
 10
1318.2592729999999
 20
3912.090095
 30
0.0
 41
60.0
 42
60.0
 43
60.0
 50
90.0
  0
INSERT
  5
7DDA
  8
3
  6
CONTINUOUS
 62
     0
  2
_OPEN
 10
1318.2592729999999
 20
3377.090095
 30
0.0
 41
60.0
 42
60.0
 43
60.0
 50
270.0
  0
TEXT
  8
3
  40
90
  5
7E53
  62
0
  72
0
  71
0
 10
1063.26
 20
3490.61
 30
0.000000
  1
535
  0
POINT
  5
7DDC
  8
DEFPOINTS
  6
CONTINUOUS
 62
     0
 10
1900.01668
 20
3912.090095
 30
0.0
  0
POINT
  5
7DDD
  8
DEFPOINTS
  6
CONTINUOUS
 62
     0
 10
1384.475117
 20
3377.090095
 30
0.0
  0
POINT
  5
7DDE
  8
DEFPOINTS
  6
CONTINUOUS
 62
     0
 10
1318.2592729999999
 20
3377.090095
 30
0.0
  0
ENDBLK
  5
7BDC
  8
0
  0
BLOCK
  8
0
  2
*D4
 70
     1
 10
0.0
 20
0.0
 30
0.0
  3
*D4
  1

  0
LINE
  5
7DDF
  8
3
  6
CONTINUOUS
 62
     0
 10
1489.01668
 20
2752.090095
 30
0.0
 11
1288.2592729999999
 21
2752.090095
 31
0.0
  0
LINE
  5
7DE0
  8
3
  6
CONTINUOUS
 62
     0
 10
1318.2592729999999
 20
3317.090095
 30
0.0
 11
1318.2592729999999
 21
2812.090095
 31
0.0
  0
INSERT
  5
7DE1
  8
3
  6
CONTINUOUS
 62
     0
  2
_OPEN
 10
1318.2592729999999
 20
3377.090095
 30
0.0
 41
60.0
 42
60.0
 43
60.0
 50
90.0
  0
INSERT
  5
7DE2
  8
3
  6
CONTINUOUS
 62
     0
  2
_OPEN
 10
1318.2592729999999
 20
2752.090095
 30
0.0
 41
60.0
 42
60.0
 43
60.0
 50
270.0
  0
TEXT
  8
3
  40
90
  5
7E54
  62
0
  72
0
  71
0
 10
1063.26
 20
2905.29
 30
0.000000
  1
625
  0
POINT
  5
7DE4
  8
DEFPOINTS
  6
CONTINUOUS
 62
     0
 10
1384.475117
 20
3377.090095
 30
0.0
  0
POINT
  5
7DE5
  8
DEFPOINTS
  6
CONTINUOUS
 62
     0
 10
1504.01668
 20
2752.090095
 30
0.0
  0
POINT
  5
7DE6
  8
DEFPOINTS
  6
CONTINUOUS
 62
     0
 10
1318.2592729999999
 20
2752.090095
 30
0.0
  0
ENDBLK
  5
7BE8
  8
0
  0
BLOCK
  8
0
  2
*D5
 70
     1
 10
0.0
 20
0.0
 30
0.0
  3
*D5
  1

  0
LINE
  5
7DE7
  8
3
  6
CONTINUOUS
 62
     0
 10
1489.01668
 20
2752.090095
 30
0.0
 11
1287.7220480000001
 21
2752.090095
 31
0.0
  0
LINE
  5
7DE8
  8
3
  6
CONTINUOUS
 62
     0
 10
1439.01668
 20
2626.090095
 30
0.0
 11
1287.7220480000001
 21
2626.090095
 31
0.0
  0
LINE
  5
7DE9
  8
3
  6
CONTINUOUS
 62
     0
 10
1317.7220480000001
 20
2812.090095
 30
0.0
 11
1317.7220480000001
 21
2872.090095
 31
0.0
  0
LINE
  5
7DEA
  8
3
  6
CONTINUOUS
 62
     0
 10
1317.7220480000001
 20
2566.090095
 30
0.0
 11
1317.7220480000001
 21
2236.090095
 31
0.0
  0
LINE
  5
7DEB
  8
3
  6
CONTINUOUS
 62
     0
 10
1317.7220480000001
 20
2752.090095
 30
0.0
 11
1317.7220480000001
 21
2626.090095
 31
0.0
  0
INSERT
  5
7DEC
  8
3
  6
CONTINUOUS
 62
     0
  2
_OPEN
 10
1317.7220480000001
 20
2752.090095
 30
0.0
 41
60.0
 42
60.0
 43
60.0
 50
270.0
  0
INSERT
  5
7DED
  8
3
  6
CONTINUOUS
 62
     0
  2
_OPEN
 10
1317.7220480000001
 20
2626.090095
 30
0.0
 41
60.0
 42
60.0
 43
60.0
 50
90.0
  0
TEXT
  8
3
  40
90
  5
7E55
  62
0
  72
0
  71
0
 10
1062.72
 20
2211.79
 30
0.000000
  1
126
  0
POINT
  5
7DEF
  8
DEFPOINTS
  6
CONTINUOUS
 62
     0
 10
1504.01668
 20
2752.090095
 30
0.0
  0
POINT
  5
7DF0
  8
DEFPOINTS
  6
CONTINUOUS
 62
     0
 10
1454.01668
 20
2626.090095
 30
0.0
  0
POINT
  5
7DF1
  8
DEFPOINTS
  6
CONTINUOUS
 62
     0
 10
1317.7220480000001
 20
2626.090095
 30
0.0
  0
ENDBLK
  5
7D4C
  8
0
  0
BLOCK
  8
0
  2
*D6
 70
     1
 10
0.0
 20
0.0
 30
0.0
  3
*D6
  1

  0
LINE
  5
7DF2
  8
3
  6
CONTINUOUS
 62
     0
 10
1870.01668
 20
3912.090095
 30
0.0
 11
1092.8889039999999
 21
3912.090095
 31
0.0
  0
LINE
  5
7DF3
  8
3
  6
CONTINUOUS
 62
     0
 10
1439.01668
 20
2626.090095
 30
0.0
 11
1092.8889039999999
 21
2626.090095
 31
0.0
  0
LINE
  5
7DF4
  8
3
  6
CONTINUOUS
 62
     0
 10
1122.8889039999999
 20
3852.090095
 30
0.0
 11
1122.8889039999999
 21
2686.090095
 31
0.0
  0
INSERT
  5
7DF5
  8
3
  6
CONTINUOUS
 62
     0
  2
_OPEN
 10
1122.8889039999999
 20
3912.090095
 30
0.0
 41
60.0
 42
60.0
 43
60.0
 50
90.0
  0
INSERT
  5
7DF6
  8
3
  6
CONTINUOUS
 62
     0
  2
_OPEN
 10
1122.8889039999999
 20
2626.090095
 30
0.0
 41
60.0
 42
60.0
 43
60.0
 50
270.0
  0
TEXT
  8
3
  40
90
  5
7E56
  62
0
  72
0
  71
0
 10
867.889
 20
3057.46
 30
0.000000
  1
1286
  0
POINT
  5
7DF8
  8
DEFPOINTS
  6
CONTINUOUS
 62
     0
 10
1885.01668
 20
3912.090095
 30
0.0
  0
POINT
  5
7DF9
  8
DEFPOINTS
  6
CONTINUOUS
 62
     0
 10
1454.01668
 20
2626.090095
 30
0.0
  0
POINT
  5
7DFA
  8
DEFPOINTS
  6
CONTINUOUS
 62
     0
 10
1122.8889039999999
 20
2626.090095
 30
0.0
  0
ENDBLK
  5
7CDE
  8
0
  0
BLOCK
  8
0
  2
*D7
 70
     1
 10
0.0
 20
0.0
 30
0.0
  3
*D7
  1

  0
LINE
  5
7DFB
  8
3
  6
CONTINUOUS
 62
     0
 10
1454.01668
 20
2611.090095
 30
0.0
 11
1454.01668
 21
2334.8712449999989
 31
0.0
  0
LINE
  5
7DFC
  8
3
  6
CONTINUOUS
 62
     0
 10
1974.01668
 20
2451.7578789999998
 30
0.0
 11
1974.01668
 21
2334.8712449999989
 31
0.0
  0
LINE
  5
7DFD
  8
3
  6
CONTINUOUS
 62
     0
 10
1514.01668
 20
2364.8712449999989
 30
0.0
 11
1914.01668
 21
2364.8712449999989
 31
0.0
  0
INSERT
  5
7DFE
  8
3
  6
CONTINUOUS
 62
     0
  2
_OPEN
 10
1454.01668
 20
2364.8712449999989
 30
0.0
 41
60.0
 42
60.0
 43
60.0
 50
180.0
  0
INSERT
  5
7DFF
  8
3
  6
CONTINUOUS
 62
     0
  2
_OPEN
 10
1974.01668
 20
2364.8712449999989
 30
0.0
 41
60.0
 42
60.0
 43
60.0
  0
TEXT
  8
3
  40
90
  5
7E57
  62
0
  72
0
  71
0
 10
1540.76
 20
2280.57
 30
0.000000
  1
520
  0
POINT
  5
7E01
  8
DEFPOINTS
  6
CONTINUOUS
 62
     0
 10
1454.01668
 20
2626.090095
 30
0.0
  0
POINT
  5
7E02
  8
DEFPOINTS
  6
CONTINUOUS
 62
     0
 10
1974.01668
 20
2466.7578789999989
 30
0.0
  0
POINT
  5
7E03
  8
DEFPOINTS
  6
CONTINUOUS
 62
     0
 10
1974.01668
 20
2364.8712449999989
 30
0.0
  0
ENDBLK
  5
7CB9
  8
0
  0
BLOCK
  8
0
  2
*D8
 70
     1
 10
0.0
 20
0.0
 30
0.0
  3
*D8
  1

  0
LINE
  5
7E04
  8
3
  6
CONTINUOUS
 62
     0
 10
3054.0166800000002
 20
2611.090095
 30
0.0
 11
3054.0166800000002
 21
2334.8712449999989
 31
0.0
  0
LINE
  5
7E05
  8
3
  6
CONTINUOUS
 62
     0
 10
2034.01668
 20
2364.8712449999989
 30
0.0
 11
2994.0166800000002
 21
2364.8712449999989
 31
0.0
  0
INSERT
  5
7E06
  8
3
  6
CONTINUOUS
 62
     0
  2
_OPEN
 10
1974.01668
 20
2364.8712449999989
 30
0.0
 41
60.0
 42
60.0
 43
60.0
 50
180.0
  0
INSERT
  5
7E07
  8
3
  6
CONTINUOUS
 62
     0
  2
_OPEN
 10
3054.0166800000002
 20
2364.8712449999989
 30
0.0
 41
60.0
 42
60.0
 43
60.0
  0
TEXT
  8
3
  40
90
  5
7E58
  62
0
  72
0
  71
0
 10
2334.02
 20
2280.57
 30
0.000000
  1
1080
  0
POINT
  5
7E09
  8
DEFPOINTS
  6
CONTINUOUS
 62
     0
 10
1974.01668
 20
2466.7578789999989
 30
0.0
  0
POINT
  5
7E0A
  8
DEFPOINTS
  6
CONTINUOUS
 62
     0
 10
3054.0166800000002
 20
2626.090095
 30
0.0
  0
POINT
  5
7E0B
  8
DEFPOINTS
  6
CONTINUOUS
 62
     0
 10
3054.0166800000002
 20
2364.8712449999989
 30
0.0
  0
ENDBLK
  5
7CAE
  8
0
  0
BLOCK
  8
0
  2
*D9
 70
     1
 10
0.0
 20
0.0
 30
0.0
  3
*D9
  1

  0
LINE
  5
7E0C
  8
3
  6
CONTINUOUS
 62
     0
 10
4816.1992167769968
 20
3927.090095
 30
0.0
 11
4816.1992167769968
 21
4069.7384229999989
 31
0.0
  0
LINE
  5
7E0D
  8
3
  6
CONTINUOUS
 62
     0
 10
4286.1992167769968
 20
3927.090095
 30
0.0
 11
4286.1992167769968
 21
4069.7384229999989
 31
0.0
  0
LINE
  5
7E0E
  8
3
  6
CONTINUOUS
 62
     0
 10
4756.1992167769959
 20
4039.7384229999998
 30
0.0
 11
4346.1992167769968
 21
4039.7384229999998
 31
0.0
  0
INSERT
  5
7E0F
  8
3
  6
CONTINUOUS
 62
     0
  2
_OPEN
 10
4816.1992167769968
 20
4039.7384229999998
 30
0.0
 41
60.0
 42
60.0
 43
60.0
  0
INSERT
  5
7E10
  8
3
  6
CONTINUOUS
 62
     0
  2
_OPEN
 10
4286.1992167769968
 20
4039.7384229999998
 30
0.0
 41
60.0
 42
60.0
 43
60.0
 50
180.0
  0
TEXT
  8
3
  40
90
  5
7E59
  62
0
  72
0
  71
0
 10
4377.58
 20
3955.44
 30
0.000000
  1
530
  0
POINT
  5
7E12
  8
DEFPOINTS
  6
CONTINUOUS
 62
     0
 10
4816.1992167769968
 20
3912.090095
 30
0.0
  0
POINT
  5
7E13
  8
DEFPOINTS
  6
CONTINUOUS
 62
     0
 10
4286.1992167769968
 20
3912.090095
 30
0.0
  0
POINT
  5
7E14
  8
DEFPOINTS
  6
CONTINUOUS
 62
     0
 10
4286.1992167769968
 20
4039.7384229999998
 30
0.0
  0
ENDBLK
  5
7C2B
  8
0
  0
BLOCK
  8
0
  2
*D10
 70
     1
 10
0.0
 20
0.0
 30
0.0
  3
*D10
  1

  0
LINE
  5
7E15
  8
3
  6
CONTINUOUS
 62
     0
 10
4833.1992167769959
 20
3754.090095
 30
0.0
 11
5126.3118947769981
 21
3754.090095
 31
0.0
  0
LINE
  5
7E16
  8
3
  6
CONTINUOUS
 62
     0
 10
4833.1992167769959
 20
3000.090095
 30
0.0
 11
5126.3118947769981
 21
3000.0900949999991
 31
0.0
  0
LINE
  5
7E17
  8
3
  6
CONTINUOUS
 62
     0
 10
5096.311894776999
 20
3694.090095
 30
0.0
 11
5096.311894776999
 21
3060.090095
 31
0.0
  0
INSERT
  5
7E18
  8
3
  6
CONTINUOUS
 62
     0
  2
_OPEN
 10
5096.311894776999
 20
3754.090095
 30
0.0
 41
60.0
 42
60.0
 43
60.0
 50
90.0
  0
INSERT
  5
7E19
  8
3
  6
CONTINUOUS
 62
     0
  2
_OPEN
 10
5096.311894776999
 20
3000.090095
 30
0.0
 41
60.0
 42
60.0
 43
60.0
 50
270.0
  0
TEXT
  8
3
  40
90
  5
7E5A
  62
0
  72
0
  71
0
 10
4841.31
 20
3224.53
 30
0.000000
  1
φ754
  0
POINT
  5
7E1B
  8
DEFPOINTS
  6
CONTINUOUS
 62
     0
 10
4818.1992167769968
 20
3754.090095
 30
0.0
  0
POINT
  5
7E1C
  8
DEFPOINTS
  6
CONTINUOUS
 62
     0
 10
4818.1992167769968
 20
3000.090095
 30
0.0
  0
POINT
  5
7E1D
  8
DEFPOINTS
  6
CONTINUOUS
 62
     0
 10
5096.311894776999
 20
3000.090095
 30
0.0
  0
ENDBLK
  5
7D84
  8
0
  0
BLOCK
  8
0
  2
*D11
 70
     1
 10
0.0
 20
0.0
 30
0.0
  3
*D11
  1

  0
LINE
  5
7D66
  8
0
  6
BYBLOCK
 62
     0
 10
4818.1992167769968
 20
3769.0900950000009
 30
0.0
 11
4818.1992167769968
 21
4249.1853160000001
 31
0.0
  0
LINE
  5
7D67
  8
0
  6
BYBLOCK
 62
     0
 10
4551.1992167769959
 20
4198.4283029999997
 30
0.0
 11
4551.1992167769959
 21
4249.1853160000001
 31
0.0
  0
LINE
  5
7D68
  8
0
  6
BYBLOCK
 62
     0
 10
4758.1992167769959
 20
4219.1853159999991
 30
0.0
 11
4611.1992167769968
 21
4219.1853159999991
 31
0.0
  0
TEXT
  5
7D69
  8
3
 62
     0
 10
4573.8613308036256
 20
4262.6889751479466
 30
0.0
 40
90.0
  1
267
  0
INSERT
  5
7D6A
  8
0
  6
BYBLOCK
 62
     0
  2
_OPEN
 10
4818.1992167769968
 20
4219.1853159999991
 30
0.0
 41
60.0
 42
60.0
 43
60.0
  0
INSERT
  5
7D6B
  8
0
  6
BYBLOCK
 62
     0
  2
_OPEN
 10
4551.1992167769959
 20
4219.1853159999991
 30
0.0
 41
60.0
 42
60.0
 43
60.0
 50
180.0
  0
POINT
  5
7D6C
  8
DEFPOINTS
  6
BYBLOCK
 62
     0
 10
4818.1992167769968
 20
3754.090095
 30
0.0
  0
POINT
  5
7D6D
  8
DEFPOINTS
  6
BYBLOCK
 62
     0
 10
4551.1992167769959
 20
4183.4283029999988
 30
0.0
  0
POINT
  5
7D6E
  8
DEFPOINTS
  6
BYBLOCK
 62
     0
 10
4551.1992167769959
 20
4219.1853159999991
 30
0.0
  0
ENDBLK
  5
7D6F
  8
0
  0
BLOCK
  8
0
  2
*D12
 70
     1
 10
0.0
 20
0.0
 30
0.0
  3
*D12
  1

  0
LINE
  5
7E1E
  8
3
  6
CONTINUOUS
 62
     0
 10
4051.1992167769959
 20
4007.090095
 30
0.0
 11
4051.1992167769959
 21
4249.1853160000001
 31
0.0
  0
LINE
  5
7E1F
  8
3
  6
CONTINUOUS
 62
     0
 10
4491.1992167769968
 20
4219.1853159999991
 30
0.0
 11
4111.1992167769968
 21
4219.1853159999991
 31
0.0
  0
INSERT
  5
7E20
  8
3
  6
CONTINUOUS
 62
     0
  2
_OPEN
 10
4551.1992167769959
 20
4219.1853159999991
 30
0.0
 41
60.0
 42
60.0
 43
60.0
  0
INSERT
  5
7E21
  8
3
  6
CONTINUOUS
 62
     0
  2
_OPEN
 10
4051.1992167769959
 20
4219.1853159999991
 30
0.0
 41
60.0
 42
60.0
 43
60.0
 50
180.0
  0
TEXT
  8
3
  40
90
  5
7E5B
  62
0
  72
0
  71
0
 10
4121.20
 20
4209.89
 30
0.000000
  1
MAX
  0
TEXT
  8
3
  40
90
  5
7E5C
  62
0
  72
0
  71
0
 10
4121.20
 20
4092.89
 30
0.000000
  1
560
  0
POINT
  5
7E23
  8
DEFPOINTS
  6
CONTINUOUS
 62
     0
 10
4551.1992167769959
 20
4183.4283029999988
 30
0.0
  0
POINT
  5
7E24
  8
DEFPOINTS
  6
CONTINUOUS
 62
     0
 10
4051.1992167769959
 20
3992.090095
 30
0.0
  0
POINT
  5
7E25
  8
DEFPOINTS
  6
CONTINUOUS
 62
     0
 10
4051.1992167769959
 20
4219.1853159999991
 30
0.0
  0
ENDBLK
  5
7D79
  8
0
  0
BLOCK
  8
0
  2
*D13
 70
     1
 10
0.0
 20
0.0
 30
0.0
  3
*D13
  1

  0
LINE
  5
7E26
  8
3
  6
CONTINUOUS
 62
     0
 10
3993.1992167769959
 20
2611.090095
 30
0.0
 11
3993.1992167769959
 21
2347.2468950000002
 31
0.0
  0
LINE
  5
7E27
  8
3
  6
CONTINUOUS
 62
     0
 10
4551.1992167769959
 20
2434.9316229999999
 30
0.0
 11
4551.1992167769959
 21
2347.2468950000002
 31
0.0
  0
LINE
  5
7E28
  8
3
  6
CONTINUOUS
 62
     0
 10
4053.1992167769972
 20
2377.2468949999989
 30
0.0
 11
4491.1992167769968
 21
2377.2468949999989
 31
0.0
  0
INSERT
  5
7E29
  8
3
  6
CONTINUOUS
 62
     0
  2
_OPEN
 10
3993.1992167769959
 20
2377.2468949999989
 30
0.0
 41
60.0
 42
60.0
 43
60.0
 50
180.0
  0
INSERT
  5
7E2A
  8
3
  6
CONTINUOUS
 62
     0
  2
_OPEN
 10
4551.1992167769959
 20
2377.2468949999989
 30
0.0
 41
60.0
 42
60.0
 43
60.0
  0
TEXT
  8
3
  40
90
  5
7E5D
  62
0
  72
0
  71
0
 10
4105.11
 20
2292.95
 30
0.000000
  1
558
  0
POINT
  5
7E2C
  8
DEFPOINTS
  6
CONTINUOUS
 62
     0
 10
3993.1992167769959
 20
2626.090095
 30
0.0
  0
POINT
  5
7E2D
  8
DEFPOINTS
  6
CONTINUOUS
 62
     0
 10
4551.1992167769959
 20
2449.9316229999999
 30
0.0
  0
POINT
  5
7E2E
  8
DEFPOINTS
  6
CONTINUOUS
 62
     0
 10
4551.1992167769959
 20
2377.2468949999989
 30
0.0
  0
ENDBLK
  5
7D20
  8
0
  0
BLOCK
  8
0
  2
*D14
 70
     1
 10
0.0
 20
0.0
 30
0.0
  3
*D14
  1

  0
LINE
  5
7E2F
  8
3
  6
CONTINUOUS
 62
     0
 10
4983.1992167769968
 20
2611.090095
 30
0.0
 11
4983.1992167769968
 21
2347.2468950000002
 31
0.0
  0
LINE
  5
7E30
  8
3
  6
CONTINUOUS
 62
     0
 10
4611.1992167769968
 20
2377.2468949999989
 30
0.0
 11
4923.1992167769959
 21
2377.2468949999989
 31
0.0
  0
INSERT
  5
7E31
  8
3
  6
CONTINUOUS
 62
     0
  2
_OPEN
 10
4551.1992167769959
 20
2377.2468949999989
 30
0.0
 41
60.0
 42
60.0
 43
60.0
 50
180.0
  0
INSERT
  5
7E32
  8
3
  6
CONTINUOUS
 62
     0
  2
_OPEN
 10
4983.1992167769968
 20
2377.2468949999989
 30
0.0
 41
60.0
 42
60.0
 43
60.0
  0
TEXT
  8
3
  40
90
  5
7E5E
  62
0
  72
0
  71
0
 10
4587.20
 20
2292.95
 30
0.000000
  1
432
  0
POINT
  5
7E34
  8
DEFPOINTS
  6
CONTINUOUS
 62
     0
 10
4551.1992167769959
 20
2449.9316229999999
 30
0.0
  0
POINT
  5
7E35
  8
DEFPOINTS
  6
CONTINUOUS
 62
     0
 10
4983.1992167769968
 20
2626.090095
 30
0.0
  0
POINT
  5
7E36
  8
DEFPOINTS
  6
CONTINUOUS
 62
     0
 10
4983.1992167769968
 20
2377.2468949999989
 30
0.0
  0
ENDBLK
  5
7D2A
  8
0
  0
BLOCK
  8
0
  2
*D15
 70
     1
 10
0.0
 20
0.0
 30
0.0
  3
*D15
  1

  0
LINE
  5
7E37
  8
3
  6
CONTINUOUS
 62
     0
 10
1454.01668
 20
6292.0251029999999
 30
0.0
 11
1454.01668
 21
6458.7096380000012
 31
0.0
  0
LINE
  5
7E38
  8
3
  6
CONTINUOUS
 62
     0
 10
3054.0166800000002
 20
6292.0251029999999
 30
0.0
 11
3054.0166800000002
 21
6458.7096380000012
 31
0.0
  0
LINE
  5
7E39
  8
3
  6
CONTINUOUS
 62
     0
 10
1514.01668
 20
6428.7096380000003
 30
0.0
 11
2994.0166800000002
 21
6428.7096380000003
 31
0.0
  0
INSERT
  5
7E3A
  8
3
  6
CONTINUOUS
 62
     0
  2
_OPEN
 10
1454.01668
 20
6428.7096380000003
 30
0.0
 41
60.0
 42
60.0
 43
60.0
 50
180.0
  0
INSERT
  5
7E3B
  8
3
  6
CONTINUOUS
 62
     0
  2
_OPEN
 10
3054.0166800000002
 20
6428.7096380000003
 30
0.0
 41
60.0
 42
60.0
 43
60.0
  0
TEXT
  8
3
  40
90
  5
7E5F
  62
0
  72
0
  71
0
 10
2029.96
 20
6344.41
 30
0.000000
  1
1600
  0
POINT
  5
7E3D
  8
DEFPOINTS
  6
CONTINUOUS
 62
     0
 10
1454.01668
 20
6277.0251029999999
 30
0.0
  0
POINT
  5
7E3E
  8
DEFPOINTS
  6
CONTINUOUS
 62
     0
 10
3054.0166800000002
 20
6277.0251029999999
 30
0.0
  0
POINT
  5
7E3F
  8
DEFPOINTS
  6
CONTINUOUS
 62
     0
 10
3054.0166800000002
 20
6428.7096380000003
 30
0.0
  0
ENDBLK
  5
7D15
  8
0
  0
BLOCK
  8
0
  2
*D16
 70
     1
 10
0.0
 20
0.0
 30
0.0
  3
*D16
  1

  0
LINE
  5
7E40
  8
3
  6
CONTINUOUS
 62
     0
 10
3069.0166800000002
 20
6277.0251029999999
 30
0.0
 11
3373.1588960000008
 21
6277.0251029999999
 31
0.0
  0
LINE
  5
7E41
  8
3
  6
CONTINUOUS
 62
     0
 10
3069.0166800000002
 20
5287.0251029999999
 30
0.0
 11
3373.1588960000008
 21
5287.0251029999999
 31
0.0
  0
LINE
  5
7E42
  8
3
  6
CONTINUOUS
 62
     0
 10
3343.1588959999999
 20
6217.0251029999999
 30
0.0
 11
3343.1588959999999
 21
5347.0251029999999
 31
0.0
  0
INSERT
  5
7E43
  8
3
  6
CONTINUOUS
 62
     0
  2
_OPEN
 10
3343.1588959999999
 20
6277.0251029999999
 30
0.0
 41
60.0
 42
60.0
 43
60.0
 50
90.0
  0
INSERT
  5
7E44
  8
3
  6
CONTINUOUS
 62
     0
  2
_OPEN
 10
3343.1588959999999
 20
5287.0251029999999
 30
0.0
 41
60.0
 42
60.0
 43
60.0
 50
270.0
  0
TEXT
  8
3
  40
90
  5
7E60
  62
0
  72
0
  71
0
 10
3088.16
 20
5623.10
 30
0.000000
  1
990
  0
POINT
  5
7E46
  8
DEFPOINTS
  6
CONTINUOUS
 62
     0
 10
3054.0166800000002
 20
6277.0251029999999
 30
0.0
  0
POINT
  5
7E47
  8
DEFPOINTS
  6
CONTINUOUS
 62
     0
 10
3054.0166800000002
 20
5287.0251029999999
 30
0.0
  0
POINT
  5
7E48
  8
DEFPOINTS
  6
CONTINUOUS
 62
     0
 10
3343.1588959999999
 20
5287.0251029999999
 30
0.0
  0
ENDBLK
  5
7C9E
  8
0
  0
BLOCK
  8
0
  2
*D17
 70
     1
 10
0.0
 20
0.0
 30
0.0
  3
*D17
  1

  0
LINE
  5
7E49
  8
3
  6
CONTINUOUS
 62
     0
 10
1465.7695038040399
 20
3392.0900950000009
 30
0.0
 11
1465.7695038040399
 21
4313.1472759999997
 31
0.0
  0
LINE
  5
7E4A
  8
3
  6
CONTINUOUS
 62
     0
 10
1914.01668
 20
4283.1472759999997
 30
0.0
 11
1525.7695038040399
 21
4283.1472759999997
 31
0.0
  0
INSERT
  5
7E4B
  8
3
  6
CONTINUOUS
 62
     0
  2
_OPEN
 10
1974.01668
 20
4283.1472759999997
 30
0.0
 41
60.0
 42
60.0
 43
60.0
  0
INSERT
  5
7E4C
  8
3
  6
CONTINUOUS
 62
     0
  2
_OPEN
 10
1465.7695038040399
 20
4283.1472759999997
 30
0.0
 41
60.0
 42
60.0
 43
60.0
 50
180.0
  0
TEXT
  8
3
  40
90
  5
7E61
  62
0
  72
0
  71
0
 10
1539.89
 20
4198.85
 30
0.000000
  1
508
  0
POINT
  5
7E4E
  8
DEFPOINTS
  6
CONTINUOUS
 62
     0
 10
1974.01668
 20
4169.5715190000001
 30
0.0
  0
POINT
  5
7E4F
  8
DEFPOINTS
  6
CONTINUOUS
 62
     0
 10
1465.7695038040399
 20
3377.0900950000009
 30
0.0
  0
POINT
  5
7E50
  8
DEFPOINTS
  6
CONTINUOUS
 62
     0
 10
1465.7695038040399
 20
4283.1472759999997
 30
0.0
  0
ENDBLK
  5
7D3F
  8
0
  0
ENDSEC
  0
SECTION
  2
ENTITIES
  0
LINE
  5
7AC3
  8
1
  6
CONTINUOUS
 10
1464.6466800000001
 20
5580.0251029999999
 30
0.0
 11
1464.6466800000001
 21
6110.0251029999999
 31
0.0
  0
LINE
  5
7AC4
  8
1
  6
CONTINUOUS
 10
1934.0566799999999
 20
5580.0251029999999
 30
0.0
 11
1934.0566799999999
 21
6110.0251029999999
 31
0.0
  0
LINE
  5
7AC5
  8
1
  6
CONTINUOUS
 10
2664.0566800000001
 20
5580.0251029999999
 30
0.0
 11
2664.0566800000001
 21
6110.0251029999999
 31
0.0
  0
LINE
  5
7AC6
  8
1
  6
CONTINUOUS
 10
2664.0566800000001
 20
6110.0251029999999
 30
0.0
 11
1934.0566799999999
 21
5580.0251029999999
 31
0.0
  0
LINE
  5
7AC7
  8
1
  6
CONTINUOUS
 10
2664.0566800000001
 20
5580.0251029999999
 30
0.0
 11
1934.0566799999999
 21
6110.0251029999999
 31
0.0
  0
LINE
  5
7AC8
  8
1
  6
CONTINUOUS
 10
3014.0166800000002
 20
6277.0251029999999
 30
0.0
 11
3014.0166800000002
 21
5287.0251029999999
 31
0.0
  0
LINE
  5
7AC9
  8
1
  6
CONTINUOUS
 10
3054.0166800000002
 20
6277.0251029999999
 30
0.0
 11
3054.0166800000002
 21
5287.0251029999999
 31
0.0
  0
LINE
  5
7ACA
  8
1
  6
CONTINUOUS
 10
1454.01668
 20
6277.0251029999999
 30
0.0
 11
1454.01668
 21
5287.0251029999999
 31
0.0
  0
LINE
  5
7AD3
  8
1
  6
CONTINUOUS
 10
2124.0166799999988
 20
5402.025102999999
 30
0.0
 11
2705.4966800000002
 21
5402.025102999999
 31
0.0
  0
ARC
  5
7AD4
  8
1
  6
CONTINUOUS
 10
2785.4966800000002
 20
3052.090095
 30
0.0
 40
162.0
 50
324.97000000000003
 51
215.02999999999989
  0
LINE
  5
7AD5
  8
1
  6
CONTINUOUS
 10
2124.0166799999988
 20
3992.090095
 30
0.0
 11
2964.0166800000002
 21
3152.090095
 31
0.0
  0
LINE
  5
7AD6
  8
1
  6
CONTINUOUS
 10
2952.4766800000002
 20
6000.235103
 30
0.0
 11
2664.0566800000001
 21
6000.235103
 31
0.0
  0
LINE
  5
7AD7
  8
1
  6
CONTINUOUS
 10
2952.4766800000002
 20
5544.2951030000004
 30
0.0
 11
2623.4966800000002
 21
5544.2951030000004
 31
0.0
  0
LINE
  5
7AD8
  8
1
  6
CONTINUOUS
 10
1604.01668
 20
5345.0251030000009
 30
0.0
 11
2964.0166800000002
 21
5345.0251030000009
 31
0.0
  0
LINE
  5
7AD9
  8
1
  6
CONTINUOUS
 10
1604.01668
 20
5485.0251029999999
 30
0.0
 11
2964.0166800000002
 21
5485.0251029999999
 31
0.0
  0
LINE
  5
7ADA
  8
1
  6
CONTINUOUS
 10
1504.01668
 20
2852.0900950000009
 30
0.0
 11
3004.0166800000002
 21
2852.090095
 31
0.0
  0
LINE
  5
7ADB
  8
1
  6
CONTINUOUS
 10
1504.01668
 20
2752.090095
 30
0.0
 11
3004.0166800000002
 21
2752.090095
 31
0.0
  0
LINE
  5
7ADC
  8
1
  6
CONTINUOUS
 10
1900.01668
 20
3912.090095
 30
0.0
 11
2710.0166800000002
 21
3912.090095
 31
0.0
  0
POLYLINE
  5
7ADD
  8
1
  6
CONTINUOUS
 66
     1
 10
0.0
 20
0.0
 30
0.0
  0
VERTEX
  5
7DBE
  8
1
  6
CONTINUOUS
 10
2670.0166800000002
 20
3912.090095
 30
0.0
  0
VERTEX
  5
7DBF
  8
1
  6
CONTINUOUS
 10
2654.0166800000002
 20
3377.090095
 30
0.0
 42
-0.4200000000000001
  0
VERTEX
  5
7DC0
  8
1
  6
CONTINUOUS
 10
1962.22668
 20
2792.070095
 30
0.0
 42
-0.43
  0
VERTEX
  5
7DC1
  8
1
  6
CONTINUOUS
 10
1469.24668
 20
3409.0100950000001
 30
0.0
 42
-0.37
  0
VERTEX
  5
7DC2
  8
1
  6
CONTINUOUS
 10
1940.01668
 20
3825.8600950000009
 30
0.0
 42
-0.34
  0
SEQEND
  5
7DC3
  8
1
  6
CONTINUOUS
  0
LINE
  5
7AE4
  8
1
  6
CONTINUOUS
 10
1929.5766799999999
 20
3233.820095
 30
0.0
 11
2761.7866800000002
 21
2975.6800949999988
 31
0.0
  0
LINE
  5
7AE5
  8
1
  6
CONTINUOUS
 10
2040.75668
 20
3511.4200949999999
 30
0.0
 11
2821.0866799999999
 21
3123.730094999999
 31
0.0
  0
LINE
  5
7AE6
  8
1
  6
CONTINUOUS
 10
1454.01668
 20
2626.090095
 30
0.0
 11
3054.0166800000002
 21
2626.090095
 31
0.0
  0
LINE
  5
7AE7
  8
1
  6
CONTINUOUS
 10
1454.01668
 20
2726.0900949999991
 30
0.0
 11
3054.0166800000002
 21
2726.0900949999991
 31
0.0
  0
LINE
  5
7AE8
  8
1
  6
CONTINUOUS
 10
1454.01668
 20
2726.0900949999991
 30
0.0
 11
1454.01668
 21
2626.090095
 31
0.0
  0
LINE
  5
7AEA
  8
1
  6
CONTINUOUS
 10
1604.01668
 20
3992.090095
 30
0.0
 11
2124.0166799999988
 21
3992.090095
 31
0.0
  0
LINE
  5
7AED
  8
1
  6
CONTINUOUS
 10
1604.01668
 20
2852.090095
 30
0.0
 11
1604.01668
 21
3992.090095
 31
0.0
  0
LINE
  5
7AEE
  8
1
  6
CONTINUOUS
 10
1504.01668
 20
2852.090095
 30
0.0
 11
1504.01668
 21
2752.090095
 31
0.0
  0
CIRCLE
  5
7AF0
  8
1
  6
CONTINUOUS
 10
1974.01668
 20
3377.090095
 30
0.0
 40
150.0
  0
LINE
  5
7AF1
  8
1
  6
CONTINUOUS
 10
2631.4966800000002
 20
2910.090095
 30
0.0
 11
2652.8366799999999
 21
2959.1000949999998
 31
0.0
  0
LINE
  5
7AF2
  8
1
  6
CONTINUOUS
 10
2631.4966800000002
 20
2852.090095
 30
0.0
 11
2631.4966800000002
 21
2910.090095
 31
0.0
  0
LINE
  5
7AF3
  8
1
  6
CONTINUOUS
 10
1940.01668
 20
3882.090095
 30
0.0
 11
2669.1166800000001
 21
3882.090095
 31
0.0
  0
LINE
  5
7AF4
  8
1
  6
CONTINUOUS
 10
1940.01668
 20
3825.8600950000009
 30
0.0
 11
1940.01668
 21
3912.090095
 31
0.0
  0
LINE
  5
7AF5
  8
2
  6
CENTER
 10
1350.060551999999
 20
3377.090095
 30
0.0
 11
2970.6030059999998
 21
3377.090095
 31
0.0
  0
LINE
  5
7AF6
  8
2
  6
CENTER
 10
1974.01668
 20
6258.7242770000003
 30
0.0
 11
1974.01668
 21
5248.518239
 31
0.0
  0
LINE
  5
7AF8
  8
1
  6
CONTINUOUS
 10
1494.01668
 20
5402.025102999999
 30
0.0
 11
1824.01668
 21
5402.025102999999
 31
0.0
  0
LINE
  5
7AF9
  8
1
  6
CONTINUOUS
 10
2664.0566800000001
 20
5580.0251029999999
 30
0.0
 11
1464.6466800000001
 21
5580.0251029999999
 31
0.0
  0
LINE
  5
7AFA
  8
1
  6
CONTINUOUS
 10
1604.01668
 20
5345.0251030000009
 30
0.0
 11
1604.01668
 21
5485.0251029999999
 31
0.0
  0
LINE
  5
7AFB
  8
1
  6
CONTINUOUS
 10
1494.01668
 20
5580.0251029999999
 30
0.0
 11
1494.01668
 21
5287.0251029999999
 31
0.0
  0
LINE
  5
7AFC
  8
1
  6
CONTINUOUS
 10
1494.01668
 20
5287.0251029999999
 30
0.0
 11
1454.01668
 21
5287.0251029999999
 31
0.0
  0
LINE
  5
7AFD
  8
1
  6
CONTINUOUS
 10
2623.4966800000002
 20
5544.2951030000004
 30
0.0
 11
2623.4966800000002
 21
5580.0251029999999
 31
0.0
  0
LINE
  5
7AFE
  8
1
  6
CONTINUOUS
 10
2124.0166799999988
 20
5375.0251029999999
 30
0.0
 11
2124.0166799999988
 21
5455.0251029999999
 31
0.0
  0
LINE
  5
7AFF
  8
1
  6
CONTINUOUS
 10
1824.01668
 20
5375.0251029999999
 30
0.0
 11
1824.01668
 21
5455.0251029999999
 31
0.0
  0
LINE
  5
7B00
  8
1
  6
CONTINUOUS
 10
1824.01668
 20
5375.0251029999999
 30
0.0
 11
2124.0166799999988
 21
5375.0251029999999
 31
0.0
  0
LINE
  5
7B01
  8
1
  6
CONTINUOUS
 10
1824.01668
 20
5455.0251029999999
 30
0.0
 11
2124.0166799999988
 21
5455.0251029999999
 31
0.0
  0
LINE
  5
7B02
  8
1
  6
CONTINUOUS
 10
1995.01668
 20
5455.0251029999999
 30
0.0
 11
1995.01668
 21
5580.0251029999999
 31
0.0
  0
LINE
  5
7B03
  8
1
  6
CONTINUOUS
 10
1953.01668
 20
5455.0251029999999
 30
0.0
 11
1953.01668
 21
5580.0251029999999
 31
0.0
  0
LINE
  5
7B04
  8
1
  6
CONTINUOUS
 10
4983.1992167769968
 20
2626.090095
 30
0.0
 11
3993.1992167769959
 21
2626.090095
 31
0.0
  0
LINE
  5
7B05
  8
1
  6
CONTINUOUS
 10
4983.1992167769968
 20
2726.0900949999991
 30
0.0
 11
3993.1992167769959
 21
2726.0900949999991
 31
0.0
  0
LINE
  5
7B06
  8
1
  6
CONTINUOUS
 10
4868.1992167769959
 20
2852.090095
 30
0.0
 11
4051.1992167769959
 21
2852.090095
 31
0.0
  0
LINE
  5
7B07
  8
1
  6
CONTINUOUS
 10
4868.1992167769959
 20
2752.090095
 30
0.0
 11
4108.1992167769968
 21
2752.090095
 31
0.0
  0
LINE
  5
7B08
  8
1
  6
CONTINUOUS
 10
4856.1992167769968
 20
3912.090095
 30
0.0
 11
4246.1992167769968
 21
3912.090095
 31
0.0
  0
LINE
  5
7B13
  8
1
  6
CONTINUOUS
 10
3054.0166800000002
 20
2726.0900949999991
 30
0.0
 11
3054.0166800000002
 21
2626.090095
 31
0.0
  0
LINE
  5
7B18
  8
1
  6
CONTINUOUS
 10
3993.1992167769959
 20
2726.0900949999991
 30
0.0
 11
3993.1992167769959
 21
2626.090095
 31
0.0
  0
LINE
  5
7B27
  8
2
  6
CENTER
 10
2785.4966800000002
 20
2972.090095
 30
0.0
 11
2785.4966800000002
 21
3132.090095
 31
0.0
  0
LINE
  5
7B28
  8
2
  6
CENTER
 10
2865.4966800000002
 20
3052.090095
 30
0.0
 11
2705.4966800000002
 21
3052.090095
 31
0.0
  0
LINE
  5
7B29
  8
1
  6
CONTINUOUS
 10
2939.4966800000002
 20
2852.090095
 30
0.0
 11
2939.4966800000002
 21
2910.090095
 31
0.0
  0
LINE
  5
7B2A
  8
1
  6
CONTINUOUS
 10
2939.4966800000002
 20
2910.090095
 30
0.0
 11
2918.1466799999998
 21
2959.1000949999998
 31
0.0
  0
CIRCLE
  5
7B2B
  8
1
  6
CONTINUOUS
 10
2785.4966800000002
 20
3052.090095
 30
0.0
 40
80.0
  0
LINE
  5
7B2C
  8
1
  6
CONTINUOUS
 10
2964.0166800000002
 20
2852.090095
 30
0.0
 11
2964.0166800000002
 21
3152.090095
 31
0.0
  0
LINE
  5
7B2D
  8
1
  6
CONTINUOUS
 10
3004.0166800000002
 20
2852.090095
 30
0.0
 11
3004.0166800000002
 21
2752.090095
 31
0.0
  0
LINE
  5
7B39
  8
1
  6
CONTINUOUS
 10
2865.4966800000002
 20
5402.025102999999
 30
0.0
 11
3014.0166800000002
 21
5402.025102999999
 31
0.0
  0
LINE
  5
7B3A
  8
1
  6
CONTINUOUS
 10
2764.4966800000002
 20
5455.0251029999999
 30
0.0
 11
2764.4966800000002
 21
5544.2951030000004
 31
0.0
  0
LINE
  5
7B3B
  8
1
  6
CONTINUOUS
 10
2806.4966800000002
 20
5455.0251029999999
 30
0.0
 11
2806.4966800000002
 21
5544.2951030000004
 31
0.0
  0
LINE
  5
7B3C
  8
1
  6
CONTINUOUS
 10
2952.4766800000002
 20
5544.2951030000004
 30
0.0
 11
2952.4766800000002
 21
6000.235103
 31
0.0
  0
LINE
  5
7B3D
  8
1
  6
CONTINUOUS
 10
2964.0166800000002
 20
5345.0251030000009
 30
0.0
 11
2964.0166800000002
 21
5485.0251029999999
 31
0.0
  0
LINE
  5
7B3E
  8
1
  6
CONTINUOUS
 10
2865.4966800000002
 20
5375.0251029999999
 30
0.0
 11
2865.4966800000002
 21
5455.0251029999999
 31
0.0
  0
LINE
  5
7B3F
  8
1
  6
CONTINUOUS
 10
2705.4966800000002
 20
5375.0251029999999
 30
0.0
 11
2705.4966800000002
 21
5455.0251029999999
 31
0.0
  0
LINE
  5
7B40
  8
1
  6
CONTINUOUS
 10
2705.4966800000002
 20
5375.0251029999999
 30
0.0
 11
2865.4966800000002
 21
5375.0251029999999
 31
0.0
  0
LINE
  5
7B41
  8
1
  6
CONTINUOUS
 10
2705.4966800000002
 20
5455.0251029999999
 30
0.0
 11
2865.4966800000002
 21
5455.0251029999999
 31
0.0
  0
LINE
  5
7B42
  8
1
  6
CONTINUOUS
 10
3054.0166800000002
 20
5287.0251029999999
 30
0.0
 11
3014.0166800000002
 21
5287.0251029999999
 31
0.0
  0
LINE
  5
7B59
  8
1
  6
CONTINUOUS
 10
4161.1992167769968
 20
3398.090095
 30
0.0
 11
4286.1992167769968
 21
3398.090095
 31
0.0
  0
LINE
  5
7B5A
  8
1
  6
CONTINUOUS
 10
4161.1992167769968
 20
3356.090095
 30
0.0
 11
4286.1992167769968
 21
3356.090095
 31
0.0
  0
LINE
  5
7B5B
  8
1
  6
CONTINUOUS
 10
4161.1992167769968
 20
2991.090095
 30
0.0
 11
4286.1992167769968
 21
2991.090095
 31
0.0
  0
LINE
  5
7B5C
  8
1
  6
CONTINUOUS
 10
4161.1992167769968
 20
3033.090095
 30
0.0
 11
4286.1992167769968
 21
3033.090095
 31
0.0
  0
LINE
  5
7B5D
  8
1
  6
CONTINUOUS
 10
4081.1992167769972
 20
3092.090095
 30
0.0
 11
4161.1992167769968
 21
3092.090095
 31
0.0
  0
LINE
  5
7B5E
  8
1
  6
CONTINUOUS
 10
4081.1992167769972
 20
2932.090095
 30
0.0
 11
4161.1992167769968
 21
2932.090095
 31
0.0
  0
LINE
  5
7B5F
  8
1
  6
CONTINUOUS
 10
4081.1992167769972
 20
3527.090095
 30
0.0
 11
4161.1992167769968
 21
3527.090095
 31
0.0
  0
LINE
  5
7B60
  8
1
  6
CONTINUOUS
 10
4081.1992167769972
 20
3227.0900949999991
 30
0.0
 11
4161.1992167769968
 21
3227.0900949999991
 31
0.0
  0
LINE
  5
7B61
  8
1
  6
CONTINUOUS
 10
4081.1992167769972
 20
2932.090095
 30
0.0
 11
4081.1992167769972
 21
3092.090095
 31
0.0
  0
LINE
  5
7B62
  8
1
  6
CONTINUOUS
 10
4161.1992167769968
 20
2932.090095
 30
0.0
 11
4161.1992167769968
 21
3092.090095
 31
0.0
  0
LINE
  5
7B63
  8
1
  6
CONTINUOUS
 10
4081.1992167769972
 20
3227.0900949999991
 30
0.0
 11
4081.1992167769972
 21
3527.090095
 31
0.0
  0
LINE
  5
7B64
  8
1
  6
CONTINUOUS
 10
4161.1992167769968
 20
3227.0900949999991
 30
0.0
 11
4161.1992167769968
 21
3527.090095
 31
0.0
  0
LINE
  5
7B65
  8
1
  6
CONTINUOUS
 10
4191.1992167769959
 20
3992.090095
 30
0.0
 11
4191.1992167769959
 21
2852.090095
 31
0.0
  0
LINE
  5
7B66
  8
1
  6
CONTINUOUS
 10
4191.1992167769959
 20
3992.090095
 30
0.0
 11
4051.1992167769959
 21
3992.090095
 31
0.0
  0
LINE
  5
7B67
  8
1
  6
CONTINUOUS
 10
4051.1992167769959
 20
3992.090095
 30
0.0
 11
4051.1992167769959
 21
2852.090095
 31
0.0
  0
LINE
  5
7B68
  8
1
  6
CONTINUOUS
 10
4108.1992167769968
 20
2852.090095
 30
0.0
 11
4108.1992167769968
 21
2752.090095
 31
0.0
  0
LINE
  5
7B69
  8
1
  6
CONTINUOUS
 10
4286.1992167769968
 20
3912.090095
 30
0.0
 11
4286.1992167769968
 21
2852.090095
 31
0.0
  0
LINE
  5
7B74
  8
1
  6
CONTINUOUS
 10
4983.1992167769968
 20
2726.0900949999991
 30
0.0
 11
4983.1992167769968
 21
2626.090095
 31
0.0
  0
LINE
  5
7B75
  8
1
  6
CONTINUOUS
 10
4868.1992167769959
 20
2852.090095
 30
0.0
 11
4868.1992167769959
 21
2752.090095
 31
0.0
  0
LINE
  5
7B76
  8
1
  6
CONTINUOUS
 10
4816.1992167769968
 20
3912.090095
 30
0.0
 11
4816.1992167769968
 21
2852.090095
 31
0.0
  0
LINE
  5
7B77
  8
1
  6
CONTINUOUS
 10
1494.01668
 20
6162.0251029999999
 30
0.0
 11
3014.0166800000002
 21
6162.0251029999999
 31
0.0
  0
LINE
  5
7B78
  8
1
  6
CONTINUOUS
 10
2664.0566800000001
 20
6110.0251029999999
 30
0.0
 11
1464.6466800000001
 21
6110.0251029999999
 31
0.0
  0
LINE
  5
7B79
  8
1
  6
CONTINUOUS
 10
1494.01668
 20
6277.0251029999999
 30
0.0
 11
1454.01668
 21
6277.0251029999999
 31
0.0
  0
LINE
  5
7B7A
  8
1
  6
CONTINUOUS
 10
1494.01668
 20
6277.0251029999999
 30
0.0
 11
1494.01668
 21
6110.0251029999999
 31
0.0
  0
LINE
  5
7B7D
  8
1
  6
CONTINUOUS
 10
3054.0166800000002
 20
6277.0251029999999
 30
0.0
 11
3014.0166800000002
 21
6277.0251029999999
 31
0.0
  0
LINE
  5
7B81
  8
2
  6
CENTER
 10
4551.1992167769959
 20
4049.879261
 30
0.0
 11
4551.1992167769959
 21
2449.9316229999999
 31
0.0
  0
LINE
  5
7B82
  8
2
  6
CENTER
 10
3147.5523899999989
 20
5845.0251030000009
 30
0.0
 11
1320.1082719999999
 21
5845.0251030000009
 31
0.0
  0
LINE
  5
7B83
  8
2
  6
CENTER
 10
1974.01668
 20
4169.5715190000001
 30
0.0
 11
1974.01668
 21
2466.7578789999989
 31
0.0
  0
LINE
  5
7B84
  8
2
  6
CENTER
 10
3975.4362487769972
 20
3377.090095
 30
0.0
 11
4942.4276687769961
 21
3377.090095
 31
0.0
  0
LINE
  5
7B85
  8
4
  6
CONTINUOUS
 10
5550.0
 20
1500.0
 30
0.0
 11
5550.0
 21
900.0
 31
0.0
  0
LINE
  5
7B86
  8
4
  6
CONTINUOUS
 10
3450.0
 20
1500.0
 30
0.0
 11
3450.0
 21
900.0
 31
0.0
  0
LINE
  5
7B87
  8
4
  6
CONTINUOUS
 10
1950.0
 20
1500.0
 30
0.0
 11
1950.0
 21
900.0
 31
0.0
  0
LINE
  5
7B8A
  8
4
  6
CONTINUOUS
 10
1950.0
 20
900.0
 30
0.0
 11
5550.0
 21
900.0
 31
0.0
  0
LINE
  5
7B8B
  8
4
  6
CONTINUOUS
 10
1950.0
 20
1200.0
 30
0.0
 11
5550.0
 21
1200.0
 31
0.0
  0
TEXT
  5
7B8C
  8
4
  6
CONTINUOUS
 10
2065.5062429999989
 20
1294.6290779999999
 30
0.0
 40
150.0
  1
機器名称
  0
TEXT
  5
7B8D
  8
4
  6
CONTINUOUS
 10
2058.7743179999989
 20
964.9354699999999
 30
0.0
 40
150.0
  1
機器型番
  0
TEXT
  5
7B8E
  8
4
  6
CONTINUOUS
 10
3533.0362359999999
 20
1267.7153069999999
 30
0.0
 40
150.0
  1
ミツヤ多翼送風機
  0
TEXT
  5
7B8F
  8
4
  6
CONTINUOUS
 10
3559.9634869999991
 20
951.47875299999987
 30
0.0
 40
150.0
  1
MF#4 1/2-4
  0
TEXT
  5
7B91
  8
4
  6
CONTINUOUS
 10
2218.685113999999
 20
7150.2865239999992
 30
0.0
 40
162.0
  1
天井吊防振ベット
  0
TEXT
  5
7B92
  8
4
  6
CONTINUOUS
 10
948.50278000000014
 20
7601.6429289999996
 30
0.0
 40
216.0
  1
ベルト駆動式片吸込両持多翼ファン
  0
LINE
  5
7B93
  8
4
  6
CONTINUOUS
 10
750.0
 20
7408.2262629999996
 30
0.0
 11
5550.0
 21
7408.2262629999996
 31
0.0
  0
LINE
  5
7B94
  8
4
  6
CONTINUOUS
 10
750.0
 20
8008.2262629999996
 30
0.0
 11
5550.0
 21
8008.2262629999996
 31
0.0
  0
LINE
  5
7B95
  8
4
  6
CONTINUOUS
 10
1950.0
 20
1500.0
 30
0.0
 11
5550.0
 21
1500.0
 31
0.0
  0
LINE
  5
7B96
  8
4
  6
CONTINUOUS
 10
750.0
 20
8008.2262629999996
 30
0.0
 11
750.0
 21
7408.2262629999996
 31
0.0
  0
TEXT
  5
7B97
  8
4
  6
CONTINUOUS
 10
911.10861799999986
 20
7146.9584329999998
 30
0.0
 40
162.0
  1
左回転上向
  0
TEXT
  5
7B98
  8
4
  6
CONTINUOUS
 10
4406.9086779999989
 20
8118.1832439999989
 30
0.0
 40
168.0
  1
No.
  0
TEXT
  5
7B99
  8
4
  6
CONTINUOUS
 10
3933.8881879999999
 20
7150.2865239999992
 30
0.0
 40
162.0
  1
縮尺：1/30
  0
LINE
  5
7B9A
  8
4
  6
CONTINUOUS
 10
5550.0
 20
8008.2262629999996
 30
0.0
 11
5550.0
 21
7408.2262629999996
 31
0.0
  0
LINE
  5
7B9C
  8
4
  6
CONTINUOUS
 10
4321.8522670000002
 20
8043.7907490000007
 30
0.0
 11
4321.8522670000002
 21
8359.9567849999985
 31
0.0
  0
LINE
  5
7B9D
  8
4
 10
4321.8522670000002
 20
8359.9567849999985
 30
0.0
 11
5550.0
 21
8359.9567849999985
 31
0.0
  0
LINE
  5
7B9E
  8
4
  6
CONTINUOUS
 10
5550.0
 20
8359.9567849999985
 30
0.0
 11
5550.0
 21
8043.7907490000007
 31
0.0
  0
LINE
  5
7B9F
  8
4
  6
CONTINUOUS
 10
5550.0
 20
8043.7907490000007
 30
0.0
 11
4321.8522670000002
 21
8043.7907490000007
 31
0.0
  0
DIMENSION
  5
7BB7
  8
3
  6
CONTINUOUS
  2
*D1
 10
1940.01668
 20
4122.2638690000003
 30
0.0
 11
2309.035852
 21
4122.2638690000003
 31
0.0
 70
   128
 13
2670.0166800000002
 23
3912.090095
 33
0.0
 14
1940.01668
 24
3912.090095
 34
0.0
1001
ACAD
1000
DSTYLE
1002
{
1070
   287
1070
     3
1070
    40
1040
30.0
1070
   143
1040
0.039
1070
   172
1070
     1
1070
   271
1070
     0
1070
   279
1070
     0
1070
   288
1070
     1
1002
}
  0
DIMENSION
  5
7BC4
  8
3
  6
CONTINUOUS
  2
*D2
 10
1974.01668
 20
4283.1472759999997
 30
0.0
 11
2302.8435100000002
 21
4283.1472759999997
 31
0.0
 70
   128
 13
2670.0166800000002
 23
3912.090095
 33
0.0
 14
1974.01668
 24
4169.5715190000001
 34
0.0
1001
ACAD
1000
DSTYLE
1002
{
1070
   287
1070
     3
1070
    40
1040
30.0
1070
   143
1040
0.039
1070
   172
1070
     1
1070
   271
1070
     0
1070
   279
1070
     0
1070
   288
1070
     1
1002
}
  0
DIMENSION
  5
7BDD
  8
3
  6
CONTINUOUS
  2
*D3
 10
1318.2592729999999
 20
3377.090095
 30
0.0
 11
1318.2592729999999
 21
3649.9055440000002
 31
0.0
 70
   128
 13
1900.01668
 23
3912.090095
 33
0.0
 14
1384.475117
 24
3377.090095
 34
0.0
 50
90.0
1001
ACAD
1000
DSTYLE
1002
{
1070
   287
1070
     3
1070
    40
1040
30.0
1070
   143
1040
0.039
1070
   172
1070
     1
1070
   271
1070
     0
1070
   279
1070
     0
1070
   288
1070
     1
1002
}
  0
DIMENSION
  5
7BE9
  8
3
  6
CONTINUOUS
  2
*D4
 10
1318.2592729999999
 20
2752.090095
 30
0.0
 11
1243.259272999999
 21
3064.590095
 31
0.0
 70
     0
 13
1384.475117
 23
3377.090095
 33
0.0
 14
1504.01668
 24
2752.090095
 34
0.0
 50
90.0
1001
ACAD
1000
DSTYLE
1002
{
1070
   287
1070
     4
1070
    40
1040
30.0
1070
    75
1070
     1
1070
   143
1040
0.039
1070
   172
1070
     1
1070
   271
1070
     0
1070
   279
1070
     1
1070
   288
1070
     1
1002
}
  0
DIMENSION
  5
7BF9
  8
3
  6
CONTINUOUS
  2
*D5
 10
1317.7220480000001
 20
2626.090095
 30
0.0
 11
1317.7220480000001
 21
2371.090095
 31
0.0
 70
   128
 13
1504.01668
 23
2752.090095
 33
0.0
 14
1454.01668
 24
2626.090095
 34
0.0
 50
90.0
1001
ACAD
1000
DSTYLE
1002
{
1070
   287
1070
     3
1070
    40
1040
30.0
1070
   143
1040
0.039
1070
   172
1070
     1
1070
   271
1070
     0
1070
   279
1070
     0
1070
   288
1070
     1
1002
}
  0
DIMENSION
  5
7C06
  8
3
  6
CONTINUOUS
  2
*D6
 10
1122.8889039999999
 20
2626.090095
 30
0.0
 11
1122.888903999999
 21
3216.7578800000001
 31
0.0
 70
   128
 13
1885.01668
 23
3912.090095
 33
0.0
 14
1454.01668
 24
2626.090095
 34
0.0
 50
90.0
1001
ACAD
1000
DSTYLE
1002
{
1070
   287
1070
     3
1070
    40
1040
30.0
1070
   143
1040
0.039
1070
   172
1070
     1
1070
   271
1070
     0
1070
   279
1070
     0
1070
   288
1070
     1
1002
}
  0
DIMENSION
  5
7C13
  8
3
  6
CONTINUOUS
  2
*D7
 10
1974.01668
 20
2364.8712449999989
 30
0.0
 11
1720.7622739999999
 21
2364.8712449999989
 31
0.0
 70
   128
 13
1454.01668
 23
2626.090095
 33
0.0
 14
1974.01668
 24
2466.7578789999989
 34
0.0
1001
ACAD
1000
DSTYLE
1002
{
1070
   287
1070
     3
1070
    40
1040
30.0
1070
   143
1040
0.039
1070
   172
1070
     1
1070
   271
1070
     0
1070
   279
1070
     0
1070
   288
1070
     1
1002
}
  0
DIMENSION
  5
7C1F
  8
3
  6
CONTINUOUS
  2
*D8
 10
3054.0166800000002
 20
2364.8712449999989
 30
0.0
 11
2514.0166800000002
 21
2439.8712449999989
 31
0.0
 70
     0
 13
1974.01668
 23
2466.7578789999989
 33
0.0
 14
3054.0166800000002
 24
2626.090095
 34
0.0
1001
ACAD
1000
DSTYLE
1002
{
1070
   287
1070
     4
1070
    40
1040
30.0
1070
    75
1070
     1
1070
   143
1040
0.039
1070
   172
1070
     1
1070
   271
1070
     0
1070
   279
1070
     1
1070
   288
1070
     1
1002
}
  0
DIMENSION
  5
7C2C
  8
3
  6
CONTINUOUS
  2
*D9
 10
4286.1992167769968
 20
4039.7384229999998
 30
0.0
 11
4557.5771237769959
 21
4039.7384229999998
 31
0.0
 70
   128
 13
4816.1992167769968
 23
3912.090095
 33
0.0
 14
4286.1992167769968
 24
3912.090095
 34
0.0
1001
ACAD
1000
DSTYLE
1002
{
1070
   287
1070
     3
1070
    40
1040
30.0
1070
   143
1040
0.039
1070
   172
1070
     1
1070
   271
1070
     0
1070
   279
1070
     0
1070
   288
1070
     1
1002
}
  0
LINE
  5
7C2D
  8
1
  6
CONTINUOUS
 10
4818.1992167769968
 20
3754.090095
 30
0.0
 11
4818.1992167769968
 21
3000.090095
 31
0.0
  0
DIMENSION
  5
7C3C
  8
3
  6
CONTINUOUS
  2
*D10
 10
5096.311894776999
 20
3000.090095
 30
0.0
 11
5096.3118947769972
 21
3383.8291229999991
 31
0.0
 70
   128
 13
4818.1992167769968
 23
3754.090095
 33
0.0
 14
4818.1992167769968
 24
3000.090095
 34
0.0
 50
90.0
1001
ACAD
1000
DSTYLE
1002
{
1070
   287
1070
     3
1070
     3
1000
φ<>
1070
    40
1040
30.0
1070
   143
1040
0.039
1070
   172
1070
     1
1070
   271
1070
     0
1070
   279
1070
     0
1070
   288
1070
     1
1002
}
  0
DIMENSION
  5
7C4A
  8
3
  6
CONTINUOUS
  2
*D11
 10
4551.1992167769959
 20
4219.1853159999991
 30
0.0
 11
4689.5756165179118
 21
4307.6889751479466
 31
0.0
 70
   128
 13
4818.1992167769968
 23
3754.090095
 33
0.0
 14
4551.1992167769959
 24
4183.4283029999988
 34
0.0
1001
ACAD
1000
DSTYLE
1002
{
1070
   288
1070
     1
1070
   172
1070
     1
1070
    40
1040
30.0
1070
   271
1070
     0
1070
   143
1040
0.039
1002
}
  0
DIMENSION
  5
7C56
  8
3
  6
CONTINUOUS
  2
*D12
 10
4051.1992167769959
 20
4219.1853159999991
 30
0.0
 11
4301.1992167769959
 21
4369.1853160000001
 31
0.0
 70
     0
  1
MAX\P560
 13
4551.1992167769959
 23
4183.4283029999988
 33
0.0
 14
4051.1992167769959
 24
3992.090095
 34
0.0
1001
ACAD
1000
DSTYLE
1002
{
1070
   287
1070
     4
1070
    40
1040
30.0
1070
    75
1070
     1
1070
   143
1040
0.039
1070
   172
1070
     1
1070
   271
1070
     0
1070
   279
1070
     1
1070
   288
1070
     1
1002
}
  0
DIMENSION
  5
7C63
  8
3
  6
CONTINUOUS
  2
*D13
 10
4551.1992167769959
 20
2377.2468949999989
 30
0.0
 11
4285.1135837769971
 21
2377.2468949999989
 31
0.0
 70
   128
 13
3993.1992167769959
 23
2626.090095
 33
0.0
 14
4551.1992167769959
 24
2449.9316229999999
 34
0.0
1001
ACAD
1000
DSTYLE
1002
{
1070
   287
1070
     3
1070
    40
1040
30.0
1070
   143
1040
0.039
1070
   172
1070
     1
1070
   271
1070
     0
1070
   279
1070
     0
1070
   288
1070
     1
1002
}
  0
DIMENSION
  5
7C6F
  8
3
  6
CONTINUOUS
  2
*D14
 10
4983.1992167769968
 20
2377.2468949999989
 30
0.0
 11
4767.1992167769959
 21
2452.2468950000002
 31
0.0
 70
     0
 13
4551.1992167769959
 23
2449.9316229999999
 33
0.0
 14
4983.1992167769968
 24
2626.090095
 34
0.0
1001
ACAD
1000
DSTYLE
1002
{
1070
   287
1070
     4
1070
    40
1040
30.0
1070
    75
1070
     1
1070
   143
1040
0.039
1070
   172
1070
     1
1070
   271
1070
     0
1070
   279
1070
     1
1070
   288
1070
     1
1002
}
  0
DIMENSION
  5
7C92
  8
3
  6
CONTINUOUS
  2
*D15
 10
3054.0166800000002
 20
6428.7096380000003
 30
0.0
 11
2209.958204
 21
6428.7096380000003
 31
0.0
 70
   128
 13
1454.01668
 23
6277.0251029999999
 33
0.0
 14
3054.0166800000002
 24
6277.0251029999999
 34
0.0
1001
ACAD
1000
DSTYLE
1002
{
1070
   287
1070
     3
1070
    40
1040
30.0
1070
   143
1040
0.039
1070
   172
1070
     1
1070
   271
1070
     0
1070
   279
1070
     0
1070
   288
1070
     1
1002
}
  0
DIMENSION
  5
7C9F
  8
3
  6
CONTINUOUS
  2
*D16
 10
3343.1588959999999
 20
5287.0251029999999
 30
0.0
 11
3343.1588959999999
 21
5782.4018880000003
 31
0.0
 70
   128
 13
3054.0166800000002
 23
6277.0251029999999
 33
0.0
 14
3054.0166800000002
 24
5287.0251029999999
 34
0.0
 50
90.0
1001
ACAD
1000
DSTYLE
1002
{
1070
   287
1070
     3
1070
    40
1040
30.0
1070
   143
1040
0.039
1070
   172
1070
     1
1070
   271
1070
     0
1070
   279
1070
     0
1070
   288
1070
     1
1002
}
  0
DIMENSION
  5
7CEA
  8
3
  6
CONTINUOUS
  2
*D17
 10
1465.7695038040399
 20
4283.1472759999997
 30
0.0
 11
1719.8930919020199
 21
4358.1472759999988
 31
0.0
 70
     0
 13
1974.01668
 23
4169.5715190000001
 33
0.0
 14
1465.7695038040399
 24
3377.0900950000009
 34
0.0
1001
ACAD
1000
DSTYLE
1002
{
1070
   287
1070
     4
1070
    40
1040
30.0
1070
    75
1070
     1
1070
   143
1040
0.039
1070
   172
1070
     1
1070
   271
1070
     0
1070
   279
1070
     1
1070
   288
1070
     1
1002
}
  0
LINE
  5
7D9D
  8
1
 10
1514.01668
 20
3772.0900950000009
 30
0.0
 11
1514.01668
 21
2852.0900950000009
 31
0.0
  0
LINE
  5
7D9E
  8
1
 10
2434.0166800000002
 20
3772.090095
 30
0.0
 11
2434.0166800000002
 21
2852.090095
 31
0.0
  0
LINE
  5
7D9F
  8
1
  6
CONTINUOUS
 10
1514.01668
 20
3772.0900950000009
 30
0.0
 11
2434.0166800000002
 21
3772.090095
 31
0.0
  0
ENDSEC
  0
EOF
