  0
SECTION
  2
HEADER
  9
$ACADVER
  1
AC1009
  9
$INSBASE
 10
0.0
 20
0.0
 30
0.0
  9
$EXTMIN
 10
750.0
 20
900.0
 30
0.0
  9
$EXTMAX
 10
5550.0
 20
8359.9567849999985
 30
0.0
  9
$LIMMIN
 10
0.0
 20
0.0
  9
$LIMMAX
 10
297.0
 20
210.0
  9
$ORTHOMODE
 70
     0
  9
$REGENMODE
 70
     1
  9
$FILLMODE
 70
     0
  9
$QTEXTMODE
 70
     0
  9
$MIRRTEXT
 70
     1
  9
$DRAGMODE
 70
     2
  9
$LTSCALE
 40
100.0
  9
$OSMODE
 70
    37
  9
$ATTMODE
 70
     1
  9
$TEXTSIZE
 40
180.0
  9
$TRACEWID
 40
0.05
  9
$TEXTSTYLE
  7
STANDARD
  9
$CLAYER
  8
3
  9
$CELTYPE
  6
BYLAYER
  9
$CECOLOR
 62
   256
  9
$DIMSCALE
 40
30.0
  9
$DIMASZ
 40
2.0
  9
$DIMEXO
 40
0.5
  9
$DIMDLI
 40
10.0
  9
$DIMRND
 40
0.0
  9
$DIMDLE
 40
0.0
  9
$DIMEXE
 40
1.0
  9
$DIMTP
 40
1.0
  9
$DIMTM
 40
1.0
  9
$DIMTXT
 40
3.0
  9
$DIMCEN
 40
0.0
  9
$DIMTSZ
 40
0.0
  9
$DIMTOL
 70
     0
  9
$DIMLIM
 70
     0
  9
$DIMTIH
 70
     0
  9
$DIMTOH
 70
     0
  9
$DIMSE1
 70
     0
  9
$DIMSE2
 70
     0
  9
$DIMTAD
 70
     1
  9
$DIMZIN
 70
     8
  9
$DIMBLK
  1

  9
$DIMASO
 70
     1
  9
$DIMSHO
 70
     1
  9
$DIMPOST
  1

  9
$DIMAPOST
  1

  9
$DIMALT
 70
     0
  9
$DIMALTD
 70
     2
  9
$DIMALTF
 40
0.039
  9
$DIMLFAC
 40
1.0
  9
$DIMTOFL
 70
     1
  9
$DIMTVP
 40
0.0
  9
$DIMTIX
 70
     0
  9
$DIMSOXD
 70
     0
  9
$DIMSAH
 70
     1
  9
$DIMBLK1
  1
OPEN
  9
$DIMBLK2
  1
OPEN
  9
$DIMSTYLE
  2
IGA
  9
$DIMCLRD
 70
     0
  9
$DIMCLRE
 70
     0
  9
$DIMCLRT
 70
     0
  9
$DIMTFAC
 40
10.0
  9
$DIMGAP
 40
1.0
  9
$LUNITS
 70
     2
  9
$LUPREC
 70
     3
  9
$SKETCHINC
 40
0.1
  9
$FILLETRAD
 40
50.0
  9
$AUNITS
 70
     0
  9
$AUPREC
 70
     0
  9
$MENU
  1
acad
  9
$ELEVATION
 40
0.0
  9
$PELEVATION
 40
0.0
  9
$THICKNESS
 40
0.0
  9
$LIMCHECK
 70
     0
  9
$BLIPMODE
 70
     0
  9
$CHAMFERA
 40
0.5
  9
$CHAMFERB
 40
0.5
  9
$SKPOLY
 70
     0
  9
$TDCREATE
 40
2450744.4794396991
  9
$TDUPDATE
 40
2454953.7725226041
  9
$TDINDWG
 40
0.0050923843
  9
$TDUSRTIMER
 40
0.0050923843
  9
$USRTIMER
 70
     1
  9
$ANGBASE
 50
0.0
  9
$ANGDIR
 70
     0
  9
$PDMODE
 70
     0
  9
$PDSIZE
 40
0.0
  9
$PLINEWID
 40
0.0
  9
$COORDS
 70
     1
  9
$SPLFRAME
 70
     0
  9
$SPLINETYPE
 70
     6
  9
$SPLINESEGS
 70
     8
  9
$ATTDIA
 70
     0
  9
$ATTREQ
 70
     1
  9
$HANDLING
 70
 10241
  9
$HANDSEED
  5
7E28
  9
$SURFTAB1
 70
     6
  9
$SURFTAB2
 70
     6
  9
$SURFTYPE
 70
     6
  9
$SURFU
 70
     6
  9
$SURFV
 70
     6
  9
$UCSNAME
  2

  9
$UCSORG
 10
0.0
 20
0.0
 30
0.0
  9
$UCSXDIR
 10
1.0
 20
0.0
 30
0.0
  9
$UCSYDIR
 10
0.0
 20
1.0
 30
0.0
  9
$PUCSNAME
  2

  9
$PUCSORG
 10
0.0
 20
0.0
 30
0.0
  9
$PUCSXDIR
 10
1.0
 20
0.0
 30
0.0
  9
$PUCSYDIR
 10
0.0
 20
1.0
 30
0.0
  9
$USERI1
 70
     0
  9
$USERI2
 70
     0
  9
$USERI3
 70
     0
  9
$USERI4
 70
     0
  9
$USERI5
 70
     0
  9
$USERR1
 40
0.0
  9
$USERR2
 40
0.0
  9
$USERR3
 40
0.0
  9
$USERR4
 40
0.0
  9
$USERR5
 40
0.0
  9
$WORLDVIEW
 70
     1
  9
$SHADEDGE
 70
     3
  9
$SHADEDIF
 70
    70
  9
$TILEMODE
 70
     1
  9
$MAXACTVP
 70
    16
  9
$PLIMCHECK
 70
     0
  9
$PEXTMIN
 10
1.0000000000000000E+020
 20
1.0000000000000000E+020
 30
1.0000000000000000E+020
  9
$PEXTMAX
 10
-1.0000000000000000E+020
 20
-1.0000000000000000E+020
 30
-1.0000000000000000E+020
  9
$PLIMMIN
 10
0.0
 20
0.0
  9
$PLIMMAX
 10
12.0
 20
9.0
  9
$UNITMODE
 70
     0
  9
$VISRETAIN
 70
     0
  9
$PLINEGEN
 70
     0
  9
$PSLTSCALE
 70
     1
  0
ENDSEC
  0
SECTION
  2
TABLES
  0
TABLE
  2
VPORT
 70
     2
  0
VPORT
  2
*ACTIVE
 70
     0
 10
0.0
 20
0.0
 11
1.0
 21
1.0
 12
9438.4567678319436
 22
4630.0975558305709
 13
0.0
 23
0.0
 14
10.0
 24
10.0
 15
10.0
 25
10.0
 16
0.0
 26
0.0
 36
1.0
 17
0.0
 27
0.0
 37
0.0
 40
7517.4747125171307
 41
3.1666666666666661
 42
50.0
 43
0.0
 44
0.0
 50
0.0
 51
0.0
 71
     0
 72
   100
 73
     1
 74
     0
 75
     0
 76
     0
 77
     0
 78
     0
  0
ENDTAB
  0
TABLE
  2
LTYPE
 70
     2
  0
LTYPE
  2
CONTINUOUS
 70
     0
  3
Solid line
 72
    65
 73
     0
 40
0.0
  0
LTYPE
  2
CENTER
 70
     0
  3
____ _ ____ _ ____ _ ____ _ ____ _ ____ _ ____ 
 72
    65
 73
     4
 40
2.0
 49
1.25
 49
-0.25
 49
0.25
 49
-0.25
  0
ENDTAB
  0
TABLE
  2
LAYER
 70
     6
  0
LAYER
  2
0
 70
     0
 62
     7
  6
CONTINUOUS
  0
LAYER
  2
3
 70
     0
 62
     2
  6
CONTINUOUS
  0
LAYER
  2
2
 70
     0
 62
     3
  6
CENTER
  0
LAYER
  2
1
 70
     0
 62
     4
  6
CONTINUOUS
  0
LAYER
  2
4
 70
     0
 62
     7
  6
CONTINUOUS
  0
LAYER
  2
DEFPOINTS
 70
     0
 62
     7
  6
CONTINUOUS
  0
ENDTAB
  0
TABLE
  2
STYLE
 70
     1
  0
STYLE
  2
STANDARD
 70
     0
 40
0.0
 41
1.0
 50
0.0
 71
     0
 42
180.0
  3
simplex.shx
  4
extfont.shx
  0
ENDTAB
  0
TABLE
  2
VIEW
 70
     0
  0
ENDTAB
  0
TABLE
  2
UCS
 70
     0
  0
ENDTAB
  0
TABLE
  2
APPID
 70
     1
  0
APPID
  2
ACAD
 70
     0
  0
ENDTAB
  0
TABLE
  2
DIMSTYLE
 70
     1
  0
DIMSTYLE
  2
IGA
 70
     0
  3

  4

  5

  6
OPEN
  7
OPEN
 40
2.0
 41
2.0
 42
0.5
 43
10.0
 44
1.0
 45
0.0
 46
0.0
 47
1.0
 48
1.0
140
3.0
141
0.0
142
0.0
143
0.03937
144
1.0
145
0.0
146
10.0
147
1.0
 71
     0
 72
     0
 73
     0
 74
     0
 75
     0
 76
     0
 77
     1
 78
     8
170
     0
171
     2
172
     0
173
     1
174
     0
175
     0
176
     0
177
     0
178
     0
  0
ENDTAB
  0
ENDSEC
  0
SECTION
  2
BLOCKS
  0
BLOCK
  8
0
  2
$MODEL_SPACE
 70
     0
 10
0.0
 20
0.0
 30
0.0
  3
$MODEL_SPACE
  1

  0
ENDBLK
  5
1B
  8
0
  0
BLOCK
 67
     1
  8
0
  2
$PAPER_SPACE
 70
     0
 10
0.0
 20
0.0
 30
0.0
  3
$PAPER_SPACE
  1

  0
ENDBLK
  5
18
 67
     1
  8
0
  0
BLOCK
  8
0
  2
_OPEN
 70
     0
 10
0.0
 20
0.0
 30
0.0
  3
_OPEN
  1

  0
LINE
  5
7B9A
  8
0
  6
BYBLOCK
 62
     0
 10
-1.0
 20
0.166667
 30
0.0
 11
0.0
 21
0.0
 31
0.0
  0
LINE
  5
7B9B
  8
0
  6
BYBLOCK
 62
     0
 10
0.0
 20
0.0
 30
0.0
 11
-1.0
 21
-0.166667
 31
0.0
  0
LINE
  5
7B9C
  8
0
  6
BYBLOCK
 62
     0
 10
0.0
 20
0.0
 30
0.0
 11
-1.0
 21
0.0
 31
0.0
  0
ENDBLK
  5
7B9D
  8
0
  0
BLOCK
  8
0
  2
*D1
 70
     1
 10
0.0
 20
0.0
 30
0.0
  3
*D1
  1

  0
LINE
  5
7D80
  8
3
  6
CONTINUOUS
 62
     0
 10
1563.663045
 20
3891.681732
 30
0.0
 11
1448.0983349999999
 21
3891.681732
 31
0.0
  0
LINE
  5
7D81
  8
3
  6
CONTINUOUS
 62
     0
 10
1563.663045
 20
3161.6817319999991
 30
0.0
 11
1448.0983349999999
 21
3161.6817319999991
 31
0.0
  0
LINE
  5
7D82
  8
3
  6
CONTINUOUS
 62
     0
 10
1478.0983349999999
 20
3831.6817319999991
 30
0.0
 11
1478.0983349999999
 21
3221.681732
 31
0.0
  0
INSERT
  5
7D83
  8
3
  6
CONTINUOUS
 62
     0
  2
_OPEN
 10
1478.0983349999999
 20
3891.681732
 30
0.0
 41
60.0
 42
60.0
 43
60.0
 50
90.0
  0
INSERT
  5
7D84
  8
3
  6
CONTINUOUS
 62
     0
  2
_OPEN
 10
1478.0983349999999
 20
3161.6817319999991
 30
0.0
 41
60.0
 42
60.0
 43
60.0
 50
270.0
  0
TEXT
  8
3
  40
90
  5
7E16
  62
0
  72
0
  71
0
 10
1223.10
 20
3374.39
 30
0.000000
  1
730
  0
POINT
  5
7D86
  8
DEFPOINTS
  6
CONTINUOUS
 62
     0
 10
1578.663045
 20
3891.681732
 30
0.0
  0
POINT
  5
7D87
  8
DEFPOINTS
  6
CONTINUOUS
 62
     0
 10
1578.663045
 20
3161.6817319999991
 30
0.0
  0
POINT
  5
7D88
  8
DEFPOINTS
  6
CONTINUOUS
 62
     0
 10
1478.0983349999999
 20
3161.6817319999991
 30
0.0
  0
ENDBLK
  5
7BAA
  8
0
  0
BLOCK
  8
0
  2
*D2
 70
     1
 10
0.0
 20
0.0
 30
0.0
  3
*D2
  1

  0
LINE
  5
7D89
  8
3
  6
CONTINUOUS
 62
     0
 10
1563.663045
 20
3891.681732
 30
0.0
 11
1264.7053100000001
 21
3891.681732
 31
0.0
  0
LINE
  5
7D8A
  8
3
  6
CONTINUOUS
 62
     0
 10
1460.9575159999999
 20
3195.681732
 30
0.0
 11
1264.7053100000001
 21
3195.681732
 31
0.0
  0
LINE
  5
7D8B
  8
3
  6
CONTINUOUS
 62
     0
 10
1294.7053100000001
 20
3831.6817319999991
 30
0.0
 11
1294.7053100000001
 21
3255.681732
 31
0.0
  0
INSERT
  5
7D8C
  8
3
  6
CONTINUOUS
 62
     0
  2
_OPEN
 10
1294.7053100000001
 20
3891.681732
 30
0.0
 41
60.0
 42
60.0
 43
60.0
 50
90.0
  0
INSERT
  5
7D8D
  8
3
  6
CONTINUOUS
 62
     0
  2
_OPEN
 10
1294.7053100000001
 20
3195.681732
 30
0.0
 41
60.0
 42
60.0
 43
60.0
 50
270.0
  0
TEXT
  8
3
  40
90
  5
7E17
  62
0
  72
0
  71
0
 10
1039.71
 20
3374.39
 30
0.000000
  1
696
  0
POINT
  5
7D8F
  8
DEFPOINTS
  6
CONTINUOUS
 62
     0
 10
1578.663045
 20
3891.681732
 30
0.0
  0
POINT
  5
7D90
  8
DEFPOINTS
  6
CONTINUOUS
 62
     0
 10
1475.9575159999999
 20
3195.681732
 30
0.0
  0
POINT
  5
7D91
  8
DEFPOINTS
  6
CONTINUOUS
 62
     0
 10
1294.7053100000001
 20
3195.681732
 30
0.0
  0
ENDBLK
  5
7BB7
  8
0
  0
BLOCK
  8
0
  2
*D3
 70
     1
 10
0.0
 20
0.0
 30
0.0
  3
*D3
  1

  0
LINE
  5
7D92
  8
3
  6
CONTINUOUS
 62
     0
 10
1628.663045
 20
2570.681732
 30
0.0
 11
1264.7053100000001
 21
2570.681732
 31
0.0
  0
LINE
  5
7D93
  8
3
  6
CONTINUOUS
 62
     0
 10
1294.7053100000001
 20
3135.681732
 30
0.0
 11
1294.7053100000001
 21
2630.681732
 31
0.0
  0
INSERT
  5
7D94
  8
3
  6
CONTINUOUS
 62
     0
  2
_OPEN
 10
1294.7053100000001
 20
3195.681732
 30
0.0
 41
60.0
 42
60.0
 43
60.0
 50
90.0
  0
INSERT
  5
7D95
  8
3
  6
CONTINUOUS
 62
     0
  2
_OPEN
 10
1294.7053100000001
 20
2570.681732
 30
0.0
 41
60.0
 42
60.0
 43
60.0
 50
270.0
  0
TEXT
  8
3
  40
90
  5
7E18
  62
0
  72
0
  71
0
 10
1039.71
 20
2723.88
 30
0.000000
  1
625
  0
POINT
  5
7D97
  8
DEFPOINTS
  6
CONTINUOUS
 62
     0
 10
1475.9575159999999
 20
3195.681732
 30
0.0
  0
POINT
  5
7D98
  8
DEFPOINTS
  6
CONTINUOUS
 62
     0
 10
1643.663045
 20
2570.681732
 30
0.0
  0
POINT
  5
7D99
  8
DEFPOINTS
  6
CONTINUOUS
 62
     0
 10
1294.7053100000001
 20
2570.681732
 30
0.0
  0
ENDBLK
  5
7BC3
  8
0
  0
BLOCK
  8
0
  2
*D4
 70
     1
 10
0.0
 20
0.0
 30
0.0
  3
*D4
  1

  0
LINE
  5
7D9A
  8
3
  6
CONTINUOUS
 62
     0
 10
1628.663045
 20
2570.681732
 30
0.0
 11
1266.194162
 21
2570.681732
 31
0.0
  0
LINE
  5
7D9B
  8
3
  6
CONTINUOUS
 62
     0
 10
1578.663045
 20
2444.681732
 30
0.0
 11
1266.194162
 21
2444.681732
 31
0.0
  0
LINE
  5
7D9C
  8
3
  6
CONTINUOUS
 62
     0
 10
1296.194162
 20
2630.681732
 30
0.0
 11
1296.194162
 21
2690.681732
 31
0.0
  0
LINE
  5
7D9D
  8
3
  6
CONTINUOUS
 62
     0
 10
1296.194162
 20
2384.681732
 30
0.0
 11
1296.194162
 21
2054.681732
 31
0.0
  0
LINE
  5
7D9E
  8
3
  6
CONTINUOUS
 62
     0
 10
1296.194162
 20
2570.681732
 30
0.0
 11
1296.194162
 21
2444.681732
 31
0.0
  0
INSERT
  5
7D9F
  8
3
  6
CONTINUOUS
 62
     0
  2
_OPEN
 10
1296.194162
 20
2570.681732
 30
0.0
 41
60.0
 42
60.0
 43
60.0
 50
270.0
  0
INSERT
  5
7DA0
  8
3
  6
CONTINUOUS
 62
     0
  2
_OPEN
 10
1296.194162
 20
2444.681732
 30
0.0
 41
60.0
 42
60.0
 43
60.0
 50
90.0
  0
TEXT
  8
3
  40
90
  5
7E19
  62
0
  72
0
  71
0
 10
1041.19
 20
2030.38
 30
0.000000
  1
126
  0
POINT
  5
7DA2
  8
DEFPOINTS
  6
CONTINUOUS
 62
     0
 10
1643.663045
 20
2570.681732
 30
0.0
  0
POINT
  5
7DA3
  8
DEFPOINTS
  6
CONTINUOUS
 62
     0
 10
1593.663045
 20
2444.681732
 30
0.0
  0
POINT
  5
7DA4
  8
DEFPOINTS
  6
CONTINUOUS
 62
     0
 10
1296.194162
 20
2444.681732
 30
0.0
  0
ENDBLK
  5
7D4A
  8
0
  0
BLOCK
  8
0
  2
*D5
 70
     1
 10
0.0
 20
0.0
 30
0.0
  3
*D5
  1

  0
LINE
  5
7DA5
  8
3
  6
CONTINUOUS
 62
     0
 10
1578.663045
 20
3946.681732
 30
0.0
 11
1578.663045
 21
4075.7400670000002
 31
0.0
  0
LINE
  5
7DA6
  8
3
  6
CONTINUOUS
 62
     0
 10
2113.6630449999998
 20
4000.3579439999999
 30
0.0
 11
2113.6630449999998
 21
4075.7400670000002
 31
0.0
  0
LINE
  5
7DA7
  8
3
  6
CONTINUOUS
 62
     0
 10
1638.663045
 20
4045.7400670000002
 30
0.0
 11
2053.6630449999989
 21
4045.7400670000002
 31
0.0
  0
INSERT
  5
7DA8
  8
3
  6
CONTINUOUS
 62
     0
  2
_OPEN
 10
1578.663045
 20
4045.7400670000002
 30
0.0
 41
60.0
 42
60.0
 43
60.0
 50
180.0
  0
INSERT
  5
7DA9
  8
3
  6
CONTINUOUS
 62
     0
  2
_OPEN
 10
2113.6630449999998
 20
4045.7400670000002
 30
0.0
 41
60.0
 42
60.0
 43
60.0
  0
TEXT
  8
3
  40
90
  5
7E1A
  62
0
  72
0
  71
0
 10
1664.88
 20
3961.44
 30
0.000000
  1
535
  0
POINT
  5
7DAB
  8
DEFPOINTS
  6
CONTINUOUS
 62
     0
 10
1578.663045
 20
3931.6817319999991
 30
0.0
  0
POINT
  5
7DAC
  8
DEFPOINTS
  6
CONTINUOUS
 62
     0
 10
2113.6630449999998
 20
3985.3579439999999
 30
0.0
  0
POINT
  5
7DAD
  8
DEFPOINTS
  6
CONTINUOUS
 62
     0
 10
2113.6630449999998
 20
4045.7400670000002
 30
0.0
  0
ENDBLK
  5
7BE0
  8
0
  0
BLOCK
  8
0
  2
*D6
 70
     1
 10
0.0
 20
0.0
 30
0.0
  3
*D6
  1

  0
LINE
  5
7DAE
  8
3
  6
CONTINUOUS
 62
     0
 10
1563.663045
 20
3931.6817319999991
 30
0.0
 11
1099.3772980000001
 21
3931.6817319999991
 31
0.0
  0
LINE
  5
7DAF
  8
3
  6
CONTINUOUS
 62
     0
 10
1578.663045
 20
2444.681732
 30
0.0
 11
1099.3772980000001
 21
2444.681732
 31
0.0
  0
LINE
  5
7DB0
  8
3
  6
CONTINUOUS
 62
     0
 10
1129.3772980000001
 20
3871.681732
 30
0.0
 11
1129.3772980000001
 21
2504.681732
 31
0.0
  0
INSERT
  5
7DB1
  8
3
  6
CONTINUOUS
 62
     0
  2
_OPEN
 10
1129.3772980000001
 20
3931.6817319999991
 30
0.0
 41
60.0
 42
60.0
 43
60.0
 50
90.0
  0
INSERT
  5
7DB2
  8
3
  6
CONTINUOUS
 62
     0
  2
_OPEN
 10
1129.3772980000001
 20
2444.681732
 30
0.0
 41
60.0
 42
60.0
 43
60.0
 50
270.0
  0
TEXT
  8
3
  40
90
  5
7E1B
  62
0
  72
0
  71
0
 10
874.377
 20
3094.11
 30
0.000000
  1
1487
  0
POINT
  5
7DB4
  8
DEFPOINTS
  6
CONTINUOUS
 62
     0
 10
1578.663045
 20
3931.6817319999991
 30
0.0
  0
POINT
  5
7DB5
  8
DEFPOINTS
  6
CONTINUOUS
 62
     0
 10
1593.663045
 20
2444.681732
 30
0.0
  0
POINT
  5
7DB6
  8
DEFPOINTS
  6
CONTINUOUS
 62
     0
 10
1129.3772980000001
 20
2444.681732
 30
0.0
  0
ENDBLK
  5
7CD2
  8
0
  0
BLOCK
  8
0
  2
*D7
 70
     1
 10
0.0
 20
0.0
 30
0.0
  3
*D7
  1

  0
LINE
  5
7DB7
  8
3
  6
CONTINUOUS
 62
     0
 10
1593.663045
 20
2429.681732
 30
0.0
 11
1593.663045
 21
2119.427224
 31
0.0
  0
LINE
  5
7DB8
  8
3
  6
CONTINUOUS
 62
     0
 10
2113.6630449999998
 20
2201.7585100000001
 30
0.0
 11
2113.6630449999998
 21
2119.427224
 31
0.0
  0
LINE
  5
7DB9
  8
3
  6
CONTINUOUS
 62
     0
 10
1653.663045
 20
2149.427224
 30
0.0
 11
2053.6630449999989
 21
2149.427224
 31
0.0
  0
INSERT
  5
7DBA
  8
3
  6
CONTINUOUS
 62
     0
  2
_OPEN
 10
1593.663045
 20
2149.427224
 30
0.0
 41
60.0
 42
60.0
 43
60.0
 50
180.0
  0
INSERT
  5
7DBB
  8
3
  6
CONTINUOUS
 62
     0
  2
_OPEN
 10
2113.6630449999998
 20
2149.427224
 30
0.0
 41
60.0
 42
60.0
 43
60.0
  0
TEXT
  8
3
  40
90
  5
7E1C
  62
0
  72
0
  71
0
 10
1664.35
 20
2065.13
 30
0.000000
  1
520
  0
POINT
  5
7DBD
  8
DEFPOINTS
  6
CONTINUOUS
 62
     0
 10
1593.663045
 20
2444.681732
 30
0.0
  0
POINT
  5
7DBE
  8
DEFPOINTS
  6
CONTINUOUS
 62
     0
 10
2113.6630449999998
 20
2216.7585100000001
 30
0.0
  0
POINT
  5
7DBF
  8
DEFPOINTS
  6
CONTINUOUS
 62
     0
 10
2113.6630449999998
 20
2149.427224
 30
0.0
  0
ENDBLK
  5
7CF3
  8
0
  0
BLOCK
  8
0
  2
*D8
 70
     1
 10
0.0
 20
0.0
 30
0.0
  3
*D8
  1

  0
LINE
  5
7DC0
  8
3
  6
CONTINUOUS
 62
     0
 10
3193.6630449999998
 20
2429.681732
 30
0.0
 11
3193.6630449999998
 21
2119.427224
 31
0.0
  0
LINE
  5
7DC1
  8
3
  6
CONTINUOUS
 62
     0
 10
2173.6630449999998
 20
2149.427224
 30
0.0
 11
3133.6630449999998
 21
2149.427224
 31
0.0
  0
INSERT
  5
7DC2
  8
3
  6
CONTINUOUS
 62
     0
  2
_OPEN
 10
2113.6630449999998
 20
2149.427224
 30
0.0
 41
60.0
 42
60.0
 43
60.0
 50
180.0
  0
INSERT
  5
7DC3
  8
3
  6
CONTINUOUS
 62
     0
  2
_OPEN
 10
3193.6630449999998
 20
2149.427224
 30
0.0
 41
60.0
 42
60.0
 43
60.0
  0
TEXT
  8
3
  40
90
  5
7E1D
  62
0
  72
0
  71
0
 10
2473.66
 20
2065.13
 30
0.000000
  1
1080
  0
POINT
  5
7DC5
  8
DEFPOINTS
  6
CONTINUOUS
 62
     0
 10
2113.6630449999998
 20
2216.7585100000001
 30
0.0
  0
POINT
  5
7DC6
  8
DEFPOINTS
  6
CONTINUOUS
 62
     0
 10
3193.6630449999998
 20
2444.681732
 30
0.0
  0
POINT
  5
7DC7
  8
DEFPOINTS
  6
CONTINUOUS
 62
     0
 10
3193.6630449999998
 20
2149.427224
 30
0.0
  0
ENDBLK
  5
7CE8
  8
0
  0
BLOCK
  8
0
  2
*D9
 70
     1
 10
0.0
 20
0.0
 30
0.0
  3
*D9
  1

  0
LINE
  5
7DC8
  8
3
  6
CONTINUOUS
 62
     0
 10
4383.9539260000001
 20
3906.681732
 30
0.0
 11
4383.9539260000001
 21
4027.2303649999999
 31
0.0
  0
LINE
  5
7DC9
  8
3
  6
CONTINUOUS
 62
     0
 10
4913.9539260000001
 20
3906.681732
 30
0.0
 11
4913.9539260000001
 21
4027.2303649999999
 31
0.0
  0
LINE
  5
7DCA
  8
3
  6
CONTINUOUS
 62
     0
 10
4443.9539260000001
 20
3997.2303649999999
 30
0.0
 11
4853.9539260000001
 21
3997.2303649999999
 31
0.0
  0
INSERT
  5
7DCB
  8
3
  6
CONTINUOUS
 62
     0
  2
_OPEN
 10
4383.9539260000001
 20
3997.2303649999999
 30
0.0
 41
60.0
 42
60.0
 43
60.0
 50
180.0
  0
INSERT
  5
7DCC
  8
3
  6
CONTINUOUS
 62
     0
  2
_OPEN
 10
4913.9539260000001
 20
3997.2303649999999
 30
0.0
 41
60.0
 42
60.0
 43
60.0
  0
TEXT
  8
3
  40
90
  5
7E1E
  62
0
  72
0
  71
0
 10
4479.97
 20
3912.93
 30
0.000000
  1
530
  0
POINT
  5
7DCE
  8
DEFPOINTS
  6
CONTINUOUS
 62
     0
 10
4383.9539260000001
 20
3891.681732
 30
0.0
  0
POINT
  5
7DCF
  8
DEFPOINTS
  6
CONTINUOUS
 62
     0
 10
4913.9539260000001
 20
3891.681732
 30
0.0
  0
POINT
  5
7DD0
  8
DEFPOINTS
  6
CONTINUOUS
 62
     0
 10
4913.9539260000001
 20
3997.2303649999999
 30
0.0
  0
ENDBLK
  5
7C1F
  8
0
  0
BLOCK
  8
0
  2
*D10
 70
     1
 10
0.0
 20
0.0
 30
0.0
  3
*D10
  1

  0
LINE
  5
7D34
  8
0
  6
BYBLOCK
 62
     0
 10
4915.9539260000001
 20
3587.681732
 30
0.0
 11
4915.9539260000001
 21
4232.0491119999997
 31
0.0
  0
LINE
  5
7D35
  8
0
  6
BYBLOCK
 62
     0
 10
4648.9539259999992
 20
4169.4900040000002
 30
0.0
 11
4648.9539259999992
 21
4232.0491119999997
 31
0.0
  0
LINE
  5
7D36
  8
0
  6
BYBLOCK
 62
     0
 10
4855.9539260000001
 20
4202.0491119999997
 30
0.0
 11
4708.9539260000001
 21
4202.0491119999997
 31
0.0
  0
TEXT
  5
7D37
  8
3
 62
     0
 10
4687.5349132329538
 20
4249.4480934762569
 30
0.0
 40
90.0
  1
267
  0
INSERT
  5
7D38
  8
0
  6
BYBLOCK
 62
     0
  2
_OPEN
 10
4915.9539260000001
 20
4202.0491119999997
 30
0.0
 41
60.0
 42
60.0
 43
60.0
  0
INSERT
  5
7D39
  8
0
  6
BYBLOCK
 62
     0
  2
_OPEN
 10
4648.9539259999992
 20
4202.0491119999997
 30
0.0
 41
60.0
 42
60.0
 43
60.0
 50
180.0
  0
POINT
  5
7D3A
  8
DEFPOINTS
  6
BYBLOCK
 62
     0
 10
4915.9539260000001
 20
3572.681732
 30
0.0
  0
POINT
  5
7D3B
  8
DEFPOINTS
  6
BYBLOCK
 62
     0
 10
4648.9539259999992
 20
4154.4900040000002
 30
0.0
  0
POINT
  5
7D3C
  8
DEFPOINTS
  6
BYBLOCK
 62
     0
 10
4648.9539259999992
 20
4202.0491119999997
 30
0.0
  0
ENDBLK
  5
7D3D
  8
0
  0
BLOCK
  8
0
  2
*D11
 70
     1
 10
0.0
 20
0.0
 30
0.0
  3
*D11
  1

  0
LINE
  5
7DD1
  8
3
  6
CONTINUOUS
 62
     0
 10
4930.9539260000001
 20
3572.681732
 30
0.0
 11
5191.6024779999998
 21
3572.6817319999991
 31
0.0
  0
LINE
  5
7DD2
  8
3
  6
CONTINUOUS
 62
     0
 10
4930.9539260000001
 20
2818.6817319999991
 30
0.0
 11
5191.6024779999998
 21
2818.6817319999991
 31
0.0
  0
LINE
  5
7DD3
  8
3
  6
CONTINUOUS
 62
     0
 10
5161.6024780000007
 20
3512.6817319999991
 30
0.0
 11
5161.6024780000007
 21
2878.681732
 31
0.0
  0
INSERT
  5
7DD4
  8
3
  6
CONTINUOUS
 62
     0
  2
_OPEN
 10
5161.6024780000007
 20
3572.6817319999991
 30
0.0
 41
60.0
 42
60.0
 43
60.0
 50
90.0
  0
INSERT
  5
7DD5
  8
3
  6
CONTINUOUS
 62
     0
  2
_OPEN
 10
5161.6024780000007
 20
2818.6817319999991
 30
0.0
 41
60.0
 42
60.0
 43
60.0
 50
270.0
  0
TEXT
  8
3
  40
90
  5
7E1F
  62
0
  72
0
  71
0
 10
4906.60
 20
3034.83
 30
0.000000
  1
φ754
  0
POINT
  5
7DD7
  8
DEFPOINTS
  6
CONTINUOUS
 62
     0
 10
4915.9539260000001
 20
3572.681732
 30
0.0
  0
POINT
  5
7DD8
  8
DEFPOINTS
  6
CONTINUOUS
 62
     0
 10
4915.9539260000001
 20
2818.6817319999991
 30
0.0
  0
POINT
  5
7DD9
  8
DEFPOINTS
  6
CONTINUOUS
 62
     0
 10
5161.6024780000007
 20
2818.6817319999991
 30
0.0
  0
ENDBLK
  5
7D27
  8
0
  0
BLOCK
  8
0
  2
*D12
 70
     1
 10
0.0
 20
0.0
 30
0.0
  3
*D12
  1

  0
LINE
  5
7DDA
  8
3
  6
CONTINUOUS
 62
     0
 10
4148.9539259999992
 20
3825.681732
 30
0.0
 11
4148.9539259999992
 21
4232.0491119999997
 31
0.0
  0
LINE
  5
7DDB
  8
3
  6
CONTINUOUS
 62
     0
 10
4588.9539260000001
 20
4202.0491119999997
 30
0.0
 11
4208.9539260000001
 21
4202.0491119999997
 31
0.0
  0
INSERT
  5
7DDC
  8
3
  6
CONTINUOUS
 62
     0
  2
_OPEN
 10
4648.9539259999992
 20
4202.0491119999997
 30
0.0
 41
60.0
 42
60.0
 43
60.0
  0
INSERT
  5
7DDD
  8
3
  6
CONTINUOUS
 62
     0
  2
_OPEN
 10
4148.9539259999992
 20
4202.0491119999997
 30
0.0
 41
60.0
 42
60.0
 43
60.0
 50
180.0
  0
TEXT
  8
3
  40
90
  5
7E20
  62
0
  72
0
  71
0
 10
4218.95
 20
4192.75
 30
0.000000
  1
MAX
  0
TEXT
  8
3
  40
90
  5
7E21
  62
0
  72
0
  71
0
 10
4218.95
 20
4075.75
 30
0.000000
  1
560
  0
POINT
  5
7DDF
  8
DEFPOINTS
  6
CONTINUOUS
 62
     0
 10
4648.9539259999992
 20
4154.4900040000002
 30
0.0
  0
POINT
  5
7DE0
  8
DEFPOINTS
  6
CONTINUOUS
 62
     0
 10
4148.9539259999992
 20
3810.6817319999991
 30
0.0
  0
POINT
  5
7DE1
  8
DEFPOINTS
  6
CONTINUOUS
 62
     0
 10
4148.9539259999992
 20
4202.0491119999997
 30
0.0
  0
ENDBLK
  5
7D1C
  8
0
  0
BLOCK
  8
0
  2
*D13
 70
     1
 10
0.0
 20
0.0
 30
0.0
  3
*D13
  1

  0
LINE
  5
7DE2
  8
3
  6
CONTINUOUS
 62
     0
 10
4090.9539260000001
 20
2429.681732
 30
0.0
 11
4090.9539260000001
 21
2165.1521329999991
 31
0.0
  0
LINE
  5
7DE3
  8
3
  6
CONTINUOUS
 62
     0
 10
4648.9539259999992
 20
2226.7959059999989
 30
0.0
 11
4648.9539259999992
 21
2165.1521329999991
 31
0.0
  0
LINE
  5
7DE4
  8
3
  6
CONTINUOUS
 62
     0
 10
4150.9539260000001
 20
2195.1521329999991
 30
0.0
 11
4588.9539260000001
 21
2195.1521329999991
 31
0.0
  0
INSERT
  5
7DE5
  8
3
  6
CONTINUOUS
 62
     0
  2
_OPEN
 10
4090.9539260000001
 20
2195.1521329999991
 30
0.0
 41
60.0
 42
60.0
 43
60.0
 50
180.0
  0
INSERT
  5
7DE6
  8
3
  6
CONTINUOUS
 62
     0
  2
_OPEN
 10
4648.9539259999992
 20
2195.1521329999991
 30
0.0
 41
60.0
 42
60.0
 43
60.0
  0
TEXT
  8
3
  40
90
  5
7E22
  62
0
  72
0
  71
0
 10
4194.09
 20
2110.85
 30
0.000000
  1
558
  0
POINT
  5
7DE8
  8
DEFPOINTS
  6
CONTINUOUS
 62
     0
 10
4090.9539260000001
 20
2444.681732
 30
0.0
  0
POINT
  5
7DE9
  8
DEFPOINTS
  6
CONTINUOUS
 62
     0
 10
4648.9539259999992
 20
2241.7959059999989
 30
0.0
  0
POINT
  5
7DEA
  8
DEFPOINTS
  6
CONTINUOUS
 62
     0
 10
4648.9539259999992
 20
2195.1521329999991
 30
0.0
  0
ENDBLK
  5
7CFE
  8
0
  0
BLOCK
  8
0
  2
*D14
 70
     1
 10
0.0
 20
0.0
 30
0.0
  3
*D14
  1

  0
LINE
  5
7DEB
  8
3
  6
CONTINUOUS
 62
     0
 10
5080.9539260000001
 20
2429.681732
 30
0.0
 11
5080.9539260000001
 21
2165.1521329999991
 31
0.0
  0
LINE
  5
7DEC
  8
3
  6
CONTINUOUS
 62
     0
 10
4708.9539260000001
 20
2195.1521329999991
 30
0.0
 11
5020.9539260000001
 21
2195.1521329999991
 31
0.0
  0
INSERT
  5
7DED
  8
3
  6
CONTINUOUS
 62
     0
  2
_OPEN
 10
4648.9539259999992
 20
2195.1521329999991
 30
0.0
 41
60.0
 42
60.0
 43
60.0
 50
180.0
  0
INSERT
  5
7DEE
  8
3
  6
CONTINUOUS
 62
     0
  2
_OPEN
 10
5080.9539260000001
 20
2195.1521329999991
 30
0.0
 41
60.0
 42
60.0
 43
60.0
  0
TEXT
  8
3
  40
90
  5
7E23
  62
0
  72
0
  71
0
 10
4684.95
 20
2110.85
 30
0.000000
  1
432
  0
POINT
  5
7DF0
  8
DEFPOINTS
  6
CONTINUOUS
 62
     0
 10
4648.9539259999992
 20
2241.7959059999989
 30
0.0
  0
POINT
  5
7DF1
  8
DEFPOINTS
  6
CONTINUOUS
 62
     0
 10
5080.9539260000001
 20
2444.681732
 30
0.0
  0
POINT
  5
7DF2
  8
DEFPOINTS
  6
CONTINUOUS
 62
     0
 10
5080.9539260000001
 20
2195.1521329999991
 30
0.0
  0
ENDBLK
  5
7D08
  8
0
  0
BLOCK
  8
0
  2
*D15
 70
     1
 10
0.0
 20
0.0
 30
0.0
  3
*D15
  1

  0
LINE
  5
7DF3
  8
3
  6
CONTINUOUS
 62
     0
 10
1593.663045
 20
5929.0798990211306
 30
0.0
 11
1593.663045
 21
6109.815632021131
 31
0.0
  0
LINE
  5
7DF4
  8
3
  6
CONTINUOUS
 62
     0
 10
3193.6630449999998
 20
5929.0798990211306
 30
0.0
 11
3193.6630449999998
 21
6109.815632021131
 31
0.0
  0
LINE
  5
7DF5
  8
3
  6
CONTINUOUS
 62
     0
 10
1653.663045
 20
6079.815632021131
 30
0.0
 11
3133.6630449999998
 21
6079.815632021131
 31
0.0
  0
INSERT
  5
7DF6
  8
3
  6
CONTINUOUS
 62
     0
  2
_OPEN
 10
1593.663045
 20
6079.815632021131
 30
0.0
 41
60.0
 42
60.0
 43
60.0
 50
180.0
  0
INSERT
  5
7DF7
  8
3
  6
CONTINUOUS
 62
     0
  2
_OPEN
 10
3193.6630449999998
 20
6079.815632021131
 30
0.0
 41
60.0
 42
60.0
 43
60.0
  0
TEXT
  8
3
  40
90
  5
7E24
  62
0
  72
0
  71
0
 10
2204.28
 20
5995.52
 30
0.000000
  1
1600
  0
POINT
  5
7DF9
  8
DEFPOINTS
  6
CONTINUOUS
 62
     0
 10
1593.663045
 20
5914.0798990211324
 30
0.0
  0
POINT
  5
7DFA
  8
DEFPOINTS
  6
CONTINUOUS
 62
     0
 10
3193.6630449999998
 20
5914.0798990211324
 30
0.0
  0
POINT
  5
7DFB
  8
DEFPOINTS
  6
CONTINUOUS
 62
     0
 10
3193.6630449999998
 20
6079.815632021131
 30
0.0
  0
ENDBLK
  5
7C85
  8
0
  0
BLOCK
  8
0
  2
*D16
 70
     1
 10
0.0
 20
0.0
 30
0.0
  3
*D16
  1

  0
LINE
  5
7DFC
  8
3
  6
CONTINUOUS
 62
     0
 10
3208.6630449999998
 20
5914.0798990211324
 30
0.0
 11
3449.9070070000012
 21
5914.0798990211324
 31
0.0
  0
LINE
  5
7DFD
  8
3
  6
CONTINUOUS
 62
     0
 10
3208.6630449999998
 20
4924.0798990211324
 30
0.0
 11
3449.9070070000012
 21
4924.0798990211324
 31
0.0
  0
LINE
  5
7DFE
  8
3
  6
CONTINUOUS
 62
     0
 10
3419.9070070000012
 20
5854.0798990211306
 30
0.0
 11
3419.9070069999998
 21
4984.0798990211324
 31
0.0
  0
INSERT
  5
7DFF
  8
3
  6
CONTINUOUS
 62
     0
  2
_OPEN
 10
3419.9070070000012
 20
5914.0798990211324
 30
0.0
 41
60.0
 42
60.0
 43
60.0
 50
90.0
  0
INSERT
  5
7E00
  8
3
  6
CONTINUOUS
 62
     0
  2
_OPEN
 10
3419.9070069999998
 20
4924.0798990211324
 30
0.0
 41
60.0
 42
60.0
 43
60.0
 50
270.0
  0
TEXT
  8
3
  40
90
  5
7E25
  62
0
  72
0
  71
0
 10
3164.91
 20
5289.89
 30
0.000000
  1
990
  0
POINT
  5
7E02
  8
DEFPOINTS
  6
CONTINUOUS
 62
     0
 10
3193.6630449999998
 20
5914.0798990211324
 30
0.0
  0
POINT
  5
7E03
  8
DEFPOINTS
  6
CONTINUOUS
 62
     0
 10
3193.6630449999998
 20
4924.0798990211324
 30
0.0
  0
POINT
  5
7E04
  8
DEFPOINTS
  6
CONTINUOUS
 62
     0
 10
3419.9070069999998
 20
4924.0798990211324
 30
0.0
  0
ENDBLK
  5
7C92
  8
0
  0
BLOCK
  8
0
  2
*D17
 70
     1
 10
0.0
 20
0.0
 30
0.0
  3
*D17
  1

  0
LINE
  5
7E05
  8
3
  6
CONTINUOUS
 62
     0
 10
2699.6605709999999
 20
3210.6817319999991
 30
0.0
 11
2699.6605709999999
 21
4075.7400670000002
 31
0.0
  0
LINE
  5
7E06
  8
3
  6
CONTINUOUS
 62
     0
 10
2173.6630449999998
 20
4045.7400670000002
 30
0.0
 11
2639.6605709999999
 21
4045.7400670000002
 31
0.0
  0
INSERT
  5
7E07
  8
3
  6
CONTINUOUS
 62
     0
  2
_OPEN
 10
2113.6630449999998
 20
4045.7400670000002
 30
0.0
 41
60.0
 42
60.0
 43
60.0
 50
180.0
  0
INSERT
  5
7E08
  8
3
  6
CONTINUOUS
 62
     0
  2
_OPEN
 10
2699.6605709999999
 20
4045.7400670000002
 30
0.0
 41
60.0
 42
60.0
 43
60.0
  0
TEXT
  8
3
  40
90
  5
7E26
  62
0
  72
0
  71
0
 10
2226.66
 20
3961.44
 30
0.000000
  1
586
  0
POINT
  5
7E0A
  8
DEFPOINTS
  6
CONTINUOUS
 62
     0
 10
2113.6630449999998
 20
3985.3579439999999
 30
0.0
  0
POINT
  5
7E0B
  8
DEFPOINTS
  6
CONTINUOUS
 62
     0
 10
2699.6605709999999
 20
3195.681732
 30
0.0
  0
POINT
  5
7E0C
  8
DEFPOINTS
  6
CONTINUOUS
 62
     0
 10
2699.6605709999999
 20
4045.7400670000002
 30
0.0
  0
ENDBLK
  5
7CDD
  8
0
  0
BLOCK
  8
0
  2
*D18
 70
     1
 10
0.0
 20
0.0
 30
0.0
  3
*D18
  1

  0
LINE
  5
7E0D
  8
3
 62
     0
 10
1578.663045
 20
3946.681732
 30
0.0
 11
1578.663045
 21
4257.3212098423719
 31
0.0
  0
LINE
  5
7E0E
  8
3
 62
     0
 10
3193.6630449999998
 20
2559.681732
 30
0.0
 11
3193.6630449999998
 21
4257.3212098423719
 31
0.0
  0
LINE
  5
7E0F
  8
3
 62
     0
 10
1638.663045
 20
4227.321209842371
 30
0.0
 11
3133.6630449999998
 21
4227.321209842371
 31
0.0
  0
INSERT
  5
7E10
  8
3
 62
     0
  2
_OPEN
 10
1578.663045
 20
4227.321209842371
 30
0.0
 41
60.0
 42
60.0
 43
60.0
 50
180.0
  0
INSERT
  5
7E11
  8
3
 62
     0
  2
_OPEN
 10
3193.6630449999998
 20
4227.321209842371
 30
0.0
 41
60.0
 42
60.0
 43
60.0
  0
TEXT
  8
3
  40
90
  5
7E27
  62
0
  72
0
  71
0
 10
2124.07
 20
4143.02
 30
0.000000
  1
1615
  0
POINT
  5
7E13
  8
DEFPOINTS
 62
     0
 10
1578.663045
 20
3931.6817319999991
 30
0.0
  0
POINT
  5
7E14
  8
DEFPOINTS
 62
     0
 10
3193.6630449999998
 20
2544.681732
 30
0.0
  0
POINT
  5
7E15
  8
DEFPOINTS
 62
     0
 10
3193.6630449999998
 20
4227.321209842371
 30
0.0
  0
ENDBLK
  5
7D56
  8
0
  0
ENDSEC
  0
SECTION
  2
ENTITIES
  0
LINE
  5
7ABC
  8
1
  6
CONTINUOUS
 10
2701.403045
 20
5747.0798990211306
 30
0.0
 11
2701.403045
 21
5217.0798990211324
 31
0.0
  0
LINE
  5
7ABD
  8
1
  6
CONTINUOUS
 10
1578.663045
 20
5787.0798990211306
 30
0.0
 11
1578.663045
 21
5177.0798990211324
 31
0.0
  0
LINE
  5
7ABE
  8
1
  6
CONTINUOUS
 10
3193.6630449999998
 20
5914.0798990211324
 30
0.0
 11
3193.6630449999998
 21
4924.0798990211324
 31
0.0
  0
LINE
  5
7ABF
  8
1
  6
CONTINUOUS
 10
3153.6630449999998
 20
5914.0798990211324
 30
0.0
 11
3153.6630449999998
 21
4924.0798990211324
 31
0.0
  0
LINE
  5
7AC5
  8
1
  6
CONTINUOUS
 10
1593.663045
 20
2544.681732
 30
0.0
 11
3193.6630449999998
 21
2544.681732
 31
0.0
  0
LINE
  5
7AC6
  8
1
  6
CONTINUOUS
 10
1593.663045
 20
2444.681732
 30
0.0
 11
3193.6630449999998
 21
2444.681732
 31
0.0
  0
LINE
  5
7AC7
  8
1
  6
CONTINUOUS
 10
1743.6630449999991
 20
5122.0798990211306
 30
0.0
 11
3103.6630449999989
 21
5122.0798990211306
 31
0.0
  0
LINE
  5
7AC8
  8
1
  6
CONTINUOUS
 10
1743.6630449999991
 20
3810.6817319999991
 30
0.0
 11
2263.6630449999989
 21
3810.6817319999991
 31
0.0
  0
LINE
  5
7AC9
  8
1
  6
CONTINUOUS
 10
1743.6630449999991
 20
4982.0798990211306
 30
0.0
 11
3103.6630449999989
 21
4982.0798990211306
 31
0.0
  0
LINE
  5
7ACA
  8
1
  6
CONTINUOUS
 10
1578.663045
 20
5217.0798990211324
 30
0.0
 11
2701.403045
 21
5217.0798990211324
 31
0.0
  0
LINE
  5
7ACB
  8
1
  6
CONTINUOUS
 10
1633.663045
 20
5039.0798990211324
 30
0.0
 11
1963.663045
 21
5039.0798990211324
 31
0.0
  0
LINE
  5
7ACC
  8
1
  6
CONTINUOUS
 10
1643.663045
 20
2570.681732
 30
0.0
 11
3143.6630449999998
 21
2570.681732
 31
0.0
  0
ARC
  5
7ACD
  8
1
  6
CONTINUOUS
 10
2143.6630449999989
 20
3165.681732
 30
0.0
 40
478.79000000000002
 50
180.47999999999999
 51
262.56999999999999
  0
LINE
  5
7ACE
  8
1
  6
CONTINUOUS
 10
1578.663045
 20
3891.681732
 30
0.0
 11
2113.6630449999998
 21
3875.681732
 31
0.0
  0
LINE
  5
7ACF
  8
1
  6
CONTINUOUS
 10
1631.663045
 20
2670.681732
 30
0.0
 11
3143.6630449999998
 21
2670.681732
 31
0.0
  0
LINE
  5
7AD0
  8
1
  6
CONTINUOUS
 10
1631.663045
 20
3677.6817319999991
 30
0.0
 11
2595.6630449999998
 21
3677.6817319999991
 31
0.0
  0
LINE
  5
7AD2
  8
1
  6
CONTINUOUS
 10
1593.663045
 20
2544.681732
 30
0.0
 11
1593.663045
 21
2444.681732
 31
0.0
  0
LINE
  5
7AD3
  8
1
  6
CONTINUOUS
 10
1743.6630449999991
 20
2670.681732
 30
0.0
 11
1743.6630449999991
 21
3810.6817319999991
 31
0.0
  0
LINE
  5
7AD4
  8
1
  6
CONTINUOUS
 10
1643.663045
 20
2670.681732
 30
0.0
 11
1643.663045
 21
2570.681732
 31
0.0
  0
LINE
  5
7AD5
  8
1
  6
CONTINUOUS
 10
1608.663045
 20
3161.6817319999991
 30
0.0
 11
1608.663045
 21
3890.7817319999999
 31
0.0
  0
LINE
  5
7AD6
  8
1
  6
CONTINUOUS
 10
1631.663045
 20
3677.6817319999991
 30
0.0
 11
1631.663045
 21
2670.681732
 31
0.0
  0
LINE
  5
7AD7
  8
1
  6
CONTINUOUS
 10
1578.663045
 20
3121.681732
 30
0.0
 11
1578.663045
 21
3931.6817319999991
 31
0.0
  0
LINE
  5
7AD8
  8
1
  6
CONTINUOUS
 10
1664.893045
 20
3161.6817319999991
 30
0.0
 11
1578.663045
 21
3161.6817319999991
 31
0.0
  0
LINE
  5
7AD9
  8
1
  6
CONTINUOUS
 10
1743.6630449999991
 20
4982.0798990211306
 30
0.0
 11
1743.6630449999991
 21
5122.0798990211306
 31
0.0
  0
LINE
  5
7ADA
  8
1
  6
CONTINUOUS
 10
1633.663045
 20
4924.0798990211324
 30
0.0
 11
1593.663045
 21
4924.0798990211324
 31
0.0
  0
LINE
  5
7ADB
  8
1
  6
CONTINUOUS
 10
1633.663045
 20
5217.0798990211324
 30
0.0
 11
1633.663045
 21
4924.0798990211324
 31
0.0
  0
LINE
  5
7ADC
  8
1
  6
CONTINUOUS
 10
1593.663045
 20
5217.0798990211324
 30
0.0
 11
1593.663045
 21
4924.0798990211324
 31
0.0
  0
ARC
  5
7ADD
  8
1
  6
CONTINUOUS
 10
2152.6630449999998
 20
3234.681732
 30
0.0
 40
548.36999999999989
 50
262.56999999999999
 51
354.68999999999988
  0
LINE
  5
7ADF
  8
1
  6
CONTINUOUS
 10
3193.6630449999998
 20
2544.681732
 30
0.0
 11
3193.6630449999998
 21
2444.681732
 31
0.0
  0
ARC
  5
7AE4
  8
1
  6
CONTINUOUS
 10
2066.6630449999989
 20
3242.6817319999991
 30
0.0
 40
634.74000000000001
 50
354.68999999999988
 51
85.750000000000014
  0
LINE
  5
7AE5
  8
1
  6
CONTINUOUS
 10
2263.6630449999989
 20
3810.6817319999991
 30
0.0
 11
3103.6630449999989
 21
2970.681732
 31
0.0
  0
LINE
  5
7AE6
  8
1
  6
CONTINUOUS
 10
2069.2230449999988
 20
3052.411732
 30
0.0
 11
2901.4330450000002
 21
2794.2717320000002
 31
0.0
  0
LINE
  5
7AE7
  8
1
  6
CONTINUOUS
 10
2180.4030449999991
 20
3330.0117319999999
 30
0.0
 11
2960.733044999999
 21
2942.321731999999
 31
0.0
  0
CIRCLE
  5
7AE8
  8
1
  6
CONTINUOUS
 10
2113.6630449999998
 20
3195.681732
 30
0.0
 40
150.0
  0
LINE
  5
7AE9
  8
1
  6
CONTINUOUS
 10
2595.6630449999998
 20
3677.6817319999991
 30
0.0
 11
2595.6630449999998
 21
2670.681732
 31
0.0
  0
LINE
  5
7AEA
  8
2
  6
CENTER
 10
2113.6630449999998
 20
5967.8316080211307
 30
0.0
 11
2113.6630449999998
 21
4878.4638010211311
 31
0.0
  0
LINE
  5
7AEB
  8
2
  6
CENTER
 10
1475.9575159999999
 20
3195.681732
 30
0.0
 11
3155.3245529999999
 21
3195.681732
 31
0.0
  0
LINE
  5
7AEC
  8
1
  6
CONTINUOUS
 10
3103.6630449999989
 20
2670.681732
 30
0.0
 11
3103.6630449999989
 21
2970.681732
 31
0.0
  0
CIRCLE
  5
7AED
  8
1
  6
CONTINUOUS
 10
2925.1430449999998
 20
2870.6817319999991
 30
0.0
 40
80.0
  0
ARC
  5
7AEE
  8
1
  6
CONTINUOUS
 10
2925.1430449999998
 20
2870.6817319999991
 30
0.0
 40
162.0
 50
324.97000000000003
 51
215.02999999999989
  0
LINE
  5
7AEF
  8
1
  6
CONTINUOUS
 10
3079.1430449999998
 20
2728.681732
 30
0.0
 11
3057.7930449999999
 21
2777.6917319999998
 31
0.0
  0
LINE
  5
7AF0
  8
1
  6
CONTINUOUS
 10
3079.1430449999998
 20
2670.681732
 30
0.0
 11
3079.1430449999998
 21
2728.681732
 31
0.0
  0
LINE
  5
7AF1
  8
2
  6
CENTER
 10
3005.1430449999998
 20
2870.6817319999991
 30
0.0
 11
2845.1430449999998
 21
2870.6817319999991
 31
0.0
  0
LINE
  5
7AF2
  8
2
  6
CENTER
 10
2925.1430449999998
 20
2790.681732
 30
0.0
 11
2925.1430449999998
 21
2950.6817319999991
 31
0.0
  0
LINE
  5
7AF3
  8
1
  6
CONTINUOUS
 10
2771.1430449999998
 20
2670.681732
 30
0.0
 11
2771.1430449999998
 21
2728.681732
 31
0.0
  0
LINE
  5
7AF4
  8
1
  6
CONTINUOUS
 10
2771.1430449999998
 20
2728.681732
 30
0.0
 11
2792.4830449999999
 21
2777.6917319999998
 31
0.0
  0
LINE
  5
7AF5
  8
1
  6
CONTINUOUS
 10
3143.6630449999998
 20
2670.681732
 30
0.0
 11
3143.6630449999998
 21
2570.681732
 31
0.0
  0
LINE
  5
7AF6
  8
1
  6
CONTINUOUS
 10
2263.6630449999989
 20
5039.0798990211324
 30
0.0
 11
2845.1430449999998
 21
5039.0798990211324
 31
0.0
  0
LINE
  5
7AF7
  8
1
  6
CONTINUOUS
 10
2092.6630449999989
 20
5092.0798990211324
 30
0.0
 11
2092.6630449999989
 21
5217.0798990211324
 31
0.0
  0
LINE
  5
7AF8
  8
1
  6
CONTINUOUS
 10
2134.6630449999989
 20
5092.0798990211324
 30
0.0
 11
2134.6630449999989
 21
5217.0798990211324
 31
0.0
  0
LINE
  5
7AF9
  8
1
  6
CONTINUOUS
 10
1963.663045
 20
5092.0798990211324
 30
0.0
 11
2263.6630449999989
 21
5092.0798990211324
 31
0.0
  0
LINE
  5
7AFA
  8
1
  6
CONTINUOUS
 10
1963.663045
 20
5012.0798990211306
 30
0.0
 11
2263.6630449999989
 21
5012.0798990211306
 31
0.0
  0
LINE
  5
7AFB
  8
1
  6
CONTINUOUS
 10
1963.663045
 20
5012.0798990211306
 30
0.0
 11
1963.663045
 21
5092.0798990211324
 31
0.0
  0
LINE
  5
7AFC
  8
1
  6
CONTINUOUS
 10
2263.6630449999989
 20
5012.0798990211306
 30
0.0
 11
2263.6630449999989
 21
5092.0798990211324
 31
0.0
  0
LINE
  5
7AFD
  8
1
  6
CONTINUOUS
 10
3005.1430449999998
 20
5039.0798990211324
 30
0.0
 11
3153.6630449999998
 21
5039.0798990211324
 31
0.0
  0
LINE
  5
7AFE
  8
1
  6
CONTINUOUS
 10
2845.1430449999998
 20
5092.0798990211324
 30
0.0
 11
3005.1430449999998
 21
5092.0798990211324
 31
0.0
  0
LINE
  5
7AFF
  8
1
  6
CONTINUOUS
 10
2845.1430449999998
 20
5012.0798990211306
 30
0.0
 11
3005.1430449999998
 21
5012.0798990211306
 31
0.0
  0
LINE
  5
7B00
  8
1
  6
CONTINUOUS
 10
2845.1430449999998
 20
5012.0798990211306
 30
0.0
 11
2845.1430449999998
 21
5092.0798990211324
 31
0.0
  0
LINE
  5
7B01
  8
1
  6
CONTINUOUS
 10
3005.1430449999998
 20
5012.0798990211306
 30
0.0
 11
3005.1430449999998
 21
5092.0798990211324
 31
0.0
  0
LINE
  5
7B02
  8
1
  6
CONTINUOUS
 10
3103.6630449999989
 20
4982.0798990211306
 30
0.0
 11
3103.6630449999989
 21
5122.0798990211306
 31
0.0
  0
LINE
  5
7B03
  8
1
  6
CONTINUOUS
 10
3092.1230449999998
 20
5178.0898990211308
 30
0.0
 11
3092.1230449999998
 21
5634.0298990211322
 31
0.0
  0
LINE
  5
7B04
  8
1
  6
CONTINUOUS
 10
2763.1430449999998
 20
5178.0898990211308
 30
0.0
 11
2763.1430449999998
 21
5634.0298990211322
 31
0.0
  0
LINE
  5
7B05
  8
1
  6
CONTINUOUS
 10
3092.1230449999998
 20
5178.0898990211308
 30
0.0
 11
2763.1430449999998
 21
5178.0898990211308
 31
0.0
  0
LINE
  5
7B06
  8
1
  6
CONTINUOUS
 10
2946.1430449999989
 20
5092.0798990211324
 30
0.0
 11
2946.1430449999989
 21
5178.0898990211308
 31
0.0
  0
LINE
  5
7B07
  8
1
  6
CONTINUOUS
 10
2904.1430449999998
 20
5092.0798990211324
 30
0.0
 11
2904.1430449999998
 21
5178.0898990211308
 31
0.0
  0
LINE
  5
7B08
  8
1
  6
CONTINUOUS
 10
3092.1230449999998
 20
5634.0298990211322
 30
0.0
 11
2763.1430449999998
 21
5634.0298990211322
 31
0.0
  0
LINE
  5
7B09
  8
1
  6
CONTINUOUS
 10
3193.6630449999998
 20
4924.0798990211324
 30
0.0
 11
3153.6630449999998
 21
4924.0798990211324
 31
0.0
  0
LINE
  5
7B47
  8
1
  6
CONTINUOUS
 10
5080.9539260000001
 20
2544.681732
 30
0.0
 11
4090.9539260000001
 21
2544.681732
 31
0.0
  0
LINE
  5
7B48
  8
1
  6
CONTINUOUS
 10
5080.9539260000001
 20
2444.681732
 30
0.0
 11
4090.9539260000001
 21
2444.681732
 31
0.0
  0
LINE
  5
7B4B
  8
1
  6
CONTINUOUS
 10
4090.9539260000001
 20
2544.681732
 30
0.0
 11
4090.9539260000001
 21
2444.681732
 31
0.0
  0
LINE
  5
7B4C
  8
1
  6
CONTINUOUS
 10
5080.9539260000001
 20
2544.681732
 30
0.0
 11
5080.9539260000001
 21
2444.681732
 31
0.0
  0
LINE
  5
7B4D
  8
1
  6
CONTINUOUS
 10
4965.9539260000001
 20
2570.681732
 30
0.0
 11
4205.9539260000001
 21
2570.681732
 31
0.0
  0
LINE
  5
7B4E
  8
1
  6
CONTINUOUS
 10
4965.9539260000001
 20
2670.681732
 30
0.0
 11
4148.9539259999992
 21
2670.681732
 31
0.0
  0
LINE
  5
7B4F
  8
1
  6
CONTINUOUS
 10
4258.9539260000001
 20
2851.681732
 30
0.0
 11
4383.9539260000001
 21
2851.681732
 31
0.0
  0
LINE
  5
7B50
  8
1
  6
CONTINUOUS
 10
4258.9539260000001
 20
2809.6817319999991
 30
0.0
 11
4383.9539260000001
 21
2809.6817319999991
 31
0.0
  0
LINE
  5
7B51
  8
1
  6
CONTINUOUS
 10
4258.9539260000001
 20
3174.681732
 30
0.0
 11
4383.9539260000001
 21
3174.681732
 31
0.0
  0
LINE
  5
7B52
  8
1
  6
CONTINUOUS
 10
4258.9539260000001
 20
3216.681732
 30
0.0
 11
4383.9539260000001
 21
3216.681732
 31
0.0
  0
LINE
  5
7B54
  8
1
  6
CONTINUOUS
 10
4205.9539260000001
 20
2670.681732
 30
0.0
 11
4205.9539260000001
 21
2570.681732
 31
0.0
  0
LINE
  5
7B55
  8
1
  6
CONTINUOUS
 10
4148.9539259999992
 20
3810.6817319999991
 30
0.0
 11
4148.9539259999992
 21
2670.681732
 31
0.0
  0
LINE
  5
7B56
  8
1
  6
CONTINUOUS
 10
4288.9539260000001
 20
3810.6817319999991
 30
0.0
 11
4148.9539259999992
 21
3810.6817319999991
 31
0.0
  0
LINE
  5
7B57
  8
1
  6
CONTINUOUS
 10
4288.9539260000001
 20
3810.6817319999991
 30
0.0
 11
4288.9539260000001
 21
2670.681732
 31
0.0
  0
LINE
  5
7B58
  8
1
  6
CONTINUOUS
 10
4258.9539260000001
 20
3045.681732
 30
0.0
 11
4258.9539260000001
 21
3345.681732
 31
0.0
  0
LINE
  5
7B59
  8
1
  6
CONTINUOUS
 10
4178.953926000001
 20
3045.681732
 30
0.0
 11
4178.953926000001
 21
3345.681732
 31
0.0
  0
LINE
  5
7B5A
  8
1
  6
CONTINUOUS
 10
4258.9539260000001
 20
2750.681732
 30
0.0
 11
4258.9539260000001
 21
2910.681732
 31
0.0
  0
LINE
  5
7B5B
  8
1
  6
CONTINUOUS
 10
4178.953926000001
 20
2750.681732
 30
0.0
 11
4178.953926000001
 21
2910.681732
 31
0.0
  0
LINE
  5
7B5C
  8
1
  6
CONTINUOUS
 10
4178.953926000001
 20
3045.681732
 30
0.0
 11
4258.9539260000001
 21
3045.681732
 31
0.0
  0
LINE
  5
7B5D
  8
1
  6
CONTINUOUS
 10
4178.953926000001
 20
3345.681732
 30
0.0
 11
4258.9539260000001
 21
3345.681732
 31
0.0
  0
LINE
  5
7B5E
  8
1
  6
CONTINUOUS
 10
4178.953926000001
 20
2750.681732
 30
0.0
 11
4258.9539260000001
 21
2750.681732
 31
0.0
  0
LINE
  5
7B5F
  8
1
  6
CONTINUOUS
 10
4178.953926000001
 20
2910.681732
 30
0.0
 11
4258.9539260000001
 21
2910.681732
 31
0.0
  0
LINE
  5
7B60
  8
1
  6
CONTINUOUS
 10
4383.9539260000001
 20
3161.6817319999991
 30
0.0
 11
4913.9539260000001
 21
3161.6817319999991
 31
0.0
  0
LINE
  5
7B61
  8
1
  6
CONTINUOUS
 10
4383.9539260000001
 20
3891.681732
 30
0.0
 11
4913.9539260000001
 21
3891.681732
 31
0.0
  0
LINE
  5
7B62
  8
1
  6
CONTINUOUS
 10
4383.9539260000001
 20
3891.681732
 30
0.0
 11
4383.9539260000001
 21
2670.681732
 31
0.0
  0
LINE
  5
7B63
  8
1
  6
CONTINUOUS
 10
4913.9539260000001
 20
3891.681732
 30
0.0
 11
4913.9539260000001
 21
2670.681732
 31
0.0
  0
LINE
  5
7B64
  8
1
  6
CONTINUOUS
 10
4965.9539260000001
 20
2670.681732
 30
0.0
 11
4965.9539260000001
 21
2570.681732
 31
0.0
  0
LINE
  5
7B65
  8
1
  6
CONTINUOUS
 10
4913.9539260000001
 20
3891.681732
 30
0.0
 11
4383.9539260000001
 21
3161.6817319999991
 31
0.0
  0
LINE
  5
7B66
  8
1
  6
CONTINUOUS
 10
4383.9539260000001
 20
3891.681732
 30
0.0
 11
4913.9539260000001
 21
3161.6817319999991
 31
0.0
  0
LINE
  5
7B67
  8
1
  6
CONTINUOUS
 10
1633.663045
 20
5799.0798990211324
 30
0.0
 11
3153.6630449999998
 21
5799.0798990211324
 31
0.0
  0
LINE
  5
7B68
  8
1
  6
CONTINUOUS
 10
1578.663045
 20
5747.0798990211306
 30
0.0
 11
2701.403045
 21
5747.0798990211306
 31
0.0
  0
LINE
  5
7B69
  8
1
  6
CONTINUOUS
 10
1593.663045
 20
5914.0798990211324
 30
0.0
 11
1593.663045
 21
5747.0798990211306
 31
0.0
  0
LINE
  5
7B6A
  8
1
  6
CONTINUOUS
 10
1633.663045
 20
5914.0798990211324
 30
0.0
 11
1633.663045
 21
5747.0798990211306
 31
0.0
  0
LINE
  5
7B6B
  8
1
  6
CONTINUOUS
 10
1633.663045
 20
5914.0798990211324
 30
0.0
 11
1593.663045
 21
5914.0798990211324
 31
0.0
  0
LINE
  5
7B6C
  8
1
  6
CONTINUOUS
 10
3193.6630449999998
 20
5914.0798990211324
 30
0.0
 11
3153.6630449999998
 21
5914.0798990211324
 31
0.0
  0
LINE
  5
7B73
  8
2
  6
CENTER
 10
3246.4856890000001
 20
5482.0798990211306
 30
0.0
 11
1448.3551930000001
 21
5482.0798990211306
 31
0.0
  0
LINE
  5
7B74
  8
2
  6
CENTER
 10
4648.9539259999992
 20
4017.0610059999999
 30
0.0
 11
4648.9539259999992
 21
2241.7959059999989
 31
0.0
  0
LINE
  5
7B77
  8
2
  6
CENTER
 10
2113.6630449999998
 20
3985.3579439999999
 30
0.0
 11
2113.6630449999998
 21
2216.7585100000001
 31
0.0
  0
LINE
  5
7B78
  8
2
  6
CENTER
 10
4044.6699309999999
 20
3195.681732
 30
0.0
 11
5020.0809900000004
 21
3195.681732
 31
0.0
  0
LINE
  5
7B79
  8
4
  6
CONTINUOUS
 10
5550.0
 20
1500.0
 30
0.0
 11
5550.0
 21
900.0
 31
0.0
  0
LINE
  5
7B7A
  8
4
  6
CONTINUOUS
 10
3450.0
 20
1500.0
 30
0.0
 11
3450.0
 21
900.0
 31
0.0
  0
LINE
  5
7B7B
  8
4
  6
CONTINUOUS
 10
1950.0
 20
1500.0
 30
0.0
 11
1950.0
 21
900.0
 31
0.0
  0
LINE
  5
7B7E
  8
4
  6
CONTINUOUS
 10
1950.0
 20
900.0
 30
0.0
 11
5550.0
 21
900.0
 31
0.0
  0
LINE
  5
7B7F
  8
4
  6
CONTINUOUS
 10
1950.0
 20
1200.0
 30
0.0
 11
5550.0
 21
1200.0
 31
0.0
  0
TEXT
  5
7B80
  8
4
  6
CONTINUOUS
 10
2065.5062429999989
 20
1294.6290779999999
 30
0.0
 40
150.0
  1
機器名称
  0
TEXT
  5
7B81
  8
4
  6
CONTINUOUS
 10
2058.7743179999989
 20
964.9354699999999
 30
0.0
 40
150.0
  1
機器型番
  0
TEXT
  5
7B82
  8
4
  6
CONTINUOUS
 10
3533.0362359999999
 20
1267.7153069999999
 30
0.0
 40
150.0
  1
ミツヤ多翼送風機
  0
TEXT
  5
7B83
  8
4
  6
CONTINUOUS
 10
3559.9634869999991
 20
951.47875299999987
 30
0.0
 40
150.0
  1
MF#4 1/2-4
  0
TEXT
  5
7B85
  8
4
  6
CONTINUOUS
 10
2187.7056309999989
 20
7150.2865239999992
 30
0.0
 40
162.0
  1
天井吊防振ベット
  0
TEXT
  5
7B86
  8
4
  6
CONTINUOUS
 10
948.50278000000014
 20
7601.6429289999996
 30
0.0
 40
216.0
  1
ベルト駆動式片吸込両持多翼ファン
  0
LINE
  5
7B87
  8
4
  6
CONTINUOUS
 10
750.0
 20
7408.2262629999996
 30
0.0
 11
5550.0
 21
7408.2262629999996
 31
0.0
  0
LINE
  5
7B88
  8
4
  6
CONTINUOUS
 10
750.0
 20
8008.2262629999996
 30
0.0
 11
5550.0
 21
8008.2262629999996
 31
0.0
  0
LINE
  5
7B89
  8
4
  6
CONTINUOUS
 10
1950.0
 20
1500.0
 30
0.0
 11
5550.0
 21
1500.0
 31
0.0
  0
LINE
  5
7B8A
  8
4
  6
CONTINUOUS
 10
750.0
 20
8008.2262629999996
 30
0.0
 11
750.0
 21
7408.2262629999996
 31
0.0
  0
TEXT
  5
7B8B
  8
4
  6
CONTINUOUS
 10
880.12913400000002
 20
7146.9584329999998
 30
0.0
 40
162.0
  1
左回転左横向
  0
TEXT
  5
7B8C
  8
4
  6
CONTINUOUS
 10
4406.9086779999989
 20
8118.1832439999989
 30
0.0
 40
168.0
  1
No.
  0
TEXT
  5
7B8D
  8
4
  6
CONTINUOUS
 10
3933.8881879999999
 20
7150.2865239999992
 30
0.0
 40
162.0
  1
縮尺：1/30
  0
LINE
  5
7B8E
  8
4
  6
CONTINUOUS
 10
5550.0
 20
8008.2262629999996
 30
0.0
 11
5550.0
 21
7408.2262629999996
 31
0.0
  0
LINE
  5
7B90
  8
4
  6
CONTINUOUS
 10
4321.8522670000002
 20
8043.7907490000007
 30
0.0
 11
4321.8522670000002
 21
8359.9567849999985
 31
0.0
  0
LINE
  5
7B91
  8
4
  6
CONTINUOUS
 10
4321.8522670000002
 20
8359.9567849999985
 30
0.0
 11
5550.0
 21
8359.9567849999985
 31
0.0
  0
LINE
  5
7B92
  8
4
  6
CONTINUOUS
 10
5550.0
 20
8359.9567849999985
 30
0.0
 11
5550.0
 21
8043.7907490000007
 31
0.0
  0
LINE
  5
7B93
  8
4
  6
CONTINUOUS
 10
5550.0
 20
8043.7907490000007
 30
0.0
 11
4321.8522670000002
 21
8043.7907490000007
 31
0.0
  0
DIMENSION
  5
7BAB
  8
3
  6
CONTINUOUS
  2
*D1
 10
1478.0983349999999
 20
3161.6817319999991
 30
0.0
 11
1478.0983349999999
 21
3533.6932379999998
 31
0.0
 70
   128
 13
1578.663045
 23
3891.681732
 33
0.0
 14
1578.663045
 24
3161.6817319999991
 34
0.0
 50
90.0
1001
ACAD
1000
DSTYLE
1002
{
1070
   287
1070
     3
1070
    40
1040
30.0
1070
   143
1040
0.039
1070
   172
1070
     1
1070
   271
1070
     0
1070
   279
1070
     0
1070
   288
1070
     1
1002
}
  0
DIMENSION
  5
7BB8
  8
3
  6
CONTINUOUS
  2
*D2
 10
1294.7053100000001
 20
3195.681732
 30
0.0
 11
1294.7053100000001
 21
3533.6932379999998
 31
0.0
 70
   128
 13
1578.663045
 23
3891.681732
 33
0.0
 14
1475.9575159999999
 24
3195.681732
 34
0.0
 50
90.0
1001
ACAD
1000
DSTYLE
1002
{
1070
   287
1070
     3
1070
    40
1040
30.0
1070
   143
1040
0.039
1070
   172
1070
     1
1070
   271
1070
     0
1070
   279
1070
     0
1070
   288
1070
     1
1002
}
  0
DIMENSION
  5
7BC4
  8
3
  6
CONTINUOUS
  2
*D3
 10
1294.7053100000001
 20
2570.681732
 30
0.0
 11
1219.7053099999989
 21
2883.181732
 31
0.0
 70
     0
 13
1475.9575159999999
 23
3195.681732
 33
0.0
 14
1643.663045
 24
2570.681732
 34
0.0
 50
90.0
1001
ACAD
1000
DSTYLE
1002
{
1070
   287
1070
     4
1070
    40
1040
30.0
1070
    75
1070
     1
1070
   143
1040
0.039
1070
   172
1070
     1
1070
   271
1070
     0
1070
   279
1070
     1
1070
   288
1070
     1
1002
}
  0
DIMENSION
  5
7BD4
  8
3
  6
CONTINUOUS
  2
*D4
 10
1296.194162
 20
2444.681732
 30
0.0
 11
1296.194162
 21
2189.681732
 31
0.0
 70
   128
 13
1643.663045
 23
2570.681732
 33
0.0
 14
1593.663045
 24
2444.681732
 34
0.0
 50
90.0
1001
ACAD
1000
DSTYLE
1002
{
1070
   287
1070
     3
1070
    40
1040
30.0
1070
   143
1040
0.039
1070
   172
1070
     1
1070
   271
1070
     0
1070
   279
1070
     0
1070
   288
1070
     1
1002
}
  0
DIMENSION
  5
7BE1
  8
3
  6
CONTINUOUS
  2
*D5
 10
2113.6630449999998
 20
4045.7400670000002
 30
0.0
 11
1844.884384
 21
4045.7400670000002
 31
0.0
 70
   128
 13
1578.663045
 23
3931.6817319999991
 33
0.0
 14
2113.6630449999998
 24
3985.3579439999999
 34
0.0
1001
ACAD
1000
DSTYLE
1002
{
1070
   287
1070
     3
1070
    40
1040
30.0
1070
   143
1040
0.039
1070
   172
1070
     1
1070
   271
1070
     0
1070
   279
1070
     0
1070
   288
1070
     1
1002
}
  0
DIMENSION
  5
7BFA
  8
3
  6
CONTINUOUS
  2
*D6
 10
1129.3772980000001
 20
2444.681732
 30
0.0
 11
1129.3772980000001
 21
3253.4149629999988
 31
0.0
 70
   128
 13
1578.663045
 23
3931.6817319999991
 33
0.0
 14
1593.663045
 24
2444.681732
 34
0.0
 50
90.0
1001
ACAD
1000
DSTYLE
1002
{
1070
   287
1070
     3
1070
    40
1040
30.0
1070
   143
1040
0.039
1070
   172
1070
     1
1070
   271
1070
     0
1070
   279
1070
     0
1070
   288
1070
     1
1002
}
  0
DIMENSION
  5
7C07
  8
3
  6
CONTINUOUS
  2
*D7
 10
2113.6630449999998
 20
2149.427224
 30
0.0
 11
1844.3462559999989
 21
2149.427224
 31
0.0
 70
   128
 13
1593.663045
 23
2444.681732
 33
0.0
 14
2113.6630449999998
 24
2216.7585100000001
 34
0.0
1001
ACAD
1000
DSTYLE
1002
{
1070
   287
1070
     3
1070
    40
1040
30.0
1070
   143
1040
0.039
1070
   172
1070
     1
1070
   271
1070
     0
1070
   279
1070
     0
1070
   288
1070
     1
1002
}
  0
DIMENSION
  5
7C13
  8
3
  6
CONTINUOUS
  2
*D8
 10
3193.6630449999998
 20
2149.427224
 30
0.0
 11
2653.6630449999998
 21
2224.427224
 31
0.0
 70
     0
 13
2113.6630449999998
 23
2216.7585100000001
 33
0.0
 14
3193.6630449999998
 24
2444.681732
 34
0.0
1001
ACAD
1000
DSTYLE
1002
{
1070
   287
1070
     4
1070
    40
1040
30.0
1070
    75
1070
     1
1070
   143
1040
0.039
1070
   172
1070
     1
1070
   271
1070
     0
1070
   279
1070
     1
1070
   288
1070
     1
1002
}
  0
DIMENSION
  5
7C20
  8
3
  6
CONTINUOUS
  2
*D9
 10
4913.9539260000001
 20
3997.2303649999999
 30
0.0
 11
4659.9686000000002
 21
3997.2303649999999
 31
0.0
 70
   128
 13
4383.9539260000001
 23
3891.681732
 33
0.0
 14
4913.9539260000001
 24
3891.681732
 34
0.0
1001
ACAD
1000
DSTYLE
1002
{
1070
   287
1070
     3
1070
    40
1040
30.0
1070
   143
1040
0.039
1070
   172
1070
     1
1070
   271
1070
     0
1070
   279
1070
     0
1070
   288
1070
     1
1002
}
  0
LINE
  5
7C21
  8
1
  6
CONTINUOUS
 10
4915.9539260000001
 20
3572.681732
 30
0.0
 11
4915.9539260000001
 21
2818.6817319999991
 31
0.0
  0
DIMENSION
  5
7C31
  8
3
  6
CONTINUOUS
  2
*D10
 10
4648.9539259999992
 20
4202.0491119999997
 30
0.0
 11
4803.249198947241
 21
4294.4480934762569
 31
0.0
 70
   128
 13
4915.9539260000001
 23
3572.681732
 33
0.0
 14
4648.9539259999992
 24
4154.4900040000002
 34
0.0
1001
ACAD
1000
DSTYLE
1002
{
1070
   288
1070
     1
1070
   172
1070
     1
1070
    40
1040
30.0
1070
   271
1070
     0
1070
   143
1040
0.039
1002
}
  0
DIMENSION
  5
7C3E
  8
3
  6
CONTINUOUS
  2
*D11
 10
5161.6024780000007
 20
2818.6817319999991
 30
0.0
 11
5161.6024779999989
 21
3194.1253419999998
 31
0.0
 70
   128
 13
4915.9539260000001
 23
3572.681732
 33
0.0
 14
4915.9539260000001
 24
2818.6817319999991
 34
0.0
 50
90.0
1001
ACAD
1000
DSTYLE
1002
{
1070
   287
1070
     3
1070
     3
1000
φ<>
1070
    40
1040
30.0
1070
   143
1040
0.039
1070
   172
1070
     1
1070
   271
1070
     0
1070
   279
1070
     0
1070
   288
1070
     1
1002
}
  0
DIMENSION
  5
7C4A
  8
3
  6
CONTINUOUS
  2
*D12
 10
4148.9539259999992
 20
4202.0491119999997
 30
0.0
 11
4398.9539259999992
 21
4352.0491119999988
 31
0.0
 70
     0
  1
MAX\P560
 13
4648.9539259999992
 23
4154.4900040000002
 33
0.0
 14
4148.9539259999992
 24
3810.6817319999991
 34
0.0
1001
ACAD
1000
DSTYLE
1002
{
1070
   287
1070
     4
1070
    40
1040
30.0
1070
    75
1070
     1
1070
   143
1040
0.039
1070
   172
1070
     1
1070
   271
1070
     0
1070
   279
1070
     1
1070
   288
1070
     1
1002
}
  0
DIMENSION
  5
7C57
  8
3
  6
CONTINUOUS
  2
*D13
 10
4648.9539259999992
 20
2195.1521329999991
 30
0.0
 11
4374.0912340000004
 21
2195.1521329999991
 31
0.0
 70
   128
 13
4090.9539260000001
 23
2444.681732
 33
0.0
 14
4648.9539259999992
 24
2241.7959059999989
 34
0.0
1001
ACAD
1000
DSTYLE
1002
{
1070
   287
1070
     3
1070
    40
1040
30.0
1070
   143
1040
0.039
1070
   172
1070
     1
1070
   271
1070
     0
1070
   279
1070
     0
1070
   288
1070
     1
1002
}
  0
DIMENSION
  5
7C63
  8
3
  6
CONTINUOUS
  2
*D14
 10
5080.9539260000001
 20
2195.1521329999991
 30
0.0
 11
4864.9539260000001
 21
2270.1521329999991
 31
0.0
 70
     0
 13
4648.9539259999992
 23
2241.7959059999989
 33
0.0
 14
5080.9539260000001
 24
2444.681732
 34
0.0
1001
ACAD
1000
DSTYLE
1002
{
1070
   287
1070
     4
1070
    40
1040
30.0
1070
    75
1070
     1
1070
   143
1040
0.039
1070
   172
1070
     1
1070
   271
1070
     0
1070
   279
1070
     1
1070
   288
1070
     1
1002
}
  0
DIMENSION
  5
7C86
  8
3
  6
CONTINUOUS
  2
*D15
 10
3193.6630449999998
 20
6079.815632021131
 30
0.0
 11
2384.2757980000001
 21
6079.815632021131
 31
0.0
 70
   128
 13
1593.663045
 23
5914.0798990211324
 33
0.0
 14
3193.6630449999998
 24
5914.0798990211324
 34
0.0
1001
ACAD
1000
DSTYLE
1002
{
1070
   287
1070
     3
1070
    40
1040
30.0
1070
   143
1040
0.039
1070
   172
1070
     1
1070
   271
1070
     0
1070
   279
1070
     0
1070
   288
1070
     1
1002
}
  0
DIMENSION
  5
7C93
  8
3
  6
CONTINUOUS
  2
*D16
 10
3419.9070069999998
 20
4924.0798990211324
 30
0.0
 11
3419.9070069999998
 21
5449.1895010211301
 31
0.0
 70
   128
 13
3193.6630449999998
 23
5914.0798990211324
 33
0.0
 14
3193.6630449999998
 24
4924.0798990211324
 34
0.0
 50
90.0
1001
ACAD
1000
DSTYLE
1002
{
1070
   287
1070
     3
1070
    40
1040
30.0
1070
   143
1040
0.039
1070
   172
1070
     1
1070
   271
1070
     0
1070
   279
1070
     0
1070
   288
1070
     1
1002
}
  0
DIMENSION
  5
7CDE
  8
3
  6
CONTINUOUS
  2
*D17
 10
2699.6605709999999
 20
4045.7400670000002
 30
0.0
 11
2406.6618079999989
 21
4120.7400669999997
 31
0.0
 70
     0
 13
2113.6630449999998
 23
3985.3579439999999
 33
0.0
 14
2699.6605709999999
 24
3195.681732
 34
0.0
1001
ACAD
1000
DSTYLE
1002
{
1070
   287
1070
     4
1070
    40
1040
30.0
1070
    75
1070
     1
1070
   143
1040
0.039
1070
   172
1070
     1
1070
   271
1070
     0
1070
   279
1070
     1
1070
   288
1070
     1
1002
}
  0
DIMENSION
  5
7D57
  8
3
  2
*D18
 10
3193.6630449999998
 20
4227.321209842371
 30
0.0
 11
2304.0663185521071
 21
4227.321209842371
 31
0.0
 70
   128
 13
1578.663045
 23
3931.6817319999991
 33
0.0
 14
3193.6630449999998
 24
2544.681732
 34
0.0
1001
ACAD
1000
DSTYLE
1002
{
1070
   287
1070
     3
1070
    40
1040
30.0
1070
   143
1040
0.039
1070
   172
1070
     1
1070
   271
1070
     0
1070
   279
1070
     0
1070
   288
1070
     1
1002
}
  0
ENDSEC
  0
EOF
