  0
SECTION
  2
HEADER
  9
$ACADVER
  1
AC1009
  9
$INSBASE
 10
0.0
 20
0.0
 30
0.0
  9
$EXTMIN
 10
750.0
 20
900.0
 30
0.0
  9
$EXTMAX
 10
5550.0
 20
8359.9567849999985
 30
0.0
  9
$LIMMIN
 10
0.0
 20
0.0
  9
$LIMMAX
 10
297.0
 20
210.0
  9
$ORTHOMODE
 70
     0
  9
$REGENMODE
 70
     1
  9
$FILLMODE
 70
     0
  9
$QTEXTMODE
 70
     0
  9
$MIRRTEXT
 70
     1
  9
$DRAGMODE
 70
     2
  9
$LTSCALE
 40
100.0
  9
$OSMODE
 70
    37
  9
$ATTMODE
 70
     1
  9
$TEXTSIZE
 40
180.0
  9
$TRACEWID
 40
0.05
  9
$TEXTSTYLE
  7
STANDARD
  9
$CLAYER
  8
3
  9
$CELTYPE
  6
BYLAYER
  9
$CECOLOR
 62
   256
  9
$DIMSCALE
 40
30.0
  9
$DIMASZ
 40
2.0
  9
$DIMEXO
 40
0.5
  9
$DIMDLI
 40
10.0
  9
$DIMRND
 40
0.0
  9
$DIMDLE
 40
0.0
  9
$DIMEXE
 40
1.0
  9
$DIMTP
 40
1.0
  9
$DIMTM
 40
1.0
  9
$DIMTXT
 40
3.0
  9
$DIMCEN
 40
0.0
  9
$DIMTSZ
 40
0.0
  9
$DIMTOL
 70
     0
  9
$DIMLIM
 70
     0
  9
$DIMTIH
 70
     0
  9
$DIMTOH
 70
     0
  9
$DIMSE1
 70
     0
  9
$DIMSE2
 70
     0
  9
$DIMTAD
 70
     1
  9
$DIMZIN
 70
     8
  9
$DIMBLK
  1

  9
$DIMASO
 70
     1
  9
$DIMSHO
 70
     1
  9
$DIMPOST
  1

  9
$DIMAPOST
  1

  9
$DIMALT
 70
     0
  9
$DIMALTD
 70
     2
  9
$DIMALTF
 40
0.039
  9
$DIMLFAC
 40
1.0
  9
$DIMTOFL
 70
     1
  9
$DIMTVP
 40
0.0
  9
$DIMTIX
 70
     0
  9
$DIMSOXD
 70
     0
  9
$DIMSAH
 70
     1
  9
$DIMBLK1
  1
OPEN
  9
$DIMBLK2
  1
OPEN
  9
$DIMSTYLE
  2
IGA
  9
$DIMCLRD
 70
     0
  9
$DIMCLRE
 70
     0
  9
$DIMCLRT
 70
     0
  9
$DIMTFAC
 40
10.0
  9
$DIMGAP
 40
1.0
  9
$LUNITS
 70
     2
  9
$LUPREC
 70
     3
  9
$SKETCHINC
 40
0.1
  9
$FILLETRAD
 40
0.0
  9
$AUNITS
 70
     0
  9
$AUPREC
 70
     0
  9
$MENU
  1
acad
  9
$ELEVATION
 40
0.0
  9
$PELEVATION
 40
0.0
  9
$THICKNESS
 40
0.0
  9
$LIMCHECK
 70
     0
  9
$BLIPMODE
 70
     0
  9
$CHAMFERA
 40
0.5
  9
$CHAMFERB
 40
0.5
  9
$SKPOLY
 70
     0
  9
$TDCREATE
 40
2450744.4415761572
  9
$TDUPDATE
 40
2454953.7724204282
  9
$TDINDWG
 40
0.0095798264
  9
$TDUSRTIMER
 40
0.0095798264
  9
$USRTIMER
 70
     1
  9
$ANGBASE
 50
0.0
  9
$ANGDIR
 70
     0
  9
$PDMODE
 70
     0
  9
$PDSIZE
 40
0.0
  9
$PLINEWID
 40
0.0
  9
$COORDS
 70
     1
  9
$SPLFRAME
 70
     0
  9
$SPLINETYPE
 70
     6
  9
$SPLINESEGS
 70
     8
  9
$ATTDIA
 70
     0
  9
$ATTREQ
 70
     1
  9
$HANDLING
 70
 10241
  9
$HANDSEED
  5
7DCC
  9
$SURFTAB1
 70
     6
  9
$SURFTAB2
 70
     6
  9
$SURFTYPE
 70
     6
  9
$SURFU
 70
     6
  9
$SURFV
 70
     6
  9
$UCSNAME
  2

  9
$UCSORG
 10
0.0
 20
0.0
 30
0.0
  9
$UCSXDIR
 10
1.0
 20
0.0
 30
0.0
  9
$UCSYDIR
 10
0.0
 20
1.0
 30
0.0
  9
$PUCSNAME
  2

  9
$PUCSORG
 10
0.0
 20
0.0
 30
0.0
  9
$PUCSXDIR
 10
1.0
 20
0.0
 30
0.0
  9
$PUCSYDIR
 10
0.0
 20
1.0
 30
0.0
  9
$USERI1
 70
     0
  9
$USERI2
 70
     0
  9
$USERI3
 70
     0
  9
$USERI4
 70
     0
  9
$USERI5
 70
     0
  9
$USERR1
 40
0.0
  9
$USERR2
 40
0.0
  9
$USERR3
 40
0.0
  9
$USERR4
 40
0.0
  9
$USERR5
 40
0.0
  9
$WORLDVIEW
 70
     1
  9
$SHADEDGE
 70
     3
  9
$SHADEDIF
 70
    70
  9
$TILEMODE
 70
     1
  9
$MAXACTVP
 70
    16
  9
$PLIMCHECK
 70
     0
  9
$PEXTMIN
 10
1.0000000000000000E+020
 20
1.0000000000000000E+020
 30
1.0000000000000000E+020
  9
$PEXTMAX
 10
-1.0000000000000000E+020
 20
-1.0000000000000000E+020
 30
-1.0000000000000000E+020
  9
$PLIMMIN
 10
0.0
 20
0.0
  9
$PLIMMAX
 10
12.0
 20
9.0
  9
$UNITMODE
 70
     0
  9
$VISRETAIN
 70
     0
  9
$PLINEGEN
 70
     0
  9
$PSLTSCALE
 70
     1
  0
ENDSEC
  0
SECTION
  2
TABLES
  0
TABLE
  2
VPORT
 70
     2
  0
VPORT
  2
*ACTIVE
 70
     0
 10
0.0
 20
0.0
 11
1.0
 21
1.0
 12
9437.9954746499006
 22
4629.9199394653269
 13
0.0
 23
0.0
 14
10.0
 24
10.0
 15
10.0
 25
10.0
 16
0.0
 26
0.0
 36
1.0
 17
0.0
 27
0.0
 37
0.0
 40
7517.061441529765
 41
3.1666666666666661
 42
50.0
 43
0.0
 44
0.0
 50
0.0
 51
0.0
 71
     0
 72
   100
 73
     1
 74
     0
 75
     0
 76
     1
 77
     0
 78
     0
  0
ENDTAB
  0
TABLE
  2
LTYPE
 70
     2
  0
LTYPE
  2
CONTINUOUS
 70
     0
  3
Solid line
 72
    65
 73
     0
 40
0.0
  0
LTYPE
  2
CENTER
 70
     0
  3
____ _ ____ _ ____ _ ____ _ ____ _ ____ _ ____ 
 72
    65
 73
     4
 40
2.0
 49
1.25
 49
-0.25
 49
0.25
 49
-0.25
  0
ENDTAB
  0
TABLE
  2
LAYER
 70
     6
  0
LAYER
  2
0
 70
     0
 62
     7
  6
CONTINUOUS
  0
LAYER
  2
3
 70
     0
 62
     2
  6
CONTINUOUS
  0
LAYER
  2
2
 70
     0
 62
     3
  6
CENTER
  0
LAYER
  2
1
 70
     0
 62
     4
  6
CONTINUOUS
  0
LAYER
  2
4
 70
     0
 62
     7
  6
CONTINUOUS
  0
LAYER
  2
DEFPOINTS
 70
     0
 62
     7
  6
CONTINUOUS
  0
ENDTAB
  0
TABLE
  2
STYLE
 70
     1
  0
STYLE
  2
STANDARD
 70
     0
 40
0.0
 41
1.0
 50
0.0
 71
     0
 42
180.0
  3
simplex.shx
  4
extfont.shx
  0
ENDTAB
  0
TABLE
  2
VIEW
 70
     0
  0
ENDTAB
  0
TABLE
  2
UCS
 70
     0
  0
ENDTAB
  0
TABLE
  2
APPID
 70
     1
  0
APPID
  2
ACAD
 70
     0
  0
ENDTAB
  0
TABLE
  2
DIMSTYLE
 70
     1
  0
DIMSTYLE
  2
IGA
 70
     0
  3

  4

  5

  6
OPEN
  7
OPEN
 40
2.0
 41
2.0
 42
0.5
 43
10.0
 44
1.0
 45
0.0
 46
0.0
 47
1.0
 48
1.0
140
3.0
141
0.0
142
0.0
143
0.03937
144
1.0
145
0.0
146
10.0
147
1.0
 71
     0
 72
     0
 73
     0
 74
     0
 75
     0
 76
     0
 77
     1
 78
     8
170
     0
171
     2
172
     0
173
     1
174
     0
175
     0
176
     0
177
     0
178
     0
  0
ENDTAB
  0
ENDSEC
  0
SECTION
  2
BLOCKS
  0
BLOCK
  8
0
  2
$MODEL_SPACE
 70
     0
 10
0.0
 20
0.0
 30
0.0
  3
$MODEL_SPACE
  1

  0
ENDBLK
  5
1B
  8
0
  0
BLOCK
 67
     1
  8
0
  2
$PAPER_SPACE
 70
     0
 10
0.0
 20
0.0
 30
0.0
  3
$PAPER_SPACE
  1

  0
ENDBLK
  5
18
 67
     1
  8
0
  0
BLOCK
  8
0
  2
_OPEN
 70
     0
 10
0.0
 20
0.0
 30
0.0
  3
_OPEN
  1

  0
LINE
  5
7AE2
  8
0
  6
BYBLOCK
 62
     0
 10
-1.0
 20
0.166667
 30
0.0
 11
0.0
 21
0.0
 31
0.0
  0
LINE
  5
7AE3
  8
0
  6
BYBLOCK
 62
     0
 10
0.0
 20
0.0
 30
0.0
 11
-1.0
 21
-0.166667
 31
0.0
  0
LINE
  5
7AE4
  8
0
  6
BYBLOCK
 62
     0
 10
0.0
 20
0.0
 30
0.0
 11
-1.0
 21
0.0
 31
0.0
  0
ENDBLK
  5
7AE5
  8
0
  0
BLOCK
  8
0
  2
*D1
 70
     1
 10
0.0
 20
0.0
 30
0.0
  3
*D1
  1

  0
LINE
  5
7D43
  8
3
  6
CONTINUOUS
 62
     0
 10
1549.305783609778
 20
3984.92902
 30
0.0
 11
1549.305783609778
 21
4193.4493259999999
 31
0.0
  0
LINE
  5
7D44
  8
3
  6
CONTINUOUS
 62
     0
 10
2279.3057836097778
 20
3984.92902
 30
0.0
 11
2279.3057836097778
 21
4193.4493259999999
 31
0.0
  0
LINE
  5
7D45
  8
3
  6
CONTINUOUS
 62
     0
 10
1609.305783609778
 20
4163.4493259999999
 30
0.0
 11
2219.3057836097778
 21
4163.4493259999999
 31
0.0
  0
INSERT
  5
7D46
  8
3
  6
CONTINUOUS
 62
     0
  2
_OPEN
 10
1549.305783609778
 20
4163.4493259999999
 30
0.0
 41
60.0
 42
60.0
 43
60.0
 50
180.0
  0
INSERT
  5
7D47
  8
3
  6
CONTINUOUS
 62
     0
  2
_OPEN
 10
2279.3057836097778
 20
4163.4493259999999
 30
0.0
 41
60.0
 42
60.0
 43
60.0
  0
TEXT
  8
3
  40
90
  5
7DBD
  62
0
  72
0
  71
0
 10
1711.18
 20
4079.15
 30
0.000000
  1
730
  0
POINT
  5
7D49
  8
DEFPOINTS
  6
CONTINUOUS
 62
     0
 10
1549.305783609778
 20
3969.92902
 30
0.0
  0
POINT
  5
7D4A
  8
DEFPOINTS
  6
CONTINUOUS
 62
     0
 10
2279.3057836097778
 20
3969.92902
 30
0.0
  0
POINT
  5
7D4B
  8
DEFPOINTS
  6
CONTINUOUS
 62
     0
 10
2279.3057836097778
 20
4163.4493259999999
 30
0.0
  0
ENDBLK
  5
7BEC
  8
0
  0
BLOCK
  8
0
  2
*D2
 70
     1
 10
0.0
 20
0.0
 30
0.0
  3
*D2
  1

  0
LINE
  5
7D4C
  8
3
  6
CONTINUOUS
 62
     0
 10
1549.305783609778
 20
3984.92902
 30
0.0
 11
1549.305783609778
 21
4350.3611769999998
 31
0.0
  0
LINE
  5
7D4D
  8
3
  6
CONTINUOUS
 62
     0
 10
2245.3057836097778
 20
4228.4855020000005
 30
0.0
 11
2245.3057836097778
 21
4350.3611769999998
 31
0.0
  0
LINE
  5
7D4E
  8
3
  6
CONTINUOUS
 62
     0
 10
1609.305783609778
 20
4320.3611770000007
 30
0.0
 11
2185.3057836097778
 21
4320.3611770000007
 31
0.0
  0
INSERT
  5
7D4F
  8
3
  6
CONTINUOUS
 62
     0
  2
_OPEN
 10
1549.305783609778
 20
4320.3611770000007
 30
0.0
 41
60.0
 42
60.0
 43
60.0
 50
180.0
  0
INSERT
  5
7D50
  8
3
  6
CONTINUOUS
 62
     0
  2
_OPEN
 10
2245.3057836097778
 20
4320.3611770000007
 30
0.0
 41
60.0
 42
60.0
 43
60.0
  0
TEXT
  8
3
  40
90
  5
7DBE
  62
0
  72
0
  71
0
 10
1705.95
 20
4236.06
 30
0.000000
  1
696
  0
POINT
  5
7D52
  8
DEFPOINTS
  6
CONTINUOUS
 62
     0
 10
1549.305783609778
 20
3969.92902
 30
0.0
  0
POINT
  5
7D53
  8
DEFPOINTS
  6
CONTINUOUS
 62
     0
 10
2245.3057836097778
 20
4213.4855020000005
 30
0.0
  0
POINT
  5
7D54
  8
DEFPOINTS
  6
CONTINUOUS
 62
     0
 10
2245.3057836097778
 20
4320.3611770000007
 30
0.0
  0
ENDBLK
  5
7BE1
  8
0
  0
BLOCK
  8
0
  2
*D3
 70
     1
 10
0.0
 20
0.0
 30
0.0
  3
*D3
  1

  0
LINE
  5
7D55
  8
3
  6
CONTINUOUS
 62
     0
 10
2334.3057836097778
 20
3969.92902
 30
0.0
 11
3009.9006766097791
 21
3969.92902
 31
0.0
  0
LINE
  5
7D56
  8
3
  6
CONTINUOUS
 62
     0
 10
2924.1529276097781
 20
3434.92902
 30
0.0
 11
3009.9006766097791
 21
3434.92902
 31
0.0
  0
LINE
  5
7D57
  8
3
  6
CONTINUOUS
 62
     0
 10
2979.9006766097782
 20
3909.92902
 30
0.0
 11
2979.9006766097782
 21
3494.92902
 31
0.0
  0
INSERT
  5
7D58
  8
3
  6
CONTINUOUS
 62
     0
  2
_OPEN
 10
2979.9006766097782
 20
3969.92902
 30
0.0
 41
60.0
 42
60.0
 43
60.0
 50
90.0
  0
INSERT
  5
7D59
  8
3
  6
CONTINUOUS
 62
     0
  2
_OPEN
 10
2979.9006766097782
 20
3434.92902
 30
0.0
 41
60.0
 42
60.0
 43
60.0
 50
270.0
  0
TEXT
  8
3
  40
90
  5
7DBF
  62
0
  72
0
  71
0
 10
2724.90
 20
3554.45
 30
0.000000
  1
535
  0
POINT
  5
7D5B
  8
DEFPOINTS
  6
CONTINUOUS
 62
     0
 10
2319.3057836097778
 20
3969.92902
 30
0.0
  0
POINT
  5
7D5C
  8
DEFPOINTS
  6
CONTINUOUS
 62
     0
 10
2909.152927609779
 20
3434.92902
 30
0.0
  0
POINT
  5
7D5D
  8
DEFPOINTS
  6
CONTINUOUS
 62
     0
 10
2979.9006766097782
 20
3434.92902
 30
0.0
  0
ENDBLK
  5
7B24
  8
0
  0
BLOCK
  8
0
  2
*D4
 70
     1
 10
0.0
 20
0.0
 30
0.0
  3
*D4
  1

  0
LINE
  5
7D5E
  8
3
  6
CONTINUOUS
 62
     0
 10
2800.3057836097792
 20
2809.92902
 30
0.0
 11
3009.9006766097782
 21
2809.92902
 31
0.0
  0
LINE
  5
7D5F
  8
3
  6
CONTINUOUS
 62
     0
 10
2979.9006766097782
 20
3374.92902
 30
0.0
 11
2979.9006766097782
 21
2869.92902
 31
0.0
  0
INSERT
  5
7D60
  8
3
  6
CONTINUOUS
 62
     0
  2
_OPEN
 10
2979.9006766097782
 20
3434.92902
 30
0.0
 41
60.0
 42
60.0
 43
60.0
 50
90.0
  0
INSERT
  5
7D61
  8
3
  6
CONTINUOUS
 62
     0
  2
_OPEN
 10
2979.9006766097782
 20
2809.92902
 30
0.0
 41
60.0
 42
60.0
 43
60.0
 50
270.0
  0
TEXT
  8
3
  40
90
  5
7DC0
  62
0
  72
0
  71
0
 10
2724.90
 20
2963.13
 30
0.000000
  1
625
  0
POINT
  5
7D63
  8
DEFPOINTS
  6
CONTINUOUS
 62
     0
 10
2909.152927609779
 20
3434.92902
 30
0.0
  0
POINT
  5
7D64
  8
DEFPOINTS
  6
CONTINUOUS
 62
     0
 10
2785.3057836097778
 20
2809.92902
 30
0.0
  0
POINT
  5
7D65
  8
DEFPOINTS
  6
CONTINUOUS
 62
     0
 10
2979.9006766097782
 20
2809.92902
 30
0.0
  0
ENDBLK
  5
7B30
  8
0
  0
BLOCK
  8
0
  2
*D5
 70
     1
 10
0.0
 20
0.0
 30
0.0
  3
*D5
  1

  0
LINE
  5
7D66
  8
3
  6
CONTINUOUS
 62
     0
 10
2349.3057836097778
 20
3969.92902
 30
0.0
 11
3229.7380706097802
 21
3969.92902
 31
0.0
  0
LINE
  5
7D67
  8
3
  6
CONTINUOUS
 62
     0
 10
2800.3057836097792
 20
2809.92902
 30
0.0
 11
3229.7380706097788
 21
2809.9290199999991
 31
0.0
  0
LINE
  5
7D68
  8
3
  6
CONTINUOUS
 62
     0
 10
3199.7380706097788
 20
3909.9290199999991
 30
0.0
 11
3199.7380706097788
 21
2869.9290199999991
 31
0.0
  0
INSERT
  5
7D69
  8
3
  6
CONTINUOUS
 62
     0
  2
_OPEN
 10
3199.7380706097788
 20
3969.92902
 30
0.0
 41
60.0
 42
60.0
 43
60.0
 50
90.0
  0
INSERT
  5
7D6A
  8
3
  6
CONTINUOUS
 62
     0
  2
_OPEN
 10
3199.7380706097788
 20
2809.9290199999991
 30
0.0
 41
60.0
 42
60.0
 43
60.0
 50
270.0
  0
TEXT
  8
3
  40
90
  5
7DC1
  62
0
  72
0
  71
0
 10
2944.74
 20
3251.09
 30
0.000000
  1
1160
  0
POINT
  5
7D6C
  8
DEFPOINTS
  6
CONTINUOUS
 62
     0
 10
2334.3057836097778
 20
3969.92902
 30
0.0
  0
POINT
  5
7D6D
  8
DEFPOINTS
  6
CONTINUOUS
 62
     0
 10
2785.3057836097778
 20
2809.92902
 30
0.0
  0
POINT
  5
7D6E
  8
DEFPOINTS
  6
CONTINUOUS
 62
     0
 10
3199.7380706097788
 20
2809.9290199999991
 30
0.0
  0
ENDBLK
  5
7B3D
  8
0
  0
BLOCK
  8
0
  2
*D6
 70
     1
 10
0.0
 20
0.0
 30
0.0
  3
*D6
  1

  0
LINE
  5
7D6F
  8
3
  6
CONTINUOUS
 62
     0
 10
1095.305783609778
 20
2794.92902
 30
0.0
 11
1095.305783609778
 21
2496.9483700000001
 31
0.0
  0
LINE
  5
7D70
  8
3
  6
CONTINUOUS
 62
     0
 10
2245.3057836097778
 20
2590.8832079999988
 30
0.0
 11
2245.3057836097778
 21
2496.9483700000001
 31
0.0
  0
LINE
  5
7D71
  8
3
  6
CONTINUOUS
 62
     0
 10
1155.305783609778
 20
2526.9483700000001
 30
0.0
 11
2185.3057836097778
 21
2526.9483700000001
 31
0.0
  0
INSERT
  5
7D72
  8
3
  6
CONTINUOUS
 62
     0
  2
_OPEN
 10
1095.305783609778
 20
2526.9483700000001
 30
0.0
 41
60.0
 42
60.0
 43
60.0
 50
180.0
  0
INSERT
  5
7D73
  8
3
  6
CONTINUOUS
 62
     0
  2
_OPEN
 10
2245.3057836097778
 20
2526.9483700000001
 30
0.0
 41
60.0
 42
60.0
 43
60.0
  0
TEXT
  8
3
  40
90
  5
7DC2
  62
0
  72
0
  71
0
 10
1491.34
 20
2442.65
 30
0.000000
  1
1150
  0
POINT
  5
7D75
  8
DEFPOINTS
  6
CONTINUOUS
 62
     0
 10
1095.305783609778
 20
2809.92902
 30
0.0
  0
POINT
  5
7D76
  8
DEFPOINTS
  6
CONTINUOUS
 62
     0
 10
2245.3057836097778
 20
2605.8832079999988
 30
0.0
  0
POINT
  5
7D77
  8
DEFPOINTS
  6
CONTINUOUS
 62
     0
 10
2245.3057836097778
 20
2526.9483700000001
 30
0.0
  0
ENDBLK
  5
7C01
  8
0
  0
BLOCK
  8
0
  2
*D7
 70
     1
 10
0.0
 20
0.0
 30
0.0
  3
*D7
  1

  0
LINE
  5
7D78
  8
3
  6
CONTINUOUS
 62
     0
 10
2785.3057836097778
 20
2794.92902
 30
0.0
 11
2785.3057836097778
 21
2496.9483700000001
 31
0.0
  0
LINE
  5
7D79
  8
3
  6
CONTINUOUS
 62
     0
 10
2305.3057836097792
 20
2526.9483700000001
 30
0.0
 11
2725.3057836097778
 21
2526.9483700000001
 31
0.0
  0
INSERT
  5
7D7A
  8
3
  6
CONTINUOUS
 62
     0
  2
_OPEN
 10
2245.3057836097778
 20
2526.9483700000001
 30
0.0
 41
60.0
 42
60.0
 43
60.0
 50
180.0
  0
INSERT
  5
7D7B
  8
3
  6
CONTINUOUS
 62
     0
  2
_OPEN
 10
2785.3057836097778
 20
2526.9483700000001
 30
0.0
 41
60.0
 42
60.0
 43
60.0
  0
TEXT
  8
3
  40
90
  5
7DC3
  62
0
  72
0
  71
0
 10
2335.31
 20
2442.65
 30
0.000000
  1
540
  0
POINT
  5
7D7D
  8
DEFPOINTS
  6
CONTINUOUS
 62
     0
 10
2245.3057836097778
 20
2605.8832079999988
 30
0.0
  0
POINT
  5
7D7E
  8
DEFPOINTS
  6
CONTINUOUS
 62
     0
 10
2785.3057836097778
 20
2809.92902
 30
0.0
  0
POINT
  5
7D7F
  8
DEFPOINTS
  6
CONTINUOUS
 62
     0
 10
2785.3057836097778
 20
2526.9483700000001
 30
0.0
  0
ENDBLK
  5
7C0B
  8
0
  0
BLOCK
  8
0
  2
*D8
 70
     1
 10
0.0
 20
0.0
 30
0.0
  3
*D8
  1

  0
LINE
  5
7D80
  8
3
  6
CONTINUOUS
 62
     0
 10
4432.0612766097793
 20
3984.92902
 30
0.0
 11
4432.0612766097793
 21
4104.6491109999988
 31
0.0
  0
LINE
  5
7D81
  8
3
  6
CONTINUOUS
 62
     0
 10
4962.0612766097793
 20
3984.92902
 30
0.0
 11
4962.0612766097793
 21
4104.6491109999988
 31
0.0
  0
LINE
  5
7D82
  8
3
  6
CONTINUOUS
 62
     0
 10
4492.0612766097802
 20
4074.6491110000002
 30
0.0
 11
4902.0612766097793
 21
4074.6491110000002
 31
0.0
  0
INSERT
  5
7D83
  8
3
  6
CONTINUOUS
 62
     0
  2
_OPEN
 10
4432.0612766097793
 20
4074.6491110000002
 30
0.0
 41
60.0
 42
60.0
 43
60.0
 50
180.0
  0
INSERT
  5
7D84
  8
3
  6
CONTINUOUS
 62
     0
  2
_OPEN
 10
4962.0612766097793
 20
4074.6491110000002
 30
0.0
 41
60.0
 42
60.0
 43
60.0
  0
TEXT
  8
3
  40
90
  5
7DC4
  62
0
  72
0
  71
0
 10
4527.06
 20
3990.35
 30
0.000000
  1
530
  0
POINT
  5
7D86
  8
DEFPOINTS
  6
CONTINUOUS
 62
     0
 10
4432.0612766097793
 20
3969.92902
 30
0.0
  0
POINT
  5
7D87
  8
DEFPOINTS
  6
CONTINUOUS
 62
     0
 10
4962.0612766097793
 20
3969.92902
 30
0.0
  0
POINT
  5
7D88
  8
DEFPOINTS
  6
CONTINUOUS
 62
     0
 10
4962.0612766097793
 20
4074.6491110000002
 30
0.0
  0
ENDBLK
  5
7B63
  8
0
  0
BLOCK
  8
0
  2
*D9
 70
     1
 10
0.0
 20
0.0
 30
0.0
  3
*D9
  1

  0
LINE
  5
7C7B
  8
0
  6
BYBLOCK
 62
     0
 10
4964.0612766097793
 20
3826.9290200000009
 30
0.0
 11
4964.0612766097793
 21
4292.9433409999992
 31
0.0
  0
LINE
  5
7C7C
  8
0
  6
BYBLOCK
 62
     0
 10
4697.0612766097793
 20
4223.8730389999992
 30
0.0
 11
4697.0612766097793
 21
4292.9433409999992
 31
0.0
  0
LINE
  5
7C7D
  8
0
  6
BYBLOCK
 62
     0
 10
4904.0612766097793
 20
4262.9433409999983
 30
0.0
 11
4757.0612766097793
 21
4262.9433409999983
 31
0.0
  0
TEXT
  5
7C7E
  8
3
 62
     0
 10
4723.7819110964956
 20
4305.0918338900374
 30
0.0
 40
90.0
  1
267
  0
INSERT
  5
7C7F
  8
0
  6
BYBLOCK
 62
     0
  2
_OPEN
 10
4964.0612766097793
 20
4262.9433409999983
 30
0.0
 41
60.0
 42
60.0
 43
60.0
  0
INSERT
  5
7C80
  8
0
  6
BYBLOCK
 62
     0
  2
_OPEN
 10
4697.0612766097793
 20
4262.9433409999983
 30
0.0
 41
60.0
 42
60.0
 43
60.0
 50
180.0
  0
POINT
  5
7C81
  8
DEFPOINTS
  6
BYBLOCK
 62
     0
 10
4964.0612766097793
 20
3811.92902
 30
0.0
  0
POINT
  5
7C82
  8
DEFPOINTS
  6
BYBLOCK
 62
     0
 10
4697.0612766097793
 20
4208.8730390000001
 30
0.0
  0
POINT
  5
7C83
  8
DEFPOINTS
  6
BYBLOCK
 62
     0
 10
4697.0612766097793
 20
4262.9433409999983
 30
0.0
  0
ENDBLK
  5
7C84
  8
0
  0
BLOCK
  8
0
  2
*D10
 70
     1
 10
0.0
 20
0.0
 30
0.0
  3
*D10
  1

  0
LINE
  5
7D89
  8
3
  6
CONTINUOUS
 62
     0
 10
4979.0612766097802
 20
3811.92902
 30
0.0
 11
5250.0141546097793
 21
3811.92902
 31
0.0
  0
LINE
  5
7D8A
  8
3
  6
CONTINUOUS
 62
     0
 10
4979.0612766097802
 20
3057.92902
 30
0.0
 11
5250.0141546097793
 21
3057.9290199999991
 31
0.0
  0
LINE
  5
7D8B
  8
3
  6
CONTINUOUS
 62
     0
 10
5220.0141546097802
 20
3751.92902
 30
0.0
 11
5220.0141546097802
 21
3117.92902
 31
0.0
  0
INSERT
  5
7D8C
  8
3
  6
CONTINUOUS
 62
     0
  2
_OPEN
 10
5220.0141546097802
 20
3811.92902
 30
0.0
 41
60.0
 42
60.0
 43
60.0
 50
90.0
  0
INSERT
  5
7D8D
  8
3
  6
CONTINUOUS
 62
     0
  2
_OPEN
 10
5220.0141546097802
 20
3057.9290199999991
 30
0.0
 41
60.0
 42
60.0
 43
60.0
 50
270.0
  0
TEXT
  8
3
  40
90
  5
7DC5
  62
0
  72
0
  71
0
 10
4965.01
 20
3277.24
 30
0.000000
  1
φ754
  0
POINT
  5
7D8F
  8
DEFPOINTS
  6
CONTINUOUS
 62
     0
 10
4964.0612766097793
 20
3811.92902
 30
0.0
  0
POINT
  5
7D90
  8
DEFPOINTS
  6
CONTINUOUS
 62
     0
 10
4964.0612766097793
 20
3057.92902
 30
0.0
  0
POINT
  5
7D91
  8
DEFPOINTS
  6
CONTINUOUS
 62
     0
 10
5220.0141546097802
 20
3057.9290199999991
 30
0.0
  0
ENDBLK
  5
7C6E
  8
0
  0
BLOCK
  8
0
  2
*D11
 70
     1
 10
0.0
 20
0.0
 30
0.0
  3
*D11
  1

  0
LINE
  5
7CA9
  8
0
  6
BYBLOCK
 62
     0
 10
4304.0612766097793
 20
2794.92902
 30
0.0
 11
4304.0612766097793
 21
2530.7560440000002
 31
0.0
  0
LINE
  5
7CAA
  8
0
  6
BYBLOCK
 62
     0
 10
4697.0612766097793
 20
2599.7451169999999
 30
0.0
 11
4697.0612766097793
 21
2530.7560440000002
 31
0.0
  0
LINE
  5
7CAB
  8
0
  6
BYBLOCK
 62
     0
 10
4364.0612766097793
 20
2560.7560440000002
 30
0.0
 11
4637.0612766097793
 21
2560.7560440000002
 31
0.0
  0
TEXT
  5
7CAC
  8
3
 62
     0
 10
4393.4268496087907
 20
2601.1550449154379
 30
0.0
 40
90.0
  1
393
  0
INSERT
  5
7CAD
  8
0
  6
BYBLOCK
 62
     0
  2
_OPEN
 10
4304.0612766097793
 20
2560.7560440000002
 30
0.0
 41
60.0
 42
60.0
 43
60.0
 50
180.0
  0
INSERT
  5
7CAE
  8
0
  6
BYBLOCK
 62
     0
  2
_OPEN
 10
4697.0612766097793
 20
2560.7560440000002
 30
0.0
 41
60.0
 42
60.0
 43
60.0
  0
POINT
  5
7CAF
  8
DEFPOINTS
  6
BYBLOCK
 62
     0
 10
4304.0612766097793
 20
2809.92902
 30
0.0
  0
POINT
  5
7CB0
  8
DEFPOINTS
  6
BYBLOCK
 62
     0
 10
4697.0612766097793
 20
2614.7451169999999
 30
0.0
  0
POINT
  5
7CB1
  8
DEFPOINTS
  6
BYBLOCK
 62
     0
 10
4697.0612766097793
 20
2560.7560440000002
 30
0.0
  0
ENDBLK
  5
7CB2
  8
0
  0
BLOCK
  8
0
  2
*D12
 70
     1
 10
0.0
 20
0.0
 30
0.0
  3
*D12
  1

  0
LINE
  5
7D92
  8
3
  6
CONTINUOUS
 62
     0
 10
5064.0612766097802
 20
2794.92902
 30
0.0
 11
5064.0612766097802
 21
2530.7560440000002
 31
0.0
  0
LINE
  5
7D93
  8
3
  6
CONTINUOUS
 62
     0
 10
4757.0612766097793
 20
2560.7560440000002
 30
0.0
 11
5004.0612766097793
 21
2560.7560440000002
 31
0.0
  0
TEXT
  8
3
  40
90
  5
7DC6
  62
0
  72
0
  71
0
 10
4713.14
 20
2475.68
 30
0.000000
  1
367
  0
INSERT
  5
7D95
  8
3
  6
CONTINUOUS
 62
     0
  2
_OPEN
 10
4697.0612766097793
 20
2560.7560440000002
 30
0.0
 41
60.0
 42
60.0
 43
60.0
 50
180.0
  0
INSERT
  5
7D96
  8
3
  6
CONTINUOUS
 62
     0
  2
_OPEN
 10
5064.0612766097802
 20
2560.7560440000002
 30
0.0
 41
60.0
 42
60.0
 43
60.0
  0
POINT
  5
7D97
  8
DEFPOINTS
  6
CONTINUOUS
 62
     0
 10
4697.0612766097793
 20
2614.7451169999999
 30
0.0
  0
POINT
  5
7D98
  8
DEFPOINTS
  6
CONTINUOUS
 62
     0
 10
5064.0612766097802
 20
2809.92902
 30
0.0
  0
POINT
  5
7D99
  8
DEFPOINTS
  6
CONTINUOUS
 62
     0
 10
5064.0612766097802
 20
2560.7560440000002
 30
0.0
  0
ENDBLK
  5
7C43
  8
0
  0
BLOCK
  8
0
  2
*D13
 70
     1
 10
0.0
 20
0.0
 30
0.0
  3
*D13
  1

  0
LINE
  5
7D9A
  8
3
  6
CONTINUOUS
 62
     0
 10
1095.305783609778
 20
6300.0294679999988
 30
0.0
 11
1095.305783609778
 21
6558.2677830000011
 31
0.0
  0
LINE
  5
7D9B
  8
3
  6
CONTINUOUS
 62
     0
 10
2785.3057836097778
 20
6300.0294679999988
 30
0.0
 11
2785.3057836097778
 21
6558.2677830000011
 31
0.0
  0
LINE
  5
7D9C
  8
3
  6
CONTINUOUS
 62
     0
 10
1155.305783609778
 20
6528.2677830000002
 30
0.0
 11
2725.3057836097778
 21
6528.2677830000002
 31
0.0
  0
INSERT
  5
7D9D
  8
3
  6
CONTINUOUS
 62
     0
  2
_OPEN
 10
1095.305783609778
 20
6528.2677830000002
 30
0.0
 41
60.0
 42
60.0
 43
60.0
 50
180.0
  0
INSERT
  5
7D9E
  8
3
  6
CONTINUOUS
 62
     0
  2
_OPEN
 10
2785.3057836097778
 20
6528.2677830000002
 30
0.0
 41
60.0
 42
60.0
 43
60.0
  0
TEXT
  8
3
  40
90
  5
7DC7
  62
0
  72
0
  71
0
 10
1616.97
 20
6443.97
 30
0.000000
  1
1690
  0
POINT
  5
7DA0
  8
DEFPOINTS
  6
CONTINUOUS
 62
     0
 10
1095.305783609778
 20
6285.0294679999997
 30
0.0
  0
POINT
  5
7DA1
  8
DEFPOINTS
  6
CONTINUOUS
 62
     0
 10
2785.3057836097778
 20
6285.0294679999997
 30
0.0
  0
POINT
  5
7DA2
  8
DEFPOINTS
  6
CONTINUOUS
 62
     0
 10
2785.3057836097778
 20
6528.2677830000002
 30
0.0
  0
ENDBLK
  5
7C16
  8
0
  0
BLOCK
  8
0
  2
*D14
 70
     1
 10
0.0
 20
0.0
 30
0.0
  3
*D14
  1

  0
LINE
  5
7DA3
  8
3
  6
CONTINUOUS
 62
     0
 10
2800.3057836097792
 20
6285.0294679999997
 30
0.0
 11
3051.7744486097799
 21
6285.0294679999997
 31
0.0
  0
LINE
  5
7DA4
  8
3
  6
CONTINUOUS
 62
     0
 10
2800.3057836097792
 20
5525.0294679999988
 30
0.0
 11
3051.7744486097799
 21
5525.0294679999988
 31
0.0
  0
LINE
  5
7DA5
  8
3
  6
CONTINUOUS
 62
     0
 10
3021.7744486097799
 20
6225.0294679999988
 30
0.0
 11
3021.7744486097799
 21
5585.0294679999997
 31
0.0
  0
INSERT
  5
7DA6
  8
3
  6
CONTINUOUS
 62
     0
  2
_OPEN
 10
3021.7744486097799
 20
6285.0294679999997
 30
0.0
 41
60.0
 42
60.0
 43
60.0
 50
90.0
  0
INSERT
  5
7DA7
  8
3
  6
CONTINUOUS
 62
     0
  2
_OPEN
 10
3021.7744486097799
 20
5525.0294679999988
 30
0.0
 41
60.0
 42
60.0
 43
60.0
 50
270.0
  0
TEXT
  8
3
  40
90
  5
7DC8
  62
0
  72
0
  71
0
 10
2766.77
 20
5751.63
 30
0.000000
  1
760
  0
POINT
  5
7DA9
  8
DEFPOINTS
  6
CONTINUOUS
 62
     0
 10
2785.3057836097778
 20
6285.0294679999997
 30
0.0
  0
POINT
  5
7DAA
  8
DEFPOINTS
  6
CONTINUOUS
 62
     0
 10
2785.3057836097778
 20
5525.0294679999988
 30
0.0
  0
POINT
  5
7DAB
  8
DEFPOINTS
  6
CONTINUOUS
 62
     0
 10
3021.7744486097799
 20
5525.0294679999988
 30
0.0
  0
ENDBLK
  5
7BC4
  8
0
  0
BLOCK
  8
0
  2
*D15
 70
     1
 10
0.0
 20
0.0
 30
0.0
  3
*D15
  1

  0
LINE
  5
7DAC
  8
3
  6
CONTINUOUS
 62
     0
 10
4197.0612766097793
 20
4064.92902
 30
0.0
 11
4197.0612766097793
 21
4292.9433409999992
 31
0.0
  0
LINE
  5
7DAD
  8
3
  6
CONTINUOUS
 62
     0
 10
4637.0612766097793
 20
4262.9433409999983
 30
0.0
 11
4257.0612766097793
 21
4262.9433409999983
 31
0.0
  0
INSERT
  5
7DAE
  8
3
  6
CONTINUOUS
 62
     0
  2
_OPEN
 10
4697.0612766097793
 20
4262.9433409999983
 30
0.0
 41
60.0
 42
60.0
 43
60.0
  0
INSERT
  5
7DAF
  8
3
  6
CONTINUOUS
 62
     0
  2
_OPEN
 10
4197.0612766097793
 20
4262.9433409999983
 30
0.0
 41
60.0
 42
60.0
 43
60.0
 50
180.0
  0
TEXT
  8
3
  40
90
  5
7DC9
  62
0
  72
0
  71
0
 10
4267.06
 20
4253.64
 30
0.000000
  1
MAX
  0
TEXT
  8
3
  40
90
  5
7DCA
  62
0
  72
0
  71
0
 10
4267.06
 20
4136.64
 30
0.000000
  1
560
  0
POINT
  5
7DB1
  8
DEFPOINTS
  6
CONTINUOUS
 62
     0
 10
4697.0612766097793
 20
4208.8730390000001
 30
0.0
  0
POINT
  5
7DB2
  8
DEFPOINTS
  6
CONTINUOUS
 62
     0
 10
4197.0612766097793
 20
4049.92902
 30
0.0
  0
POINT
  5
7DB3
  8
DEFPOINTS
  6
CONTINUOUS
 62
     0
 10
4197.0612766097793
 20
4262.9433409999983
 30
0.0
  0
ENDBLK
  5
7C63
  8
0
  0
BLOCK
  8
0
  2
*D16
 70
     1
 10
0.0
 20
0.0
 30
0.0
  3
*D16
  1

  0
LINE
  5
7DB4
  8
3
 62
     0
 10
2245.3057836097778
 20
4228.4855020000005
 30
0.0
 11
2245.3057836097778
 21
4353.4963172056059
 31
0.0
  0
LINE
  5
7DB5
  8
3
 62
     0
 10
2754.687977410279
 20
3382.291575207717
 30
0.0
 11
2754.687977410279
 21
4353.4963172056059
 31
0.0
  0
LINE
  5
7DB6
  8
3
 62
     0
 10
2305.3057836097792
 20
4323.4963172056068
 30
0.0
 11
2694.6879774102781
 21
4323.4963172056068
 31
0.0
  0
INSERT
  5
7DB7
  8
3
 62
     0
  2
_OPEN
 10
2245.3057836097778
 20
4323.4963172056068
 30
0.0
 41
60.0
 42
60.0
 43
60.0
 50
180.0
  0
INSERT
  5
7DB8
  8
3
 62
     0
  2
_OPEN
 10
2754.687977410279
 20
4323.4963172056068
 30
0.0
 41
60.0
 42
60.0
 43
60.0
  0
TEXT
  8
3
  40
90
  5
7DCB
  62
0
  72
0
  71
0
 10
2352.09
 20
4239.20
 30
0.000000
  1
508
  0
POINT
  5
7DBA
  8
DEFPOINTS
 62
     0
 10
2245.3057836097778
 20
4213.4855020000005
 30
0.0
  0
POINT
  5
7DBB
  8
DEFPOINTS
 62
     0
 10
2754.687977410279
 20
3367.291575207717
 30
0.0
  0
POINT
  5
7DBC
  8
DEFPOINTS
 62
     0
 10
2754.687977410279
 20
4323.4963172056068
 30
0.0
  0
ENDBLK
  5
7CDE
  8
0
  0
ENDSEC
  0
SECTION
  2
ENTITIES
  0
LINE
  5
7A61
  8
1
  6
CONTINUOUS
 10
5064.0612766097802
 20
2909.92902
 30
0.0
 11
4304.0612766097793
 21
2909.92902
 31
0.0
  0
LINE
  5
7A62
  8
1
  6
CONTINUOUS
 10
5064.0612766097802
 20
2809.92902
 30
0.0
 11
4304.0612766097793
 21
2809.92902
 31
0.0
  0
LINE
  5
7A63
  8
1
  6
CONTINUOUS
 10
5002.0612766097793
 20
3969.92902
 30
0.0
 11
4392.0612766097793
 21
3969.92902
 31
0.0
  0
LINE
  5
7A64
  8
1
  6
CONTINUOUS
 10
5014.0612766097802
 20
2909.92902
 30
0.0
 11
4197.0612766097793
 21
2909.92902
 31
0.0
  0
LINE
  5
7A66
  8
1
  6
CONTINUOUS
 10
4432.0612766097793
 20
3969.92902
 30
0.0
 11
4432.0612766097793
 21
2909.92902
 31
0.0
  0
LINE
  5
7A67
  8
1
  6
CONTINUOUS
 10
2615.3057836097792
 20
2909.92902
 30
0.0
 11
2615.3057836097792
 21
4049.92902
 31
0.0
  0
LINE
  5
7A68
  8
2
  6
CENTER
 10
1433.825783609778
 20
3029.92902
 30
0.0
 11
1433.825783609778
 21
3189.92902
 31
0.0
  0
ARC
  5
7A69
  8
1
  6
CONTINUOUS
 10
1433.825783609778
 20
3109.92902
 30
0.0
 40
162.0
 50
324.97000000000003
 51
215.02999999999989
  0
CIRCLE
  5
7A6A
  8
1
  6
CONTINUOUS
 10
1433.825783609778
 20
3109.92902
 30
0.0
 40
80.0
  0
LINE
  5
7A6B
  8
1
  6
CONTINUOUS
 10
1255.305783609778
 20
2909.92902
 30
0.0
 11
1255.305783609778
 21
3209.92902
 31
0.0
  0
LINE
  5
7A6C
  8
1
  6
CONTINUOUS
 10
4197.0612766097793
 20
4049.92902
 30
0.0
 11
4197.0612766097793
 21
2909.92902
 31
0.0
  0
LINE
  5
7A6D
  8
1
  6
CONTINUOUS
 10
4337.0612766097793
 20
4049.92902
 30
0.0
 11
4337.0612766097793
 21
2909.92902
 31
0.0
  0
LINE
  5
7A6E
  8
1
  6
CONTINUOUS
 10
4307.0612766097793
 20
2989.9290199999991
 30
0.0
 11
4307.0612766097793
 21
3149.92902
 31
0.0
  0
LINE
  5
7A6F
  8
1
  6
CONTINUOUS
 10
4227.0612766097793
 20
2989.9290199999991
 30
0.0
 11
4227.0612766097793
 21
3149.92902
 31
0.0
  0
POLYLINE
  5
7A70
  8
1
  6
CONTINUOUS
 66
     1
 10
0.0
 20
0.0
 30
0.0
  0
VERTEX
  5
7D3D
  8
1
  6
CONTINUOUS
 10
1549.305783609778
 20
3969.92902
 30
0.0
  0
VERTEX
  5
7D3E
  8
1
  6
CONTINUOUS
 10
1565.305783609778
 20
3434.92902
 30
0.0
 42
0.4200000000000001
  0
VERTEX
  5
7D3F
  8
1
  6
CONTINUOUS
 10
2257.0957836097782
 20
2849.9090200000001
 30
0.0
 42
0.43
  0
VERTEX
  5
7D40
  8
1
  6
CONTINUOUS
 10
2750.0757836097778
 20
3466.8490200000001
 30
0.0
 42
0.37
  0
VERTEX
  5
7D41
  8
1
  6
CONTINUOUS
 10
2279.3057836097778
 20
3883.69902
 30
0.0
 42
0.34
  0
SEQEND
  5
7D42
  8
1
  6
CONTINUOUS
  0
LINE
  5
7A7A
  8
1
  6
CONTINUOUS
 10
2289.7457836097792
 20
3291.6590200000001
 30
0.0
 11
1457.535783609778
 21
3033.5190199999988
 31
0.0
  0
LINE
  5
7A7B
  8
1
  6
CONTINUOUS
 10
2785.3057836097778
 20
2909.92902
 30
0.0
 11
1095.305783609778
 21
2909.92902
 31
0.0
  0
LINE
  5
7A7C
  8
1
  6
CONTINUOUS
 10
2785.3057836097778
 20
2809.92902
 30
0.0
 11
1095.305783609778
 21
2809.92902
 31
0.0
  0
LINE
  5
7A7D
  8
1
  6
CONTINUOUS
 10
1095.305783609778
 20
2909.92902
 30
0.0
 11
1095.305783609778
 21
2809.92902
 31
0.0
  0
LINE
  5
7A7E
  8
1
  6
CONTINUOUS
 10
1587.825783609778
 20
2967.92902
 30
0.0
 11
1566.4857836097781
 21
3016.9390199999998
 31
0.0
  0
LINE
  5
7A7F
  8
1
  6
CONTINUOUS
 10
1587.825783609778
 20
2909.92902
 30
0.0
 11
1587.825783609778
 21
2967.92902
 31
0.0
  0
LINE
  5
7A80
  8
1
  6
CONTINUOUS
 10
1279.825783609778
 20
2909.92902
 30
0.0
 11
1279.825783609778
 21
2967.92902
 31
0.0
  0
LINE
  5
7A81
  8
1
  6
CONTINUOUS
 10
1279.825783609778
 20
2967.92902
 30
0.0
 11
1301.1757836097779
 21
3016.9390199999998
 31
0.0
  0
LINE
  5
7A82
  8
1
  6
CONTINUOUS
 10
2785.3057836097778
 20
2909.92902
 30
0.0
 11
2785.3057836097778
 21
2809.92902
 31
0.0
  0
LINE
  5
7A83
  8
1
  6
CONTINUOUS
 10
4304.0612766097793
 20
2909.92902
 30
0.0
 11
4304.0612766097793
 21
2809.92902
 31
0.0
  0
LINE
  5
7A84
  8
1
  6
CONTINUOUS
 10
4227.0612766097793
 20
2989.9290199999991
 30
0.0
 11
4307.0612766097793
 21
2989.9290199999991
 31
0.0
  0
LINE
  5
7A85
  8
1
  6
CONTINUOUS
 10
4307.0612766097793
 20
3048.92902
 30
0.0
 11
4432.0612766097793
 21
3048.92902
 31
0.0
  0
LINE
  5
7A86
  8
1
  6
CONTINUOUS
 10
1513.825783609778
 20
5525.0294679999988
 30
0.0
 11
2095.3057836097792
 21
5525.0294679999988
 31
0.0
  0
LINE
  5
7A87
  8
1
  6
CONTINUOUS
 10
1095.305783609778
 20
6285.0294679999997
 30
0.0
 11
2785.3057836097778
 21
6285.0294679999997
 31
0.0
  0
LINE
  5
7A88
  8
1
  6
CONTINUOUS
 10
2095.3057836097792
 20
4049.92902
 30
0.0
 11
1255.305783609778
 21
3209.92902
 31
0.0
  0
LINE
  5
7A89
  8
1
  6
CONTINUOUS
 10
2615.3057836097792
 20
5418.0294679999997
 30
0.0
 11
1255.305783609778
 21
5418.0294679999997
 31
0.0
  0
LINE
  5
7A8A
  8
1
  6
CONTINUOUS
 10
2615.3057836097792
 20
5558.0294679999997
 30
0.0
 11
1255.305783609778
 21
5558.0294679999997
 31
0.0
  0
LINE
  5
7A8B
  8
1
  6
CONTINUOUS
 10
1555.265783609779
 20
5653.0294679999988
 30
0.0
 11
2754.6757836097781
 21
5653.0294679999988
 31
0.0
  0
LINE
  5
7A8C
  8
1
  6
CONTINUOUS
 10
1555.265783609779
 20
6183.0294679999997
 30
0.0
 11
2754.6757836097781
 21
6183.0294679999997
 31
0.0
  0
LINE
  5
7A8D
  8
1
  6
CONTINUOUS
 10
2279.3057836097778
 20
3939.92902
 30
0.0
 11
1550.2057836097781
 21
3939.92902
 31
0.0
  0
LINE
  5
7A8E
  8
1
  6
CONTINUOUS
 10
2319.3057836097778
 20
3969.92902
 30
0.0
 11
1509.305783609778
 21
3969.92902
 31
0.0
  0
LINE
  5
7A90
  8
1
  6
CONTINUOUS
 10
1555.265783609779
 20
6183.0294679999997
 30
0.0
 11
2285.2657836097778
 21
5653.0294679999988
 31
0.0
  0
LINE
  5
7A91
  8
1
  6
CONTINUOUS
 10
1555.265783609779
 20
5653.0294679999988
 30
0.0
 11
2285.2657836097778
 21
6183.0294679999997
 31
0.0
  0
LINE
  5
7A92
  8
1
  6
CONTINUOUS
 10
2178.5657836097789
 20
3569.25902
 30
0.0
 11
1398.2357836097781
 21
3181.569019999999
 31
0.0
  0
LINE
  5
7A93
  8
2
  6
CENTER
 10
1353.825783609778
 20
3109.92902
 30
0.0
 11
1513.825783609778
 21
3109.92902
 31
0.0
  0
LINE
  5
7A94
  8
1
  6
CONTINUOUS
 10
1095.305783609778
 20
6285.0294679999997
 30
0.0
 11
1095.305783609778
 21
5525.0294679999988
 31
0.0
  0
LINE
  5
7A95
  8
1
  6
CONTINUOUS
 10
1095.305783609778
 20
5525.0294679999988
 30
0.0
 11
1353.825783609778
 21
5525.0294679999988
 31
0.0
  0
LINE
  5
7A96
  8
1
  6
CONTINUOUS
 10
1266.845783609778
 20
6073.2394679999998
 30
0.0
 11
1555.265783609779
 21
6073.2394679999998
 31
0.0
  0
LINE
  5
7A97
  8
1
  6
CONTINUOUS
 10
1454.825783609778
 20
5528.0294679999988
 30
0.0
 11
1454.825783609778
 21
5617.2994680000002
 31
0.0
  0
LINE
  5
7A98
  8
1
  6
CONTINUOUS
 10
1412.825783609778
 20
5528.0294679999988
 30
0.0
 11
1412.825783609778
 21
5617.2994680000002
 31
0.0
  0
LINE
  5
7A99
  8
1
  6
CONTINUOUS
 10
1266.845783609778
 20
5617.2994680000002
 30
0.0
 11
1595.825783609778
 21
5617.2994680000002
 31
0.0
  0
LINE
  5
7A9A
  8
1
  6
CONTINUOUS
 10
1595.825783609778
 20
5617.2994680000002
 30
0.0
 11
1595.825783609778
 21
5653.0294679999988
 31
0.0
  0
LINE
  5
7A9B
  8
1
  6
CONTINUOUS
 10
1266.845783609778
 20
5617.2994680000002
 30
0.0
 11
1266.845783609778
 21
6073.2394679999998
 31
0.0
  0
LINE
  5
7A9C
  8
1
  6
CONTINUOUS
 10
1255.305783609778
 20
5418.0294679999997
 30
0.0
 11
1255.305783609778
 21
5558.0294679999997
 31
0.0
  0
LINE
  5
7A9D
  8
1
  6
CONTINUOUS
 10
1353.825783609778
 20
5448.0294679999997
 30
0.0
 11
1353.825783609778
 21
5528.0294679999988
 31
0.0
  0
LINE
  5
7A9E
  8
1
  6
CONTINUOUS
 10
1513.825783609778
 20
5448.0294679999997
 30
0.0
 11
1513.825783609778
 21
5528.0294679999988
 31
0.0
  0
LINE
  5
7A9F
  8
1
  6
CONTINUOUS
 10
1513.825783609778
 20
5448.0294679999997
 30
0.0
 11
1353.825783609778
 21
5448.0294679999997
 31
0.0
  0
LINE
  5
7AA0
  8
1
  6
CONTINUOUS
 10
1513.825783609778
 20
5528.0294679999988
 30
0.0
 11
1353.825783609778
 21
5528.0294679999988
 31
0.0
  0
LINE
  5
7AA1
  8
1
  6
CONTINUOUS
 10
1555.265783609779
 20
5653.0294679999988
 30
0.0
 11
1555.265783609779
 21
6183.0294679999997
 31
0.0
  0
LINE
  5
7AA2
  8
1
  6
CONTINUOUS
 10
2615.3057836097792
 20
4049.92902
 30
0.0
 11
2095.3057836097792
 21
4049.92902
 31
0.0
  0
CIRCLE
  5
7AA3
  8
1
  6
CONTINUOUS
 10
2245.3057836097778
 20
3434.92902
 30
0.0
 40
150.0
  0
LINE
  5
7AA4
  8
1
  6
CONTINUOUS
 10
2279.3057836097778
 20
3883.69902
 30
0.0
 11
2279.3057836097778
 21
3969.92902
 31
0.0
  0
LINE
  5
7AA5
  8
2
  6
CENTER
 10
5047.2847446097794
 20
3434.92902
 30
0.0
 11
4070.187041609779
 21
3434.92902
 31
0.0
  0
LINE
  5
7AA6
  8
2
  6
CENTER
 10
2245.3057836097778
 20
6355.5180499999997
 30
0.0
 11
2245.3057836097778
 21
5319.5362709999999
 31
0.0
  0
LINE
  5
7AA7
  8
1
  6
CONTINUOUS
 10
4337.0612766097793
 20
4049.92902
 30
0.0
 11
4197.0612766097793
 21
4049.92902
 31
0.0
  0
LINE
  5
7AA8
  8
1
  6
CONTINUOUS
 10
4307.0612766097793
 20
3284.9290199999991
 30
0.0
 11
4307.0612766097793
 21
3584.92902
 31
0.0
  0
LINE
  5
7AA9
  8
1
  6
CONTINUOUS
 10
4227.0612766097793
 20
3284.9290199999991
 30
0.0
 11
4227.0612766097793
 21
3584.92902
 31
0.0
  0
LINE
  5
7AAA
  8
1
  6
CONTINUOUS
 10
4227.0612766097793
 20
3284.9290199999991
 30
0.0
 11
4307.0612766097793
 21
3284.9290199999991
 31
0.0
  0
LINE
  5
7AAB
  8
1
  6
CONTINUOUS
 10
4227.0612766097793
 20
3584.92902
 30
0.0
 11
4307.0612766097793
 21
3584.92902
 31
0.0
  0
LINE
  5
7AAC
  8
1
  6
CONTINUOUS
 10
4227.0612766097793
 20
3149.92902
 30
0.0
 11
4307.0612766097793
 21
3149.92902
 31
0.0
  0
LINE
  5
7AAD
  8
1
  6
CONTINUOUS
 10
4307.0612766097793
 20
3090.92902
 30
0.0
 11
4432.0612766097793
 21
3090.92902
 31
0.0
  0
LINE
  5
7AAE
  8
1
  6
CONTINUOUS
 10
4307.0612766097793
 20
3413.92902
 30
0.0
 11
4432.0612766097793
 21
3413.92902
 31
0.0
  0
LINE
  5
7AAF
  8
1
  6
CONTINUOUS
 10
4307.0612766097793
 20
3455.9290200000009
 30
0.0
 11
4432.0612766097793
 21
3455.9290200000009
 31
0.0
  0
LINE
  5
7AB0
  8
1
  6
CONTINUOUS
 10
2395.3057836097778
 20
5525.0294679999988
 30
0.0
 11
2785.3057836097778
 21
5525.0294679999988
 31
0.0
  0
LINE
  5
7AB1
  8
1
  6
CONTINUOUS
 10
2785.3057836097778
 20
6285.0294679999997
 30
0.0
 11
2785.3057836097778
 21
5525.0294679999988
 31
0.0
  0
LINE
  5
7AB2
  8
1
  6
CONTINUOUS
 10
2754.6757836097781
 20
5653.0294679999988
 30
0.0
 11
2754.6757836097781
 21
6183.0294679999997
 31
0.0
  0
LINE
  5
7AB3
  8
1
  6
CONTINUOUS
 10
2615.3057836097792
 20
5418.0294679999997
 30
0.0
 11
2615.3057836097792
 21
5558.0294679999997
 31
0.0
  0
LINE
  5
7AB4
  8
1
  6
CONTINUOUS
 10
2095.3057836097792
 20
5448.0294679999997
 30
0.0
 11
2095.3057836097792
 21
5528.0294679999988
 31
0.0
  0
LINE
  5
7AB5
  8
1
  6
CONTINUOUS
 10
2395.3057836097778
 20
5448.0294679999997
 30
0.0
 11
2395.3057836097778
 21
5528.0294679999988
 31
0.0
  0
LINE
  5
7AB6
  8
1
  6
CONTINUOUS
 10
2395.3057836097778
 20
5448.0294679999997
 30
0.0
 11
2095.3057836097792
 21
5448.0294679999997
 31
0.0
  0
LINE
  5
7AB7
  8
1
  6
CONTINUOUS
 10
2395.3057836097778
 20
5528.0294679999988
 30
0.0
 11
2095.3057836097792
 21
5528.0294679999988
 31
0.0
  0
LINE
  5
7AB8
  8
1
  6
CONTINUOUS
 10
2224.3057836097778
 20
5528.0294679999988
 30
0.0
 11
2224.3057836097778
 21
5653.0294679999988
 31
0.0
  0
LINE
  5
7AB9
  8
1
  6
CONTINUOUS
 10
2266.3057836097778
 20
5528.0294679999988
 30
0.0
 11
2266.3057836097778
 21
5653.0294679999988
 31
0.0
  0
LINE
  5
7ABA
  8
1
  6
CONTINUOUS
 10
2285.2657836097778
 20
5653.0294679999988
 30
0.0
 11
2285.2657836097778
 21
6183.0294679999997
 31
0.0
  0
LINE
  5
7ABB
  8
1
  6
CONTINUOUS
 10
4962.0612766097793
 20
3969.92902
 30
0.0
 11
4962.0612766097793
 21
2909.92902
 31
0.0
  0
LINE
  5
7ABC
  8
1
  6
CONTINUOUS
 10
5064.0612766097802
 20
2909.92902
 30
0.0
 11
5064.0612766097802
 21
2809.92902
 31
0.0
  0
LINE
  5
7ABD
  8
2
  6
CENTER
 10
948.50535560977869
 20
5918.0294679999997
 30
0.0
 11
2854.2792876097792
 21
5918.0294679999997
 31
0.0
  0
LINE
  5
7ABE
  8
2
  6
CENTER
 10
4697.0612766097793
 20
4084.2168959999999
 30
0.0
 11
4697.0612766097793
 21
2614.7451169999999
 31
0.0
  0
LINE
  5
7ABF
  8
2
  6
CENTER
 10
2915.0676546097779
 20
3434.92902
 30
0.0
 11
1266.2621376097779
 21
3434.92902
 31
0.0
  0
LINE
  5
7AC0
  8
2
  6
CENTER
 10
2245.3057836097778
 20
4213.4855020000005
 30
0.0
 11
2245.3057836097778
 21
2605.8832079999988
 31
0.0
  0
LINE
  5
7AC1
  8
4
  6
CONTINUOUS
 10
5550.0
 20
1500.0
 30
0.0
 11
5550.0
 21
900.0
 31
0.0
  0
LINE
  5
7AC2
  8
4
  6
CONTINUOUS
 10
3450.0
 20
1500.0
 30
0.0
 11
3450.0
 21
900.0
 31
0.0
  0
LINE
  5
7AC3
  8
4
  6
CONTINUOUS
 10
1950.0
 20
1500.0
 30
0.0
 11
1950.0
 21
900.0
 31
0.0
  0
LINE
  5
7AC6
  8
4
  6
CONTINUOUS
 10
1950.0
 20
900.0
 30
0.0
 11
5550.0
 21
900.0
 31
0.0
  0
LINE
  5
7AC7
  8
4
  6
CONTINUOUS
 10
1950.0
 20
1200.0
 30
0.0
 11
5550.0
 21
1200.0
 31
0.0
  0
TEXT
  5
7AC8
  8
4
  6
CONTINUOUS
 10
2065.5062429999989
 20
1294.6290779999999
 30
0.0
 40
150.0
  1
機器名称
  0
TEXT
  5
7AC9
  8
4
  6
CONTINUOUS
 10
2058.7743179999989
 20
964.9354699999999
 30
0.0
 40
150.0
  1
機器型番
  0
TEXT
  5
7ACA
  8
4
  6
CONTINUOUS
 10
3533.0362359999999
 20
1267.7153069999999
 30
0.0
 40
150.0
  1
ミツヤ多翼送風機
  0
TEXT
  5
7ACB
  8
4
  6
CONTINUOUS
 10
3559.9634869999991
 20
951.47875299999987
 30
0.0
 40
150.0
  1
MF#4 1/2-4
  0
TEXT
  5
7ACD
  8
4
  6
CONTINUOUS
 10
2358.0929329999999
 20
7150.2865239999992
 30
0.0
 40
162.0
  1
天井吊ベット
  0
TEXT
  5
7ACE
  8
4
  6
CONTINUOUS
 10
948.50278000000014
 20
7601.6429289999996
 30
0.0
 40
216.0
  1
ベルト駆動式片吸込両持多翼ファン
  0
LINE
  5
7ACF
  8
4
  6
CONTINUOUS
 10
750.0
 20
7408.2262629999996
 30
0.0
 11
5550.0
 21
7408.2262629999996
 31
0.0
  0
LINE
  5
7AD0
  8
4
  6
CONTINUOUS
 10
750.0
 20
8008.2262629999996
 30
0.0
 11
5550.0
 21
8008.2262629999996
 31
0.0
  0
LINE
  5
7AD1
  8
4
  6
CONTINUOUS
 10
1950.0
 20
1500.0
 30
0.0
 11
5550.0
 21
1500.0
 31
0.0
  0
LINE
  5
7AD2
  8
4
  6
CONTINUOUS
 10
750.0
 20
8008.2262629999996
 30
0.0
 11
750.0
 21
7408.2262629999996
 31
0.0
  0
TEXT
  5
7AD3
  8
4
  6
CONTINUOUS
 10
1050.516437
 20
7146.9584329999998
 30
0.0
 40
162.0
  1
右回転上向
  0
TEXT
  5
7AD4
  8
4
  6
CONTINUOUS
 10
4406.9086779999989
 20
8118.1832439999989
 30
0.0
 40
168.0
  1
No.
  0
TEXT
  5
7AD5
  8
4
  6
CONTINUOUS
 10
3933.8881879999999
 20
7150.2865239999992
 30
0.0
 40
162.0
  1
縮尺：1/30
  0
LINE
  5
7AD6
  8
4
  6
CONTINUOUS
 10
5550.0
 20
8008.2262629999996
 30
0.0
 11
5550.0
 21
7408.2262629999996
 31
0.0
  0
LINE
  5
7AD8
  8
4
  6
CONTINUOUS
 10
4321.8522670000002
 20
8043.7907490000007
 30
0.0
 11
4321.8522670000002
 21
8359.9567849999985
 31
0.0
  0
LINE
  5
7AD9
  8
4
  6
CONTINUOUS
 10
4321.8522670000002
 20
8359.9567849999985
 30
0.0
 11
5550.0
 21
8359.9567849999985
 31
0.0
  0
LINE
  5
7ADA
  8
4
  6
CONTINUOUS
 10
5550.0
 20
8359.9567849999985
 30
0.0
 11
5550.0
 21
8043.7907490000007
 31
0.0
  0
LINE
  5
7ADB
  8
4
  6
CONTINUOUS
 10
5550.0
 20
8043.7907490000007
 30
0.0
 11
4321.8522670000002
 21
8043.7907490000007
 31
0.0
  0
DIMENSION
  5
7AF3
  8
3
  6
CONTINUOUS
  2
*D1
 10
2279.3057836097778
 20
4163.4493259999999
 30
0.0
 11
1891.181982609779
 21
4163.4493259999999
 31
0.0
 70
   128
 13
1549.305783609778
 23
3969.92902
 33
0.0
 14
2279.3057836097778
 24
3969.92902
 34
0.0
1001
ACAD
1000
DSTYLE
1002
{
1070
   287
1070
     3
1070
    40
1040
30.0
1070
   143
1040
0.039
1070
   172
1070
     1
1070
   271
1070
     0
1070
   279
1070
     0
1070
   288
1070
     1
1002
}
  0
DIMENSION
  5
7B0C
  8
3
  6
CONTINUOUS
  2
*D2
 10
2245.3057836097778
 20
4320.3611770000007
 30
0.0
 11
1885.947770609778
 21
4320.3611770000007
 31
0.0
 70
   128
 13
1549.305783609778
 23
3969.92902
 33
0.0
 14
2245.3057836097778
 24
4213.4855020000005
 34
0.0
1001
ACAD
1000
DSTYLE
1002
{
1070
   287
1070
     3
1070
    40
1040
30.0
1070
   143
1040
0.039
1070
   172
1070
     1
1070
   271
1070
     0
1070
   279
1070
     0
1070
   288
1070
     1
1002
}
  0
DIMENSION
  5
7B25
  8
3
  6
CONTINUOUS
  2
*D3
 10
2979.9006766097782
 20
3434.92902
 30
0.0
 11
2979.9006766097782
 21
3713.7518289999989
 31
0.0
 70
   128
 13
2319.3057836097778
 23
3969.92902
 33
0.0
 14
2909.152927609779
 24
3434.92902
 34
0.0
 50
90.0
1001
ACAD
1000
DSTYLE
1002
{
1070
   287
1070
     3
1070
    40
1040
30.0
1070
   143
1040
0.039
1070
   172
1070
     1
1070
   271
1070
     0
1070
   279
1070
     0
1070
   288
1070
     1
1002
}
  0
DIMENSION
  5
7B31
  8
3
  6
CONTINUOUS
  2
*D4
 10
2979.9006766097782
 20
2809.92902
 30
0.0
 11
2904.9006766097782
 21
3122.42902
 31
0.0
 70
     0
 13
2909.152927609779
 23
3434.92902
 33
0.0
 14
2785.3057836097778
 24
2809.92902
 34
0.0
 50
90.0
1001
ACAD
1000
DSTYLE
1002
{
1070
   287
1070
     4
1070
    40
1040
30.0
1070
    75
1070
     1
1070
   143
1040
0.039
1070
   172
1070
     1
1070
   271
1070
     0
1070
   279
1070
     1
1070
   288
1070
     1
1002
}
  0
DIMENSION
  5
7B3E
  8
3
  6
CONTINUOUS
  2
*D5
 10
3199.7380706097788
 20
2809.9290199999991
 30
0.0
 11
3199.7380706097788
 21
3410.3888900000002
 31
0.0
 70
   128
 13
2334.3057836097778
 23
3969.92902
 33
0.0
 14
2785.3057836097778
 24
2809.92902
 34
0.0
 50
90.0
1001
ACAD
1000
DSTYLE
1002
{
1070
   287
1070
     3
1070
    40
1040
30.0
1070
   143
1040
0.039
1070
   172
1070
     1
1070
   271
1070
     0
1070
   279
1070
     0
1070
   288
1070
     1
1002
}
  0
DIMENSION
  5
7B4B
  8
3
  6
CONTINUOUS
  2
*D6
 10
2245.3057836097778
 20
2526.9483700000001
 30
0.0
 11
1671.344552609778
 21
2526.9483700000001
 31
0.0
 70
   128
 13
1095.305783609778
 23
2809.92902
 33
0.0
 14
2245.3057836097778
 24
2605.8832079999988
 34
0.0
1001
ACAD
1000
DSTYLE
1002
{
1070
   287
1070
     3
1070
    40
1040
30.0
1070
   143
1040
0.039
1070
   172
1070
     1
1070
   271
1070
     0
1070
   279
1070
     0
1070
   288
1070
     1
1002
}
  0
DIMENSION
  5
7B57
  8
3
  6
CONTINUOUS
  2
*D7
 10
2785.3057836097778
 20
2526.9483700000001
 30
0.0
 11
2515.3057836097778
 21
2601.9483700000001
 31
0.0
 70
     0
 13
2245.3057836097778
 23
2605.8832079999988
 33
0.0
 14
2785.3057836097778
 24
2809.92902
 34
0.0
1001
ACAD
1000
DSTYLE
1002
{
1070
   287
1070
     4
1070
    40
1040
30.0
1070
    75
1070
     1
1070
   143
1040
0.039
1070
   172
1070
     1
1070
   271
1070
     0
1070
   279
1070
     1
1070
   288
1070
     1
1002
}
  0
DIMENSION
  5
7B64
  8
3
  6
CONTINUOUS
  2
*D8
 10
4962.0612766097793
 20
4074.6491110000002
 30
0.0
 11
4707.0601736097778
 21
4074.6491110000002
 31
0.0
 70
   128
 13
4432.0612766097793
 23
3969.92902
 33
0.0
 14
4962.0612766097793
 24
3969.92902
 34
0.0
1001
ACAD
1000
DSTYLE
1002
{
1070
   287
1070
     3
1070
    40
1040
30.0
1070
   143
1040
0.039
1070
   172
1070
     1
1070
   271
1070
     0
1070
   279
1070
     0
1070
   288
1070
     1
1002
}
  0
LINE
  5
7B65
  8
1
  6
CONTINUOUS
 10
4964.0612766097793
 20
3811.92902
 30
0.0
 11
4964.0612766097793
 21
3057.92902
 31
0.0
  0
DIMENSION
  5
7B75
  8
3
  6
CONTINUOUS
  2
*D9
 10
4697.0612766097793
 20
4262.9433409999983
 30
0.0
 11
4839.4961968107818
 21
4350.0918338900374
 31
0.0
 70
   128
 13
4964.0612766097793
 23
3811.92902
 33
0.0
 14
4697.0612766097793
 24
4208.8730390000001
 34
0.0
1001
ACAD
1000
DSTYLE
1002
{
1070
   288
1070
     1
1070
   172
1070
     1
1070
    40
1040
30.0
1070
   271
1070
     0
1070
   143
1040
0.039
1002
}
  0
DIMENSION
  5
7B82
  8
3
  6
CONTINUOUS
  2
*D10
 10
5220.0141546097802
 20
3057.9290199999991
 30
0.0
 11
5220.0141546097784
 21
3436.5408759999991
 31
0.0
 70
   128
 13
4964.0612766097793
 23
3811.92902
 33
0.0
 14
4964.0612766097793
 24
3057.92902
 34
0.0
 50
90.0
1001
ACAD
1000
DSTYLE
1002
{
1070
   287
1070
     3
1070
     3
1000
φ<>
1070
    40
1040
30.0
1070
   143
1040
0.039
1070
   172
1070
     1
1070
   271
1070
     0
1070
   279
1070
     0
1070
   288
1070
     1
1002
}
  0
DIMENSION
  5
7B91
  8
3
  6
CONTINUOUS
  2
*D11
 10
4697.0612766097793
 20
2560.7560440000002
 30
0.0
 11
4509.1411353230751
 21
2646.1550449154379
 31
0.0
 70
   128
 13
4304.0612766097793
 23
2809.92902
 33
0.0
 14
4697.0612766097793
 24
2614.7451169999999
 34
0.0
1001
ACAD
1000
DSTYLE
1002
{
1070
   288
1070
     1
1070
   172
1070
     1
1070
    40
1040
30.0
1070
   271
1070
     0
1070
   143
1040
0.039
1002
}
  0
DIMENSION
  5
7B9F
  8
3
  6
CONTINUOUS
  2
*D12
 10
5064.0612766097802
 20
2560.7560440000002
 30
0.0
 11
4893.1400576097776
 21
2559.9755869999999
 31
0.0
 70
   128
 13
4697.0612766097793
 23
2614.7451169999999
 33
0.0
 14
5064.0612766097802
 24
2809.92902
 34
0.0
1001
ACAD
1000
DSTYLE
1002
{
1070
   287
1070
     4
1070
    40
1040
30.0
1070
    75
1070
     1
1070
   143
1040
0.039
1070
   172
1070
     1
1070
   271
1070
     0
1070
   279
1070
     1
1070
   288
1070
     1
1002
}
  0
DIMENSION
  5
7BB8
  8
3
  6
CONTINUOUS
  2
*D13
 10
2785.3057836097778
 20
6528.2677830000002
 30
0.0
 11
1796.9659416097779
 21
6528.2677830000002
 31
0.0
 70
   128
 13
1095.305783609778
 23
6285.0294679999997
 33
0.0
 14
2785.3057836097778
 24
6285.0294679999997
 34
0.0
1001
ACAD
1000
DSTYLE
1002
{
1070
   287
1070
     3
1070
    40
1040
30.0
1070
   143
1040
0.039
1070
   172
1070
     1
1070
   271
1070
     0
1070
   279
1070
     0
1070
   288
1070
     1
1002
}
  0
DIMENSION
  5
7BC5
  8
3
  6
CONTINUOUS
  2
*D14
 10
3021.7744486097799
 20
5525.0294679999988
 30
0.0
 11
3021.774448609779
 21
5910.9344389999997
 31
0.0
 70
   128
 13
2785.3057836097778
 23
6285.0294679999997
 33
0.0
 14
2785.3057836097778
 24
5525.0294679999988
 34
0.0
 50
90.0
1001
ACAD
1000
DSTYLE
1002
{
1070
   287
1070
     3
1070
    40
1040
30.0
1070
   143
1040
0.039
1070
   172
1070
     1
1070
   271
1070
     0
1070
   279
1070
     0
1070
   288
1070
     1
1002
}
  0
DIMENSION
  5
7C4F
  8
3
  6
CONTINUOUS
  2
*D15
 10
4197.0612766097793
 20
4262.9433409999983
 30
0.0
 11
4447.0612766097793
 21
4412.9433409999992
 31
0.0
 70
     0
  1
MAX\P560
 13
4697.0612766097793
 23
4208.8730390000001
 33
0.0
 14
4197.0612766097793
 24
4049.92902
 34
0.0
1001
ACAD
1000
DSTYLE
1002
{
1070
   287
1070
     4
1070
    40
1040
30.0
1070
    75
1070
     1
1070
   143
1040
0.039
1070
   172
1070
     1
1070
   271
1070
     0
1070
   279
1070
     1
1070
   288
1070
     1
1002
}
  0
LINE
  5
7CCF
  8
1
  6
CONTINUOUS
 10
2705.3057836097778
 20
3829.92902
 30
0.0
 11
1785.305783609778
 21
3829.92902
 31
0.0
  0
DIMENSION
  5
7CD2
  8
3
  2
*D16
 10
2754.687977410279
 20
4323.4963172056068
 30
0.0
 11
2532.0919821638709
 21
4323.4963172056068
 31
0.0
 70
   128
  1
508
 13
2245.3057836097778
 23
4213.4855020000005
 33
0.0
 14
2754.687977410279
 24
3367.291575207717
 34
0.0
1001
ACAD
1000
DSTYLE
1002
{
1070
   287
1070
     3
1070
    40
1040
30.0
1070
   143
1040
0.039
1070
   172
1070
     1
1070
   271
1070
     0
1070
   279
1070
     0
1070
   288
1070
     1
1002
}
  0
LINE
  5
7D23
  8
1
 10
1785.305783609778
 20
3829.92902
 30
0.0
 11
1785.305783609778
 21
2909.92902
 31
0.0
  0
LINE
  5
7D24
  8
1
 10
2705.3057836097778
 20
3829.92902
 30
0.0
 11
2705.3057836097778
 21
2909.92902
 31
0.0
  0
ENDSEC
  0
EOF
