  0
SECTION
  2
HEADER
  9
$ACADVER
  1
AC1009
  9
$INSBASE
 10
0.0
 20
0.0
 30
0.0
  9
$EXTMIN
 10
750.0
 20
900.0
 30
0.0
  9
$EXTMAX
 10
5550.0
 20
8359.9567849999985
 30
0.0
  9
$LIMMIN
 10
0.0
 20
0.0
  9
$LIMMAX
 10
297.0
 20
210.0
  9
$ORTHOMODE
 70
     0
  9
$REGENMODE
 70
     1
  9
$FILLMODE
 70
     0
  9
$QTEXTMODE
 70
     0
  9
$MIRRTEXT
 70
     1
  9
$DRAGMODE
 70
     2
  9
$LTSCALE
 40
100.0
  9
$OSMODE
 70
    37
  9
$ATTMODE
 70
     1
  9
$TEXTSIZE
 40
180.0
  9
$TRACEWID
 40
0.05
  9
$TEXTSTYLE
  7
STANDARD
  9
$CLAYER
  8
3
  9
$CELTYPE
  6
BYLAYER
  9
$CECOLOR
 62
   256
  9
$DIMSCALE
 40
30.0
  9
$DIMASZ
 40
2.0
  9
$DIMEXO
 40
0.5
  9
$DIMDLI
 40
10.0
  9
$DIMRND
 40
0.0
  9
$DIMDLE
 40
0.0
  9
$DIMEXE
 40
1.0
  9
$DIMTP
 40
1.0
  9
$DIMTM
 40
1.0
  9
$DIMTXT
 40
3.0
  9
$DIMCEN
 40
0.0
  9
$DIMTSZ
 40
0.0
  9
$DIMTOL
 70
     0
  9
$DIMLIM
 70
     0
  9
$DIMTIH
 70
     0
  9
$DIMTOH
 70
     0
  9
$DIMSE1
 70
     0
  9
$DIMSE2
 70
     0
  9
$DIMTAD
 70
     1
  9
$DIMZIN
 70
     8
  9
$DIMBLK
  1

  9
$DIMASO
 70
     1
  9
$DIMSHO
 70
     1
  9
$DIMPOST
  1

  9
$DIMAPOST
  1

  9
$DIMALT
 70
     0
  9
$DIMALTD
 70
     2
  9
$DIMALTF
 40
0.039
  9
$DIMLFAC
 40
1.0
  9
$DIMTOFL
 70
     1
  9
$DIMTVP
 40
0.0
  9
$DIMTIX
 70
     0
  9
$DIMSOXD
 70
     0
  9
$DIMSAH
 70
     1
  9
$DIMBLK1
  1
OPEN
  9
$DIMBLK2
  1
OPEN
  9
$DIMSTYLE
  2
IGA
  9
$DIMCLRD
 70
     0
  9
$DIMCLRE
 70
     0
  9
$DIMCLRT
 70
     0
  9
$DIMTFAC
 40
10.0
  9
$DIMGAP
 40
1.0
  9
$LUNITS
 70
     2
  9
$LUPREC
 70
     3
  9
$SKETCHINC
 40
0.1
  9
$FILLETRAD
 40
50.0
  9
$AUNITS
 70
     0
  9
$AUPREC
 70
     0
  9
$MENU
  1
acad
  9
$ELEVATION
 40
0.0
  9
$PELEVATION
 40
0.0
  9
$THICKNESS
 40
0.0
  9
$LIMCHECK
 70
     0
  9
$BLIPMODE
 70
     0
  9
$CHAMFERA
 40
0.5
  9
$CHAMFERB
 40
0.5
  9
$SKPOLY
 70
     0
  9
$TDCREATE
 40
2450744.4134789351
  9
$TDUPDATE
 40
2454953.7723710532
  9
$TDINDWG
 40
0.0072853356
  9
$TDUSRTIMER
 40
0.0072853356
  9
$USRTIMER
 70
     1
  9
$ANGBASE
 50
0.0
  9
$ANGDIR
 70
     0
  9
$PDMODE
 70
     0
  9
$PDSIZE
 40
0.0
  9
$PLINEWID
 40
0.0
  9
$COORDS
 70
     1
  9
$SPLFRAME
 70
     0
  9
$SPLINETYPE
 70
     6
  9
$SPLINESEGS
 70
     8
  9
$ATTDIA
 70
     0
  9
$ATTREQ
 70
     1
  9
$HANDLING
 70
 10241
  9
$HANDSEED
  5
7D85
  9
$SURFTAB1
 70
     6
  9
$SURFTAB2
 70
     6
  9
$SURFTYPE
 70
     6
  9
$SURFU
 70
     6
  9
$SURFV
 70
     6
  9
$UCSNAME
  2

  9
$UCSORG
 10
0.0
 20
0.0
 30
0.0
  9
$UCSXDIR
 10
1.0
 20
0.0
 30
0.0
  9
$UCSYDIR
 10
0.0
 20
1.0
 30
0.0
  9
$PUCSNAME
  2

  9
$PUCSORG
 10
0.0
 20
0.0
 30
0.0
  9
$PUCSXDIR
 10
1.0
 20
0.0
 30
0.0
  9
$PUCSYDIR
 10
0.0
 20
1.0
 30
0.0
  9
$USERI1
 70
     0
  9
$USERI2
 70
     0
  9
$USERI3
 70
     0
  9
$USERI4
 70
     0
  9
$USERI5
 70
     0
  9
$USERR1
 40
0.0
  9
$USERR2
 40
0.0
  9
$USERR3
 40
0.0
  9
$USERR4
 40
0.0
  9
$USERR5
 40
0.0
  9
$WORLDVIEW
 70
     1
  9
$SHADEDGE
 70
     3
  9
$SHADEDIF
 70
    70
  9
$TILEMODE
 70
     1
  9
$MAXACTVP
 70
    16
  9
$PLIMCHECK
 70
     0
  9
$PEXTMIN
 10
1.0000000000000000E+020
 20
1.0000000000000000E+020
 30
1.0000000000000000E+020
  9
$PEXTMAX
 10
-1.0000000000000000E+020
 20
-1.0000000000000000E+020
 30
-1.0000000000000000E+020
  9
$PLIMMIN
 10
0.0
 20
0.0
  9
$PLIMMAX
 10
12.0
 20
9.0
  9
$UNITMODE
 70
     0
  9
$VISRETAIN
 70
     0
  9
$PLINEGEN
 70
     0
  9
$PSLTSCALE
 70
     1
  0
ENDSEC
  0
SECTION
  2
TABLES
  0
TABLE
  2
VPORT
 70
     2
  0
VPORT
  2
*ACTIVE
 70
     0
 10
0.0
 20
0.0
 11
1.0
 21
1.0
 12
9437.9954746499006
 22
4629.9199394653269
 13
0.0
 23
0.0
 14
10.0
 24
10.0
 15
10.0
 25
10.0
 16
0.0
 26
0.0
 36
1.0
 17
0.0
 27
0.0
 37
0.0
 40
7517.061441529765
 41
3.1666666666666661
 42
50.0
 43
0.0
 44
0.0
 50
0.0
 51
0.0
 71
     0
 72
   100
 73
     1
 74
     0
 75
     0
 76
     0
 77
     0
 78
     0
  0
ENDTAB
  0
TABLE
  2
LTYPE
 70
     2
  0
LTYPE
  2
CONTINUOUS
 70
     0
  3
Solid line
 72
    65
 73
     0
 40
0.0
  0
LTYPE
  2
CENTER
 70
     0
  3
____ _ ____ _ ____ _ ____ _ ____ _ ____ _ ____ 
 72
    65
 73
     4
 40
2.0
 49
1.25
 49
-0.25
 49
0.25
 49
-0.25
  0
ENDTAB
  0
TABLE
  2
LAYER
 70
     6
  0
LAYER
  2
0
 70
     0
 62
     7
  6
CONTINUOUS
  0
LAYER
  2
3
 70
     0
 62
     2
  6
CONTINUOUS
  0
LAYER
  2
2
 70
     0
 62
     3
  6
CENTER
  0
LAYER
  2
1
 70
     0
 62
     4
  6
CONTINUOUS
  0
LAYER
  2
4
 70
     0
 62
     7
  6
CONTINUOUS
  0
LAYER
  2
DEFPOINTS
 70
     0
 62
     7
  6
CONTINUOUS
  0
ENDTAB
  0
TABLE
  2
STYLE
 70
     1
  0
STYLE
  2
STANDARD
 70
     0
 40
0.0
 41
1.0
 50
0.0
 71
     0
 42
180.0
  3
simplex.shx
  4
extfont.shx
  0
ENDTAB
  0
TABLE
  2
VIEW
 70
     0
  0
ENDTAB
  0
TABLE
  2
UCS
 70
     0
  0
ENDTAB
  0
TABLE
  2
APPID
 70
     1
  0
APPID
  2
ACAD
 70
     0
  0
ENDTAB
  0
TABLE
  2
DIMSTYLE
 70
     1
  0
DIMSTYLE
  2
IGA
 70
     0
  3

  4

  5

  6
OPEN
  7
OPEN
 40
2.0
 41
2.0
 42
0.5
 43
10.0
 44
1.0
 45
0.0
 46
0.0
 47
1.0
 48
1.0
140
3.0
141
0.0
142
0.0
143
0.03937
144
1.0
145
0.0
146
10.0
147
1.0
 71
     0
 72
     0
 73
     0
 74
     0
 75
     0
 76
     0
 77
     1
 78
     8
170
     0
171
     2
172
     0
173
     1
174
     0
175
     0
176
     0
177
     0
178
     0
  0
ENDTAB
  0
ENDSEC
  0
SECTION
  2
BLOCKS
  0
BLOCK
  8
0
  2
$MODEL_SPACE
 70
     0
 10
0.0
 20
0.0
 30
0.0
  3
$MODEL_SPACE
  1

  0
ENDBLK
  5
1B
  8
0
  0
BLOCK
 67
     1
  8
0
  2
$PAPER_SPACE
 70
     0
 10
0.0
 20
0.0
 30
0.0
  3
$PAPER_SPACE
  1

  0
ENDBLK
  5
18
 67
     1
  8
0
  0
BLOCK
  8
0
  2
_OPEN
 70
     0
 10
0.0
 20
0.0
 30
0.0
  3
_OPEN
  1

  0
LINE
  5
7ABC
  8
0
  6
BYBLOCK
 62
     0
 10
-1.0
 20
0.166667
 30
0.0
 11
0.0
 21
0.0
 31
0.0
  0
LINE
  5
7ABD
  8
0
  6
BYBLOCK
 62
     0
 10
0.0
 20
0.0
 30
0.0
 11
-1.0
 21
-0.166667
 31
0.0
  0
LINE
  5
7ABE
  8
0
  6
BYBLOCK
 62
     0
 10
0.0
 20
0.0
 30
0.0
 11
-1.0
 21
0.0
 31
0.0
  0
ENDBLK
  5
7ABF
  8
0
  0
BLOCK
  8
0
  2
*D1
 70
     1
 10
0.0
 20
0.0
 30
0.0
  3
*D1
  1

  0
LINE
  5
7CF3
  8
3
  6
CONTINUOUS
 62
     0
 10
2766.6289390000002
 20
3840.0130469999999
 30
0.0
 11
2992.095104
 21
3840.0130469999999
 31
0.0
  0
LINE
  5
7CF4
  8
3
  6
CONTINUOUS
 62
     0
 10
2766.6289390000002
 20
3110.0130469999999
 30
0.0
 11
2992.095104
 21
3110.0130469999999
 31
0.0
  0
LINE
  5
7CF5
  8
3
  6
CONTINUOUS
 62
     0
 10
2962.0951040000009
 20
3780.0130469999999
 30
0.0
 11
2962.0951040000009
 21
3170.0130469999999
 31
0.0
  0
INSERT
  5
7CF6
  8
3
  6
CONTINUOUS
 62
     0
  2
_OPEN
 10
2962.0951040000009
 20
3840.0130469999999
 30
0.0
 41
60.0
 42
60.0
 43
60.0
 50
90.0
  0
INSERT
  5
7CF7
  8
3
  6
CONTINUOUS
 62
     0
  2
_OPEN
 10
2962.0951040000009
 20
3110.0130469999999
 30
0.0
 41
60.0
 42
60.0
 43
60.0
 50
270.0
  0
TEXT
  8
3
  40
90
  5
7D75
  62
0
  72
0
  71
0
 10
2707.10
 20
3321.42
 30
0.000000
  1
730
  0
POINT
  5
7CF9
  8
DEFPOINTS
  6
CONTINUOUS
 62
     0
 10
2751.6289390000002
 20
3840.0130469999999
 30
0.0
  0
POINT
  5
7CFA
  8
DEFPOINTS
  6
CONTINUOUS
 62
     0
 10
2751.6289390000002
 20
3110.0130469999999
 30
0.0
  0
POINT
  5
7CFB
  8
DEFPOINTS
  6
CONTINUOUS
 62
     0
 10
2962.0951040000009
 20
3110.0130469999999
 30
0.0
  0
ENDBLK
  5
7ACC
  8
0
  0
BLOCK
  8
0
  2
*D2
 70
     1
 10
0.0
 20
0.0
 30
0.0
  3
*D2
  1

  0
LINE
  5
7CFC
  8
3
  6
CONTINUOUS
 62
     0
 10
2766.6289390000002
 20
3840.0130469999999
 30
0.0
 11
3171.6956300000011
 21
3840.013046999999
 31
0.0
  0
LINE
  5
7CFD
  8
3
  6
CONTINUOUS
 62
     0
 10
2903.1467809999999
 20
3144.0130469999999
 30
0.0
 11
3171.6956300000011
 21
3144.013046999999
 31
0.0
  0
LINE
  5
7CFE
  8
3
  6
CONTINUOUS
 62
     0
 10
3141.6956300000011
 20
3780.013046999999
 30
0.0
 11
3141.6956300000011
 21
3204.013046999999
 31
0.0
  0
INSERT
  5
7CFF
  8
3
  6
CONTINUOUS
 62
     0
  2
_OPEN
 10
3141.6956300000011
 20
3840.013046999999
 30
0.0
 41
60.0
 42
60.0
 43
60.0
 50
90.0
  0
INSERT
  5
7D00
  8
3
  6
CONTINUOUS
 62
     0
  2
_OPEN
 10
3141.6956300000011
 20
3144.013046999999
 30
0.0
 41
60.0
 42
60.0
 43
60.0
 50
270.0
  0
TEXT
  8
3
  40
90
  5
7D76
  62
0
  72
0
  71
0
 10
2886.70
 20
3327.83
 30
0.000000
  1
696
  0
POINT
  5
7D02
  8
DEFPOINTS
  6
CONTINUOUS
 62
     0
 10
2751.6289390000002
 20
3840.0130469999999
 30
0.0
  0
POINT
  5
7D03
  8
DEFPOINTS
  6
CONTINUOUS
 62
     0
 10
2888.1467809999999
 20
3144.0130469999999
 30
0.0
  0
POINT
  5
7D04
  8
DEFPOINTS
  6
CONTINUOUS
 62
     0
 10
3141.6956300000011
 20
3144.013046999999
 30
0.0
  0
ENDBLK
  5
7AD9
  8
0
  0
BLOCK
  8
0
  2
*D3
 70
     1
 10
0.0
 20
0.0
 30
0.0
  3
*D3
  1

  0
LINE
  5
7D05
  8
3
  6
CONTINUOUS
 62
     0
 10
2771.6289390000002
 20
2519.0130469999999
 30
0.0
 11
3171.6956300000002
 21
2519.013046999999
 31
0.0
  0
LINE
  5
7D06
  8
3
  6
CONTINUOUS
 62
     0
 10
3141.6956300000002
 20
3084.013046999999
 30
0.0
 11
3141.6956300000002
 21
2579.013046999999
 31
0.0
  0
INSERT
  5
7D07
  8
3
  6
CONTINUOUS
 62
     0
  2
_OPEN
 10
3141.6956300000002
 20
3144.013046999999
 30
0.0
 41
60.0
 42
60.0
 43
60.0
 50
90.0
  0
INSERT
  5
7D08
  8
3
  6
CONTINUOUS
 62
     0
  2
_OPEN
 10
3141.6956300000002
 20
2519.013046999999
 30
0.0
 41
60.0
 42
60.0
 43
60.0
 50
270.0
  0
TEXT
  8
3
  40
90
  5
7D77
  62
0
  72
0
  71
0
 10
2886.70
 20
2672.21
 30
0.000000
  1
625
  0
POINT
  5
7D0A
  8
DEFPOINTS
  6
CONTINUOUS
 62
     0
 10
2888.1467809999999
 20
3144.0130469999999
 30
0.0
  0
POINT
  5
7D0B
  8
DEFPOINTS
  6
CONTINUOUS
 62
     0
 10
2756.6289390000002
 20
2519.0130469999999
 30
0.0
  0
POINT
  5
7D0C
  8
DEFPOINTS
  6
CONTINUOUS
 62
     0
 10
3141.6956300000002
 20
2519.013046999999
 30
0.0
  0
ENDBLK
  5
7AE5
  8
0
  0
BLOCK
  8
0
  2
*D4
 70
     1
 10
0.0
 20
0.0
 30
0.0
  3
*D4
  1

  0
LINE
  5
7D0D
  8
3
  6
CONTINUOUS
 62
     0
 10
2766.6289390000002
 20
3880.0130469999999
 30
0.0
 11
3396.1962780000008
 21
3880.013046999999
 31
0.0
  0
LINE
  5
7D0E
  8
3
  6
CONTINUOUS
 62
     0
 10
2771.6289390000002
 20
2519.0130469999999
 30
0.0
 11
3396.1962780000008
 21
2519.013046999999
 31
0.0
  0
LINE
  5
7D0F
  8
3
  6
CONTINUOUS
 62
     0
 10
3366.1962780000008
 20
3820.013046999999
 30
0.0
 11
3366.1962779999999
 21
2579.013046999999
 31
0.0
  0
INSERT
  5
7D10
  8
3
  6
CONTINUOUS
 62
     0
  2
_OPEN
 10
3366.1962780000008
 20
3880.013046999999
 30
0.0
 41
60.0
 42
60.0
 43
60.0
 50
90.0
  0
INSERT
  5
7D11
  8
3
  6
CONTINUOUS
 62
     0
  2
_OPEN
 10
3366.1962779999999
 20
2519.013046999999
 30
0.0
 41
60.0
 42
60.0
 43
60.0
 50
270.0
  0
TEXT
  8
3
  40
90
  5
7D78
  62
0
  72
0
  71
0
 10
3111.20
 20
2994.53
 30
0.000000
  1
1361
  0
POINT
  5
7D13
  8
DEFPOINTS
  6
CONTINUOUS
 62
     0
 10
2751.6289390000002
 20
3880.0130469999999
 30
0.0
  0
POINT
  5
7D14
  8
DEFPOINTS
  6
CONTINUOUS
 62
     0
 10
2756.6289390000002
 20
2519.0130469999999
 30
0.0
  0
POINT
  5
7D15
  8
DEFPOINTS
  6
CONTINUOUS
 62
     0
 10
3366.1962779999999
 20
2519.013046999999
 30
0.0
  0
ENDBLK
  5
7AF2
  8
0
  0
BLOCK
  8
0
  2
*D5
 70
     1
 10
0.0
 20
0.0
 30
0.0
  3
*D5
  1

  0
LINE
  5
7D16
  8
3
  6
CONTINUOUS
 62
     0
 10
1066.6289389999999
 20
2504.0130469999999
 30
0.0
 11
1066.6289389999999
 21
2244.3660620000001
 31
0.0
  0
LINE
  5
7D17
  8
3
  6
CONTINUOUS
 62
     0
 10
2216.6289390000002
 20
2353.4195589999999
 30
0.0
 11
2216.6289390000002
 21
2244.3660620000001
 31
0.0
  0
LINE
  5
7D18
  8
3
  6
CONTINUOUS
 62
     0
 10
1126.6289389999999
 20
2274.3660619999991
 30
0.0
 11
2156.6289390000002
 21
2274.3660619999991
 31
0.0
  0
INSERT
  5
7D19
  8
3
  6
CONTINUOUS
 62
     0
  2
_OPEN
 10
1066.6289389999999
 20
2274.3660619999991
 30
0.0
 41
60.0
 42
60.0
 43
60.0
 50
180.0
  0
INSERT
  5
7D1A
  8
3
  6
CONTINUOUS
 62
     0
  2
_OPEN
 10
2216.6289390000002
 20
2274.3660619999991
 30
0.0
 41
60.0
 42
60.0
 43
60.0
  0
TEXT
  8
3
  40
90
  5
7D79
  62
0
  72
0
  71
0
 10
1479.99
 20
2190.07
 30
0.000000
  1
1150
  0
POINT
  5
7D1C
  8
DEFPOINTS
  6
CONTINUOUS
 62
     0
 10
1066.6289389999999
 20
2519.0130469999999
 30
0.0
  0
POINT
  5
7D1D
  8
DEFPOINTS
  6
CONTINUOUS
 62
     0
 10
2216.6289390000002
 20
2368.419558999999
 30
0.0
  0
POINT
  5
7D1E
  8
DEFPOINTS
  6
CONTINUOUS
 62
     0
 10
2216.6289390000002
 20
2274.3660619999991
 30
0.0
  0
ENDBLK
  5
7BE4
  8
0
  0
BLOCK
  8
0
  2
*D6
 70
     1
 10
0.0
 20
0.0
 30
0.0
  3
*D6
  1

  0
LINE
  5
7D1F
  8
3
  6
CONTINUOUS
 62
     0
 10
2756.6289390000002
 20
2504.0130469999999
 30
0.0
 11
2756.6289390000002
 21
2244.3660620000001
 31
0.0
  0
LINE
  5
7D20
  8
3
  6
CONTINUOUS
 62
     0
 10
2276.6289390000002
 20
2274.3660619999991
 30
0.0
 11
2696.6289390000002
 21
2274.3660619999991
 31
0.0
  0
INSERT
  5
7D21
  8
3
  6
CONTINUOUS
 62
     0
  2
_OPEN
 10
2216.6289390000002
 20
2274.3660619999991
 30
0.0
 41
60.0
 42
60.0
 43
60.0
 50
180.0
  0
INSERT
  5
7D22
  8
3
  6
CONTINUOUS
 62
     0
  2
_OPEN
 10
2756.6289390000002
 20
2274.3660619999991
 30
0.0
 41
60.0
 42
60.0
 43
60.0
  0
TEXT
  8
3
  40
90
  5
7D7A
  62
0
  72
0
  71
0
 10
2306.63
 20
2190.07
 30
0.000000
  1
540
  0
POINT
  5
7D24
  8
DEFPOINTS
  6
CONTINUOUS
 62
     0
 10
2216.6289390000002
 20
2368.419558999999
 30
0.0
  0
POINT
  5
7D25
  8
DEFPOINTS
  6
CONTINUOUS
 62
     0
 10
2756.6289390000002
 20
2519.0130469999999
 30
0.0
  0
POINT
  5
7D26
  8
DEFPOINTS
  6
CONTINUOUS
 62
     0
 10
2756.6289390000002
 20
2274.3660619999991
 30
0.0
  0
ENDBLK
  5
7BEE
  8
0
  0
BLOCK
  8
0
  2
*D7
 70
     1
 10
0.0
 20
0.0
 30
0.0
  3
*D7
  1

  0
LINE
  5
7D27
  8
3
  6
CONTINUOUS
 62
     0
 10
2751.6289390000002
 20
3895.013046999999
 30
0.0
 11
2751.6289390000002
 21
4045.717811
 31
0.0
  0
LINE
  5
7D28
  8
3
  6
CONTINUOUS
 62
     0
 10
2216.6289390000002
 20
3940.6248839999998
 30
0.0
 11
2216.6289390000002
 21
4045.717811
 31
0.0
  0
LINE
  5
7D29
  8
3
  6
CONTINUOUS
 62
     0
 10
2691.6289390000002
 20
4015.717811
 30
0.0
 11
2276.6289390000002
 21
4015.717811
 31
0.0
  0
INSERT
  5
7D2A
  8
3
  6
CONTINUOUS
 62
     0
  2
_OPEN
 10
2751.6289390000002
 20
4015.717811
 30
0.0
 41
60.0
 42
60.0
 43
60.0
  0
INSERT
  5
7D2B
  8
3
  6
CONTINUOUS
 62
     0
  2
_OPEN
 10
2216.6289390000002
 20
4015.717811
 30
0.0
 41
60.0
 42
60.0
 43
60.0
 50
180.0
  0
TEXT
  8
3
  40
90
  5
7D7B
  62
0
  72
0
  71
0
 10
2313.85
 20
3931.42
 30
0.000000
  1
535
  0
POINT
  5
7D2D
  8
DEFPOINTS
  6
CONTINUOUS
 62
     0
 10
2751.6289390000002
 20
3880.0130469999999
 30
0.0
  0
POINT
  5
7D2E
  8
DEFPOINTS
  6
CONTINUOUS
 62
     0
 10
2216.6289390000002
 20
3925.6248839999998
 30
0.0
  0
POINT
  5
7D2F
  8
DEFPOINTS
  6
CONTINUOUS
 62
     0
 10
2216.6289390000002
 20
4015.717811
 30
0.0
  0
ENDBLK
  5
7C0F
  8
0
  0
BLOCK
  8
0
  2
*D8
 70
     1
 10
0.0
 20
0.0
 30
0.0
  3
*D8
  1

  0
LINE
  5
7D30
  8
3
  6
CONTINUOUS
 62
     0
 10
4882.6601840000003
 20
3855.013046999999
 30
0.0
 11
4882.6601840000003
 21
3991.4400069999988
 31
0.0
  0
LINE
  5
7D31
  8
3
  6
CONTINUOUS
 62
     0
 10
4352.6601840000003
 20
3855.013046999999
 30
0.0
 11
4352.6601840000003
 21
3991.4400069999988
 31
0.0
  0
LINE
  5
7D32
  8
3
  6
CONTINUOUS
 62
     0
 10
4822.6601840000003
 20
3961.4400070000002
 30
0.0
 11
4412.6601840000003
 21
3961.4400070000002
 31
0.0
  0
INSERT
  5
7D33
  8
3
  6
CONTINUOUS
 62
     0
  2
_OPEN
 10
4882.6601840000003
 20
3961.4400070000002
 30
0.0
 41
60.0
 42
60.0
 43
60.0
  0
INSERT
  5
7D34
  8
3
  6
CONTINUOUS
 62
     0
  2
_OPEN
 10
4352.6601840000003
 20
3961.4400070000002
 30
0.0
 41
60.0
 42
60.0
 43
60.0
 50
180.0
  0
TEXT
  8
3
  40
90
  5
7D7C
  62
0
  72
0
  71
0
 10
4441.67
 20
3877.14
 30
0.000000
  1
530
  0
POINT
  5
7D36
  8
DEFPOINTS
  6
CONTINUOUS
 62
     0
 10
4882.6601840000003
 20
3840.0130469999999
 30
0.0
  0
POINT
  5
7D37
  8
DEFPOINTS
  6
CONTINUOUS
 62
     0
 10
4352.6601840000003
 20
3840.0130469999999
 30
0.0
  0
POINT
  5
7D38
  8
DEFPOINTS
  6
CONTINUOUS
 62
     0
 10
4352.6601840000003
 20
3961.4400070000002
 30
0.0
  0
ENDBLK
  5
7B31
  8
0
  0
BLOCK
  8
0
  2
*D9
 70
     1
 10
0.0
 20
0.0
 30
0.0
  3
*D9
  1

  0
LINE
  5
7C5F
  8
0
  6
BYBLOCK
 62
     0
 10
4884.6601840000012
 20
3536.0130469999999
 30
0.0
 11
4884.6601840000012
 21
4215.7764189999989
 31
0.0
  0
LINE
  5
7C60
  8
0
  6
BYBLOCK
 62
     0
 10
4617.6601840000003
 20
4134.9428520000001
 30
0.0
 11
4617.6601840000003
 21
4215.7764189999989
 31
0.0
  0
LINE
  5
7C61
  8
0
  6
BYBLOCK
 62
     0
 10
4824.6601840000003
 20
4185.7764189999989
 30
0.0
 11
4677.6601840000003
 21
4185.7764189999989
 31
0.0
  0
TEXT
  5
7C62
  8
3
 62
     0
 10
4650.0570048233576
 20
4235.4604073892069
 30
0.0
 40
90.0
  1
267
  0
INSERT
  5
7C63
  8
0
  6
BYBLOCK
 62
     0
  2
_OPEN
 10
4884.6601840000012
 20
4185.7764189999989
 30
0.0
 41
60.0
 42
60.0
 43
60.0
  0
INSERT
  5
7C64
  8
0
  6
BYBLOCK
 62
     0
  2
_OPEN
 10
4617.6601840000003
 20
4185.7764189999989
 30
0.0
 41
60.0
 42
60.0
 43
60.0
 50
180.0
  0
POINT
  5
7C65
  8
DEFPOINTS
  6
BYBLOCK
 62
     0
 10
4884.6601840000012
 20
3521.0130469999999
 30
0.0
  0
POINT
  5
7C66
  8
DEFPOINTS
  6
BYBLOCK
 62
     0
 10
4617.6601840000003
 20
4119.9428520000001
 30
0.0
  0
POINT
  5
7C67
  8
DEFPOINTS
  6
BYBLOCK
 62
     0
 10
4617.6601840000003
 20
4185.7764189999989
 30
0.0
  0
ENDBLK
  5
7C68
  8
0
  0
BLOCK
  8
0
  2
*D10
 70
     1
 10
0.0
 20
0.0
 30
0.0
  3
*D10
  1

  0
LINE
  5
7D39
  8
3
  6
CONTINUOUS
 62
     0
 10
4899.6601840000003
 20
3521.0130469999999
 30
0.0
 11
5196.882485000001
 21
3521.013046999999
 31
0.0
  0
LINE
  5
7D3A
  8
3
  6
CONTINUOUS
 62
     0
 10
4899.6601840000003
 20
2767.0130469999999
 30
0.0
 11
5196.882485000001
 21
2767.013046999999
 31
0.0
  0
LINE
  5
7D3B
  8
3
  6
CONTINUOUS
 62
     0
 10
5166.8824850000019
 20
3461.013046999999
 30
0.0
 11
5166.8824850000019
 21
2827.013046999999
 31
0.0
  0
INSERT
  5
7D3C
  8
3
  6
CONTINUOUS
 62
     0
  2
_OPEN
 10
5166.8824850000019
 20
3521.013046999999
 30
0.0
 41
60.0
 42
60.0
 43
60.0
 50
90.0
  0
INSERT
  5
7D3D
  8
3
  6
CONTINUOUS
 62
     0
  2
_OPEN
 10
5166.8824850000019
 20
2767.013046999999
 30
0.0
 41
60.0
 42
60.0
 43
60.0
 50
270.0
  0
TEXT
  8
3
  40
90
  5
7D7D
  62
0
  72
0
  71
0
 10
4911.88
 20
2994.53
 30
0.000000
  1
φ754
  0
POINT
  5
7D3F
  8
DEFPOINTS
  6
CONTINUOUS
 62
     0
 10
4884.6601840000012
 20
3521.0130469999999
 30
0.0
  0
POINT
  5
7D40
  8
DEFPOINTS
  6
CONTINUOUS
 62
     0
 10
4884.6601840000012
 20
2767.0130469999999
 30
0.0
  0
POINT
  5
7D41
  8
DEFPOINTS
  6
CONTINUOUS
 62
     0
 10
5166.8824850000019
 20
2767.013046999999
 30
0.0
  0
ENDBLK
  5
7C73
  8
0
  0
BLOCK
  8
0
  2
*D11
 70
     1
 10
0.0
 20
0.0
 30
0.0
  3
*D11
  1

  0
LINE
  5
7D42
  8
3
  6
CONTINUOUS
 62
     0
 10
4117.6601840000003
 20
3774.013046999999
 30
0.0
 11
4117.6601840000003
 21
4215.7764189999989
 31
0.0
  0
LINE
  5
7D43
  8
3
  6
CONTINUOUS
 62
     0
 10
4557.6601840000003
 20
4185.7764189999989
 30
0.0
 11
4177.6601840000003
 21
4185.7764189999989
 31
0.0
  0
INSERT
  5
7D44
  8
3
  6
CONTINUOUS
 62
     0
  2
_OPEN
 10
4617.6601840000003
 20
4185.7764189999989
 30
0.0
 41
60.0
 42
60.0
 43
60.0
  0
INSERT
  5
7D45
  8
3
  6
CONTINUOUS
 62
     0
  2
_OPEN
 10
4117.6601840000003
 20
4185.7764189999989
 30
0.0
 41
60.0
 42
60.0
 43
60.0
 50
180.0
  0
TEXT
  8
3
  40
90
  5
7D7E
  62
0
  72
0
  71
0
 10
4187.66
 20
4176.48
 30
0.000000
  1
MAX
  0
TEXT
  8
3
  40
90
  5
7D7F
  62
0
  72
0
  71
0
 10
4187.66
 20
4059.48
 30
0.000000
  1
560
  0
POINT
  5
7D47
  8
DEFPOINTS
  6
CONTINUOUS
 62
     0
 10
4617.6601840000003
 20
4119.9428520000001
 30
0.0
  0
POINT
  5
7D48
  8
DEFPOINTS
  6
CONTINUOUS
 62
     0
 10
4117.6601840000003
 20
3759.013046999999
 30
0.0
  0
POINT
  5
7D49
  8
DEFPOINTS
  6
CONTINUOUS
 62
     0
 10
4117.6601840000003
 20
4185.7764189999989
 30
0.0
  0
ENDBLK
  5
7C52
  8
0
  0
BLOCK
  8
0
  2
*D12
 70
     1
 10
0.0
 20
0.0
 30
0.0
  3
*D12
  1

  0
LINE
  5
7C80
  8
0
  6
BYBLOCK
 62
     0
 10
4224.6601840000003
 20
2504.0130469999999
 30
0.0
 11
4224.6601840000003
 21
2262.7674859999988
 31
0.0
  0
LINE
  5
7C81
  8
0
  6
BYBLOCK
 62
     0
 10
4617.6601840000003
 20
2340.5307229999999
 30
0.0
 11
4617.6601840000003
 21
2262.7674859999988
 31
0.0
  0
LINE
  5
7C82
  8
0
  6
BYBLOCK
 62
     0
 10
4284.6601840000003
 20
2292.7674859999988
 30
0.0
 11
4557.6601840000003
 21
2292.7674859999988
 31
0.0
  0
TEXT
  5
7C83
  8
3
 62
     0
 10
4321.953952954198
 20
2330.3218182631172
 30
0.0
 40
90.0
  1
393
  0
INSERT
  5
7C84
  8
0
  6
BYBLOCK
 62
     0
  2
_OPEN
 10
4224.6601840000003
 20
2292.7674859999988
 30
0.0
 41
60.0
 42
60.0
 43
60.0
 50
180.0
  0
INSERT
  5
7C85
  8
0
  6
BYBLOCK
 62
     0
  2
_OPEN
 10
4617.6601840000003
 20
2292.7674859999988
 30
0.0
 41
60.0
 42
60.0
 43
60.0
  0
POINT
  5
7C86
  8
DEFPOINTS
  6
BYBLOCK
 62
     0
 10
4224.6601840000003
 20
2519.0130469999999
 30
0.0
  0
POINT
  5
7C87
  8
DEFPOINTS
  6
BYBLOCK
 62
     0
 10
4617.6601840000003
 20
2355.5307229999999
 30
0.0
  0
POINT
  5
7C88
  8
DEFPOINTS
  6
BYBLOCK
 62
     0
 10
4617.6601840000003
 20
2292.7674859999988
 30
0.0
  0
ENDBLK
  5
7C89
  8
0
  0
BLOCK
  8
0
  2
*D13
 70
     1
 10
0.0
 20
0.0
 30
0.0
  3
*D13
  1

  0
LINE
  5
7D4A
  8
3
  6
CONTINUOUS
 62
     0
 10
4984.6601840000003
 20
2504.0130469999999
 30
0.0
 11
4984.6601840000003
 21
2262.7674859999988
 31
0.0
  0
LINE
  5
7D4B
  8
3
  6
CONTINUOUS
 62
     0
 10
4677.6601840000003
 20
2292.7674859999988
 30
0.0
 11
4924.6601840000003
 21
2292.7674859999988
 31
0.0
  0
TEXT
  8
3
  40
90
  5
7D80
  62
0
  72
0
  71
0
 10
4644.83
 20
2208.44
 30
0.000000
  1
367
  0
INSERT
  5
7D4D
  8
3
  6
CONTINUOUS
 62
     0
  2
_OPEN
 10
4617.6601840000003
 20
2292.7674859999988
 30
0.0
 41
60.0
 42
60.0
 43
60.0
 50
180.0
  0
INSERT
  5
7D4E
  8
3
  6
CONTINUOUS
 62
     0
  2
_OPEN
 10
4984.6601840000003
 20
2292.7674859999988
 30
0.0
 41
60.0
 42
60.0
 43
60.0
  0
POINT
  5
7D4F
  8
DEFPOINTS
  6
CONTINUOUS
 62
     0
 10
4617.6601840000003
 20
2355.5307229999999
 30
0.0
  0
POINT
  5
7D50
  8
DEFPOINTS
  6
CONTINUOUS
 62
     0
 10
4984.6601840000003
 20
2519.0130469999999
 30
0.0
  0
POINT
  5
7D51
  8
DEFPOINTS
  6
CONTINUOUS
 62
     0
 10
4984.6601840000003
 20
2292.7674859999988
 30
0.0
  0
ENDBLK
  5
7C3E
  8
0
  0
BLOCK
  8
0
  2
*D14
 70
     1
 10
0.0
 20
0.0
 30
0.0
  3
*D14
  1

  0
LINE
  5
7D52
  8
3
  6
CONTINUOUS
 62
     0
 10
1066.6289389999999
 20
6084.940697
 30
0.0
 11
1066.6289389999999
 21
6258.7856620000002
 31
0.0
  0
LINE
  5
7D53
  8
3
  6
CONTINUOUS
 62
     0
 10
2756.6289390000002
 20
6084.940697
 30
0.0
 11
2756.6289390000002
 21
6258.7856620000002
 31
0.0
  0
LINE
  5
7D54
  8
3
  6
CONTINUOUS
 62
     0
 10
1126.6289389999999
 20
6228.7856619999993
 30
0.0
 11
2696.6289390000002
 21
6228.7856619999993
 31
0.0
  0
INSERT
  5
7D55
  8
3
  6
CONTINUOUS
 62
     0
  2
_OPEN
 10
1066.6289389999999
 20
6228.7856619999993
 30
0.0
 41
60.0
 42
60.0
 43
60.0
 50
180.0
  0
INSERT
  5
7D56
  8
3
  6
CONTINUOUS
 62
     0
  2
_OPEN
 10
2756.6289390000002
 20
6228.7856619999993
 30
0.0
 41
60.0
 42
60.0
 43
60.0
  0
TEXT
  8
3
  40
90
  5
7D81
  62
0
  72
0
  71
0
 10
1714.33
 20
6144.49
 30
0.000000
  1
1690
  0
POINT
  5
7D58
  8
DEFPOINTS
  6
CONTINUOUS
 62
     0
 10
1066.6289389999999
 20
6069.9406969999991
 30
0.0
  0
POINT
  5
7D59
  8
DEFPOINTS
  6
CONTINUOUS
 62
     0
 10
2756.6289390000002
 20
6069.9406969999991
 30
0.0
  0
POINT
  5
7D5A
  8
DEFPOINTS
  6
CONTINUOUS
 62
     0
 10
2756.6289390000002
 20
6228.7856619999993
 30
0.0
  0
ENDBLK
  5
7BA7
  8
0
  0
BLOCK
  8
0
  2
*D15
 70
     1
 10
0.0
 20
0.0
 30
0.0
  3
*D15
  1

  0
LINE
  5
7D5B
  8
3
  6
CONTINUOUS
 62
     0
 10
2771.6289390000002
 20
6069.9406969999991
 30
0.0
 11
3040.4212730000008
 21
6069.9406969999991
 31
0.0
  0
LINE
  5
7D5C
  8
3
  6
CONTINUOUS
 62
     0
 10
2771.6289390000002
 20
5309.940697
 30
0.0
 11
3040.4212730000008
 21
5309.940697
 31
0.0
  0
LINE
  5
7D5D
  8
3
  6
CONTINUOUS
 62
     0
 10
3010.4212729999999
 20
6009.9406970000009
 30
0.0
 11
3010.4212729999999
 21
5369.940697
 31
0.0
  0
INSERT
  5
7D5E
  8
3
  6
CONTINUOUS
 62
     0
  2
_OPEN
 10
3010.4212729999999
 20
6069.9406969999991
 30
0.0
 41
60.0
 42
60.0
 43
60.0
 50
90.0
  0
INSERT
  5
7D5F
  8
3
  6
CONTINUOUS
 62
     0
  2
_OPEN
 10
3010.4212729999999
 20
5309.940697
 30
0.0
 41
60.0
 42
60.0
 43
60.0
 50
270.0
  0
TEXT
  8
3
  40
90
  5
7D82
  62
0
  72
0
  71
0
 10
2755.42
 20
5543.90
 30
0.000000
  1
760
  0
POINT
  5
7D61
  8
DEFPOINTS
  6
CONTINUOUS
 62
     0
 10
2756.6289390000002
 20
6069.9406969999991
 30
0.0
  0
POINT
  5
7D62
  8
DEFPOINTS
  6
CONTINUOUS
 62
     0
 10
2756.6289390000002
 20
5309.940697
 30
0.0
  0
POINT
  5
7D63
  8
DEFPOINTS
  6
CONTINUOUS
 62
     0
 10
3010.4212729999999
 20
5309.940697
 30
0.0
  0
ENDBLK
  5
7BB4
  8
0
  0
BLOCK
  8
0
  2
*D16
 70
     1
 10
0.0
 20
0.0
 30
0.0
  3
*D16
  1

  0
LINE
  5
7D64
  8
3
  6
CONTINUOUS
 62
     0
 10
1630.6314130000001
 20
3159.0130469999999
 30
0.0
 11
1630.6314130000001
 21
4045.717811
 31
0.0
  0
LINE
  5
7D65
  8
3
  6
CONTINUOUS
 62
     0
 10
2156.6289390000002
 20
4015.717811
 30
0.0
 11
1690.6314130000001
 21
4015.717811
 31
0.0
  0
INSERT
  5
7D66
  8
3
  6
CONTINUOUS
 62
     0
  2
_OPEN
 10
2216.6289390000002
 20
4015.717811
 30
0.0
 41
60.0
 42
60.0
 43
60.0
  0
INSERT
  5
7D67
  8
3
  6
CONTINUOUS
 62
     0
  2
_OPEN
 10
1630.6314130000001
 20
4015.717811
 30
0.0
 41
60.0
 42
60.0
 43
60.0
 50
180.0
  0
TEXT
  8
3
  40
90
  5
7D83
  62
0
  72
0
  71
0
 10
1743.63
 20
3931.42
 30
0.000000
  1
586
  0
POINT
  5
7D69
  8
DEFPOINTS
  6
CONTINUOUS
 62
     0
 10
2216.6289390000002
 20
3925.6248839999998
 30
0.0
  0
POINT
  5
7D6A
  8
DEFPOINTS
  6
CONTINUOUS
 62
     0
 10
1630.6314130000001
 20
3144.0130469999999
 30
0.0
  0
POINT
  5
7D6B
  8
DEFPOINTS
  6
CONTINUOUS
 62
     0
 10
1630.6314130000001
 20
4015.717811
 30
0.0
  0
ENDBLK
  5
7C04
  8
0
  0
BLOCK
  8
0
  2
*D17
 70
     1
 10
0.0
 20
0.0
 30
0.0
  3
*D17
  1

  0
LINE
  5
7D6C
  8
3
 62
     0
 10
2751.6289390000002
 20
3895.013046999999
 30
0.0
 11
2751.6289390000002
 21
4217.6776826609266
 31
0.0
  0
LINE
  5
7D6D
  8
3
 62
     0
 10
1066.6289389999999
 20
2634.013046999999
 30
0.0
 11
1066.6289389999999
 21
4217.6776826609266
 31
0.0
  0
LINE
  5
7D6E
  8
3
 62
     0
 10
2691.6289390000002
 20
4187.6776826609266
 30
0.0
 11
1126.6289389999999
 21
4187.6776826609266
 31
0.0
  0
INSERT
  5
7D6F
  8
3
 62
     0
  2
_OPEN
 10
2751.6289390000002
 20
4187.6776826609266
 30
0.0
 41
60.0
 42
60.0
 43
60.0
  0
INSERT
  5
7D70
  8
3
 62
     0
  2
_OPEN
 10
1066.6289389999999
 20
4187.6776826609266
 30
0.0
 41
60.0
 42
60.0
 43
60.0
 50
180.0
  0
TEXT
  8
3
  40
90
  5
7D84
  62
0
  72
0
  71
0
 10
1806.18
 20
4103.38
 30
0.000000
  1
1685
  0
POINT
  5
7D72
  8
DEFPOINTS
 62
     0
 10
2751.6289390000002
 20
3880.0130469999999
 30
0.0
  0
POINT
  5
7D73
  8
DEFPOINTS
 62
     0
 10
1066.6289389999999
 20
2619.0130469999999
 30
0.0
  0
POINT
  5
7D74
  8
DEFPOINTS
 62
     0
 10
1066.6289389999999
 20
4187.6776826609266
 30
0.0
  0
ENDBLK
  5
7C95
  8
0
  0
ENDSEC
  0
SECTION
  2
ENTITIES
  0
LINE
  5
7A5E
  8
1
  6
CONTINUOUS
 10
1226.6289389999999
 20
2619.0130469999999
 30
0.0
 11
1226.6289389999999
 21
2919.013046999999
 31
0.0
  0
LINE
  5
7A5F
  8
1
  6
CONTINUOUS
 10
2586.6289390000002
 20
2619.0130469999999
 30
0.0
 11
2586.6289390000002
 21
3759.013046999999
 31
0.0
  0
CIRCLE
  5
7A60
  8
1
  6
CONTINUOUS
 10
1405.1489389999999
 20
2819.0130469999999
 30
0.0
 40
80.0
  0
ARC
  5
7A61
  8
1
  6
CONTINUOUS
 10
1405.1489389999999
 20
2819.0130469999999
 30
0.0
 40
162.0
 50
324.97000000000003
 51
215.02999999999989
  0
LINE
  5
7A62
  8
2
  6
CENTER
 10
1405.1489389999999
 20
2739.0130469999999
 30
0.0
 11
1405.1489389999999
 21
2899.0130469999999
 31
0.0
  0
ARC
  5
7A63
  8
1
  6
CONTINUOUS
 10
2186.6289390000002
 20
3114.0130469999999
 30
0.0
 40
478.79000000000002
 50
277.43000000000001
 51
359.51999999999992
  0
ARC
  5
7A64
  8
1
  6
CONTINUOUS
 10
2177.6289390000002
 20
3183.0130469999999
 30
0.0
 40
548.36999999999989
 50
185.31
 51
277.43000000000001
  0
LINE
  5
7A68
  8
1
  6
CONTINUOUS
 10
2261.0689389999998
 20
3000.7430469999999
 30
0.0
 11
1428.858939
 21
2742.6030470000001
 31
0.0
  0
LINE
  5
7A69
  8
1
  6
CONTINUOUS
 10
2756.6289390000002
 20
2519.0130469999999
 30
0.0
 11
1066.6289389999999
 21
2519.0130469999999
 31
0.0
  0
LINE
  5
7A6A
  8
1
  6
CONTINUOUS
 10
2756.6289390000002
 20
2619.0130469999999
 30
0.0
 11
1066.6289389999999
 21
2619.0130469999999
 31
0.0
  0
LINE
  5
7A6B
  8
1
  6
CONTINUOUS
 10
1251.1489389999999
 20
2677.013046999999
 30
0.0
 11
1272.4989390000001
 21
2726.0230469999992
 31
0.0
  0
LINE
  5
7A6C
  8
1
  6
CONTINUOUS
 10
1251.1489389999999
 20
2619.0130469999999
 30
0.0
 11
1251.1489389999999
 21
2677.013046999999
 31
0.0
  0
LINE
  5
7A6D
  8
1
  6
CONTINUOUS
 10
1559.1489389999999
 20
2619.0130469999999
 30
0.0
 11
1559.1489389999999
 21
2677.013046999999
 31
0.0
  0
LINE
  5
7A6E
  8
1
  6
CONTINUOUS
 10
1559.1489389999999
 20
2677.013046999999
 30
0.0
 11
1537.808939
 21
2726.0230469999992
 31
0.0
  0
LINE
  5
7A6F
  8
1
  6
CONTINUOUS
 10
1066.6289389999999
 20
2619.0130469999999
 30
0.0
 11
1066.6289389999999
 21
2519.0130469999999
 31
0.0
  0
LINE
  5
7A70
  8
1
  6
CONTINUOUS
 10
2756.6289390000002
 20
2619.0130469999999
 30
0.0
 11
2756.6289390000002
 21
2519.0130469999999
 31
0.0
  0
LINE
  5
7A71
  8
1
  6
CONTINUOUS
 10
2066.6289390000002
 20
3759.013046999999
 30
0.0
 11
1226.6289389999999
 21
2919.013046999999
 31
0.0
  0
ARC
  5
7A72
  8
1
  6
CONTINUOUS
 10
2263.6289390000002
 20
3191.0130469999999
 30
0.0
 40
634.74000000000001
 50
94.25
 51
185.31
  0
LINE
  5
7A74
  8
1
  6
CONTINUOUS
 10
2149.888938999999
 20
3278.3430469999989
 30
0.0
 11
1369.558939
 21
2890.6530469999998
 31
0.0
  0
LINE
  5
7A75
  8
2
  6
CENTER
 10
1325.1489389999999
 20
2819.0130469999999
 30
0.0
 11
1485.1489389999999
 21
2819.0130469999999
 31
0.0
  0
LINE
  5
7A76
  8
1
  6
CONTINUOUS
 10
2586.6289390000002
 20
3759.013046999999
 30
0.0
 11
2066.6289390000002
 21
3759.013046999999
 31
0.0
  0
CIRCLE
  5
7A77
  8
1
  6
CONTINUOUS
 10
2216.6289390000002
 20
3144.0130469999999
 30
0.0
 40
150.0
  0
LINE
  5
7A78
  8
1
  6
CONTINUOUS
 10
2721.6289390000002
 20
3110.0130469999999
 30
0.0
 11
2721.6289390000002
 21
3839.1130469999998
 31
0.0
  0
LINE
  5
7A79
  8
1
  6
CONTINUOUS
 10
2751.6289390000002
 20
3840.0130469999999
 30
0.0
 11
2216.6289390000002
 21
3824.013046999999
 31
0.0
  0
LINE
  5
7A7A
  8
2
  6
CENTER
 10
2216.6289390000002
 20
6184.1697109999996
 30
0.0
 11
2216.6289390000002
 21
5094.6007220000001
 31
0.0
  0
LINE
  5
7A7B
  8
2
  6
CENTER
 10
4968.0390689999986
 20
3144.0130469999999
 30
0.0
 11
4037.743035
 21
3144.0130469999999
 31
0.0
  0
LINE
  5
7A7C
  8
1
  6
CONTINUOUS
 10
2751.6289390000002
 20
3070.0130469999999
 30
0.0
 11
2751.6289390000002
 21
3880.0130469999999
 31
0.0
  0
LINE
  5
7A7D
  8
1
  6
CONTINUOUS
 10
2665.3989390000002
 20
3110.0130469999999
 30
0.0
 11
2751.6289390000002
 21
3110.0130469999999
 31
0.0
  0
LINE
  5
7A7E
  8
1
  6
CONTINUOUS
 10
1485.1489389999999
 20
5309.940697
 30
0.0
 11
2066.6289390000002
 21
5309.940697
 31
0.0
  0
LINE
  5
7A7F
  8
1
  6
CONTINUOUS
 10
1066.6289389999999
 20
6069.9406969999991
 30
0.0
 11
2756.6289390000002
 21
6069.9406969999991
 31
0.0
  0
LINE
  5
7A80
  8
1
  6
CONTINUOUS
 10
2586.6289390000002
 20
5342.940697
 30
0.0
 11
1226.6289389999999
 21
5342.940697
 31
0.0
  0
LINE
  5
7A81
  8
1
  6
CONTINUOUS
 10
2586.6289390000002
 20
5202.940697
 30
0.0
 11
1226.6289389999999
 21
5202.940697
 31
0.0
  0
LINE
  5
7A82
  8
1
  6
CONTINUOUS
 10
2751.6289390000002
 20
5967.940697
 30
0.0
 11
1628.8889389999999
 21
5967.940697
 31
0.0
  0
LINE
  5
7A83
  8
1
  6
CONTINUOUS
 10
2751.6289390000002
 20
5437.940697
 30
0.0
 11
1628.8889389999999
 21
5437.940697
 31
0.0
  0
LINE
  5
7A84
  8
1
  6
CONTINUOUS
 10
1066.6289389999999
 20
5309.940697
 30
0.0
 11
1325.1489389999999
 21
5309.940697
 31
0.0
  0
LINE
  5
7A85
  8
1
  6
CONTINUOUS
 10
1485.1489389999999
 20
5312.940697
 30
0.0
 11
1325.1489389999999
 21
5312.940697
 31
0.0
  0
LINE
  5
7A86
  8
1
  6
CONTINUOUS
 10
1485.1489389999999
 20
5232.940697
 30
0.0
 11
1325.1489389999999
 21
5232.940697
 31
0.0
  0
LINE
  5
7A87
  8
1
  6
CONTINUOUS
 10
1485.1489389999999
 20
5232.940697
 30
0.0
 11
1485.1489389999999
 21
5312.940697
 31
0.0
  0
LINE
  5
7A88
  8
1
  6
CONTINUOUS
 10
1325.1489389999999
 20
5232.940697
 30
0.0
 11
1325.1489389999999
 21
5312.940697
 31
0.0
  0
LINE
  5
7A89
  8
1
  6
CONTINUOUS
 10
1226.6289389999999
 20
5202.940697
 30
0.0
 11
1226.6289389999999
 21
5342.940697
 31
0.0
  0
LINE
  5
7A8A
  8
1
  6
CONTINUOUS
 10
1628.8889389999999
 20
5967.940697
 30
0.0
 11
1628.8889389999999
 21
5437.940697
 31
0.0
  0
LINE
  5
7A8B
  8
1
  6
CONTINUOUS
 10
1066.6289389999999
 20
6069.9406969999991
 30
0.0
 11
1066.6289389999999
 21
5309.940697
 31
0.0
  0
LINE
  5
7A8C
  8
1
  6
CONTINUOUS
 10
1238.1689389999999
 20
5398.9506970000002
 30
0.0
 11
1238.1689389999999
 21
5854.8906969999998
 31
0.0
  0
LINE
  5
7A8D
  8
1
  6
CONTINUOUS
 10
1567.1489389999999
 20
5398.9506970000002
 30
0.0
 11
1567.1489389999999
 21
5854.8906969999998
 31
0.0
  0
LINE
  5
7A8E
  8
1
  6
CONTINUOUS
 10
1238.1689389999999
 20
5398.9506970000002
 30
0.0
 11
1567.1489389999999
 21
5398.9506970000002
 31
0.0
  0
LINE
  5
7A8F
  8
1
  6
CONTINUOUS
 10
1384.1489389999999
 20
5312.940697
 30
0.0
 11
1384.1489389999999
 21
5398.9506970000002
 31
0.0
  0
LINE
  5
7A90
  8
1
  6
CONTINUOUS
 10
1426.1489389999999
 20
5312.940697
 30
0.0
 11
1426.1489389999999
 21
5398.9506970000002
 31
0.0
  0
LINE
  5
7A91
  8
1
  6
CONTINUOUS
 10
1238.1689389999999
 20
5854.8906969999998
 30
0.0
 11
1567.1489389999999
 21
5854.8906969999998
 31
0.0
  0
LINE
  5
7A92
  8
1
  6
CONTINUOUS
 10
2366.6289390000002
 20
5309.940697
 30
0.0
 11
2756.6289390000002
 21
5309.940697
 31
0.0
  0
LINE
  5
7A93
  8
1
  6
CONTINUOUS
 10
2756.6289390000002
 20
6069.9406969999991
 30
0.0
 11
2756.6289390000002
 21
5309.940697
 31
0.0
  0
LINE
  5
7A94
  8
1
  6
CONTINUOUS
 10
2237.6289390000002
 20
5312.940697
 30
0.0
 11
2237.6289390000002
 21
5437.940697
 31
0.0
  0
LINE
  5
7A95
  8
1
  6
CONTINUOUS
 10
2195.6289390000002
 20
5312.940697
 30
0.0
 11
2195.6289390000002
 21
5437.940697
 31
0.0
  0
LINE
  5
7A96
  8
1
  6
CONTINUOUS
 10
2366.6289390000002
 20
5312.940697
 30
0.0
 11
2066.6289390000002
 21
5312.940697
 31
0.0
  0
LINE
  5
7A97
  8
1
  6
CONTINUOUS
 10
2366.6289390000002
 20
5232.940697
 30
0.0
 11
2066.6289390000002
 21
5232.940697
 31
0.0
  0
LINE
  5
7A98
  8
1
  6
CONTINUOUS
 10
2366.6289390000002
 20
5232.940697
 30
0.0
 11
2366.6289390000002
 21
5312.940697
 31
0.0
  0
LINE
  5
7A99
  8
1
  6
CONTINUOUS
 10
2066.6289390000002
 20
5232.940697
 30
0.0
 11
2066.6289390000002
 21
5312.940697
 31
0.0
  0
LINE
  5
7A9A
  8
1
  6
CONTINUOUS
 10
2586.6289390000002
 20
5202.940697
 30
0.0
 11
2586.6289390000002
 21
5342.940697
 31
0.0
  0
LINE
  5
7A9B
  8
1
  6
CONTINUOUS
 10
2751.6289390000002
 20
6007.940697
 30
0.0
 11
2751.6289390000002
 21
5397.940697
 31
0.0
  0
LINE
  5
7A9C
  8
1
  6
CONTINUOUS
 10
4147.6601840000003
 20
2699.0130469999999
 30
0.0
 11
4147.6601840000003
 21
2859.013046999999
 31
0.0
  0
LINE
  5
7A9D
  8
1
  6
CONTINUOUS
 10
4227.6601840000003
 20
2699.0130469999999
 30
0.0
 11
4227.6601840000003
 21
2859.013046999999
 31
0.0
  0
LINE
  5
7A9E
  8
1
  6
CONTINUOUS
 10
4257.6601840000003
 20
3759.013046999999
 30
0.0
 11
4257.6601840000003
 21
2619.0130469999999
 31
0.0
  0
LINE
  5
7A9F
  8
1
  6
CONTINUOUS
 10
4117.6601840000003
 20
3759.013046999999
 30
0.0
 11
4117.6601840000003
 21
2619.0130469999999
 31
0.0
  0
LINE
  5
7AA0
  8
1
  6
CONTINUOUS
 10
4882.6601840000003
 20
3840.0130469999999
 30
0.0
 11
4882.6601840000003
 21
2619.0130469999999
 31
0.0
  0
LINE
  5
7AA1
  8
1
  6
CONTINUOUS
 10
4352.6601840000003
 20
3840.0130469999999
 30
0.0
 11
4352.6601840000003
 21
2619.0130469999999
 31
0.0
  0
LINE
  5
7AA2
  8
1
  6
CONTINUOUS
 10
4227.6601840000003
 20
2758.0130469999999
 30
0.0
 11
4352.6601840000003
 21
2758.0130469999999
 31
0.0
  0
LINE
  5
7AA3
  8
1
  6
CONTINUOUS
 10
4984.6601840000003
 20
2619.0130469999999
 30
0.0
 11
4117.6601840000003
 21
2619.0130469999999
 31
0.0
  0
LINE
  5
7AA4
  8
1
  6
CONTINUOUS
 10
4984.6601840000003
 20
2519.0130469999999
 30
0.0
 11
4224.6601840000003
 21
2519.0130469999999
 31
0.0
  0
LINE
  5
7AA5
  8
1
  6
CONTINUOUS
 10
4224.6601840000003
 20
2619.0130469999999
 30
0.0
 11
4224.6601840000003
 21
2519.0130469999999
 31
0.0
  0
LINE
  5
7AA6
  8
1
  6
CONTINUOUS
 10
4147.6601840000003
 20
2699.0130469999999
 30
0.0
 11
4227.6601840000003
 21
2699.0130469999999
 31
0.0
  0
LINE
  5
7AA7
  8
1
  6
CONTINUOUS
 10
4984.6601840000003
 20
2619.0130469999999
 30
0.0
 11
4984.6601840000003
 21
2519.0130469999999
 31
0.0
  0
LINE
  5
7AA8
  8
1
  6
CONTINUOUS
 10
4227.6601840000003
 20
3165.0130469999999
 30
0.0
 11
4352.6601840000003
 21
3165.0130469999999
 31
0.0
  0
LINE
  5
7AA9
  8
1
  6
CONTINUOUS
 10
4227.6601840000003
 20
3123.0130469999999
 30
0.0
 11
4352.6601840000003
 21
3123.0130469999999
 31
0.0
  0
LINE
  5
7AAA
  8
1
  6
CONTINUOUS
 10
4227.6601840000003
 20
2800.0130469999999
 30
0.0
 11
4352.6601840000003
 21
2800.0130469999999
 31
0.0
  0
LINE
  5
7AAB
  8
1
  6
CONTINUOUS
 10
4147.6601840000003
 20
2859.013046999999
 30
0.0
 11
4227.6601840000003
 21
2859.013046999999
 31
0.0
  0
LINE
  5
7AAC
  8
1
  6
CONTINUOUS
 10
4147.6601840000003
 20
3294.013046999999
 30
0.0
 11
4227.6601840000003
 21
3294.013046999999
 31
0.0
  0
LINE
  5
7AAD
  8
1
  6
CONTINUOUS
 10
4147.6601840000003
 20
2994.0130469999999
 30
0.0
 11
4227.6601840000003
 21
2994.0130469999999
 31
0.0
  0
LINE
  5
7AAE
  8
1
  6
CONTINUOUS
 10
4147.6601840000003
 20
2994.0130469999999
 30
0.0
 11
4147.6601840000003
 21
3294.013046999999
 31
0.0
  0
LINE
  5
7AAF
  8
1
  6
CONTINUOUS
 10
4227.6601840000003
 20
2994.0130469999999
 30
0.0
 11
4227.6601840000003
 21
3294.013046999999
 31
0.0
  0
LINE
  5
7AB0
  8
1
  6
CONTINUOUS
 10
4257.6601840000003
 20
3759.013046999999
 30
0.0
 11
4117.6601840000003
 21
3759.013046999999
 31
0.0
  0
LINE
  5
7AB1
  8
1
  6
CONTINUOUS
 10
4352.6601840000003
 20
3840.0130469999999
 30
0.0
 11
4882.6601840000003
 21
3110.0130469999999
 31
0.0
  0
LINE
  5
7AB2
  8
1
  6
CONTINUOUS
 10
4882.6601840000003
 20
3840.0130469999999
 30
0.0
 11
4352.6601840000003
 21
3110.0130469999999
 31
0.0
  0
LINE
  5
7AB3
  8
1
  6
CONTINUOUS
 10
4352.6601840000003
 20
3840.0130469999999
 30
0.0
 11
4882.6601840000003
 21
3840.0130469999999
 31
0.0
  0
LINE
  5
7AB4
  8
1
  6
CONTINUOUS
 10
4352.6601840000003
 20
3110.0130469999999
 30
0.0
 11
4882.6601840000003
 21
3110.0130469999999
 31
0.0
  0
LINE
  5
7AB5
  8
2
  6
CENTER
 10
4617.6601840000003
 20
3947.9365349999998
 30
0.0
 11
4617.6601840000003
 21
2355.5307229999999
 31
0.0
  0
LINE
  5
7AB6
  8
2
  6
CENTER
 10
960.59970899999996
 20
5702.940697
 30
0.0
 11
2848.3156829999998
 21
5702.940697
 31
0.0
  0
LINE
  5
7AB7
  8
2
  6
CENTER
 10
2216.6289390000002
 20
3925.6248839999998
 30
0.0
 11
2216.6289390000002
 21
2368.419558999999
 31
0.0
  0
LINE
  5
7AB8
  8
2
  6
CENTER
 10
2888.1467809999999
 20
3144.0130469999999
 30
0.0
 11
1305.3565129999999
 21
3144.0130469999999
 31
0.0
  0
DIMENSION
  5
7ACD
  8
3
  6
CONTINUOUS
  2
*D1
 10
2962.0951040000009
 20
3110.0130469999999
 30
0.0
 11
2962.095104
 21
3480.7191200000002
 31
0.0
 70
   128
 13
2751.6289390000002
 23
3840.0130469999999
 33
0.0
 14
2751.6289390000002
 24
3110.0130469999999
 34
0.0
 50
90.0
1001
ACAD
1000
DSTYLE
1002
{
1070
   287
1070
     3
1070
    40
1040
30.0
1070
   143
1040
0.039
1070
   172
1070
     1
1070
   271
1070
     0
1070
   279
1070
     0
1070
   288
1070
     1
1002
}
  0
DIMENSION
  5
7ADA
  8
3
  6
CONTINUOUS
  2
*D2
 10
3141.6956300000011
 20
3144.013046999999
 30
0.0
 11
3141.6956300000002
 21
3487.1287320000001
 31
0.0
 70
   128
 13
2751.6289390000002
 23
3840.0130469999999
 33
0.0
 14
2888.1467809999999
 24
3144.0130469999999
 34
0.0
 50
90.0
1001
ACAD
1000
DSTYLE
1002
{
1070
   287
1070
     3
1070
    40
1040
30.0
1070
   143
1040
0.039
1070
   172
1070
     1
1070
   271
1070
     0
1070
   279
1070
     0
1070
   288
1070
     1
1002
}
  0
DIMENSION
  5
7AE6
  8
3
  6
CONTINUOUS
  2
*D3
 10
3141.6956300000002
 20
2519.013046999999
 30
0.0
 11
3066.6956299999988
 21
2831.5130469999999
 31
0.0
 70
     0
 13
2888.1467809999999
 23
3144.0130469999999
 33
0.0
 14
2756.6289390000002
 24
2519.0130469999999
 34
0.0
 50
90.0
1001
ACAD
1000
DSTYLE
1002
{
1070
   287
1070
     4
1070
    40
1040
30.0
1070
    75
1070
     1
1070
   143
1040
0.039
1070
   172
1070
     1
1070
   271
1070
     0
1070
   279
1070
     1
1070
   288
1070
     1
1002
}
  0
DIMENSION
  5
7AF3
  8
3
  6
CONTINUOUS
  2
*D4
 10
3366.1962779999999
 20
2519.013046999999
 30
0.0
 11
3366.196277999999
 21
3153.8289300000001
 31
0.0
 70
   128
 13
2751.6289390000002
 23
3880.0130469999999
 33
0.0
 14
2756.6289390000002
 24
2519.0130469999999
 34
0.0
 50
90.0
1001
ACAD
1000
DSTYLE
1002
{
1070
   287
1070
     3
1070
    40
1040
30.0
1070
   143
1040
0.039
1070
   172
1070
     1
1070
   271
1070
     0
1070
   279
1070
     0
1070
   288
1070
     1
1002
}
  0
DIMENSION
  5
7B00
  8
3
  6
CONTINUOUS
  2
*D5
 10
2216.6289390000002
 20
2274.3660619999991
 30
0.0
 11
1659.991403
 21
2274.3660619999991
 31
0.0
 70
   128
 13
1066.6289389999999
 23
2519.0130469999999
 33
0.0
 14
2216.6289390000002
 24
2368.419558999999
 34
0.0
1001
ACAD
1000
DSTYLE
1002
{
1070
   287
1070
     3
1070
    40
1040
30.0
1070
   143
1040
0.039
1070
   172
1070
     1
1070
   271
1070
     0
1070
   279
1070
     0
1070
   288
1070
     1
1002
}
  0
DIMENSION
  5
7B0C
  8
3
  6
CONTINUOUS
  2
*D6
 10
2756.6289390000002
 20
2274.3660619999991
 30
0.0
 11
2486.6289390000002
 21
2349.3660620000001
 31
0.0
 70
     0
 13
2216.6289390000002
 23
2368.419558999999
 33
0.0
 14
2756.6289390000002
 24
2519.0130469999999
 34
0.0
1001
ACAD
1000
DSTYLE
1002
{
1070
   287
1070
     4
1070
    40
1040
30.0
1070
    75
1070
     1
1070
   143
1040
0.039
1070
   172
1070
     1
1070
   271
1070
     0
1070
   279
1070
     1
1070
   288
1070
     1
1002
}
  0
DIMENSION
  5
7B19
  8
3
  6
CONTINUOUS
  2
*D7
 10
2216.6289390000002
 20
4015.717811
 30
0.0
 11
2493.850915999999
 21
4015.717811
 31
0.0
 70
   128
  1
<>
 13
2751.6289390000002
 23
3880.0130469999999
 33
0.0
 14
2216.6289390000002
 24
3925.6248839999998
 34
0.0
1001
ACAD
1000
DSTYLE
1002
{
1070
   287
1070
     3
1070
    40
1040
30.0
1070
   143
1040
0.039
1070
   172
1070
     1
1070
   271
1070
     0
1070
   279
1070
     0
1070
   288
1070
     1
1002
}
  0
DIMENSION
  5
7B32
  8
3
  6
CONTINUOUS
  2
*D8
 10
4352.6601840000003
 20
3961.4400070000002
 30
0.0
 11
4621.6666340000002
 21
3961.4400070000002
 31
0.0
 70
   128
 13
4882.6601840000003
 23
3840.0130469999999
 33
0.0
 14
4352.6601840000003
 24
3840.0130469999999
 34
0.0
1001
ACAD
1000
DSTYLE
1002
{
1070
   287
1070
     3
1070
    40
1040
30.0
1070
   143
1040
0.039
1070
   172
1070
     1
1070
   271
1070
     0
1070
   279
1070
     0
1070
   288
1070
     1
1002
}
  0
LINE
  5
7B33
  8
1
  6
CONTINUOUS
 10
4884.6601840000012
 20
3521.0130469999999
 30
0.0
 11
4884.6601840000012
 21
2767.0130469999999
 31
0.0
  0
DIMENSION
  5
7B43
  8
3
  6
CONTINUOUS
  2
*D9
 10
4617.6601840000003
 20
4185.7764189999989
 30
0.0
 11
4765.771290537642
 21
4280.4604073892078
 31
0.0
 70
   128
 13
4884.6601840000012
 23
3521.0130469999999
 33
0.0
 14
4617.6601840000003
 24
4119.9428520000001
 34
0.0
1001
ACAD
1000
DSTYLE
1002
{
1070
   288
1070
     1
1070
   172
1070
     1
1070
    40
1040
30.0
1070
   271
1070
     0
1070
   143
1040
0.039
1002
}
  0
DIMENSION
  5
7B50
  8
3
  6
CONTINUOUS
  2
*D10
 10
5166.8824850000019
 20
2767.013046999999
 30
0.0
 11
5166.8824850000001
 21
3153.8289300000001
 31
0.0
 70
   128
 13
4884.6601840000012
 23
3521.0130469999999
 33
0.0
 14
4884.6601840000012
 24
2767.0130469999999
 34
0.0
 50
90.0
1001
ACAD
1000
DSTYLE
1002
{
1070
   287
1070
     3
1070
     3
1000
φ<>
1070
    40
1040
30.0
1070
   143
1040
0.039
1070
   172
1070
     1
1070
   271
1070
     0
1070
   279
1070
     0
1070
   288
1070
     1
1002
}
  0
DIMENSION
  5
7B68
  8
3
  6
CONTINUOUS
  2
*D11
 10
4117.6601840000003
 20
4185.7764189999989
 30
0.0
 11
4367.6601840000003
 21
4335.7764189999998
 31
0.0
 70
     0
  1
MAX\P560
 13
4617.6601840000003
 23
4119.9428520000001
 33
0.0
 14
4117.6601840000003
 24
3759.013046999999
 34
0.0
1001
ACAD
1000
DSTYLE
1002
{
1070
   287
1070
     4
1070
    40
1040
30.0
1070
    75
1070
     1
1070
   143
1040
0.039
1070
   172
1070
     1
1070
   271
1070
     0
1070
   279
1070
     1
1070
   288
1070
     1
1002
}
  0
DIMENSION
  5
7B77
  8
3
  6
CONTINUOUS
  2
*D12
 10
4617.6601840000003
 20
2292.7674859999988
 30
0.0
 11
4437.6682386684843
 21
2375.3218182631172
 31
0.0
 70
   128
 13
4224.6601840000003
 23
2519.0130469999999
 33
0.0
 14
4617.6601840000003
 24
2355.5307229999999
 34
0.0
1001
ACAD
1000
DSTYLE
1002
{
1070
   288
1070
     1
1070
   172
1070
     1
1070
    40
1040
30.0
1070
   271
1070
     0
1070
   143
1040
0.039
1002
}
  0
DIMENSION
  5
7B85
  8
3
  6
CONTINUOUS
  2
*D13
 10
4984.6601840000003
 20
2292.7674859999988
 30
0.0
 11
4824.8314970000001
 21
2292.7409659999989
 31
0.0
 70
   128
 13
4617.6601840000003
 23
2355.5307229999999
 33
0.0
 14
4984.6601840000003
 24
2519.0130469999999
 34
0.0
1001
ACAD
1000
DSTYLE
1002
{
1070
   287
1070
     4
1070
    40
1040
30.0
1070
    75
1070
     1
1070
   143
1040
0.039
1070
   172
1070
     1
1070
   271
1070
     0
1070
   279
1070
     1
1070
   288
1070
     1
1002
}
  0
DIMENSION
  5
7BA8
  8
3
  6
CONTINUOUS
  2
*D14
 10
2756.6289390000002
 20
6228.7856619999993
 30
0.0
 11
1894.3323720000001
 21
6228.7856619999993
 31
0.0
 70
   128
 13
1066.6289389999999
 23
6069.9406969999991
 33
0.0
 14
2756.6289390000002
 24
6069.9406969999991
 34
0.0
1001
ACAD
1000
DSTYLE
1002
{
1070
   287
1070
     3
1070
    40
1040
30.0
1070
   143
1040
0.039
1070
   172
1070
     1
1070
   271
1070
     0
1070
   279
1070
     0
1070
   288
1070
     1
1002
}
  0
DIMENSION
  5
7BB5
  8
3
  6
CONTINUOUS
  2
*D15
 10
3010.4212729999999
 20
5309.940697
 30
0.0
 11
3010.4212729999999
 21
5703.1974879999998
 31
0.0
 70
   128
 13
2756.6289390000002
 23
6069.9406969999991
 33
0.0
 14
2756.6289390000002
 24
5309.940697
 34
0.0
 50
90.0
1001
ACAD
1000
DSTYLE
1002
{
1070
   287
1070
     3
1070
    40
1040
30.0
1070
   143
1040
0.039
1070
   172
1070
     1
1070
   271
1070
     0
1070
   279
1070
     0
1070
   288
1070
     1
1002
}
  0
LINE
  5
7BB6
  8
4
  6
CONTINUOUS
 10
5550.0
 20
1500.0
 30
0.0
 11
5550.0
 21
900.0
 31
0.0
  0
LINE
  5
7BB7
  8
4
  6
CONTINUOUS
 10
3450.0
 20
1500.0
 30
0.0
 11
3450.0
 21
900.0
 31
0.0
  0
LINE
  5
7BB8
  8
4
  6
CONTINUOUS
 10
1950.0
 20
1500.0
 30
0.0
 11
1950.0
 21
900.0
 31
0.0
  0
LINE
  5
7BBB
  8
4
  6
CONTINUOUS
 10
1950.0
 20
900.0
 30
0.0
 11
5550.0
 21
900.0
 31
0.0
  0
LINE
  5
7BBC
  8
4
  6
CONTINUOUS
 10
1950.0
 20
1200.0
 30
0.0
 11
5550.0
 21
1200.0
 31
0.0
  0
TEXT
  5
7BBD
  8
4
  6
CONTINUOUS
 10
2065.5062429999989
 20
1294.6290779999999
 30
0.0
 40
150.0
  1
機器名称
  0
TEXT
  5
7BBE
  8
4
  6
CONTINUOUS
 10
2058.7743179999989
 20
964.9354699999999
 30
0.0
 40
150.0
  1
機器型番
  0
TEXT
  5
7BBF
  8
4
  6
CONTINUOUS
 10
3533.0362359999999
 20
1267.7153069999999
 30
0.0
 40
150.0
  1
ミツヤ多翼送風機
  0
TEXT
  5
7BC0
  8
4
  6
CONTINUOUS
 10
3559.9634869999991
 20
951.47875299999987
 30
0.0
 40
150.0
  1
MF#4 1/2-4
  0
TEXT
  5
7BC2
  8
4
  6
CONTINUOUS
 10
2332.1827640000001
 20
7150.2865239999992
 30
0.0
 40
162.0
  1
天井吊ベット
  0
TEXT
  5
7BC3
  8
4
  6
CONTINUOUS
 10
948.50278000000014
 20
7601.6429289999996
 30
0.0
 40
216.0
  1
ベルト駆動式片吸込両持多翼ファン
  0
LINE
  5
7BC4
  8
4
  6
CONTINUOUS
 10
750.0
 20
7408.2262629999996
 30
0.0
 11
5550.0
 21
7408.2262629999996
 31
0.0
  0
LINE
  5
7BC5
  8
4
  6
CONTINUOUS
 10
750.0
 20
8008.2262629999996
 30
0.0
 11
5550.0
 21
8008.2262629999996
 31
0.0
  0
LINE
  5
7BC6
  8
4
  6
CONTINUOUS
 10
1950.0
 20
1500.0
 30
0.0
 11
5550.0
 21
1500.0
 31
0.0
  0
LINE
  5
7BC7
  8
4
  6
CONTINUOUS
 10
750.0
 20
8008.2262629999996
 30
0.0
 11
750.0
 21
7408.2262629999996
 31
0.0
  0
TEXT
  5
7BC8
  8
4
  6
CONTINUOUS
 10
1024.6062669999999
 20
7146.9584329999998
 30
0.0
 40
162.0
  1
右回転右横向
  0
TEXT
  5
7BC9
  8
4
  6
CONTINUOUS
 10
4406.9086779999989
 20
8118.1832439999989
 30
0.0
 40
168.0
  1
No.
  0
TEXT
  5
7BCA
  8
4
  6
CONTINUOUS
 10
3933.8881879999999
 20
7150.2865239999992
 30
0.0
 40
162.0
  1
縮尺：1/30
  0
LINE
  5
7BCB
  8
4
  6
CONTINUOUS
 10
5550.0
 20
8008.2262629999996
 30
0.0
 11
5550.0
 21
7408.2262629999996
 31
0.0
  0
LINE
  5
7BCD
  8
4
  6
CONTINUOUS
 10
4321.8522670000002
 20
8043.7907490000007
 30
0.0
 11
4321.8522670000002
 21
8359.9567849999985
 31
0.0
  0
LINE
  5
7BCE
  8
4
  6
CONTINUOUS
 10
4321.8522670000002
 20
8359.9567849999985
 30
0.0
 11
5550.0
 21
8359.9567849999985
 31
0.0
  0
LINE
  5
7BCF
  8
4
  6
CONTINUOUS
 10
5550.0
 20
8359.9567849999985
 30
0.0
 11
5550.0
 21
8043.7907490000007
 31
0.0
  0
LINE
  5
7BD0
  8
4
  6
CONTINUOUS
 10
5550.0
 20
8043.7907490000007
 30
0.0
 11
4321.8522670000002
 21
8043.7907490000007
 31
0.0
  0
DIMENSION
  5
7BFA
  8
3
  6
CONTINUOUS
  2
*D16
 10
1630.6314130000001
 20
4015.717811
 30
0.0
 11
1923.630175999999
 21
4090.717811
 31
0.0
 70
     0
 13
2216.6289390000002
 23
3925.6248839999998
 33
0.0
 14
1630.6314130000001
 24
3144.0130469999999
 34
0.0
1001
ACAD
1000
DSTYLE
1002
{
1070
   287
1070
     4
1070
    40
1040
30.0
1070
    75
1070
     1
1070
   143
1040
0.039
1070
   172
1070
     1
1070
   271
1070
     0
1070
   279
1070
     1
1070
   288
1070
     1
1002
}
  0
DIMENSION
  5
7C96
  8
3
  2
*D17
 10
1066.6289389999999
 20
4187.6776826609266
 30
0.0
 11
1986.1813401760839
 21
4187.6776826609266
 31
0.0
 70
   128
 13
2751.6289390000002
 23
3880.0130469999999
 33
0.0
 14
1066.6289389999999
 24
2619.0130469999999
 34
0.0
1001
ACAD
1000
DSTYLE
1002
{
1070
   287
1070
     3
1070
    40
1040
30.0
1070
   143
1040
0.039
1070
   172
1070
     1
1070
   271
1070
     0
1070
   279
1070
     0
1070
   288
1070
     1
1002
}
  0
LINE
  5
7CB4
  8
1
 10
1756.6289389999999
 20
3539.0130469999999
 30
0.0
 11
1756.6289389999999
 21
2619.0130469999999
 31
0.0
  0
LINE
  5
7CB5
  8
1
 10
2676.6289390000002
 20
3539.0130469999999
 30
0.0
 11
2676.6289389999988
 21
2619.0130469999999
 31
0.0
  0
LINE
  5
7CB6
  8
1
  6
CONTINUOUS
 10
2676.6289390000002
 20
3539.0130469999999
 30
0.0
 11
1756.6289389999999
 21
3539.0130469999999
 31
0.0
  0
ENDSEC
  0
EOF
