  0
SECTION
  2
HEADER
  9
$ACADVER
  1
AC1009
  9
$INSBASE
 10
0.0
 20
0.0
 30
0.0
  9
$EXTMIN
 10
750.0
 20
900.0
 30
0.0
  9
$EXTMAX
 10
5550.0
 20
8359.9567849999985
 30
0.0
  9
$LIMMIN
 10
0.0
 20
0.0
  9
$LIMMAX
 10
297.0
 20
210.0
  9
$ORTHOMODE
 70
     0
  9
$REGENMODE
 70
     1
  9
$FILLMODE
 70
     0
  9
$QTEXTMODE
 70
     0
  9
$MIRRTEXT
 70
     1
  9
$DRAGMODE
 70
     2
  9
$LTSCALE
 40
100.0
  9
$OSMODE
 70
    37
  9
$ATTMODE
 70
     1
  9
$TEXTSIZE
 40
180.0
  9
$TRACEWID
 40
0.05
  9
$TEXTSTYLE
  7
STANDARD
  9
$CLAYER
  8
3
  9
$CELTYPE
  6
BYLAYER
  9
$CECOLOR
 62
   256
  9
$DIMSCALE
 40
30.0
  9
$DIMASZ
 40
2.0
  9
$DIMEXO
 40
0.5
  9
$DIMDLI
 40
10.0
  9
$DIMRND
 40
0.0
  9
$DIMDLE
 40
0.0
  9
$DIMEXE
 40
1.0
  9
$DIMTP
 40
1.0
  9
$DIMTM
 40
1.0
  9
$DIMTXT
 40
3.0
  9
$DIMCEN
 40
0.0
  9
$DIMTSZ
 40
0.0
  9
$DIMTOL
 70
     0
  9
$DIMLIM
 70
     0
  9
$DIMTIH
 70
     0
  9
$DIMTOH
 70
     0
  9
$DIMSE1
 70
     0
  9
$DIMSE2
 70
     0
  9
$DIMTAD
 70
     1
  9
$DIMZIN
 70
     8
  9
$DIMBLK
  1

  9
$DIMASO
 70
     1
  9
$DIMSHO
 70
     1
  9
$DIMPOST
  1

  9
$DIMAPOST
  1

  9
$DIMALT
 70
     0
  9
$DIMALTD
 70
     2
  9
$DIMALTF
 40
0.039
  9
$DIMLFAC
 40
1.0
  9
$DIMTOFL
 70
     1
  9
$DIMTVP
 40
0.0
  9
$DIMTIX
 70
     0
  9
$DIMSOXD
 70
     0
  9
$DIMSAH
 70
     1
  9
$DIMBLK1
  1
OPEN
  9
$DIMBLK2
  1
OPEN
  9
$DIMSTYLE
  2
IGA
  9
$DIMCLRD
 70
     0
  9
$DIMCLRE
 70
     0
  9
$DIMCLRT
 70
     0
  9
$DIMTFAC
 40
10.0
  9
$DIMGAP
 40
1.0
  9
$LUNITS
 70
     2
  9
$LUPREC
 70
     3
  9
$SKETCHINC
 40
0.1
  9
$FILLETRAD
 40
0.0
  9
$AUNITS
 70
     0
  9
$AUPREC
 70
     0
  9
$MENU
  1
acad
  9
$ELEVATION
 40
0.0
  9
$PELEVATION
 40
0.0
  9
$THICKNESS
 40
0.0
  9
$LIMCHECK
 70
     0
  9
$BLIPMODE
 70
     0
  9
$CHAMFERA
 40
0.5
  9
$CHAMFERB
 40
0.5
  9
$SKPOLY
 70
     0
  9
$TDCREATE
 40
2450744.4715072908
  9
$TDUPDATE
 40
2454953.7723215041
  9
$TDINDWG
 40
0.0047038194
  9
$TDUSRTIMER
 40
0.0047038194
  9
$USRTIMER
 70
     1
  9
$ANGBASE
 50
0.0
  9
$ANGDIR
 70
     0
  9
$PDMODE
 70
     0
  9
$PDSIZE
 40
0.0
  9
$PLINEWID
 40
0.0
  9
$COORDS
 70
     1
  9
$SPLFRAME
 70
     0
  9
$SPLINETYPE
 70
     6
  9
$SPLINESEGS
 70
     8
  9
$ATTDIA
 70
     0
  9
$ATTREQ
 70
     1
  9
$HANDLING
 70
 10241
  9
$HANDSEED
  5
7DEA
  9
$SURFTAB1
 70
     6
  9
$SURFTAB2
 70
     6
  9
$SURFTYPE
 70
     6
  9
$SURFU
 70
     6
  9
$SURFV
 70
     6
  9
$UCSNAME
  2

  9
$UCSORG
 10
0.0
 20
0.0
 30
0.0
  9
$UCSXDIR
 10
1.0
 20
0.0
 30
0.0
  9
$UCSYDIR
 10
0.0
 20
1.0
 30
0.0
  9
$PUCSNAME
  2

  9
$PUCSORG
 10
0.0
 20
0.0
 30
0.0
  9
$PUCSXDIR
 10
1.0
 20
0.0
 30
0.0
  9
$PUCSYDIR
 10
0.0
 20
1.0
 30
0.0
  9
$USERI1
 70
     0
  9
$USERI2
 70
     0
  9
$USERI3
 70
     0
  9
$USERI4
 70
     0
  9
$USERI5
 70
     0
  9
$USERR1
 40
0.0
  9
$USERR2
 40
0.0
  9
$USERR3
 40
0.0
  9
$USERR4
 40
0.0
  9
$USERR5
 40
0.0
  9
$WORLDVIEW
 70
     1
  9
$SHADEDGE
 70
     3
  9
$SHADEDIF
 70
    70
  9
$TILEMODE
 70
     1
  9
$MAXACTVP
 70
    16
  9
$PLIMCHECK
 70
     0
  9
$PEXTMIN
 10
1.0000000000000000E+020
 20
1.0000000000000000E+020
 30
1.0000000000000000E+020
  9
$PEXTMAX
 10
-1.0000000000000000E+020
 20
-1.0000000000000000E+020
 30
-1.0000000000000000E+020
  9
$PLIMMIN
 10
0.0
 20
0.0
  9
$PLIMMAX
 10
12.0
 20
9.0
  9
$UNITMODE
 70
     0
  9
$VISRETAIN
 70
     0
  9
$PLINEGEN
 70
     0
  9
$PSLTSCALE
 70
     1
  0
ENDSEC
  0
SECTION
  2
TABLES
  0
TABLE
  2
VPORT
 70
     2
  0
VPORT
  2
*ACTIVE
 70
     0
 10
0.0
 20
0.0
 11
1.0
 21
1.0
 12
9438.4567678319436
 22
4630.0975558305709
 13
0.0
 23
0.0
 14
10.0
 24
10.0
 15
10.0
 25
10.0
 16
0.0
 26
0.0
 36
1.0
 17
0.0
 27
0.0
 37
0.0
 40
7517.4747125171307
 41
3.1666666666666661
 42
50.0
 43
0.0
 44
0.0
 50
0.0
 51
0.0
 71
     0
 72
   100
 73
     1
 74
     0
 75
     0
 76
     0
 77
     0
 78
     0
  0
ENDTAB
  0
TABLE
  2
LTYPE
 70
     2
  0
LTYPE
  2
CONTINUOUS
 70
     0
  3
Solid line
 72
    65
 73
     0
 40
0.0
  0
LTYPE
  2
CENTER
 70
     0
  3
____ _ ____ _ ____ _ ____ _ ____ _ ____ _ ____ 
 72
    65
 73
     4
 40
2.0
 49
1.25
 49
-0.25
 49
0.25
 49
-0.25
  0
ENDTAB
  0
TABLE
  2
LAYER
 70
     6
  0
LAYER
  2
0
 70
     0
 62
     7
  6
CONTINUOUS
  0
LAYER
  2
3
 70
     0
 62
     2
  6
CONTINUOUS
  0
LAYER
  2
2
 70
     0
 62
     3
  6
CENTER
  0
LAYER
  2
1
 70
     0
 62
     4
  6
CONTINUOUS
  0
LAYER
  2
4
 70
     0
 62
     7
  6
CONTINUOUS
  0
LAYER
  2
DEFPOINTS
 70
     0
 62
     7
  6
CONTINUOUS
  0
ENDTAB
  0
TABLE
  2
STYLE
 70
     1
  0
STYLE
  2
STANDARD
 70
     0
 40
0.0
 41
1.0
 50
0.0
 71
     0
 42
180.0
  3
simplex.shx
  4
extfont.shx
  0
ENDTAB
  0
TABLE
  2
VIEW
 70
     0
  0
ENDTAB
  0
TABLE
  2
UCS
 70
     0
  0
ENDTAB
  0
TABLE
  2
APPID
 70
     1
  0
APPID
  2
ACAD
 70
     0
  0
ENDTAB
  0
TABLE
  2
DIMSTYLE
 70
     1
  0
DIMSTYLE
  2
IGA
 70
     0
  3

  4

  5

  6
OPEN
  7
OPEN
 40
2.0
 41
2.0
 42
0.5
 43
10.0
 44
1.0
 45
0.0
 46
0.0
 47
1.0
 48
1.0
140
3.0
141
0.0
142
0.0
143
0.03937
144
1.0
145
0.0
146
10.0
147
1.0
 71
     0
 72
     0
 73
     0
 74
     0
 75
     0
 76
     0
 77
     1
 78
     8
170
     0
171
     2
172
     0
173
     1
174
     0
175
     0
176
     0
177
     0
178
     0
  0
ENDTAB
  0
ENDSEC
  0
SECTION
  2
BLOCKS
  0
BLOCK
  8
0
  2
$MODEL_SPACE
 70
     0
 10
0.0
 20
0.0
 30
0.0
  3
$MODEL_SPACE
  1

  0
ENDBLK
  5
1B
  8
0
  0
BLOCK
 67
     1
  8
0
  2
$PAPER_SPACE
 70
     0
 10
0.0
 20
0.0
 30
0.0
  3
$PAPER_SPACE
  1

  0
ENDBLK
  5
18
 67
     1
  8
0
  0
BLOCK
  8
0
  2
_OPEN
 70
     0
 10
0.0
 20
0.0
 30
0.0
  3
_OPEN
  1

  0
LINE
  5
7ABF
  8
0
  6
BYBLOCK
 62
     0
 10
-1.0
 20
0.166667
 30
0.0
 11
0.0
 21
0.0
 31
0.0
  0
LINE
  5
7AC0
  8
0
  6
BYBLOCK
 62
     0
 10
0.0
 20
0.0
 30
0.0
 11
-1.0
 21
-0.166667
 31
0.0
  0
LINE
  5
7AC1
  8
0
  6
BYBLOCK
 62
     0
 10
0.0
 20
0.0
 30
0.0
 11
-1.0
 21
0.0
 31
0.0
  0
ENDBLK
  5
7AC2
  8
0
  0
BLOCK
  8
0
  2
*D1
 70
     1
 10
0.0
 20
0.0
 30
0.0
  3
*D1
  1

  0
LINE
  5
7D58
  8
3
  6
CONTINUOUS
 62
     0
 10
2961.2397660000001
 20
3493.7965439999998
 30
0.0
 11
3204.0363250000009
 21
3493.7965439999989
 31
0.0
  0
LINE
  5
7D59
  8
3
  6
CONTINUOUS
 62
     0
 10
2961.2397660000001
 20
2763.7965439999998
 30
0.0
 11
3204.036325
 21
2763.7965439999989
 31
0.0
  0
LINE
  5
7D5A
  8
3
  6
CONTINUOUS
 62
     0
 10
3174.0363250000009
 20
3433.7965439999989
 30
0.0
 11
3174.036325
 21
2823.7965439999998
 31
0.0
  0
INSERT
  5
7D5B
  8
3
  6
CONTINUOUS
 62
     0
  2
_OPEN
 10
3174.0363250000009
 20
3493.7965439999989
 30
0.0
 41
60.0
 42
60.0
 43
60.0
 50
90.0
  0
INSERT
  5
7D5C
  8
3
  6
CONTINUOUS
 62
     0
  2
_OPEN
 10
3174.036325
 20
2763.7965439999989
 30
0.0
 41
60.0
 42
60.0
 43
60.0
 50
270.0
  0
TEXT
  8
3
  40
90
  5
7DDA
  62
0
  72
0
  71
0
 10
2919.04
 20
2989.39
 30
0.000000
  1
730
  0
POINT
  5
7D5E
  8
DEFPOINTS
  6
CONTINUOUS
 62
     0
 10
2946.2397660000001
 20
3493.7965439999998
 30
0.0
  0
POINT
  5
7D5F
  8
DEFPOINTS
  6
CONTINUOUS
 62
     0
 10
2946.2397660000001
 20
2763.7965439999998
 30
0.0
  0
POINT
  5
7D60
  8
DEFPOINTS
  6
CONTINUOUS
 62
     0
 10
3174.036325
 20
2763.7965439999989
 30
0.0
  0
ENDBLK
  5
7AEE
  8
0
  0
BLOCK
  8
0
  2
*D2
 70
     1
 10
0.0
 20
0.0
 30
0.0
  3
*D2
  1

  0
LINE
  5
7D61
  8
3
  6
CONTINUOUS
 62
     0
 10
2961.2397660000001
 20
2763.7965439999998
 30
0.0
 11
3403.4317170000008
 21
2763.7965439999989
 31
0.0
  0
LINE
  5
7D62
  8
3
  6
CONTINUOUS
 62
     0
 10
3077.4010329999992
 20
3459.7965439999989
 30
0.0
 11
3403.4317170000008
 21
3459.7965439999989
 31
0.0
  0
LINE
  5
7D63
  8
3
  6
CONTINUOUS
 62
     0
 10
3373.4317170000008
 20
2823.7965439999998
 30
0.0
 11
3373.4317170000008
 21
3399.7965439999989
 31
0.0
  0
INSERT
  5
7D64
  8
3
  6
CONTINUOUS
 62
     0
  2
_OPEN
 10
3373.4317170000008
 20
2763.7965439999989
 30
0.0
 41
60.0
 42
60.0
 43
60.0
 50
270.0
  0
INSERT
  5
7D65
  8
3
  6
CONTINUOUS
 62
     0
  2
_OPEN
 10
3373.4317170000008
 20
3459.7965439999989
 30
0.0
 41
60.0
 42
60.0
 43
60.0
 50
90.0
  0
TEXT
  8
3
  40
90
  5
7DDB
  62
0
  72
0
  71
0
 10
3118.43
 20
2983.86
 30
0.000000
  1
696
  0
POINT
  5
7D67
  8
DEFPOINTS
  6
CONTINUOUS
 62
     0
 10
2946.2397660000001
 20
2763.7965439999998
 30
0.0
  0
POINT
  5
7D68
  8
DEFPOINTS
  6
CONTINUOUS
 62
     0
 10
3062.4010329999992
 20
3459.7965439999989
 30
0.0
  0
POINT
  5
7D69
  8
DEFPOINTS
  6
CONTINUOUS
 62
     0
 10
3373.4317170000008
 20
3459.7965439999989
 30
0.0
  0
ENDBLK
  5
7AFB
  8
0
  0
BLOCK
  8
0
  2
*D3
 70
     1
 10
0.0
 20
0.0
 30
0.0
  3
*D3
  1

  0
LINE
  5
7D6A
  8
3
  6
CONTINUOUS
 62
     0
 10
2966.2397660000001
 20
2569.7965439999998
 30
0.0
 11
3608.3658820000001
 21
2569.7965439999989
 31
0.0
  0
LINE
  5
7D6B
  8
3
  6
CONTINUOUS
 62
     0
 10
3578.3658820000001
 20
3399.7965439999989
 30
0.0
 11
3578.3658819999991
 21
2629.7965439999989
 31
0.0
  0
INSERT
  5
7D6C
  8
3
  6
CONTINUOUS
 62
     0
  2
_OPEN
 10
3578.3658820000001
 20
3459.7965439999989
 30
0.0
 41
60.0
 42
60.0
 43
60.0
 50
90.0
  0
INSERT
  5
7D6D
  8
3
  6
CONTINUOUS
 62
     0
  2
_OPEN
 10
3578.3658819999991
 20
2569.7965439999989
 30
0.0
 41
60.0
 42
60.0
 43
60.0
 50
270.0
  0
TEXT
  8
3
  40
90
  5
7DDC
  62
0
  72
0
  71
0
 10
3323.37
 20
2855.50
 30
0.000000
  1
890
  0
POINT
  5
7D6F
  8
DEFPOINTS
  6
CONTINUOUS
 62
     0
 10
3062.4010329999992
 20
3459.7965439999989
 30
0.0
  0
POINT
  5
7D70
  8
DEFPOINTS
  6
CONTINUOUS
 62
     0
 10
2951.2397660000001
 20
2569.7965439999998
 30
0.0
  0
POINT
  5
7D71
  8
DEFPOINTS
  6
CONTINUOUS
 62
     0
 10
3578.3658819999991
 20
2569.7965439999989
 30
0.0
  0
ENDBLK
  5
7B14
  8
0
  0
BLOCK
  8
0
  2
*D4
 70
     1
 10
0.0
 20
0.0
 30
0.0
  3
*D4
  1

  0
LINE
  5
7D72
  8
3
  6
CONTINUOUS
 62
     0
 10
1261.2397659999999
 20
2554.7965439999998
 30
0.0
 11
1261.2397659999999
 21
2261.7077610000001
 31
0.0
  0
LINE
  5
7D73
  8
3
  6
CONTINUOUS
 62
     0
 10
2411.2397660000001
 20
2393.0190940000002
 30
0.0
 11
2411.2397660000001
 21
2261.7077610000001
 31
0.0
  0
LINE
  5
7D74
  8
3
  6
CONTINUOUS
 62
     0
 10
1321.239765999999
 20
2291.7077610000001
 30
0.0
 11
2351.2397660000001
 21
2291.7077610000001
 31
0.0
  0
INSERT
  5
7D75
  8
3
  6
CONTINUOUS
 62
     0
  2
_OPEN
 10
1261.2397659999999
 20
2291.7077610000001
 30
0.0
 41
60.0
 42
60.0
 43
60.0
 50
180.0
  0
INSERT
  5
7D76
  8
3
  6
CONTINUOUS
 62
     0
  2
_OPEN
 10
2411.2397660000001
 20
2291.7077610000001
 30
0.0
 41
60.0
 42
60.0
 43
60.0
  0
TEXT
  8
3
  40
90
  5
7DDD
  62
0
  72
0
  71
0
 10
1637.04
 20
2207.41
 30
0.000000
  1
1150
  0
POINT
  5
7D78
  8
DEFPOINTS
  6
CONTINUOUS
 62
     0
 10
1261.2397659999999
 20
2569.7965439999998
 30
0.0
  0
POINT
  5
7D79
  8
DEFPOINTS
  6
CONTINUOUS
 62
     0
 10
2411.2397660000001
 20
2408.0190940000002
 30
0.0
  0
POINT
  5
7D7A
  8
DEFPOINTS
  6
CONTINUOUS
 62
     0
 10
2411.2397660000001
 20
2291.7077610000001
 30
0.0
  0
ENDBLK
  5
7BC5
  8
0
  0
BLOCK
  8
0
  2
*D5
 70
     1
 10
0.0
 20
0.0
 30
0.0
  3
*D5
  1

  0
LINE
  5
7D7B
  8
3
  6
CONTINUOUS
 62
     0
 10
2951.2397660000001
 20
2554.7965439999998
 30
0.0
 11
2951.2397660000001
 21
2261.7077610000001
 31
0.0
  0
LINE
  5
7D7C
  8
3
  6
CONTINUOUS
 62
     0
 10
2471.2397660000001
 20
2291.7077610000001
 30
0.0
 11
2891.2397660000001
 21
2291.7077610000001
 31
0.0
  0
INSERT
  5
7D7D
  8
3
  6
CONTINUOUS
 62
     0
  2
_OPEN
 10
2411.2397660000001
 20
2291.7077610000001
 30
0.0
 41
60.0
 42
60.0
 43
60.0
 50
180.0
  0
INSERT
  5
7D7E
  8
3
  6
CONTINUOUS
 62
     0
  2
_OPEN
 10
2951.2397660000001
 20
2291.7077610000001
 30
0.0
 41
60.0
 42
60.0
 43
60.0
  0
TEXT
  8
3
  40
90
  5
7DDE
  62
0
  72
0
  71
0
 10
2501.24
 20
2207.41
 30
0.000000
  1
540
  0
POINT
  5
7D80
  8
DEFPOINTS
  6
CONTINUOUS
 62
     0
 10
2411.2397660000001
 20
2408.0190940000002
 30
0.0
  0
POINT
  5
7D81
  8
DEFPOINTS
  6
CONTINUOUS
 62
     0
 10
2951.2397660000001
 20
2569.7965439999998
 30
0.0
  0
POINT
  5
7D82
  8
DEFPOINTS
  6
CONTINUOUS
 62
     0
 10
2951.2397660000001
 20
2291.7077610000001
 30
0.0
  0
ENDBLK
  5
7BCF
  8
0
  0
BLOCK
  8
0
  2
*D6
 70
     1
 10
0.0
 20
0.0
 30
0.0
  3
*D6
  1

  0
LINE
  5
7D83
  8
3
  6
CONTINUOUS
 62
     0
 10
2946.2397660000001
 20
3548.7965439999989
 30
0.0
 11
2946.2397660000001
 21
4136.1957039999998
 31
0.0
  0
LINE
  5
7D84
  8
3
  6
CONTINUOUS
 62
     0
 10
2411.2397660000001
 20
4087.0417869999992
 30
0.0
 11
2411.2397660000001
 21
4136.1957039999998
 31
0.0
  0
LINE
  5
7D85
  8
3
  6
CONTINUOUS
 62
     0
 10
2886.2397660000001
 20
4106.1957039999998
 30
0.0
 11
2471.2397660000001
 21
4106.1957039999998
 31
0.0
  0
INSERT
  5
7D86
  8
3
  6
CONTINUOUS
 62
     0
  2
_OPEN
 10
2946.2397660000001
 20
4106.1957039999998
 30
0.0
 41
60.0
 42
60.0
 43
60.0
  0
INSERT
  5
7D87
  8
3
  6
CONTINUOUS
 62
     0
  2
_OPEN
 10
2411.2397660000001
 20
4106.1957039999998
 30
0.0
 41
60.0
 42
60.0
 43
60.0
 50
180.0
  0
TEXT
  8
3
  40
90
  5
7DDF
  62
0
  72
0
  71
0
 10
2484.47
 20
4021.90
 30
0.000000
  1
535
  0
POINT
  5
7D89
  8
DEFPOINTS
  6
CONTINUOUS
 62
     0
 10
2946.2397660000001
 20
3533.7965439999989
 30
0.0
  0
POINT
  5
7D8A
  8
DEFPOINTS
  6
CONTINUOUS
 62
     0
 10
2411.2397660000001
 20
4072.0417869999992
 30
0.0
  0
POINT
  5
7D8B
  8
DEFPOINTS
  6
CONTINUOUS
 62
     0
 10
2411.2397660000001
 20
4106.1957039999998
 30
0.0
  0
ENDBLK
  5
7B3A
  8
0
  0
BLOCK
  8
0
  2
*D7
 70
     1
 10
0.0
 20
0.0
 30
0.0
  3
*D7
  1

  0
LINE
  5
7D8C
  8
3
  6
CONTINUOUS
 62
     0
 10
5002.8319780000002
 20
3905.7965439999989
 30
0.0
 11
5002.8319780000002
 21
4019.9668109999989
 31
0.0
  0
LINE
  5
7D8D
  8
3
  6
CONTINUOUS
 62
     0
 10
4472.8319780000002
 20
3905.7965439999989
 30
0.0
 11
4472.8319780000002
 21
4019.9668109999989
 31
0.0
  0
LINE
  5
7D8E
  8
3
  6
CONTINUOUS
 62
     0
 10
4942.8319780000002
 20
3989.9668109999998
 30
0.0
 11
4532.8319779999993
 21
3989.9668109999998
 31
0.0
  0
INSERT
  5
7D8F
  8
3
  6
CONTINUOUS
 62
     0
  2
_OPEN
 10
5002.8319780000002
 20
3989.9668109999998
 30
0.0
 41
60.0
 42
60.0
 43
60.0
  0
INSERT
  5
7D90
  8
3
  6
CONTINUOUS
 62
     0
  2
_OPEN
 10
4472.8319780000002
 20
3989.9668109999998
 30
0.0
 41
60.0
 42
60.0
 43
60.0
 50
180.0
  0
TEXT
  8
3
  40
90
  5
7DE0
  62
0
  72
0
  71
0
 10
4561.51
 20
3905.67
 30
0.000000
  1
530
  0
POINT
  5
7D92
  8
DEFPOINTS
  6
CONTINUOUS
 62
     0
 10
5002.8319780000002
 20
3890.7965439999998
 30
0.0
  0
POINT
  5
7D93
  8
DEFPOINTS
  6
CONTINUOUS
 62
     0
 10
4472.8319780000002
 20
3890.7965439999998
 30
0.0
  0
POINT
  5
7D94
  8
DEFPOINTS
  6
CONTINUOUS
 62
     0
 10
4472.8319780000002
 20
3989.9668109999998
 30
0.0
  0
ENDBLK
  5
7B53
  8
0
  0
BLOCK
  8
0
  2
*D8
 70
     1
 10
0.0
 20
0.0
 30
0.0
  3
*D8
  1

  0
LINE
  5
7CBC
  8
0
  6
BYBLOCK
 62
     0
 10
5004.8319780000002
 20
3851.7965439999989
 30
0.0
 11
5004.8319780000002
 21
4210.548366
 31
0.0
  0
LINE
  5
7CBD
  8
0
  6
BYBLOCK
 62
     0
 10
4737.8319780000002
 20
4141.6503300000004
 30
0.0
 11
4737.8319780000002
 21
4210.548366
 31
0.0
  0
LINE
  5
7CBE
  8
0
  6
BYBLOCK
 62
     0
 10
4944.8319780000002
 20
4180.548366
 30
0.0
 11
4797.8319780000002
 21
4180.548366
 31
0.0
  0
TEXT
  5
7CBF
  8
3
 62
     0
 10
4774.2234597234683
 20
4229.0315729990216
 30
0.0
 40
90.0
  1
267
  0
INSERT
  5
7CC0
  8
0
  6
BYBLOCK
 62
     0
  2
_OPEN
 10
5004.8319780000002
 20
4180.548366
 30
0.0
 41
60.0
 42
60.0
 43
60.0
  0
INSERT
  5
7CC1
  8
0
  6
BYBLOCK
 62
     0
  2
_OPEN
 10
4737.8319780000002
 20
4180.548366
 30
0.0
 41
60.0
 42
60.0
 43
60.0
 50
180.0
  0
POINT
  5
7CC2
  8
DEFPOINTS
  6
BYBLOCK
 62
     0
 10
5004.8319780000002
 20
3836.7965439999998
 30
0.0
  0
POINT
  5
7CC3
  8
DEFPOINTS
  6
BYBLOCK
 62
     0
 10
4737.8319780000002
 20
4126.6503299999986
 30
0.0
  0
POINT
  5
7CC4
  8
DEFPOINTS
  6
BYBLOCK
 62
     0
 10
4737.8319780000002
 20
4180.548366
 30
0.0
  0
ENDBLK
  5
7CC5
  8
0
  0
BLOCK
  8
0
  2
*D9
 70
     1
 10
0.0
 20
0.0
 30
0.0
  3
*D9
  1

  0
LINE
  5
7D95
  8
3
  6
CONTINUOUS
 62
     0
 10
5019.8319780000002
 20
3836.7965439999998
 30
0.0
 11
5258.9166480000004
 21
3836.7965439999989
 31
0.0
  0
LINE
  5
7D96
  8
3
  6
CONTINUOUS
 62
     0
 10
5019.8319780000002
 20
3082.7965439999998
 30
0.0
 11
5258.9166480000004
 21
3082.7965439999998
 31
0.0
  0
LINE
  5
7D97
  8
3
  6
CONTINUOUS
 62
     0
 10
5228.9166480000013
 20
3776.7965439999989
 30
0.0
 11
5228.9166480000013
 21
3142.7965439999989
 31
0.0
  0
INSERT
  5
7D98
  8
3
  6
CONTINUOUS
 62
     0
  2
_OPEN
 10
5228.9166480000013
 20
3836.7965439999989
 30
0.0
 41
60.0
 42
60.0
 43
60.0
 50
90.0
  0
INSERT
  5
7D99
  8
3
  6
CONTINUOUS
 62
     0
  2
_OPEN
 10
5228.9166480000013
 20
3082.7965439999998
 30
0.0
 41
60.0
 42
60.0
 43
60.0
 50
270.0
  0
TEXT
  8
3
  40
90
  5
7DE1
  62
0
  72
0
  71
0
 10
4973.92
 20
3321.47
 30
0.000000
  1
φ754
  0
POINT
  5
7D9B
  8
DEFPOINTS
  6
CONTINUOUS
 62
     0
 10
5004.8319780000002
 20
3836.7965439999998
 30
0.0
  0
POINT
  5
7D9C
  8
DEFPOINTS
  6
CONTINUOUS
 62
     0
 10
5004.8319780000002
 20
3082.7965439999998
 30
0.0
  0
POINT
  5
7D9D
  8
DEFPOINTS
  6
CONTINUOUS
 62
     0
 10
5228.9166480000013
 20
3082.7965439999998
 30
0.0
  0
ENDBLK
  5
7CD0
  8
0
  0
BLOCK
  8
0
  2
*D10
 70
     1
 10
0.0
 20
0.0
 30
0.0
  3
*D10
  1

  0
LINE
  5
7D9E
  8
3
  6
CONTINUOUS
 62
     0
 10
4237.8319780000002
 20
3824.7965439999998
 30
0.0
 11
4237.8319780000002
 21
4210.548366
 31
0.0
  0
LINE
  5
7D9F
  8
3
  6
CONTINUOUS
 62
     0
 10
4677.8319780000002
 20
4180.548366
 30
0.0
 11
4297.8319780000002
 21
4180.548366
 31
0.0
  0
INSERT
  5
7DA0
  8
3
  6
CONTINUOUS
 62
     0
  2
_OPEN
 10
4737.8319780000002
 20
4180.548366
 30
0.0
 41
60.0
 42
60.0
 43
60.0
  0
INSERT
  5
7DA1
  8
3
  6
CONTINUOUS
 62
     0
  2
_OPEN
 10
4237.8319780000002
 20
4180.548366
 30
0.0
 41
60.0
 42
60.0
 43
60.0
 50
180.0
  0
TEXT
  8
3
  40
90
  5
7DE2
  62
0
  72
0
  71
0
 10
4307.83
 20
4171.25
 30
0.000000
  1
MAX
  0
TEXT
  8
3
  40
90
  5
7DE3
  62
0
  72
0
  71
0
 10
4307.83
 20
4054.25
 30
0.000000
  1
560
  0
POINT
  5
7DA3
  8
DEFPOINTS
  6
CONTINUOUS
 62
     0
 10
4737.8319780000002
 20
4126.6503299999986
 30
0.0
  0
POINT
  5
7DA4
  8
DEFPOINTS
  6
CONTINUOUS
 62
     0
 10
4237.8319780000002
 20
3809.7965439999989
 30
0.0
  0
POINT
  5
7DA5
  8
DEFPOINTS
  6
CONTINUOUS
 62
     0
 10
4237.8319780000002
 20
4180.548366
 30
0.0
  0
ENDBLK
  5
7CAF
  8
0
  0
BLOCK
  8
0
  2
*D11
 70
     1
 10
0.0
 20
0.0
 30
0.0
  3
*D11
  1

  0
LINE
  5
7CDD
  8
0
  6
BYBLOCK
 62
     0
 10
4344.8319780000011
 20
2554.7965439999998
 30
0.0
 11
4344.8319780000011
 21
2305.171174999999
 31
0.0
  0
LINE
  5
7CDE
  8
0
  6
BYBLOCK
 62
     0
 10
4737.8319780000002
 20
2398.8329239999998
 30
0.0
 11
4737.8319780000002
 21
2305.171174999999
 31
0.0
  0
LINE
  5
7CDF
  8
0
  6
BYBLOCK
 62
     0
 10
4404.8319779999993
 20
2335.1711749999999
 30
0.0
 11
4677.8319780000002
 21
2335.1711749999999
 31
0.0
  0
TEXT
  5
7CE0
  8
3
 62
     0
 10
4434.2604679395517
 20
2366.6346815855031
 30
0.0
 40
90.0
  1
393
  0
INSERT
  5
7CE1
  8
0
  6
BYBLOCK
 62
     0
  2
_OPEN
 10
4344.8319780000011
 20
2335.1711749999999
 30
0.0
 41
60.0
 42
60.0
 43
60.0
 50
180.0
  0
INSERT
  5
7CE2
  8
0
  6
BYBLOCK
 62
     0
  2
_OPEN
 10
4737.8319780000002
 20
2335.1711749999999
 30
0.0
 41
60.0
 42
60.0
 43
60.0
  0
POINT
  5
7CE3
  8
DEFPOINTS
  6
BYBLOCK
 62
     0
 10
4344.8319780000011
 20
2569.7965439999998
 30
0.0
  0
POINT
  5
7CE4
  8
DEFPOINTS
  6
BYBLOCK
 62
     0
 10
4737.8319780000002
 20
2413.8329239999989
 30
0.0
  0
POINT
  5
7CE5
  8
DEFPOINTS
  6
BYBLOCK
 62
     0
 10
4737.8319780000002
 20
2335.1711749999999
 30
0.0
  0
ENDBLK
  5
7CE6
  8
0
  0
BLOCK
  8
0
  2
*D12
 70
     1
 10
0.0
 20
0.0
 30
0.0
  3
*D12
  1

  0
LINE
  5
7DA6
  8
3
  6
CONTINUOUS
 62
     0
 10
5104.8319779999993
 20
2554.7965439999998
 30
0.0
 11
5104.8319779999993
 21
2305.171174999999
 31
0.0
  0
LINE
  5
7DA7
  8
3
  6
CONTINUOUS
 62
     0
 10
4797.8319780000002
 20
2335.1711749999999
 30
0.0
 11
5044.8319780000011
 21
2335.1711749999999
 31
0.0
  0
TEXT
  8
3
  40
90
  5
7DE4
  62
0
  72
0
  71
0
 10
4740.83
 20
2251.71
 30
0.000000
  1
367
  0
INSERT
  5
7DA9
  8
3
  6
CONTINUOUS
 62
     0
  2
_OPEN
 10
4737.8319780000002
 20
2335.1711749999999
 30
0.0
 41
60.0
 42
60.0
 43
60.0
 50
180.0
  0
INSERT
  5
7DAA
  8
3
  6
CONTINUOUS
 62
     0
  2
_OPEN
 10
5104.8319779999993
 20
2335.1711749999999
 30
0.0
 41
60.0
 42
60.0
 43
60.0
  0
POINT
  5
7DAB
  8
DEFPOINTS
  6
CONTINUOUS
 62
     0
 10
4737.8319780000002
 20
2413.8329239999989
 30
0.0
  0
POINT
  5
7DAC
  8
DEFPOINTS
  6
CONTINUOUS
 62
     0
 10
5104.8319779999993
 20
2569.7965439999998
 30
0.0
  0
POINT
  5
7DAD
  8
DEFPOINTS
  6
CONTINUOUS
 62
     0
 10
5104.8319779999993
 20
2335.1711749999999
 30
0.0
  0
ENDBLK
  5
7C2C
  8
0
  0
BLOCK
  8
0
  2
*D13
 70
     1
 10
0.0
 20
0.0
 30
0.0
  3
*D13
  1

  0
LINE
  5
7DAE
  8
3
  6
CONTINUOUS
 62
     0
 10
1261.2397659999999
 20
6120.5587340000002
 30
0.0
 11
1261.2397659999999
 21
6302.664264
 31
0.0
  0
LINE
  5
7DAF
  8
3
  6
CONTINUOUS
 62
     0
 10
2951.2397660000001
 20
6120.5587340000002
 30
0.0
 11
2951.2397660000001
 21
6302.664264
 31
0.0
  0
LINE
  5
7DB0
  8
3
  6
CONTINUOUS
 62
     0
 10
1321.239765999999
 20
6272.664264
 30
0.0
 11
2891.2397660000001
 21
6272.664264
 31
0.0
  0
INSERT
  5
7DB1
  8
3
  6
CONTINUOUS
 62
     0
  2
_OPEN
 10
1261.2397659999999
 20
6272.664264
 30
0.0
 41
60.0
 42
60.0
 43
60.0
 50
180.0
  0
INSERT
  5
7DB2
  8
3
  6
CONTINUOUS
 62
     0
  2
_OPEN
 10
2951.2397660000001
 20
6272.664264
 30
0.0
 41
60.0
 42
60.0
 43
60.0
  0
TEXT
  8
3
  40
90
  5
7DE5
  62
0
  72
0
  71
0
 10
1886.28
 20
6188.36
 30
0.000000
  1
1690
  0
POINT
  5
7DB4
  8
DEFPOINTS
  6
CONTINUOUS
 62
     0
 10
1261.2397659999999
 20
6105.5587340000002
 30
0.0
  0
POINT
  5
7DB5
  8
DEFPOINTS
  6
CONTINUOUS
 62
     0
 10
2951.2397660000001
 20
6105.5587340000002
 30
0.0
  0
POINT
  5
7DB6
  8
DEFPOINTS
  6
CONTINUOUS
 62
     0
 10
2951.2397660000001
 20
6272.664264
 30
0.0
  0
ENDBLK
  5
7BFF
  8
0
  0
BLOCK
  8
0
  2
*D14
 70
     1
 10
0.0
 20
0.0
 30
0.0
  3
*D14
  1

  0
LINE
  5
7DB7
  8
3
  6
CONTINUOUS
 62
     0
 10
2966.2397660000001
 20
6105.5587340000002
 30
0.0
 11
3220.6526110000009
 21
6105.5587340000002
 31
0.0
  0
LINE
  5
7DB8
  8
3
  6
CONTINUOUS
 62
     0
 10
2966.2397660000001
 20
5345.5587340000002
 30
0.0
 11
3220.6526110000009
 21
5345.5587340000002
 31
0.0
  0
LINE
  5
7DB9
  8
3
  6
CONTINUOUS
 62
     0
 10
3190.652611
 20
6045.5587340000002
 30
0.0
 11
3190.652611
 21
5405.5587340000002
 31
0.0
  0
INSERT
  5
7DBA
  8
3
  6
CONTINUOUS
 62
     0
  2
_OPEN
 10
3190.652611
 20
6105.5587340000002
 30
0.0
 41
60.0
 42
60.0
 43
60.0
 50
90.0
  0
INSERT
  5
7DBB
  8
3
  6
CONTINUOUS
 62
     0
  2
_OPEN
 10
3190.652611
 20
5345.5587340000002
 30
0.0
 41
60.0
 42
60.0
 43
60.0
 50
270.0
  0
TEXT
  8
3
  40
90
  5
7DE6
  62
0
  72
0
  71
0
 10
2935.65
 20
5558.39
 30
0.000000
  1
760
  0
POINT
  5
7DBD
  8
DEFPOINTS
  6
CONTINUOUS
 62
     0
 10
2951.2397660000001
 20
6105.5587340000002
 30
0.0
  0
POINT
  5
7DBE
  8
DEFPOINTS
  6
CONTINUOUS
 62
     0
 10
2951.2397660000001
 20
5345.5587340000002
 30
0.0
  0
POINT
  5
7DBF
  8
DEFPOINTS
  6
CONTINUOUS
 62
     0
 10
3190.652611
 20
5345.5587340000002
 30
0.0
  0
ENDBLK
  5
7BB4
  8
0
  0
BLOCK
  8
0
  2
*D15
 70
     1
 10
0.0
 20
0.0
 30
0.0
  3
*D15
  1

  0
LINE
  5
7DC0
  8
3
  6
CONTINUOUS
 62
     0
 10
1825.2422399999989
 20
3474.7965439999998
 30
0.0
 11
1825.2422399999989
 21
4136.1957039999998
 31
0.0
  0
LINE
  5
7DC1
  8
3
  6
CONTINUOUS
 62
     0
 10
2351.2397660000001
 20
4106.1957039999998
 30
0.0
 11
1885.24224
 21
4106.1957039999998
 31
0.0
  0
INSERT
  5
7DC2
  8
3
  6
CONTINUOUS
 62
     0
  2
_OPEN
 10
2411.2397660000001
 20
4106.1957039999998
 30
0.0
 41
60.0
 42
60.0
 43
60.0
  0
INSERT
  5
7DC3
  8
3
  6
CONTINUOUS
 62
     0
  2
_OPEN
 10
1825.2422399999989
 20
4106.1957039999998
 30
0.0
 41
60.0
 42
60.0
 43
60.0
 50
180.0
  0
TEXT
  8
3
  40
90
  5
7DE7
  62
0
  72
0
  71
0
 10
1938.24
 20
4021.90
 30
0.000000
  1
586
  0
POINT
  5
7DC5
  8
DEFPOINTS
  6
CONTINUOUS
 62
     0
 10
2411.2397660000001
 20
4072.0417869999992
 30
0.0
  0
POINT
  5
7DC6
  8
DEFPOINTS
  6
CONTINUOUS
 62
     0
 10
1825.2422399999989
 20
3459.7965439999989
 30
0.0
  0
POINT
  5
7DC7
  8
DEFPOINTS
  6
CONTINUOUS
 62
     0
 10
1825.2422399999989
 20
4106.1957039999998
 30
0.0
  0
ENDBLK
  5
7BF3
  8
0
  0
BLOCK
  8
0
  2
*D16
 70
     1
 10
0.0
 20
0.0
 30
0.0
  3
*D16
  1

  0
LINE
  5
7DC8
  8
3
 62
     0
 10
2946.2397660000001
 20
3548.7965439999989
 30
0.0
 11
2946.2397660000001
 21
4304.0315729990207
 31
0.0
  0
LINE
  5
7DC9
  8
3
 62
     0
 10
1261.2397659999999
 20
2684.7965439999998
 30
0.0
 11
1261.2397659999999
 21
4304.0315729990207
 31
0.0
  0
LINE
  5
7DCA
  8
3
 62
     0
 10
2886.2397660000001
 20
4274.0315729990207
 30
0.0
 11
1321.239765999999
 21
4274.0315729990207
 31
0.0
  0
INSERT
  5
7DCB
  8
3
 62
     0
  2
_OPEN
 10
2946.2397660000001
 20
4274.0315729990207
 30
0.0
 41
60.0
 42
60.0
 43
60.0
  0
INSERT
  5
7DCC
  8
3
 62
     0
  2
_OPEN
 10
1261.2397659999999
 20
4274.0315729990207
 30
0.0
 41
60.0
 42
60.0
 43
60.0
 50
180.0
  0
TEXT
  8
3
  40
90
  5
7DE8
  62
0
  72
0
  71
0
 10
1949.20
 20
4189.73
 30
0.000000
  1
1685
  0
POINT
  5
7DCE
  8
DEFPOINTS
 62
     0
 10
2946.2397660000001
 20
3533.7965439999989
 30
0.0
  0
POINT
  5
7DCF
  8
DEFPOINTS
 62
     0
 10
1261.2397659999999
 20
2669.7965439999998
 30
0.0
  0
POINT
  5
7DD0
  8
DEFPOINTS
 62
     0
 10
1261.2397659999999
 20
4274.0315729990207
 30
0.0
  0
ENDBLK
  5
7CF2
  8
0
  0
BLOCK
  8
0
  2
*D17
 70
     1
 10
0.0
 20
0.0
 30
0.0
  3
*D17
  1

  0
LINE
  5
7DD1
  8
3
 62
     0
 10
3077.4010329999992
 20
3459.7965439999989
 30
0.0
 11
3608.3658820000001
 21
3459.7965439999989
 31
0.0
  0
LINE
  5
7DD2
  8
3
 62
     0
 10
2426.2397660000001
 20
3967.7779485285268
 30
0.0
 11
3608.3658820000001
 21
3967.7779485285259
 31
0.0
  0
LINE
  5
7DD3
  8
3
 62
     0
 10
3578.3658819999991
 20
3519.7965439999998
 30
0.0
 11
3578.3658819999991
 21
3907.7779485285259
 31
0.0
  0
INSERT
  5
7DD4
  8
3
 62
     0
  2
_OPEN
 10
3578.3658819999991
 20
3459.7965439999989
 30
0.0
 41
60.0
 42
60.0
 43
60.0
 50
270.0
  0
INSERT
  5
7DD5
  8
3
 62
     0
  2
_OPEN
 10
3578.3658819999991
 20
3967.7779485285259
 30
0.0
 41
60.0
 42
60.0
 43
60.0
 50
90.0
  0
TEXT
  8
3
  40
90
  5
7DE9
  62
0
  72
0
  71
0
 10
3323.37
 20
3553.68
 30
0.000000
  1
508
  0
POINT
  5
7DD7
  8
DEFPOINTS
 62
     0
 10
3062.4010329999992
 20
3459.7965439999989
 30
0.0
  0
POINT
  5
7DD8
  8
DEFPOINTS
 62
     0
 10
2411.2397660000001
 20
3967.7779485285268
 30
0.0
  0
POINT
  5
7DD9
  8
DEFPOINTS
 62
     0
 10
3578.3658819999991
 20
3967.7779485285259
 30
0.0
  0
ENDBLK
  5
7D3F
  8
0
  0
ENDSEC
  0
SECTION
  2
ENTITIES
  0
ARC
  5
7A5F
  8
1
  6
CONTINUOUS
 10
2458.2397660000001
 20
3412.7965439999989
 30
0.0
 40
634.74000000000001
 50
174.69
 51
265.75
  0
LINE
  5
7A60
  8
1
  6
CONTINUOUS
 10
2781.2397660000001
 20
2669.7965439999998
 30
0.0
 11
2781.2397660000001
 21
3809.7965439999989
 31
0.0
  0
LINE
  5
7A61
  8
2
  6
CENTER
 10
1599.7597659999999
 20
2789.7965439999998
 30
0.0
 11
1599.7597659999999
 21
2949.7965439999998
 31
0.0
  0
ARC
  5
7A62
  8
1
  6
CONTINUOUS
 10
1599.7597659999999
 20
2869.7965439999998
 30
0.0
 40
162.0
 50
324.97000000000003
 51
215.02999999999989
  0
CIRCLE
  5
7A63
  8
1
  6
CONTINUOUS
 10
1599.7597659999999
 20
2869.7965439999998
 30
0.0
 40
80.0
  0
LINE
  5
7A64
  8
1
  6
CONTINUOUS
 10
1421.2397659999999
 20
2669.7965439999998
 30
0.0
 11
1421.2397659999999
 21
2969.7965439999998
 31
0.0
  0
LINE
  5
7A65
  8
1
  6
CONTINUOUS
 10
4472.8319780000002
 20
3890.7965439999998
 30
0.0
 11
4472.8319780000002
 21
2669.7965439999998
 31
0.0
  0
LINE
  5
7A66
  8
1
  6
CONTINUOUS
 10
5002.8319780000002
 20
3890.7965439999998
 30
0.0
 11
5002.8319780000002
 21
2669.7965439999998
 31
0.0
  0
LINE
  5
7A67
  8
1
  6
CONTINUOUS
 10
5002.8319780000002
 20
3493.7965439999998
 30
0.0
 11
4472.8319780000002
 21
2763.7965439999998
 31
0.0
  0
LINE
  5
7A68
  8
1
  6
CONTINUOUS
 10
4472.8319780000002
 20
3493.7965439999998
 30
0.0
 11
5002.8319780000002
 21
2763.7965439999998
 31
0.0
  0
LINE
  5
7A69
  8
1
  6
CONTINUOUS
 10
4237.8319780000002
 20
3809.7965439999989
 30
0.0
 11
4237.8319780000002
 21
2669.7965439999998
 31
0.0
  0
LINE
  5
7A6A
  8
1
  6
CONTINUOUS
 10
4377.8319780000002
 20
3809.7965439999989
 30
0.0
 11
4377.8319780000002
 21
2669.7965439999998
 31
0.0
  0
LINE
  5
7A6B
  8
1
  6
CONTINUOUS
 10
4347.8319780000002
 20
2749.7965439999998
 30
0.0
 11
4347.8319780000002
 21
2909.7965439999998
 31
0.0
  0
LINE
  5
7A6C
  8
1
  6
CONTINUOUS
 10
4267.8319780000002
 20
2749.7965439999998
 30
0.0
 11
4267.8319780000002
 21
2909.7965439999998
 31
0.0
  0
LINE
  5
7A6D
  8
1
  6
CONTINUOUS
 10
2916.2397660000001
 20
3493.7965439999998
 30
0.0
 11
2916.2397660000001
 21
2764.6965439999999
 31
0.0
  0
LINE
  5
7A6E
  8
1
  6
CONTINUOUS
 10
2946.2397660000001
 20
3533.7965439999989
 30
0.0
 11
2946.2397660000001
 21
2723.7965439999998
 31
0.0
  0
LINE
  5
7A71
  8
1
  6
CONTINUOUS
 10
1642.1797659999991
 20
2801.9665439999999
 30
0.0
 11
2490.7697659999999
 21
3332.6165439999991
 31
0.0
  0
LINE
  5
7A72
  8
1
  6
CONTINUOUS
 10
2951.2397660000001
 20
2669.7965439999998
 30
0.0
 11
1261.2397659999999
 21
2669.7965439999998
 31
0.0
  0
LINE
  5
7A73
  8
1
  6
CONTINUOUS
 10
2951.2397660000001
 20
2569.7965439999998
 30
0.0
 11
1261.2397659999999
 21
2569.7965439999998
 31
0.0
  0
LINE
  5
7A74
  8
1
  6
CONTINUOUS
 10
1261.2397659999999
 20
2669.7965439999998
 30
0.0
 11
1261.2397659999999
 21
2569.7965439999998
 31
0.0
  0
LINE
  5
7A75
  8
1
  6
CONTINUOUS
 10
1753.7597659999999
 20
2727.7965439999998
 30
0.0
 11
1732.419766
 21
2776.806544
 31
0.0
  0
LINE
  5
7A76
  8
1
  6
CONTINUOUS
 10
1753.7597659999999
 20
2669.7965439999998
 30
0.0
 11
1753.7597659999999
 21
2727.7965439999998
 31
0.0
  0
LINE
  5
7A77
  8
1
  6
CONTINUOUS
 10
1445.7597659999999
 20
2669.7965439999998
 30
0.0
 11
1445.7597659999999
 21
2727.7965439999998
 31
0.0
  0
LINE
  5
7A78
  8
1
  6
CONTINUOUS
 10
1445.7597659999999
 20
2727.7965439999998
 30
0.0
 11
1467.109766
 21
2776.806544
 31
0.0
  0
LINE
  5
7A79
  8
1
  6
CONTINUOUS
 10
2951.2397660000001
 20
2669.7965439999998
 30
0.0
 11
2951.2397660000001
 21
2569.7965439999998
 31
0.0
  0
LINE
  5
7A7A
  8
1
  6
CONTINUOUS
 10
2946.2397660000001
 20
2763.7965439999998
 30
0.0
 11
2411.2397660000001
 21
2779.7965439999998
 31
0.0
  0
LINE
  5
7A7B
  8
1
  6
CONTINUOUS
 10
5104.8319779999993
 20
2669.7965439999998
 30
0.0
 11
4237.8319780000002
 21
2669.7965439999998
 31
0.0
  0
LINE
  5
7A7C
  8
1
  6
CONTINUOUS
 10
5104.8319779999993
 20
2569.7965439999998
 30
0.0
 11
4344.8319780000011
 21
2569.7965439999998
 31
0.0
  0
LINE
  5
7A7D
  8
1
  6
CONTINUOUS
 10
4472.8319780000002
 20
2763.7965439999998
 30
0.0
 11
5002.8319780000002
 21
2763.7965439999998
 31
0.0
  0
LINE
  5
7A7E
  8
1
  6
CONTINUOUS
 10
5054.8319780000002
 20
2669.7965439999998
 30
0.0
 11
4237.8319780000002
 21
2669.7965439999998
 31
0.0
  0
LINE
  5
7A7F
  8
1
  6
CONTINUOUS
 10
4344.8319780000011
 20
2669.7965439999998
 30
0.0
 11
4344.8319780000011
 21
2569.7965439999998
 31
0.0
  0
LINE
  5
7A80
  8
1
  6
CONTINUOUS
 10
4267.8319780000002
 20
2749.7965439999998
 30
0.0
 11
4347.8319780000002
 21
2749.7965439999998
 31
0.0
  0
LINE
  5
7A81
  8
1
  6
CONTINUOUS
 10
4347.8319780000002
 20
2808.7965439999998
 30
0.0
 11
4472.8319780000002
 21
2808.7965439999998
 31
0.0
  0
LINE
  5
7A82
  8
1
  6
CONTINUOUS
 10
5104.8319779999993
 20
2669.7965439999998
 30
0.0
 11
5104.8319779999993
 21
2569.7965439999998
 31
0.0
  0
ARC
  5
7A84
  8
1
  6
CONTINUOUS
 10
2372.2397660000001
 20
3420.7965439999998
 30
0.0
 40
548.36999999999989
 50
82.569999999999993
 51
174.69
  0
LINE
  5
7A85
  8
1
  6
CONTINUOUS
 10
2261.2397660000001
 20
3809.7965439999989
 30
0.0
 11
1421.2397659999999
 21
2969.7965439999998
 31
0.0
  0
LINE
  5
7A88
  8
1
  6
CONTINUOUS
 10
1548.3197660000001
 20
2931.056544
 30
0.0
 11
2314.7797660000001
 21
3574.6665440000002
 31
0.0
  0
LINE
  5
7A89
  8
2
  6
CENTER
 10
1519.7597659999999
 20
2869.7965439999998
 30
0.0
 11
1679.7597659999999
 21
2869.7965439999998
 31
0.0
  0
ARC
  5
7A8A
  8
1
  6
CONTINUOUS
 10
2381.2397660000001
 20
3489.7965439999998
 30
0.0
 40
478.79000000000002
 50
0.48
 51
82.569999999999993
  0
LINE
  5
7A8B
  8
1
  6
CONTINUOUS
 10
2781.2397660000001
 20
3809.7965439999989
 30
0.0
 11
2261.2397660000001
 21
3809.7965439999989
 31
0.0
  0
CIRCLE
  5
7A8C
  8
1
  6
CONTINUOUS
 10
2411.2397660000001
 20
3459.7965439999989
 30
0.0
 40
150.0
  0
LINE
  5
7A8D
  8
1
  6
CONTINUOUS
 10
2860.0097660000001
 20
3493.7965439999998
 30
0.0
 11
2946.2397660000001
 21
3493.7965439999998
 31
0.0
  0
LINE
  5
7A8E
  8
2
  6
CENTER
 10
5084.9088849999998
 20
3459.7965439999989
 30
0.0
 11
4153.135421
 21
3459.7965439999989
 31
0.0
  0
LINE
  5
7A8F
  8
2
  6
CENTER
 10
2411.2397660000001
 20
6247.5534240000006
 30
0.0
 11
2411.2397660000001
 21
5154.9075270000003
 31
0.0
  0
LINE
  5
7A90
  8
1
  6
CONTINUOUS
 10
1679.7597659999999
 20
5345.5587340000002
 30
0.0
 11
2261.2397660000001
 21
5345.5587340000002
 31
0.0
  0
LINE
  5
7A91
  8
1
  6
CONTINUOUS
 10
1261.2397659999999
 20
6105.5587340000002
 30
0.0
 11
2951.2397660000001
 21
6105.5587340000002
 31
0.0
  0
LINE
  5
7A92
  8
1
  6
CONTINUOUS
 10
2946.2397660000001
 20
5473.5587340000002
 30
0.0
 11
1823.4997659999999
 21
5473.5587340000002
 31
0.0
  0
LINE
  5
7A93
  8
1
  6
CONTINUOUS
 10
2946.2397660000001
 20
6003.5587340000011
 30
0.0
 11
1823.4997659999999
 21
6003.5587340000011
 31
0.0
  0
LINE
  5
7A94
  8
1
  6
CONTINUOUS
 10
2781.2397660000001
 20
5238.5587340000002
 30
0.0
 11
1421.2397659999999
 21
5238.5587340000002
 31
0.0
  0
LINE
  5
7A95
  8
1
  6
CONTINUOUS
 10
2781.2397660000001
 20
5378.5587340000011
 30
0.0
 11
1421.2397659999999
 21
5378.5587340000011
 31
0.0
  0
LINE
  5
7A96
  8
1
  6
CONTINUOUS
 10
1261.2397659999999
 20
5345.5587340000002
 30
0.0
 11
1519.7597659999999
 21
5345.5587340000002
 31
0.0
  0
LINE
  5
7A97
  8
1
  6
CONTINUOUS
 10
1261.2397659999999
 20
6105.5587340000002
 30
0.0
 11
1261.2397659999999
 21
5345.5587340000002
 31
0.0
  0
LINE
  5
7A98
  8
1
  6
CONTINUOUS
 10
1432.7797660000001
 20
5890.508734
 30
0.0
 11
1761.7597659999999
 21
5890.508734
 31
0.0
  0
LINE
  5
7A99
  8
1
  6
CONTINUOUS
 10
1620.7597659999999
 20
5348.5587340000002
 30
0.0
 11
1620.7597659999999
 21
5434.5687340000004
 31
0.0
  0
LINE
  5
7A9A
  8
1
  6
CONTINUOUS
 10
1578.7597659999999
 20
5348.5587340000002
 30
0.0
 11
1578.7597659999999
 21
5434.5687340000004
 31
0.0
  0
LINE
  5
7A9B
  8
1
  6
CONTINUOUS
 10
1432.7797660000001
 20
5434.5687340000004
 30
0.0
 11
1761.7597659999999
 21
5434.5687340000004
 31
0.0
  0
LINE
  5
7A9C
  8
1
  6
CONTINUOUS
 10
1761.7597659999999
 20
5434.5687340000004
 30
0.0
 11
1761.7597659999999
 21
5890.508734
 31
0.0
  0
LINE
  5
7A9D
  8
1
  6
CONTINUOUS
 10
1432.7797660000001
 20
5434.5687340000004
 30
0.0
 11
1432.7797660000001
 21
5890.508734
 31
0.0
  0
LINE
  5
7A9E
  8
1
  6
CONTINUOUS
 10
1823.4997659999999
 20
6003.5587340000011
 30
0.0
 11
1823.4997659999999
 21
5473.5587340000002
 31
0.0
  0
LINE
  5
7A9F
  8
1
  6
CONTINUOUS
 10
1421.2397659999999
 20
5238.5587340000002
 30
0.0
 11
1421.2397659999999
 21
5378.5587340000011
 31
0.0
  0
LINE
  5
7AA0
  8
1
  6
CONTINUOUS
 10
1519.7597659999999
 20
5268.5587340000002
 30
0.0
 11
1519.7597659999999
 21
5348.5587340000002
 31
0.0
  0
LINE
  5
7AA1
  8
1
  6
CONTINUOUS
 10
1679.7597659999999
 20
5268.5587340000002
 30
0.0
 11
1679.7597659999999
 21
5348.5587340000002
 31
0.0
  0
LINE
  5
7AA2
  8
1
  6
CONTINUOUS
 10
1679.7597659999999
 20
5268.5587340000002
 30
0.0
 11
1519.7597659999999
 21
5268.5587340000002
 31
0.0
  0
LINE
  5
7AA3
  8
1
  6
CONTINUOUS
 10
1679.7597659999999
 20
5348.5587340000002
 30
0.0
 11
1519.7597659999999
 21
5348.5587340000002
 31
0.0
  0
LINE
  5
7AA4
  8
1
  6
CONTINUOUS
 10
2561.2397660000001
 20
5345.5587340000002
 30
0.0
 11
2951.2397660000001
 21
5345.5587340000002
 31
0.0
  0
LINE
  5
7AA5
  8
1
  6
CONTINUOUS
 10
2951.2397660000001
 20
6105.5587340000002
 30
0.0
 11
2951.2397660000001
 21
5345.5587340000002
 31
0.0
  0
LINE
  5
7AA6
  8
1
  6
CONTINUOUS
 10
2946.2397660000001
 20
6043.5587340000011
 30
0.0
 11
2946.2397660000001
 21
5433.5587340000002
 31
0.0
  0
LINE
  5
7AA7
  8
1
  6
CONTINUOUS
 10
2781.2397660000001
 20
5238.5587340000002
 30
0.0
 11
2781.2397660000001
 21
5378.5587340000011
 31
0.0
  0
LINE
  5
7AA8
  8
1
  6
CONTINUOUS
 10
2261.2397660000001
 20
5268.5587340000002
 30
0.0
 11
2261.2397660000001
 21
5348.5587340000002
 31
0.0
  0
LINE
  5
7AA9
  8
1
  6
CONTINUOUS
 10
2561.2397660000001
 20
5268.5587340000002
 30
0.0
 11
2561.2397660000001
 21
5348.5587340000002
 31
0.0
  0
LINE
  5
7AAA
  8
1
  6
CONTINUOUS
 10
2561.2397660000001
 20
5268.5587340000002
 30
0.0
 11
2261.2397660000001
 21
5268.5587340000002
 31
0.0
  0
LINE
  5
7AAB
  8
1
  6
CONTINUOUS
 10
2561.2397660000001
 20
5348.5587340000002
 30
0.0
 11
2261.2397660000001
 21
5348.5587340000002
 31
0.0
  0
LINE
  5
7AAC
  8
1
  6
CONTINUOUS
 10
2390.2397660000001
 20
5348.5587340000002
 30
0.0
 11
2390.2397660000001
 21
5473.5587340000002
 31
0.0
  0
LINE
  5
7AAD
  8
1
  6
CONTINUOUS
 10
2432.2397660000001
 20
5348.5587340000002
 30
0.0
 11
2432.2397660000001
 21
5473.5587340000002
 31
0.0
  0
LINE
  5
7AAE
  8
1
  6
CONTINUOUS
 10
4472.8319780000002
 20
3493.7965439999998
 30
0.0
 11
5002.8319780000002
 21
3493.7965439999998
 31
0.0
  0
LINE
  5
7AAF
  8
1
  6
CONTINUOUS
 10
4472.8319780000002
 20
3890.7965439999998
 30
0.0
 11
5002.8319780000002
 21
3890.7965439999998
 31
0.0
  0
LINE
  5
7AB0
  8
1
  6
CONTINUOUS
 10
4377.8319780000002
 20
3809.7965439999989
 30
0.0
 11
4237.8319780000002
 21
3809.7965439999989
 31
0.0
  0
LINE
  5
7AB1
  8
1
  6
CONTINUOUS
 10
4347.8319780000002
 20
3309.7965439999998
 30
0.0
 11
4347.8319780000002
 21
3609.7965439999989
 31
0.0
  0
LINE
  5
7AB2
  8
1
  6
CONTINUOUS
 10
4267.8319780000002
 20
3309.7965439999998
 30
0.0
 11
4267.8319780000002
 21
3609.7965439999989
 31
0.0
  0
LINE
  5
7AB3
  8
1
  6
CONTINUOUS
 10
4267.8319780000002
 20
3309.7965439999998
 30
0.0
 11
4347.8319780000002
 21
3309.7965439999998
 31
0.0
  0
LINE
  5
7AB4
  8
1
  6
CONTINUOUS
 10
4267.8319780000002
 20
3609.7965439999989
 30
0.0
 11
4347.8319780000002
 21
3609.7965439999989
 31
0.0
  0
LINE
  5
7AB5
  8
1
  6
CONTINUOUS
 10
4267.8319780000002
 20
2909.7965439999998
 30
0.0
 11
4347.8319780000002
 21
2909.7965439999998
 31
0.0
  0
LINE
  5
7AB6
  8
1
  6
CONTINUOUS
 10
4347.8319780000002
 20
2850.7965439999998
 30
0.0
 11
4472.8319780000002
 21
2850.7965439999998
 31
0.0
  0
LINE
  5
7AB7
  8
1
  6
CONTINUOUS
 10
4347.8319780000002
 20
3438.7965439999998
 30
0.0
 11
4472.8319780000002
 21
3438.7965439999998
 31
0.0
  0
LINE
  5
7AB8
  8
1
  6
CONTINUOUS
 10
4347.8319780000002
 20
3480.7965439999989
 30
0.0
 11
4472.8319780000002
 21
3480.7965439999989
 31
0.0
  0
LINE
  5
7AB9
  8
2
  6
CENTER
 10
1167.8020300000001
 20
5738.5587340000002
 30
0.0
 11
3035.5673019999999
 21
5738.5587340000002
 31
0.0
  0
LINE
  5
7ABA
  8
2
  6
CENTER
 10
4737.8319780000002
 20
3917.3710160000001
 30
0.0
 11
4737.8319780000002
 21
2413.8329239999989
 31
0.0
  0
LINE
  5
7ABB
  8
2
  6
CENTER
 10
2411.2397660000001
 20
4166.7811920000013
 30
0.0
 11
2411.2397660000001
 21
2502.758499
 31
0.0
  0
LINE
  5
7ABC
  8
2
  6
CENTER
 10
3062.4010329999992
 20
3459.7965439999989
 30
0.0
 11
1551.9544699999999
 21
3459.7965439999989
 31
0.0
  0
LINE
  5
7AC3
  8
4
  6
CONTINUOUS
 10
5550.0
 20
1500.0
 30
0.0
 11
5550.0
 21
900.0
 31
0.0
  0
LINE
  5
7AC4
  8
4
  6
CONTINUOUS
 10
3450.0
 20
1500.0
 30
0.0
 11
3450.0
 21
900.0
 31
0.0
  0
LINE
  5
7AC5
  8
4
  6
CONTINUOUS
 10
1950.0
 20
1500.0
 30
0.0
 11
1950.0
 21
900.0
 31
0.0
  0
LINE
  5
7AC8
  8
4
  6
CONTINUOUS
 10
1950.0
 20
900.0
 30
0.0
 11
5550.0
 21
900.0
 31
0.0
  0
LINE
  5
7AC9
  8
4
  6
CONTINUOUS
 10
1950.0
 20
1200.0
 30
0.0
 11
5550.0
 21
1200.0
 31
0.0
  0
TEXT
  5
7ACA
  8
4
  6
CONTINUOUS
 10
2065.5062429999989
 20
1294.6290779999999
 30
0.0
 40
150.0
  1
機器名称
  0
TEXT
  5
7ACB
  8
4
  6
CONTINUOUS
 10
2058.7743179999989
 20
964.9354699999999
 30
0.0
 40
150.0
  1
機器型番
  0
TEXT
  5
7ACC
  8
4
  6
CONTINUOUS
 10
3533.0362359999999
 20
1267.7153069999999
 30
0.0
 40
150.0
  1
ミツヤ多翼送風機
  0
TEXT
  5
7ACD
  8
4
  6
CONTINUOUS
 10
3559.9634869999991
 20
951.47875299999987
 30
0.0
 40
150.0
  1
MF#4 1/2-4
  0
TEXT
  5
7ACF
  8
4
  6
CONTINUOUS
 10
2420.0519559999998
 20
7150.2865239999992
 30
0.0
 40
162.0
  1
天井吊ベット
  0
TEXT
  5
7AD0
  8
4
  6
CONTINUOUS
 10
948.50278000000014
 20
7601.6429289999996
 30
0.0
 40
216.0
  1
ベルト駆動式片吸込両持多翼ファン
  0
LINE
  5
7AD1
  8
4
  6
CONTINUOUS
 10
750.0
 20
7408.2262629999996
 30
0.0
 11
5550.0
 21
7408.2262629999996
 31
0.0
  0
LINE
  5
7AD2
  8
4
  6
CONTINUOUS
 10
750.0
 20
8008.2262629999996
 30
0.0
 11
5550.0
 21
8008.2262629999996
 31
0.0
  0
LINE
  5
7AD3
  8
4
  6
CONTINUOUS
 10
1950.0
 20
1500.0
 30
0.0
 11
5550.0
 21
1500.0
 31
0.0
  0
LINE
  5
7AD4
  8
4
  6
CONTINUOUS
 10
750.0
 20
8008.2262629999996
 30
0.0
 11
750.0
 21
7408.2262629999996
 31
0.0
  0
TEXT
  5
7AD5
  8
4
  6
CONTINUOUS
 10
1112.475459
 20
7146.9584329999998
 30
0.0
 40
162.0
  1
左回転右横向
  0
TEXT
  5
7AD6
  8
4
  6
CONTINUOUS
 10
4406.9086779999989
 20
8118.1832439999989
 30
0.0
 40
168.0
  1
No.
  0
TEXT
  5
7AD7
  8
4
  6
CONTINUOUS
 10
3933.8881879999999
 20
7150.2865239999992
 30
0.0
 40
162.0
  1
縮尺：1/30
  0
LINE
  5
7AD8
  8
4
  6
CONTINUOUS
 10
5550.0
 20
8008.2262629999996
 30
0.0
 11
5550.0
 21
7408.2262629999996
 31
0.0
  0
LINE
  5
7ADA
  8
4
  6
CONTINUOUS
 10
4321.8522670000002
 20
8043.7907490000007
 30
0.0
 11
4321.8522670000002
 21
8359.9567849999985
 31
0.0
  0
LINE
  5
7ADB
  8
4
  6
CONTINUOUS
 10
4321.8522670000002
 20
8359.9567849999985
 30
0.0
 11
5550.0
 21
8359.9567849999985
 31
0.0
  0
LINE
  5
7ADC
  8
4
  6
CONTINUOUS
 10
5550.0
 20
8359.9567849999985
 30
0.0
 11
5550.0
 21
8043.7907490000007
 31
0.0
  0
LINE
  5
7ADD
  8
4
  6
CONTINUOUS
 10
5550.0
 20
8043.7907490000007
 30
0.0
 11
4321.8522670000002
 21
8043.7907490000007
 31
0.0
  0
DIMENSION
  5
7AEF
  8
3
  6
CONTINUOUS
  2
*D1
 10
3174.036325
 20
2763.7965439999989
 30
0.0
 11
3174.036325
 21
3148.6910050000001
 31
0.0
 70
   128
 13
2946.2397660000001
 23
3493.7965439999998
 33
0.0
 14
2946.2397660000001
 24
2763.7965439999998
 34
0.0
 50
90.0
1001
ACAD
1000
DSTYLE
1002
{
1070
   287
1070
     3
1070
    40
1040
30.0
1070
   143
1040
0.039
1070
   172
1070
     1
1070
   271
1070
     0
1070
   279
1070
     0
1070
   288
1070
     1
1002
}
  0
DIMENSION
  5
7AFC
  8
3
  6
CONTINUOUS
  2
*D2
 10
3373.4317170000008
 20
3459.7965439999989
 30
0.0
 11
3373.4317169999999
 21
3143.1563030000002
 31
0.0
 70
   128
 13
2946.2397660000001
 23
2763.7965439999998
 33
0.0
 14
3062.4010329999992
 24
3459.7965439999989
 34
0.0
 50
90.0
1001
ACAD
1000
DSTYLE
1002
{
1070
   287
1070
     3
1070
    40
1040
30.0
1070
   143
1040
0.039
1070
   172
1070
     1
1070
   271
1070
     0
1070
   279
1070
     0
1070
   288
1070
     1
1002
}
  0
DIMENSION
  5
7B15
  8
3
  6
CONTINUOUS
  2
*D3
 10
3578.3658819999991
 20
2569.7965439999989
 30
0.0
 11
3503.3658820000001
 21
3014.7965440000012
 31
0.0
 70
     0
 13
3062.4010329999992
 23
3459.7965439999989
 33
0.0
 14
2951.2397660000001
 24
2569.7965439999998
 34
0.0
 50
90.0
1001
ACAD
1000
DSTYLE
1002
{
1070
   287
1070
     4
1070
    40
1040
30.0
1070
    75
1070
     1
1070
   143
1040
0.039
1070
   172
1070
     1
1070
   271
1070
     0
1070
   279
1070
     1
1070
   288
1070
     1
1002
}
  0
DIMENSION
  5
7B22
  8
3
  6
CONTINUOUS
  2
*D4
 10
2411.2397660000001
 20
2291.7077610000001
 30
0.0
 11
1817.0398909999999
 21
2291.7077610000001
 31
0.0
 70
   128
 13
1261.2397659999999
 23
2569.7965439999998
 33
0.0
 14
2411.2397660000001
 24
2408.0190940000002
 34
0.0
1001
ACAD
1000
DSTYLE
1002
{
1070
   287
1070
     3
1070
    40
1040
30.0
1070
   143
1040
0.039
1070
   172
1070
     1
1070
   271
1070
     0
1070
   279
1070
     0
1070
   288
1070
     1
1002
}
  0
DIMENSION
  5
7B2E
  8
3
  6
CONTINUOUS
  2
*D5
 10
2951.2397660000001
 20
2291.7077610000001
 30
0.0
 11
2681.2397660000001
 21
2366.7077610000001
 31
0.0
 70
     0
 13
2411.2397660000001
 23
2408.0190940000002
 33
0.0
 14
2951.2397660000001
 24
2569.7965439999998
 34
0.0
1001
ACAD
1000
DSTYLE
1002
{
1070
   287
1070
     4
1070
    40
1040
30.0
1070
    75
1070
     1
1070
   143
1040
0.039
1070
   172
1070
     1
1070
   271
1070
     0
1070
   279
1070
     1
1070
   288
1070
     1
1002
}
  0
DIMENSION
  5
7B3B
  8
3
  6
CONTINUOUS
  2
*D6
 10
2411.2397660000001
 20
4106.1957039999998
 30
0.0
 11
2664.4703159999999
 21
4106.1957039999998
 31
0.0
 70
   128
 13
2946.2397660000001
 23
3533.7965439999989
 33
0.0
 14
2411.2397660000001
 24
4072.0417869999992
 34
0.0
1001
ACAD
1000
DSTYLE
1002
{
1070
   287
1070
     3
1070
    40
1040
30.0
1070
   143
1040
0.039
1070
   172
1070
     1
1070
   271
1070
     0
1070
   279
1070
     0
1070
   288
1070
     1
1002
}
  0
DIMENSION
  5
7B54
  8
3
  6
CONTINUOUS
  2
*D7
 10
4472.8319780000002
 20
3989.9668109999998
 30
0.0
 11
4741.5056969999996
 21
3989.9668109999998
 31
0.0
 70
   128
 13
5002.8319780000002
 23
3890.7965439999998
 33
0.0
 14
4472.8319780000002
 24
3890.7965439999998
 34
0.0
1001
ACAD
1000
DSTYLE
1002
{
1070
   287
1070
     3
1070
    40
1040
30.0
1070
   143
1040
0.039
1070
   172
1070
     1
1070
   271
1070
     0
1070
   279
1070
     0
1070
   288
1070
     1
1002
}
  0
LINE
  5
7B55
  8
1
  6
CONTINUOUS
 10
5004.8319780000002
 20
3836.7965439999998
 30
0.0
 11
5004.8319780000002
 21
3082.7965439999998
 31
0.0
  0
DIMENSION
  5
7B65
  8
3
  6
CONTINUOUS
  2
*D8
 10
4737.8319780000002
 20
4180.548366
 30
0.0
 11
4889.9377454377527
 21
4274.0315729990207
 31
0.0
 70
   128
 13
5004.8319780000002
 23
3836.7965439999998
 33
0.0
 14
4737.8319780000002
 24
4126.6503299999986
 34
0.0
1001
ACAD
1000
DSTYLE
1002
{
1070
   288
1070
     1
1070
   172
1070
     1
1070
    40
1040
30.0
1070
   271
1070
     0
1070
   143
1040
0.039
1002
}
  0
DIMENSION
  5
7B72
  8
3
  6
CONTINUOUS
  2
*D9
 10
5228.9166480000013
 20
3082.7965439999998
 30
0.0
 11
5228.9166480000004
 21
3480.7735579999999
 31
0.0
 70
   128
 13
5004.8319780000002
 23
3836.7965439999998
 33
0.0
 14
5004.8319780000002
 24
3082.7965439999998
 34
0.0
 50
90.0
1001
ACAD
1000
DSTYLE
1002
{
1070
   287
1070
     3
1070
     3
1000
φ<>
1070
    40
1040
30.0
1070
   143
1040
0.039
1070
   172
1070
     1
1070
   271
1070
     0
1070
   279
1070
     0
1070
   288
1070
     1
1002
}
  0
DIMENSION
  5
7B7E
  8
3
  6
CONTINUOUS
  2
*D10
 10
4237.8319780000002
 20
4180.548366
 30
0.0
 11
4487.8319780000002
 21
4330.548366
 31
0.0
 70
     0
  1
MAX\P560
 13
4737.8319780000002
 23
4126.6503299999986
 33
0.0
 14
4237.8319780000002
 24
3809.7965439999989
 34
0.0
1001
ACAD
1000
DSTYLE
1002
{
1070
   287
1070
     4
1070
    40
1040
30.0
1070
    75
1070
     1
1070
   143
1040
0.039
1070
   172
1070
     1
1070
   271
1070
     0
1070
   279
1070
     1
1070
   288
1070
     1
1002
}
  0
DIMENSION
  5
7B8D
  8
3
  6
CONTINUOUS
  2
*D11
 10
4737.8319780000002
 20
2335.1711749999999
 30
0.0
 11
4549.9747536538371
 21
2411.6346815855031
 31
0.0
 70
   128
 13
4344.8319780000011
 23
2569.7965439999998
 33
0.0
 14
4737.8319780000002
 24
2413.8329239999989
 34
0.0
1001
ACAD
1000
DSTYLE
1002
{
1070
   288
1070
     1
1070
   172
1070
     1
1070
    40
1040
30.0
1070
   271
1070
     0
1070
   143
1040
0.039
1002
}
  0
DIMENSION
  5
7B9B
  8
3
  6
CONTINUOUS
  2
*D12
 10
5104.8319779999993
 20
2335.1711749999999
 30
0.0
 11
4920.8282509999999
 21
2336.0109520000001
 31
0.0
 70
   128
 13
4737.8319780000002
 23
2413.8329239999989
 33
0.0
 14
5104.8319779999993
 24
2569.7965439999998
 34
0.0
1001
ACAD
1000
DSTYLE
1002
{
1070
   287
1070
     4
1070
    40
1040
30.0
1070
    75
1070
     1
1070
   143
1040
0.039
1070
   172
1070
     1
1070
   271
1070
     0
1070
   279
1070
     1
1070
   288
1070
     1
1002
}
  0
DIMENSION
  5
7BA8
  8
3
  6
CONTINUOUS
  2
*D13
 10
2951.2397660000001
 20
6272.664264
 30
0.0
 11
2066.2841400000002
 21
6272.664264
 31
0.0
 70
   128
 13
1261.2397659999999
 23
6105.5587340000002
 33
0.0
 14
2951.2397660000001
 24
6105.5587340000002
 34
0.0
1001
ACAD
1000
DSTYLE
1002
{
1070
   287
1070
     3
1070
    40
1040
30.0
1070
   143
1040
0.039
1070
   172
1070
     1
1070
   271
1070
     0
1070
   279
1070
     0
1070
   288
1070
     1
1002
}
  0
DIMENSION
  5
7BB5
  8
3
  6
CONTINUOUS
  2
*D14
 10
3190.652611
 20
5345.5587340000002
 30
0.0
 11
3190.652611
 21
5717.6885499999999
 31
0.0
 70
   128
 13
2951.2397660000001
 23
6105.5587340000002
 33
0.0
 14
2951.2397660000001
 24
5345.5587340000002
 34
0.0
 50
90.0
1001
ACAD
1000
DSTYLE
1002
{
1070
   287
1070
     3
1070
    40
1040
30.0
1070
   143
1040
0.039
1070
   172
1070
     1
1070
   271
1070
     0
1070
   279
1070
     0
1070
   288
1070
     1
1002
}
  0
DIMENSION
  5
7BF4
  8
3
  6
CONTINUOUS
  2
*D15
 10
1825.2422399999989
 20
4106.1957039999998
 30
0.0
 11
2118.2410030000001
 21
4181.1957039999988
 31
0.0
 70
     0
 13
2411.2397660000001
 23
4072.0417869999992
 33
0.0
 14
1825.2422399999989
 24
3459.7965439999989
 34
0.0
1001
ACAD
1000
DSTYLE
1002
{
1070
   287
1070
     4
1070
    40
1040
30.0
1070
    75
1070
     1
1070
   143
1040
0.039
1070
   172
1070
     1
1070
   271
1070
     0
1070
   279
1070
     1
1070
   288
1070
     1
1002
}
  0
DIMENSION
  5
7CF3
  8
3
  2
*D16
 10
1261.2397659999999
 20
4274.0315729990207
 30
0.0
 11
2129.203770279054
 21
4274.0315729990207
 31
0.0
 70
   128
 13
2946.2397660000001
 23
3533.7965439999989
 33
0.0
 14
1261.2397659999999
 24
2669.7965439999998
 34
0.0
1001
ACAD
1000
DSTYLE
1002
{
1070
   287
1070
     3
1070
    40
1040
30.0
1070
   143
1040
0.039
1070
   172
1070
     1
1070
   271
1070
     0
1070
   279
1070
     0
1070
   288
1070
     1
1002
}
  0
LINE
  5
7D2E
  8
1
  6
CONTINUOUS
 10
2871.2397660000001
 20
3589.7965439999998
 30
0.0
 11
1951.2397659999999
 21
3589.7965439999989
 31
0.0
  0
LINE
  5
7D2F
  8
1
 10
1951.2397659999999
 20
3589.7965439999989
 30
0.0
 11
1951.2397659999999
 21
2669.7965439999998
 31
0.0
  0
LINE
  5
7D30
  8
1
 10
2871.2397660000001
 20
3589.7965439999998
 30
0.0
 11
2871.2397660000001
 21
2669.7965439999998
 31
0.0
  0
DIMENSION
  5
7D33
  8
3
  2
*D17
 10
3578.3658819999991
 20
3967.7779485285259
 30
0.0
 11
3578.3658819999991
 21
3712.9778112657259
 31
0.0
 70
   128
 13
3062.4010329999992
 23
3459.7965439999989
 33
0.0
 14
2411.2397660000001
 24
3967.7779485285268
 34
0.0
 50
90.0
1001
ACAD
1000
DSTYLE
1002
{
1070
   287
1070
     3
1070
    40
1040
30.0
1070
   143
1040
0.039
1070
   172
1070
     1
1070
   271
1070
     0
1070
   279
1070
     0
1070
   288
1070
     1
1002
}
  0
ENDSEC
  0
EOF
