  0
SECTION
  2
HEADER
  9
$ACADVER
  1
AC1009
  9
$INSBASE
 10
0.0
 20
0.0
 30
0.0
  9
$EXTMIN
 10
750.0
 20
900.0
 30
0.0
  9
$EXTMAX
 10
5550.0
 20
8359.9567849999985
 30
0.0
  9
$LIMMIN
 10
0.0
 20
0.0
  9
$LIMMAX
 10
297.0
 20
210.0
  9
$ORTHOMODE
 70
     0
  9
$REGENMODE
 70
     1
  9
$FILLMODE
 70
     0
  9
$QTEXTMODE
 70
     0
  9
$MIRRTEXT
 70
     1
  9
$DRAGMODE
 70
     2
  9
$LTSCALE
 40
100.0
  9
$OSMODE
 70
    37
  9
$ATTMODE
 70
     1
  9
$TEXTSIZE
 40
180.0
  9
$TRACEWID
 40
0.05
  9
$TEXTSTYLE
  7
STANDARD
  9
$CLAYER
  8
3
  9
$CELTYPE
  6
BYLAYER
  9
$CECOLOR
 62
   256
  9
$DIMSCALE
 40
30.0
  9
$DIMASZ
 40
2.0
  9
$DIMEXO
 40
0.5
  9
$DIMDLI
 40
10.0
  9
$DIMRND
 40
0.0
  9
$DIMDLE
 40
0.0
  9
$DIMEXE
 40
1.0
  9
$DIMTP
 40
1.0
  9
$DIMTM
 40
1.0
  9
$DIMTXT
 40
3.0
  9
$DIMCEN
 40
0.0
  9
$DIMTSZ
 40
0.0
  9
$DIMTOL
 70
     0
  9
$DIMLIM
 70
     0
  9
$DIMTIH
 70
     0
  9
$DIMTOH
 70
     0
  9
$DIMSE1
 70
     0
  9
$DIMSE2
 70
     0
  9
$DIMTAD
 70
     1
  9
$DIMZIN
 70
     8
  9
$DIMBLK
  1

  9
$DIMASO
 70
     1
  9
$DIMSHO
 70
     1
  9
$DIMPOST
  1

  9
$DIMAPOST
  1

  9
$DIMALT
 70
     0
  9
$DIMALTD
 70
     2
  9
$DIMALTF
 40
0.039
  9
$DIMLFAC
 40
1.0
  9
$DIMTOFL
 70
     1
  9
$DIMTVP
 40
0.0
  9
$DIMTIX
 70
     0
  9
$DIMSOXD
 70
     0
  9
$DIMSAH
 70
     1
  9
$DIMBLK1
  1
OPEN
  9
$DIMBLK2
  1
OPEN
  9
$DIMSTYLE
  2
IGA
  9
$DIMCLRD
 70
     0
  9
$DIMCLRE
 70
     0
  9
$DIMCLRT
 70
     0
  9
$DIMTFAC
 40
10.0
  9
$DIMGAP
 40
1.0
  9
$LUNITS
 70
     2
  9
$LUPREC
 70
     3
  9
$SKETCHINC
 40
0.1
  9
$FILLETRAD
 40
0.0
  9
$AUNITS
 70
     0
  9
$AUPREC
 70
     0
  9
$MENU
  1
acad
  9
$ELEVATION
 40
0.0
  9
$PELEVATION
 40
0.0
  9
$THICKNESS
 40
0.0
  9
$LIMCHECK
 70
     0
  9
$BLIPMODE
 70
     0
  9
$CHAMFERA
 40
0.5
  9
$CHAMFERB
 40
0.5
  9
$SKPOLY
 70
     0
  9
$TDCREATE
 40
2450744.4323208332
  9
$TDUPDATE
 40
2454953.772267974
  9
$TDINDWG
 40
0.0047629398
  9
$TDUSRTIMER
 40
0.0047629398
  9
$USRTIMER
 70
     1
  9
$ANGBASE
 50
0.0
  9
$ANGDIR
 70
     0
  9
$PDMODE
 70
     0
  9
$PDSIZE
 40
0.0
  9
$PLINEWID
 40
0.0
  9
$COORDS
 70
     1
  9
$SPLFRAME
 70
     0
  9
$SPLINETYPE
 70
     6
  9
$SPLINESEGS
 70
     8
  9
$ATTDIA
 70
     0
  9
$ATTREQ
 70
     1
  9
$HANDLING
 70
 10241
  9
$HANDSEED
  5
7DE3
  9
$SURFTAB1
 70
     6
  9
$SURFTAB2
 70
     6
  9
$SURFTYPE
 70
     6
  9
$SURFU
 70
     6
  9
$SURFV
 70
     6
  9
$UCSNAME
  2

  9
$UCSORG
 10
0.0
 20
0.0
 30
0.0
  9
$UCSXDIR
 10
1.0
 20
0.0
 30
0.0
  9
$UCSYDIR
 10
0.0
 20
1.0
 30
0.0
  9
$PUCSNAME
  2

  9
$PUCSORG
 10
0.0
 20
0.0
 30
0.0
  9
$PUCSXDIR
 10
1.0
 20
0.0
 30
0.0
  9
$PUCSYDIR
 10
0.0
 20
1.0
 30
0.0
  9
$USERI1
 70
     0
  9
$USERI2
 70
     0
  9
$USERI3
 70
     0
  9
$USERI4
 70
     0
  9
$USERI5
 70
     0
  9
$USERR1
 40
0.0
  9
$USERR2
 40
0.0
  9
$USERR3
 40
0.0
  9
$USERR4
 40
0.0
  9
$USERR5
 40
0.0
  9
$WORLDVIEW
 70
     1
  9
$SHADEDGE
 70
     3
  9
$SHADEDIF
 70
    70
  9
$TILEMODE
 70
     1
  9
$MAXACTVP
 70
    16
  9
$PLIMCHECK
 70
     0
  9
$PEXTMIN
 10
1.0000000000000000E+020
 20
1.0000000000000000E+020
 30
1.0000000000000000E+020
  9
$PEXTMAX
 10
-1.0000000000000000E+020
 20
-1.0000000000000000E+020
 30
-1.0000000000000000E+020
  9
$PLIMMIN
 10
0.0
 20
0.0
  9
$PLIMMAX
 10
12.0
 20
9.0
  9
$UNITMODE
 70
     0
  9
$VISRETAIN
 70
     0
  9
$PLINEGEN
 70
     0
  9
$PSLTSCALE
 70
     1
  0
ENDSEC
  0
SECTION
  2
TABLES
  0
TABLE
  2
VPORT
 70
     2
  0
VPORT
  2
*ACTIVE
 70
     0
 10
0.0
 20
0.0
 11
1.0
 21
1.0
 12
9438.4567678319436
 22
4630.0975558305709
 13
0.0
 23
0.0
 14
10.0
 24
10.0
 15
10.0
 25
10.0
 16
0.0
 26
0.0
 36
1.0
 17
0.0
 27
0.0
 37
0.0
 40
7517.4747125171307
 41
3.1666666666666661
 42
50.0
 43
0.0
 44
0.0
 50
0.0
 51
0.0
 71
     0
 72
   100
 73
     1
 74
     0
 75
     0
 76
     0
 77
     0
 78
     0
  0
ENDTAB
  0
TABLE
  2
LTYPE
 70
     2
  0
LTYPE
  2
CONTINUOUS
 70
     0
  3
Solid line
 72
    65
 73
     0
 40
0.0
  0
LTYPE
  2
CENTER
 70
     0
  3
____ _ ____ _ ____ _ ____ _ ____ _ ____ _ ____ 
 72
    65
 73
     4
 40
2.0
 49
1.25
 49
-0.25
 49
0.25
 49
-0.25
  0
ENDTAB
  0
TABLE
  2
LAYER
 70
     6
  0
LAYER
  2
0
 70
     0
 62
     7
  6
CONTINUOUS
  0
LAYER
  2
3
 70
     0
 62
     2
  6
CONTINUOUS
  0
LAYER
  2
2
 70
     0
 62
     3
  6
CENTER
  0
LAYER
  2
1
 70
     0
 62
     4
  6
CONTINUOUS
  0
LAYER
  2
4
 70
     0
 62
     7
  6
CONTINUOUS
  0
LAYER
  2
DEFPOINTS
 70
     0
 62
     7
  6
CONTINUOUS
  0
ENDTAB
  0
TABLE
  2
STYLE
 70
     1
  0
STYLE
  2
STANDARD
 70
     0
 40
0.0
 41
1.0
 50
0.0
 71
     0
 42
180.0
  3
simplex.shx
  4
extfont.shx
  0
ENDTAB
  0
TABLE
  2
VIEW
 70
     0
  0
ENDTAB
  0
TABLE
  2
UCS
 70
     0
  0
ENDTAB
  0
TABLE
  2
APPID
 70
     1
  0
APPID
  2
ACAD
 70
     0
  0
ENDTAB
  0
TABLE
  2
DIMSTYLE
 70
     1
  0
DIMSTYLE
  2
IGA
 70
     0
  3

  4

  5

  6
OPEN
  7
OPEN
 40
2.0
 41
2.0
 42
0.5
 43
10.0
 44
1.0
 45
0.0
 46
0.0
 47
1.0
 48
1.0
140
3.0
141
0.0
142
0.0
143
0.03937
144
1.0
145
0.0
146
10.0
147
1.0
 71
     0
 72
     0
 73
     0
 74
     0
 75
     0
 76
     0
 77
     1
 78
     8
170
     0
171
     2
172
     0
173
     1
174
     0
175
     0
176
     0
177
     0
178
     0
  0
ENDTAB
  0
ENDSEC
  0
SECTION
  2
BLOCKS
  0
BLOCK
  8
0
  2
$MODEL_SPACE
 70
     0
 10
0.0
 20
0.0
 30
0.0
  3
$MODEL_SPACE
  1

  0
ENDBLK
  5
1B
  8
0
  0
BLOCK
 67
     1
  8
0
  2
$PAPER_SPACE
 70
     0
 10
0.0
 20
0.0
 30
0.0
  3
$PAPER_SPACE
  1

  0
ENDBLK
  5
18
 67
     1
  8
0
  0
BLOCK
  8
0
  2
_OPEN
 70
     0
 10
0.0
 20
0.0
 30
0.0
  3
_OPEN
  1

  0
LINE
  5
7B4D
  8
0
  6
BYBLOCK
 62
     0
 10
-1.0
 20
0.166667
 30
0.0
 11
0.0
 21
0.0
 31
0.0
  0
LINE
  5
7B4E
  8
0
  6
BYBLOCK
 62
     0
 10
0.0
 20
0.0
 30
0.0
 11
-1.0
 21
-0.166667
 31
0.0
  0
LINE
  5
7B4F
  8
0
  6
BYBLOCK
 62
     0
 10
0.0
 20
0.0
 30
0.0
 11
-1.0
 21
0.0
 31
0.0
  0
ENDBLK
  5
7B50
  8
0
  0
BLOCK
  8
0
  2
*D1
 70
     1
 10
0.0
 20
0.0
 30
0.0
  3
*D1
  1

  0
LINE
  5
7D5A
  8
3
  6
CONTINUOUS
 62
     0
 10
2700.9947899999988
 20
3748.1067840000001
 30
0.0
 11
2700.9947899999988
 21
3892.5521409999992
 31
0.0
  0
LINE
  5
7D5B
  8
3
  6
CONTINUOUS
 62
     0
 10
1970.9947899999991
 20
3748.1067840000001
 30
0.0
 11
1970.9947899999991
 21
3892.5521409999992
 31
0.0
  0
LINE
  5
7D5C
  8
3
  6
CONTINUOUS
 62
     0
 10
2640.9947900000002
 20
3862.5521410000001
 30
0.0
 11
2030.9947899999991
 21
3862.5521410000001
 31
0.0
  0
INSERT
  5
7D5D
  8
3
  6
CONTINUOUS
 62
     0
  2
_OPEN
 10
2700.9947899999988
 20
3862.5521410000001
 30
0.0
 41
60.0
 42
60.0
 43
60.0
  0
INSERT
  5
7D5E
  8
3
  6
CONTINUOUS
 62
     0
  2
_OPEN
 10
1970.9947899999991
 20
3862.5521410000001
 30
0.0
 41
60.0
 42
60.0
 43
60.0
 50
180.0
  0
TEXT
  8
3
  40
90
  5
7DD4
  62
0
  72
0
  71
0
 10
2109.45
 20
3778.25
 30
0.000000
  1
730
  0
POINT
  5
7D60
  8
DEFPOINTS
  6
CONTINUOUS
 62
     0
 10
2700.9947899999988
 20
3733.1067840000001
 30
0.0
  0
POINT
  5
7D61
  8
DEFPOINTS
  6
CONTINUOUS
 62
     0
 10
1970.9947899999991
 20
3733.1067840000001
 30
0.0
  0
POINT
  5
7D62
  8
DEFPOINTS
  6
CONTINUOUS
 62
     0
 10
1970.9947899999991
 20
3862.5521410000001
 30
0.0
  0
ENDBLK
  5
7B7C
  8
0
  0
BLOCK
  8
0
  2
*D2
 70
     1
 10
0.0
 20
0.0
 30
0.0
  3
*D2
  1

  0
LINE
  5
7D63
  8
3
  6
CONTINUOUS
 62
     0
 10
2700.9947899999988
 20
3748.1067840000001
 30
0.0
 11
2700.9947899999988
 21
4085.456204999999
 31
0.0
  0
LINE
  5
7D64
  8
3
  6
CONTINUOUS
 62
     0
 10
2004.99479
 20
3956.5971789999999
 30
0.0
 11
2004.99479
 21
4085.456204999999
 31
0.0
  0
LINE
  5
7D65
  8
3
  6
CONTINUOUS
 62
     0
 10
2640.9947900000002
 20
4055.456204999999
 30
0.0
 11
2064.9947899999988
 21
4055.456204999999
 31
0.0
  0
INSERT
  5
7D66
  8
3
  6
CONTINUOUS
 62
     0
  2
_OPEN
 10
2700.9947899999988
 20
4055.456204999999
 30
0.0
 41
60.0
 42
60.0
 43
60.0
  0
INSERT
  5
7D67
  8
3
  6
CONTINUOUS
 62
     0
  2
_OPEN
 10
2004.99479
 20
4055.456204999999
 30
0.0
 41
60.0
 42
60.0
 43
60.0
 50
180.0
  0
TEXT
  8
3
  40
90
  5
7DD5
  62
0
  72
0
  71
0
 10
2115.13
 20
3971.16
 30
0.000000
  1
696
  0
POINT
  5
7D69
  8
DEFPOINTS
  6
CONTINUOUS
 62
     0
 10
2700.9947899999988
 20
3733.1067840000001
 30
0.0
  0
POINT
  5
7D6A
  8
DEFPOINTS
  6
CONTINUOUS
 62
     0
 10
2004.99479
 20
3941.5971789999999
 30
0.0
  0
POINT
  5
7D6B
  8
DEFPOINTS
  6
CONTINUOUS
 62
     0
 10
2004.99479
 20
4055.456204999999
 30
0.0
  0
ENDBLK
  5
7B89
  8
0
  0
BLOCK
  8
0
  2
*D3
 70
     1
 10
0.0
 20
0.0
 30
0.0
  3
*D3
  1

  0
LINE
  5
7D6C
  8
3
  6
CONTINUOUS
 62
     0
 10
1915.99479
 20
3733.1067840000001
 30
0.0
 11
1294.2274239999999
 21
3733.1067840000001
 31
0.0
  0
LINE
  5
7D6D
  8
3
  6
CONTINUOUS
 62
     0
 10
1333.216083
 20
3198.1067840000001
 30
0.0
 11
1294.2274239999999
 21
3198.1067840000001
 31
0.0
  0
LINE
  5
7D6E
  8
3
  6
CONTINUOUS
 62
     0
 10
1324.2274239999999
 20
3673.106784000001
 30
0.0
 11
1324.2274239999999
 21
3258.1067840000001
 31
0.0
  0
INSERT
  5
7D6F
  8
3
  6
CONTINUOUS
 62
     0
  2
_OPEN
 10
1324.2274239999999
 20
3733.1067840000001
 30
0.0
 41
60.0
 42
60.0
 43
60.0
 50
90.0
  0
INSERT
  5
7D70
  8
3
  6
CONTINUOUS
 62
     0
  2
_OPEN
 10
1324.2274239999999
 20
3198.1067840000001
 30
0.0
 41
60.0
 42
60.0
 43
60.0
 50
270.0
  0
TEXT
  8
3
  40
90
  5
7DD6
  62
0
  72
0
  71
0
 10
1069.23
 20
3289.08
 30
0.000000
  1
535
  0
POINT
  5
7D72
  8
DEFPOINTS
  6
CONTINUOUS
 62
     0
 10
1930.9947899999991
 20
3733.1067840000001
 30
0.0
  0
POINT
  5
7D73
  8
DEFPOINTS
  6
CONTINUOUS
 62
     0
 10
1348.216083
 20
3198.1067840000001
 30
0.0
  0
POINT
  5
7D74
  8
DEFPOINTS
  6
CONTINUOUS
 62
     0
 10
1324.2274239999999
 20
3198.1067840000001
 30
0.0
  0
ENDBLK
  5
7BA2
  8
0
  0
BLOCK
  8
0
  2
*D4
 70
     1
 10
0.0
 20
0.0
 30
0.0
  3
*D4
  1

  0
LINE
  5
7D75
  8
3
  6
CONTINUOUS
 62
     0
 10
1449.99479
 20
2573.1067840000001
 30
0.0
 11
1294.2274239999999
 21
2573.1067840000001
 31
0.0
  0
LINE
  5
7D76
  8
3
  6
CONTINUOUS
 62
     0
 10
1324.2274239999999
 20
3138.1067840000001
 30
0.0
 11
1324.2274239999999
 21
2633.1067840000001
 31
0.0
  0
INSERT
  5
7D77
  8
3
  6
CONTINUOUS
 62
     0
  2
_OPEN
 10
1324.2274239999999
 20
3198.1067840000001
 30
0.0
 41
60.0
 42
60.0
 43
60.0
 50
90.0
  0
INSERT
  5
7D78
  8
3
  6
CONTINUOUS
 62
     0
  2
_OPEN
 10
1324.2274239999999
 20
2573.1067840000001
 30
0.0
 41
60.0
 42
60.0
 43
60.0
 50
270.0
  0
TEXT
  8
3
  40
90
  5
7DD7
  62
0
  72
0
  71
0
 10
1069.23
 20
2726.31
 30
0.000000
  1
625
  0
POINT
  5
7D7A
  8
DEFPOINTS
  6
CONTINUOUS
 62
     0
 10
1348.216083
 20
3198.1067840000001
 30
0.0
  0
POINT
  5
7D7B
  8
DEFPOINTS
  6
CONTINUOUS
 62
     0
 10
1464.99479
 20
2573.1067840000001
 30
0.0
  0
POINT
  5
7D7C
  8
DEFPOINTS
  6
CONTINUOUS
 62
     0
 10
1324.2274239999999
 20
2573.1067840000001
 30
0.0
  0
ENDBLK
  5
7BAE
  8
0
  0
BLOCK
  8
0
  2
*D5
 70
     1
 10
0.0
 20
0.0
 30
0.0
  3
*D5
  1

  0
LINE
  5
7D7D
  8
3
  6
CONTINUOUS
 62
     0
 10
1900.9947899999991
 20
3733.1067840000001
 30
0.0
 11
1055.7596900000001
 21
3733.1067840000001
 31
0.0
  0
LINE
  5
7D7E
  8
3
  6
CONTINUOUS
 62
     0
 10
1449.99479
 20
2573.1067840000001
 30
0.0
 11
1055.7596900000001
 21
2573.1067840000001
 31
0.0
  0
LINE
  5
7D7F
  8
3
  6
CONTINUOUS
 62
     0
 10
1085.7596900000001
 20
3673.106784000001
 30
0.0
 11
1085.7596900000001
 21
2633.1067840000001
 31
0.0
  0
INSERT
  5
7D80
  8
3
  6
CONTINUOUS
 62
     0
  2
_OPEN
 10
1085.7596900000001
 20
3733.1067840000001
 30
0.0
 41
60.0
 42
60.0
 43
60.0
 50
90.0
  0
INSERT
  5
7D81
  8
3
  6
CONTINUOUS
 62
     0
  2
_OPEN
 10
1085.7596900000001
 20
2573.1067840000001
 30
0.0
 41
60.0
 42
60.0
 43
60.0
 50
270.0
  0
TEXT
  8
3
  40
90
  5
7DD8
  62
0
  72
0
  71
0
 10
830.760
 20
2977.03
 30
0.000000
  1
1160
  0
POINT
  5
7D83
  8
DEFPOINTS
  6
CONTINUOUS
 62
     0
 10
1915.99479
 20
3733.1067840000001
 30
0.0
  0
POINT
  5
7D84
  8
DEFPOINTS
  6
CONTINUOUS
 62
     0
 10
1464.99479
 20
2573.1067840000001
 30
0.0
  0
POINT
  5
7D85
  8
DEFPOINTS
  6
CONTINUOUS
 62
     0
 10
1085.7596900000001
 20
2573.1067840000001
 30
0.0
  0
ENDBLK
  5
7BBB
  8
0
  0
BLOCK
  8
0
  2
*D6
 70
     1
 10
0.0
 20
0.0
 30
0.0
  3
*D6
  1

  0
LINE
  5
7D86
  8
3
  6
CONTINUOUS
 62
     0
 10
1464.99479
 20
2558.1067840000001
 30
0.0
 11
1464.99479
 21
2269.1915879999988
 31
0.0
  0
LINE
  5
7D87
  8
3
  6
CONTINUOUS
 62
     0
 10
2004.99479
 20
2353.2504960000001
 30
0.0
 11
2004.99479
 21
2269.1915879999988
 31
0.0
  0
LINE
  5
7D88
  8
3
  6
CONTINUOUS
 62
     0
 10
1524.99479
 20
2299.1915879999988
 30
0.0
 11
1944.9947899999991
 21
2299.1915879999988
 31
0.0
  0
INSERT
  5
7D89
  8
3
  6
CONTINUOUS
 62
     0
  2
_OPEN
 10
1464.99479
 20
2299.1915879999988
 30
0.0
 41
60.0
 42
60.0
 43
60.0
 50
180.0
  0
INSERT
  5
7D8A
  8
3
  6
CONTINUOUS
 62
     0
  2
_OPEN
 10
2004.99479
 20
2299.1915879999988
 30
0.0
 41
60.0
 42
60.0
 43
60.0
  0
TEXT
  8
3
  40
90
  5
7DD9
  62
0
  72
0
  71
0
 10
1558.71
 20
2214.89
 30
0.000000
  1
540
  0
POINT
  5
7D8C
  8
DEFPOINTS
  6
CONTINUOUS
 62
     0
 10
1464.99479
 20
2573.1067840000001
 30
0.0
  0
POINT
  5
7D8D
  8
DEFPOINTS
  6
CONTINUOUS
 62
     0
 10
2004.99479
 20
2368.2504960000001
 30
0.0
  0
POINT
  5
7D8E
  8
DEFPOINTS
  6
CONTINUOUS
 62
     0
 10
2004.99479
 20
2299.1915879999988
 30
0.0
  0
ENDBLK
  5
7C74
  8
0
  0
BLOCK
  8
0
  2
*D7
 70
     1
 10
0.0
 20
0.0
 30
0.0
  3
*D7
  1

  0
LINE
  5
7D8F
  8
3
  6
CONTINUOUS
 62
     0
 10
3154.9947899999988
 20
2558.1067840000001
 30
0.0
 11
3154.9947899999988
 21
2269.1915879999988
 31
0.0
  0
LINE
  5
7D90
  8
3
  6
CONTINUOUS
 62
     0
 10
2064.9947899999988
 20
2299.1915879999988
 30
0.0
 11
3094.9947899999988
 21
2299.1915879999988
 31
0.0
  0
INSERT
  5
7D91
  8
3
  6
CONTINUOUS
 62
     0
  2
_OPEN
 10
2004.99479
 20
2299.1915879999988
 30
0.0
 41
60.0
 42
60.0
 43
60.0
 50
180.0
  0
INSERT
  5
7D92
  8
3
  6
CONTINUOUS
 62
     0
  2
_OPEN
 10
3154.9947899999988
 20
2299.1915879999988
 30
0.0
 41
60.0
 42
60.0
 43
60.0
  0
TEXT
  8
3
  40
90
  5
7DDA
  62
0
  72
0
  71
0
 10
2399.99
 20
2214.89
 30
0.000000
  1
1150
  0
POINT
  5
7D94
  8
DEFPOINTS
  6
CONTINUOUS
 62
     0
 10
2004.99479
 20
2368.2504960000001
 30
0.0
  0
POINT
  5
7D95
  8
DEFPOINTS
  6
CONTINUOUS
 62
     0
 10
3154.9947899999988
 20
2573.1067840000001
 30
0.0
  0
POINT
  5
7D96
  8
DEFPOINTS
  6
CONTINUOUS
 62
     0
 10
3154.9947899999988
 20
2299.1915879999988
 30
0.0
  0
ENDBLK
  5
7C69
  8
0
  0
BLOCK
  8
0
  2
*D8
 70
     1
 10
0.0
 20
0.0
 30
0.0
  3
*D8
  1

  0
LINE
  5
7D97
  8
3
  6
CONTINUOUS
 62
     0
 10
5041.2775780000002
 20
3748.1067840000001
 30
0.0
 11
5041.2775780000002
 21
3886.878475
 31
0.0
  0
LINE
  5
7D98
  8
3
  6
CONTINUOUS
 62
     0
 10
4511.2775780000002
 20
3748.1067840000001
 30
0.0
 11
4511.2775780000002
 21
3886.878475
 31
0.0
  0
LINE
  5
7D99
  8
3
  6
CONTINUOUS
 62
     0
 10
4981.2775780000002
 20
3856.878475
 30
0.0
 11
4571.2775780000002
 21
3856.878475
 31
0.0
  0
INSERT
  5
7D9A
  8
3
  6
CONTINUOUS
 62
     0
  2
_OPEN
 10
5041.2775780000002
 20
3856.878475
 30
0.0
 41
60.0
 42
60.0
 43
60.0
  0
INSERT
  5
7D9B
  8
3
  6
CONTINUOUS
 62
     0
  2
_OPEN
 10
4511.2775780000002
 20
3856.878475
 30
0.0
 41
60.0
 42
60.0
 43
60.0
 50
180.0
  0
TEXT
  8
3
  40
90
  5
7DDB
  62
0
  72
0
  71
0
 10
4599.03
 20
3772.58
 30
0.000000
  1
530
  0
POINT
  5
7D9D
  8
DEFPOINTS
  6
CONTINUOUS
 62
     0
 10
5041.2775780000002
 20
3733.1067840000001
 30
0.0
  0
POINT
  5
7D9E
  8
DEFPOINTS
  6
CONTINUOUS
 62
     0
 10
4511.2775780000002
 20
3733.1067840000001
 30
0.0
  0
POINT
  5
7D9F
  8
DEFPOINTS
  6
CONTINUOUS
 62
     0
 10
4511.2775780000002
 20
3856.878475
 30
0.0
  0
ENDBLK
  5
7BE1
  8
0
  0
BLOCK
  8
0
  2
*D9
 70
     1
 10
0.0
 20
0.0
 30
0.0
  3
*D9
  1

  0
LINE
  5
7CE5
  8
0
  6
BYBLOCK
 62
     0
 10
5043.2775780000002
 20
3590.1067840000001
 30
0.0
 11
5043.2775780000002
 21
4068.4352479999998
 31
0.0
  0
LINE
  5
7CE6
  8
0
  6
BYBLOCK
 62
     0
 10
4776.2775780000011
 20
4006.364223
 30
0.0
 11
4776.2775780000011
 21
4068.4352479999998
 31
0.0
  0
LINE
  5
7CE7
  8
0
  6
BYBLOCK
 62
     0
 10
4983.2775780000002
 20
4038.4352479999989
 30
0.0
 11
4836.2775780000002
 21
4038.4352479999989
 31
0.0
  0
TEXT
  5
7CE8
  8
3
 62
     0
 10
4806.721964682195
 20
4090.1183633671312
 30
0.0
 40
90.0
  1
267
  0
INSERT
  5
7CE9
  8
0
  6
BYBLOCK
 62
     0
  2
_OPEN
 10
5043.2775780000002
 20
4038.4352479999989
 30
0.0
 41
60.0
 42
60.0
 43
60.0
  0
INSERT
  5
7CEA
  8
0
  6
BYBLOCK
 62
     0
  2
_OPEN
 10
4776.2775780000011
 20
4038.4352479999989
 30
0.0
 41
60.0
 42
60.0
 43
60.0
 50
180.0
  0
POINT
  5
7CEB
  8
DEFPOINTS
  6
BYBLOCK
 62
     0
 10
5043.2775780000002
 20
3575.1067840000001
 30
0.0
  0
POINT
  5
7CEC
  8
DEFPOINTS
  6
BYBLOCK
 62
     0
 10
4776.2775780000011
 20
3991.3642229999991
 30
0.0
  0
POINT
  5
7CED
  8
DEFPOINTS
  6
BYBLOCK
 62
     0
 10
4776.2775780000011
 20
4038.4352479999989
 30
0.0
  0
ENDBLK
  5
7CEE
  8
0
  0
BLOCK
  8
0
  2
*D10
 70
     1
 10
0.0
 20
0.0
 30
0.0
  3
*D10
  1

  0
LINE
  5
7DA0
  8
3
  6
CONTINUOUS
 62
     0
 10
4276.2775780000011
 20
3828.1067840000001
 30
0.0
 11
4276.2775780000011
 21
4068.4352479999998
 31
0.0
  0
LINE
  5
7DA1
  8
3
  6
CONTINUOUS
 62
     0
 10
4716.2775780000002
 20
4038.4352479999989
 30
0.0
 11
4336.2775779999993
 21
4038.4352479999989
 31
0.0
  0
INSERT
  5
7DA2
  8
3
  6
CONTINUOUS
 62
     0
  2
_OPEN
 10
4776.2775780000011
 20
4038.4352479999989
 30
0.0
 41
60.0
 42
60.0
 43
60.0
  0
INSERT
  5
7DA3
  8
3
  6
CONTINUOUS
 62
     0
  2
_OPEN
 10
4276.2775780000011
 20
4038.4352479999989
 30
0.0
 41
60.0
 42
60.0
 43
60.0
 50
180.0
  0
TEXT
  8
3
  40
90
  5
7DDC
  62
0
  72
0
  71
0
 10
4346.28
 20
4029.14
 30
0.000000
  1
MAX
  0
TEXT
  8
3
  40
90
  5
7DDD
  62
0
  72
0
  71
0
 10
4346.28
 20
3912.14
 30
0.000000
  1
560
  0
POINT
  5
7DA5
  8
DEFPOINTS
  6
CONTINUOUS
 62
     0
 10
4776.2775780000011
 20
3991.3642229999991
 30
0.0
  0
POINT
  5
7DA6
  8
DEFPOINTS
  6
CONTINUOUS
 62
     0
 10
4276.2775780000011
 20
3813.1067840000001
 30
0.0
  0
POINT
  5
7DA7
  8
DEFPOINTS
  6
CONTINUOUS
 62
     0
 10
4276.2775780000011
 20
4038.4352479999989
 30
0.0
  0
ENDBLK
  5
7CF8
  8
0
  0
BLOCK
  8
0
  2
*D11
 70
     1
 10
0.0
 20
0.0
 30
0.0
  3
*D11
  1

  0
LINE
  5
7DA8
  8
3
  6
CONTINUOUS
 62
     0
 10
5058.2775780000011
 20
3575.1067840000001
 30
0.0
 11
5331.3887040000009
 21
3575.1067840000001
 31
0.0
  0
LINE
  5
7DA9
  8
3
  6
CONTINUOUS
 62
     0
 10
5058.2775780000011
 20
2821.1067840000001
 30
0.0
 11
5331.3887040000009
 21
2821.1067839999992
 31
0.0
  0
LINE
  5
7DAA
  8
3
  6
CONTINUOUS
 62
     0
 10
5301.388704
 20
3515.1067840000001
 30
0.0
 11
5301.388704
 21
2881.1067839999992
 31
0.0
  0
INSERT
  5
7DAB
  8
3
  6
CONTINUOUS
 62
     0
  2
_OPEN
 10
5301.388704
 20
3575.1067840000001
 30
0.0
 41
60.0
 42
60.0
 43
60.0
 50
90.0
  0
INSERT
  5
7DAC
  8
3
  6
CONTINUOUS
 62
     0
  2
_OPEN
 10
5301.388704
 20
2821.1067839999992
 30
0.0
 41
60.0
 42
60.0
 43
60.0
 50
270.0
  0
TEXT
  8
3
  40
90
  5
7DDE
  62
0
  72
0
  71
0
 10
5046.39
 20
3056.46
 30
0.000000
  1
φ754
  0
POINT
  5
7DAE
  8
DEFPOINTS
  6
CONTINUOUS
 62
     0
 10
5043.2775780000002
 20
3575.1067840000001
 30
0.0
  0
POINT
  5
7DAF
  8
DEFPOINTS
  6
CONTINUOUS
 62
     0
 10
5043.2775780000002
 20
2821.1067840000001
 30
0.0
  0
POINT
  5
7DB0
  8
DEFPOINTS
  6
CONTINUOUS
 62
     0
 10
5301.388704
 20
2821.1067839999992
 30
0.0
  0
ENDBLK
  5
7D03
  8
0
  0
BLOCK
  8
0
  2
*D12
 70
     1
 10
0.0
 20
0.0
 30
0.0
  3
*D12
  1

  0
LINE
  5
7CCF
  8
0
  6
BYBLOCK
 62
     0
 10
4383.2775780000002
 20
2558.1067840000001
 30
0.0
 11
4383.2775780000002
 21
2298.7643509999998
 31
0.0
  0
LINE
  5
7CD0
  8
0
  6
BYBLOCK
 62
     0
 10
4776.2775780000011
 20
2357.6417980000001
 30
0.0
 11
4776.2775780000011
 21
2298.7643509999998
 31
0.0
  0
LINE
  5
7CD1
  8
0
  6
BYBLOCK
 62
     0
 10
4443.2775780000002
 20
2328.7643509999998
 30
0.0
 11
4716.2775780000002
 21
2328.7643509999998
 31
0.0
  0
TEXT
  5
7CD2
  8
3
 62
     0
 10
4464.0632922857149
 20
2354.237970395719
 30
0.0
 40
90.0
  1
393
  0
INSERT
  5
7CD3
  8
0
  6
BYBLOCK
 62
     0
  2
_OPEN
 10
4383.2775780000002
 20
2328.7643509999998
 30
0.0
 41
60.0
 42
60.0
 43
60.0
 50
180.0
  0
INSERT
  5
7CD4
  8
0
  6
BYBLOCK
 62
     0
  2
_OPEN
 10
4776.2775780000011
 20
2328.7643509999998
 30
0.0
 41
60.0
 42
60.0
 43
60.0
  0
POINT
  5
7CD5
  8
DEFPOINTS
  6
BYBLOCK
 62
     0
 10
4383.2775780000002
 20
2573.1067840000001
 30
0.0
  0
POINT
  5
7CD6
  8
DEFPOINTS
  6
BYBLOCK
 62
     0
 10
4776.2775780000011
 20
2372.6417980000001
 30
0.0
  0
POINT
  5
7CD7
  8
DEFPOINTS
  6
BYBLOCK
 62
     0
 10
4776.2775780000011
 20
2328.7643509999998
 30
0.0
  0
ENDBLK
  5
7CD8
  8
0
  0
BLOCK
  8
0
  2
*D13
 70
     1
 10
0.0
 20
0.0
 30
0.0
  3
*D13
  1

  0
LINE
  5
7DB1
  8
3
  6
CONTINUOUS
 62
     0
 10
5143.2775780000002
 20
2558.1067840000001
 30
0.0
 11
5143.2775780000002
 21
2298.7643509999998
 31
0.0
  0
LINE
  5
7DB2
  8
3
  6
CONTINUOUS
 62
     0
 10
4836.2775780000002
 20
2328.7643509999998
 30
0.0
 11
5083.2775780000002
 21
2328.7643509999998
 31
0.0
  0
TEXT
  8
3
  40
90
  5
7DDF
  62
0
  72
0
  71
0
 10
4773.31
 20
2245.92
 30
0.000000
  1
367
  0
INSERT
  5
7DB4
  8
3
  6
CONTINUOUS
 62
     0
  2
_OPEN
 10
4776.2775780000011
 20
2328.7643509999998
 30
0.0
 41
60.0
 42
60.0
 43
60.0
 50
180.0
  0
INSERT
  5
7DB5
  8
3
  6
CONTINUOUS
 62
     0
  2
_OPEN
 10
5143.2775780000002
 20
2328.7643509999998
 30
0.0
 41
60.0
 42
60.0
 43
60.0
  0
POINT
  5
7DB6
  8
DEFPOINTS
  6
CONTINUOUS
 62
     0
 10
4776.2775780000011
 20
2372.6417980000001
 30
0.0
  0
POINT
  5
7DB7
  8
DEFPOINTS
  6
CONTINUOUS
 62
     0
 10
5143.2775780000002
 20
2573.1067840000001
 30
0.0
  0
POINT
  5
7DB8
  8
DEFPOINTS
  6
CONTINUOUS
 62
     0
 10
5143.2775780000002
 20
2328.7643509999998
 30
0.0
  0
ENDBLK
  5
7CAB
  8
0
  0
BLOCK
  8
0
  2
*D14
 70
     1
 10
0.0
 20
0.0
 30
0.0
  3
*D14
  1

  0
LINE
  5
7DB9
  8
3
  6
CONTINUOUS
 62
     0
 10
1464.99479
 20
5896.3873700000013
 30
0.0
 11
1464.99479
 21
6166.8160179999986
 31
0.0
  0
LINE
  5
7DBA
  8
3
  6
CONTINUOUS
 62
     0
 10
3154.9947899999988
 20
5896.3873700000013
 30
0.0
 11
3154.9947899999988
 21
6166.8160179999986
 31
0.0
  0
LINE
  5
7DBB
  8
3
  6
CONTINUOUS
 62
     0
 10
1524.99479
 20
6136.8160180000004
 30
0.0
 11
3094.9947899999988
 21
6136.8160180000004
 31
0.0
  0
INSERT
  5
7DBC
  8
3
  6
CONTINUOUS
 62
     0
  2
_OPEN
 10
1464.99479
 20
6136.8160180000004
 30
0.0
 41
60.0
 42
60.0
 43
60.0
 50
180.0
  0
INSERT
  5
7DBD
  8
3
  6
CONTINUOUS
 62
     0
  2
_OPEN
 10
3154.9947899999988
 20
6136.8160180000004
 30
0.0
 41
60.0
 42
60.0
 43
60.0
  0
TEXT
  8
3
  40
90
  5
7DE0
  62
0
  72
0
  71
0
 10
2120.81
 20
6052.52
 30
0.000000
  1
1690
  0
POINT
  5
7DBF
  8
DEFPOINTS
  6
CONTINUOUS
 62
     0
 10
1464.99479
 20
5881.3873700000004
 30
0.0
  0
POINT
  5
7DC0
  8
DEFPOINTS
  6
CONTINUOUS
 62
     0
 10
3154.9947899999988
 20
5881.3873700000004
 30
0.0
  0
POINT
  5
7DC1
  8
DEFPOINTS
  6
CONTINUOUS
 62
     0
 10
3154.9947899999988
 20
6136.8160180000004
 30
0.0
  0
ENDBLK
  5
7C8B
  8
0
  0
BLOCK
  8
0
  2
*D15
 70
     1
 10
0.0
 20
0.0
 30
0.0
  3
*D15
  1

  0
LINE
  5
7DC2
  8
3
  6
CONTINUOUS
 62
     0
 10
3169.9947900000002
 20
5881.3873700000004
 30
0.0
 11
3437.9809820000009
 21
5881.3873700000004
 31
0.0
  0
LINE
  5
7DC3
  8
3
  6
CONTINUOUS
 62
     0
 10
3169.9947900000002
 20
5121.3873700000004
 30
0.0
 11
3437.9809820000009
 21
5121.3873700000004
 31
0.0
  0
LINE
  5
7DC4
  8
3
  6
CONTINUOUS
 62
     0
 10
3407.9809820000009
 20
5821.3873700000004
 30
0.0
 11
3407.9809820000009
 21
5181.3873700000004
 31
0.0
  0
INSERT
  5
7DC5
  8
3
  6
CONTINUOUS
 62
     0
  2
_OPEN
 10
3407.9809820000009
 20
5881.3873700000004
 30
0.0
 41
60.0
 42
60.0
 43
60.0
 50
90.0
  0
INSERT
  5
7DC6
  8
3
  6
CONTINUOUS
 62
     0
  2
_OPEN
 10
3407.9809820000009
 20
5121.3873700000004
 30
0.0
 41
60.0
 42
60.0
 43
60.0
 50
270.0
  0
TEXT
  8
3
  40
90
  5
7DE1
  62
0
  72
0
  71
0
 10
3152.98
 20
5379.53
 30
0.000000
  1
760
  0
POINT
  5
7DC8
  8
DEFPOINTS
  6
CONTINUOUS
 62
     0
 10
3154.9947899999988
 20
5881.3873700000004
 30
0.0
  0
POINT
  5
7DC9
  8
DEFPOINTS
  6
CONTINUOUS
 62
     0
 10
3154.9947899999988
 20
5121.3873700000004
 30
0.0
  0
POINT
  5
7DCA
  8
DEFPOINTS
  6
CONTINUOUS
 62
     0
 10
3407.9809820000009
 20
5121.3873700000004
 30
0.0
  0
ENDBLK
  5
7C59
  8
0
  0
BLOCK
  8
0
  2
*D16
 70
     1
 10
0.0
 20
0.0
 30
0.0
  3
*D16
  1

  0
LINE
  5
7DCB
  8
3
 62
     0
 10
2004.99479
 20
3956.5971789999999
 30
0.0
 11
2004.99479
 21
4087.082292198997
 31
0.0
  0
LINE
  5
7DCC
  8
3
 62
     0
 10
1496.7476138040399
 20
3213.1067840000001
 30
0.0
 11
1496.7476138040399
 21
4087.082292198997
 31
0.0
  0
LINE
  5
7DCD
  8
3
 62
     0
 10
1944.9947899999991
 20
4057.0822921989961
 30
0.0
 11
1556.7476138040399
 21
4057.0822921989961
 31
0.0
  0
INSERT
  5
7DCE
  8
3
 62
     0
  2
_OPEN
 10
2004.99479
 20
4057.0822921989961
 30
0.0
 41
60.0
 42
60.0
 43
60.0
  0
INSERT
  5
7DCF
  8
3
 62
     0
  2
_OPEN
 10
1496.7476138040399
 20
4057.0822921989961
 30
0.0
 41
60.0
 42
60.0
 43
60.0
 50
180.0
  0
TEXT
  8
3
  40
90
  5
7DE2
  62
0
  72
0
  71
0
 10
1600.93
 20
3972.78
 30
0.000000
  1
508
  0
POINT
  5
7DD1
  8
DEFPOINTS
 62
     0
 10
2004.99479
 20
3941.5971789999999
 30
0.0
  0
POINT
  5
7DD2
  8
DEFPOINTS
 62
     0
 10
1496.7476138040399
 20
3198.1067840000001
 30
0.0
  0
POINT
  5
7DD3
  8
DEFPOINTS
 62
     0
 10
1496.7476138040399
 20
4057.0822921989961
 30
0.0
  0
ENDBLK
  5
7D43
  8
0
  0
ENDSEC
  0
SECTION
  2
ENTITIES
  0
LINE
  5
7AA6
  8
1
  6
CONTINUOUS
 10
2071.73479
 20
3332.436784
 30
0.0
 11
2852.0647899999999
 21
2944.7467839999999
 31
0.0
  0
LINE
  5
7AA7
  8
1
  6
CONTINUOUS
 10
1960.5547899999999
 20
3054.8367840000001
 30
0.0
 11
2792.7647899999988
 21
2796.6967840000002
 31
0.0
  0
POLYLINE
  5
7AA8
  8
1
  6
CONTINUOUS
 66
     1
 10
0.0
 20
0.0
 30
0.0
  0
VERTEX
  5
7D54
  8
1
  6
CONTINUOUS
 10
2700.9947899999988
 20
3733.1067840000001
 30
0.0
  0
VERTEX
  5
7D55
  8
1
  6
CONTINUOUS
 10
2684.9947899999988
 20
3198.1067840000001
 30
0.0
 42
-0.4200000000000001
  0
VERTEX
  5
7D56
  8
1
  6
CONTINUOUS
 10
1993.2047899999991
 20
2613.0867840000001
 30
0.0
 42
-0.43
  0
VERTEX
  5
7D57
  8
1
  6
CONTINUOUS
 10
1500.22479
 20
3230.0267840000001
 30
0.0
 42
-0.37
  0
VERTEX
  5
7D58
  8
1
  6
CONTINUOUS
 10
1970.9947899999991
 20
3646.876784
 30
0.0
 42
-0.34
  0
SEQEND
  5
7D59
  8
1
  6
CONTINUOUS
  0
LINE
  5
7AAF
  8
1
  6
CONTINUOUS
 10
1930.9947899999991
 20
3733.1067840000001
 30
0.0
 11
2740.9947900000002
 21
3733.1067840000001
 31
0.0
  0
LINE
  5
7AB0
  8
1
  6
CONTINUOUS
 10
1634.99479
 20
5154.3873700000013
 30
0.0
 11
2994.9947899999988
 21
5154.3873700000013
 31
0.0
  0
LINE
  5
7AB1
  8
1
  6
CONTINUOUS
 10
1634.99479
 20
5014.3873700000013
 30
0.0
 11
2994.9947899999988
 21
5014.3873700000013
 31
0.0
  0
LINE
  5
7AB2
  8
1
  6
CONTINUOUS
 10
2983.4547899999989
 20
5213.657369999999
 30
0.0
 11
2654.4747900000002
 21
5213.657369999999
 31
0.0
  0
LINE
  5
7AB3
  8
1
  6
CONTINUOUS
 10
2983.4547899999989
 20
5669.5973700000004
 30
0.0
 11
2695.0347899999988
 21
5669.5973700000004
 31
0.0
  0
LINE
  5
7AB4
  8
1
  6
CONTINUOUS
 10
2154.9947899999988
 20
3813.1067840000001
 30
0.0
 11
2994.9947899999988
 21
2973.1067840000001
 31
0.0
  0
ARC
  5
7AB5
  8
1
  6
CONTINUOUS
 10
2816.4747900000002
 20
2873.1067840000001
 30
0.0
 40
162.0
 50
324.97000000000003
 51
215.02999999999989
  0
LINE
  5
7AB6
  8
1
  6
CONTINUOUS
 10
1464.99479
 20
2573.1067840000001
 30
0.0
 11
3154.9947899999988
 21
2573.1067840000001
 31
0.0
  0
LINE
  5
7AB7
  8
1
  6
CONTINUOUS
 10
1464.99479
 20
2673.1067840000001
 30
0.0
 11
3154.9947899999988
 21
2673.1067840000001
 31
0.0
  0
LINE
  5
7AB8
  8
1
  6
CONTINUOUS
 10
3154.9947899999988
 20
5881.3873700000004
 30
0.0
 11
1464.99479
 21
5881.3873700000004
 31
0.0
  0
LINE
  5
7AB9
  8
1
  6
CONTINUOUS
 10
2736.4747899999988
 20
5121.3873700000004
 30
0.0
 11
2154.9947899999988
 21
5121.3873700000004
 31
0.0
  0
LINE
  5
7ABE
  8
1
  6
CONTINUOUS
 10
1634.99479
 20
2673.1067840000001
 30
0.0
 11
1634.99479
 21
3813.1067840000001
 31
0.0
  0
LINE
  5
7ABF
  8
1
  6
CONTINUOUS
 10
1464.99479
 20
2673.1067840000001
 30
0.0
 11
1464.99479
 21
2573.1067840000001
 31
0.0
  0
LINE
  5
7AC0
  8
1
  6
CONTINUOUS
 10
2662.4747900000002
 20
2673.1067840000001
 30
0.0
 11
2662.4747900000002
 21
2731.1067840000001
 31
0.0
  0
LINE
  5
7AC1
  8
1
  6
CONTINUOUS
 10
2662.4747900000002
 20
2731.1067840000001
 30
0.0
 11
2683.8147899999999
 21
2780.1167839999998
 31
0.0
  0
LINE
  5
7AC3
  8
1
  6
CONTINUOUS
 10
1634.99479
 20
3813.1067840000001
 30
0.0
 11
2154.9947899999988
 21
3813.1067840000001
 31
0.0
  0
LINE
  5
7AC4
  8
2
  6
CENTER
 10
2004.99479
 20
5947.3341170000003
 30
0.0
 11
2004.99479
 21
4902.8859339999999
 31
0.0
  0
LINE
  5
7AC5
  8
2
  6
CENTER
 10
1348.216083
 20
3198.1067840000001
 30
0.0
 11
3015.6391290000001
 21
3198.1067840000001
 31
0.0
  0
LINE
  5
7AC6
  8
1
  6
CONTINUOUS
 10
1970.9947899999991
 20
3646.876784
 30
0.0
 11
1970.9947899999991
 21
3733.1067840000001
 31
0.0
  0
LINE
  5
7AC7
  8
1
  6
CONTINUOUS
 10
1970.9947899999991
 20
3703.1067840000001
 30
0.0
 11
2700.0947899999992
 21
3703.1067840000001
 31
0.0
  0
CIRCLE
  5
7AC8
  8
1
  6
CONTINUOUS
 10
2004.99479
 20
3198.1067840000001
 30
0.0
 40
150.0
  0
LINE
  5
7AC9
  8
1
  6
CONTINUOUS
 10
2695.0347899999988
 20
5779.3873700000013
 30
0.0
 11
1495.6247900000001
 21
5779.3873700000013
 31
0.0
  0
LINE
  5
7ACA
  8
1
  6
CONTINUOUS
 10
2695.0347899999988
 20
5249.3873700000004
 30
0.0
 11
1495.6247900000001
 21
5249.3873700000004
 31
0.0
  0
LINE
  5
7ACB
  8
1
  6
CONTINUOUS
 10
1854.99479
 20
5121.3873700000004
 30
0.0
 11
1464.99479
 21
5121.3873700000004
 31
0.0
  0
LINE
  5
7ACC
  8
1
  6
CONTINUOUS
 10
1634.99479
 20
5014.3873700000013
 30
0.0
 11
1634.99479
 21
5154.3873700000013
 31
0.0
  0
LINE
  5
7ACD
  8
1
  6
CONTINUOUS
 10
1495.6247900000001
 20
5249.3873700000004
 30
0.0
 11
1495.6247900000001
 21
5779.3873700000013
 31
0.0
  0
LINE
  5
7ACE
  8
1
  6
CONTINUOUS
 10
1464.99479
 20
5881.3873700000004
 30
0.0
 11
1464.99479
 21
5121.3873700000004
 31
0.0
  0
LINE
  5
7ACF
  8
1
  6
CONTINUOUS
 10
2695.0347899999988
 20
5249.3873700000004
 30
0.0
 11
1965.034789999999
 21
5779.3873700000013
 31
0.0
  0
LINE
  5
7AD0
  8
1
  6
CONTINUOUS
 10
2695.0347899999988
 20
5779.3873700000013
 30
0.0
 11
1965.034789999999
 21
5249.3873700000004
 31
0.0
  0
LINE
  5
7AD1
  8
1
  6
CONTINUOUS
 10
2695.0347899999988
 20
5249.3873700000004
 30
0.0
 11
2695.0347899999988
 21
5779.3873700000013
 31
0.0
  0
LINE
  5
7AD2
  8
1
  6
CONTINUOUS
 10
1965.034789999999
 20
5249.3873700000004
 30
0.0
 11
1965.034789999999
 21
5779.3873700000013
 31
0.0
  0
LINE
  5
7AD3
  8
1
  6
CONTINUOUS
 10
1983.9947899999991
 20
5124.3873700000004
 30
0.0
 11
1983.9947899999991
 21
5249.3873700000004
 31
0.0
  0
LINE
  5
7AD4
  8
1
  6
CONTINUOUS
 10
2025.9947899999991
 20
5124.3873700000004
 30
0.0
 11
2025.9947899999991
 21
5249.3873700000004
 31
0.0
  0
LINE
  5
7AD5
  8
1
  6
CONTINUOUS
 10
1854.99479
 20
5124.3873700000004
 30
0.0
 11
2154.9947899999988
 21
5124.3873700000004
 31
0.0
  0
LINE
  5
7AD6
  8
1
  6
CONTINUOUS
 10
1854.99479
 20
5044.3873700000004
 30
0.0
 11
2154.9947899999988
 21
5044.3873700000004
 31
0.0
  0
LINE
  5
7AD7
  8
1
  6
CONTINUOUS
 10
1854.99479
 20
5044.3873700000004
 30
0.0
 11
1854.99479
 21
5124.3873700000004
 31
0.0
  0
LINE
  5
7AD8
  8
1
  6
CONTINUOUS
 10
2154.9947899999988
 20
5044.3873700000004
 30
0.0
 11
2154.9947899999988
 21
5124.3873700000004
 31
0.0
  0
LINE
  5
7AD9
  8
1
  6
CONTINUOUS
 10
2654.4747900000002
 20
5213.657369999999
 30
0.0
 11
2654.4747900000002
 21
5249.3873700000004
 31
0.0
  0
LINE
  5
7ADA
  8
1
  6
CONTINUOUS
 10
5143.2775780000002
 20
2673.1067840000001
 30
0.0
 11
4383.2775780000002
 21
2673.1067840000001
 31
0.0
  0
LINE
  5
7ADB
  8
1
  6
CONTINUOUS
 10
5143.2775780000002
 20
2573.1067840000001
 30
0.0
 11
4383.2775780000002
 21
2573.1067840000001
 31
0.0
  0
LINE
  5
7ADC
  8
1
  6
CONTINUOUS
 10
5081.2775780000002
 20
3733.1067840000001
 30
0.0
 11
4471.2775780000002
 21
3733.1067840000001
 31
0.0
  0
LINE
  5
7ADD
  8
1
  6
CONTINUOUS
 10
5093.2775780000002
 20
2673.1067840000001
 30
0.0
 11
4276.2775780000011
 21
2673.1067840000001
 31
0.0
  0
LINE
  5
7ADF
  8
1
  6
CONTINUOUS
 10
2994.9947899999988
 20
2673.1067840000001
 30
0.0
 11
2994.9947899999988
 21
2973.1067840000001
 31
0.0
  0
CIRCLE
  5
7AE0
  8
1
  6
CONTINUOUS
 10
2816.4747900000002
 20
2873.1067840000001
 30
0.0
 40
80.0
  0
LINE
  5
7AE1
  8
2
  6
CENTER
 10
2816.4747900000002
 20
2793.1067840000001
 30
0.0
 11
2816.4747900000002
 21
2953.1067840000001
 31
0.0
  0
LINE
  5
7AE2
  8
1
  6
CONTINUOUS
 10
4511.2775780000002
 20
3733.1067840000001
 30
0.0
 11
4511.2775780000002
 21
2673.1067840000001
 31
0.0
  0
LINE
  5
7AE8
  8
1
  6
CONTINUOUS
 10
4276.2775780000011
 20
3813.1067840000001
 30
0.0
 11
4276.2775780000011
 21
2673.1067840000001
 31
0.0
  0
LINE
  5
7AE9
  8
1
  6
CONTINUOUS
 10
4416.2775780000002
 20
3813.1067840000001
 30
0.0
 11
4416.2775780000002
 21
2673.1067840000001
 31
0.0
  0
LINE
  5
7AEA
  8
1
  6
CONTINUOUS
 10
4386.2775780000002
 20
2753.1067840000001
 30
0.0
 11
4386.2775780000002
 21
2913.1067840000001
 31
0.0
  0
LINE
  5
7AEB
  8
1
  6
CONTINUOUS
 10
4306.2775780000002
 20
2753.1067840000001
 30
0.0
 11
4306.2775780000002
 21
2913.1067840000001
 31
0.0
  0
LINE
  5
7AF9
  8
1
  6
CONTINUOUS
 10
2970.4747899999988
 20
2731.1067840000001
 30
0.0
 11
2949.1247899999989
 21
2780.1167839999998
 31
0.0
  0
LINE
  5
7AFA
  8
1
  6
CONTINUOUS
 10
2970.4747899999988
 20
2673.1067840000001
 30
0.0
 11
2970.4747899999988
 21
2731.1067840000001
 31
0.0
  0
LINE
  5
7AFB
  8
1
  6
CONTINUOUS
 10
3154.9947899999988
 20
2673.1067840000001
 30
0.0
 11
3154.9947899999988
 21
2573.1067840000001
 31
0.0
  0
LINE
  5
7B02
  8
1
  6
CONTINUOUS
 10
4383.2775780000002
 20
2673.1067840000001
 30
0.0
 11
4383.2775780000002
 21
2573.1067840000001
 31
0.0
  0
LINE
  5
7B03
  8
1
  6
CONTINUOUS
 10
4306.2775780000002
 20
2753.1067840000001
 30
0.0
 11
4386.2775780000002
 21
2753.1067840000001
 31
0.0
  0
LINE
  5
7B04
  8
1
  6
CONTINUOUS
 10
4386.2775780000002
 20
2812.1067840000001
 30
0.0
 11
4511.2775780000002
 21
2812.1067840000001
 31
0.0
  0
LINE
  5
7B12
  8
2
  6
CENTER
 10
2896.4747900000002
 20
2873.1067840000001
 30
0.0
 11
2736.4747899999988
 21
2873.1067840000001
 31
0.0
  0
LINE
  5
7B14
  8
1
  6
CONTINUOUS
 10
2736.4747899999988
 20
5124.3873700000004
 30
0.0
 11
2896.4747900000002
 21
5124.3873700000004
 31
0.0
  0
LINE
  5
7B15
  8
1
  6
CONTINUOUS
 10
2736.4747899999988
 20
5044.3873700000004
 30
0.0
 11
2896.4747900000002
 21
5044.3873700000004
 31
0.0
  0
LINE
  5
7B16
  8
1
  6
CONTINUOUS
 10
2736.4747899999988
 20
5044.3873700000004
 30
0.0
 11
2736.4747899999988
 21
5124.3873700000004
 31
0.0
  0
LINE
  5
7B17
  8
1
  6
CONTINUOUS
 10
2896.4747900000002
 20
5044.3873700000004
 30
0.0
 11
2896.4747900000002
 21
5124.3873700000004
 31
0.0
  0
LINE
  5
7B18
  8
1
  6
CONTINUOUS
 10
2994.9947899999988
 20
5014.3873700000013
 30
0.0
 11
2994.9947899999988
 21
5154.3873700000013
 31
0.0
  0
LINE
  5
7B19
  8
1
  6
CONTINUOUS
 10
2983.4547899999989
 20
5213.657369999999
 30
0.0
 11
2983.4547899999989
 21
5669.5973700000004
 31
0.0
  0
LINE
  5
7B1A
  8
1
  6
CONTINUOUS
 10
2837.4747899999988
 20
5124.3873700000004
 30
0.0
 11
2837.4747899999988
 21
5213.657369999999
 31
0.0
  0
LINE
  5
7B1B
  8
1
  6
CONTINUOUS
 10
2795.4747900000002
 20
5124.3873700000004
 30
0.0
 11
2795.4747900000002
 21
5213.657369999999
 31
0.0
  0
LINE
  5
7B1C
  8
1
  6
CONTINUOUS
 10
3154.9947899999988
 20
5121.3873700000004
 30
0.0
 11
2896.4747900000002
 21
5121.3873700000004
 31
0.0
  0
LINE
  5
7B1D
  8
1
  6
CONTINUOUS
 10
3154.9947899999988
 20
5881.3873700000004
 30
0.0
 11
3154.9947899999988
 21
5121.3873700000004
 31
0.0
  0
LINE
  5
7B31
  8
1
  6
CONTINUOUS
 10
4416.2775780000002
 20
3813.1067840000001
 30
0.0
 11
4276.2775780000011
 21
3813.1067840000001
 31
0.0
  0
LINE
  5
7B32
  8
1
  6
CONTINUOUS
 10
4386.2775780000002
 20
3048.1067840000001
 30
0.0
 11
4386.2775780000002
 21
3348.1067840000001
 31
0.0
  0
LINE
  5
7B33
  8
1
  6
CONTINUOUS
 10
4306.2775780000002
 20
3048.1067840000001
 30
0.0
 11
4306.2775780000002
 21
3348.1067840000001
 31
0.0
  0
LINE
  5
7B34
  8
1
  6
CONTINUOUS
 10
4306.2775780000002
 20
3048.1067840000001
 30
0.0
 11
4386.2775780000002
 21
3048.1067840000001
 31
0.0
  0
LINE
  5
7B35
  8
1
  6
CONTINUOUS
 10
4306.2775780000002
 20
3348.1067840000001
 30
0.0
 11
4386.2775780000002
 21
3348.1067840000001
 31
0.0
  0
LINE
  5
7B36
  8
1
  6
CONTINUOUS
 10
4306.2775780000002
 20
2913.1067840000001
 30
0.0
 11
4386.2775780000002
 21
2913.1067840000001
 31
0.0
  0
LINE
  5
7B37
  8
1
  6
CONTINUOUS
 10
4386.2775780000002
 20
2854.1067840000001
 30
0.0
 11
4511.2775780000002
 21
2854.1067840000001
 31
0.0
  0
LINE
  5
7B38
  8
1
  6
CONTINUOUS
 10
4386.2775780000002
 20
3177.1067840000001
 30
0.0
 11
4511.2775780000002
 21
3177.1067840000001
 31
0.0
  0
LINE
  5
7B39
  8
1
  6
CONTINUOUS
 10
4386.2775780000002
 20
3219.1067840000001
 30
0.0
 11
4511.2775780000002
 21
3219.1067840000001
 31
0.0
  0
LINE
  5
7B45
  8
1
  6
CONTINUOUS
 10
5041.2775780000002
 20
3733.1067840000001
 30
0.0
 11
5041.2775780000002
 21
2673.1067840000001
 31
0.0
  0
LINE
  5
7B46
  8
1
  6
CONTINUOUS
 10
5143.2775780000002
 20
2673.1067840000001
 30
0.0
 11
5143.2775780000002
 21
2573.1067840000001
 31
0.0
  0
LINE
  5
7B47
  8
2
  6
CENTER
 10
3254.6803159999999
 20
5514.3873700000013
 30
0.0
 11
1332.4856729999999
 21
5514.3873700000013
 31
0.0
  0
LINE
  5
7B48
  8
2
  6
CENTER
 10
4776.2775780000011
 20
3861.996451
 30
0.0
 11
4776.2775780000011
 21
2372.6417980000001
 31
0.0
  0
LINE
  5
7B49
  8
2
  6
CENTER
 10
4214.1265049999993
 20
3198.1067840000001
 30
0.0
 11
5125.3768149999996
 21
3198.1067840000001
 31
0.0
  0
LINE
  5
7B4A
  8
2
  6
CENTER
 10
2004.99479
 20
3941.5971789999999
 30
0.0
 11
2004.99479
 21
2368.2504960000001
 31
0.0
  0
LINE
  5
7B51
  8
4
  6
CONTINUOUS
 10
5550.0
 20
1500.0
 30
0.0
 11
5550.0
 21
900.0
 31
0.0
  0
LINE
  5
7B52
  8
4
  6
CONTINUOUS
 10
3450.0
 20
1500.0
 30
0.0
 11
3450.0
 21
900.0
 31
0.0
  0
LINE
  5
7B53
  8
4
  6
CONTINUOUS
 10
1950.0
 20
1500.0
 30
0.0
 11
1950.0
 21
900.0
 31
0.0
  0
LINE
  5
7B56
  8
4
  6
CONTINUOUS
 10
1950.0
 20
900.0
 30
0.0
 11
5550.0
 21
900.0
 31
0.0
  0
LINE
  5
7B57
  8
4
  6
CONTINUOUS
 10
1950.0
 20
1200.0
 30
0.0
 11
5550.0
 21
1200.0
 31
0.0
  0
TEXT
  5
7B58
  8
4
  6
CONTINUOUS
 10
2065.5062429999989
 20
1294.6290779999999
 30
0.0
 40
150.0
  1
機器名称
  0
TEXT
  5
7B59
  8
4
  6
CONTINUOUS
 10
2058.7743179999989
 20
964.9354699999999
 30
0.0
 40
150.0
  1
機器型番
  0
TEXT
  5
7B5A
  8
4
  6
CONTINUOUS
 10
3533.0362359999999
 20
1267.7153069999999
 30
0.0
 40
150.0
  1
ミツヤ多翼送風機
  0
TEXT
  5
7B5B
  8
4
  6
CONTINUOUS
 10
3559.9634869999991
 20
951.47875299999987
 30
0.0
 40
150.0
  1
MF#4 1/2-4
  0
TEXT
  5
7B5D
  8
4
  6
CONTINUOUS
 10
2451.0314790000002
 20
7150.2865239999992
 30
0.0
 40
162.0
  1
天井吊ベット
  0
TEXT
  5
7B5E
  8
4
  6
CONTINUOUS
 10
948.50278000000014
 20
7601.6429289999996
 30
0.0
 40
216.0
  1
ベルト駆動式片吸込両持多翼ファン
  0
LINE
  5
7B5F
  8
4
  6
CONTINUOUS
 10
750.0
 20
7408.2262629999996
 30
0.0
 11
5550.0
 21
7408.2262629999996
 31
0.0
  0
LINE
  5
7B60
  8
4
  6
CONTINUOUS
 10
750.0
 20
8008.2262629999996
 30
0.0
 11
5550.0
 21
8008.2262629999996
 31
0.0
  0
LINE
  5
7B61
  8
4
  6
CONTINUOUS
 10
1950.0
 20
1500.0
 30
0.0
 11
5550.0
 21
1500.0
 31
0.0
  0
LINE
  5
7B62
  8
4
  6
CONTINUOUS
 10
750.0
 20
8008.2262629999996
 30
0.0
 11
750.0
 21
7408.2262629999996
 31
0.0
  0
TEXT
  5
7B63
  8
4
  6
CONTINUOUS
 10
1143.4549830000001
 20
7146.9584329999998
 30
0.0
 40
162.0
  1
左回転上向
  0
TEXT
  5
7B64
  8
4
  6
CONTINUOUS
 10
4406.9086779999989
 20
8118.1832439999989
 30
0.0
 40
168.0
  1
No.
  0
TEXT
  5
7B65
  8
4
  6
CONTINUOUS
 10
3933.8881879999999
 20
7150.2865239999992
 30
0.0
 40
162.0
  1
縮尺：1/30
  0
LINE
  5
7B66
  8
4
  6
CONTINUOUS
 10
5550.0
 20
8008.2262629999996
 30
0.0
 11
5550.0
 21
7408.2262629999996
 31
0.0
  0
LINE
  5
7B68
  8
4
  6
CONTINUOUS
 10
4321.8522670000002
 20
8043.7907490000007
 30
0.0
 11
4321.8522670000002
 21
8359.9567849999985
 31
0.0
  0
LINE
  5
7B69
  8
4
  6
CONTINUOUS
 10
4321.8522670000002
 20
8359.9567849999985
 30
0.0
 11
5550.0
 21
8359.9567849999985
 31
0.0
  0
LINE
  5
7B6A
  8
4
  6
CONTINUOUS
 10
5550.0
 20
8359.9567849999985
 30
0.0
 11
5550.0
 21
8043.7907490000007
 31
0.0
  0
LINE
  5
7B6B
  8
4
  6
CONTINUOUS
 10
5550.0
 20
8043.7907490000007
 30
0.0
 11
4321.8522670000002
 21
8043.7907490000007
 31
0.0
  0
DIMENSION
  5
7B7D
  8
3
  6
CONTINUOUS
  2
*D1
 10
1970.9947899999991
 20
3862.5521410000001
 30
0.0
 11
2289.4538699999998
 21
3862.5521410000001
 31
0.0
 70
   128
 13
2700.9947899999988
 23
3733.1067840000001
 33
0.0
 14
1970.9947899999991
 24
3733.1067840000001
 34
0.0
1001
ACAD
1000
DSTYLE
1002
{
1070
   287
1070
     3
1070
    40
1040
30.0
1070
   143
1040
0.039
1070
   172
1070
     1
1070
   271
1070
     0
1070
   279
1070
     0
1070
   288
1070
     1
1002
}
  0
DIMENSION
  5
7B8A
  8
3
  6
CONTINUOUS
  2
*D2
 10
2004.99479
 20
4055.456204999999
 30
0.0
 11
2295.1316590000001
 21
4055.456204999999
 31
0.0
 70
   128
 13
2700.9947899999988
 23
3733.1067840000001
 33
0.0
 14
2004.99479
 24
3941.5971789999999
 34
0.0
1001
ACAD
1000
DSTYLE
1002
{
1070
   287
1070
     3
1070
    40
1040
30.0
1070
   143
1040
0.039
1070
   172
1070
     1
1070
   271
1070
     0
1070
   279
1070
     0
1070
   288
1070
     1
1002
}
  0
DIMENSION
  5
7BA3
  8
3
  6
CONTINUOUS
  2
*D3
 10
1324.2274239999999
 20
3198.1067840000001
 30
0.0
 11
1324.2274239999999
 21
3448.3757449999998
 31
0.0
 70
   128
 13
1930.9947899999991
 23
3733.1067840000001
 33
0.0
 14
1348.216083
 24
3198.1067840000001
 34
0.0
 50
90.0
1001
ACAD
1000
DSTYLE
1002
{
1070
   287
1070
     3
1070
    40
1040
30.0
1070
   143
1040
0.039
1070
   172
1070
     1
1070
   271
1070
     0
1070
   279
1070
     0
1070
   288
1070
     1
1002
}
  0
DIMENSION
  5
7BAF
  8
3
  6
CONTINUOUS
  2
*D4
 10
1324.2274239999999
 20
2573.1067840000001
 30
0.0
 11
1249.227423999999
 21
2885.6067840000001
 31
0.0
 70
     0
 13
1348.216083
 23
3198.1067840000001
 33
0.0
 14
1464.99479
 24
2573.1067840000001
 34
0.0
 50
90.0
1001
ACAD
1000
DSTYLE
1002
{
1070
   287
1070
     4
1070
    40
1040
30.0
1070
    75
1070
     1
1070
   143
1040
0.039
1070
   172
1070
     1
1070
   271
1070
     0
1070
   279
1070
     1
1070
   288
1070
     1
1002
}
  0
DIMENSION
  5
7BBC
  8
3
  6
CONTINUOUS
  2
*D5
 10
1085.7596900000001
 20
2573.1067840000001
 30
0.0
 11
1085.7596900000001
 21
3136.325026999999
 31
0.0
 70
   128
 13
1915.99479
 23
3733.1067840000001
 33
0.0
 14
1464.99479
 24
2573.1067840000001
 34
0.0
 50
90.0
1001
ACAD
1000
DSTYLE
1002
{
1070
   287
1070
     3
1070
    40
1040
30.0
1070
   143
1040
0.039
1070
   172
1070
     1
1070
   271
1070
     0
1070
   279
1070
     0
1070
   288
1070
     1
1002
}
  0
DIMENSION
  5
7BC9
  8
3
  6
CONTINUOUS
  2
*D6
 10
2004.99479
 20
2299.1915879999988
 30
0.0
 11
1738.7070140000001
 21
2299.1915879999988
 31
0.0
 70
   128
 13
1464.99479
 23
2573.1067840000001
 33
0.0
 14
2004.99479
 24
2368.2504960000001
 34
0.0
1001
ACAD
1000
DSTYLE
1002
{
1070
   287
1070
     3
1070
    40
1040
30.0
1070
   143
1040
0.039
1070
   172
1070
     1
1070
   271
1070
     0
1070
   279
1070
     0
1070
   288
1070
     1
1002
}
  0
DIMENSION
  5
7BD5
  8
3
  6
CONTINUOUS
  2
*D7
 10
3154.9947899999988
 20
2299.1915879999988
 30
0.0
 11
2579.9947900000002
 21
2374.1915879999988
 31
0.0
 70
     0
 13
2004.99479
 23
2368.2504960000001
 33
0.0
 14
3154.9947899999988
 24
2573.1067840000001
 34
0.0
1001
ACAD
1000
DSTYLE
1002
{
1070
   287
1070
     4
1070
    40
1040
30.0
1070
    75
1070
     1
1070
   143
1040
0.039
1070
   172
1070
     1
1070
   271
1070
     0
1070
   279
1070
     1
1070
   288
1070
     1
1002
}
  0
DIMENSION
  5
7BE2
  8
3
  6
CONTINUOUS
  2
*D8
 10
4511.2775780000002
 20
3856.878475
 30
0.0
 11
4779.0308590000004
 21
3856.878475
 31
0.0
 70
   128
 13
5041.2775780000002
 23
3733.1067840000001
 33
0.0
 14
4511.2775780000002
 24
3733.1067840000001
 34
0.0
1001
ACAD
1000
DSTYLE
1002
{
1070
   287
1070
     3
1070
    40
1040
30.0
1070
   143
1040
0.039
1070
   172
1070
     1
1070
   271
1070
     0
1070
   279
1070
     0
1070
   288
1070
     1
1002
}
  0
LINE
  5
7BE3
  8
1
  6
CONTINUOUS
 10
5043.2775780000002
 20
3575.1067840000001
 30
0.0
 11
5043.2775780000002
 21
2821.1067840000001
 31
0.0
  0
DIMENSION
  5
7BF4
  8
3
  6
CONTINUOUS
  2
*D9
 10
4776.2775780000011
 20
4038.4352479999989
 30
0.0
 11
4922.4362503964803
 21
4135.1183633671317
 31
0.0
 70
   128
 13
5043.2775780000002
 23
3575.1067840000001
 33
0.0
 14
4776.2775780000011
 24
3991.3642229999991
 34
0.0
1001
ACAD
1000
DSTYLE
1002
{
1070
   288
1070
     1
1070
   172
1070
     1
1070
    40
1040
30.0
1070
   271
1070
     0
1070
   143
1040
0.039
1002
}
  0
DIMENSION
  5
7C00
  8
3
  6
CONTINUOUS
  2
*D10
 10
4276.2775780000011
 20
4038.4352479999989
 30
0.0
 11
4526.2775780000011
 21
4188.4352479999998
 31
0.0
 70
     0
  1
MAX\P560
 13
4776.2775780000011
 23
3991.3642229999991
 33
0.0
 14
4276.2775780000011
 24
3813.1067840000001
 34
0.0
1001
ACAD
1000
DSTYLE
1002
{
1070
   287
1070
     4
1070
    40
1040
30.0
1070
    75
1070
     1
1070
   143
1040
0.039
1070
   172
1070
     1
1070
   271
1070
     0
1070
   279
1070
     1
1070
   288
1070
     1
1002
}
  0
DIMENSION
  5
7C0D
  8
3
  6
CONTINUOUS
  2
*D11
 10
5301.388704
 20
2821.1067839999992
 30
0.0
 11
5301.388704
 21
3215.7561230000001
 31
0.0
 70
   128
 13
5043.2775780000002
 23
3575.1067840000001
 33
0.0
 14
5043.2775780000002
 24
2821.1067840000001
 34
0.0
 50
90.0
1001
ACAD
1000
DSTYLE
1002
{
1070
   287
1070
     3
1070
     3
1000
φ<>
1070
    40
1040
30.0
1070
   143
1040
0.039
1070
   172
1070
     1
1070
   271
1070
     0
1070
   279
1070
     0
1070
   288
1070
     1
1002
}
  0
DIMENSION
  5
7C1C
  8
3
  6
CONTINUOUS
  2
*D12
 10
4776.2775780000011
 20
2328.7643509999998
 30
0.0
 11
4579.7775780000002
 21
2399.237970395719
 31
0.0
 70
   128
 13
4383.2775780000002
 23
2573.1067840000001
 33
0.0
 14
4776.2775780000011
 24
2372.6417980000001
 34
0.0
1001
ACAD
1000
DSTYLE
1002
{
1070
   288
1070
     1
1070
   172
1070
     1
1070
    40
1040
30.0
1070
   271
1070
     0
1070
   143
1040
0.039
1002
}
  0
DIMENSION
  5
7C2A
  8
3
  6
CONTINUOUS
  2
*D13
 10
5143.2775780000002
 20
2328.7643509999998
 30
0.0
 11
4953.305421
 21
2330.221223
 31
0.0
 70
   128
 13
4776.2775780000011
 23
2372.6417980000001
 33
0.0
 14
5143.2775780000002
 24
2573.1067840000001
 34
0.0
1001
ACAD
1000
DSTYLE
1002
{
1070
   287
1070
     4
1070
    40
1040
30.0
1070
    75
1070
     1
1070
   143
1040
0.039
1070
   172
1070
     1
1070
   271
1070
     0
1070
   279
1070
     1
1070
   288
1070
     1
1002
}
  0
DIMENSION
  5
7C4D
  8
3
  6
CONTINUOUS
  2
*D14
 10
3154.9947899999988
 20
6136.8160180000004
 30
0.0
 11
2300.8094809999989
 21
6136.8160180000004
 31
0.0
 70
   128
 13
1464.99479
 23
5881.3873700000004
 33
0.0
 14
3154.9947899999988
 24
5881.3873700000004
 34
0.0
1001
ACAD
1000
DSTYLE
1002
{
1070
   287
1070
     3
1070
    40
1040
30.0
1070
   143
1040
0.039
1070
   172
1070
     1
1070
   271
1070
     0
1070
   279
1070
     0
1070
   288
1070
     1
1002
}
  0
DIMENSION
  5
7C5A
  8
3
  6
CONTINUOUS
  2
*D15
 10
3407.9809820000009
 20
5121.3873700000004
 30
0.0
 11
3407.980982
 21
5538.8313669999998
 31
0.0
 70
   128
 13
3154.9947899999988
 23
5881.3873700000004
 33
0.0
 14
3154.9947899999988
 24
5121.3873700000004
 34
0.0
 50
90.0
1001
ACAD
1000
DSTYLE
1002
{
1070
   287
1070
     3
1070
    40
1040
30.0
1070
   143
1040
0.039
1070
   172
1070
     1
1070
   271
1070
     0
1070
   279
1070
     0
1070
   288
1070
     1
1002
}
  0
LINE
  5
7D34
  8
1
 10
2464.9947899999988
 20
3593.1067839999992
 30
0.0
 11
2464.9947899999988
 21
2673.1067840000001
 31
0.0
  0
LINE
  5
7D35
  8
1
 10
1544.9947899999991
 20
3593.1067840000001
 30
0.0
 11
1544.99479
 21
2673.1067840000001
 31
0.0
  0
LINE
  5
7D36
  8
1
  6
CONTINUOUS
 10
1544.9947899999991
 20
3593.1067840000001
 30
0.0
 11
2464.9947899999988
 21
3593.1067839999992
 31
0.0
  0
DIMENSION
  5
7D37
  8
3
  2
*D16
 10
1496.7476138040399
 20
4057.0822921989961
 30
0.0
 11
1780.932946050892
 21
4057.0822921989961
 31
0.0
 70
   128
 13
2004.99479
 23
3941.5971789999999
 33
0.0
 14
1496.7476138040399
 24
3198.1067840000001
 34
0.0
1001
ACAD
1000
DSTYLE
1002
{
1070
   287
1070
     3
1070
    40
1040
30.0
1070
   143
1040
0.039
1070
   172
1070
     1
1070
   271
1070
     0
1070
   279
1070
     0
1070
   288
1070
     1
1002
}
  0
ENDSEC
  0
EOF
