  0
SECTION
  2
HEADER
  9
$ACADVER
  1
AC1009
  9
$INSBASE
 10
0.0
 20
0.0
 30
0.0
  9
$EXTMIN
 10
750.0
 20
900.0
 30
0.0
  9
$EXTMAX
 10
5550.0
 20
8359.9567849999985
 30
0.0
  9
$LIMMIN
 10
0.0
 20
0.0
  9
$LIMMAX
 10
297.0
 20
210.0
  9
$ORTHOMODE
 70
     0
  9
$REGENMODE
 70
     1
  9
$FILLMODE
 70
     0
  9
$QTEXTMODE
 70
     0
  9
$MIRRTEXT
 70
     1
  9
$DRAGMODE
 70
     2
  9
$LTSCALE
 40
100.0
  9
$OSMODE
 70
    37
  9
$ATTMODE
 70
     1
  9
$TEXTSIZE
 40
180.0
  9
$TRACEWID
 40
0.05
  9
$TEXTSTYLE
  7
STANDARD
  9
$CLAYER
  8
3
  9
$CELTYPE
  6
BYLAYER
  9
$CECOLOR
 62
   256
  9
$DIMSCALE
 40
30.0
  9
$DIMASZ
 40
2.0
  9
$DIMEXO
 40
0.5
  9
$DIMDLI
 40
10.0
  9
$DIMRND
 40
0.0
  9
$DIMDLE
 40
0.0
  9
$DIMEXE
 40
1.0
  9
$DIMTP
 40
1.0
  9
$DIMTM
 40
1.0
  9
$DIMTXT
 40
3.0
  9
$DIMCEN
 40
0.0
  9
$DIMTSZ
 40
0.0
  9
$DIMTOL
 70
     0
  9
$DIMLIM
 70
     0
  9
$DIMTIH
 70
     0
  9
$DIMTOH
 70
     0
  9
$DIMSE1
 70
     0
  9
$DIMSE2
 70
     0
  9
$DIMTAD
 70
     1
  9
$DIMZIN
 70
     8
  9
$DIMBLK
  1

  9
$DIMASO
 70
     1
  9
$DIMSHO
 70
     1
  9
$DIMPOST
  1

  9
$DIMAPOST
  1

  9
$DIMALT
 70
     0
  9
$DIMALTD
 70
     2
  9
$DIMALTF
 40
0.039
  9
$DIMLFAC
 40
1.0
  9
$DIMTOFL
 70
     1
  9
$DIMTVP
 40
0.0
  9
$DIMTIX
 70
     0
  9
$DIMSOXD
 70
     0
  9
$DIMSAH
 70
     1
  9
$DIMBLK1
  1
OPEN
  9
$DIMBLK2
  1
OPEN
  9
$DIMSTYLE
  2
IGA
  9
$DIMCLRD
 70
     0
  9
$DIMCLRE
 70
     0
  9
$DIMCLRT
 70
     0
  9
$DIMTFAC
 40
10.0
  9
$DIMGAP
 40
1.0
  9
$LUNITS
 70
     2
  9
$LUPREC
 70
     3
  9
$SKETCHINC
 40
0.1
  9
$FILLETRAD
 40
0.0
  9
$AUNITS
 70
     0
  9
$AUPREC
 70
     0
  9
$MENU
  1
acad
  9
$ELEVATION
 40
0.0
  9
$PELEVATION
 40
0.0
  9
$THICKNESS
 40
0.0
  9
$LIMCHECK
 70
     0
  9
$BLIPMODE
 70
     0
  9
$CHAMFERA
 40
0.5
  9
$CHAMFERB
 40
0.5
  9
$SKPOLY
 70
     0
  9
$TDCREATE
 40
2450744.3896671291
  9
$TDUPDATE
 40
2454953.7722178819
  9
$TDINDWG
 40
0.004651713
  9
$TDUSRTIMER
 40
0.004651713
  9
$USRTIMER
 70
     1
  9
$ANGBASE
 50
0.0
  9
$ANGDIR
 70
     0
  9
$PDMODE
 70
     0
  9
$PDSIZE
 40
0.0
  9
$PLINEWID
 40
0.0
  9
$COORDS
 70
     1
  9
$SPLFRAME
 70
     0
  9
$SPLINETYPE
 70
     6
  9
$SPLINESEGS
 70
     8
  9
$ATTDIA
 70
     0
  9
$ATTREQ
 70
     1
  9
$HANDLING
 70
 10241
  9
$HANDSEED
  5
7DEA
  9
$SURFTAB1
 70
     6
  9
$SURFTAB2
 70
     6
  9
$SURFTYPE
 70
     6
  9
$SURFU
 70
     6
  9
$SURFV
 70
     6
  9
$UCSNAME
  2

  9
$UCSORG
 10
0.0
 20
0.0
 30
0.0
  9
$UCSXDIR
 10
1.0
 20
0.0
 30
0.0
  9
$UCSYDIR
 10
0.0
 20
1.0
 30
0.0
  9
$PUCSNAME
  2

  9
$PUCSORG
 10
0.0
 20
0.0
 30
0.0
  9
$PUCSXDIR
 10
1.0
 20
0.0
 30
0.0
  9
$PUCSYDIR
 10
0.0
 20
1.0
 30
0.0
  9
$USERI1
 70
     0
  9
$USERI2
 70
     0
  9
$USERI3
 70
     0
  9
$USERI4
 70
     0
  9
$USERI5
 70
     0
  9
$USERR1
 40
0.0
  9
$USERR2
 40
0.0
  9
$USERR3
 40
0.0
  9
$USERR4
 40
0.0
  9
$USERR5
 40
0.0
  9
$WORLDVIEW
 70
     1
  9
$SHADEDGE
 70
     3
  9
$SHADEDIF
 70
    70
  9
$TILEMODE
 70
     1
  9
$MAXACTVP
 70
    16
  9
$PLIMCHECK
 70
     0
  9
$PEXTMIN
 10
1.0000000000000000E+020
 20
1.0000000000000000E+020
 30
1.0000000000000000E+020
  9
$PEXTMAX
 10
-1.0000000000000000E+020
 20
-1.0000000000000000E+020
 30
-1.0000000000000000E+020
  9
$PLIMMIN
 10
0.0
 20
0.0
  9
$PLIMMAX
 10
12.0
 20
9.0
  9
$UNITMODE
 70
     0
  9
$VISRETAIN
 70
     0
  9
$PLINEGEN
 70
     0
  9
$PSLTSCALE
 70
     1
  0
ENDSEC
  0
SECTION
  2
TABLES
  0
TABLE
  2
VPORT
 70
     2
  0
VPORT
  2
*ACTIVE
 70
     0
 10
0.0
 20
0.0
 11
1.0
 21
1.0
 12
9438.4567678319436
 22
4630.0975558305709
 13
0.0
 23
0.0
 14
10.0
 24
10.0
 15
10.0
 25
10.0
 16
0.0
 26
0.0
 36
1.0
 17
0.0
 27
0.0
 37
0.0
 40
7517.4747125171307
 41
3.1666666666666661
 42
50.0
 43
0.0
 44
0.0
 50
0.0
 51
0.0
 71
     0
 72
   100
 73
     1
 74
     0
 75
     0
 76
     0
 77
     0
 78
     0
  0
ENDTAB
  0
TABLE
  2
LTYPE
 70
     2
  0
LTYPE
  2
CONTINUOUS
 70
     0
  3
Solid line
 72
    65
 73
     0
 40
0.0
  0
LTYPE
  2
CENTER
 70
     0
  3
____ _ ____ _ ____ _ ____ _ ____ _ ____ _ ____ 
 72
    65
 73
     4
 40
2.0
 49
1.25
 49
-0.25
 49
0.25
 49
-0.25
  0
ENDTAB
  0
TABLE
  2
LAYER
 70
     6
  0
LAYER
  2
0
 70
     0
 62
     7
  6
CONTINUOUS
  0
LAYER
  2
3
 70
     0
 62
     2
  6
CONTINUOUS
  0
LAYER
  2
2
 70
     0
 62
     3
  6
CENTER
  0
LAYER
  2
1
 70
     0
 62
     4
  6
CONTINUOUS
  0
LAYER
  2
4
 70
     0
 62
     7
  6
CONTINUOUS
  0
LAYER
  2
DEFPOINTS
 70
     0
 62
     7
  6
CONTINUOUS
  0
ENDTAB
  0
TABLE
  2
STYLE
 70
     1
  0
STYLE
  2
STANDARD
 70
     0
 40
0.0
 41
1.0
 50
0.0
 71
     0
 42
180.0
  3
simplex.shx
  4
extfont.shx
  0
ENDTAB
  0
TABLE
  2
VIEW
 70
     0
  0
ENDTAB
  0
TABLE
  2
UCS
 70
     0
  0
ENDTAB
  0
TABLE
  2
APPID
 70
     1
  0
APPID
  2
ACAD
 70
     0
  0
ENDTAB
  0
TABLE
  2
DIMSTYLE
 70
     1
  0
DIMSTYLE
  2
IGA
 70
     0
  3

  4

  5

  6
OPEN
  7
OPEN
 40
2.0
 41
2.0
 42
0.5
 43
10.0
 44
1.0
 45
0.0
 46
0.0
 47
1.0
 48
1.0
140
3.0
141
0.0
142
0.0
143
0.03937
144
1.0
145
0.0
146
10.0
147
1.0
 71
     0
 72
     0
 73
     0
 74
     0
 75
     0
 76
     0
 77
     1
 78
     8
170
     0
171
     2
172
     0
173
     1
174
     0
175
     0
176
     0
177
     0
178
     0
  0
ENDTAB
  0
ENDSEC
  0
SECTION
  2
BLOCKS
  0
BLOCK
  8
0
  2
$MODEL_SPACE
 70
     0
 10
0.0
 20
0.0
 30
0.0
  3
$MODEL_SPACE
  1

  0
ENDBLK
  5
1B
  8
0
  0
BLOCK
 67
     1
  8
0
  2
$PAPER_SPACE
 70
     0
 10
0.0
 20
0.0
 30
0.0
  3
$PAPER_SPACE
  1

  0
ENDBLK
  5
18
 67
     1
  8
0
  0
BLOCK
  8
0
  2
_OPEN
 70
     0
 10
0.0
 20
0.0
 30
0.0
  3
_OPEN
  1

  0
LINE
  5
7B58
  8
0
  6
BYBLOCK
 62
     0
 10
-1.0
 20
0.166667
 30
0.0
 11
0.0
 21
0.0
 31
0.0
  0
LINE
  5
7B59
  8
0
  6
BYBLOCK
 62
     0
 10
0.0
 20
0.0
 30
0.0
 11
-1.0
 21
-0.166667
 31
0.0
  0
LINE
  5
7B5A
  8
0
  6
BYBLOCK
 62
     0
 10
0.0
 20
0.0
 30
0.0
 11
-1.0
 21
0.0
 31
0.0
  0
ENDBLK
  5
7B5B
  8
0
  0
BLOCK
  8
0
  2
*D1
 70
     1
 10
0.0
 20
0.0
 30
0.0
  3
*D1
  1

  0
LINE
  5
7D58
  8
3
  6
CONTINUOUS
 62
     0
 10
1494.418036
 20
3879.1412159999991
 30
0.0
 11
1350.9843129999999
 21
3879.1412159999991
 31
0.0
  0
LINE
  5
7D59
  8
3
  6
CONTINUOUS
 62
     0
 10
1494.418036
 20
3149.141216
 30
0.0
 11
1350.9843129999999
 21
3149.141216
 31
0.0
  0
LINE
  5
7D5A
  8
3
  6
CONTINUOUS
 62
     0
 10
1380.9843129999999
 20
3819.141216
 30
0.0
 11
1380.9843129999999
 21
3209.1412159999991
 31
0.0
  0
INSERT
  5
7D5B
  8
3
  6
CONTINUOUS
 62
     0
  2
_OPEN
 10
1380.9843129999999
 20
3879.1412159999991
 30
0.0
 41
60.0
 42
60.0
 43
60.0
 50
90.0
  0
INSERT
  5
7D5C
  8
3
  6
CONTINUOUS
 62
     0
  2
_OPEN
 10
1380.9843129999999
 20
3149.141216
 30
0.0
 41
60.0
 42
60.0
 43
60.0
 50
270.0
  0
TEXT
  8
3
  40
90
  5
7DDA
  62
0
  72
0
  71
0
 10
1125.98
 20
3324.89
 30
0.000000
  1
730
  0
POINT
  5
7D5E
  8
DEFPOINTS
  6
CONTINUOUS
 62
     0
 10
1509.418036
 20
3879.1412159999991
 30
0.0
  0
POINT
  5
7D5F
  8
DEFPOINTS
  6
CONTINUOUS
 62
     0
 10
1509.418036
 20
3149.141216
 30
0.0
  0
POINT
  5
7D60
  8
DEFPOINTS
  6
CONTINUOUS
 62
     0
 10
1380.9843129999999
 20
3149.141216
 30
0.0
  0
ENDBLK
  5
7B68
  8
0
  0
BLOCK
  8
0
  2
*D2
 70
     1
 10
0.0
 20
0.0
 30
0.0
  3
*D2
  1

  0
LINE
  5
7D61
  8
3
  6
CONTINUOUS
 62
     0
 10
1494.418036
 20
3879.1412159999991
 30
0.0
 11
1156.2356769999999
 21
3879.1412159999991
 31
0.0
  0
LINE
  5
7D62
  8
3
  6
CONTINUOUS
 62
     0
 10
1400.1520179999991
 20
3183.141216
 30
0.0
 11
1156.2356769999999
 21
3183.141216
 31
0.0
  0
LINE
  5
7D63
  8
3
  6
CONTINUOUS
 62
     0
 10
1186.2356769999999
 20
3819.141216
 30
0.0
 11
1186.2356769999999
 21
3243.141216
 31
0.0
  0
INSERT
  5
7D64
  8
3
  6
CONTINUOUS
 62
     0
  2
_OPEN
 10
1186.2356769999999
 20
3879.1412159999991
 30
0.0
 41
60.0
 42
60.0
 43
60.0
 50
90.0
  0
INSERT
  5
7D65
  8
3
  6
CONTINUOUS
 62
     0
  2
_OPEN
 10
1186.2356769999999
 20
3183.141216
 30
0.0
 41
60.0
 42
60.0
 43
60.0
 50
270.0
  0
TEXT
  8
3
  40
90
  5
7DDB
  62
0
  72
0
  71
0
 10
931.236
 20
3337.06
 30
0.000000
  1
696
  0
POINT
  5
7D67
  8
DEFPOINTS
  6
CONTINUOUS
 62
     0
 10
1509.418036
 20
3879.1412159999991
 30
0.0
  0
POINT
  5
7D68
  8
DEFPOINTS
  6
CONTINUOUS
 62
     0
 10
1415.152018
 20
3183.141216
 30
0.0
  0
POINT
  5
7D69
  8
DEFPOINTS
  6
CONTINUOUS
 62
     0
 10
1186.2356769999999
 20
3183.141216
 30
0.0
  0
ENDBLK
  5
7B75
  8
0
  0
BLOCK
  8
0
  2
*D3
 70
     1
 10
0.0
 20
0.0
 30
0.0
  3
*D3
  1

  0
LINE
  5
7D6A
  8
3
  6
CONTINUOUS
 62
     0
 10
1489.418036
 20
2558.141216
 30
0.0
 11
1156.235676999999
 21
2558.141216
 31
0.0
  0
LINE
  5
7D6B
  8
3
  6
CONTINUOUS
 62
     0
 10
1186.2356769999999
 20
3123.141216
 30
0.0
 11
1186.2356769999999
 21
2618.141216
 31
0.0
  0
INSERT
  5
7D6C
  8
3
  6
CONTINUOUS
 62
     0
  2
_OPEN
 10
1186.2356769999999
 20
3183.141216
 30
0.0
 41
60.0
 42
60.0
 43
60.0
 50
90.0
  0
INSERT
  5
7D6D
  8
3
  6
CONTINUOUS
 62
     0
  2
_OPEN
 10
1186.235676999999
 20
2558.141216
 30
0.0
 41
60.0
 42
60.0
 43
60.0
 50
270.0
  0
TEXT
  8
3
  40
90
  5
7DDC
  62
0
  72
0
  71
0
 10
931.236
 20
2711.34
 30
0.000000
  1
625
  0
POINT
  5
7D6F
  8
DEFPOINTS
  6
CONTINUOUS
 62
     0
 10
1415.152018
 20
3183.141216
 30
0.0
  0
POINT
  5
7D70
  8
DEFPOINTS
  6
CONTINUOUS
 62
     0
 10
1504.418036
 20
2558.141216
 30
0.0
  0
POINT
  5
7D71
  8
DEFPOINTS
  6
CONTINUOUS
 62
     0
 10
1186.235676999999
 20
2558.141216
 30
0.0
  0
ENDBLK
  5
7B91
  8
0
  0
BLOCK
  8
0
  2
*D4
 70
     1
 10
0.0
 20
0.0
 30
0.0
  3
*D4
  1

  0
LINE
  5
7D72
  8
3
  6
CONTINUOUS
 62
     0
 10
1494.418036
 20
3919.1412159999991
 30
0.0
 11
948.7080730000007
 21
3919.1412159999991
 31
0.0
  0
LINE
  5
7D73
  8
3
  6
CONTINUOUS
 62
     0
 10
1489.418036
 20
2558.141216
 30
0.0
 11
948.70807300000035
 21
2558.141216
 31
0.0
  0
LINE
  5
7D74
  8
3
  6
CONTINUOUS
 62
     0
 10
978.70807300000058
 20
3859.1412159999991
 30
0.0
 11
978.70807300000035
 21
2618.141216
 31
0.0
  0
INSERT
  5
7D75
  8
3
  6
CONTINUOUS
 62
     0
  2
_OPEN
 10
978.70807300000058
 20
3919.1412159999991
 30
0.0
 41
60.0
 42
60.0
 43
60.0
 50
90.0
  0
INSERT
  5
7D76
  8
3
  6
CONTINUOUS
 62
     0
  2
_OPEN
 10
978.70807300000035
 20
2558.141216
 30
0.0
 41
60.0
 42
60.0
 43
60.0
 50
270.0
  0
TEXT
  8
3
  40
90
  5
7DDD
  62
0
  72
0
  71
0
 10
723.708
 20
3045.15
 30
0.000000
  1
1361
  0
POINT
  5
7D78
  8
DEFPOINTS
  6
CONTINUOUS
 62
     0
 10
1509.418036
 20
3919.1412159999991
 30
0.0
  0
POINT
  5
7D79
  8
DEFPOINTS
  6
CONTINUOUS
 62
     0
 10
1504.418036
 20
2558.141216
 30
0.0
  0
POINT
  5
7D7A
  8
DEFPOINTS
  6
CONTINUOUS
 62
     0
 10
978.70807300000035
 20
2558.141216
 30
0.0
  0
ENDBLK
  5
7B9E
  8
0
  0
BLOCK
  8
0
  2
*D5
 70
     1
 10
0.0
 20
0.0
 30
0.0
  3
*D5
  1

  0
LINE
  5
7D7B
  8
3
  6
CONTINUOUS
 62
     0
 10
1504.418036
 20
2543.141216
 30
0.0
 11
1504.418036
 21
2252.9712020000002
 31
0.0
  0
LINE
  5
7D7C
  8
3
  6
CONTINUOUS
 62
     0
 10
2044.418036
 20
2354.2301199999988
 30
0.0
 11
2044.418036
 21
2252.9712020000002
 31
0.0
  0
LINE
  5
7D7D
  8
3
  6
CONTINUOUS
 62
     0
 10
1564.418036
 20
2282.9712020000002
 30
0.0
 11
1984.418036
 21
2282.9712020000002
 31
0.0
  0
INSERT
  5
7D7E
  8
3
  6
CONTINUOUS
 62
     0
  2
_OPEN
 10
1504.418036
 20
2282.9712020000002
 30
0.0
 41
60.0
 42
60.0
 43
60.0
 50
180.0
  0
INSERT
  5
7D7F
  8
3
  6
CONTINUOUS
 62
     0
  2
_OPEN
 10
2044.418036
 20
2282.9712020000002
 30
0.0
 41
60.0
 42
60.0
 43
60.0
  0
TEXT
  8
3
  40
90
  5
7DDE
  62
0
  72
0
  71
0
 10
1602.05
 20
2198.67
 30
0.000000
  1
540
  0
POINT
  5
7D81
  8
DEFPOINTS
  6
CONTINUOUS
 62
     0
 10
1504.418036
 20
2558.141216
 30
0.0
  0
POINT
  5
7D82
  8
DEFPOINTS
  6
CONTINUOUS
 62
     0
 10
2044.418036
 20
2369.2301200000002
 30
0.0
  0
POINT
  5
7D83
  8
DEFPOINTS
  6
CONTINUOUS
 62
     0
 10
2044.418036
 20
2282.9712020000002
 30
0.0
  0
ENDBLK
  5
7C7B
  8
0
  0
BLOCK
  8
0
  2
*D6
 70
     1
 10
0.0
 20
0.0
 30
0.0
  3
*D6
  1

  0
LINE
  5
7D84
  8
3
  6
CONTINUOUS
 62
     0
 10
3194.418036
 20
2543.141216
 30
0.0
 11
3194.418036
 21
2252.9712020000002
 31
0.0
  0
LINE
  5
7D85
  8
3
  6
CONTINUOUS
 62
     0
 10
2104.418036
 20
2282.9712020000002
 30
0.0
 11
3134.418036
 21
2282.9712020000002
 31
0.0
  0
INSERT
  5
7D86
  8
3
  6
CONTINUOUS
 62
     0
  2
_OPEN
 10
2044.418036
 20
2282.9712020000002
 30
0.0
 41
60.0
 42
60.0
 43
60.0
 50
180.0
  0
INSERT
  5
7D87
  8
3
  6
CONTINUOUS
 62
     0
  2
_OPEN
 10
3194.418036
 20
2282.9712020000002
 30
0.0
 41
60.0
 42
60.0
 43
60.0
  0
TEXT
  8
3
  40
90
  5
7DDF
  62
0
  72
0
  71
0
 10
2439.42
 20
2198.67
 30
0.000000
  1
1150
  0
POINT
  5
7D89
  8
DEFPOINTS
  6
CONTINUOUS
 62
     0
 10
2044.418036
 20
2369.2301200000002
 30
0.0
  0
POINT
  5
7D8A
  8
DEFPOINTS
  6
CONTINUOUS
 62
     0
 10
3194.418036
 20
2558.141216
 30
0.0
  0
POINT
  5
7D8B
  8
DEFPOINTS
  6
CONTINUOUS
 62
     0
 10
3194.418036
 20
2282.9712020000002
 30
0.0
  0
ENDBLK
  5
7C70
  8
0
  0
BLOCK
  8
0
  2
*D7
 70
     1
 10
0.0
 20
0.0
 30
0.0
  3
*D7
  1

  0
LINE
  5
7D8C
  8
3
  6
CONTINUOUS
 62
     0
 10
1509.418036
 20
3934.141216
 30
0.0
 11
1509.418036
 21
4049.3605050000001
 31
0.0
  0
LINE
  5
7D8D
  8
3
  6
CONTINUOUS
 62
     0
 10
2044.418036
 20
4004.7092409999991
 30
0.0
 11
2044.418036
 21
3989.3605050000001
 31
0.0
  0
LINE
  5
7D8E
  8
3
  6
CONTINUOUS
 62
     0
 10
1569.418036
 20
4019.3605049999992
 30
0.0
 11
1984.418036
 21
4019.3605049999992
 31
0.0
  0
INSERT
  5
7D8F
  8
3
  6
CONTINUOUS
 62
     0
  2
_OPEN
 10
1509.418036
 20
4019.3605049999992
 30
0.0
 41
60.0
 42
60.0
 43
60.0
 50
180.0
  0
INSERT
  5
7D90
  8
3
  6
CONTINUOUS
 62
     0
  2
_OPEN
 10
2044.418036
 20
4019.3605049999992
 30
0.0
 41
60.0
 42
60.0
 43
60.0
  0
TEXT
  8
3
  40
90
  5
7DE0
  62
0
  72
0
  71
0
 10
1602.05
 20
3935.06
 30
0.000000
  1
535
  0
POINT
  5
7D92
  8
DEFPOINTS
  6
CONTINUOUS
 62
     0
 10
1509.418036
 20
3919.1412159999991
 30
0.0
  0
POINT
  5
7D93
  8
DEFPOINTS
  6
CONTINUOUS
 62
     0
 10
2044.418036
 20
4019.709241
 30
0.0
  0
POINT
  5
7D94
  8
DEFPOINTS
  6
CONTINUOUS
 62
     0
 10
2044.418036
 20
4019.3605049999992
 30
0.0
  0
ENDBLK
  5
7BC4
  8
0
  0
BLOCK
  8
0
  2
*D8
 70
     1
 10
0.0
 20
0.0
 30
0.0
  3
*D8
  1

  0
LINE
  5
7D95
  8
3
  6
CONTINUOUS
 62
     0
 10
5127.4866579999998
 20
3894.1412159999991
 30
0.0
 11
5127.4866579999998
 21
4018.9532799999988
 31
0.0
  0
LINE
  5
7D96
  8
3
  6
CONTINUOUS
 62
     0
 10
4597.4866579999998
 20
3894.1412159999991
 30
0.0
 11
4597.4866579999998
 21
4018.9532799999988
 31
0.0
  0
LINE
  5
7D97
  8
3
  6
CONTINUOUS
 62
     0
 10
5067.4866579999989
 20
3988.9532800000002
 30
0.0
 11
4657.4866579999989
 21
3988.9532800000002
 31
0.0
  0
INSERT
  5
7D98
  8
3
  6
CONTINUOUS
 62
     0
  2
_OPEN
 10
5127.4866579999998
 20
3988.9532800000002
 30
0.0
 41
60.0
 42
60.0
 43
60.0
  0
INSERT
  5
7D99
  8
3
  6
CONTINUOUS
 62
     0
  2
_OPEN
 10
4597.4866579999998
 20
3988.9532800000002
 30
0.0
 41
60.0
 42
60.0
 43
60.0
 50
180.0
  0
TEXT
  8
3
  40
90
  5
7DE1
  62
0
  72
0
  71
0
 10
4686.97
 20
3904.65
 30
0.000000
  1
530
  0
POINT
  5
7D9B
  8
DEFPOINTS
  6
CONTINUOUS
 62
     0
 10
5127.4866579999998
 20
3879.1412159999991
 30
0.0
  0
POINT
  5
7D9C
  8
DEFPOINTS
  6
CONTINUOUS
 62
     0
 10
4597.4866579999998
 20
3879.1412159999991
 30
0.0
  0
POINT
  5
7D9D
  8
DEFPOINTS
  6
CONTINUOUS
 62
     0
 10
4597.4866579999998
 20
3988.9532800000002
 30
0.0
  0
ENDBLK
  5
7BDD
  8
0
  0
BLOCK
  8
0
  2
*D9
 70
     1
 10
0.0
 20
0.0
 30
0.0
  3
*D9
  1

  0
LINE
  5
7CF6
  8
0
  6
BYBLOCK
 62
     0
 10
5129.4866579999998
 20
3575.1412159999991
 30
0.0
 11
5129.4866579999998
 21
4213.5594419999998
 31
0.0
  0
LINE
  5
7CF7
  8
0
  6
BYBLOCK
 62
     0
 10
4862.4866579999998
 20
4156.8377090000004
 30
0.0
 11
4862.4866579999998
 21
4213.5594419999998
 31
0.0
  0
LINE
  5
7CF8
  8
0
  6
BYBLOCK
 62
     0
 10
5069.4866579999989
 20
4183.5594419999989
 30
0.0
 11
4922.4866579999998
 21
4183.5594419999989
 31
0.0
  0
TEXT
  5
7CF9
  8
3
 62
     0
 10
4893.627467543939
 20
4230.3900726359134
 30
0.0
 40
90.0
  1
267
  0
INSERT
  5
7CFA
  8
0
  6
BYBLOCK
 62
     0
  2
_OPEN
 10
5129.4866579999998
 20
4183.5594419999989
 30
0.0
 41
60.0
 42
60.0
 43
60.0
  0
INSERT
  5
7CFB
  8
0
  6
BYBLOCK
 62
     0
  2
_OPEN
 10
4862.4866579999998
 20
4183.5594419999989
 30
0.0
 41
60.0
 42
60.0
 43
60.0
 50
180.0
  0
POINT
  5
7CFC
  8
DEFPOINTS
  6
BYBLOCK
 62
     0
 10
5129.4866579999998
 20
3560.1412159999991
 30
0.0
  0
POINT
  5
7CFD
  8
DEFPOINTS
  6
BYBLOCK
 62
     0
 10
4862.4866579999998
 20
4141.8377090000004
 30
0.0
  0
POINT
  5
7CFE
  8
DEFPOINTS
  6
BYBLOCK
 62
     0
 10
4862.4866579999998
 20
4183.5594419999989
 30
0.0
  0
ENDBLK
  5
7CFF
  8
0
  0
BLOCK
  8
0
  2
*D10
 70
     1
 10
0.0
 20
0.0
 30
0.0
  3
*D10
  1

  0
LINE
  5
7D9E
  8
3
  6
CONTINUOUS
 62
     0
 10
4362.4866579999989
 20
3813.141216
 30
0.0
 11
4362.4866579999989
 21
4213.5594419999998
 31
0.0
  0
LINE
  5
7D9F
  8
3
  6
CONTINUOUS
 62
     0
 10
4802.4866579999998
 20
4183.5594419999989
 30
0.0
 11
4422.4866579999989
 21
4183.5594419999989
 31
0.0
  0
INSERT
  5
7DA0
  8
3
  6
CONTINUOUS
 62
     0
  2
_OPEN
 10
4862.4866579999998
 20
4183.5594419999989
 30
0.0
 41
60.0
 42
60.0
 43
60.0
  0
INSERT
  5
7DA1
  8
3
  6
CONTINUOUS
 62
     0
  2
_OPEN
 10
4362.4866579999989
 20
4183.5594419999989
 30
0.0
 41
60.0
 42
60.0
 43
60.0
 50
180.0
  0
TEXT
  8
3
  40
90
  5
7DE2
  62
0
  72
0
  71
0
 10
4432.49
 20
4174.26
 30
0.000000
  1
MAX
  0
TEXT
  8
3
  40
90
  5
7DE3
  62
0
  72
0
  71
0
 10
4432.49
 20
4057.26
 30
0.000000
  1
560
  0
POINT
  5
7DA3
  8
DEFPOINTS
  6
CONTINUOUS
 62
     0
 10
4862.4866579999998
 20
4141.8377090000004
 30
0.0
  0
POINT
  5
7DA4
  8
DEFPOINTS
  6
CONTINUOUS
 62
     0
 10
4362.4866579999989
 20
3798.1412159999991
 30
0.0
  0
POINT
  5
7DA5
  8
DEFPOINTS
  6
CONTINUOUS
 62
     0
 10
4362.4866579999989
 20
4183.5594419999989
 30
0.0
  0
ENDBLK
  5
7CE9
  8
0
  0
BLOCK
  8
0
  2
*D11
 70
     1
 10
0.0
 20
0.0
 30
0.0
  3
*D11
  1

  0
LINE
  5
7DA6
  8
3
  6
CONTINUOUS
 62
     0
 10
5144.4866579999989
 20
3560.1412159999991
 30
0.0
 11
5420.3601890000009
 21
3560.1412159999991
 31
0.0
  0
LINE
  5
7DA7
  8
3
  6
CONTINUOUS
 62
     0
 10
5144.4866579999989
 20
2806.141216
 30
0.0
 11
5420.3601890000009
 21
2806.141216
 31
0.0
  0
LINE
  5
7DA8
  8
3
  6
CONTINUOUS
 62
     0
 10
5390.3601890000009
 20
3500.1412159999991
 30
0.0
 11
5390.3601890000009
 21
2866.141216
 31
0.0
  0
INSERT
  5
7DA9
  8
3
  6
CONTINUOUS
 62
     0
  2
_OPEN
 10
5390.3601890000009
 20
3560.1412159999991
 30
0.0
 41
60.0
 42
60.0
 43
60.0
 50
90.0
  0
INSERT
  5
7DAA
  8
3
  6
CONTINUOUS
 62
     0
  2
_OPEN
 10
5390.3601890000009
 20
2806.141216
 30
0.0
 41
60.0
 42
60.0
 43
60.0
 50
270.0
  0
TEXT
  8
3
  40
90
  5
7DE4
  62
0
  72
0
  71
0
 10
5135.36
 20
3026.90
 30
0.000000
  1
φ754
  0
POINT
  5
7DAC
  8
DEFPOINTS
  6
CONTINUOUS
 62
     0
 10
5129.4866579999998
 20
3560.1412159999991
 30
0.0
  0
POINT
  5
7DAD
  8
DEFPOINTS
  6
CONTINUOUS
 62
     0
 10
5129.4866579999998
 20
2806.141216
 30
0.0
  0
POINT
  5
7DAE
  8
DEFPOINTS
  6
CONTINUOUS
 62
     0
 10
5390.3601890000009
 20
2806.141216
 30
0.0
  0
ENDBLK
  5
7D0A
  8
0
  0
BLOCK
  8
0
  2
*D12
 70
     1
 10
0.0
 20
0.0
 30
0.0
  3
*D12
  1

  0
LINE
  5
7D17
  8
0
  6
BYBLOCK
 62
     0
 10
4469.4866579999998
 20
2543.141216
 30
0.0
 11
4469.4866579999998
 21
2285.3647579999988
 31
0.0
  0
LINE
  5
7D18
  8
0
  6
BYBLOCK
 62
     0
 10
4862.4866579999998
 20
2375.3393299999998
 30
0.0
 11
4862.4866579999998
 21
2285.3647579999988
 31
0.0
  0
LINE
  5
7D19
  8
0
  6
BYBLOCK
 62
     0
 10
4529.4866579999989
 20
2315.3647579999988
 30
0.0
 11
4802.4866579999998
 21
2315.3647579999988
 31
0.0
  0
TEXT
  5
7D1A
  8
3
 62
     0
 10
4563.755804981306
 20
2346.0762223777529
 30
0.0
 40
90.0
  1
393
  0
INSERT
  5
7D1B
  8
0
  6
BYBLOCK
 62
     0
  2
_OPEN
 10
4469.4866579999998
 20
2315.3647579999988
 30
0.0
 41
60.0
 42
60.0
 43
60.0
 50
180.0
  0
INSERT
  5
7D1C
  8
0
  6
BYBLOCK
 62
     0
  2
_OPEN
 10
4862.4866579999998
 20
2315.3647579999988
 30
0.0
 41
60.0
 42
60.0
 43
60.0
  0
POINT
  5
7D1D
  8
DEFPOINTS
  6
BYBLOCK
 62
     0
 10
4469.4866579999998
 20
2558.141216
 30
0.0
  0
POINT
  5
7D1E
  8
DEFPOINTS
  6
BYBLOCK
 62
     0
 10
4862.4866579999998
 20
2390.3393299999998
 30
0.0
  0
POINT
  5
7D1F
  8
DEFPOINTS
  6
BYBLOCK
 62
     0
 10
4862.4866579999998
 20
2315.3647579999988
 30
0.0
  0
ENDBLK
  5
7D20
  8
0
  0
BLOCK
  8
0
  2
*D13
 70
     1
 10
0.0
 20
0.0
 30
0.0
  3
*D13
  1

  0
LINE
  5
7DAF
  8
3
  6
CONTINUOUS
 62
     0
 10
5229.4866579999989
 20
2543.141216
 30
0.0
 11
5229.4866579999989
 21
2285.3647579999988
 31
0.0
  0
LINE
  5
7DB0
  8
3
  6
CONTINUOUS
 62
     0
 10
4922.4866579999998
 20
2315.3647579999988
 30
0.0
 11
5169.4866579999998
 21
2315.3647579999988
 31
0.0
  0
TEXT
  8
3
  40
90
  5
7DE5
  62
0
  72
0
  71
0
 10
4895.93
 20
2231.53
 30
0.000000
  1
367
  0
INSERT
  5
7DB2
  8
3
  6
CONTINUOUS
 62
     0
  2
_OPEN
 10
4862.4866579999998
 20
2315.3647579999988
 30
0.0
 41
60.0
 42
60.0
 43
60.0
 50
180.0
  0
INSERT
  5
7DB3
  8
3
  6
CONTINUOUS
 62
     0
  2
_OPEN
 10
5229.4866579999989
 20
2315.3647579999988
 30
0.0
 41
60.0
 42
60.0
 43
60.0
  0
POINT
  5
7DB4
  8
DEFPOINTS
  6
CONTINUOUS
 62
     0
 10
4862.4866579999998
 20
2390.3393299999998
 30
0.0
  0
POINT
  5
7DB5
  8
DEFPOINTS
  6
CONTINUOUS
 62
     0
 10
5229.4866579999989
 20
2558.141216
 30
0.0
  0
POINT
  5
7DB6
  8
DEFPOINTS
  6
CONTINUOUS
 62
     0
 10
5229.4866579999989
 20
2315.3647579999988
 30
0.0
  0
ENDBLK
  5
7CD5
  8
0
  0
BLOCK
  8
0
  2
*D14
 70
     1
 10
0.0
 20
0.0
 30
0.0
  3
*D14
  1

  0
LINE
  5
7DB7
  8
3
  6
CONTINUOUS
 62
     0
 10
1504.418036
 20
6351.5504700000001
 30
0.0
 11
1504.418036
 21
6598.4410460000008
 31
0.0
  0
LINE
  5
7DB8
  8
3
  6
CONTINUOUS
 62
     0
 10
3194.418036
 20
6351.5504700000001
 30
0.0
 11
3194.418036
 21
6598.4410460000008
 31
0.0
  0
LINE
  5
7DB9
  8
3
  6
CONTINUOUS
 62
     0
 10
1564.418036
 20
6568.4410459999999
 30
0.0
 11
3134.418036
 21
6568.4410459999999
 31
0.0
  0
INSERT
  5
7DBA
  8
3
  6
CONTINUOUS
 62
     0
  2
_OPEN
 10
1504.418036
 20
6568.4410459999999
 30
0.0
 41
60.0
 42
60.0
 43
60.0
 50
180.0
  0
INSERT
  5
7DBB
  8
3
  6
CONTINUOUS
 62
     0
  2
_OPEN
 10
3194.418036
 20
6568.4410459999999
 30
0.0
 41
60.0
 42
60.0
 43
60.0
  0
TEXT
  8
3
  40
90
  5
7DE6
  62
0
  72
0
  71
0
 10
2149.78
 20
6484.14
 30
0.000000
  1
1690
  0
POINT
  5
7DBD
  8
DEFPOINTS
  6
CONTINUOUS
 62
     0
 10
1504.418036
 20
6336.5504700000001
 30
0.0
  0
POINT
  5
7DBE
  8
DEFPOINTS
  6
CONTINUOUS
 62
     0
 10
3194.418036
 20
6336.5504700000001
 30
0.0
  0
POINT
  5
7DBF
  8
DEFPOINTS
  6
CONTINUOUS
 62
     0
 10
3194.418036
 20
6568.4410459999999
 30
0.0
  0
ENDBLK
  5
7C86
  8
0
  0
BLOCK
  8
0
  2
*D15
 70
     1
 10
0.0
 20
0.0
 30
0.0
  3
*D15
  1

  0
LINE
  5
7DC0
  8
3
  6
CONTINUOUS
 62
     0
 10
3209.418036
 20
6336.5504700000001
 30
0.0
 11
3511.201868000001
 21
6336.5504700000001
 31
0.0
  0
LINE
  5
7DC1
  8
3
  6
CONTINUOUS
 62
     0
 10
3209.418036
 20
5576.5504700000001
 30
0.0
 11
3511.201868000001
 21
5576.5504700000001
 31
0.0
  0
LINE
  5
7DC2
  8
3
  6
CONTINUOUS
 62
     0
 10
3481.201868000001
 20
6276.5504700000001
 30
0.0
 11
3481.201868000001
 21
5636.5504700000001
 31
0.0
  0
INSERT
  5
7DC3
  8
3
  6
CONTINUOUS
 62
     0
  2
_OPEN
 10
3481.201868000001
 20
6336.5504700000001
 30
0.0
 41
60.0
 42
60.0
 43
60.0
 50
90.0
  0
INSERT
  5
7DC4
  8
3
  6
CONTINUOUS
 62
     0
  2
_OPEN
 10
3481.201868000001
 20
5576.5504700000001
 30
0.0
 41
60.0
 42
60.0
 43
60.0
 50
270.0
  0
TEXT
  8
3
  40
90
  5
7DE7
  62
0
  72
0
  71
0
 10
3226.20
 20
5808.88
 30
0.000000
  1
760
  0
POINT
  5
7DC6
  8
DEFPOINTS
  6
CONTINUOUS
 62
     0
 10
3194.418036
 20
6336.5504700000001
 30
0.0
  0
POINT
  5
7DC7
  8
DEFPOINTS
  6
CONTINUOUS
 62
     0
 10
3194.418036
 20
5576.5504700000001
 30
0.0
  0
POINT
  5
7DC8
  8
DEFPOINTS
  6
CONTINUOUS
 62
     0
 10
3481.201868000001
 20
5576.5504700000001
 30
0.0
  0
ENDBLK
  5
7C91
  8
0
  0
BLOCK
  8
0
  2
*D16
 70
     1
 10
0.0
 20
0.0
 30
0.0
  3
*D16
  1

  0
LINE
  5
7DC9
  8
3
  6
CONTINUOUS
 62
     0
 10
2630.4155620000001
 20
3198.141216
 30
0.0
 11
2630.4155620000001
 21
4049.3605050000001
 31
0.0
  0
LINE
  5
7DCA
  8
3
  6
CONTINUOUS
 62
     0
 10
2104.418036
 20
4019.3605049999992
 30
0.0
 11
2570.4155620000001
 21
4019.3605049999992
 31
0.0
  0
INSERT
  5
7DCB
  8
3
  6
CONTINUOUS
 62
     0
  2
_OPEN
 10
2044.418036
 20
4019.3605049999992
 30
0.0
 41
60.0
 42
60.0
 43
60.0
 50
180.0
  0
INSERT
  5
7DCC
  8
3
  6
CONTINUOUS
 62
     0
  2
_OPEN
 10
2630.4155620000001
 20
4019.3605049999992
 30
0.0
 41
60.0
 42
60.0
 43
60.0
  0
TEXT
  8
3
  40
90
  5
7DE8
  62
0
  72
0
  71
0
 10
2157.42
 20
3935.06
 30
0.000000
  1
586
  0
POINT
  5
7DCE
  8
DEFPOINTS
  6
CONTINUOUS
 62
     0
 10
2044.418036
 20
4019.709241
 30
0.0
  0
POINT
  5
7DCF
  8
DEFPOINTS
  6
CONTINUOUS
 62
     0
 10
2630.4155620000001
 20
3183.141216
 30
0.0
  0
POINT
  5
7DD0
  8
DEFPOINTS
  6
CONTINUOUS
 62
     0
 10
2630.4155620000001
 20
4019.3605049999992
 30
0.0
  0
ENDBLK
  5
7C65
  8
0
  0
BLOCK
  8
0
  2
*D17
 70
     1
 10
0.0
 20
0.0
 30
0.0
  3
*D17
  1

  0
LINE
  5
7DD1
  8
3
 62
     0
 10
1509.418036
 20
3934.141216
 30
0.0
 11
1509.418036
 21
4236.9826328075287
 31
0.0
  0
LINE
  5
7DD2
  8
3
 62
     0
 10
3194.418036
 20
2673.141216
 30
0.0
 11
3194.418036
 21
4236.9826328075287
 31
0.0
  0
LINE
  5
7DD3
  8
3
 62
     0
 10
1569.418036
 20
4206.9826328075287
 30
0.0
 11
3134.418036
 21
4206.9826328075287
 31
0.0
  0
INSERT
  5
7DD4
  8
3
 62
     0
  2
_OPEN
 10
1509.418036
 20
4206.9826328075287
 30
0.0
 41
60.0
 42
60.0
 43
60.0
 50
180.0
  0
INSERT
  5
7DD5
  8
3
 62
     0
  2
_OPEN
 10
3194.418036
 20
4206.9826328075287
 30
0.0
 41
60.0
 42
60.0
 43
60.0
  0
TEXT
  8
3
  40
90
  5
7DE9
  62
0
  72
0
  71
0
 10
2121.90
 20
4122.68
 30
0.000000
  1
1685
  0
POINT
  5
7DD7
  8
DEFPOINTS
 62
     0
 10
1509.418036
 20
3919.1412159999991
 30
0.0
  0
POINT
  5
7DD8
  8
DEFPOINTS
 62
     0
 10
3194.418036
 20
2658.141216
 30
0.0
  0
POINT
  5
7DD9
  8
DEFPOINTS
 62
     0
 10
3194.418036
 20
4206.9826328075287
 30
0.0
  0
ENDBLK
  5
7D2C
  8
0
  0
ENDSEC
  0
SECTION
  2
ENTITIES
  0
LINE
  5
7A9F
  8
1
  6
CONTINUOUS
 10
1504.418036
 20
2658.141216
 30
0.0
 11
3194.418036
 21
2658.141216
 31
0.0
  0
LINE
  5
7AA0
  8
1
  6
CONTINUOUS
 10
1509.418036
 20
3879.1412159999991
 30
0.0
 11
2044.418036
 21
3863.1412159999991
 31
0.0
  0
ARC
  5
7AA1
  8
1
  6
CONTINUOUS
 10
2074.418036
 20
3153.141216
 30
0.0
 40
478.79000000000002
 50
180.47999999999999
 51
262.56999999999999
  0
LINE
  5
7AA2
  8
1
  6
CONTINUOUS
 10
1504.418036
 20
2558.141216
 30
0.0
 11
3194.418036
 21
2558.141216
 31
0.0
  0
LINE
  5
7AA3
  8
1
  6
CONTINUOUS
 10
1509.418036
 20
5704.5504700000001
 30
0.0
 11
2632.1580359999989
 21
5704.5504700000001
 31
0.0
  0
LINE
  5
7AA4
  8
1
  6
CONTINUOUS
 10
1509.418036
 20
6234.5504700000001
 30
0.0
 11
2632.1580359999989
 21
6234.5504700000001
 31
0.0
  0
LINE
  5
7AA5
  8
1
  6
CONTINUOUS
 10
1674.418036
 20
5469.5504700000001
 30
0.0
 11
3034.4180359999991
 21
5469.5504700000001
 31
0.0
  0
LINE
  5
7AA6
  8
1
  6
CONTINUOUS
 10
1674.418036
 20
3798.1412159999991
 30
0.0
 11
2194.418036
 21
3798.1412159999991
 31
0.0
  0
LINE
  5
7AA7
  8
1
  6
CONTINUOUS
 10
1674.418036
 20
5609.5504700000001
 30
0.0
 11
3034.4180359999991
 21
5609.5504700000001
 31
0.0
  0
LINE
  5
7AA8
  8
1
  6
CONTINUOUS
 10
3194.418036
 20
6336.5504700000001
 30
0.0
 11
1504.418036
 21
6336.5504700000001
 31
0.0
  0
LINE
  5
7AA9
  8
1
  6
CONTINUOUS
 10
1894.418036
 20
5576.5504700000001
 30
0.0
 11
1504.418036
 21
5576.5504700000001
 31
0.0
  0
LINE
  5
7AAB
  8
1
  6
CONTINUOUS
 10
1674.418036
 20
2658.141216
 30
0.0
 11
1674.418036
 21
3798.1412159999991
 31
0.0
  0
LINE
  5
7AAC
  8
1
  6
CONTINUOUS
 10
1504.418036
 20
2658.141216
 30
0.0
 11
1504.418036
 21
2558.141216
 31
0.0
  0
LINE
  5
7AAD
  8
1
  6
CONTINUOUS
 10
1595.648036
 20
3149.141216
 30
0.0
 11
1509.418036
 21
3149.141216
 31
0.0
  0
LINE
  5
7AAE
  8
1
  6
CONTINUOUS
 10
1509.418036
 20
3109.141216
 30
0.0
 11
1509.418036
 21
3919.1412159999991
 31
0.0
  0
LINE
  5
7AAF
  8
1
  6
CONTINUOUS
 10
1539.418036
 20
3149.141216
 30
0.0
 11
1539.418036
 21
3878.241215999999
 31
0.0
  0
LINE
  5
7AB0
  8
1
  6
CONTINUOUS
 10
1509.418036
 20
6274.550470000001
 30
0.0
 11
1509.418036
 21
5664.5504700000001
 31
0.0
  0
LINE
  5
7AB1
  8
1
  6
CONTINUOUS
 10
1674.418036
 20
5469.5504700000001
 30
0.0
 11
1674.418036
 21
5609.5504700000001
 31
0.0
  0
LINE
  5
7AB2
  8
1
  6
CONTINUOUS
 10
1504.418036
 20
6336.5504700000001
 30
0.0
 11
1504.418036
 21
5576.5504700000001
 31
0.0
  0
LINE
  5
7AB4
  8
1
  6
CONTINUOUS
 10
1999.9780359999991
 20
3039.871216
 30
0.0
 11
2832.188036
 21
2781.7312160000001
 31
0.0
  0
ARC
  5
7AB6
  8
1
  6
CONTINUOUS
 10
2083.418036
 20
3222.141216
 30
0.0
 40
548.36999999999989
 50
262.56999999999999
 51
354.68999999999988
  0
LINE
  5
7AB7
  8
2
  6
CENTER
 10
2855.898036
 20
2778.141216
 30
0.0
 11
2855.898036
 21
2938.141216
 31
0.0
  0
ARC
  5
7AB8
  8
1
  6
CONTINUOUS
 10
2855.898036
 20
2858.1412159999991
 30
0.0
 40
162.0
 50
324.97000000000003
 51
215.02999999999989
  0
CIRCLE
  5
7AB9
  8
1
  6
CONTINUOUS
 10
2855.898036
 20
2858.1412159999991
 30
0.0
 40
80.0
  0
LINE
  5
7ABA
  8
1
  6
CONTINUOUS
 10
3034.4180359999991
 20
2658.141216
 30
0.0
 11
3034.4180359999991
 21
2958.1412159999991
 31
0.0
  0
LINE
  5
7AC6
  8
1
  6
CONTINUOUS
 10
3194.418036
 20
2658.141216
 30
0.0
 11
3194.418036
 21
2558.141216
 31
0.0
  0
LINE
  5
7AC7
  8
1
  6
CONTINUOUS
 10
2701.898036
 20
2716.141216
 30
0.0
 11
2723.2380359999988
 21
2765.1512160000002
 31
0.0
  0
LINE
  5
7AC8
  8
1
  6
CONTINUOUS
 10
2701.898036
 20
2658.141216
 30
0.0
 11
2701.898036
 21
2716.141216
 31
0.0
  0
LINE
  5
7AC9
  8
1
  6
CONTINUOUS
 10
3009.898036
 20
2658.141216
 30
0.0
 11
3009.898036
 21
2716.141216
 31
0.0
  0
LINE
  5
7ACA
  8
1
  6
CONTINUOUS
 10
3009.898036
 20
2716.141216
 30
0.0
 11
2988.5480360000001
 21
2765.1512160000002
 31
0.0
  0
LINE
  5
7AD3
  8
1
  6
CONTINUOUS
 10
2111.1580359999989
 20
3317.471215999999
 30
0.0
 11
2891.4880360000002
 21
2929.7812159999999
 31
0.0
  0
ARC
  5
7AD4
  8
1
  6
CONTINUOUS
 10
1997.418036
 20
3230.1412159999991
 30
0.0
 40
634.74000000000001
 50
354.68999999999988
 51
85.750000000000014
  0
LINE
  5
7AD5
  8
1
  6
CONTINUOUS
 10
2194.418036
 20
3798.1412159999991
 30
0.0
 11
3034.4180359999991
 21
2958.1412159999991
 31
0.0
  0
LINE
  5
7AD6
  8
2
  6
CENTER
 10
1415.152018
 20
3183.141216
 30
0.0
 11
3023.7962299999999
 21
3183.141216
 31
0.0
  0
LINE
  5
7AD7
  8
2
  6
CENTER
 10
2044.418036
 20
6544.843624000001
 30
0.0
 11
2044.418036
 21
5332.7239119999986
 31
0.0
  0
CIRCLE
  5
7AD8
  8
1
  6
CONTINUOUS
 10
2044.418036
 20
3183.141216
 30
0.0
 40
150.0
  0
LINE
  5
7AD9
  8
2
  6
CENTER
 10
2935.898036
 20
2858.1412159999991
 30
0.0
 11
2775.898036
 21
2858.1412159999991
 31
0.0
  0
LINE
  5
7ADA
  8
1
  6
CONTINUOUS
 10
2775.898036
 20
5576.5504700000001
 30
0.0
 11
2194.418036
 21
5576.5504700000001
 31
0.0
  0
LINE
  5
7ADB
  8
1
  6
CONTINUOUS
 10
2632.1580359999989
 20
6234.5504700000001
 30
0.0
 11
2632.1580359999989
 21
5704.5504700000001
 31
0.0
  0
LINE
  5
7ADC
  8
1
  6
CONTINUOUS
 10
2194.418036
 20
5499.5504700000001
 30
0.0
 11
2194.418036
 21
5579.5504700000001
 31
0.0
  0
LINE
  5
7ADD
  8
1
  6
CONTINUOUS
 10
1894.418036
 20
5499.5504700000001
 30
0.0
 11
1894.418036
 21
5579.5504700000001
 31
0.0
  0
LINE
  5
7ADE
  8
1
  6
CONTINUOUS
 10
1894.418036
 20
5499.5504700000001
 30
0.0
 11
2194.418036
 21
5499.5504700000001
 31
0.0
  0
LINE
  5
7ADF
  8
1
  6
CONTINUOUS
 10
1894.418036
 20
5579.5504700000001
 30
0.0
 11
2194.418036
 21
5579.5504700000001
 31
0.0
  0
LINE
  5
7AE0
  8
1
  6
CONTINUOUS
 10
2065.418036
 20
5579.5504700000001
 30
0.0
 11
2065.418036
 21
5704.5504700000001
 31
0.0
  0
LINE
  5
7AE1
  8
1
  6
CONTINUOUS
 10
2023.418036
 20
5579.5504700000001
 30
0.0
 11
2023.418036
 21
5704.5504700000001
 31
0.0
  0
LINE
  5
7AE2
  8
1
  6
CONTINUOUS
 10
3022.8780360000001
 20
6121.50047
 30
0.0
 11
2693.898036
 21
6121.50047
 31
0.0
  0
LINE
  5
7AE3
  8
1
  6
CONTINUOUS
 10
2834.898036
 20
5579.5504700000001
 30
0.0
 11
2834.898036
 21
5665.5604700000004
 31
0.0
  0
LINE
  5
7AE4
  8
1
  6
CONTINUOUS
 10
2876.898036
 20
5579.5504700000001
 30
0.0
 11
2876.898036
 21
5665.5604700000004
 31
0.0
  0
LINE
  5
7AE5
  8
1
  6
CONTINUOUS
 10
3022.8780360000001
 20
5665.5604700000004
 30
0.0
 11
2693.898036
 21
5665.5604700000004
 31
0.0
  0
LINE
  5
7AE6
  8
1
  6
CONTINUOUS
 10
2693.898036
 20
5665.5604700000004
 30
0.0
 11
2693.898036
 21
6121.50047
 31
0.0
  0
LINE
  5
7AE7
  8
1
  6
CONTINUOUS
 10
3022.8780360000001
 20
5665.5604700000004
 30
0.0
 11
3022.8780360000001
 21
6121.50047
 31
0.0
  0
LINE
  5
7AE8
  8
1
  6
CONTINUOUS
 10
3194.418036
 20
6336.5504700000001
 30
0.0
 11
3194.418036
 21
5576.5504700000001
 31
0.0
  0
LINE
  5
7AE9
  8
1
  6
CONTINUOUS
 10
3034.4180359999991
 20
5469.5504700000001
 30
0.0
 11
3034.4180359999991
 21
5609.5504700000001
 31
0.0
  0
LINE
  5
7AEA
  8
1
  6
CONTINUOUS
 10
2935.898036
 20
5499.5504700000001
 30
0.0
 11
2935.898036
 21
5579.5504700000001
 31
0.0
  0
LINE
  5
7AEB
  8
1
  6
CONTINUOUS
 10
2775.898036
 20
5499.5504700000001
 30
0.0
 11
2775.898036
 21
5579.5504700000001
 31
0.0
  0
LINE
  5
7AEC
  8
1
  6
CONTINUOUS
 10
2775.898036
 20
5499.5504700000001
 30
0.0
 11
2935.898036
 21
5499.5504700000001
 31
0.0
  0
LINE
  5
7AED
  8
1
  6
CONTINUOUS
 10
2775.898036
 20
5579.5504700000001
 30
0.0
 11
2935.898036
 21
5579.5504700000001
 31
0.0
  0
LINE
  5
7AEE
  8
1
  6
CONTINUOUS
 10
3194.418036
 20
5576.5504700000001
 30
0.0
 11
2935.898036
 21
5576.5504700000001
 31
0.0
  0
LINE
  5
7B1A
  8
1
  6
CONTINUOUS
 10
4392.4866579999998
 20
2738.141216
 30
0.0
 11
4392.4866579999998
 21
2898.141216
 31
0.0
  0
LINE
  5
7B1B
  8
1
  6
CONTINUOUS
 10
4472.4866579999998
 20
2738.141216
 30
0.0
 11
4472.4866579999998
 21
2898.141216
 31
0.0
  0
LINE
  5
7B1C
  8
1
  6
CONTINUOUS
 10
4502.4866579999998
 20
3798.1412159999991
 30
0.0
 11
4502.4866579999998
 21
2658.141216
 31
0.0
  0
LINE
  5
7B1D
  8
1
  6
CONTINUOUS
 10
4362.4866579999989
 20
3798.1412159999991
 30
0.0
 11
4362.4866579999989
 21
2658.141216
 31
0.0
  0
LINE
  5
7B1E
  8
1
  6
CONTINUOUS
 10
5127.4866579999998
 20
3879.1412159999991
 30
0.0
 11
5127.4866579999998
 21
2658.141216
 31
0.0
  0
LINE
  5
7B1F
  8
1
  6
CONTINUOUS
 10
4597.4866579999998
 20
3879.1412159999991
 30
0.0
 11
4597.4866579999998
 21
2658.141216
 31
0.0
  0
LINE
  5
7B20
  8
1
  6
CONTINUOUS
 10
4472.4866579999998
 20
2797.1412159999991
 30
0.0
 11
4597.4866579999998
 21
2797.1412159999991
 31
0.0
  0
LINE
  5
7B21
  8
1
  6
CONTINUOUS
 10
5229.4866579999989
 20
2658.141216
 30
0.0
 11
4362.4866579999989
 21
2658.141216
 31
0.0
  0
LINE
  5
7B22
  8
1
  6
CONTINUOUS
 10
5229.4866579999989
 20
2558.141216
 30
0.0
 11
4469.4866579999998
 21
2558.141216
 31
0.0
  0
LINE
  5
7B23
  8
1
  6
CONTINUOUS
 10
4469.4866579999998
 20
2658.141216
 30
0.0
 11
4469.4866579999998
 21
2558.141216
 31
0.0
  0
LINE
  5
7B24
  8
1
  6
CONTINUOUS
 10
4392.4866579999998
 20
2738.141216
 30
0.0
 11
4472.4866579999998
 21
2738.141216
 31
0.0
  0
LINE
  5
7B25
  8
1
  6
CONTINUOUS
 10
5229.4866579999989
 20
2658.141216
 30
0.0
 11
5229.4866579999989
 21
2558.141216
 31
0.0
  0
LINE
  5
7B26
  8
1
  6
CONTINUOUS
 10
4472.4866579999998
 20
3204.141216
 30
0.0
 11
4597.4866579999998
 21
3204.141216
 31
0.0
  0
LINE
  5
7B27
  8
1
  6
CONTINUOUS
 10
4472.4866579999998
 20
3162.141216
 30
0.0
 11
4597.4866579999998
 21
3162.141216
 31
0.0
  0
LINE
  5
7B28
  8
1
  6
CONTINUOUS
 10
4472.4866579999998
 20
2839.141216
 30
0.0
 11
4597.4866579999998
 21
2839.141216
 31
0.0
  0
LINE
  5
7B29
  8
1
  6
CONTINUOUS
 10
4392.4866579999998
 20
2898.141216
 30
0.0
 11
4472.4866579999998
 21
2898.141216
 31
0.0
  0
LINE
  5
7B2A
  8
1
  6
CONTINUOUS
 10
4392.4866579999998
 20
3333.141216
 30
0.0
 11
4472.4866579999998
 21
3333.141216
 31
0.0
  0
LINE
  5
7B2B
  8
1
  6
CONTINUOUS
 10
4392.4866579999998
 20
3033.141216
 30
0.0
 11
4472.4866579999998
 21
3033.141216
 31
0.0
  0
LINE
  5
7B2C
  8
1
  6
CONTINUOUS
 10
4392.4866579999998
 20
3033.141216
 30
0.0
 11
4392.4866579999998
 21
3333.141216
 31
0.0
  0
LINE
  5
7B2D
  8
1
  6
CONTINUOUS
 10
4472.4866579999998
 20
3033.141216
 30
0.0
 11
4472.4866579999998
 21
3333.141216
 31
0.0
  0
LINE
  5
7B2E
  8
1
  6
CONTINUOUS
 10
4502.4866579999998
 20
3798.1412159999991
 30
0.0
 11
4362.4866579999989
 21
3798.1412159999991
 31
0.0
  0
LINE
  5
7B2F
  8
1
  6
CONTINUOUS
 10
4597.4866579999998
 20
3879.1412159999991
 30
0.0
 11
5127.4866579999998
 21
3149.141216
 31
0.0
  0
LINE
  5
7B30
  8
1
  6
CONTINUOUS
 10
5127.4866579999998
 20
3879.1412159999991
 30
0.0
 11
4597.4866579999998
 21
3149.141216
 31
0.0
  0
LINE
  5
7B31
  8
1
  6
CONTINUOUS
 10
4597.4866579999998
 20
3879.1412159999991
 30
0.0
 11
5127.4866579999998
 21
3879.1412159999991
 31
0.0
  0
LINE
  5
7B32
  8
1
  6
CONTINUOUS
 10
4597.4866579999998
 20
3149.141216
 30
0.0
 11
5127.4866579999998
 21
3149.141216
 31
0.0
  0
LINE
  5
7B33
  8
2
  6
CENTER
 10
3273.0904049999999
 20
5969.5504700000001
 30
0.0
 11
1360.461223
 21
5969.5504700000001
 31
0.0
  0
LINE
  5
7B34
  8
2
  6
CENTER
 10
4862.4866579999998
 20
3972.8425929999999
 30
0.0
 11
4862.4866579999998
 21
2390.3393299999998
 31
0.0
  0
LINE
  5
7B35
  8
2
  6
CENTER
 10
2044.418036
 20
4019.709241
 30
0.0
 11
2044.418036
 21
2369.2301200000002
 31
0.0
  0
LINE
  5
7B36
  8
2
  6
CENTER
 10
4225.1424500000003
 20
3183.141216
 30
0.0
 11
5207.7833240000009
 21
3183.141216
 31
0.0
  0
LINE
  5
7B37
  8
4
  6
CONTINUOUS
 10
5550.0
 20
1500.0
 30
0.0
 11
5550.0
 21
900.0
 31
0.0
  0
LINE
  5
7B38
  8
4
  6
CONTINUOUS
 10
3450.0
 20
1500.0
 30
0.0
 11
3450.0
 21
900.0
 31
0.0
  0
LINE
  5
7B39
  8
4
  6
CONTINUOUS
 10
1950.0
 20
1500.0
 30
0.0
 11
1950.0
 21
900.0
 31
0.0
  0
LINE
  5
7B3C
  8
4
  6
CONTINUOUS
 10
1950.0
 20
900.0
 30
0.0
 11
5550.0
 21
900.0
 31
0.0
  0
LINE
  5
7B3D
  8
4
  6
CONTINUOUS
 10
1950.0
 20
1200.0
 30
0.0
 11
5550.0
 21
1200.0
 31
0.0
  0
TEXT
  5
7B3E
  8
4
  6
CONTINUOUS
 10
2065.5062429999989
 20
1294.6290779999999
 30
0.0
 40
150.0
  1
機器名称
  0
TEXT
  5
7B3F
  8
4
  6
CONTINUOUS
 10
2058.7743179999989
 20
964.9354699999999
 30
0.0
 40
150.0
  1
機器型番
  0
TEXT
  5
7B40
  8
4
  6
CONTINUOUS
 10
3533.0362359999999
 20
1267.7153069999999
 30
0.0
 40
150.0
  1
ミツヤ多翼送風機
  0
TEXT
  5
7B41
  8
4
  6
CONTINUOUS
 10
3559.9634869999991
 20
951.47875299999987
 30
0.0
 40
150.0
  1
MF#4 1/2-4
  0
TEXT
  5
7B43
  8
4
  6
CONTINUOUS
 10
2451.0314480000002
 20
7150.2865239999992
 30
0.0
 40
162.0
  1
天井吊ベット
  0
TEXT
  5
7B44
  8
4
  6
CONTINUOUS
 10
948.50278000000014
 20
7601.6429289999996
 30
0.0
 40
216.0
  1
ベルト駆動式片吸込両持多翼ファン
  0
LINE
  5
7B45
  8
4
  6
CONTINUOUS
 10
750.0
 20
7408.2262629999996
 30
0.0
 11
5550.0
 21
7408.2262629999996
 31
0.0
  0
LINE
  5
7B46
  8
4
  6
CONTINUOUS
 10
750.0
 20
8008.2262629999996
 30
0.0
 11
5550.0
 21
8008.2262629999996
 31
0.0
  0
LINE
  5
7B47
  8
4
  6
CONTINUOUS
 10
1950.0
 20
1500.0
 30
0.0
 11
5550.0
 21
1500.0
 31
0.0
  0
LINE
  5
7B48
  8
4
  6
CONTINUOUS
 10
750.0
 20
8008.2262629999996
 30
0.0
 11
750.0
 21
7408.2262629999996
 31
0.0
  0
TEXT
  5
7B49
  8
4
  6
CONTINUOUS
 10
1143.4549509999999
 20
7146.9584329999998
 30
0.0
 40
162.0
  1
左回転左横向
  0
TEXT
  5
7B4A
  8
4
  6
CONTINUOUS
 10
4406.9086779999989
 20
8118.1832439999989
 30
0.0
 40
168.0
  1
No.
  0
TEXT
  5
7B4B
  8
4
  6
CONTINUOUS
 10
3933.8881879999999
 20
7150.2865239999992
 30
0.0
 40
162.0
  1
縮尺：1/30
  0
LINE
  5
7B4C
  8
4
  6
CONTINUOUS
 10
5550.0
 20
8008.2262629999996
 30
0.0
 11
5550.0
 21
7408.2262629999996
 31
0.0
  0
LINE
  5
7B4E
  8
4
  6
CONTINUOUS
 10
4321.8522670000002
 20
8043.7907490000007
 30
0.0
 11
4321.8522670000002
 21
8359.9567849999985
 31
0.0
  0
LINE
  5
7B4F
  8
4
  6
CONTINUOUS
 10
4321.8522670000002
 20
8359.9567849999985
 30
0.0
 11
5550.0
 21
8359.9567849999985
 31
0.0
  0
LINE
  5
7B50
  8
4
  6
CONTINUOUS
 10
5550.0
 20
8359.9567849999985
 30
0.0
 11
5550.0
 21
8043.7907490000007
 31
0.0
  0
LINE
  5
7B51
  8
4
  6
CONTINUOUS
 10
5550.0
 20
8043.7907490000007
 30
0.0
 11
4321.8522670000002
 21
8043.7907490000007
 31
0.0
  0
DIMENSION
  5
7B69
  8
3
  6
CONTINUOUS
  2
*D1
 10
1380.9843129999999
 20
3149.141216
 30
0.0
 11
1380.9843129999999
 21
3484.1935290000001
 31
0.0
 70
   128
 13
1509.418036
 23
3879.1412159999991
 33
0.0
 14
1509.418036
 24
3149.141216
 34
0.0
 50
90.0
1001
ACAD
1000
DSTYLE
1002
{
1070
   287
1070
     3
1070
    40
1040
30.0
1070
   143
1040
0.039
1070
   172
1070
     1
1070
   271
1070
     0
1070
   279
1070
     0
1070
   288
1070
     1
1002
}
  0
DIMENSION
  5
7B76
  8
3
  6
CONTINUOUS
  2
*D2
 10
1186.2356769999999
 20
3183.141216
 30
0.0
 11
1186.235676999999
 21
3496.3564270000002
 31
0.0
 70
   128
 13
1509.418036
 23
3879.1412159999991
 33
0.0
 14
1415.152018
 24
3183.141216
 34
0.0
 50
90.0
1001
ACAD
1000
DSTYLE
1002
{
1070
   287
1070
     3
1070
    40
1040
30.0
1070
   143
1040
0.039
1070
   172
1070
     1
1070
   271
1070
     0
1070
   279
1070
     0
1070
   288
1070
     1
1002
}
  0
DIMENSION
  5
7B92
  8
3
  6
CONTINUOUS
  2
*D3
 10
1186.235676999999
 20
2558.141216
 30
0.0
 11
1111.235676999999
 21
2870.641216
 31
0.0
 70
     0
 13
1415.152018
 23
3183.141216
 33
0.0
 14
1504.418036
 24
2558.141216
 34
0.0
 50
90.0
1001
ACAD
1000
DSTYLE
1002
{
1070
   287
1070
     4
1070
    40
1040
30.0
1070
    75
1070
     1
1070
   143
1040
0.039
1070
   172
1070
     1
1070
   271
1070
     0
1070
   279
1070
     1
1070
   288
1070
     1
1002
}
  0
DIMENSION
  5
7B9F
  8
3
  6
CONTINUOUS
  2
*D4
 10
978.70807300000035
 20
2558.141216
 30
0.0
 11
978.7080729999999
 21
3204.4471640000002
 31
0.0
 70
   128
 13
1509.418036
 23
3919.1412159999991
 33
0.0
 14
1504.418036
 24
2558.141216
 34
0.0
 50
90.0
1001
ACAD
1000
DSTYLE
1002
{
1070
   287
1070
     3
1070
    40
1040
30.0
1070
   143
1040
0.039
1070
   172
1070
     1
1070
   271
1070
     0
1070
   279
1070
     0
1070
   288
1070
     1
1002
}
  0
DIMENSION
  5
7BAC
  8
3
  6
CONTINUOUS
  2
*D5
 10
2044.418036
 20
2282.9712020000002
 30
0.0
 11
1782.046192
 21
2282.9712020000002
 31
0.0
 70
   128
 13
1504.418036
 23
2558.141216
 33
0.0
 14
2044.418036
 24
2369.2301200000002
 34
0.0
1001
ACAD
1000
DSTYLE
1002
{
1070
   287
1070
     3
1070
    40
1040
30.0
1070
   143
1040
0.039
1070
   172
1070
     1
1070
   271
1070
     0
1070
   279
1070
     0
1070
   288
1070
     1
1002
}
  0
DIMENSION
  5
7BB8
  8
3
  6
CONTINUOUS
  2
*D6
 10
3194.418036
 20
2282.9712020000002
 30
0.0
 11
2619.418036
 21
2357.9712020000002
 31
0.0
 70
     0
 13
2044.418036
 23
2369.2301200000002
 33
0.0
 14
3194.418036
 24
2558.141216
 34
0.0
1001
ACAD
1000
DSTYLE
1002
{
1070
   287
1070
     4
1070
    40
1040
30.0
1070
    75
1070
     1
1070
   143
1040
0.039
1070
   172
1070
     1
1070
   271
1070
     0
1070
   279
1070
     1
1070
   288
1070
     1
1002
}
  0
DIMENSION
  5
7BC5
  8
3
  6
CONTINUOUS
  2
*D7
 10
2044.418036
 20
4019.3605049999992
 30
0.0
 11
1782.046192
 21
4019.3605049999992
 31
0.0
 70
   128
 13
1509.418036
 23
3919.1412159999991
 33
0.0
 14
2044.418036
 24
4019.709241
 34
0.0
1001
ACAD
1000
DSTYLE
1002
{
1070
   287
1070
     3
1070
    40
1040
30.0
1070
   143
1040
0.039
1070
   172
1070
     1
1070
   271
1070
     0
1070
   279
1070
     0
1070
   288
1070
     1
1002
}
  0
DIMENSION
  5
7BDE
  8
3
  6
CONTINUOUS
  2
*D8
 10
4597.4866579999998
 20
3988.9532800000002
 30
0.0
 11
4866.9732359999989
 21
3988.9532800000002
 31
0.0
 70
   128
 13
5127.4866579999998
 23
3879.1412159999991
 33
0.0
 14
4597.4866579999998
 24
3879.1412159999991
 34
0.0
1001
ACAD
1000
DSTYLE
1002
{
1070
   287
1070
     3
1070
    40
1040
30.0
1070
   143
1040
0.039
1070
   172
1070
     1
1070
   271
1070
     0
1070
   279
1070
     0
1070
   288
1070
     1
1002
}
  0
LINE
  5
7BDF
  8
1
  6
CONTINUOUS
 10
5129.4866579999998
 20
3560.1412159999991
 30
0.0
 11
5129.4866579999998
 21
2806.141216
 31
0.0
  0
DIMENSION
  5
7BEF
  8
3
  6
CONTINUOUS
  2
*D9
 10
4862.4866579999998
 20
4183.5594419999989
 30
0.0
 11
5009.3417532582243
 21
4275.3900726359134
 31
0.0
 70
   128
 13
5129.4866579999998
 23
3560.1412159999991
 33
0.0
 14
4862.4866579999998
 24
4141.8377090000004
 34
0.0
1001
ACAD
1000
DSTYLE
1002
{
1070
   288
1070
     1
1070
   172
1070
     1
1070
    40
1040
30.0
1070
   271
1070
     0
1070
   143
1040
0.039
1002
}
  0
DIMENSION
  5
7BFB
  8
3
  6
CONTINUOUS
  2
*D10
 10
4362.4866579999989
 20
4183.5594419999989
 30
0.0
 11
4612.4866579999989
 21
4333.5594419999998
 31
0.0
 70
     0
  1
MAX\P560
 13
4862.4866579999998
 23
4141.8377090000004
 33
0.0
 14
4362.4866579999989
 24
3798.1412159999991
 34
0.0
1001
ACAD
1000
DSTYLE
1002
{
1070
   287
1070
     4
1070
    40
1040
30.0
1070
    75
1070
     1
1070
   143
1040
0.039
1070
   172
1070
     1
1070
   271
1070
     0
1070
   279
1070
     1
1070
   288
1070
     1
1002
}
  0
DIMENSION
  5
7C08
  8
3
  6
CONTINUOUS
  2
*D11
 10
5390.3601890000009
 20
2806.141216
 30
0.0
 11
5390.360189
 21
3186.2028379999988
 31
0.0
 70
   128
 13
5129.4866579999998
 23
3560.1412159999991
 33
0.0
 14
5129.4866579999998
 24
2806.141216
 34
0.0
 50
90.0
1001
ACAD
1000
DSTYLE
1002
{
1070
   287
1070
     3
1070
     3
1000
φ<>
1070
    40
1040
30.0
1070
   143
1040
0.039
1070
   172
1070
     1
1070
   271
1070
     0
1070
   279
1070
     0
1070
   288
1070
     1
1002
}
  0
DIMENSION
  5
7C17
  8
3
  6
CONTINUOUS
  2
*D12
 10
4862.4866579999998
 20
2315.3647579999988
 30
0.0
 11
4679.4700906955914
 21
2391.0762223777529
 31
0.0
 70
   128
 13
4469.4866579999998
 23
2558.141216
 33
0.0
 14
4862.4866579999998
 24
2390.3393299999998
 34
0.0
1001
ACAD
1000
DSTYLE
1002
{
1070
   288
1070
     1
1070
   172
1070
     1
1070
    40
1040
30.0
1070
   271
1070
     0
1070
   143
1040
0.039
1002
}
  0
DIMENSION
  5
7C25
  8
3
  6
CONTINUOUS
  2
*D13
 10
5229.4866579999989
 20
2315.3647579999988
 30
0.0
 11
5075.9293109999999
 21
2315.826712
 31
0.0
 70
   128
 13
4862.4866579999998
 23
2390.3393299999998
 33
0.0
 14
5229.4866579999989
 24
2558.141216
 34
0.0
1001
ACAD
1000
DSTYLE
1002
{
1070
   287
1070
     4
1070
    40
1040
30.0
1070
    75
1070
     1
1070
   143
1040
0.039
1070
   172
1070
     1
1070
   271
1070
     0
1070
   279
1070
     1
1070
   288
1070
     1
1002
}
  0
DIMENSION
  5
7C48
  8
3
  6
CONTINUOUS
  2
*D14
 10
3194.418036
 20
6568.4410459999999
 30
0.0
 11
2329.7767199999989
 21
6568.4410459999999
 31
0.0
 70
   128
 13
1504.418036
 23
6336.5504700000001
 33
0.0
 14
3194.418036
 24
6336.5504700000001
 34
0.0
1001
ACAD
1000
DSTYLE
1002
{
1070
   287
1070
     3
1070
    40
1040
30.0
1070
   143
1040
0.039
1070
   172
1070
     1
1070
   271
1070
     0
1070
   279
1070
     0
1070
   288
1070
     1
1002
}
  0
DIMENSION
  5
7C55
  8
3
  6
CONTINUOUS
  2
*D15
 10
3481.201868000001
 20
5576.5504700000001
 30
0.0
 11
3481.2018680000001
 21
5968.1813619999994
 31
0.0
 70
   128
 13
3194.418036
 23
6336.5504700000001
 33
0.0
 14
3194.418036
 24
5576.5504700000001
 34
0.0
 50
90.0
1001
ACAD
1000
DSTYLE
1002
{
1070
   287
1070
     3
1070
    40
1040
30.0
1070
   143
1040
0.039
1070
   172
1070
     1
1070
   271
1070
     0
1070
   279
1070
     0
1070
   288
1070
     1
1002
}
  0
DIMENSION
  5
7C66
  8
3
  6
CONTINUOUS
  2
*D16
 10
2630.4155620000001
 20
4019.3605049999992
 30
0.0
 11
2337.4167990000001
 21
4094.3605050000001
 31
0.0
 70
     0
 13
2044.418036
 23
4019.709241
 33
0.0
 14
2630.4155620000001
 24
3183.141216
 34
0.0
1001
ACAD
1000
DSTYLE
1002
{
1070
   287
1070
     4
1070
    40
1040
30.0
1070
    75
1070
     1
1070
   143
1040
0.039
1070
   172
1070
     1
1070
   271
1070
     0
1070
   279
1070
     1
1070
   288
1070
     1
1002
}
  0
DIMENSION
  5
7D2D
  8
3
  2
*D17
 10
3194.418036
 20
4206.9826328075287
 30
0.0
 11
2301.904458903387
 21
4206.9826328075287
 31
0.0
 70
   128
 13
1509.418036
 23
3919.1412159999991
 33
0.0
 14
3194.418036
 24
2658.141216
 34
0.0
1001
ACAD
1000
DSTYLE
1002
{
1070
   287
1070
     3
1070
    40
1040
30.0
1070
   143
1040
0.039
1070
   172
1070
     1
1070
   271
1070
     0
1070
   279
1070
     0
1070
   288
1070
     1
1002
}
  0
LINE
  5
7D46
  8
1
  6
CONTINUOUS
 10
1584.418036
 20
3578.141216
 30
0.0
 11
2504.418036
 21
3578.141216
 31
0.0
  0
LINE
  5
7D47
  8
1
 10
1584.418036
 20
3578.141216
 30
0.0
 11
1584.418036
 21
2658.141216
 31
0.0
  0
LINE
  5
7D48
  8
1
 10
2504.418036
 20
3578.141216
 30
0.0
 11
2504.418036
 21
2658.141216
 31
0.0
  0
ENDSEC
  0
EOF
