  0
SECTION
  2
HEADER
  9
$ACADVER
  1
AC1009
  9
$INSBASE
 10
0.0
 20
0.0
 30
0.0
  9
$EXTMIN
 10
0.0
 20
0.0
 30
0.0
  9
$EXTMAX
 10
6300.0
 20
8850.0
 30
0.0
  9
$LIMMIN
 10
0.0
 20
0.0
  9
$LIMMAX
 10
297.0
 20
210.0
  9
$ORTHOMODE
 70
     0
  9
$REGENMODE
 70
     1
  9
$FILLMODE
 70
     0
  9
$QTEXTMODE
 70
     0
  9
$MIRRTEXT
 70
     1
  9
$DRAGMODE
 70
     2
  9
$LTSCALE
 40
100.0
  9
$OSMODE
 70
    37
  9
$ATTMODE
 70
     1
  9
$TEXTSIZE
 40
180.0
  9
$TRACEWID
 40
0.05
  9
$TEXTSTYLE
  7
STANDARD
  9
$CLAYER
  8
3
  9
$CELTYPE
  6
BYLAYER
  9
$CECOLOR
 62
   256
  9
$DIMSCALE
 40
30.0
  9
$DIMASZ
 40
2.0
  9
$DIMEXO
 40
0.5
  9
$DIMDLI
 40
10.0
  9
$DIMRND
 40
0.0
  9
$DIMDLE
 40
0.0
  9
$DIMEXE
 40
1.0
  9
$DIMTP
 40
1.0
  9
$DIMTM
 40
1.0
  9
$DIMTXT
 40
3.0
  9
$DIMCEN
 40
0.0
  9
$DIMTSZ
 40
0.0
  9
$DIMTOL
 70
     0
  9
$DIMLIM
 70
     0
  9
$DIMTIH
 70
     0
  9
$DIMTOH
 70
     0
  9
$DIMSE1
 70
     0
  9
$DIMSE2
 70
     0
  9
$DIMTAD
 70
     1
  9
$DIMZIN
 70
     8
  9
$DIMBLK
  1

  9
$DIMASO
 70
     1
  9
$DIMSHO
 70
     1
  9
$DIMPOST
  1
(<>)
  9
$DIMAPOST
  1

  9
$DIMALT
 70
     0
  9
$DIMALTD
 70
     2
  9
$DIMALTF
 40
0.039
  9
$DIMLFAC
 40
1.0
  9
$DIMTOFL
 70
     1
  9
$DIMTVP
 40
0.0
  9
$DIMTIX
 70
     0
  9
$DIMSOXD
 70
     0
  9
$DIMSAH
 70
     1
  9
$DIMBLK1
  1
OPEN
  9
$DIMBLK2
  1
OPEN
  9
$DIMSTYLE
  2
IGA
  9
$DIMCLRD
 70
     0
  9
$DIMCLRE
 70
     0
  9
$DIMCLRT
 70
     0
  9
$DIMTFAC
 40
10.0
  9
$DIMGAP
 40
1.0
  9
$LUNITS
 70
     2
  9
$LUPREC
 70
     3
  9
$SKETCHINC
 40
0.1
  9
$FILLETRAD
 40
50.0
  9
$AUNITS
 70
     0
  9
$AUPREC
 70
     0
  9
$MENU
  1
acad
  9
$ELEVATION
 40
0.0
  9
$PELEVATION
 40
0.0
  9
$THICKNESS
 40
0.0
  9
$LIMCHECK
 70
     0
  9
$BLIPMODE
 70
     0
  9
$CHAMFERA
 40
0.5
  9
$CHAMFERB
 40
0.5
  9
$SKPOLY
 70
     0
  9
$TDCREATE
 40
2452717.6036704858
  9
$TDUPDATE
 40
2454953.7575976499
  9
$TDINDWG
 40
0.0263382292
  9
$TDUSRTIMER
 40
0.0263382292
  9
$USRTIMER
 70
     1
  9
$ANGBASE
 50
0.0
  9
$ANGDIR
 70
     0
  9
$PDMODE
 70
     0
  9
$PDSIZE
 40
0.0
  9
$PLINEWID
 40
0.0
  9
$COORDS
 70
     1
  9
$SPLFRAME
 70
     0
  9
$SPLINETYPE
 70
     6
  9
$SPLINESEGS
 70
     8
  9
$ATTDIA
 70
     0
  9
$ATTREQ
 70
     1
  9
$HANDLING
 70
 10241
  9
$HANDSEED
  5
8361
  9
$SURFTAB1
 70
     6
  9
$SURFTAB2
 70
     6
  9
$SURFTYPE
 70
     6
  9
$SURFU
 70
     6
  9
$SURFV
 70
     6
  9
$UCSNAME
  2

  9
$UCSORG
 10
0.0
 20
0.0
 30
0.0
  9
$UCSXDIR
 10
1.0
 20
0.0
 30
0.0
  9
$UCSYDIR
 10
0.0
 20
1.0
 30
0.0
  9
$PUCSNAME
  2

  9
$PUCSORG
 10
0.0
 20
0.0
 30
0.0
  9
$PUCSXDIR
 10
1.0
 20
0.0
 30
0.0
  9
$PUCSYDIR
 10
0.0
 20
1.0
 30
0.0
  9
$USERI1
 70
     0
  9
$USERI2
 70
     0
  9
$USERI3
 70
     0
  9
$USERI4
 70
     0
  9
$USERI5
 70
     0
  9
$USERR1
 40
0.0
  9
$USERR2
 40
0.0
  9
$USERR3
 40
0.0
  9
$USERR4
 40
0.0
  9
$USERR5
 40
0.0
  9
$WORLDVIEW
 70
     1
  9
$SHADEDGE
 70
     3
  9
$SHADEDIF
 70
    70
  9
$TILEMODE
 70
     1
  9
$MAXACTVP
 70
    16
  9
$PLIMCHECK
 70
     0
  9
$PEXTMIN
 10
1.0000000000000000E+020
 20
1.0000000000000000E+020
 30
1.0000000000000000E+020
  9
$PEXTMAX
 10
-1.0000000000000000E+020
 20
-1.0000000000000000E+020
 30
-1.0000000000000000E+020
  9
$PLIMMIN
 10
0.0
 20
0.0
  9
$PLIMMAX
 10
12.0
 20
9.0
  9
$UNITMODE
 70
     0
  9
$VISRETAIN
 70
     0
  9
$PLINEGEN
 70
     0
  9
$PSLTSCALE
 70
     1
  0
ENDSEC
  0
SECTION
  2
TABLES
  0
TABLE
  2
VPORT
 70
     2
  0
VPORT
  2
*ACTIVE
 70
     0
 10
0.0
 20
0.0
 11
1.0
 21
1.0
 12
10609.8298765541
 22
4425.0000206055138
 13
0.0
 23
0.0
 14
10.0
 24
10.0
 15
10.0
 25
10.0
 16
0.0
 26
0.0
 36
1.0
 17
0.0
 27
0.0
 37
0.0
 40
8917.8446490508068
 41
3.1666666666666661
 42
50.0
 43
0.0
 44
0.0
 50
0.0
 51
0.0
 71
     0
 72
   100
 73
     1
 74
     0
 75
     0
 76
     0
 77
     0
 78
     0
  0
ENDTAB
  0
TABLE
  2
LTYPE
 70
     2
  0
LTYPE
  2
CONTINUOUS
 70
     0
  3
Solid line
 72
    65
 73
     0
 40
0.0
  0
LTYPE
  2
CENTER
 70
     0
  3
____ _ ____ _ ____ _ ____ _ ____ _ ____ _ ____ 
 72
    65
 73
     4
 40
2.0
 49
1.25
 49
-0.25
 49
0.25
 49
-0.25
  0
ENDTAB
  0
TABLE
  2
LAYER
 70
     6
  0
LAYER
  2
0
 70
     0
 62
     7
  6
CONTINUOUS
  0
LAYER
  2
3
 70
     0
 62
     2
  6
CONTINUOUS
  0
LAYER
  2
2
 70
     0
 62
     3
  6
CENTER
  0
LAYER
  2
1
 70
     0
 62
     4
  6
CONTINUOUS
  0
LAYER
  2
4
 70
     0
 62
     7
  6
CONTINUOUS
  0
LAYER
  2
DEFPOINTS
 70
     0
 62
     7
  6
CONTINUOUS
  0
ENDTAB
  0
TABLE
  2
STYLE
 70
     1
  0
STYLE
  2
STANDARD
 70
     0
 40
0.0
 41
1.0
 50
0.0
 71
     0
 42
180.0
  3
simplex.shx
  4
extfont.shx
  0
ENDTAB
  0
TABLE
  2
VIEW
 70
     0
  0
ENDTAB
  0
TABLE
  2
UCS
 70
     0
  0
ENDTAB
  0
TABLE
  2
APPID
 70
     1
  0
APPID
  2
ACAD
 70
     0
  0
ENDTAB
  0
TABLE
  2
DIMSTYLE
 70
     1
  0
DIMSTYLE
  2
IGA
 70
     0
  3

  4

  5

  6
OPEN
  7
OPEN
 40
2.0
 41
2.0
 42
0.5
 43
10.0
 44
1.0
 45
0.0
 46
0.0
 47
1.0
 48
1.0
140
3.0
141
0.0
142
0.0
143
0.03937
144
1.0
145
0.0
146
10.0
147
1.0
 71
     0
 72
     0
 73
     0
 74
     0
 75
     0
 76
     0
 77
     1
 78
     8
170
     0
171
     2
172
     0
173
     1
174
     0
175
     0
176
     0
177
     0
178
     0
  0
ENDTAB
  0
ENDSEC
  0
SECTION
  2
BLOCKS
  0
BLOCK
  8
0
  2
$MODEL_SPACE
 70
     0
 10
0.0
 20
0.0
 30
0.0
  3
$MODEL_SPACE
  1

  0
ENDBLK
  5
1B
  8
0
  0
BLOCK
 67
     1
  8
0
  2
$PAPER_SPACE
 70
     0
 10
0.0
 20
0.0
 30
0.0
  3
$PAPER_SPACE
  1

  0
ENDBLK
  5
18
 67
     1
  8
0
  0
BLOCK
  8
0
  2
YA_N
 70
     0
 10
0.0
 20
0.0
 30
0.0
  3
YA_N
  1

  0
ENDBLK
  5
79FE
  8
0
  0
BLOCK
  8
0
  2
_OPEN
 70
     0
 10
0.0
 20
0.0
 30
0.0
  3
_OPEN
  1

  0
LINE
  5
7BE5
  8
0
  6
BYBLOCK
 62
     0
 10
-1.0
 20
0.1666666666666666
 30
0.0
 11
0.0
 21
0.0
 31
0.0
  0
LINE
  5
7BE6
  8
0
  6
BYBLOCK
 62
     0
 10
0.0
 20
0.0
 30
0.0
 11
-1.0
 21
-0.1666666666666666
 31
0.0
  0
LINE
  5
7BE7
  8
0
  6
BYBLOCK
 62
     0
 10
0.0
 20
0.0
 30
0.0
 11
-1.0
 21
0.0
 31
0.0
  0
ENDBLK
  5
7BE8
  8
0
  0
BLOCK
  8
0
  2
*D2
 70
     1
 10
0.0
 20
0.0
 30
0.0
  3
*D2
  1

  0
LINE
  5
82A2
  8
3
 62
     0
 10
2207.5704786437491
 20
3157.4862267425892
 30
0.0
 11
2207.5704786437491
 21
3906.6409738644138
 31
0.0
  0
LINE
  5
82A3
  8
3
 62
     0
 10
1707.5704786437491
 20
3732.4581320404241
 30
0.0
 11
1707.5704786437491
 21
3906.6409738644138
 31
0.0
  0
LINE
  5
82A4
  8
3
 62
     0
 10
2147.5704786437491
 20
3876.6409738644138
 30
0.0
 11
1767.5704786437491
 21
3876.6409738644138
 31
0.0
  0
INSERT
  5
82A5
  8
3
 62
     0
  2
_OPEN
 10
2207.5704786437491
 20
3876.6409738644138
 30
0.0
 41
60.0
 42
60.0
 43
60.0
  0
INSERT
  5
82A6
  8
3
 62
     0
  2
_OPEN
 10
1707.5704786437491
 20
3876.6409738644138
 30
0.0
 41
60.0
 42
60.0
 43
60.0
 50
180.0
  0
TEXT
  8
3
  40
90
  5
834D
  62
0
  72
0
  71
0
 10
1733.28
 20
3792.34
 30
0.000000
  1
500
  0
POINT
  5
82A8
  8
DEFPOINTS
 62
     0
 10
2207.5704786437491
 20
3142.4862267425892
 30
0.0
  0
POINT
  5
82A9
  8
DEFPOINTS
 62
     0
 10
1707.5704786437491
 20
3717.4581320404241
 30
0.0
  0
POINT
  5
82AA
  8
DEFPOINTS
 62
     0
 10
1707.5704786437491
 20
3876.6409738644138
 30
0.0
  0
ENDBLK
  5
7FDA
  8
0
  0
BLOCK
  8
0
  2
*D3
 70
     1
 10
0.0
 20
0.0
 30
0.0
  3
*D3
  1

  0
LINE
  5
82AB
  8
3
 62
     0
 10
1095.5704786437491
 20
2884.057898079082
 30
0.0
 11
1095.5704786437491
 21
3906.6409738644138
 31
0.0
  0
LINE
  5
82AC
  8
3
 62
     0
 10
1647.5704786437491
 20
3876.6409738644138
 30
0.0
 11
1155.5704786437491
 21
3876.6409738644138
 31
0.0
  0
INSERT
  5
82AD
  8
3
 62
     0
  2
_OPEN
 10
1707.5704786437491
 20
3876.6409738644138
 30
0.0
 41
60.0
 42
60.0
 43
60.0
  0
INSERT
  5
82AE
  8
3
 62
     0
  2
_OPEN
 10
1095.5704786437491
 20
3876.6409738644138
 30
0.0
 41
60.0
 42
60.0
 43
60.0
 50
180.0
  0
TEXT
  8
3
  40
90
  5
834E
  62
0
  72
0
  71
0
 10
1221.57
 20
3792.34
 30
0.000000
  1
612
  0
POINT
  5
82B0
  8
DEFPOINTS
 62
     0
 10
1707.5704786437491
 20
3717.4581320404241
 30
0.0
  0
POINT
  5
82B1
  8
DEFPOINTS
 62
     0
 10
1095.5704786437491
 20
2869.057898079082
 30
0.0
  0
POINT
  5
82B2
  8
DEFPOINTS
 62
     0
 10
1095.5704786437491
 20
3876.6409738644138
 30
0.0
  0
ENDBLK
  5
7FC4
  8
0
  0
BLOCK
  8
0
  2
*D4
 70
     1
 10
0.0
 20
0.0
 30
0.0
  3
*D4
  1

  0
LINE
  5
82B3
  8
3
 62
     0
 10
2222.5704786437491
 20
2382.057898079082
 30
0.0
 11
2450.0999144083512
 21
2382.057898079082
 31
0.0
  0
LINE
  5
82B4
  8
3
 62
     0
 10
2222.5704786437491
 20
3112.057898079082
 30
0.0
 11
2450.0999144083512
 21
3112.057898079082
 31
0.0
  0
LINE
  5
82B5
  8
3
 62
     0
 10
2420.0999144083512
 20
2442.057898079082
 30
0.0
 11
2420.0999144083512
 21
3052.057898079082
 31
0.0
  0
INSERT
  5
82B6
  8
3
 62
     0
  2
_OPEN
 10
2420.0999144083512
 20
2382.057898079082
 30
0.0
 41
60.0
 42
60.0
 43
60.0
 50
270.0
  0
INSERT
  5
82B7
  8
3
 62
     0
  2
_OPEN
 10
2420.0999144083521
 20
3112.057898079082
 30
0.0
 41
60.0
 42
60.0
 43
60.0
 50
90.0
  0
TEXT
  8
3
  40
90
  5
834F
  62
0
  72
0
  71
0
 10
2165.10
 20
2565.97
 30
0.000000
  1
730
  0
POINT
  5
82B9
  8
DEFPOINTS
 62
     0
 10
2207.5704786437491
 20
2382.057898079082
 30
0.0
  0
POINT
  5
82BA
  8
DEFPOINTS
 62
     0
 10
2207.5704786437491
 20
3112.057898079082
 30
0.0
  0
POINT
  5
82BB
  8
DEFPOINTS
 62
     0
 10
2420.0999144083521
 20
3112.057898079082
 30
0.0
  0
ENDBLK
  5
7FA2
  8
0
  0
BLOCK
  8
0
  2
*D5
 70
     1
 10
0.0
 20
0.0
 30
0.0
  3
*D5
  1

  0
LINE
  5
82BC
  8
3
 62
     0
 10
2222.5704786437491
 20
2382.057898079082
 30
0.0
 11
2631.002651491141
 21
2382.057898079082
 31
0.0
  0
LINE
  5
82BD
  8
3
 62
     0
 10
2280.600162287873
 20
3141.057898079082
 30
0.0
 11
2631.002651491141
 21
3141.057898079082
 31
0.0
  0
LINE
  5
82BE
  8
3
 62
     0
 10
2601.002651491141
 20
2442.057898079082
 30
0.0
 11
2601.002651491141
 21
3081.057898079082
 31
0.0
  0
INSERT
  5
82BF
  8
3
 62
     0
  2
_OPEN
 10
2601.002651491141
 20
2382.057898079082
 30
0.0
 41
60.0
 42
60.0
 43
60.0
 50
270.0
  0
INSERT
  5
82C0
  8
3
 62
     0
  2
_OPEN
 10
2601.002651491141
 20
3141.057898079082
 30
0.0
 41
60.0
 42
60.0
 43
60.0
 50
90.0
  0
TEXT
  8
3
  40
90
  5
8350
  62
0
  72
0
  71
0
 10
2346.00
 20
2613.31
 30
0.000000
  1
759
  0
POINT
  5
82C2
  8
DEFPOINTS
 62
     0
 10
2207.5704786437491
 20
2382.057898079082
 30
0.0
  0
POINT
  5
82C3
  8
DEFPOINTS
 62
     0
 10
2265.6001622878721
 20
3141.057898079082
 30
0.0
  0
POINT
  5
82C4
  8
DEFPOINTS
 62
     0
 10
2601.002651491141
 20
3141.057898079082
 30
0.0
  0
ENDBLK
  5
7FAD
  8
0
  0
BLOCK
  8
0
  2
*D6
 70
     1
 10
0.0
 20
0.0
 30
0.0
  3
*D6
  1

  0
LINE
  5
82C5
  8
3
 62
     0
 10
2280.600162287873
 20
3141.057898079082
 30
0.0
 11
2871.6319007716052
 21
3141.057898079082
 31
0.0
  0
LINE
  5
82C6
  8
3
 62
     0
 10
2172.5704786437482
 20
2271.057898079082
 30
0.0
 11
2871.6319007716052
 21
2271.057898079082
 31
0.0
  0
LINE
  5
82C7
  8
3
 62
     0
 10
2841.6319007716052
 20
3081.057898079082
 30
0.0
 11
2841.6319007716038
 21
2331.057898079082
 31
0.0
  0
INSERT
  5
82C8
  8
3
 62
     0
  2
_OPEN
 10
2841.6319007716052
 20
3141.057898079082
 30
0.0
 41
60.0
 42
60.0
 43
60.0
 50
90.0
  0
INSERT
  5
82C9
  8
3
 62
     0
  2
_OPEN
 10
2841.6319007716038
 20
2271.057898079082
 30
0.0
 41
60.0
 42
60.0
 43
60.0
 50
270.0
  0
TEXT
  8
3
  40
90
  5
8351
  62
0
  72
0
  71
0
 10
2586.63
 20
2546.76
 30
0.000000
  1
870
  0
POINT
  5
82CB
  8
DEFPOINTS
 62
     0
 10
2265.6001622878721
 20
3141.057898079082
 30
0.0
  0
POINT
  5
82CC
  8
DEFPOINTS
 62
     0
 10
2157.5704786437491
 20
2271.057898079082
 30
0.0
  0
POINT
  5
82CD
  8
DEFPOINTS
 62
     0
 10
2841.6319007716038
 20
2271.057898079082
 30
0.0
  0
ENDBLK
  5
7F97
  8
0
  0
BLOCK
  8
0
  2
*D7
 70
     1
 10
0.0
 20
0.0
 30
0.0
  3
*D7
  1

  0
LINE
  5
82CE
  8
3
 62
     0
 10
2172.5704786437482
 20
2176.057898079082
 30
0.0
 11
2871.6319007716052
 21
2176.057898079082
 31
0.0
  0
LINE
  5
82CF
  8
3
 62
     0
 10
2172.5704786437482
 20
2076.057898079082
 30
0.0
 11
2871.6319007716052
 21
2076.057898079082
 31
0.0
  0
LINE
  5
82D0
  8
3
 62
     0
 10
2841.6319007716038
 20
2236.057898079082
 30
0.0
 11
2841.6319007716038
 21
2296.057898079082
 31
0.0
  0
LINE
  5
82D1
  8
3
 62
     0
 10
2841.6319007716038
 20
2016.057898079082
 30
0.0
 11
2841.6319007716038
 21
1681.772183793367
 31
0.0
  0
LINE
  5
82D2
  8
3
 62
     0
 10
2841.6319007716038
 20
2176.057898079082
 30
0.0
 11
2841.6319007716038
 21
2076.057898079082
 31
0.0
  0
INSERT
  5
82D3
  8
3
 62
     0
  2
_DOT
 10
2841.6319007716038
 20
2176.057898079082
 30
0.0
 41
60.0
 42
60.0
 43
60.0
 50
270.0
  0
INSERT
  5
82D4
  8
3
 62
     0
  2
_OPEN
 10
2841.6319007716038
 20
2076.057898079082
 30
0.0
 41
60.0
 42
60.0
 43
60.0
 50
90.0
  0
TEXT
  8
3
  40
90
  5
8352
  62
0
  72
0
  71
0
 10
2586.63
 20
1659.62
 30
0.000000
  1
100
  0
POINT
  5
82D6
  8
DEFPOINTS
 62
     0
 10
2157.5704786437491
 20
2176.057898079082
 30
0.0
  0
POINT
  5
82D7
  8
DEFPOINTS
 62
     0
 10
2157.5704786437491
 20
2076.057898079082
 30
0.0
  0
POINT
  5
82D8
  8
DEFPOINTS
 62
     0
 10
2841.6319007716038
 20
2076.057898079082
 30
0.0
  0
ENDBLK
  5
8055
  8
0
  0
BLOCK
  8
0
  2
*D8
 70
     1
 10
0.0
 20
0.0
 30
0.0
  3
*D8
  1

  0
LINE
  5
7D0E
  8
0
  6
BYBLOCK
 62
     0
 10
5090.5741014141413
 20
2159.3123359245192
 30
0.0
 11
5090.5741014141413
 21
1942.7950476119941
 31
0.0
  0
LINE
  5
7D0F
  8
0
  6
BYBLOCK
 62
     0
 10
4830.5741014141404
 20
1972.795047611995
 30
0.0
 11
5030.5741014141404
 21
1972.795047611995
 31
0.0
  0
TEXT
  5
7D10
  8
3
 62
     0
 10
4814.8598156998551
 20
2006.124564656667
 30
0.0
 40
90.0
  1
320
  0
INSERT
  5
7D11
  8
0
  6
BYBLOCK
 62
     0
  2
_OPEN
 10
4770.5741014141404
 20
1972.795047611995
 30
0.0
 41
60.0
 42
60.0
 43
60.0
 50
180.0
  0
INSERT
  5
7D12
  8
0
  6
BYBLOCK
 62
     0
  2
_OPEN
 10
5090.5741014141413
 20
1972.795047611995
 30
0.0
 41
60.0
 42
60.0
 43
60.0
  0
POINT
  5
7D13
  8
DEFPOINTS
  6
BYBLOCK
 62
     0
 10
4770.5741014141404
 20
2087.1420078861311
 30
0.0
  0
POINT
  5
7D14
  8
DEFPOINTS
  6
BYBLOCK
 62
     0
 10
5090.5741014141413
 20
2174.3123359245192
 30
0.0
  0
POINT
  5
7D15
  8
DEFPOINTS
  6
BYBLOCK
 62
     0
 10
5090.5741014141413
 20
1972.795047611995
 30
0.0
  0
ENDBLK
  5
7D16
  8
0
  0
BLOCK
  8
0
  2
*D9
 70
     1
 10
0.0
 20
0.0
 30
0.0
  3
*D9
  1

  0
LINE
  5
82D9
  8
3
 62
     0
 10
5053.5741014141413
 20
3518.057898079082
 30
0.0
 11
5328.9003345986976
 21
3518.057898079081
 31
0.0
  0
LINE
  5
82DA
  8
3
 62
     0
 10
5053.5741014141413
 20
2764.057898079082
 30
0.0
 11
5328.9003345986976
 21
2764.057898079082
 31
0.0
  0
LINE
  5
82DB
  8
3
 62
     0
 10
5298.9003345986976
 20
3458.057898079081
 30
0.0
 11
5298.9003345986976
 21
2824.057898079082
 31
0.0
  0
INSERT
  5
82DC
  8
3
 62
     0
  2
_OPEN
 10
5298.9003345986976
 20
3518.057898079081
 30
0.0
 41
60.0
 42
60.0
 43
60.0
 50
90.0
  0
INSERT
  5
82DD
  8
3
 62
     0
  2
_OPEN
 10
5298.9003345986976
 20
2764.057898079082
 30
0.0
 41
60.0
 42
60.0
 43
60.0
 50
270.0
  0
TEXT
  8
3
  40
90
  5
8353
  62
0
  72
0
  71
0
 10
5043.90
 20
2980.92
 30
0.000000
  1
φ754
  0
POINT
  5
82DF
  8
DEFPOINTS
 62
     0
 10
5038.5741014141404
 20
3518.057898079082
 30
0.0
  0
POINT
  5
82E0
  8
DEFPOINTS
 62
     0
 10
5038.5741014141404
 20
2764.057898079082
 30
0.0
  0
POINT
  5
82E1
  8
DEFPOINTS
 62
     0
 10
5298.9003345986976
 20
2764.057898079082
 30
0.0
  0
ENDBLK
  5
7D31
  8
0
  0
BLOCK
  8
0
  2
*D10
 70
     1
 10
0.0
 20
0.0
 30
0.0
  3
*D10
  1

  0
LINE
  5
802A
  8
0
  6
BYBLOCK
 62
     0
 10
5038.5741014141404
 20
3667.9212097012428
 30
0.0
 11
5038.5741014141404
 21
4103.3570453619031
 31
0.0
  0
LINE
  5
802B
  8
0
  6
BYBLOCK
 62
     0
 10
4770.5741014141404
 20
3984.0231135627218
 30
0.0
 11
4770.5741014141404
 21
4103.3570453619031
 31
0.0
  0
LINE
  5
802C
  8
0
  6
BYBLOCK
 62
     0
 10
4978.5741014141413
 20
4073.3570453619031
 30
0.0
 11
4830.5741014141404
 21
4073.3570453619031
 31
0.0
  0
TEXT
  5
802D
  8
3
 62
     0
 10
4795.4338984993155
 20
4112.0874372764811
 30
0.0
 40
90.0
  1
268
  0
INSERT
  5
802E
  8
0
  6
BYBLOCK
 62
     0
  2
_OPEN
 10
5038.5741014141404
 20
4073.3570453619031
 30
0.0
 41
60.0
 42
60.0
 43
60.0
  0
INSERT
  5
802F
  8
0
  6
BYBLOCK
 62
     0
  2
_OPEN
 10
4770.5741014141404
 20
4073.3570453619031
 30
0.0
 41
60.0
 42
60.0
 43
60.0
 50
180.0
  0
POINT
  5
8030
  8
DEFPOINTS
  6
BYBLOCK
 62
     0
 10
5038.5741014141404
 20
3652.9212097012428
 30
0.0
  0
POINT
  5
8031
  8
DEFPOINTS
  6
BYBLOCK
 62
     0
 10
4770.5741014141404
 20
3969.0231135627232
 30
0.0
  0
POINT
  5
8032
  8
DEFPOINTS
  6
BYBLOCK
 62
     0
 10
4770.5741014141404
 20
4073.3570453619031
 30
0.0
  0
ENDBLK
  5
8033
  8
0
  0
BLOCK
  8
0
  2
*D11
 70
     1
 10
0.0
 20
0.0
 30
0.0
  3
*D11
  1

  0
LINE
  5
82E2
  8
3
 62
     0
 10
3625.0741014141399
 20
3376.057898079082
 30
0.0
 11
3625.0741014141399
 21
4103.3570453619031
 31
0.0
  0
LINE
  5
82E3
  8
3
 62
     0
 10
4710.5741014141413
 20
4073.3570453619031
 30
0.0
 11
3685.0741014141399
 21
4073.3570453619031
 31
0.0
  0
INSERT
  5
82E4
  8
3
 62
     0
  2
_OPEN
 10
4770.5741014141404
 20
4073.3570453619031
 30
0.0
 41
60.0
 42
60.0
 43
60.0
  0
INSERT
  5
82E5
  8
3
 62
     0
  2
_OPEN
 10
3625.0741014141399
 20
4073.3570453619031
 30
0.0
 41
60.0
 42
60.0
 43
60.0
 50
180.0
  0
TEXT
  8
3
  40
90
  5
8354
  62
0
  72
0
  71
0
 10
4017.82
 20
4064.06
 30
0.000000
  1
MAX
  0
TEXT
  8
3
  40
90
  5
8355
  62
0
  72
0
  71
0
 10
4017.82
 20
3947.06
 30
0.000000
  1
1160
  0
POINT
  5
82E7
  8
DEFPOINTS
 62
     0
 10
4770.5741014141404
 20
3969.0231135627232
 30
0.0
  0
POINT
  5
82E8
  8
DEFPOINTS
 62
     0
 10
3625.0741014141399
 20
3361.057898079082
 30
0.0
  0
POINT
  5
82E9
  8
DEFPOINTS
 62
     0
 10
3625.0741014141399
 20
4073.3570453619031
 30
0.0
  0
ENDBLK
  5
801D
  8
0
  0
BLOCK
  8
0
  2
*D12
 70
     1
 10
0.0
 20
0.0
 30
0.0
  3
*D12
  1

  0
LINE
  5
82EA
  8
3
 62
     0
 10
4505.5741014141404
 20
3667.9212097012428
 30
0.0
 11
4505.5741014141404
 21
3888.5409367861721
 31
0.0
  0
LINE
  5
82EB
  8
3
 62
     0
 10
5035.5741014141413
 20
3667.9212097012428
 30
0.0
 11
5035.5741014141413
 21
3888.5409367861721
 31
0.0
  0
LINE
  5
82EC
  8
3
 62
     0
 10
4565.5741014141404
 20
3858.5409367861721
 30
0.0
 11
4975.5741014141413
 21
3858.5409367861721
 31
0.0
  0
INSERT
  5
82ED
  8
3
 62
     0
  2
_OPEN
 10
4505.5741014141404
 20
3858.5409367861721
 30
0.0
 41
60.0
 42
60.0
 43
60.0
 50
180.0
  0
INSERT
  5
82EE
  8
3
 62
     0
  2
_OPEN
 10
5035.5741014141413
 20
3858.5409367861721
 30
0.0
 41
60.0
 42
60.0
 43
60.0
  0
TEXT
  8
3
  40
90
  5
8356
  62
0
  72
0
  71
0
 10
4589.70
 20
3774.24
 30
0.000000
  1
530
  0
POINT
  5
82F0
  8
DEFPOINTS
 62
     0
 10
4505.5741014141404
 20
3652.9212097012428
 30
0.0
  0
POINT
  5
82F1
  8
DEFPOINTS
 62
     0
 10
5035.5741014141413
 20
3652.9212097012428
 30
0.0
  0
POINT
  5
82F2
  8
DEFPOINTS
 62
     0
 10
5035.5741014141413
 20
3858.5409367861721
 30
0.0
  0
ENDBLK
  5
8028
  8
0
  0
BLOCK
  8
0
  2
*D13
 70
     1
 10
0.0
 20
0.0
 30
0.0
  3
*D13
  1

  0
LINE
  5
82F3
  8
3
 62
     0
 10
2157.5704786437491
 20
6313.6246307899637
 30
0.0
 11
2157.5704786437491
 21
6495.0181677225701
 31
0.0
  0
LINE
  5
82F4
  8
3
 62
     0
 10
1257.5704786437491
 20
6313.6246307899637
 30
0.0
 11
1257.5704786437491
 21
6495.0181677225701
 31
0.0
  0
LINE
  5
82F5
  8
3
 62
     0
 10
2097.5704786437491
 20
6465.0181677225701
 30
0.0
 11
1317.5704786437491
 21
6465.0181677225701
 31
0.0
  0
INSERT
  5
82F6
  8
3
 62
     0
  2
_OPEN
 10
2157.5704786437491
 20
6465.0181677225701
 30
0.0
 41
60.0
 42
60.0
 43
60.0
  0
INSERT
  5
82F7
  8
3
 62
     0
  2
_OPEN
 10
1257.5704786437491
 20
6465.0181677225701
 30
0.0
 41
60.0
 42
60.0
 43
60.0
 50
180.0
  0
TEXT
  8
3
  40
90
  5
8357
  62
0
  72
0
  71
0
 10
1528.34
 20
6380.72
 30
0.000000
  1
900
  0
POINT
  5
82F9
  8
DEFPOINTS
 62
     0
 10
2157.5704786437491
 20
6298.6246307899637
 30
0.0
  0
POINT
  5
82FA
  8
DEFPOINTS
 62
     0
 10
1257.5704786437491
 20
6298.6246307899637
 30
0.0
  0
POINT
  5
82FB
  8
DEFPOINTS
 62
     0
 10
1257.5704786437491
 20
6465.0181677225701
 30
0.0
  0
ENDBLK
  5
7DC5
  8
0
  0
BLOCK
  8
0
  2
*D14
 70
     1
 10
0.0
 20
0.0
 30
0.0
  3
*D14
  1

  0
LINE
  5
7E28
  8
0
  6
BYBLOCK
 62
     0
 10
1386.8514140573679
 20
5723.6246307899637
 30
0.0
 11
1386.8514140573679
 21
6495.0181677225701
 31
0.0
  0
LINE
  5
7E29
  8
0
  6
BYBLOCK
 62
     0
 10
1616.8514140573679
 20
6465.0181677225701
 30
0.0
 11
1446.8514140573679
 21
6465.0181677225701
 31
0.0
  0
TEXT
  5
7E2A
  8
3
 62
     0
 10
1416.1371283430819
 20
6504.1976473153272
 30
0.0
 40
90.0
  1
290
  0
INSERT
  5
7E2B
  8
0
  6
BYBLOCK
 62
     0
  2
_OPEN
 10
1676.8514140573679
 20
6465.0181677225701
 30
0.0
 41
60.0
 42
60.0
 43
60.0
  0
INSERT
  5
7E2C
  8
0
  6
BYBLOCK
 62
     0
  2
_OPEN
 10
1386.8514140573679
 20
6465.0181677225701
 30
0.0
 41
60.0
 42
60.0
 43
60.0
 50
180.0
  0
POINT
  5
7E2D
  8
DEFPOINTS
  6
BYBLOCK
 62
     0
 10
1676.8514140573679
 20
6298.6246307899637
 30
0.0
  0
POINT
  5
7E2E
  8
DEFPOINTS
  6
BYBLOCK
 62
     0
 10
1386.8514140573679
 20
5708.6246307899628
 30
0.0
  0
POINT
  5
7E2F
  8
DEFPOINTS
  6
BYBLOCK
 62
     0
 10
1386.8514140573679
 20
6465.0181677225701
 30
0.0
  0
ENDBLK
  5
7E30
  8
0
  0
BLOCK
  8
0
  2
*D15
 70
     1
 10
0.0
 20
0.0
 30
0.0
  3
*D15
  1

  0
LINE
  5
82FC
  8
3
 62
     0
 10
952.57047864374897
 20
5708.6246307899628
 30
0.0
 11
819.00243646307808
 21
5708.6246307899628
 31
0.0
  0
LINE
  5
82FD
  8
3
 62
     0
 10
952.57047864374897
 20
5003.6246307899637
 30
0.0
 11
819.00243646307786
 21
5003.6246307899637
 31
0.0
  0
LINE
  5
82FE
  8
3
 62
     0
 10
849.00243646307797
 20
5648.6246307899637
 30
0.0
 11
849.00243646307797
 21
5063.6246307899637
 31
0.0
  0
INSERT
  5
82FF
  8
3
 62
     0
  2
_OPEN
 10
849.00243646307797
 20
5708.6246307899628
 30
0.0
 41
60.0
 42
60.0
 43
60.0
 50
90.0
  0
INSERT
  5
8300
  8
3
 62
     0
  2
_OPEN
 10
849.00243646307797
 20
5003.6246307899637
 30
0.0
 41
60.0
 42
60.0
 43
60.0
 50
270.0
  0
TEXT
  8
3
  40
90
  5
8358
  62
0
  72
0
  71
0
 10
594.002
 20
5149.65
 30
0.000000
  1
705
  0
POINT
  5
8302
  8
DEFPOINTS
 62
     0
 10
967.57047864374897
 20
5708.6246307899628
 30
0.0
  0
POINT
  5
8303
  8
DEFPOINTS
 62
     0
 10
967.57047864374897
 20
5003.6246307899637
 30
0.0
  0
POINT
  5
8304
  8
DEFPOINTS
 62
     0
 10
849.00243646307797
 20
5003.6246307899637
 30
0.0
  0
ENDBLK
  5
7E26
  8
0
  0
BLOCK
  8
0
  2
*D16
 70
     1
 10
0.0
 20
0.0
 30
0.0
  3
*D16
  1

  0
LINE
  5
8305
  8
3
 62
     0
 10
1972.5704786437479
 20
4988.6246307899628
 30
0.0
 11
1972.5704786437479
 21
4599.9055830525167
 31
0.0
  0
LINE
  5
8306
  8
3
 62
     0
 10
967.57047864374897
 20
4988.6246307899628
 30
0.0
 11
967.57047864374897
 21
4599.9055830525167
 31
0.0
  0
LINE
  5
8307
  8
3
 62
     0
 10
1912.5704786437491
 20
4629.9055830525176
 30
0.0
 11
1027.5704786437491
 21
4629.9055830525176
 31
0.0
  0
INSERT
  5
8308
  8
3
 62
     0
  2
_OPEN
 10
1972.5704786437479
 20
4629.9055830525176
 30
0.0
 41
60.0
 42
60.0
 43
60.0
  0
INSERT
  5
8309
  8
3
 62
     0
  2
_OPEN
 10
967.57047864374897
 20
4629.9055830525176
 30
0.0
 41
60.0
 42
60.0
 43
60.0
 50
180.0
  0
TEXT
  8
3
  40
90
  5
8359
  62
0
  72
0
  71
0
 10
1292.45
 20
4545.61
 30
0.000000
  1
1005
  0
POINT
  5
830B
  8
DEFPOINTS
 62
     0
 10
1972.5704786437479
 20
5003.6246307899637
 30
0.0
  0
POINT
  5
830C
  8
DEFPOINTS
 62
     0
 10
967.57047864374897
 20
5003.6246307899637
 30
0.0
  0
POINT
  5
830D
  8
DEFPOINTS
 62
     0
 10
967.57047864374897
 20
4629.9055830525176
 30
0.0
  0
ENDBLK
  5
7E01
  8
0
  0
BLOCK
  8
0
  2
*D17
 70
     1
 10
0.0
 20
0.0
 30
0.0
  3
*D17
  1

  0
LINE
  5
830E
  8
3
 62
     0
 10
1987.5704786437491
 20
5003.6246307899637
 30
0.0
 11
2490.9666865349968
 21
5003.6246307899628
 31
0.0
  0
LINE
  5
830F
  8
3
 62
     0
 10
2172.5704786437482
 20
5658.6246307899628
 30
0.0
 11
2490.9666865349982
 21
5658.6246307899628
 31
0.0
  0
LINE
  5
8310
  8
3
 62
     0
 10
2460.9666865349982
 20
5063.6246307899628
 30
0.0
 11
2460.9666865349982
 21
5598.6246307899637
 31
0.0
  0
INSERT
  5
8311
  8
3
 62
     0
  2
_OPEN
 10
2460.9666865349982
 20
5003.6246307899628
 30
0.0
 41
60.0
 42
60.0
 43
60.0
 50
270.0
  0
INSERT
  5
8312
  8
3
 62
     0
  2
_OPEN
 10
2460.9666865349982
 20
5658.6246307899628
 30
0.0
 41
60.0
 42
60.0
 43
60.0
 50
90.0
  0
TEXT
  8
3
  40
90
  5
835A
  62
0
  72
0
  71
0
 10
2205.97
 20
5149.65
 30
0.000000
  1
655
  0
POINT
  5
8314
  8
DEFPOINTS
 62
     0
 10
1972.5704786437479
 20
5003.6246307899637
 30
0.0
  0
POINT
  5
8315
  8
DEFPOINTS
 62
     0
 10
2157.5704786437491
 20
5658.6246307899628
 30
0.0
  0
POINT
  5
8316
  8
DEFPOINTS
 62
     0
 10
2460.9666865349982
 20
5658.6246307899628
 30
0.0
  0
ENDBLK
  5
7E3B
  8
0
  0
BLOCK
  8
0
  2
*D18
 70
     1
 10
0.0
 20
0.0
 30
0.0
  3
*D18
  1

  0
LINE
  5
8317
  8
3
 62
     0
 10
2172.5704786437482
 20
6298.6246307899637
 30
0.0
 11
2490.9666865349968
 21
6298.6246307899637
 31
0.0
  0
LINE
  5
8318
  8
3
 62
     0
 10
2460.9666865349968
 20
5718.6246307899637
 30
0.0
 11
2460.9666865349968
 21
6238.6246307899628
 31
0.0
  0
INSERT
  5
8319
  8
3
 62
     0
  2
_OPEN
 10
2460.9666865349968
 20
5658.6246307899628
 30
0.0
 41
60.0
 42
60.0
 43
60.0
 50
270.0
  0
INSERT
  5
831A
  8
3
 62
     0
  2
_OPEN
 10
2460.9666865349968
 20
6298.6246307899637
 30
0.0
 41
60.0
 42
60.0
 43
60.0
 50
90.0
  0
TEXT
  8
3
  40
90
  5
835B
  62
0
  72
0
  71
0
 10
2205.97
 20
5819.32
 30
0.000000
  1
640
  0
POINT
  5
831C
  8
DEFPOINTS
 62
     0
 10
2157.5704786437491
 20
5658.6246307899628
 30
0.0
  0
POINT
  5
831D
  8
DEFPOINTS
 62
     0
 10
2157.5704786437491
 20
6298.6246307899637
 30
0.0
  0
POINT
  5
831E
  8
DEFPOINTS
 62
     0
 10
2460.9666865349968
 20
6298.6246307899637
 30
0.0
  0
ENDBLK
  5
7E45
  8
0
  0
BLOCK
  8
0
  2
*D19
 70
     1
 10
0.0
 20
0.0
 30
0.0
  3
*D19
  1

  0
LINE
  5
831F
  8
3
 62
     0
 10
2207.5704786437491
 20
3157.4862267425892
 30
0.0
 11
2207.5704786437491
 21
4126.6437831295761
 31
0.0
  0
LINE
  5
8320
  8
3
 62
     0
 10
950.07047864374908
 20
2426.057898079082
 30
0.0
 11
950.07047864374908
 21
4126.6437831295761
 31
0.0
  0
LINE
  5
8321
  8
3
 62
     0
 10
2147.5704786437491
 20
4096.6437831295771
 30
0.0
 11
1010.070478643749
 21
4096.6437831295771
 31
0.0
  0
INSERT
  5
8322
  8
3
 62
     0
  2
_OPEN
 10
2207.5704786437491
 20
4096.6437831295771
 30
0.0
 41
60.0
 42
60.0
 43
60.0
  0
INSERT
  5
8323
  8
3
 62
     0
  2
_OPEN
 10
950.07047864374908
 20
4096.6437831295771
 30
0.0
 41
60.0
 42
60.0
 43
60.0
 50
180.0
  0
TEXT
  8
3
  40
90
  5
835C
  62
0
  72
0
  71
0
 10
1459.44
 20
4012.34
 30
0.000000
  1
1258
  0
POINT
  5
8325
  8
DEFPOINTS
 62
     0
 10
2207.5704786437491
 20
3142.4862267425892
 30
0.0
  0
POINT
  5
8326
  8
DEFPOINTS
 62
     0
 10
950.07047864374908
 20
2411.057898079082
 30
0.0
  0
POINT
  5
8327
  8
DEFPOINTS
 62
     0
 10
950.07047864374908
 20
4096.6437831295771
 30
0.0
  0
ENDBLK
  5
7FCF
  8
0
  0
BLOCK
  8
0
  2
*D20
 70
     1
 10
0.0
 20
0.0
 30
0.0
  3
*D20
  1

  0
LINE
  5
8328
  8
3
 62
     0
 10
967.57047864374897
 20
2061.057898079082
 30
0.0
 11
967.57047864374897
 21
1839.6276968897871
 31
0.0
  0
LINE
  5
8329
  8
3
 62
     0
 10
1707.5704786437491
 20
2061.057898079082
 30
0.0
 11
1707.5704786437491
 21
1839.6276968897871
 31
0.0
  0
LINE
  5
832A
  8
3
 62
     0
 10
1027.5704786437491
 20
1869.6276968897871
 30
0.0
 11
1647.5704786437491
 21
1869.6276968897871
 31
0.0
  0
INSERT
  5
832B
  8
3
 62
     0
  2
_OPEN
 10
967.57047864374897
 20
1869.6276968897871
 30
0.0
 41
60.0
 42
60.0
 43
60.0
 50
180.0
  0
INSERT
  5
832C
  8
3
 62
     0
  2
_OPEN
 10
1707.5704786437491
 20
1869.6276968897871
 30
0.0
 41
60.0
 42
60.0
 43
60.0
  0
TEXT
  8
3
  40
90
  5
835D
  62
0
  72
0
  71
0
 10
1157.74
 20
1785.33
 30
0.000000
  1
740
  0
POINT
  5
832E
  8
DEFPOINTS
 62
     0
 10
967.57047864374897
 20
2076.057898079082
 30
0.0
  0
POINT
  5
832F
  8
DEFPOINTS
 62
     0
 10
1707.5704786437491
 20
2076.057898079082
 30
0.0
  0
POINT
  5
8330
  8
DEFPOINTS
 62
     0
 10
1707.5704786437491
 20
1869.6276968897871
 30
0.0
  0
ENDBLK
  5
7E6B
  8
0
  0
BLOCK
  8
0
  2
*D21
 70
     1
 10
0.0
 20
0.0
 30
0.0
  3
*D21
  1

  0
LINE
  5
8331
  8
3
 62
     0
 10
2157.5704786437491
 20
2061.057898079082
 30
0.0
 11
2157.5704786437491
 21
1839.6276968897871
 31
0.0
  0
LINE
  5
8332
  8
3
 62
     0
 10
1767.5704786437491
 20
1869.6276968897871
 30
0.0
 11
2097.5704786437491
 21
1869.6276968897871
 31
0.0
  0
INSERT
  5
8333
  8
3
 62
     0
  2
_OPEN
 10
1707.5704786437491
 20
1869.6276968897871
 30
0.0
 41
60.0
 42
60.0
 43
60.0
 50
180.0
  0
INSERT
  5
8334
  8
3
 62
     0
  2
_OPEN
 10
2157.5704786437491
 20
1869.6276968897871
 30
0.0
 41
60.0
 42
60.0
 43
60.0
  0
TEXT
  8
3
  40
90
  5
835E
  62
0
  72
0
  71
0
 10
1752.57
 20
1785.33
 30
0.000000
  1
450
  0
POINT
  5
8336
  8
DEFPOINTS
 62
     0
 10
1707.5704786437491
 20
2076.057898079082
 30
0.0
  0
POINT
  5
8337
  8
DEFPOINTS
 62
     0
 10
2157.5704786437491
 20
2076.057898079082
 30
0.0
  0
POINT
  5
8338
  8
DEFPOINTS
 62
     0
 10
2157.5704786437491
 20
1869.6276968897871
 30
0.0
  0
ENDBLK
  5
806C
  8
0
  0
BLOCK
  8
0
  2
_DOT
 70
     0
 10
0.0
 20
0.0
 30
0.0
  3
_DOT
  1

  0
LINE
  5
807A
  8
0
  6
BYBLOCK
 62
     0
 10
0.0
 20
0.0
 30
0.0
 11
-1.0
 21
-0.0000000000000284
 31
0.0
  0
POLYLINE
  5
807B
  8
0
  6
BYBLOCK
 62
     0
 66
     1
 10
0.0
 20
0.0
 30
0.0
 70
     1
 40
0.1666666666666666
 41
0.1666666666666666
  0
VERTEX
  5
8341
  8
0
  6
BYBLOCK
 62
     0
 10
-0.0833333333333286
 20
-0.0000000000000284
 30
0.0
 42
1.0
  0
VERTEX
  5
8342
  8
0
  6
BYBLOCK
 62
     0
 10
0.0833333333333286
 20
-0.0000000000000284
 30
0.0
 42
1.0
  0
SEQEND
  5
8343
  8
0
  6
BYBLOCK
 62
     0
  0
ENDBLK
  5
7EEA
  8
0
  0
BLOCK
  8
0
  2
*D23
 70
     1
 10
0.0
 20
0.0
 30
0.0
  3
*D23
  1

  0
LINE
  5
8339
  8
3
 62
     0
 10
1669.5704786437491
 20
3647.057898079082
 30
0.0
 11
2871.6319007716052
 21
3647.057898079082
 31
0.0
  0
LINE
  5
833A
  8
3
 62
     0
 10
2841.6319007716038
 20
3201.057898079082
 30
0.0
 11
2841.6319007716038
 21
3587.057898079082
 31
0.0
  0
INSERT
  5
833B
  8
3
 62
     0
  2
_OPEN
 10
2841.6319007716038
 20
3141.057898079082
 30
0.0
 41
60.0
 42
60.0
 43
60.0
 50
270.0
  0
INSERT
  5
833C
  8
3
 62
     0
  2
_OPEN
 10
2841.6319007716038
 20
3647.057898079082
 30
0.0
 41
60.0
 42
60.0
 43
60.0
 50
90.0
  0
TEXT
  8
3
  40
90
  5
835F
  62
0
  72
0
  71
0
 10
2586.63
 20
3234.76
 30
0.000000
  1
506
  0
POINT
  5
833E
  8
DEFPOINTS
 62
     0
 10
2265.6001622878721
 20
3141.057898079082
 30
0.0
  0
POINT
  5
833F
  8
DEFPOINTS
 62
     0
 10
1654.5704786437491
 20
3647.057898079082
 30
0.0
  0
POINT
  5
8340
  8
DEFPOINTS
 62
     0
 10
2841.6319007716038
 20
3647.057898079082
 30
0.0
  0
ENDBLK
  5
7FF0
  8
0
  0
BLOCK
  8
0
  2
*D24
 70
     1
 10
0.0
 20
0.0
 30
0.0
  3
*D24
  1

  0
LINE
  5
8344
  8
3
 62
     0
 10
3795.5741014141399
 20
2061.057898079082
 30
0.0
 11
3795.5741014141399
 21
1842.763608661716
 31
0.0
  0
LINE
  5
8345
  8
3
 62
     0
 10
4770.5741014141404
 20
2061.057898079082
 30
0.0
 11
4770.5741014141404
 21
1842.763608661716
 31
0.0
  0
LINE
  5
8346
  8
3
 62
     0
 10
3855.5741014141399
 20
1872.763608661716
 30
0.0
 11
4710.5741014141413
 21
1872.763608661716
 31
0.0
  0
INSERT
  5
8347
  8
3
 62
     0
  2
_OPEN
 10
3795.5741014141399
 20
1872.763608661716
 30
0.0
 41
60.0
 42
60.0
 43
60.0
 50
180.0
  0
INSERT
  5
8348
  8
3
 62
     0
  2
_OPEN
 10
4770.5741014141404
 20
1872.763608661716
 30
0.0
 41
60.0
 42
60.0
 43
60.0
  0
TEXT
  8
3
  40
90
  5
8360
  62
0
  72
0
  71
0
 10
4103.07
 20
1788.46
 30
0.000000
  1
975
  0
POINT
  5
834A
  8
DEFPOINTS
 62
     0
 10
3795.5741014141399
 20
2076.057898079082
 30
0.0
  0
POINT
  5
834B
  8
DEFPOINTS
 62
     0
 10
4770.5741014141404
 20
2076.057898079082
 30
0.0
  0
POINT
  5
834C
  8
DEFPOINTS
 62
     0
 10
4770.5741014141404
 20
1872.763608661716
 30
0.0
  0
ENDBLK
  5
8264
  8
0
  0
BLOCK
  8
0
  2
*D25
 70
     1
 10
0.0
 20
0.0
 30
0.0
  3
*D25
  1

  0
LINE
  5
8268
  8
0
  6
BYBLOCK
 62
     0
 10
2172.5704786437482
 20
2176.057898079082
 30
0.0
 11
2873.650610100161
 21
2176.057898079082
 31
0.0
  0
LINE
  5
8269
  8
0
  6
BYBLOCK
 62
     0
 10
2172.5704786437482
 20
2271.057898079082
 30
0.0
 11
2873.650610100161
 21
2271.057898079082
 31
0.0
  0
LINE
  5
826A
  8
0
  6
BYBLOCK
 62
     0
 10
2843.650610100161
 20
2116.057898079082
 30
0.0
 11
2843.650610100161
 21
2056.057898079082
 31
0.0
  0
LINE
  5
826B
  8
0
  6
BYBLOCK
 62
     0
 10
2843.650610100161
 20
2331.057898079082
 30
0.0
 11
2843.650610100161
 21
2391.057898079082
 31
0.0
  0
TEXT
  5
826C
  8
3
 62
     0
 10
3017.2220386715899
 20
2092.8436123647962
 30
0.0
 40
90.0
  1
(95)
 50
90.0
  0
LINE
  5
826D
  8
0
  6
BYBLOCK
 62
     0
 10
2843.650610100161
 20
2176.057898079082
 30
0.0
 11
2843.650610100161
 21
2271.057898079082
 31
0.0
  0
INSERT
  5
826E
  8
0
  6
BYBLOCK
 62
     0
  2
_DOT
 10
2843.650610100161
 20
2176.057898079082
 30
0.0
 41
60.0
 42
60.0
 43
60.0
 50
90.0
  0
INSERT
  5
826F
  8
0
  6
BYBLOCK
 62
     0
  2
_OPEN
 10
2843.650610100161
 20
2271.057898079082
 30
0.0
 41
60.0
 42
60.0
 43
60.0
 50
270.0
  0
POINT
  5
8270
  8
DEFPOINTS
  6
BYBLOCK
 62
     0
 10
2157.5704786437491
 20
2176.057898079082
 30
0.0
  0
POINT
  5
8271
  8
DEFPOINTS
  6
BYBLOCK
 62
     0
 10
2157.5704786437491
 20
2271.057898079082
 30
0.0
  0
POINT
  5
8272
  8
DEFPOINTS
  6
BYBLOCK
 62
     0
 10
2843.650610100161
 20
2271.057898079082
 30
0.0
  0
ENDBLK
  5
8273
  8
0
  0
BLOCK
  8
0
  2
*D26
 70
     1
 10
0.0
 20
0.0
 30
0.0
  3
*D26
  1

  0
LINE
  5
8277
  8
0
  6
BYBLOCK
 62
     0
 10
1684.5704786437491
 20
3647.057898079082
 30
0.0
 11
3113.4908825683192
 21
3647.057898079082
 31
0.0
  0
LINE
  5
8278
  8
0
  6
BYBLOCK
 62
     0
 10
2172.5704786437482
 20
2076.057898079082
 30
0.0
 11
3113.4908825683192
 21
2076.057898079082
 31
0.0
  0
LINE
  5
8279
  8
0
  6
BYBLOCK
 62
     0
 10
3083.4908825683201
 20
3587.057898079082
 30
0.0
 11
3083.4908825683201
 21
2136.057898079082
 31
0.0
  0
INSERT
  5
827A
  8
0
  6
BYBLOCK
 62
     0
  2
_OPEN
 10
3083.4908825683201
 20
3647.057898079082
 30
0.0
 41
60.0
 42
60.0
 43
60.0
 50
90.0
  0
INSERT
  5
827B
  8
0
  6
BYBLOCK
 62
     0
  2
_OPEN
 10
3083.4908825683201
 20
2076.057898079082
 30
0.0
 41
60.0
 42
60.0
 43
60.0
 50
270.0
  0
TEXT
  5
827C
  8
3
 62
     0
 10
3014.9194539968912
 20
2662.2721837933682
 30
0.0
 40
90.0
  1
(1571)
 50
90.0
  0
POINT
  5
827D
  8
DEFPOINTS
  6
BYBLOCK
 62
     0
 10
1669.5704786437491
 20
3647.057898079082
 30
0.0
  0
POINT
  5
827E
  8
DEFPOINTS
  6
BYBLOCK
 62
     0
 10
2157.5704786437491
 20
2076.057898079082
 30
0.0
  0
POINT
  5
827F
  8
DEFPOINTS
  6
BYBLOCK
 62
     0
 10
3083.4908825683201
 20
2076.057898079082
 30
0.0
  0
ENDBLK
  5
8280
  8
0
  0
ENDSEC
  0
SECTION
  2
ENTITIES
  0
INSERT
  5
7AF9
  8
0
  2
YA_N
 10
2375.7491199319738
 20
5.0
 30
0.0
  0
LINE
  5
7AFB
  8
2
 10
2265.6001622878721
 20
3141.057898079082
 30
0.0
 11
1031.0697758807471
 21
3141.057898079082
 31
0.0
  0
ARC
  5
7AFC
  8
1
 10
1760.5704786437491
 20
3088.057898079082
 30
0.0
 40
665.0
 50
175.42872127646581
 51
243.0506460110056
  0
ARC
  5
7AFD
  8
1
 10
1654.5704786437491
 20
3088.057898079082
 30
0.0
 40
559.0
 50
84.55949116267756
 51
174.55949116267749
  0
ARC
  5
7AFE
  8
1
 10
1665.5704786437491
 20
3183.057898079082
 30
0.0
 40
464.0
 50
354.80663570260782
 51
84.80663570260775
  0
LINE
  5
7AFF
  8
1
 10
2207.5704786437491
 20
2340.057898079082
 30
0.0
 11
2207.5704786437491
 21
3154.057898079082
 31
0.0
  0
LINE
  5
7B00
  8
1
 10
2207.5704786437491
 20
3112.057898079082
 30
0.0
 11
2128.5728539339611
 21
3112.057898079082
 31
0.0
  0
LINE
  5
7B01
  8
1
 10
1968.33840654712
 20
2402.6870684854671
 30
0.0
 11
2207.5704786437491
 21
2382.057898079082
 31
0.0
  0
LINE
  5
7B02
  8
1
 10
2207.5704786437491
 20
2340.057898079082
 30
0.0
 11
2167.5704786437491
 21
2340.057898079082
 31
0.0
  0
LINE
  5
7B03
  8
1
 10
2207.5704786437491
 20
3154.057898079082
 30
0.0
 11
2167.5704786437491
 21
3154.057898079082
 31
0.0
  0
LINE
  5
7B04
  8
1
 10
2167.5704786437491
 20
2340.057898079082
 30
0.0
 11
2167.5704786437491
 21
3154.057898079082
 31
0.0
  0
LINE
  5
7B05
  8
1
 10
2204.5704786437482
 20
2340.057898079082
 30
0.0
 11
2204.5704786437482
 21
3154.057898079082
 31
0.0
  0
LINE
  5
7B06
  8
1
 10
2157.5704786437491
 20
2371.057898079082
 30
0.0
 11
2157.5704786437491
 21
2271.057898079082
 31
0.0
  0
LINE
  5
7B07
  8
1
 10
2157.5704786437491
 20
2371.057898079082
 30
0.0
 11
947.57047864374908
 21
2371.057898079082
 31
0.0
  0
LINE
  5
7B08
  8
1
 10
2157.5704786437491
 20
2271.057898079082
 30
0.0
 11
967.57047864374897
 21
2271.057898079082
 31
0.0
1001
ACAD
1000
ASC_BOUNDS
1002
{
1070
    19
1002
}
  0
LINE
  5
7B09
  8
1
 10
947.57047864374908
 20
2411.057898079082
 30
0.0
 11
947.57047864374908
 21
2371.057898079082
 31
0.0
  0
LINE
  5
7B0A
  8
2
 10
1707.5704786437479
 20
2076.057898079082
 30
0.0
 11
1707.5704786437491
 21
3717.4581320404241
 31
0.0
  0
LINE
  5
7B0B
  8
1
 10
1347.5704786437491
 20
2411.057898079082
 30
0.0
 11
947.57047864374908
 21
2411.057898079082
 31
0.0
  0
LINE
  5
7B0C
  8
1
 10
1347.5704786437491
 20
2371.057898079082
 30
0.0
 11
1347.5704786437491
 21
2411.057898079082
 31
0.0
  0
LINE
  5
7B0D
  8
1
 10
2157.5704786437491
 20
2176.057898079082
 30
0.0
 11
967.57047864374897
 21
2176.057898079082
 31
0.0
1001
ACAD
1000
ASC_BOUNDS
1002
{
1070
    19
1002
}
  0
LINE
  5
7B0E
  8
1
 10
2157.5704786437491
 20
2176.057898079082
 30
0.0
 11
2157.5704786437491
 21
2076.057898079082
 31
0.0
  0
LINE
  5
7B0F
  8
1
 10
967.57047864374897
 20
2176.057898079082
 30
0.0
 11
967.57047864374897
 21
2076.057898079082
 31
0.0
  0
LINE
  5
7B10
  8
2
 10
4770.5741014141404
 20
2076.057898079082
 30
0.0
 11
4770.5741014141404
 21
3851.7866783613649
 31
0.0
  0
LINE
  5
7B11
  8
2
 10
3650.646112690567
 20
3141.057898079082
 30
0.0
 11
5102.9395614708592
 21
3141.057898079082
 31
0.0
  0
LINE
  5
7B12
  8
1
 10
3795.5741014141399
 20
2371.057898079082
 30
0.0
 11
4463.5741014141404
 21
2371.057898079082
 31
0.0
  0
LINE
  5
7B13
  8
1
 10
3795.5741014141399
 20
2271.057898079082
 30
0.0
 11
5093.5514140573669
 21
2271.057898079082
 31
0.0
1001
ACAD
1000
ASC_BOUNDS
1002
{
1070
    19
1002
}
  0
LINE
  5
7B14
  8
1
 10
5037.8741014141387
 20
3536.057898079082
 30
0.0
 11
5038.5741014141404
 21
3536.057898079082
 31
0.0
  0
LINE
  5
7B15
  8
1
 10
5037.8741014141387
 20
2746.057898079082
 30
0.0
 11
5038.5741014141404
 21
2746.057898079082
 31
0.0
  0
LINE
  5
7B16
  8
2
 10
1707.5704786437491
 20
6353.7099191859561
 30
0.0
 11
1707.5704786437491
 21
4801.4800930230613
 31
0.0
  0
LINE
  5
7B17
  8
2
 10
1016.393108058797
 20
5980.6246307899628
 30
0.0
 11
2269.5906890252331
 21
5980.6246307899637
 31
0.0
  0
LINE
  5
7B18
  8
2
 10
3650.646112690567
 20
2621.057898079082
 30
0.0
 11
3912.9701648666878
 21
2621.057898079082
 31
0.0
  0
LINE
  5
7B19
  8
1
 10
5035.5741014141386
 20
3647.057898079081
 30
0.0
 11
5035.5741014141413
 21
3154.057898079082
 31
0.0
  0
LINE
  5
7B1A
  8
1
 10
4505.5741014141386
 20
3647.057898079081
 30
0.0
 11
4505.5741014141404
 21
3154.057898079082
 31
0.0
  0
POINT
  5
7B1B
  8
1
 10
2207.5704786437491
 20
2382.057898079082
 30
0.0
  0
POINT
  5
7B1C
  8
1
 10
2167.7530511082
 20
3141.057898079082
 30
0.0
  0
INSERT
  5
7B1D
  8
0
  2
YA_N
 10
1277.7242886368399
 20
-1095.3196821357051
 30
0.0
 41
20.0
 42
20.0
 43
20.0
  0
LINE
  5
7B1F
  8
1
 10
2157.5704786437491
 20
2076.057898079082
 30
0.0
 11
967.57047864374897
 21
2076.057898079082
 31
0.0
  0
LINE
  5
7B20
  8
1
 10
967.57047864374897
 20
2371.057898079082
 30
0.0
 11
967.57047864374897
 21
2271.057898079082
 31
0.0
  0
LINE
  5
7B28
  8
1
 10
1972.5704786437479
 20
2076.057898079082
 30
0.0
 11
1972.5704786437479
 21
2176.057898079082
 31
0.0
  0
LINE
  5
7B29
  8
1
 10
1972.5704786437479
 20
2271.057898079082
 30
0.0
 11
1972.5704786437479
 21
2371.057898079082
 31
0.0
  0
LINE
  5
7B2A
  8
1
 10
5077.5741014139894
 20
3154.057898079082
 30
0.0
 11
5077.5741014142277
 21
2340.057898079082
 31
0.0
  0
LINE
  5
7B2B
  8
1
 10
4463.5741014141404
 20
3154.057898079082
 30
0.0
 11
4463.5741014141404
 21
2340.057898079082
 31
0.0
  0
LINE
  5
7B2C
  8
1
 10
3832.5741014141399
 20
2371.057898079082
 30
0.0
 11
3832.5741014141399
 21
3081.057898079082
 31
0.0
  0
LINE
  5
7B2D
  8
1
 10
3832.5741014141399
 20
3081.057898079082
 30
0.0
 11
4402.5741014141404
 21
3081.057898079082
 31
0.0
  0
LINE
  5
7B2E
  8
1
 10
4402.5741014141404
 20
2371.057898079082
 30
0.0
 11
4402.5741014141404
 21
3081.057898079082
 31
0.0
  0
LINE
  5
7B2F
  8
1
 10
3795.5741014141399
 20
2076.057898079082
 30
0.0
 11
5090.5741014141413
 21
2076.057898079082
 31
0.0
  0
LINE
  5
7B30
  8
1
 10
3795.5741014141399
 20
2176.057898079082
 30
0.0
 11
5093.5514140573669
 21
2176.057898079082
 31
0.0
1001
ACAD
1000
ASC_BOUNDS
1002
{
1070
    19
1002
}
  0
LINE
  5
7B31
  8
1
 10
4502.6194761276847
 20
2076.057898079082
 30
0.0
 11
4502.6194761276847
 21
2176.057898079082
 31
0.0
  0
LINE
  5
7B32
  8
1
 10
3777.5741014141399
 20
3162.057898079082
 30
0.0
 11
3787.5741014141399
 21
3162.057898079082
 31
0.0
  0
LINE
  5
7B33
  8
1
 10
3777.5741014141399
 20
3120.057898079082
 30
0.0
 11
3787.5741014141399
 21
3120.057898079082
 31
0.0
  0
LINE
  5
7B34
  8
1
 10
3787.5741014141399
 20
3113.5578980790829
 30
0.0
 11
3787.5741014141399
 21
3168.557898079082
 31
0.0
  0
LINE
  5
7B38
  8
1
 10
3787.5741014141408
 20
3168.557898079082
 30
0.0
 11
4505.5741014141404
 21
3168.557898079082
 31
0.0
  0
LINE
  5
7B39
  8
1
 10
3787.574101414139
 20
3113.5578980790829
 30
0.0
 11
4463.5741014141404
 21
3113.557898079082
 31
0.0
  0
LINE
  5
7B3A
  8
1
 10
3676.5741014141399
 20
2542.057898079082
 30
0.0
 11
3676.5741014141399
 21
3293.457898079082
 31
0.0
  0
LINE
  5
7B3B
  8
1
 10
3777.5741014141399
 20
2542.057898079082
 30
0.0
 11
3777.5741014141399
 21
3293.457898079082
 31
0.0
  0
LINE
  5
7B3C
  8
1
 10
3825.0741014141399
 20
2471.057898079082
 30
0.0
 11
3825.0741014141399
 21
2491.057898079082
 31
0.0
  0
LINE
  5
7B3D
  8
1
 10
3625.0741014141399
 20
2471.057898079082
 30
0.0
 11
3625.0741014141399
 21
3361.057898079082
 31
0.0
  0
POINT
  5
7B3E
  8
1
 10
967.57047864374897
 20
2176.057898079082
 30
0.0
  0
POINT
  5
7B3F
  8
1
 10
967.57047864374897
 20
2271.057898079082
 30
0.0
  0
POINT
  5
7B40
  8
1
 10
967.57047864374897
 20
2176.057898079082
 30
0.0
  0
POINT
  5
7B41
  8
1
 10
967.57047864374897
 20
2076.057898079082
 30
0.0
  0
LINE
  5
7B42
  8
1
 10
1301.5704786437491
 20
2477.057898079082
 30
0.0
 11
1282.137978643749
 21
2530.4478980790832
 31
0.0
  0
LINE
  5
7B43
  8
1
 10
993.57047864374897
 20
2477.057898079082
 30
0.0
 11
1013.0030786437489
 21
2530.4478980790832
 31
0.0
  0
ARC
  5
7B44
  8
1
 10
1147.5704786437491
 20
2621.057898079082
 30
0.0
 40
162.0
 50
285.6481
 51
0.0
  0
ARC
  5
7B45
  8
1
 10
1147.5704786437491
 20
2621.057898079082
 30
0.0
 40
162.0
 50
0.0
 51
254.5427
  0
LINE
  5
7B46
  8
2
 10
1147.5704786437491
 20
2845.0416860264481
 30
0.0
 11
1147.5704786437491
 21
2340.4196217308968
 31
0.0
  0
LINE
  5
7B47
  8
1
 10
1103.8898786437489
 20
2465.057898079082
 30
0.0
 11
1191.2511786437481
 21
2465.057898079082
 31
0.0
  0
LINE
  5
7B48
  8
1
 10
1062.626578643748
 20
2483.113898079082
 30
0.0
 11
1054.4491786437491
 21
2474.9358980790821
 31
0.0
  0
LINE
  5
7B49
  8
1
 10
1040.357278643748
 20
2479.057898079082
 30
0.0
 11
995.57047864374908
 21
2479.057898079082
 31
0.0
  0
LINE
  5
7B4A
  8
1
 10
1013.320478643749
 20
2479.057898079082
 30
0.0
 11
1013.320478643749
 21
2461.057898079082
 31
0.0
  0
ARC
  5
7B4B
  8
1
 10
995.57047864374908
 20
2477.057898079082
 30
0.0
 40
2.0
 50
90.0
 51
180.0
  0
LINE
  5
7B4C
  8
1
 10
1020.570478643749
 20
2483.7868980790822
 30
0.0
 11
1020.570478643749
 21
2453.528898079082
 31
0.0
  0
LINE
  5
7B4D
  8
1
 10
993.57047864374897
 20
2461.057898079082
 30
0.0
 11
993.57047864374897
 21
2477.057898079082
 31
0.0
  0
LINE
  5
7B4E
  8
1
 10
1027.8204786437491
 20
2479.057898079082
 30
0.0
 11
1027.8204786437491
 21
2461.057898079082
 31
0.0
  0
ARC
  5
7B4F
  8
1
 10
1056.5704786437491
 20
2472.814898079082
 30
0.0
 40
3.0
 50
135.0
 51
180.0
  0
LINE
  5
7B50
  8
1
 10
1053.5704786437479
 20
2461.057898079082
 30
0.0
 11
1053.5704786437479
 21
2472.814898079082
 31
0.0
  0
ARC
  5
7B51
  8
1
 10
1042.4899786437491
 20
2491.2608980790819
 30
0.0
 40
8.0
 50
231.00689999999989
 51
315.0
  0
ARC
  5
7B52
  8
1
 10
1147.5704786437491
 20
2621.057898079082
 30
0.0
 40
175.0
 50
226.19290000000001
 51
231.00700000000001
  0
ARC
  5
7B53
  8
1
 10
1031.9676786437481
 20
2500.537898079082
 30
0.0
 40
8.0
 50
135.0
 51
226.19319999999991
  0
LINE
  5
7B54
  8
1
 10
1029.8257786437489
 20
2509.709898079082
 30
0.0
 11
1026.109778643749
 21
2505.9938980790821
 31
0.0
  0
ARC
  5
7B55
  8
1
 10
1040.357278643748
 20
2482.057898079082
 30
0.0
 40
3.0
 50
270.0
 51
315.0
  0
LINE
  5
7B56
  8
1
 10
1052.4592786437479
 20
2489.9168980790819
 30
0.0
 11
1042.478678643748
 21
2479.9358980790821
 31
0.0
  0
ARC
  5
7B57
  8
1
 10
1252.6510786437491
 20
2491.2608980790819
 30
0.0
 40
8.0
 50
225.0
 51
308.99310000000003
  0
LINE
  5
7B58
  8
1
 10
1254.783678643749
 20
2479.057898079082
 30
0.0
 11
1299.5704786437491
 21
2479.057898079082
 31
0.0
  0
LINE
  5
7B59
  8
1
 10
1232.5143786437491
 20
2483.113898079082
 30
0.0
 11
1240.6918786437491
 21
2474.9358980790821
 31
0.0
  0
ARC
  5
7B5A
  8
1
 10
1238.5704786437491
 20
2472.814898079082
 30
0.0
 40
3.0
 50
0.0
 51
45.0
  0
LINE
  5
7B5B
  8
1
 10
1241.5704786437491
 20
2461.057898079082
 30
0.0
 11
1241.5704786437491
 21
2472.814898079082
 31
0.0
  0
ARC
  5
7B5C
  8
1
 10
1254.783678643749
 20
2482.057898079082
 30
0.0
 40
3.0
 50
225.0
 51
270.0
  0
LINE
  5
7B5D
  8
1
 10
1252.7726786437479
 20
2479.825898079082
 30
0.0
 11
1242.681678643748
 21
2489.9168980790819
 31
0.0
  0
LINE
  5
7B5E
  8
1
 10
1267.3204786437491
 20
2479.057898079082
 30
0.0
 11
1267.3204786437491
 21
2461.057898079082
 31
0.0
  0
LINE
  5
7B5F
  8
1
 10
1281.8204786437491
 20
2479.057898079082
 30
0.0
 11
1281.8204786437491
 21
2461.057898079082
 31
0.0
  0
LINE
  5
7B60
  8
1
 10
1274.5704786437491
 20
2483.7868980790822
 30
0.0
 11
1274.5704786437491
 21
2453.528898079082
 31
0.0
  0
ARC
  5
7B61
  8
1
 10
1263.1733786437489
 20
2500.537898079082
 30
0.0
 40
8.0
 50
313.80680000000001
 51
45.0
  0
LINE
  5
7B62
  8
1
 10
1265.3151786437491
 20
2509.709898079082
 30
0.0
 11
1269.031178643748
 21
2505.9938980790821
 31
0.0
  0
ARC
  5
7B63
  8
1
 10
1147.5704786437491
 20
2621.057898079082
 30
0.0
 40
175.0
 50
308.99299999999988
 51
313.80709999999999
  0
ARC
  5
7B64
  8
1
 10
1299.5704786437491
 20
2477.057898079082
 30
0.0
 40
2.0
 50
0.0
 51
90.0
  0
LINE
  5
7B65
  8
1
 10
1301.5704786437491
 20
2461.057898079082
 30
0.0
 11
1301.5704786437491
 21
2477.057898079082
 31
0.0
  0
LINE
  5
7B66
  8
2
 10
946.2140410171487
 20
2621.057898079082
 30
0.0
 11
1343.9007738548571
 21
2621.057898079082
 31
0.0
  0
LINE
  5
7B67
  8
1
 10
1331.969484934812
 20
2461.057898079082
 30
0.0
 11
1207.5704786437491
 21
2461.057898079082
 31
0.0
  0
LINE
  5
7B68
  8
1
 10
950.07047864374908
 20
2411.057898079082
 30
0.0
 11
963.50259313980769
 21
2461.057898079082
 31
0.0
  0
LINE
  5
7B69
  8
1
 10
1345.0704786437491
 20
2411.057898079082
 30
0.0
 11
1331.969484934812
 21
2461.057898079082
 31
0.0
  0
LINE
  5
7B6A
  8
1
 10
1207.5704786437491
 20
2456.057898079082
 30
0.0
 11
1087.5704786437491
 21
2456.057898079082
 31
0.0
  0
LINE
  5
7B6B
  8
1
 10
1207.5704786437491
 20
2416.057898079082
 30
0.0
 11
1087.5704786437491
 21
2416.057898079082
 31
0.0
  0
LINE
  5
7B6C
  8
1
 10
1207.5704786437491
 20
2461.057898079082
 30
0.0
 11
1207.5704786437491
 21
2456.057898079082
 31
0.0
  0
LINE
  5
7B6D
  8
1
 10
1087.5704786437491
 20
2461.057898079082
 30
0.0
 11
1087.5704786437491
 21
2456.057898079082
 31
0.0
  0
LINE
  5
7B6E
  8
1
 10
1087.5704786437491
 20
2461.057898079082
 30
0.0
 11
963.50259313980769
 21
2461.057898079082
 31
0.0
  0
LINE
  5
7B6F
  8
1
 10
1207.5704786437491
 20
2416.057898079082
 30
0.0
 11
1207.5704786437491
 21
2411.057898079082
 31
0.0
  0
LINE
  5
7B70
  8
1
 10
1087.5704786437491
 20
2416.057898079082
 30
0.0
 11
1087.5704786437491
 21
2411.057898079082
 31
0.0
  0
CIRCLE
  5
7B71
  8
1
 10
1147.5704786437491
 20
2621.057898079082
 30
0.0
 40
79.0
  0
LINE
  5
7B72
  8
1
 10
3676.5741014141399
 20
2700.057898079082
 30
0.0
 11
3777.5741014141399
 21
2700.057898079082
 31
0.0
  0
LINE
  5
7B73
  8
1
 10
3676.5741014141399
 20
2542.057898079082
 30
0.0
 11
3777.5741014141399
 21
2542.057898079082
 31
0.0
  0
LINE
  5
7B74
  8
1
 10
3625.0741014141399
 20
2471.057898079082
 30
0.0
 11
3825.0741014141399
 21
2471.057898079082
 31
0.0
  0
LINE
  5
7B75
  8
1
 10
3825.0741014141399
 20
3341.057898079082
 30
0.0
 11
3825.0741014141399
 21
3361.057898079082
 31
0.0
  0
LINE
  5
7B76
  8
1
 10
1257.5704786437491
 20
6298.6246307899637
 30
0.0
 11
2157.5704786437491
 21
6298.6246307899637
 31
0.0
  0
LINE
  5
7B77
  8
1
 10
1972.5704786437479
 20
5658.6246307899628
 30
0.0
 11
2157.5704786437491
 21
5658.6246307899628
 31
0.0
  0
LINE
  5
7B78
  8
1
 10
2157.5704786437491
 20
6298.6246307899637
 30
0.0
 11
2157.5704786437491
 21
5658.6246307899646
 31
0.0
  0
LINE
  5
7B79
  8
1
 10
1257.5704786437491
 20
6298.6246307899637
 30
0.0
 11
1257.5704786437491
 21
6245.6246307899619
 31
0.0
  0
LINE
  5
7B7A
  8
1
 10
967.57047864374897
 20
5708.6246307899628
 30
0.0
 11
967.57047864374897
 21
5003.6246307899628
 31
0.0
  0
LINE
  5
7B7B
  8
1
 10
967.57047864374897
 20
5708.6246307899628
 30
0.0
 11
1257.5704786437491
 21
5708.6246307899628
 31
0.0
  0
LINE
  5
7B7C
  8
1
 10
967.57047864374897
 20
5003.6246307899637
 30
0.0
 11
1972.5704786437479
 21
5003.6246307899637
 31
0.0
  0
LINE
  5
7B7D
  8
1
 10
1972.5704786437479
 20
5658.6246307899628
 30
0.0
 11
1972.5704786437479
 21
5003.6246307899637
 31
0.0
  0
INSERT
  5
7B7E
  8
0
  2
YA_N
 10
1455.327808750855
 20
-1134.8543670562351
 30
0.0
 41
20.0
 42
20.0
 43
20.0
  0
LINE
  5
7B80
  8
1
 10
5038.5741014141404
 20
3536.057898079082
 30
0.0
 11
5038.5741014141404
 21
2340.057898079082
 31
0.0
  0
POINT
  5
7B81
  8
1
 10
2157.5704786437491
 20
2176.057898079082
 30
0.0
  0
POINT
  5
7B82
  8
1
 10
2157.5704786437491
 20
2076.057898079082
 30
0.0
  0
POINT
  5
7B83
  8
1
 10
2157.5704786437491
 20
2176.057898079082
 30
0.0
  0
POINT
  5
7B84
  8
1
 10
2157.5704786437491
 20
2271.057898079082
 30
0.0
  0
POINT
  5
7B85
  8
1
 10
5038.5741014141404
 20
3641.057898079082
 30
0.0
  0
POINT
  5
7B86
  8
1
 10
2157.5704786437491
 20
5658.6246307899628
 30
0.0
  0
POINT
  5
7B87
  8
1
 10
2157.5704786437491
 20
2176.057898079082
 30
0.0
  0
POINT
  5
7B88
  8
1
 10
2157.5704786437491
 20
2076.057898079082
 30
0.0
  0
POINT
  5
7B89
  8
1
 10
2157.5704786437491
 20
2176.057898079082
 30
0.0
  0
POINT
  5
7B8A
  8
1
 10
2157.5704786437491
 20
2271.057898079082
 30
0.0
  0
LINE
  5
7B8B
  8
1
 10
4505.5741014141386
 20
2382.057898079082
 30
0.0
 11
5035.5741014141413
 21
2382.057898079082
 31
0.0
  0
LINE
  5
7B8C
  8
1
 10
4463.5741014141404
 20
2340.057898079082
 30
0.0
 11
5077.5741014142277
 21
2340.057898079082
 31
0.0
  0
LINE
  5
7B8D
  8
1
 10
4505.5741014141404
 20
3112.057898079082
 30
0.0
 11
5035.5741014141413
 21
3112.057898079082
 31
0.0
  0
LINE
  5
7B8E
  8
1
 10
4463.5741014141404
 20
3154.057898079082
 30
0.0
 11
5077.5741014139894
 21
3154.057898079082
 31
0.0
  0
LINE
  5
7B8F
  8
1
 10
4505.5741014141404
 20
3112.057898079082
 30
0.0
 11
4505.5741014141404
 21
2340.057898079082
 31
0.0
  0
LINE
  5
7B90
  8
1
 10
5035.5741014141413
 20
3112.057898079082
 30
0.0
 11
5035.5741014141413
 21
2340.057898079082
 31
0.0
  0
POINT
  5
7B91
  8
1
 10
5038.5741014141404
 20
2340.057898079082
 30
0.0
  0
INSERT
  5
7B92
  8
0
  2
YA_N
 10
11334.47253219087
 20
150.26205665596169
 30
0.0
  0
LINE
  5
7B94
  8
1
 10
5022.9696024266323
 20
3538.557898079082
 30
0.0
 11
5055.0864442214761
 21
3538.557898079082
 31
0.0
  0
LINE
  5
7B95
  8
1
 10
5022.9696024266323
 20
2743.557898079082
 30
0.0
 11
5055.0864442214761
 21
2743.557898079082
 31
0.0
  0
CIRCLE
  5
7B96
  8
1
 10
1707.5704786437491
 20
3141.057898079082
 30
0.0
 40
152.40000000000001
  0
ARC
  5
7B97
  8
1
 10
1707.5704786437491
 20
3141.057898079082
 30
0.0
 40
220.0
 50
307.62328980529878
 51
138.13451740137819
  0
ARC
  5
7B98
  8
1
 10
1147.5704786437491
 20
2621.057898079082
 30
0.0
 40
150.0
 50
138.13451740137819
 51
307.62328980529878
  0
LINE
  5
7B9D
  8
1
 10
3676.5741014141399
 20
3293.457898079082
 30
0.0
 11
3777.5741014141399
 21
3293.457898079082
 31
0.0
  0
LINE
  5
7B9E
  8
1
 10
3676.5741014141399
 20
2988.6578980790819
 30
0.0
 11
3777.5741014141399
 21
2988.6578980790819
 31
0.0
  0
LINE
  5
7B9F
  8
1
 10
3625.0741014141399
 20
3361.057898079082
 30
0.0
 11
3825.0741014141399
 21
3361.057898079082
 31
0.0
  0
ARC
  5
7BA0
  8
1
 10
1707.5704786437491
 20
3141.057898079082
 30
0.0
 40
422.0
 50
356.05950665792182
 51
0.0
  0
LINE
  5
7BA1
  8
1
 10
5090.5741014141413
 20
2076.057898079082
 30
0.0
 11
5090.5741014141413
 21
2176.057898079082
 31
0.0
  0
LINE
  5
7BA2
  8
1
 10
5090.5741014141413
 20
2271.057898079082
 30
0.0
 11
5090.5741014141413
 21
2371.057898079082
 31
0.0
  0
LINE
  5
7BA3
  8
1
 10
4502.6194761276847
 20
2271.057898079082
 30
0.0
 11
4502.6194761276847
 21
2340.057898079082
 31
0.0
  0
LINE
  5
7BA4
  8
1
 10
3795.5741014141399
 20
2076.057898079082
 30
0.0
 11
3795.5741014141399
 21
2176.057898079082
 31
0.0
  0
LINE
  5
7BA5
  8
1
 10
3795.5741014141399
 20
2371.057898079082
 30
0.0
 11
3795.5741014141399
 21
2271.057898079082
 31
0.0
  0
LINE
  5
7BA7
  8
1
 10
985.57047864374897
 20
5113.6940963854804
 30
0.0
 11
985.57047864374897
 21
5355.9411363459012
 31
0.0
  0
LINE
  5
7BA8
  8
1
 10
985.57047864374897
 20
5519.2246882141708
 30
0.0
 11
985.57047864374897
 21
5045.1029683957513
 31
0.0
  0
LINE
  5
7BA9
  8
1
 10
1307.5704786437491
 20
5045.1029683957513
 30
0.0
 11
1307.5704786437491
 21
5519.2246882141708
 31
0.0
  0
LINE
  5
7BAA
  8
2
 10
1147.5704786437491
 20
5577.3686175523917
 30
0.0
 11
1147.5704786437491
 21
4893.2621017151287
 31
0.0
  0
LINE
  5
7BAB
  8
1
 10
1307.5704786437491
 20
5519.2246882141708
 30
0.0
 11
985.57047864374897
 21
5519.2246882141708
 31
0.0
  0
LINE
  5
7BAC
  8
1
 10
985.57047864374897
 20
5045.1029683957513
 30
0.0
 11
1307.5704786437491
 21
5045.1029683957513
 31
0.0
  0
LINE
  5
7BAD
  8
1
 10
1168.5704786437479
 20
4916.2246882131803
 30
0.0
 11
1168.5704786437479
 21
5026.2246882093086
 31
0.0
  0
LINE
  5
7BAE
  8
1
 10
1126.5704786437491
 20
4916.2246882131803
 30
0.0
 11
1126.5704786437479
 21
5026.2246882093086
 31
0.0
  0
LINE
  5
7BAF
  8
1
 10
1177.9917875895951
 20
5026.2246882093086
 30
0.0
 11
1119.1491696979019
 21
5026.2246882093086
 31
0.0
  0
LINE
  5
7BB0
  8
1
 10
1205.787927626347
 20
5034.2246882141708
 30
0.0
 11
1089.35302966115
 21
5034.2246882141708
 31
0.0
  0
LINE
  5
7BB1
  8
1
 10
1177.9917875895951
 20
5026.2246882093086
 30
0.0
 11
1177.991787589594
 21
5034.2246882141708
 31
0.0
  0
LINE
  5
7BB2
  8
1
 10
1205.787927626347
 20
5045.1029683957513
 30
0.0
 11
1205.787927626347
 21
5034.2246882141708
 31
0.0
  0
LINE
  5
7BB3
  8
1
 10
1089.35302966115
 20
5045.1029683957513
 30
0.0
 11
1089.35302966115
 21
5034.2246882141708
 31
0.0
  0
LINE
  5
7BB4
  8
1
 10
1119.1491696979019
 20
5026.2246882093086
 30
0.0
 11
1119.1491696979019
 21
5034.2246882141708
 31
0.0
  0
LINE
  5
7BB5
  8
1
 10
1126.5704786437491
 20
4916.2246882131803
 30
0.0
 11
1168.5704786437491
 21
4916.2246882131803
 31
0.0
  0
LINE
  5
7BB6
  8
1
 10
1680.0704786437479
 20
4997.6246307899646
 30
0.0
 11
1680.0704786437491
 21
5715.6246307899646
 31
0.0
  0
LINE
  5
7BB7
  8
1
 10
1735.0704786437479
 20
4997.6246307899637
 30
0.0
 11
1735.0704786437479
 21
5715.6246307899637
 31
0.0
  0
LINE
  5
7BB8
  8
1
 10
997.57047864374908
 20
4835.1246307899664
 30
0.0
 11
1927.5704786437491
 21
4835.1246307899628
 31
0.0
  0
LINE
  5
7BB9
  8
1
 10
1068.5704786437491
 20
4987.6246307899646
 30
0.0
 11
1859.9704786437489
 21
4987.6246307899628
 31
0.0
  0
LINE
  5
7BBA
  8
1
 10
1068.5704786437491
 20
4886.6246307899637
 30
0.0
 11
1859.9704786437489
 21
4886.6246307899628
 31
0.0
  0
LINE
  5
7BBC
  8
1
 10
1680.0704786437491
 20
4997.6246307899646
 30
0.0
 11
1735.0704786437479
 21
4997.6246307899628
 31
0.0
  0
LINE
  5
7BBD
  8
1
 10
997.57047864374908
 20
4835.1246307899628
 30
0.0
 11
997.57047864374908
 21
5035.1246307899628
 31
0.0
  0
LINE
  5
7BC0
  8
1
 10
1555.170478643749
 20
4886.6246307899628
 30
0.0
 11
1555.170478643749
 21
4987.6246307899628
 31
0.0
  0
LINE
  5
7BC1
  8
1
 10
1068.5704786437491
 20
4886.6246307899628
 30
0.0
 11
1068.5704786437491
 21
4987.6246307899646
 31
0.0
  0
LINE
  5
7BC2
  8
1
 10
1226.5704786437491
 20
4886.6246307899628
 30
0.0
 11
1226.5704786437491
 21
4987.6246307899628
 31
0.0
  0
LINE
  5
7BC3
  8
1
 10
1686.5704786437491
 20
4987.6246307899628
 30
0.0
 11
1686.5704786437491
 21
4997.6246307899637
 31
0.0
  0
LINE
  5
7BC4
  8
1
 10
1537.5704786437491
 20
5042.6246307899637
 30
0.0
 11
1680.0704786437491
 21
5042.6246307899637
 31
0.0
  0
LINE
  5
7BC5
  8
1
 10
997.57047864374908
 20
5035.1246307899628
 30
0.0
 11
1017.570478643749
 21
5035.1246307899628
 31
0.0
  0
LINE
  5
7BC6
  8
1
 10
1537.5704786437491
 20
5612.6246307899628
 30
0.0
 11
1680.0704786437491
 21
5612.6246307899628
 31
0.0
  0
LINE
  5
7BC7
  8
1
 10
1927.5704786437491
 20
4835.1246307899628
 30
0.0
 11
1927.5704786437491
 21
5035.1246307899628
 31
0.0
  0
LINE
  5
7BC9
  8
1
 10
1859.9704786437489
 20
4886.6246307899628
 30
0.0
 11
1859.9704786437489
 21
4987.6246307899628
 31
0.0
  0
LINE
  5
7BCA
  8
1
 10
1728.5704786437491
 20
4987.6246307899628
 30
0.0
 11
1728.5704786437491
 21
4997.6246307899637
 31
0.0
  0
LINE
  5
7BCB
  8
1
 10
1907.5704786437491
 20
5035.1246307899628
 30
0.0
 11
1927.5704786437491
 21
5035.1246307899628
 31
0.0
  0
LINE
  5
7BCD
  8
1
 10
2165.5704786437491
 20
5673.6246307899637
 30
0.0
 11
2207.5704786437491
 21
5673.6246307899637
 31
0.0
  0
LINE
  5
7BCE
  8
1
 10
2165.5704786437491
 20
6287.6246307900392
 30
0.0
 11
2207.5704786437491
 21
6287.624630790051
 31
0.0
  0
LINE
  5
7BD0
  8
1
 10
1037.5704786437491
 20
5708.6700055035089
 30
0.0
 11
1137.5704786437491
 21
5708.6700055035089
 31
0.0
  0
LINE
  5
7BD1
  8
1
 10
1095.5704786437491
 20
5715.6246307899637
 30
0.0
 11
1707.5704786437491
 21
5715.6246307899637
 31
0.0
  0
LINE
  5
7BD2
  8
1
 10
1162.5704786437491
 20
5708.6700055035089
 30
0.0
 11
1257.5704786437491
 21
5708.6700055035089
 31
0.0
  0
LINE
  5
7BD3
  8
1
 10
1095.5704786437491
 20
6245.6246307899619
 30
0.0
 11
1707.5704786437491
 21
6245.6246307899637
 31
0.0
  0
LINE
  5
7BD6
  8
1
 10
2207.5704786437491
 20
5673.6246307899637
 30
0.0
 11
2207.5704786437491
 21
6287.6246307900528
 31
0.0
  0
LINE
  5
7BD7
  8
1
 10
2165.5704786437491
 20
5673.6246307899637
 30
0.0
 11
2165.5704786437491
 21
6287.6246307900392
 31
0.0
  0
LINE
  5
7BD8
  8
1
 10
1707.5704786437491
 20
5715.6246307899637
 30
0.0
 11
2207.5704786437491
 21
5715.6246307899637
 31
0.0
  0
LINE
  5
7BD9
  8
1
 10
1707.5704786437491
 20
6245.6246307899637
 30
0.0
 11
2207.5704786437491
 21
6245.6246307899637
 31
0.0
  0
POINT
  5
7BDB
  8
1
 10
2207.5704786437491
 20
6248.6246307899637
 30
0.0
  0
POINT
  5
7BDC
  8
1
 10
2207.5704786437491
 20
6248.6246307899637
 30
0.0
  0
LINE
  5
7BDF
  8
1
 10
1735.0704786437479
 20
5612.6246307899628
 30
0.0
 11
1877.5704786437491
 21
5612.6246307899628
 31
0.0
  0
LINE
  5
7BE0
  8
1
 10
1735.0704786437479
 20
5042.6246307899637
 30
0.0
 11
1877.5704786437491
 21
5042.6246307899637
 31
0.0
  0
LINE
  5
7BE1
  8
1
 10
1095.5704786437491
 20
5715.6246307899637
 30
0.0
 11
1095.5704786437491
 21
6245.6246307899619
 31
0.0
  0
LINE
  5
7BE2
  8
1
 10
1257.5704786437491
 20
5715.6246307899637
 30
0.0
 11
1257.5704786437491
 21
5708.6246307899628
 31
0.0
  0
DIMENSION
  5
7BF5
  8
3
  2
*D2
 10
1707.5704786437491
 20
3876.6409738644138
 30
0.0
 11
1913.284764358034
 21
3876.6409738644138
 31
0.0
 70
   128
 13
2207.5704786437491
 23
3142.4862267425892
 33
0.0
 14
1707.5704786437491
 24
3717.4581320404241
 34
0.0
1001
ACAD
1000
DSTYLE
1002
{
1070
   287
1070
     3
1070
   287
1070
     3
1070
    40
1040
30.0
1070
   143
1040
0.039
1070
   172
1070
     1
1070
   271
1070
     0
1070
   279
1070
     0
1070
   288
1070
     1
1002
}
  0
DIMENSION
  5
7C01
  8
3
  2
*D3
 10
1095.5704786437491
 20
3876.6409738644138
 30
0.0
 11
1401.5704786437491
 21
3951.6409738644138
 31
0.0
 70
     0
 13
1707.5704786437491
 23
3717.4581320404241
 33
0.0
 14
1095.5704786437491
 24
2869.057898079082
 34
0.0
1001
ACAD
1000
DSTYLE
1002
{
1070
   287
1070
     4
1070
   287
1070
     4
1070
    40
1040
30.0
1070
    75
1070
     1
1070
   143
1040
0.039
1070
   172
1070
     1
1070
   271
1070
     0
1070
   279
1070
     1
1070
   288
1070
     1
1002
}
  0
DIMENSION
  5
7C0E
  8
3
  2
*D4
 10
2420.0999144083521
 20
3112.057898079082
 30
0.0
 11
2420.0999144083498
 21
2725.266127469507
 31
0.0
 70
   128
 13
2207.5704786437491
 23
2382.057898079082
 33
0.0
 14
2207.5704786437491
 24
3112.057898079082
 34
0.0
 50
90.0
1001
ACAD
1000
DSTYLE
1002
{
1070
   287
1070
     3
1070
   287
1070
     3
1070
    40
1040
30.0
1070
   143
1040
0.039
1070
   172
1070
     1
1070
   271
1070
     0
1070
   279
1070
     0
1070
   288
1070
     1
1002
}
  0
DIMENSION
  5
7C1B
  8
3
  2
*D5
 10
2601.002651491141
 20
3141.057898079082
 30
0.0
 11
2601.0026514911401
 21
2772.60632704523
 31
0.0
 70
   128
 13
2207.5704786437491
 23
2382.057898079082
 33
0.0
 14
2265.6001622878721
 24
3141.057898079082
 34
0.0
 50
90.0
1001
ACAD
1000
DSTYLE
1002
{
1070
   287
1070
     3
1070
   287
1070
     3
1070
    40
1040
30.0
1070
   143
1040
0.039
1070
   172
1070
     1
1070
   271
1070
     0
1070
   279
1070
     0
1070
   288
1070
     1
1002
}
  0
DIMENSION
  5
7C27
  8
3
  2
*D6
 10
2841.6319007716038
 20
2271.057898079082
 30
0.0
 11
2766.6319007716038
 21
2706.0578980790829
 31
0.0
 70
     0
 13
2265.6001622878721
 23
3141.057898079082
 33
0.0
 14
2157.5704786437491
 24
2271.057898079082
 34
0.0
 50
90.0
1001
ACAD
1000
DSTYLE
1002
{
1070
   287
1070
     3
1070
   287
1070
     3
1070
    40
1040
30.0
1070
   143
1040
0.039
1070
   172
1070
     1
1070
   271
1070
     0
1070
   279
1070
     0
1070
   288
1070
     1
1002
}
  0
DIMENSION
  5
7C47
  8
3
  2
*D7
 10
2841.6319007716038
 20
2076.057898079082
 30
0.0
 11
2766.6319007716038
 21
1818.9150409362251
 31
0.0
 70
     0
 13
2157.5704786437491
 23
2176.057898079082
 33
0.0
 14
2157.5704786437491
 24
2076.057898079082
 34
0.0
 50
90.0
1001
ACAD
1000
DSTYLE
1002
{
1070
   287
1070
     3
1070
   287
1070
     3
1070
    40
1040
30.0
1070
   143
1040
0.039
1070
   172
1070
     1
1070
   271
1070
     0
1070
   279
1070
     0
1070
   288
1070
     1
1070
     6
1000
DOT
1002
}
  0
DIMENSION
  5
7D02
  8
3
  2
*D8
 10
5090.5741014141413
 20
1874.540609766558
 30
0.0
 11
4930.5741014141413
 21
1952.8701268112311
 31
0.0
 12
0.0
 22
-98.254437845436769
 32
0.0
 70
   128
 13
4770.5741014141404
 23
1988.8875700406941
 33
0.0
 14
5090.5741014141413
 24
2076.057898079082
 34
0.0
1001
ACAD
1000
DSTYLE
1002
{
1070
   288
1070
     1
1070
   172
1070
     1
1070
    75
1070
     1
1070
    40
1040
30.0
1070
   271
1070
     0
1070
   143
1040
0.039
1002
}
  0
DIMENSION
  5
7D26
  8
3
  2
*D9
 10
5298.9003345986976
 20
2764.057898079082
 30
0.0
 11
5298.9003345986957
 21
3140.2215098139131
 31
0.0
 70
   128
 13
5038.5741014141404
 23
3518.057898079082
 33
0.0
 14
5038.5741014141404
 24
2764.057898079082
 34
0.0
 50
90.0
1001
ACAD
1000
DSTYLE
1002
{
1070
   287
1070
     3
1070
   287
1070
     3
1070
     3
1000
φ<>
1070
    40
1040
30.0
1070
   143
1040
0.039
1070
   172
1070
     1
1070
   271
1070
     0
1070
   279
1070
     0
1070
   288
1070
     1
1002
}
  0
DIMENSION
  5
7D3F
  8
3
  2
*D10
 10
4770.5741014141404
 20
4073.3570453619031
 30
0.0
 11
4911.1481842136009
 21
4157.0874372764811
 31
0.0
 70
   128
 13
5038.5741014141404
 23
3652.9212097012428
 33
0.0
 14
4770.5741014141404
 24
3969.0231135627232
 34
0.0
1001
ACAD
1000
DSTYLE
1002
{
1070
   288
1070
     1
1070
   172
1070
     1
1070
    40
1040
30.0
1070
   271
1070
     0
1070
   143
1040
0.039
1002
}
  0
DIMENSION
  5
7D61
  8
3
  2
*D11
 10
3625.0741014141399
 20
4073.3570453619031
 30
0.0
 11
4197.8241014141404
 21
4223.3570453619031
 31
0.0
 70
     0
  1
MAX\P1160
 13
4770.5741014141404
 23
3969.0231135627232
 33
0.0
 14
3625.0741014141399
 24
3361.057898079082
 34
0.0
1001
ACAD
1000
DSTYLE
1002
{
1070
   287
1070
     4
1070
   287
1070
     4
1070
    40
1040
30.0
1070
    75
1070
     1
1070
   143
1040
0.039
1070
   172
1070
     1
1070
   271
1070
     0
1070
   279
1070
     1
1070
   288
1070
     1
1002
}
  0
DIMENSION
  5
7D78
  8
3
  2
*D12
 10
5035.5741014141413
 20
3858.5409367861721
 30
0.0
 11
4769.6977271789547
 21
3858.5409367861721
 31
0.0
 70
   128
 13
4505.5741014141404
 23
3652.9212097012428
 33
0.0
 14
5035.5741014141413
 24
3652.9212097012428
 34
0.0
1001
ACAD
1000
DSTYLE
1002
{
1070
   287
1070
     3
1070
   287
1070
     3
1070
    40
1040
30.0
1070
   143
1040
0.039
1070
   172
1070
     1
1070
   271
1070
     0
1070
   279
1070
     0
1070
   288
1070
     1
1002
}
  0
DIMENSION
  5
7DC6
  8
3
  2
*D13
 10
1257.5704786437491
 20
6465.0181677225701
 30
0.0
 11
1708.3422787201521
 21
6465.0181677225701
 31
0.0
 70
   128
 13
2157.5704786437491
 23
6298.6246307899637
 33
0.0
 14
1257.5704786437491
 24
6298.6246307899637
 34
0.0
1001
ACAD
1000
DSTYLE
1002
{
1070
   287
1070
     3
1070
   287
1070
     3
1070
    40
1040
30.0
1070
   143
1040
0.039
1070
   172
1070
     1
1070
   271
1070
     0
1070
   279
1070
     0
1070
   288
1070
     1
1002
}
  0
DIMENSION
  5
7DD4
  8
3
  2
*D14
 10
967.57047864374897
 20
6465.0181677225701
 30
0.0
 11
1112.5704786437491
 21
6549.1976473153263
 31
0.0
 12
-419.28093541361881
 22
0.0
 32
0.0
 70
   128
 13
1257.5704786437491
 23
6298.6246307899637
 33
0.0
 14
967.57047864374897
 24
5708.6246307899628
 34
0.0
1001
ACAD
1000
DSTYLE
1002
{
1070
   288
1070
     1
1070
   172
1070
     1
1070
    75
1070
     1
1070
    40
1040
30.0
1070
   271
1070
     0
1070
   143
1040
0.039
1002
}
  0
DIMENSION
  5
7DF5
  8
3
  2
*D15
 10
849.00243646307797
 20
5003.6246307899637
 30
0.0
 11
849.00243646307706
 21
5308.9533645522424
 31
0.0
 70
   128
 13
967.57047864374897
 23
5708.6246307899628
 33
0.0
 14
967.57047864374897
 24
5003.6246307899637
 34
0.0
 50
90.0
1001
ACAD
1000
DSTYLE
1002
{
1070
   287
1070
     3
1070
   287
1070
     3
1070
    40
1040
30.0
1070
   143
1040
0.039
1070
   172
1070
     1
1070
   271
1070
     0
1070
   279
1070
     0
1070
   288
1070
     1
1002
}
  0
DIMENSION
  5
7E02
  8
3
  2
*D16
 10
967.57047864374897
 20
4629.9055830525176
 30
0.0
 11
1472.4450723158261
 21
4629.9055830525176
 31
0.0
 70
   128
 13
1972.5704786437479
 23
5003.6246307899637
 33
0.0
 14
967.57047864374897
 24
5003.6246307899637
 34
0.0
1001
ACAD
1000
DSTYLE
1002
{
1070
   287
1070
     3
1070
   287
1070
     3
1070
    40
1040
30.0
1070
   143
1040
0.039
1070
   172
1070
     1
1070
   271
1070
     0
1070
   279
1070
     0
1070
   288
1070
     1
1002
}
  0
DIMENSION
  5
7E0F
  8
3
  2
*D17
 10
2460.9666865349982
 20
5658.6246307899628
 30
0.0
 11
2460.9666865349968
 21
5308.9533645522424
 31
0.0
 70
   128
 13
1972.5704786437479
 23
5003.6246307899637
 33
0.0
 14
2157.5704786437491
 24
5658.6246307899628
 34
0.0
 50
90.0
1001
ACAD
1000
DSTYLE
1002
{
1070
   287
1070
     3
1070
   287
1070
     3
1070
    40
1040
30.0
1070
   143
1040
0.039
1070
   172
1070
     1
1070
   271
1070
     0
1070
   279
1070
     0
1070
   288
1070
     1
1002
}
  0
DIMENSION
  5
7E1B
  8
3
  2
*D18
 10
2460.9666865349968
 20
6298.6246307899637
 30
0.0
 11
2385.9666865349959
 21
5978.6246307899646
 31
0.0
 70
     0
 13
2157.5704786437491
 23
5658.6246307899628
 33
0.0
 14
2157.5704786437491
 24
6298.6246307899637
 34
0.0
 50
90.0
1001
ACAD
1000
DSTYLE
1002
{
1070
   287
1070
     4
1070
   287
1070
     4
1070
    40
1040
30.0
1070
    75
1070
     1
1070
   143
1040
0.039
1070
   172
1070
     1
1070
   271
1070
     0
1070
   279
1070
     1
1070
   288
1070
     1
1002
}
  0
DIMENSION
  5
7E52
  8
3
  2
*D19
 10
950.07047864374908
 20
4096.6437831295771
 30
0.0
 11
1639.4441324386969
 21
4096.6437831295771
 31
0.0
 70
   128
 13
2207.5704786437491
 23
3142.4862267425892
 33
0.0
 14
950.07047864374908
 24
2411.057898079082
 34
0.0
1001
ACAD
1000
DSTYLE
1002
{
1070
   287
1070
     3
1070
   287
1070
     3
1070
    40
1040
30.0
1070
   143
1040
0.039
1070
   172
1070
     1
1070
   271
1070
     0
1070
   279
1070
     0
1070
   288
1070
     1
1002
}
  0
DIMENSION
  5
7E6C
  8
3
  2
*D20
 10
1707.5704786437491
 20
1869.6276968897871
 30
0.0
 11
1337.7415687456121
 21
1869.6276968897871
 31
0.0
 70
   128
 13
967.57047864374897
 23
2076.057898079082
 33
0.0
 14
1707.5704786437491
 24
2076.057898079082
 34
0.0
1001
ACAD
1000
DSTYLE
1002
{
1070
   287
1070
     3
1070
   287
1070
     3
1070
    40
1040
30.0
1070
   143
1040
0.039
1070
   172
1070
     1
1070
   271
1070
     0
1070
   279
1070
     0
1070
   288
1070
     1
1002
}
  0
DIMENSION
  5
7E78
  8
3
  2
*D21
 10
2157.5704786437491
 20
1869.6276968897871
 30
0.0
 11
1932.5704786437491
 21
1944.6276968897871
 31
0.0
 70
     0
 13
1707.5704786437491
 23
2076.057898079082
 33
0.0
 14
2157.5704786437491
 24
2076.057898079082
 34
0.0
1001
ACAD
1000
DSTYLE
1002
{
1070
   287
1070
     4
1070
   287
1070
     4
1070
    40
1040
30.0
1070
    75
1070
     1
1070
   143
1040
0.039
1070
   172
1070
     1
1070
   271
1070
     0
1070
   279
1070
     1
1070
   288
1070
     1
1002
}
  0
LINE
  5
7E86
  8
4
 10
5966.6725910867463
 20
1500.0
 30
0.0
 11
5966.6725910867463
 21
900.0
 31
0.0
  0
LINE
  5
7E87
  8
4
 10
3450.0
 20
1500.0
 30
0.0
 11
3450.0
 21
900.0
 31
0.0
  0
LINE
  5
7E88
  8
4
 10
1950.0
 20
1500.0
 30
0.0
 11
1950.0
 21
900.0
 31
0.0
  0
LINE
  5
7E8B
  8
4
 10
1950.0
 20
900.0
 30
0.0
 11
5966.6725910867463
 21
900.0
 31
0.0
  0
LINE
  5
7E8C
  8
4
 10
1950.0
 20
1200.0
 30
0.0
 11
5966.6725910867463
 21
1200.0
 31
0.0
  0
TEXT
  5
7E8D
  8
4
 10
2065.5062425407041
 20
1294.629077599838
 30
0.0
 40
150.0
  1
機器名称
  0
TEXT
  5
7E8E
  8
4
 10
2058.7743180743919
 20
964.93547019603284
 30
0.0
 40
150.0
  1
機器型番
  0
TEXT
  5
7E8F
  8
4
 10
3533.036236462995
 20
1267.715306872705
 30
0.0
 40
150.0
  1
ミツヤ多翼送風機
  0
TEXT
  5
7E90
  8
4
 10
3559.9634867564419
 20
951.47875283983012
 30
0.0
 40
150.0
  1
MF＃4 1/2-1
  0
TEXT
  5
7E92
  8
4
 10
2452.306730691525
 20
7150.2865239975472
 30
0.0
 40
161.99999999999989
  1
床置防振ベット
  0
TEXT
  5
7E93
  8
4
 10
869.41375770422019
 20
7601.6429285978938
 30
0.0
 40
216.0
  1
遠心式片吸込片持多翼ファン
  0
LINE
  5
7E94
  8
4
 10
750.0
 20
7408.2262627944137
 30
0.0
 11
5550.0
 21
7408.2262627944137
 31
0.0
  0
LINE
  5
7E95
  8
4
 10
750.0
 20
8008.2262627944137
 30
0.0
 11
5550.0
 21
8008.2262627944137
 31
0.0
  0
LINE
  5
7E96
  8
4
 10
1950.0
 20
1500.0
 30
0.0
 11
5966.6725910867463
 21
1500.0
 31
0.0
  0
LINE
  5
7E97
  8
4
 10
750.0
 20
8008.2262627944137
 30
0.0
 11
750.0
 21
7408.2262627944137
 31
0.0
  0
TEXT
  5
7E98
  8
4
 10
1144.7302339634191
 20
7146.9584326390304
 30
0.0
 40
161.99999999999989
  1
左回転右横向
  0
TEXT
  5
7E99
  8
4
 10
4406.9086777478688
 20
8118.1832444859256
 30
0.0
 40
168.0
  1
No.
  0
TEXT
  5
7E9A
  8
4
 10
3933.8881878000388
 20
7150.2865239975472
 30
0.0
 40
161.99999999999989
  1
縮尺：1/30
  0
LINE
  5
7E9B
  8
4
 10
5550.0
 20
8008.2262627944137
 30
0.0
 11
5550.0
 21
7408.2262627944137
 31
0.0
  0
LINE
  5
7E9C
  8
4
 10
6300.0
 20
8850.0
 30
0.0
 11
6300.0
 21
8850.0
 31
0.0
  0
LINE
  5
7E9D
  8
4
 10
4321.8522670795937
 20
8043.790749376205
 30
0.0
 11
4321.8522670795937
 21
8359.9567846492573
 31
0.0
  0
LINE
  5
7E9E
  8
4
 10
4321.8522670795937
 20
8359.9567846492573
 30
0.0
 11
5550.0
 21
8359.9567846492573
 31
0.0
  0
LINE
  5
7E9F
  8
4
 10
5550.0
 20
8359.9567846492573
 30
0.0
 11
5550.0
 21
8043.790749376205
 31
0.0
  0
LINE
  5
7EA0
  8
4
 10
5550.0
 20
8043.790749376205
 30
0.0
 11
4321.8522670795937
 21
8043.790749376205
 31
0.0
  0
LINE
  5
7EA1
  8
4
 10
0.0
 20
0.0
 30
0.0
 11
0.0
 21
8850.0
 31
0.0
  0
LINE
  5
7EA2
  8
4
 10
0.0
 20
8850.0
 30
0.0
 11
6300.0
 21
8850.0
 31
0.0
  0
LINE
  5
7EA3
  8
4
 10
6300.0
 20
8850.0
 30
0.0
 11
6300.0
 21
0.0
 31
0.0
  0
LINE
  5
7EA4
  8
4
 10
6300.0
 20
0.0
 30
0.0
 11
0.0
 21
0.0
 31
0.0
  0
LINE
  5
7F65
  8
1
 10
1543.7334554651841
 20
3287.8823845790748
 30
0.0
 11
1035.863417385636
 21
2721.1655025108962
 31
0.0
  0
LINE
  5
7F66
  8
1
 10
1841.873255246971
 20
2966.8087540448432
 30
0.0
 11
1239.1405536004911
 21
2502.251663510282
 31
0.0
  0
LINE
  5
7F67
  8
1
 10
1593.622718517757
 20
3242.2590243686118
 30
0.0
 11
1088.5030701794881
 21
2673.5177995021322
 31
0.0
  0
LINE
  5
7F68
  8
1
 10
1800.0653291807
 20
3019.9362128854432
 30
0.0
 11
1195.5172843682831
 21
2558.2717226834288
 31
0.0
  0
DIMENSION
  5
7FE6
  8
3
  2
*D23
 10
2841.6319007716038
 20
3647.057898079082
 30
0.0
 11
2766.6319007716029
 21
3394.0578980790829
 31
0.0
 70
     0
 13
2265.6001622878721
 23
3141.057898079082
 33
0.0
 14
1654.5704786437491
 24
3647.057898079082
 34
0.0
 50
90.0
1001
ACAD
1000
DSTYLE
1002
{
1070
   287
1070
     4
1070
   287
1070
     4
1070
    40
1040
30.0
1070
    75
1070
     1
1070
   143
1040
0.039
1070
   172
1070
     1
1070
   271
1070
     0
1070
   279
1070
     1
1070
   288
1070
     1
1002
}
  0
LINE
  5
8009
  8
1
 10
4505.5741014141386
 20
3647.057898079081
 30
0.0
 11
5035.5741014141413
 21
3647.057898079082
 31
0.0
  0
LINE
  5
8034
  8
1
 10
5077.5741014142177
 20
2371.057898079082
 30
0.0
 11
5090.5741014141413
 21
2371.057898079082
 31
0.0
  0
LINE
  5
8035
  8
1
 10
4505.5741014141404
 20
3112.057898079082
 30
0.0
 11
5035.5741014141413
 21
2382.057898079082
 31
0.0
  0
LINE
  5
8036
  8
1
 10
5035.5741014141413
 20
3112.057898079082
 30
0.0
 11
4505.5741014141404
 21
2382.057898079082
 31
0.0
  0
DIMENSION
  5
8265
  8
3
  2
*D24
 10
4770.5741014141404
 20
1872.763608661716
 30
0.0
 11
4283.0741014141404
 21
1947.763608661716
 31
0.0
 70
     0
 13
3795.5741014141399
 23
2076.057898079082
 33
0.0
 14
4770.5741014141404
 24
2076.057898079082
 34
0.0
1001
ACAD
1000
DSTYLE
1002
{
1070
   287
1070
     3
1070
    40
1040
30.0
1070
   143
1040
0.039
1070
   172
1070
     1
1070
   271
1070
     0
1070
   279
1070
     0
1002
}
  0
DIMENSION
  5
8274
  8
3
  2
*D25
 10
2843.650610100161
 20
2271.057898079082
 30
0.0
 11
2987.222038671589
 21
2223.557898079082
 31
0.0
 70
     0
 13
2157.5704786437491
 23
2176.057898079082
 33
0.0
 14
2157.5704786437491
 24
2271.057898079082
 34
0.0
 50
90.0
1001
ACAD
1000
DSTYLE
1002
{
1070
   172
1070
     1
1070
    40
1040
30.0
1070
     3
1000
(<>)
1070
   271
1070
     0
1070
     7
1000
_OPEN
1070
     6
1000
_DOT
1070
   143
1040
0.039
1002
}
  0
DIMENSION
  5
8281
  8
3
  2
*D26
 10
3083.4908825683201
 20
2076.057898079082
 30
0.0
 11
2984.9194539968912
 21
2861.557898079082
 31
0.0
 70
     0
 13
1669.5704786437491
 23
3647.057898079082
 33
0.0
 14
2157.5704786437491
 24
2076.057898079082
 34
0.0
 50
90.0
1001
ACAD
1000
DSTYLE
1002
{
1070
   172
1070
     1
1070
    40
1040
30.0
1070
     3
1000
(<>)
1070
   271
1070
     0
1070
     7
1000
_OPEN
1070
     6
1000
_OPEN
1070
   143
1040
0.039
1002
}
  0
LINE
  5
8286
  8
1
 10
1537.5704786437479
 20
3081.057898079082
 30
0.0
 11
1877.5704786437491
 21
3081.057898079082
 31
0.0
  0
LINE
  5
8288
  8
1
 10
1877.5704786437491
 20
3081.057898079082
 30
0.0
 11
1972.5704786437479
 21
2371.057898079082
 31
0.0
  0
LINE
  5
8289
  8
1
 10
1537.5704786437479
 20
3081.057898079082
 30
0.0
 11
1442.5704786437479
 21
2371.057898079082
 31
0.0
  0
LINE
  5
828A
  8
1
 10
1537.5704786437491
 20
5612.6246307899628
 30
0.0
 11
1537.5704786437491
 21
5042.6246307899637
 31
0.0
  0
LINE
  5
828B
  8
1
 10
1877.5704786437491
 20
5612.6246307899628
 30
0.0
 11
1877.5704786437491
 21
5042.6246307899637
 31
0.0
  0
ENDSEC
  0
EOF
