  0
SECTION
  2
HEADER
  9
$ACADVER
  1
AC1009
  9
$INSBASE
 10
0.0
 20
0.0
 30
0.0
  9
$EXTMIN
 10
0.0
 20
0.0
 30
0.0
  9
$EXTMAX
 10
6300.0
 20
8850.0
 30
0.0
  9
$LIMMIN
 10
0.0
 20
0.0
  9
$LIMMAX
 10
297.0
 20
210.0
  9
$ORTHOMODE
 70
     0
  9
$REGENMODE
 70
     1
  9
$FILLMODE
 70
     0
  9
$QTEXTMODE
 70
     0
  9
$MIRRTEXT
 70
     1
  9
$DRAGMODE
 70
     2
  9
$LTSCALE
 40
100.0
  9
$OSMODE
 70
    37
  9
$ATTMODE
 70
     1
  9
$TEXTSIZE
 40
180.0
  9
$TRACEWID
 40
0.05
  9
$TEXTSTYLE
  7
STANDARD
  9
$CLAYER
  8
3
  9
$CELTYPE
  6
BYLAYER
  9
$CECOLOR
 62
   256
  9
$DIMSCALE
 40
30.0
  9
$DIMASZ
 40
2.0
  9
$DIMEXO
 40
0.5
  9
$DIMDLI
 40
10.0
  9
$DIMRND
 40
0.0
  9
$DIMDLE
 40
0.0
  9
$DIMEXE
 40
1.0
  9
$DIMTP
 40
1.0
  9
$DIMTM
 40
1.0
  9
$DIMTXT
 40
3.0
  9
$DIMCEN
 40
0.0
  9
$DIMTSZ
 40
0.0
  9
$DIMTOL
 70
     0
  9
$DIMLIM
 70
     0
  9
$DIMTIH
 70
     0
  9
$DIMTOH
 70
     0
  9
$DIMSE1
 70
     0
  9
$DIMSE2
 70
     0
  9
$DIMTAD
 70
     1
  9
$DIMZIN
 70
     8
  9
$DIMBLK
  1

  9
$DIMASO
 70
     1
  9
$DIMSHO
 70
     1
  9
$DIMPOST
  1

  9
$DIMAPOST
  1

  9
$DIMALT
 70
     0
  9
$DIMALTD
 70
     2
  9
$DIMALTF
 40
0.039
  9
$DIMLFAC
 40
1.0
  9
$DIMTOFL
 70
     1
  9
$DIMTVP
 40
0.0
  9
$DIMTIX
 70
     0
  9
$DIMSOXD
 70
     0
  9
$DIMSAH
 70
     1
  9
$DIMBLK1
  1
OPEN
  9
$DIMBLK2
  1
OPEN
  9
$DIMSTYLE
  2
IGA
  9
$DIMCLRD
 70
     0
  9
$DIMCLRE
 70
     0
  9
$DIMCLRT
 70
     0
  9
$DIMTFAC
 40
10.0
  9
$DIMGAP
 40
1.0
  9
$LUNITS
 70
     2
  9
$LUPREC
 70
     3
  9
$SKETCHINC
 40
0.1
  9
$FILLETRAD
 40
50.0
  9
$AUNITS
 70
     0
  9
$AUPREC
 70
     0
  9
$MENU
  1
acad
  9
$ELEVATION
 40
0.0
  9
$PELEVATION
 40
0.0
  9
$THICKNESS
 40
0.0
  9
$LIMCHECK
 70
     0
  9
$BLIPMODE
 70
     0
  9
$CHAMFERA
 40
0.5
  9
$CHAMFERB
 40
0.5
  9
$SKPOLY
 70
     0
  9
$TDCREATE
 40
2452717.6036704858
  9
$TDUPDATE
 40
2454953.7570133451
  9
$TDINDWG
 40
0.0251940509
  9
$TDUSRTIMER
 40
0.0251940509
  9
$USRTIMER
 70
     1
  9
$ANGBASE
 50
0.0
  9
$ANGDIR
 70
     0
  9
$PDMODE
 70
     0
  9
$PDSIZE
 40
0.0
  9
$PLINEWID
 40
0.0
  9
$COORDS
 70
     1
  9
$SPLFRAME
 70
     0
  9
$SPLINETYPE
 70
     6
  9
$SPLINESEGS
 70
     8
  9
$ATTDIA
 70
     0
  9
$ATTREQ
 70
     1
  9
$HANDLING
 70
 10241
  9
$HANDSEED
  5
80A7
  9
$SURFTAB1
 70
     6
  9
$SURFTAB2
 70
     6
  9
$SURFTYPE
 70
     6
  9
$SURFU
 70
     6
  9
$SURFV
 70
     6
  9
$UCSNAME
  2

  9
$UCSORG
 10
0.0
 20
0.0
 30
0.0
  9
$UCSXDIR
 10
1.0
 20
0.0
 30
0.0
  9
$UCSYDIR
 10
0.0
 20
1.0
 30
0.0
  9
$PUCSNAME
  2

  9
$PUCSORG
 10
0.0
 20
0.0
 30
0.0
  9
$PUCSXDIR
 10
1.0
 20
0.0
 30
0.0
  9
$PUCSYDIR
 10
0.0
 20
1.0
 30
0.0
  9
$USERI1
 70
     0
  9
$USERI2
 70
     0
  9
$USERI3
 70
     0
  9
$USERI4
 70
     0
  9
$USERI5
 70
     0
  9
$USERR1
 40
0.0
  9
$USERR2
 40
0.0
  9
$USERR3
 40
0.0
  9
$USERR4
 40
0.0
  9
$USERR5
 40
0.0
  9
$WORLDVIEW
 70
     1
  9
$SHADEDGE
 70
     3
  9
$SHADEDIF
 70
    70
  9
$TILEMODE
 70
     1
  9
$MAXACTVP
 70
    16
  9
$PLIMCHECK
 70
     0
  9
$PEXTMIN
 10
1.0000000000000000E+020
 20
1.0000000000000000E+020
 30
1.0000000000000000E+020
  9
$PEXTMAX
 10
-1.0000000000000000E+020
 20
-1.0000000000000000E+020
 30
-1.0000000000000000E+020
  9
$PLIMMIN
 10
0.0
 20
0.0
  9
$PLIMMAX
 10
12.0
 20
9.0
  9
$UNITMODE
 70
     0
  9
$VISRETAIN
 70
     0
  9
$PLINEGEN
 70
     0
  9
$PSLTSCALE
 70
     1
  0
ENDSEC
  0
SECTION
  2
TABLES
  0
TABLE
  2
VPORT
 70
     2
  0
VPORT
  2
*ACTIVE
 70
     0
 10
0.0
 20
0.0
 11
1.0
 21
1.0
 12
10609.8298765541
 22
4425.0000206055138
 13
0.0
 23
0.0
 14
10.0
 24
10.0
 15
10.0
 25
10.0
 16
0.0
 26
0.0
 36
1.0
 17
0.0
 27
0.0
 37
0.0
 40
8917.8446490508068
 41
3.1666666666666661
 42
50.0
 43
0.0
 44
0.0
 50
0.0
 51
0.0
 71
     0
 72
   100
 73
     1
 74
     0
 75
     0
 76
     0
 77
     0
 78
     0
  0
ENDTAB
  0
TABLE
  2
LTYPE
 70
     2
  0
LTYPE
  2
CONTINUOUS
 70
     0
  3
Solid line
 72
    65
 73
     0
 40
0.0
  0
LTYPE
  2
CENTER
 70
     0
  3
____ _ ____ _ ____ _ ____ _ ____ _ ____ _ ____ 
 72
    65
 73
     4
 40
2.0
 49
1.25
 49
-0.25
 49
0.25
 49
-0.25
  0
ENDTAB
  0
TABLE
  2
LAYER
 70
     6
  0
LAYER
  2
0
 70
     0
 62
     7
  6
CONTINUOUS
  0
LAYER
  2
3
 70
     0
 62
     2
  6
CONTINUOUS
  0
LAYER
  2
2
 70
     0
 62
     3
  6
CENTER
  0
LAYER
  2
1
 70
     0
 62
     4
  6
CONTINUOUS
  0
LAYER
  2
4
 70
     0
 62
     7
  6
CONTINUOUS
  0
LAYER
  2
DEFPOINTS
 70
     0
 62
     7
  6
CONTINUOUS
  0
ENDTAB
  0
TABLE
  2
STYLE
 70
     1
  0
STYLE
  2
STANDARD
 70
     0
 40
0.0
 41
1.0
 50
0.0
 71
     0
 42
180.0
  3
simplex.shx
  4
extfont.shx
  0
ENDTAB
  0
TABLE
  2
VIEW
 70
     0
  0
ENDTAB
  0
TABLE
  2
UCS
 70
     0
  0
ENDTAB
  0
TABLE
  2
APPID
 70
     1
  0
APPID
  2
ACAD
 70
     0
  0
ENDTAB
  0
TABLE
  2
DIMSTYLE
 70
     1
  0
DIMSTYLE
  2
IGA
 70
     0
  3

  4

  5

  6
OPEN
  7
OPEN
 40
2.0
 41
2.0
 42
0.5
 43
10.0
 44
1.0
 45
0.0
 46
0.0
 47
1.0
 48
1.0
140
3.0
141
0.0
142
0.0
143
0.03937
144
1.0
145
0.0
146
10.0
147
1.0
 71
     0
 72
     0
 73
     0
 74
     0
 75
     0
 76
     0
 77
     1
 78
     8
170
     0
171
     2
172
     0
173
     1
174
     0
175
     0
176
     0
177
     0
178
     0
  0
ENDTAB
  0
ENDSEC
  0
SECTION
  2
BLOCKS
  0
BLOCK
  8
0
  2
$MODEL_SPACE
 70
     0
 10
0.0
 20
0.0
 30
0.0
  3
$MODEL_SPACE
  1

  0
ENDBLK
  5
1B
  8
0
  0
BLOCK
 67
     1
  8
0
  2
$PAPER_SPACE
 70
     0
 10
0.0
 20
0.0
 30
0.0
  3
$PAPER_SPACE
  1

  0
ENDBLK
  5
18
 67
     1
  8
0
  0
BLOCK
  8
0
  2
YA_N
 70
     0
 10
0.0
 20
0.0
 30
0.0
  3
YA_N
  1

  0
ENDBLK
  5
79FE
  8
0
  0
BLOCK
  8
0
  2
_OPEN
 70
     0
 10
0.0
 20
0.0
 30
0.0
  3
_OPEN
  1

  0
LINE
  5
7BE5
  8
0
  6
BYBLOCK
 62
     0
 10
-1.0
 20
0.1666666666666666
 30
0.0
 11
0.0
 21
0.0
 31
0.0
  0
LINE
  5
7BE6
  8
0
  6
BYBLOCK
 62
     0
 10
0.0
 20
0.0
 30
0.0
 11
-1.0
 21
-0.1666666666666666
 31
0.0
  0
LINE
  5
7BE7
  8
0
  6
BYBLOCK
 62
     0
 10
0.0
 20
0.0
 30
0.0
 11
-1.0
 21
0.0
 31
0.0
  0
ENDBLK
  5
7BE8
  8
0
  0
BLOCK
  8
0
  2
*D2
 70
     1
 10
0.0
 20
0.0
 30
0.0
  3
*D2
  1

  0
LINE
  5
7FE9
  8
3
 62
     0
 10
2207.5704786437491
 20
3660.3123359245192
 30
0.0
 11
2207.5704786437491
 21
3861.508865207601
 31
0.0
  0
LINE
  5
7FEA
  8
3
 62
     0
 10
1707.5704786437491
 20
3687.3260233836099
 30
0.0
 11
1707.5704786437491
 21
3861.508865207601
 31
0.0
  0
LINE
  5
7FEB
  8
3
 62
     0
 10
2147.5704786437491
 20
3831.508865207601
 30
0.0
 11
1767.5704786437491
 21
3831.508865207601
 31
0.0
  0
INSERT
  5
7FEC
  8
3
 62
     0
  2
_OPEN
 10
2207.5704786437491
 20
3831.508865207601
 30
0.0
 41
60.0
 42
60.0
 43
60.0
  0
INSERT
  5
7FED
  8
3
 62
     0
  2
_OPEN
 10
1707.5704786437491
 20
3831.508865207601
 30
0.0
 41
60.0
 42
60.0
 43
60.0
 50
180.0
  0
TEXT
  8
3
  40
90
  5
8093
  62
0
  72
0
  71
0
 10
1733.28
 20
3747.21
 30
0.000000
  1
500
  0
POINT
  5
7FEF
  8
DEFPOINTS
 62
     0
 10
2207.5704786437491
 20
3645.3123359245178
 30
0.0
  0
POINT
  5
7FF0
  8
DEFPOINTS
 62
     0
 10
1707.5704786437491
 20
3672.3260233836108
 30
0.0
  0
POINT
  5
7FF1
  8
DEFPOINTS
 62
     0
 10
1707.5704786437491
 20
3831.508865207601
 30
0.0
  0
ENDBLK
  5
7BF4
  8
0
  0
BLOCK
  8
0
  2
*D3
 70
     1
 10
0.0
 20
0.0
 30
0.0
  3
*D3
  1

  0
LINE
  5
7FF2
  8
3
 62
     0
 10
1095.5704786437491
 20
2912.3123359245192
 30
0.0
 11
1095.5704786437491
 21
3861.508865207601
 31
0.0
  0
LINE
  5
7FF3
  8
3
 62
     0
 10
1647.5704786437491
 20
3831.508865207601
 30
0.0
 11
1155.5704786437491
 21
3831.508865207601
 31
0.0
  0
INSERT
  5
7FF4
  8
3
 62
     0
  2
_OPEN
 10
1707.5704786437491
 20
3831.508865207601
 30
0.0
 41
60.0
 42
60.0
 43
60.0
  0
INSERT
  5
7FF5
  8
3
 62
     0
  2
_OPEN
 10
1095.5704786437491
 20
3831.508865207601
 30
0.0
 41
60.0
 42
60.0
 43
60.0
 50
180.0
  0
TEXT
  8
3
  40
90
  5
8094
  62
0
  72
0
  71
0
 10
1221.57
 20
3747.21
 30
0.000000
  1
612
  0
POINT
  5
7FF7
  8
DEFPOINTS
 62
     0
 10
1707.5704786437491
 20
3672.3260233836108
 30
0.0
  0
POINT
  5
7FF8
  8
DEFPOINTS
 62
     0
 10
1095.5704786437491
 20
2897.3123359245192
 30
0.0
  0
POINT
  5
7FF9
  8
DEFPOINTS
 62
     0
 10
1095.5704786437491
 20
3831.508865207601
 30
0.0
  0
ENDBLK
  5
7C00
  8
0
  0
BLOCK
  8
0
  2
*D4
 70
     1
 10
0.0
 20
0.0
 30
0.0
  3
*D4
  1

  0
LINE
  5
7FFA
  8
3
 62
     0
 10
2222.5704786437491
 20
3603.3123359245192
 30
0.0
 11
2450.0999144083512
 21
3603.3123359245192
 31
0.0
  0
LINE
  5
7FFB
  8
3
 62
     0
 10
2222.5704786437491
 20
2873.3123359245192
 30
0.0
 11
2450.0999144083512
 21
2873.3123359245192
 31
0.0
  0
LINE
  5
7FFC
  8
3
 62
     0
 10
2420.0999144083521
 20
3543.3123359245192
 30
0.0
 11
2420.0999144083512
 21
2933.3123359245192
 31
0.0
  0
INSERT
  5
7FFD
  8
3
 62
     0
  2
_OPEN
 10
2420.0999144083521
 20
3603.3123359245192
 30
0.0
 41
60.0
 42
60.0
 43
60.0
 50
90.0
  0
INSERT
  5
7FFE
  8
3
 62
     0
  2
_OPEN
 10
2420.0999144083512
 20
2873.3123359245192
 30
0.0
 41
60.0
 42
60.0
 43
60.0
 50
270.0
  0
TEXT
  8
3
  40
90
  5
8095
  62
0
  72
0
  71
0
 10
2165.10
 20
3100.80
 30
0.000000
  1
730
  0
POINT
  5
8000
  8
DEFPOINTS
 62
     0
 10
2207.5704786437491
 20
3603.3123359245192
 30
0.0
  0
POINT
  5
8001
  8
DEFPOINTS
 62
     0
 10
2207.5704786437491
 20
2873.3123359245192
 30
0.0
  0
POINT
  5
8002
  8
DEFPOINTS
 62
     0
 10
2420.0999144083512
 20
2873.3123359245192
 30
0.0
  0
ENDBLK
  5
7C0D
  8
0
  0
BLOCK
  8
0
  2
*D5
 70
     1
 10
0.0
 20
0.0
 30
0.0
  3
*D5
  1

  0
LINE
  5
8003
  8
3
 62
     0
 10
2222.5704786437491
 20
3603.3123359245192
 30
0.0
 11
2631.002651491141
 21
3603.3123359245192
 31
0.0
  0
LINE
  5
8004
  8
3
 62
     0
 10
2280.600162287873
 20
2844.3123359245192
 30
0.0
 11
2631.002651491141
 21
2844.3123359245192
 31
0.0
  0
LINE
  5
8005
  8
3
 62
     0
 10
2601.002651491141
 20
3543.3123359245192
 30
0.0
 11
2601.002651491141
 21
2904.3123359245192
 31
0.0
  0
INSERT
  5
8006
  8
3
 62
     0
  2
_OPEN
 10
2601.002651491141
 20
3603.3123359245192
 30
0.0
 41
60.0
 42
60.0
 43
60.0
 50
90.0
  0
INSERT
  5
8007
  8
3
 62
     0
  2
_OPEN
 10
2601.002651491141
 20
2844.3123359245192
 30
0.0
 41
60.0
 42
60.0
 43
60.0
 50
270.0
  0
TEXT
  8
3
  40
90
  5
8096
  62
0
  72
0
  71
0
 10
2346.00
 20
3053.46
 30
0.000000
  1
759
  0
POINT
  5
8009
  8
DEFPOINTS
 62
     0
 10
2207.5704786437491
 20
3603.3123359245192
 30
0.0
  0
POINT
  5
800A
  8
DEFPOINTS
 62
     0
 10
2265.6001622878721
 20
2844.3123359245192
 30
0.0
  0
POINT
  5
800B
  8
DEFPOINTS
 62
     0
 10
2601.002651491141
 20
2844.3123359245192
 30
0.0
  0
ENDBLK
  5
7C1A
  8
0
  0
BLOCK
  8
0
  2
*D6
 70
     1
 10
0.0
 20
0.0
 30
0.0
  3
*D6
  1

  0
LINE
  5
800C
  8
3
 62
     0
 10
2172.5704786437482
 20
2299.3123359245192
 30
0.0
 11
2631.0026514911401
 21
2299.3123359245192
 31
0.0
  0
LINE
  5
800D
  8
3
 62
     0
 10
2601.0026514911401
 20
2784.3123359245192
 30
0.0
 11
2601.0026514911401
 21
2359.3123359245192
 31
0.0
  0
INSERT
  5
800E
  8
3
 62
     0
  2
_OPEN
 10
2601.0026514911401
 20
2844.3123359245192
 30
0.0
 41
60.0
 42
60.0
 43
60.0
 50
90.0
  0
INSERT
  5
800F
  8
3
 62
     0
  2
_OPEN
 10
2601.0026514911401
 20
2299.3123359245192
 30
0.0
 41
60.0
 42
60.0
 43
60.0
 50
270.0
  0
TEXT
  8
3
  40
90
  5
8097
  62
0
  72
0
  71
0
 10
2346.00
 20
2412.51
 30
0.000000
  1
545
  0
POINT
  5
8011
  8
DEFPOINTS
 62
     0
 10
2265.6001622878721
 20
2844.3123359245192
 30
0.0
  0
POINT
  5
8012
  8
DEFPOINTS
 62
     0
 10
2157.5704786437491
 20
2299.3123359245192
 30
0.0
  0
POINT
  5
8013
  8
DEFPOINTS
 62
     0
 10
2601.0026514911401
 20
2299.3123359245192
 30
0.0
  0
ENDBLK
  5
7C26
  8
0
  0
BLOCK
  8
0
  2
*D7
 70
     1
 10
0.0
 20
0.0
 30
0.0
  3
*D7
  1

  0
LINE
  5
8014
  8
3
 62
     0
 10
5053.5741014141413
 20
3221.3123359245192
 30
0.0
 11
5328.9003345986976
 21
3221.3123359245192
 31
0.0
  0
LINE
  5
8015
  8
3
 62
     0
 10
5053.5741014141413
 20
2467.3123359245192
 30
0.0
 11
5328.9003345986976
 21
2467.3123359245192
 31
0.0
  0
LINE
  5
8016
  8
3
 62
     0
 10
5298.9003345986976
 20
3161.3123359245178
 30
0.0
 11
5298.9003345986976
 21
2527.3123359245178
 31
0.0
  0
INSERT
  5
8017
  8
3
 62
     0
  2
_OPEN
 10
5298.9003345986976
 20
3221.3123359245192
 30
0.0
 41
60.0
 42
60.0
 43
60.0
 50
90.0
  0
INSERT
  5
8018
  8
3
 62
     0
  2
_OPEN
 10
5298.9003345986976
 20
2467.3123359245192
 30
0.0
 41
60.0
 42
60.0
 43
60.0
 50
270.0
  0
TEXT
  8
3
  40
90
  5
8098
  62
0
  72
0
  71
0
 10
5043.90
 20
2684.18
 30
0.000000
  1
φ754
  0
POINT
  5
801A
  8
DEFPOINTS
 62
     0
 10
5038.5741014141404
 20
3221.3123359245192
 30
0.0
  0
POINT
  5
801B
  8
DEFPOINTS
 62
     0
 10
5038.5741014141404
 20
2467.3123359245192
 30
0.0
  0
POINT
  5
801C
  8
DEFPOINTS
 62
     0
 10
5298.9003345986976
 20
2467.3123359245192
 30
0.0
  0
ENDBLK
  5
7D31
  8
0
  0
BLOCK
  8
0
  2
*D8
 70
     1
 10
0.0
 20
0.0
 30
0.0
  3
*D8
  1

  0
LINE
  5
7DAF
  8
0
  6
BYBLOCK
 62
     0
 10
5038.5741014141404
 20
3660.3123359245192
 30
0.0
 11
5038.5741014141404
 21
3981.61527098939
 31
0.0
  0
LINE
  5
7DB0
  8
0
  6
BYBLOCK
 62
     0
 10
4770.5741014141404
 20
3862.2813391902091
 30
0.0
 11
4770.5741014141404
 21
3981.61527098939
 31
0.0
  0
LINE
  5
7DB1
  8
0
  6
BYBLOCK
 62
     0
 10
4978.5741014141413
 20
3951.61527098939
 30
0.0
 11
4830.5741014141404
 21
3951.61527098939
 31
0.0
  0
TEXT
  5
7DB2
  8
3
 62
     0
 10
4795.4338984993155
 20
3990.3456629039679
 30
0.0
 40
90.0
  1
268
  0
INSERT
  5
7DB3
  8
0
  6
BYBLOCK
 62
     0
  2
_OPEN
 10
5038.5741014141404
 20
3951.61527098939
 30
0.0
 41
60.0
 42
60.0
 43
60.0
  0
INSERT
  5
7DB4
  8
0
  6
BYBLOCK
 62
     0
  2
_OPEN
 10
4770.5741014141404
 20
3951.61527098939
 30
0.0
 41
60.0
 42
60.0
 43
60.0
 50
180.0
  0
POINT
  5
7DB5
  8
DEFPOINTS
  6
BYBLOCK
 62
     0
 10
5038.5741014141404
 20
3645.3123359245178
 30
0.0
  0
POINT
  5
7DB6
  8
DEFPOINTS
  6
BYBLOCK
 62
     0
 10
4770.5741014141404
 20
3847.28133919021
 30
0.0
  0
POINT
  5
7DB7
  8
DEFPOINTS
  6
BYBLOCK
 62
     0
 10
4770.5741014141404
 20
3951.61527098939
 30
0.0
  0
ENDBLK
  5
7DB8
  8
0
  0
BLOCK
  8
0
  2
*D9
 70
     1
 10
0.0
 20
0.0
 30
0.0
  3
*D9
  1

  0
LINE
  5
801D
  8
3
 62
     0
 10
3625.0741014141399
 20
3079.3123359245192
 30
0.0
 11
3625.0741014141399
 21
3981.61527098939
 31
0.0
  0
LINE
  5
801E
  8
3
 62
     0
 10
4710.5741014141413
 20
3951.61527098939
 30
0.0
 11
3685.0741014141399
 21
3951.61527098939
 31
0.0
  0
INSERT
  5
801F
  8
3
 62
     0
  2
_OPEN
 10
4770.5741014141404
 20
3951.61527098939
 30
0.0
 41
60.0
 42
60.0
 43
60.0
  0
INSERT
  5
8020
  8
3
 62
     0
  2
_OPEN
 10
3625.0741014141399
 20
3951.61527098939
 30
0.0
 41
60.0
 42
60.0
 43
60.0
 50
180.0
  0
TEXT
  8
3
  40
90
  5
8099
  62
0
  72
0
  71
0
 10
4017.82
 20
3942.32
 30
0.000000
  1
MAX
  0
TEXT
  8
3
  40
90
  5
809A
  62
0
  72
0
  71
0
 10
4017.82
 20
3825.32
 30
0.000000
  1
1160
  0
POINT
  5
8022
  8
DEFPOINTS
 62
     0
 10
4770.5741014141404
 20
3847.28133919021
 30
0.0
  0
POINT
  5
8023
  8
DEFPOINTS
 62
     0
 10
3625.0741014141399
 20
3064.3123359245192
 30
0.0
  0
POINT
  5
8024
  8
DEFPOINTS
 62
     0
 10
3625.0741014141399
 20
3951.61527098939
 30
0.0
  0
ENDBLK
  5
7DAD
  8
0
  0
BLOCK
  8
0
  2
*D10
 70
     1
 10
0.0
 20
0.0
 30
0.0
  3
*D10
  1

  0
LINE
  5
8025
  8
3
 62
     0
 10
4505.5741014141404
 20
3660.3123359245192
 30
0.0
 11
4505.5741014141404
 21
3766.7991624136598
 31
0.0
  0
LINE
  5
8026
  8
3
 62
     0
 10
5035.5741014141413
 20
3660.3123359245192
 30
0.0
 11
5035.5741014141413
 21
3766.7991624136598
 31
0.0
  0
LINE
  5
8027
  8
3
 62
     0
 10
4565.5741014141404
 20
3736.7991624136589
 30
0.0
 11
4975.5741014141413
 21
3736.7991624136589
 31
0.0
  0
INSERT
  5
8028
  8
3
 62
     0
  2
_OPEN
 10
4505.5741014141404
 20
3736.7991624136589
 30
0.0
 41
60.0
 42
60.0
 43
60.0
 50
180.0
  0
INSERT
  5
8029
  8
3
 62
     0
  2
_OPEN
 10
5035.5741014141413
 20
3736.7991624136589
 30
0.0
 41
60.0
 42
60.0
 43
60.0
  0
TEXT
  8
3
  40
90
  5
809B
  62
0
  72
0
  71
0
 10
4589.70
 20
3652.50
 30
0.000000
  1
530
  0
POINT
  5
802B
  8
DEFPOINTS
 62
     0
 10
4505.5741014141404
 20
3645.3123359245178
 30
0.0
  0
POINT
  5
802C
  8
DEFPOINTS
 62
     0
 10
5035.5741014141413
 20
3645.3123359245178
 30
0.0
  0
POINT
  5
802D
  8
DEFPOINTS
 62
     0
 10
5035.5741014141413
 20
3736.7991624136589
 30
0.0
  0
ENDBLK
  5
7DA3
  8
0
  0
BLOCK
  8
0
  2
*D11
 70
     1
 10
0.0
 20
0.0
 30
0.0
  3
*D11
  1

  0
LINE
  5
802E
  8
3
 62
     0
 10
2157.5704786437491
 20
6313.6246307899637
 30
0.0
 11
2157.5704786437491
 21
6495.0181677225701
 31
0.0
  0
LINE
  5
802F
  8
3
 62
     0
 10
1257.5704786437491
 20
6313.6246307899637
 30
0.0
 11
1257.5704786437491
 21
6495.0181677225701
 31
0.0
  0
LINE
  5
8030
  8
3
 62
     0
 10
2097.5704786437491
 20
6465.0181677225701
 30
0.0
 11
1317.5704786437491
 21
6465.0181677225701
 31
0.0
  0
INSERT
  5
8031
  8
3
 62
     0
  2
_OPEN
 10
2157.5704786437491
 20
6465.0181677225701
 30
0.0
 41
60.0
 42
60.0
 43
60.0
  0
INSERT
  5
8032
  8
3
 62
     0
  2
_OPEN
 10
1257.5704786437491
 20
6465.0181677225701
 30
0.0
 41
60.0
 42
60.0
 43
60.0
 50
180.0
  0
TEXT
  8
3
  40
90
  5
809C
  62
0
  72
0
  71
0
 10
1528.34
 20
6380.72
 30
0.000000
  1
900
  0
POINT
  5
8034
  8
DEFPOINTS
 62
     0
 10
2157.5704786437491
 20
6298.6246307899637
 30
0.0
  0
POINT
  5
8035
  8
DEFPOINTS
 62
     0
 10
1257.5704786437491
 20
6298.6246307899637
 30
0.0
  0
POINT
  5
8036
  8
DEFPOINTS
 62
     0
 10
1257.5704786437491
 20
6465.0181677225701
 30
0.0
  0
ENDBLK
  5
7DC5
  8
0
  0
BLOCK
  8
0
  2
*D12
 70
     1
 10
0.0
 20
0.0
 30
0.0
  3
*D12
  1

  0
LINE
  5
7E28
  8
0
  6
BYBLOCK
 62
     0
 10
1386.8514140573679
 20
5723.6246307899637
 30
0.0
 11
1386.8514140573679
 21
6495.0181677225701
 31
0.0
  0
LINE
  5
7E29
  8
0
  6
BYBLOCK
 62
     0
 10
1616.8514140573679
 20
6465.0181677225701
 30
0.0
 11
1446.8514140573679
 21
6465.0181677225701
 31
0.0
  0
TEXT
  5
7E2A
  8
3
 62
     0
 10
1416.1371283430819
 20
6504.1976473153272
 30
0.0
 40
90.0
  1
290
  0
INSERT
  5
7E2B
  8
0
  6
BYBLOCK
 62
     0
  2
_OPEN
 10
1676.8514140573679
 20
6465.0181677225701
 30
0.0
 41
60.0
 42
60.0
 43
60.0
  0
INSERT
  5
7E2C
  8
0
  6
BYBLOCK
 62
     0
  2
_OPEN
 10
1386.8514140573679
 20
6465.0181677225701
 30
0.0
 41
60.0
 42
60.0
 43
60.0
 50
180.0
  0
POINT
  5
7E2D
  8
DEFPOINTS
  6
BYBLOCK
 62
     0
 10
1676.8514140573679
 20
6298.6246307899637
 30
0.0
  0
POINT
  5
7E2E
  8
DEFPOINTS
  6
BYBLOCK
 62
     0
 10
1386.8514140573679
 20
5708.6246307899628
 30
0.0
  0
POINT
  5
7E2F
  8
DEFPOINTS
  6
BYBLOCK
 62
     0
 10
1386.8514140573679
 20
6465.0181677225701
 30
0.0
  0
ENDBLK
  5
7E30
  8
0
  0
BLOCK
  8
0
  2
*D13
 70
     1
 10
0.0
 20
0.0
 30
0.0
  3
*D13
  1

  0
LINE
  5
8037
  8
3
 62
     0
 10
952.57047864374897
 20
5708.6246307899628
 30
0.0
 11
819.00243646307808
 21
5708.6246307899628
 31
0.0
  0
LINE
  5
8038
  8
3
 62
     0
 10
952.57047864374897
 20
5003.6246307899637
 30
0.0
 11
819.00243646307786
 21
5003.6246307899637
 31
0.0
  0
LINE
  5
8039
  8
3
 62
     0
 10
849.00243646307797
 20
5648.6246307899637
 30
0.0
 11
849.00243646307797
 21
5063.6246307899637
 31
0.0
  0
INSERT
  5
803A
  8
3
 62
     0
  2
_OPEN
 10
849.00243646307797
 20
5708.6246307899628
 30
0.0
 41
60.0
 42
60.0
 43
60.0
 50
90.0
  0
INSERT
  5
803B
  8
3
 62
     0
  2
_OPEN
 10
849.00243646307797
 20
5003.6246307899637
 30
0.0
 41
60.0
 42
60.0
 43
60.0
 50
270.0
  0
TEXT
  8
3
  40
90
  5
809D
  62
0
  72
0
  71
0
 10
594.002
 20
5149.65
 30
0.000000
  1
705
  0
POINT
  5
803D
  8
DEFPOINTS
 62
     0
 10
967.57047864374897
 20
5708.6246307899628
 30
0.0
  0
POINT
  5
803E
  8
DEFPOINTS
 62
     0
 10
967.57047864374897
 20
5003.6246307899637
 30
0.0
  0
POINT
  5
803F
  8
DEFPOINTS
 62
     0
 10
849.00243646307797
 20
5003.6246307899637
 30
0.0
  0
ENDBLK
  5
7E26
  8
0
  0
BLOCK
  8
0
  2
*D14
 70
     1
 10
0.0
 20
0.0
 30
0.0
  3
*D14
  1

  0
LINE
  5
8040
  8
3
 62
     0
 10
1972.5704786437479
 20
4988.6246307899628
 30
0.0
 11
1972.5704786437479
 21
4599.9055830525167
 31
0.0
  0
LINE
  5
8041
  8
3
 62
     0
 10
967.57047864374897
 20
4988.6246307899628
 30
0.0
 11
967.57047864374897
 21
4599.9055830525167
 31
0.0
  0
LINE
  5
8042
  8
3
 62
     0
 10
1912.5704786437491
 20
4629.9055830525176
 30
0.0
 11
1027.5704786437491
 21
4629.9055830525176
 31
0.0
  0
INSERT
  5
8043
  8
3
 62
     0
  2
_OPEN
 10
1972.5704786437479
 20
4629.9055830525176
 30
0.0
 41
60.0
 42
60.0
 43
60.0
  0
INSERT
  5
8044
  8
3
 62
     0
  2
_OPEN
 10
967.57047864374897
 20
4629.9055830525176
 30
0.0
 41
60.0
 42
60.0
 43
60.0
 50
180.0
  0
TEXT
  8
3
  40
90
  5
809E
  62
0
  72
0
  71
0
 10
1292.45
 20
4545.61
 30
0.000000
  1
1005
  0
POINT
  5
8046
  8
DEFPOINTS
 62
     0
 10
1972.5704786437479
 20
5003.6246307899637
 30
0.0
  0
POINT
  5
8047
  8
DEFPOINTS
 62
     0
 10
967.57047864374897
 20
5003.6246307899637
 30
0.0
  0
POINT
  5
8048
  8
DEFPOINTS
 62
     0
 10
967.57047864374897
 20
4629.9055830525176
 30
0.0
  0
ENDBLK
  5
7E01
  8
0
  0
BLOCK
  8
0
  2
*D15
 70
     1
 10
0.0
 20
0.0
 30
0.0
  3
*D15
  1

  0
LINE
  5
8049
  8
3
 62
     0
 10
1987.5704786437491
 20
5003.6246307899637
 30
0.0
 11
2490.9666865349968
 21
5003.6246307899628
 31
0.0
  0
LINE
  5
804A
  8
3
 62
     0
 10
2172.5704786437482
 20
5658.6246307899628
 30
0.0
 11
2490.9666865349982
 21
5658.6246307899628
 31
0.0
  0
LINE
  5
804B
  8
3
 62
     0
 10
2460.9666865349982
 20
5063.6246307899628
 30
0.0
 11
2460.9666865349982
 21
5598.6246307899637
 31
0.0
  0
INSERT
  5
804C
  8
3
 62
     0
  2
_OPEN
 10
2460.9666865349982
 20
5003.6246307899628
 30
0.0
 41
60.0
 42
60.0
 43
60.0
 50
270.0
  0
INSERT
  5
804D
  8
3
 62
     0
  2
_OPEN
 10
2460.9666865349982
 20
5658.6246307899628
 30
0.0
 41
60.0
 42
60.0
 43
60.0
 50
90.0
  0
TEXT
  8
3
  40
90
  5
809F
  62
0
  72
0
  71
0
 10
2205.97
 20
5149.65
 30
0.000000
  1
655
  0
POINT
  5
804F
  8
DEFPOINTS
 62
     0
 10
1972.5704786437479
 20
5003.6246307899637
 30
0.0
  0
POINT
  5
8050
  8
DEFPOINTS
 62
     0
 10
2157.5704786437491
 20
5658.6246307899628
 30
0.0
  0
POINT
  5
8051
  8
DEFPOINTS
 62
     0
 10
2460.9666865349982
 20
5658.6246307899628
 30
0.0
  0
ENDBLK
  5
7E3B
  8
0
  0
BLOCK
  8
0
  2
*D16
 70
     1
 10
0.0
 20
0.0
 30
0.0
  3
*D16
  1

  0
LINE
  5
8052
  8
3
 62
     0
 10
2172.5704786437482
 20
6298.6246307899637
 30
0.0
 11
2490.9666865349968
 21
6298.6246307899637
 31
0.0
  0
LINE
  5
8053
  8
3
 62
     0
 10
2460.9666865349968
 20
5718.6246307899637
 30
0.0
 11
2460.9666865349968
 21
6238.6246307899628
 31
0.0
  0
INSERT
  5
8054
  8
3
 62
     0
  2
_OPEN
 10
2460.9666865349968
 20
5658.6246307899628
 30
0.0
 41
60.0
 42
60.0
 43
60.0
 50
270.0
  0
INSERT
  5
8055
  8
3
 62
     0
  2
_OPEN
 10
2460.9666865349968
 20
6298.6246307899637
 30
0.0
 41
60.0
 42
60.0
 43
60.0
 50
90.0
  0
TEXT
  8
3
  40
90
  5
80A0
  62
0
  72
0
  71
0
 10
2205.97
 20
5819.32
 30
0.000000
  1
640
  0
POINT
  5
8057
  8
DEFPOINTS
 62
     0
 10
2157.5704786437491
 20
5658.6246307899628
 30
0.0
  0
POINT
  5
8058
  8
DEFPOINTS
 62
     0
 10
2157.5704786437491
 20
6298.6246307899637
 30
0.0
  0
POINT
  5
8059
  8
DEFPOINTS
 62
     0
 10
2460.9666865349968
 20
6298.6246307899637
 30
0.0
  0
ENDBLK
  5
7E45
  8
0
  0
BLOCK
  8
0
  2
*D17
 70
     1
 10
0.0
 20
0.0
 30
0.0
  3
*D17
  1

  0
LINE
  5
805A
  8
3
 62
     0
 10
2207.5704786437491
 20
3660.3123359245192
 30
0.0
 11
2207.5704786437491
 21
4081.5116744727629
 31
0.0
  0
LINE
  5
805B
  8
3
 62
     0
 10
950.07047864374908
 20
2454.3123359245192
 30
0.0
 11
950.07047864374908
 21
4081.5116744727629
 31
0.0
  0
LINE
  5
805C
  8
3
 62
     0
 10
2147.5704786437491
 20
4051.5116744727638
 30
0.0
 11
1010.070478643749
 21
4051.5116744727638
 31
0.0
  0
INSERT
  5
805D
  8
3
 62
     0
  2
_OPEN
 10
2207.5704786437491
 20
4051.5116744727638
 30
0.0
 41
60.0
 42
60.0
 43
60.0
  0
INSERT
  5
805E
  8
3
 62
     0
  2
_OPEN
 10
950.07047864374908
 20
4051.5116744727638
 30
0.0
 41
60.0
 42
60.0
 43
60.0
 50
180.0
  0
TEXT
  8
3
  40
90
  5
80A1
  62
0
  72
0
  71
0
 10
1459.44
 20
3967.21
 30
0.000000
  1
1258
  0
POINT
  5
8060
  8
DEFPOINTS
 62
     0
 10
2207.5704786437491
 20
3645.3123359245178
 30
0.0
  0
POINT
  5
8061
  8
DEFPOINTS
 62
     0
 10
950.07047864374908
 20
2439.3123359245192
 30
0.0
  0
POINT
  5
8062
  8
DEFPOINTS
 62
     0
 10
950.07047864374908
 20
4051.5116744727638
 30
0.0
  0
ENDBLK
  5
7E51
  8
0
  0
BLOCK
  8
0
  2
_DOT
 70
     0
 10
0.0
 20
0.0
 30
0.0
  3
_DOT
  1

  0
LINE
  5
7F67
  8
0
  6
BYBLOCK
 62
     0
 10
0.0
 20
0.0
 30
0.0
 11
-1.0
 21
-0.0000000000000284
 31
0.0
  0
POLYLINE
  5
7F68
  8
0
  6
BYBLOCK
 62
     0
 66
     1
 10
0.0
 20
0.0
 30
0.0
 70
     1
 40
0.1666666666666666
 41
0.1666666666666666
  0
VERTEX
  5
8063
  8
0
  6
BYBLOCK
 62
     0
 10
-0.0833333333333286
 20
-0.0000000000000284
 30
0.0
 42
1.0
  0
VERTEX
  5
8064
  8
0
  6
BYBLOCK
 62
     0
 10
0.0833333333333286
 20
-0.0000000000000284
 30
0.0
 42
1.0
  0
SEQEND
  5
8065
  8
0
  6
BYBLOCK
 62
     0
  0
ENDBLK
  5
7EEA
  8
0
  0
BLOCK
  8
0
  2
*D19
 70
     1
 10
0.0
 20
0.0
 30
0.0
  3
*D19
  1

  0
LINE
  5
8066
  8
3
 62
     0
 10
967.57047864374897
 20
2284.3123359245192
 30
0.0
 11
967.57047864374897
 21
2084.7608424030618
 31
0.0
  0
LINE
  5
8067
  8
3
 62
     0
 10
1707.5704786437491
 20
2284.3123359245192
 30
0.0
 11
1707.5704786437491
 21
2084.7608424030618
 31
0.0
  0
LINE
  5
8068
  8
3
 62
     0
 10
1027.5704786437491
 20
2114.7608424030618
 30
0.0
 11
1647.5704786437491
 21
2114.7608424030618
 31
0.0
  0
INSERT
  5
8069
  8
3
 62
     0
  2
_OPEN
 10
967.57047864374897
 20
2114.7608424030618
 30
0.0
 41
60.0
 42
60.0
 43
60.0
 50
180.0
  0
INSERT
  5
806A
  8
3
 62
     0
  2
_OPEN
 10
1707.5704786437491
 20
2114.7608424030618
 30
0.0
 41
60.0
 42
60.0
 43
60.0
  0
TEXT
  8
3
  40
90
  5
80A2
  62
0
  72
0
  71
0
 10
1157.57
 20
2030.46
 30
0.000000
  1
740
  0
POINT
  5
806C
  8
DEFPOINTS
 62
     0
 10
967.57047864374897
 20
2299.3123359245192
 30
0.0
  0
POINT
  5
806D
  8
DEFPOINTS
 62
     0
 10
1707.5704786437491
 20
2299.3123359245192
 30
0.0
  0
POINT
  5
806E
  8
DEFPOINTS
 62
     0
 10
1707.5704786437491
 20
2114.7608424030618
 30
0.0
  0
ENDBLK
  5
7F7B
  8
0
  0
BLOCK
  8
0
  2
*D20
 70
     1
 10
0.0
 20
0.0
 30
0.0
  3
*D20
  1

  0
LINE
  5
806F
  8
3
 62
     0
 10
1707.5704786437491
 20
2284.3123359245192
 30
0.0
 11
1707.5704786437491
 21
2084.7608424030618
 31
0.0
  0
LINE
  5
8070
  8
3
 62
     0
 10
2157.5704786437491
 20
2284.3123359245192
 30
0.0
 11
2157.5704786437491
 21
2084.7608424030618
 31
0.0
  0
LINE
  5
8071
  8
3
 62
     0
 10
1767.5704786437491
 20
2114.7608424030618
 30
0.0
 11
2097.5704786437491
 21
2114.7608424030618
 31
0.0
  0
INSERT
  5
8072
  8
3
 62
     0
  2
_OPEN
 10
1707.5704786437491
 20
2114.7608424030618
 30
0.0
 41
60.0
 42
60.0
 43
60.0
 50
180.0
  0
INSERT
  5
8073
  8
3
 62
     0
  2
_OPEN
 10
2157.5704786437491
 20
2114.7608424030618
 30
0.0
 41
60.0
 42
60.0
 43
60.0
  0
TEXT
  8
3
  40
90
  5
80A3
  62
0
  72
0
  71
0
 10
1752.57
 20
2030.46
 30
0.000000
  1
450
  0
POINT
  5
8075
  8
DEFPOINTS
 62
     0
 10
1707.5704786437491
 20
2299.3123359245192
 30
0.0
  0
POINT
  5
8076
  8
DEFPOINTS
 62
     0
 10
2157.5704786437491
 20
2299.3123359245192
 30
0.0
  0
POINT
  5
8077
  8
DEFPOINTS
 62
     0
 10
2157.5704786437491
 20
2114.7608424030618
 30
0.0
  0
ENDBLK
  5
7F88
  8
0
  0
BLOCK
  8
0
  2
*D21
 70
     1
 10
0.0
 20
0.0
 30
0.0
  3
*D21
  1

  0
LINE
  5
8078
  8
3
 62
     0
 10
3795.5741014141399
 20
2284.3123359245192
 30
0.0
 11
3795.5741014141399
 21
2084.7608424030618
 31
0.0
  0
LINE
  5
8079
  8
3
 62
     0
 10
4770.5741014141404
 20
2284.3123359245178
 30
0.0
 11
4770.5741014141404
 21
2084.7608424030618
 31
0.0
  0
LINE
  5
807A
  8
3
 62
     0
 10
3855.5741014141399
 20
2114.7608424030618
 30
0.0
 11
4710.5741014141413
 21
2114.7608424030618
 31
0.0
  0
INSERT
  5
807B
  8
3
 62
     0
  2
_OPEN
 10
3795.5741014141399
 20
2114.7608424030618
 30
0.0
 41
60.0
 42
60.0
 43
60.0
 50
180.0
  0
INSERT
  5
807C
  8
3
 62
     0
  2
_OPEN
 10
4770.5741014141404
 20
2114.7608424030618
 30
0.0
 41
60.0
 42
60.0
 43
60.0
  0
TEXT
  8
3
  40
90
  5
80A4
  62
0
  72
0
  71
0
 10
4103.07
 20
2030.46
 30
0.000000
  1
975
  0
POINT
  5
807E
  8
DEFPOINTS
 62
     0
 10
3795.5741014141399
 20
2299.3123359245192
 30
0.0
  0
POINT
  5
807F
  8
DEFPOINTS
 62
     0
 10
4770.5741014141404
 20
2299.3123359245178
 30
0.0
  0
POINT
  5
8080
  8
DEFPOINTS
 62
     0
 10
4770.5741014141404
 20
2114.7608424030618
 30
0.0
  0
ENDBLK
  5
7F95
  8
0
  0
BLOCK
  8
0
  2
*D22
 70
     1
 10
0.0
 20
0.0
 30
0.0
  3
*D22
  1

  0
LINE
  5
8081
  8
3
 62
     0
 10
4770.5741014141404
 20
2284.3123359245178
 30
0.0
 11
4770.5741014141404
 21
2084.7608424030618
 31
0.0
  0
LINE
  5
8082
  8
3
 62
     0
 10
5090.5741014141413
 20
2284.3123359245192
 30
0.0
 11
5090.5741014141413
 21
2084.7608424030618
 31
0.0
  0
LINE
  5
8083
  8
3
 62
     0
 10
4830.5741014141404
 20
2114.7608424030618
 30
0.0
 11
5030.5741014141404
 21
2114.7608424030618
 31
0.0
  0
INSERT
  5
8084
  8
3
 62
     0
  2
_OPEN
 10
4770.5741014141404
 20
2114.7608424030618
 30
0.0
 41
60.0
 42
60.0
 43
60.0
 50
180.0
  0
INSERT
  5
8085
  8
3
 62
     0
  2
_OPEN
 10
5090.5741014141413
 20
2114.7608424030618
 30
0.0
 41
60.0
 42
60.0
 43
60.0
  0
TEXT
  8
3
  40
90
  5
80A5
  62
0
  72
0
  71
0
 10
4750.57
 20
2030.46
 30
0.000000
  1
320
  0
POINT
  5
8087
  8
DEFPOINTS
 62
     0
 10
4770.5741014141404
 20
2299.3123359245178
 30
0.0
  0
POINT
  5
8088
  8
DEFPOINTS
 62
     0
 10
5090.5741014141413
 20
2299.3123359245192
 30
0.0
  0
POINT
  5
8089
  8
DEFPOINTS
 62
     0
 10
5090.5741014141413
 20
2114.7608424030618
 30
0.0
  0
ENDBLK
  5
7FA4
  8
0
  0
BLOCK
  8
0
  2
*D23
 70
     1
 10
0.0
 20
0.0
 30
0.0
  3
*D23
  1

  0
LINE
  5
808A
  8
3
 62
     0
 10
2222.5704786437491
 20
3645.3123359245178
 30
0.0
 11
2856.396172370602
 21
3645.3123359245178
 31
0.0
  0
LINE
  5
808B
  8
3
 62
     0
 10
2172.5704786437482
 20
2299.3123359245192
 30
0.0
 11
2856.3961723706011
 21
2299.3123359245192
 31
0.0
  0
LINE
  5
808C
  8
3
 62
     0
 10
2826.396172370602
 20
3585.3123359245192
 30
0.0
 11
2826.396172370602
 21
2359.3123359245192
 31
0.0
  0
INSERT
  5
808D
  8
3
 62
     0
  2
_OPEN
 10
2826.396172370602
 20
3645.3123359245178
 30
0.0
 41
60.0
 42
60.0
 43
60.0
 50
90.0
  0
INSERT
  5
808E
  8
3
 62
     0
  2
_OPEN
 10
2826.396172370602
 20
2299.3123359245192
 30
0.0
 41
60.0
 42
60.0
 43
60.0
 50
270.0
  0
TEXT
  8
3
  40
90
  5
80A6
  62
0
  72
0
  71
0
 10
2571.40
 20
2813.01
 30
0.000000
  1
1346
  0
POINT
  5
8090
  8
DEFPOINTS
 62
     0
 10
2207.5704786437491
 20
3645.3123359245178
 30
0.0
  0
POINT
  5
8091
  8
DEFPOINTS
 62
     0
 10
2157.5704786437491
 20
2299.3123359245192
 30
0.0
  0
POINT
  5
8092
  8
DEFPOINTS
 62
     0
 10
2826.396172370602
 20
2299.3123359245192
 30
0.0
  0
ENDBLK
  5
7FB1
  8
0
  0
ENDSEC
  0
SECTION
  2
ENTITIES
  0
INSERT
  5
7AF9
  8
0
  2
YA_N
 10
2375.7491199319738
 20
5.0
 30
0.0
  0
LINE
  5
7AFB
  8
2
 10
2265.6001622878721
 20
2844.3123359245192
 30
0.0
 11
1031.0697758807471
 21
2844.3123359245192
 31
0.0
  0
ARC
  5
7AFC
  8
1
 10
1760.5704786437491
 20
2897.3123359245192
 30
0.0
 40
665.0
 50
94.571278723534135
 51
184.57127872353411
  0
ARC
  5
7AFD
  8
1
 10
1654.5704786437491
 20
2897.3123359245192
 30
0.0
 40
559.0
 50
185.4405088373224
 51
189.49233234920129
  0
ARC
  5
7AFE
  8
1
 10
1665.5704786437491
 20
2802.3123359245192
 30
0.0
 40
464.0
 50
299.71121900173239
 51
5.1933642973921952
  0
LINE
  5
7AFF
  8
1
 10
2207.5704786437491
 20
3645.3123359245178
 30
0.0
 11
2207.5704786437491
 21
2831.3123359245192
 31
0.0
  0
LINE
  5
7B00
  8
1
 10
2207.5704786437491
 20
2873.3123359245192
 30
0.0
 11
2128.5728539339611
 21
2873.3123359245192
 31
0.0
  0
LINE
  5
7B01
  8
1
 10
1707.5704786437491
 20
3560.1969412669569
 30
0.0
 11
2207.5704786437491
 21
3603.3123359245192
 31
0.0
  0
LINE
  5
7B02
  8
1
 10
2207.5704786437491
 20
3645.3123359245178
 30
0.0
 11
2167.5704786437491
 21
3645.3123359245178
 31
0.0
  0
LINE
  5
7B03
  8
1
 10
2207.5704786437491
 20
2831.3123359245192
 30
0.0
 11
2167.5704786437491
 21
2831.3123359245192
 31
0.0
  0
LINE
  5
7B04
  8
1
 10
2167.5704786437491
 20
3645.3123359245178
 30
0.0
 11
2167.5704786437491
 21
2831.3123359245192
 31
0.0
  0
LINE
  5
7B05
  8
1
 10
2204.5704786437482
 20
3645.3123359245178
 30
0.0
 11
2204.5704786437482
 21
2831.3123359245192
 31
0.0
  0
LINE
  5
7B06
  8
1
 10
2157.5704786437491
 20
2399.3123359245192
 30
0.0
 11
2157.5704786437491
 21
2299.3123359245192
 31
0.0
  0
LINE
  5
7B07
  8
1
 10
2157.5704786437491
 20
2399.3123359245192
 30
0.0
 11
947.57047864374908
 21
2399.3123359245192
 31
0.0
  0
LINE
  5
7B08
  8
1
 10
2157.5704786437491
 20
2299.3123359245192
 30
0.0
 11
967.57047864374897
 21
2299.3123359245192
 31
0.0
1001
ACAD
1000
ASC_BOUNDS
1002
{
1070
    19
1002
}
  0
LINE
  5
7B09
  8
1
 10
947.57047864374908
 20
2439.3123359245192
 30
0.0
 11
947.57047864374908
 21
2399.3123359245192
 31
0.0
  0
LINE
  5
7B0A
  8
2
 10
1707.5704786437491
 20
2299.3123359245192
 30
0.0
 11
1707.5704786437491
 21
3672.3260233836108
 31
0.0
  0
LINE
  5
7B0B
  8
1
 10
1347.5704786437491
 20
2439.3123359245192
 30
0.0
 11
947.57047864374908
 21
2439.3123359245192
 31
0.0
  0
LINE
  5
7B0C
  8
1
 10
1347.5704786437491
 20
2399.3123359245192
 30
0.0
 11
1347.5704786437491
 21
2439.3123359245192
 31
0.0
  0
LINE
  5
7B10
  8
2
 10
4770.5741014141404
 20
2299.3123359245178
 30
0.0
 11
4770.5741014141404
 21
3730.0449039888522
 31
0.0
  0
LINE
  5
7B11
  8
2
 10
3650.646112690567
 20
2844.3123359245192
 30
0.0
 11
5102.9395614708592
 21
2844.3123359245192
 31
0.0
  0
LINE
  5
7B12
  8
1
 10
3795.5741014141399
 20
2399.3123359245192
 30
0.0
 11
5090.5741014141413
 21
2399.3123359245192
 31
0.0
  0
LINE
  5
7B13
  8
1
 10
3795.5741014141399
 20
2299.3123359245192
 30
0.0
 11
5090.5741014141413
 21
2299.3123359245192
 31
0.0
1001
ACAD
1000
ASC_BOUNDS
1002
{
1070
    19
1002
}
  0
LINE
  5
7B14
  8
1
 10
5037.8741014141387
 20
3239.3123359245192
 30
0.0
 11
5038.5741014141404
 21
3239.3123359245192
 31
0.0
  0
LINE
  5
7B15
  8
1
 10
5037.8741014141387
 20
2449.3123359245192
 30
0.0
 11
5038.5741014141404
 21
2449.3123359245192
 31
0.0
  0
LINE
  5
7B16
  8
2
 10
1707.5704786437491
 20
6353.7099191859561
 30
0.0
 11
1707.5704786437491
 21
4801.4800930230613
 31
0.0
  0
LINE
  5
7B17
  8
2
 10
1016.393108058797
 20
5980.6246307899628
 30
0.0
 11
2269.5906890252331
 21
5980.6246307899637
 31
0.0
  0
LINE
  5
7B18
  8
2
 10
3650.646112690567
 20
2649.3123359245192
 30
0.0
 11
3912.9701648666878
 21
2649.3123359245192
 31
0.0
  0
LINE
  5
7B19
  8
1
 10
5035.5741014141413
 20
2399.3123359245192
 30
0.0
 11
5035.5741014141413
 21
2831.3123359245192
 31
0.0
  0
LINE
  5
7B1A
  8
1
 10
4505.5741014141404
 20
2399.3123359245192
 30
0.0
 11
4505.5741014141404
 21
2831.3123359245192
 31
0.0
  0
POINT
  5
7B1B
  8
1
 10
2207.5704786437491
 20
3603.3123359245192
 30
0.0
  0
POINT
  5
7B1C
  8
1
 10
2167.7530511082
 20
2844.3123359245192
 30
0.0
  0
INSERT
  5
7B1D
  8
0
  2
YA_N
 10
1277.7242886368399
 20
-1095.3196821357051
 30
0.0
 41
20.0
 42
20.0
 43
20.0
  0
LINE
  5
7B20
  8
1
 10
967.57047864374897
 20
2399.3123359245192
 30
0.0
 11
967.57047864374897
 21
2299.3123359245192
 31
0.0
  0
LINE
  5
7B29
  8
1
 10
1972.5704786437479
 20
2299.3123359245192
 30
0.0
 11
1972.5704786437479
 21
2399.3123359245192
 31
0.0
  0
LINE
  5
7B2A
  8
1
 10
5077.5741014139894
 20
2831.3123359245192
 30
0.0
 11
5077.5741014142277
 21
3645.3123359245178
 31
0.0
  0
LINE
  5
7B2B
  8
1
 10
4463.5741014141404
 20
2831.3123359245192
 30
0.0
 11
4463.5741014141404
 21
3645.3123359245178
 31
0.0
  0
LINE
  5
7B2C
  8
1
 10
3832.5741014141399
 20
2399.3123359245192
 30
0.0
 11
3832.5741014141399
 21
2784.3123359245192
 31
0.0
  0
LINE
  5
7B2D
  8
1
 10
3832.5741014141399
 20
2784.3123359245192
 30
0.0
 11
4402.5741014141404
 21
2784.3123359245192
 31
0.0
  0
LINE
  5
7B2E
  8
1
 10
4402.5741014141404
 20
2399.3123359245192
 30
0.0
 11
4402.5741014141404
 21
2784.3123359245192
 31
0.0
  0
LINE
  5
7B32
  8
1
 10
3777.5741014141399
 20
2865.3123359245192
 30
0.0
 11
3787.5741014141399
 21
2865.3123359245192
 31
0.0
  0
LINE
  5
7B33
  8
1
 10
3777.5741014141399
 20
2823.3123359245192
 30
0.0
 11
3787.5741014141399
 21
2823.3123359245192
 31
0.0
  0
LINE
  5
7B34
  8
1
 10
3787.5741014141408
 20
2816.8123359245192
 30
0.0
 11
3787.5741014141399
 21
2871.8123359245192
 31
0.0
  0
LINE
  5
7B38
  8
1
 10
3787.5741014141399
 20
2871.8123359245192
 30
0.0
 11
4463.5741014141404
 21
2871.8123359245192
 31
0.0
  0
LINE
  5
7B39
  8
1
 10
3787.5741014141408
 20
2816.8123359245192
 30
0.0
 11
4505.5741014141404
 21
2816.8123359245192
 31
0.0
  0
LINE
  5
7B3A
  8
1
 10
3676.5741014141399
 20
2570.3123359245192
 30
0.0
 11
3676.5741014141399
 21
2996.7123359245188
 31
0.0
  0
LINE
  5
7B3B
  8
1
 10
3777.5741014141399
 20
2570.3123359245192
 30
0.0
 11
3777.5741014141399
 21
2996.7123359245188
 31
0.0
  0
LINE
  5
7B3C
  8
1
 10
3825.0741014141399
 20
2499.3123359245192
 30
0.0
 11
3825.0741014141399
 21
2519.3123359245192
 31
0.0
  0
LINE
  5
7B3D
  8
1
 10
3625.0741014141399
 20
2499.3123359245192
 30
0.0
 11
3625.0741014141399
 21
3064.3123359245192
 31
0.0
  0
POINT
  5
7B3F
  8
1
 10
967.57047864374897
 20
2299.3123359245192
 30
0.0
  0
LINE
  5
7B42
  8
1
 10
1301.5704786437491
 20
2505.3123359245192
 30
0.0
 11
1282.137978643749
 21
2558.702335924519
 31
0.0
  0
LINE
  5
7B43
  8
1
 10
993.57047864374897
 20
2505.3123359245192
 30
0.0
 11
1013.0030786437489
 21
2558.702335924519
 31
0.0
  0
ARC
  5
7B44
  8
1
 10
1147.5704786437491
 20
2649.3123359245192
 30
0.0
 40
162.0
 50
285.6481
 51
0.0
  0
ARC
  5
7B45
  8
1
 10
1147.5704786437491
 20
2649.3123359245192
 30
0.0
 40
162.0
 50
0.0
 51
254.5427
  0
LINE
  5
7B46
  8
2
 10
1147.5704786437491
 20
2873.296123871884
 30
0.0
 11
1147.5704786437491
 21
2368.674059576334
 31
0.0
  0
LINE
  5
7B47
  8
1
 10
1103.8898786437489
 20
2493.3123359245192
 30
0.0
 11
1191.2511786437481
 21
2493.3123359245192
 31
0.0
  0
LINE
  5
7B48
  8
1
 10
1062.626578643748
 20
2511.3683359245192
 30
0.0
 11
1054.4491786437491
 21
2503.190335924518
 31
0.0
  0
LINE
  5
7B49
  8
1
 10
1040.357278643748
 20
2507.3123359245192
 30
0.0
 11
995.57047864374908
 21
2507.3123359245192
 31
0.0
  0
LINE
  5
7B4A
  8
1
 10
1013.320478643749
 20
2507.3123359245192
 30
0.0
 11
1013.320478643749
 21
2489.3123359245192
 31
0.0
  0
ARC
  5
7B4B
  8
1
 10
995.57047864374908
 20
2505.3123359245192
 30
0.0
 40
2.0
 50
90.0
 51
180.0
  0
LINE
  5
7B4C
  8
1
 10
1020.570478643749
 20
2512.041335924519
 30
0.0
 11
1020.570478643749
 21
2481.7833359245192
 31
0.0
  0
LINE
  5
7B4D
  8
1
 10
993.57047864374897
 20
2489.3123359245192
 30
0.0
 11
993.57047864374897
 21
2505.3123359245192
 31
0.0
  0
LINE
  5
7B4E
  8
1
 10
1027.8204786437491
 20
2507.3123359245192
 30
0.0
 11
1027.8204786437491
 21
2489.3123359245192
 31
0.0
  0
ARC
  5
7B4F
  8
1
 10
1056.5704786437491
 20
2501.0693359245188
 30
0.0
 40
3.0
 50
135.0
 51
180.0
  0
LINE
  5
7B50
  8
1
 10
1053.5704786437479
 20
2489.3123359245192
 30
0.0
 11
1053.5704786437479
 21
2501.0693359245188
 31
0.0
  0
ARC
  5
7B51
  8
1
 10
1042.4899786437491
 20
2519.5153359245191
 30
0.0
 40
8.0
 50
231.00689999999989
 51
315.0
  0
ARC
  5
7B52
  8
1
 10
1147.5704786437491
 20
2649.3123359245192
 30
0.0
 40
175.0
 50
226.19290000000001
 51
231.00700000000001
  0
ARC
  5
7B53
  8
1
 10
1031.9676786437481
 20
2528.7923359245192
 30
0.0
 40
8.0
 50
135.0
 51
226.19319999999991
  0
LINE
  5
7B54
  8
1
 10
1029.8257786437489
 20
2537.9643359245192
 30
0.0
 11
1026.109778643749
 21
2534.2483359245189
 31
0.0
  0
ARC
  5
7B55
  8
1
 10
1040.357278643748
 20
2510.3123359245192
 30
0.0
 40
3.0
 50
270.0
 51
315.0
  0
LINE
  5
7B56
  8
1
 10
1052.4592786437479
 20
2518.1713359245191
 30
0.0
 11
1042.478678643748
 21
2508.1903359245189
 31
0.0
  0
ARC
  5
7B57
  8
1
 10
1252.6510786437491
 20
2519.5153359245191
 30
0.0
 40
8.0
 50
225.0
 51
308.99310000000003
  0
LINE
  5
7B58
  8
1
 10
1254.783678643749
 20
2507.3123359245192
 30
0.0
 11
1299.5704786437491
 21
2507.3123359245192
 31
0.0
  0
LINE
  5
7B59
  8
1
 10
1232.5143786437491
 20
2511.3683359245192
 30
0.0
 11
1240.6918786437491
 21
2503.190335924518
 31
0.0
  0
ARC
  5
7B5A
  8
1
 10
1238.5704786437491
 20
2501.0693359245188
 30
0.0
 40
3.0
 50
0.0
 51
45.0
  0
LINE
  5
7B5B
  8
1
 10
1241.5704786437491
 20
2489.3123359245192
 30
0.0
 11
1241.5704786437491
 21
2501.0693359245188
 31
0.0
  0
ARC
  5
7B5C
  8
1
 10
1254.783678643749
 20
2510.3123359245192
 30
0.0
 40
3.0
 50
225.0
 51
270.0
  0
LINE
  5
7B5D
  8
1
 10
1252.7726786437479
 20
2508.0803359245192
 30
0.0
 11
1242.681678643748
 21
2518.1713359245191
 31
0.0
  0
LINE
  5
7B5E
  8
1
 10
1267.3204786437491
 20
2507.3123359245192
 30
0.0
 11
1267.3204786437491
 21
2489.3123359245192
 31
0.0
  0
LINE
  5
7B5F
  8
1
 10
1281.8204786437491
 20
2507.3123359245192
 30
0.0
 11
1281.8204786437491
 21
2489.3123359245192
 31
0.0
  0
LINE
  5
7B60
  8
1
 10
1274.5704786437491
 20
2512.041335924519
 30
0.0
 11
1274.5704786437491
 21
2481.7833359245192
 31
0.0
  0
ARC
  5
7B61
  8
1
 10
1263.1733786437489
 20
2528.7923359245192
 30
0.0
 40
8.0
 50
313.80680000000001
 51
45.0
  0
LINE
  5
7B62
  8
1
 10
1265.3151786437491
 20
2537.9643359245192
 30
0.0
 11
1269.031178643748
 21
2534.2483359245189
 31
0.0
  0
ARC
  5
7B63
  8
1
 10
1147.5704786437491
 20
2649.3123359245192
 30
0.0
 40
175.0
 50
308.99299999999988
 51
313.80709999999999
  0
ARC
  5
7B64
  8
1
 10
1299.5704786437491
 20
2505.3123359245192
 30
0.0
 40
2.0
 50
0.0
 51
90.0
  0
LINE
  5
7B65
  8
1
 10
1301.5704786437491
 20
2489.3123359245192
 30
0.0
 11
1301.5704786437491
 21
2505.3123359245192
 31
0.0
  0
LINE
  5
7B66
  8
2
 10
946.2140410171487
 20
2649.3123359245192
 30
0.0
 11
1343.9007738548571
 21
2649.3123359245192
 31
0.0
  0
LINE
  5
7B67
  8
1
 10
1331.969484934812
 20
2489.3123359245192
 30
0.0
 11
1207.5704786437491
 21
2489.3123359245192
 31
0.0
  0
LINE
  5
7B68
  8
1
 10
950.07047864374908
 20
2439.3123359245192
 30
0.0
 11
963.50259313980769
 21
2489.3123359245192
 31
0.0
  0
LINE
  5
7B69
  8
1
 10
1345.0704786437491
 20
2439.3123359245192
 30
0.0
 11
1331.969484934812
 21
2489.3123359245192
 31
0.0
  0
LINE
  5
7B6A
  8
1
 10
1207.5704786437491
 20
2484.3123359245192
 30
0.0
 11
1087.5704786437491
 21
2484.3123359245192
 31
0.0
  0
LINE
  5
7B6B
  8
1
 10
1207.5704786437491
 20
2444.3123359245192
 30
0.0
 11
1087.5704786437491
 21
2444.3123359245192
 31
0.0
  0
LINE
  5
7B6C
  8
1
 10
1207.5704786437491
 20
2489.3123359245192
 30
0.0
 11
1207.5704786437491
 21
2484.3123359245192
 31
0.0
  0
LINE
  5
7B6D
  8
1
 10
1087.5704786437491
 20
2489.3123359245192
 30
0.0
 11
1087.5704786437491
 21
2484.3123359245192
 31
0.0
  0
LINE
  5
7B6E
  8
1
 10
1087.5704786437491
 20
2489.3123359245192
 30
0.0
 11
963.50259313980769
 21
2489.3123359245192
 31
0.0
  0
LINE
  5
7B6F
  8
1
 10
1207.5704786437491
 20
2444.3123359245192
 30
0.0
 11
1207.5704786437491
 21
2439.3123359245192
 31
0.0
  0
LINE
  5
7B70
  8
1
 10
1087.5704786437491
 20
2444.3123359245192
 30
0.0
 11
1087.5704786437491
 21
2439.3123359245192
 31
0.0
  0
CIRCLE
  5
7B71
  8
1
 10
1147.5704786437491
 20
2649.3123359245192
 30
0.0
 40
79.0
  0
LINE
  5
7B72
  8
1
 10
3676.5741014141399
 20
2728.3123359245192
 30
0.0
 11
3777.5741014141399
 21
2728.3123359245192
 31
0.0
  0
LINE
  5
7B73
  8
1
 10
3676.5741014141399
 20
2570.3123359245192
 30
0.0
 11
3777.5741014141399
 21
2570.3123359245192
 31
0.0
  0
LINE
  5
7B74
  8
1
 10
3625.0741014141399
 20
2499.3123359245192
 30
0.0
 11
3825.0741014141399
 21
2499.3123359245192
 31
0.0
  0
LINE
  5
7B75
  8
1
 10
3825.0741014141399
 20
3044.3123359245192
 30
0.0
 11
3825.0741014141399
 21
3064.3123359245192
 31
0.0
  0
LINE
  5
7B76
  8
1
 10
1257.5704786437491
 20
6298.6246307899637
 30
0.0
 11
2157.5704786437491
 21
6298.6246307899637
 31
0.0
  0
LINE
  5
7B77
  8
1
 10
1972.5704786437479
 20
5658.6246307899628
 30
0.0
 11
2157.5704786437491
 21
5658.6246307899628
 31
0.0
  0
LINE
  5
7B78
  8
1
 10
2157.5704786437491
 20
6298.6246307899637
 30
0.0
 11
2157.5704786437491
 21
5658.6246307899646
 31
0.0
  0
LINE
  5
7B79
  8
1
 10
1257.5704786437491
 20
6298.6246307899637
 30
0.0
 11
1257.5704786437491
 21
6245.6246307899619
 31
0.0
  0
LINE
  5
7B7A
  8
1
 10
967.57047864374897
 20
5708.6246307899628
 30
0.0
 11
967.57047864374897
 21
5003.6246307899628
 31
0.0
  0
LINE
  5
7B7B
  8
1
 10
967.57047864374897
 20
5708.6246307899628
 30
0.0
 11
1257.5704786437491
 21
5708.6246307899628
 31
0.0
  0
LINE
  5
7B7C
  8
1
 10
967.57047864374897
 20
5003.6246307899637
 30
0.0
 11
1972.5704786437479
 21
5003.6246307899637
 31
0.0
  0
LINE
  5
7B7D
  8
1
 10
1972.5704786437479
 20
5658.6246307899628
 30
0.0
 11
1972.5704786437479
 21
5003.6246307899637
 31
0.0
  0
INSERT
  5
7B7E
  8
0
  2
YA_N
 10
1455.327808750855
 20
-1134.8543670562351
 30
0.0
 41
20.0
 42
20.0
 43
20.0
  0
LINE
  5
7B80
  8
1
 10
5038.5741014141404
 20
2449.3123359245192
 30
0.0
 11
5038.5741014141404
 21
3645.3123359245178
 31
0.0
  0
POINT
  5
7B84
  8
1
 10
2157.5704786437491
 20
2299.3123359245192
 30
0.0
  0
POINT
  5
7B85
  8
1
 10
5038.5741014141404
 20
3344.3123359245192
 30
0.0
  0
POINT
  5
7B86
  8
1
 10
2157.5704786437491
 20
5658.6246307899628
 30
0.0
  0
POINT
  5
7B8A
  8
1
 10
2157.5704786437491
 20
2299.3123359245192
 30
0.0
  0
LINE
  5
7B8B
  8
1
 10
4505.5741014141386
 20
3603.3123359245192
 30
0.0
 11
5035.5741014141413
 21
3603.3123359245192
 31
0.0
  0
LINE
  5
7B8C
  8
1
 10
4463.5741014141404
 20
3645.3123359245178
 30
0.0
 11
5077.5741014142277
 21
3645.3123359245178
 31
0.0
  0
LINE
  5
7B8D
  8
1
 10
4505.5741014141404
 20
2873.3123359245192
 30
0.0
 11
5035.5741014141413
 21
2873.3123359245192
 31
0.0
  0
LINE
  5
7B8E
  8
1
 10
4463.5741014141404
 20
2831.3123359245192
 30
0.0
 11
5077.5741014139894
 21
2831.3123359245192
 31
0.0
  0
LINE
  5
7B8F
  8
1
 10
4505.5741014141404
 20
2873.3123359245192
 30
0.0
 11
4505.5741014141404
 21
3645.3123359245178
 31
0.0
  0
LINE
  5
7B90
  8
1
 10
5035.5741014141413
 20
2873.3123359245192
 30
0.0
 11
5035.5741014141413
 21
3645.3123359245178
 31
0.0
  0
POINT
  5
7B91
  8
1
 10
5038.5741014141404
 20
3645.3123359245178
 30
0.0
  0
INSERT
  5
7B92
  8
0
  2
YA_N
 10
11334.47253219087
 20
150.26205665596169
 30
0.0
  0
LINE
  5
7B94
  8
1
 10
5022.9696024266323
 20
3241.8123359245192
 30
0.0
 11
5055.0864442214761
 21
3241.8123359245192
 31
0.0
  0
LINE
  5
7B95
  8
1
 10
5022.9696024266323
 20
2446.8123359245192
 30
0.0
 11
5055.0864442214761
 21
2446.8123359245192
 31
0.0
  0
CIRCLE
  5
7B96
  8
1
 10
1707.5704786437491
 20
2844.3123359245192
 30
0.0
 40
152.40000000000001
  0
ARC
  5
7B97
  8
1
 10
1707.5704786437491
 20
2844.3123359245192
 30
0.0
 40
220.0
 50
282.41939412554632
 51
115.9783004421577
  0
ARC
  5
7B98
  8
1
 10
1147.5704786437491
 20
2649.3123359245192
 30
0.0
 40
150.0
 50
115.9783004421577
 51
282.41939412554632
  0
LINE
  5
7B99
  8
1
 10
1611.2037210731421
 20
3042.0835371529279
 30
0.0
 11
1081.865871209244
 21
2784.1563367620711
 31
0.0
  0
LINE
  5
7B9A
  8
1
 10
1640.024375311119
 20
2980.9259660079688
 30
0.0
 11
1112.556422454262
 21
2720.1291126738138
 31
0.0
  0
LINE
  5
7B9B
  8
1
 10
1164.1147673252369
 20
2572.0641222751178
 30
0.0
 11
1739.4862963027199
 21
2695.2917313654202
 31
0.0
  0
LINE
  5
7B9C
  8
1
 10
1754.8849788378891
 20
2629.4604379310899
 30
0.0
 11
1179.830365139753
 21
2502.8224054744542
 31
0.0
  0
LINE
  5
7B9D
  8
1
 10
3676.5741014141399
 20
2996.7123359245188
 30
0.0
 11
3777.5741014141399
 21
2996.7123359245188
 31
0.0
  0
LINE
  5
7B9E
  8
1
 10
3676.5741014141399
 20
2691.9123359245191
 30
0.0
 11
3777.5741014141399
 21
2691.9123359245191
 31
0.0
  0
LINE
  5
7B9F
  8
1
 10
3625.0741014141399
 20
3064.3123359245192
 30
0.0
 11
3825.0741014141399
 21
3064.3123359245192
 31
0.0
  0
ARC
  5
7BA0
  8
1
 10
1707.5704786437491
 20
2844.3123359245192
 30
0.0
 40
422.0
 50
0.0
 51
3.9404933420781858
  0
LINE
  5
7BA2
  8
1
 10
5090.5741014141413
 20
2299.3123359245192
 30
0.0
 11
5090.5741014141413
 21
2399.3123359245192
 31
0.0
  0
LINE
  5
7BA3
  8
1
 10
4502.6194761276847
 20
2299.3123359245192
 30
0.0
 11
4502.6194761276847
 21
2399.3123359245192
 31
0.0
  0
LINE
  5
7BA5
  8
1
 10
3795.5741014141399
 20
2399.3123359245192
 30
0.0
 11
3795.5741014141399
 21
2299.3123359245192
 31
0.0
  0
LINE
  5
7BA7
  8
1
 10
985.57047864374897
 20
5113.6940963854804
 30
0.0
 11
985.57047864374897
 21
5355.9411363459012
 31
0.0
  0
LINE
  5
7BA8
  8
1
 10
985.57047864374897
 20
5519.2246882141708
 30
0.0
 11
985.57047864374897
 21
5045.1029683957513
 31
0.0
  0
LINE
  5
7BA9
  8
1
 10
1307.5704786437491
 20
5045.1029683957513
 30
0.0
 11
1307.5704786437491
 21
5519.2246882141708
 31
0.0
  0
LINE
  5
7BAA
  8
2
 10
1147.5704786437491
 20
5577.3686175523917
 30
0.0
 11
1147.5704786437491
 21
4893.2621017151287
 31
0.0
  0
LINE
  5
7BAB
  8
1
 10
1307.5704786437491
 20
5519.2246882141708
 30
0.0
 11
985.57047864374897
 21
5519.2246882141708
 31
0.0
  0
LINE
  5
7BAC
  8
1
 10
985.57047864374897
 20
5045.1029683957513
 30
0.0
 11
1307.5704786437491
 21
5045.1029683957513
 31
0.0
  0
LINE
  5
7BAD
  8
1
 10
1168.5704786437479
 20
4916.2246882131803
 30
0.0
 11
1168.5704786437479
 21
5026.2246882093086
 31
0.0
  0
LINE
  5
7BAE
  8
1
 10
1126.5704786437491
 20
4916.2246882131803
 30
0.0
 11
1126.5704786437479
 21
5026.2246882093086
 31
0.0
  0
LINE
  5
7BAF
  8
1
 10
1177.9917875895951
 20
5026.2246882093086
 30
0.0
 11
1119.1491696979019
 21
5026.2246882093086
 31
0.0
  0
LINE
  5
7BB0
  8
1
 10
1205.787927626347
 20
5034.2246882141708
 30
0.0
 11
1089.35302966115
 21
5034.2246882141708
 31
0.0
  0
LINE
  5
7BB1
  8
1
 10
1177.9917875895951
 20
5026.2246882093086
 30
0.0
 11
1177.991787589594
 21
5034.2246882141708
 31
0.0
  0
LINE
  5
7BB2
  8
1
 10
1205.787927626347
 20
5045.1029683957513
 30
0.0
 11
1205.787927626347
 21
5034.2246882141708
 31
0.0
  0
LINE
  5
7BB3
  8
1
 10
1089.35302966115
 20
5045.1029683957513
 30
0.0
 11
1089.35302966115
 21
5034.2246882141708
 31
0.0
  0
LINE
  5
7BB4
  8
1
 10
1119.1491696979019
 20
5026.2246882093086
 30
0.0
 11
1119.1491696979019
 21
5034.2246882141708
 31
0.0
  0
LINE
  5
7BB5
  8
1
 10
1126.5704786437491
 20
4916.2246882131803
 30
0.0
 11
1168.5704786437491
 21
4916.2246882131803
 31
0.0
  0
LINE
  5
7BB6
  8
1
 10
1680.0704786437491
 20
4997.6246307899628
 30
0.0
 11
1680.0704786437491
 21
5715.6246307899646
 31
0.0
  0
LINE
  5
7BB7
  8
1
 10
1735.0704786437479
 20
4997.6246307899637
 30
0.0
 11
1735.0704786437479
 21
5715.6246307899637
 31
0.0
  0
LINE
  5
7BB8
  8
1
 10
997.57047864374908
 20
4835.1246307899664
 30
0.0
 11
1927.5704786437491
 21
4835.1246307899628
 31
0.0
  0
LINE
  5
7BB9
  8
1
 10
1068.5704786437491
 20
4987.6246307899646
 30
0.0
 11
1859.9704786437489
 21
4987.6246307899628
 31
0.0
  0
LINE
  5
7BBA
  8
1
 10
1068.5704786437491
 20
4886.6246307899637
 30
0.0
 11
1859.9704786437489
 21
4886.6246307899628
 31
0.0
  0
LINE
  5
7BBC
  8
1
 10
1680.0704786437479
 20
4997.6246307899628
 30
0.0
 11
1735.0704786437479
 21
4997.6246307899637
 31
0.0
  0
LINE
  5
7BBD
  8
1
 10
997.57047864374908
 20
4835.1246307899628
 30
0.0
 11
997.57047864374908
 21
5035.1246307899628
 31
0.0
  0
LINE
  5
7BBF
  8
1
 10
1147.5704786437491
 20
4808.938735550616
 30
0.0
 11
1147.5704786437491
 21
5123.020694242512
 31
0.0
  0
LINE
  5
7BC0
  8
1
 10
1555.170478643749
 20
4886.6246307899628
 30
0.0
 11
1555.170478643749
 21
4987.6246307899628
 31
0.0
  0
LINE
  5
7BC1
  8
1
 10
1068.5704786437491
 20
4886.6246307899628
 30
0.0
 11
1068.5704786437491
 21
4987.6246307899646
 31
0.0
  0
LINE
  5
7BC2
  8
1
 10
1226.5704786437491
 20
4886.6246307899628
 30
0.0
 11
1226.5704786437491
 21
4987.6246307899628
 31
0.0
  0
LINE
  5
7BC3
  8
1
 10
1686.5704786437491
 20
4987.6246307899628
 30
0.0
 11
1686.5704786437491
 21
4997.6246307899637
 31
0.0
  0
LINE
  5
7BC4
  8
1
 10
1537.5704786437491
 20
5042.6246307899637
 30
0.0
 11
1680.0704786437491
 21
5042.6246307899637
 31
0.0
  0
LINE
  5
7BC5
  8
1
 10
997.57047864374908
 20
5035.1246307899628
 30
0.0
 11
1017.570478643749
 21
5035.1246307899628
 31
0.0
  0
LINE
  5
7BC6
  8
1
 10
1537.5704786437491
 20
5612.6246307899628
 30
0.0
 11
1680.0704786437491
 21
5612.6246307899628
 31
0.0
  0
LINE
  5
7BC7
  8
1
 10
1927.5704786437491
 20
4835.1246307899628
 30
0.0
 11
1927.5704786437491
 21
5035.1246307899628
 31
0.0
  0
LINE
  5
7BC9
  8
1
 10
1859.9704786437489
 20
4886.6246307899628
 30
0.0
 11
1859.9704786437489
 21
4987.6246307899628
 31
0.0
  0
LINE
  5
7BCA
  8
1
 10
1728.5704786437491
 20
4987.6246307899628
 30
0.0
 11
1728.5704786437491
 21
4997.6246307899637
 31
0.0
  0
LINE
  5
7BCB
  8
1
 10
1907.5704786437491
 20
5035.1246307899628
 30
0.0
 11
1927.5704786437491
 21
5035.1246307899628
 31
0.0
  0
LINE
  5
7BCD
  8
1
 10
2165.5704786437491
 20
5673.6246307899637
 30
0.0
 11
2207.5704786437491
 21
5673.6246307899637
 31
0.0
  0
LINE
  5
7BCE
  8
1
 10
2165.5704786437491
 20
6287.6246307900392
 30
0.0
 11
2207.5704786437491
 21
6287.624630790051
 31
0.0
  0
LINE
  5
7BD0
  8
1
 10
1037.5704786437491
 20
5708.6700055035089
 30
0.0
 11
1137.5704786437491
 21
5708.6700055035089
 31
0.0
  0
LINE
  5
7BD1
  8
1
 10
1095.5704786437491
 20
5715.6246307899637
 30
0.0
 11
1707.5704786437491
 21
5715.6246307899637
 31
0.0
  0
LINE
  5
7BD2
  8
1
 10
1162.5704786437491
 20
5708.6700055035089
 30
0.0
 11
1257.5704786437491
 21
5708.6700055035089
 31
0.0
  0
LINE
  5
7BD3
  8
1
 10
1095.5704786437491
 20
6245.6246307899619
 30
0.0
 11
1707.5704786437491
 21
6245.6246307899637
 31
0.0
  0
LINE
  5
7BD6
  8
1
 10
2207.5704786437491
 20
5673.6246307899637
 30
0.0
 11
2207.5704786437491
 21
6287.6246307900528
 31
0.0
  0
LINE
  5
7BD7
  8
1
 10
2165.5704786437491
 20
5673.6246307899637
 30
0.0
 11
2165.5704786437491
 21
6287.6246307900392
 31
0.0
  0
LINE
  5
7BD8
  8
1
 10
1707.5704786437491
 20
5715.6246307899637
 30
0.0
 11
2207.5704786437491
 21
5715.6246307899637
 31
0.0
  0
LINE
  5
7BD9
  8
1
 10
1707.5704786437491
 20
6245.6246307899637
 30
0.0
 11
2207.5704786437491
 21
6245.6246307899637
 31
0.0
  0
POINT
  5
7BDB
  8
1
 10
2207.5704786437491
 20
6248.6246307899637
 30
0.0
  0
POINT
  5
7BDC
  8
1
 10
2207.5704786437491
 20
6248.6246307899637
 30
0.0
  0
LINE
  5
7BDF
  8
1
 10
1735.0704786437479
 20
5612.6246307899628
 30
0.0
 11
1877.5704786437491
 21
5612.6246307899628
 31
0.0
  0
LINE
  5
7BE0
  8
1
 10
1735.0704786437491
 20
5042.6246307899637
 30
0.0
 11
1877.5704786437491
 21
5042.6246307899637
 31
0.0
  0
LINE
  5
7BE1
  8
1
 10
1095.5704786437491
 20
5715.6246307899637
 30
0.0
 11
1095.5704786437491
 21
6245.6246307899619
 31
0.0
  0
LINE
  5
7BE2
  8
1
 10
1257.5704786437491
 20
5715.6246307899637
 30
0.0
 11
1257.5704786437491
 21
5708.6246307899628
 31
0.0
  0
DIMENSION
  5
7BF5
  8
3
  2
*D2
 10
1707.5704786437491
 20
3831.508865207601
 30
0.0
 11
1913.284764358034
 21
3831.508865207601
 31
0.0
 70
   128
 13
2207.5704786437491
 23
3645.3123359245178
 33
0.0
 14
1707.5704786437491
 24
3672.3260233836108
 34
0.0
1001
ACAD
1000
DSTYLE
1002
{
1070
   287
1070
     3
1070
    40
1040
30.0
1070
   143
1040
0.039
1070
   172
1070
     1
1070
   271
1070
     0
1070
   279
1070
     0
1070
   288
1070
     1
1002
}
  0
DIMENSION
  5
7C01
  8
3
  2
*D3
 10
1095.5704786437491
 20
3831.508865207601
 30
0.0
 11
1401.5704786437491
 21
3906.508865207601
 31
0.0
 70
     0
 13
1707.5704786437491
 23
3672.3260233836108
 33
0.0
 14
1095.5704786437491
 24
2897.3123359245192
 34
0.0
1001
ACAD
1000
DSTYLE
1002
{
1070
   287
1070
     4
1070
    40
1040
30.0
1070
    75
1070
     1
1070
   143
1040
0.039
1070
   172
1070
     1
1070
   271
1070
     0
1070
   279
1070
     1
1070
   288
1070
     1
1002
}
  0
DIMENSION
  5
7C0E
  8
3
  2
*D4
 10
2420.0999144083512
 20
2873.3123359245192
 30
0.0
 11
2420.0999144083498
 21
3260.1041065340942
 31
0.0
 70
   128
 13
2207.5704786437491
 23
3603.3123359245192
 33
0.0
 14
2207.5704786437491
 24
2873.3123359245192
 34
0.0
 50
90.0
1001
ACAD
1000
DSTYLE
1002
{
1070
   287
1070
     3
1070
    40
1040
30.0
1070
   143
1040
0.039
1070
   172
1070
     1
1070
   271
1070
     0
1070
   279
1070
     0
1070
   288
1070
     1
1002
}
  0
DIMENSION
  5
7C1B
  8
3
  2
*D5
 10
2601.002651491141
 20
2844.3123359245192
 30
0.0
 11
2601.0026514911401
 21
3212.7639069583702
 31
0.0
 70
   128
 13
2207.5704786437491
 23
3603.3123359245192
 33
0.0
 14
2265.6001622878721
 24
2844.3123359245192
 34
0.0
 50
90.0
1001
ACAD
1000
DSTYLE
1002
{
1070
   287
1070
     3
1070
    40
1040
30.0
1070
   143
1040
0.039
1070
   172
1070
     1
1070
   271
1070
     0
1070
   279
1070
     0
1070
   288
1070
     1
1002
}
  0
DIMENSION
  5
7C27
  8
3
  2
*D6
 10
2601.0026514911401
 20
2299.3123359245192
 30
0.0
 11
2526.0026514911401
 21
2571.8123359245192
 31
0.0
 70
     0
 13
2265.6001622878721
 23
2844.3123359245192
 33
0.0
 14
2157.5704786437491
 24
2299.3123359245192
 34
0.0
 50
90.0
1001
ACAD
1000
DSTYLE
1002
{
1070
   287
1070
     4
1070
    40
1040
30.0
1070
    75
1070
     1
1070
   143
1040
0.039
1070
   172
1070
     1
1070
   271
1070
     0
1070
   279
1070
     1
1070
   288
1070
     1
1002
}
  0
DIMENSION
  5
7D26
  8
3
  2
*D7
 10
5298.9003345986976
 20
2467.3123359245192
 30
0.0
 11
5298.9003345986957
 21
2843.475947659349
 31
0.0
 70
   128
 13
5038.5741014141404
 23
3221.3123359245192
 33
0.0
 14
5038.5741014141404
 24
2467.3123359245192
 34
0.0
 50
90.0
1001
ACAD
1000
DSTYLE
1002
{
1070
   287
1070
     3
1070
     3
1000
φ<>
1070
    40
1040
30.0
1070
   143
1040
0.039
1070
   172
1070
     1
1070
   271
1070
     0
1070
   279
1070
     0
1070
   288
1070
     1
1002
}
  0
DIMENSION
  5
7D3F
  8
3
  2
*D8
 10
4770.5741014141404
 20
3951.61527098939
 30
0.0
 11
4911.1481842136009
 21
4035.3456629039679
 31
0.0
 70
   128
 13
5038.5741014141404
 23
3645.3123359245178
 33
0.0
 14
4770.5741014141404
 24
3847.28133919021
 34
0.0
1001
ACAD
1000
DSTYLE
1002
{
1070
   288
1070
     1
1070
   172
1070
     1
1070
    40
1040
30.0
1070
   271
1070
     0
1070
   143
1040
0.039
1002
}
  0
DIMENSION
  5
7D61
  8
3
  2
*D9
 10
3625.0741014141399
 20
3951.61527098939
 30
0.0
 11
4197.8241014141404
 21
4101.6152709893904
 31
0.0
 70
     0
  1
MAX\P1160
 13
4770.5741014141404
 23
3847.28133919021
 33
0.0
 14
3625.0741014141399
 24
3064.3123359245192
 34
0.0
1001
ACAD
1000
DSTYLE
1002
{
1070
   287
1070
     4
1070
    40
1040
30.0
1070
    75
1070
     1
1070
   143
1040
0.039
1070
   172
1070
     1
1070
   271
1070
     0
1070
   279
1070
     1
1070
   288
1070
     1
1002
}
  0
DIMENSION
  5
7D78
  8
3
  2
*D10
 10
5035.5741014141413
 20
3736.7991624136589
 30
0.0
 11
4769.6977271789547
 21
3736.7991624136589
 31
0.0
 70
   128
 13
4505.5741014141404
 23
3645.3123359245178
 33
0.0
 14
5035.5741014141413
 24
3645.3123359245178
 34
0.0
1001
ACAD
1000
DSTYLE
1002
{
1070
   287
1070
     3
1070
    40
1040
30.0
1070
   143
1040
0.039
1070
   172
1070
     1
1070
   271
1070
     0
1070
   279
1070
     0
1070
   288
1070
     1
1002
}
  0
DIMENSION
  5
7DC6
  8
3
  2
*D11
 10
1257.5704786437491
 20
6465.0181677225701
 30
0.0
 11
1708.3422787201521
 21
6465.0181677225701
 31
0.0
 70
   128
 13
2157.5704786437491
 23
6298.6246307899637
 33
0.0
 14
1257.5704786437491
 24
6298.6246307899637
 34
0.0
1001
ACAD
1000
DSTYLE
1002
{
1070
   287
1070
     3
1070
    40
1040
30.0
1070
   143
1040
0.039
1070
   172
1070
     1
1070
   271
1070
     0
1070
   279
1070
     0
1070
   288
1070
     1
1002
}
  0
DIMENSION
  5
7DD4
  8
3
  2
*D12
 10
967.57047864374897
 20
6465.0181677225701
 30
0.0
 11
1112.5704786437491
 21
6549.1976473153263
 31
0.0
 12
-419.28093541361881
 22
0.0
 32
0.0
 70
   128
 13
1257.5704786437491
 23
6298.6246307899637
 33
0.0
 14
967.57047864374897
 24
5708.6246307899628
 34
0.0
1001
ACAD
1000
DSTYLE
1002
{
1070
   288
1070
     1
1070
   172
1070
     1
1070
    75
1070
     1
1070
    40
1040
30.0
1070
   271
1070
     0
1070
   143
1040
0.039
1002
}
  0
DIMENSION
  5
7DF5
  8
3
  2
*D13
 10
849.00243646307797
 20
5003.6246307899637
 30
0.0
 11
849.00243646307706
 21
5308.9533645522424
 31
0.0
 70
   128
 13
967.57047864374897
 23
5708.6246307899628
 33
0.0
 14
967.57047864374897
 24
5003.6246307899637
 34
0.0
 50
90.0
1001
ACAD
1000
DSTYLE
1002
{
1070
   287
1070
     3
1070
    40
1040
30.0
1070
   143
1040
0.039
1070
   172
1070
     1
1070
   271
1070
     0
1070
   279
1070
     0
1070
   288
1070
     1
1002
}
  0
DIMENSION
  5
7E02
  8
3
  2
*D14
 10
967.57047864374897
 20
4629.9055830525176
 30
0.0
 11
1472.4450723158261
 21
4629.9055830525176
 31
0.0
 70
   128
 13
1972.5704786437479
 23
5003.6246307899637
 33
0.0
 14
967.57047864374897
 24
5003.6246307899637
 34
0.0
1001
ACAD
1000
DSTYLE
1002
{
1070
   287
1070
     3
1070
    40
1040
30.0
1070
   143
1040
0.039
1070
   172
1070
     1
1070
   271
1070
     0
1070
   279
1070
     0
1070
   288
1070
     1
1002
}
  0
DIMENSION
  5
7E0F
  8
3
  2
*D15
 10
2460.9666865349982
 20
5658.6246307899628
 30
0.0
 11
2460.9666865349968
 21
5308.9533645522424
 31
0.0
 70
   128
 13
1972.5704786437479
 23
5003.6246307899637
 33
0.0
 14
2157.5704786437491
 24
5658.6246307899628
 34
0.0
 50
90.0
1001
ACAD
1000
DSTYLE
1002
{
1070
   287
1070
     3
1070
    40
1040
30.0
1070
   143
1040
0.039
1070
   172
1070
     1
1070
   271
1070
     0
1070
   279
1070
     0
1070
   288
1070
     1
1002
}
  0
DIMENSION
  5
7E1B
  8
3
  2
*D16
 10
2460.9666865349968
 20
6298.6246307899637
 30
0.0
 11
2385.9666865349959
 21
5978.6246307899646
 31
0.0
 70
     0
 13
2157.5704786437491
 23
5658.6246307899628
 33
0.0
 14
2157.5704786437491
 24
6298.6246307899637
 34
0.0
 50
90.0
1001
ACAD
1000
DSTYLE
1002
{
1070
   287
1070
     4
1070
    40
1040
30.0
1070
    75
1070
     1
1070
   143
1040
0.039
1070
   172
1070
     1
1070
   271
1070
     0
1070
   279
1070
     1
1070
   288
1070
     1
1002
}
  0
DIMENSION
  5
7E52
  8
3
  2
*D17
 10
950.07047864374908
 20
4051.5116744727638
 30
0.0
 11
1639.4441324386969
 21
4051.5116744727638
 31
0.0
 70
   128
 13
2207.5704786437491
 23
3645.3123359245178
 33
0.0
 14
950.07047864374908
 24
2439.3123359245192
 34
0.0
1001
ACAD
1000
DSTYLE
1002
{
1070
   287
1070
     3
1070
    40
1040
30.0
1070
   143
1040
0.039
1070
   172
1070
     1
1070
   271
1070
     0
1070
   279
1070
     0
1070
   288
1070
     1
1002
}
  0
LINE
  5
7E86
  8
4
 10
5550.0
 20
1500.0
 30
0.0
 11
5550.0
 21
900.0
 31
0.0
  0
LINE
  5
7E87
  8
4
 10
3450.0
 20
1500.0
 30
0.0
 11
3450.0
 21
900.0
 31
0.0
  0
LINE
  5
7E88
  8
4
 10
1950.0
 20
1500.0
 30
0.0
 11
1950.0
 21
900.0
 31
0.0
  0
LINE
  5
7E8B
  8
4
 10
1950.0
 20
900.0
 30
0.0
 11
5550.0
 21
900.0
 31
0.0
  0
LINE
  5
7E8C
  8
4
 10
1950.0
 20
1200.0
 30
0.0
 11
5550.0
 21
1200.0
 31
0.0
  0
TEXT
  5
7E8D
  8
4
 10
2065.5062425407041
 20
1294.629077599838
 30
0.0
 40
150.0
  1
機器名称
  0
TEXT
  5
7E8E
  8
4
 10
2058.7743180743919
 20
964.93547019603284
 30
0.0
 40
150.0
  1
機器型番
  0
TEXT
  5
7E8F
  8
4
 10
3533.036236462995
 20
1267.715306872705
 30
0.0
 40
130.0
  1
ミツヤ多翼送風機
  0
TEXT
  5
7E90
  8
4
 10
3559.9634867564419
 20
951.47875283983012
 30
0.0
 40
150.0
  1
MF#4 1/2-1
  0
TEXT
  5
7E92
  8
4
 10
2452.306730691525
 20
7150.2865239975472
 30
0.0
 40
161.99999999999989
  1
床置ベット
  0
TEXT
  5
7E93
  8
4
 10
898.50277998833917
 20
7601.6429285978938
 30
0.0
 40
216.0
  1
遠心式片吸込片持多翼ファン
  0
LINE
  5
7E94
  8
4
 10
750.0
 20
7408.2262627944137
 30
0.0
 11
5550.0
 21
7408.2262627944137
 31
0.0
  0
LINE
  5
7E95
  8
4
 10
750.0
 20
8008.2262627944137
 30
0.0
 11
5550.0
 21
8008.2262627944137
 31
0.0
  0
LINE
  5
7E96
  8
4
 10
1950.0
 20
1500.0
 30
0.0
 11
5550.0
 21
1500.0
 31
0.0
  0
LINE
  5
7E97
  8
4
 10
750.0
 20
8008.2262627944137
 30
0.0
 11
750.0
 21
7408.2262627944137
 31
0.0
  0
TEXT
  5
7E98
  8
4
 10
1144.7302339634191
 20
7146.9584326390304
 30
0.0
 40
161.99999999999989
  1
右回転右横向
  0
TEXT
  5
7E99
  8
4
 10
4406.9086777478688
 20
8118.1832444859256
 30
0.0
 40
168.0
  1
No.
  0
TEXT
  5
7E9A
  8
4
 10
3933.8881878000388
 20
7150.2865239975472
 30
0.0
 40
161.99999999999989
  1
縮尺：1/30
  0
LINE
  5
7E9B
  8
4
 10
5550.0
 20
8008.2262627944137
 30
0.0
 11
5550.0
 21
7408.2262627944137
 31
0.0
  0
LINE
  5
7E9C
  8
4
 10
6300.0
 20
8850.0
 30
0.0
 11
6300.0
 21
8850.0
 31
0.0
  0
LINE
  5
7E9D
  8
4
 10
4321.8522670795937
 20
8043.790749376205
 30
0.0
 11
4321.8522670795937
 21
8359.9567846492573
 31
0.0
  0
LINE
  5
7E9E
  8
4
 10
4321.8522670795937
 20
8359.9567846492573
 30
0.0
 11
5550.0
 21
8359.9567846492573
 31
0.0
  0
LINE
  5
7E9F
  8
4
 10
5550.0
 20
8359.9567846492573
 30
0.0
 11
5550.0
 21
8043.790749376205
 31
0.0
  0
LINE
  5
7EA0
  8
4
 10
5550.0
 20
8043.790749376205
 30
0.0
 11
4321.8522670795937
 21
8043.790749376205
 31
0.0
  0
LINE
  5
7EA1
  8
4
 10
0.0
 20
0.0
 30
0.0
 11
0.0
 21
8850.0
 31
0.0
  0
LINE
  5
7EA2
  8
4
 10
0.0
 20
8850.0
 30
0.0
 11
6300.0
 21
8850.0
 31
0.0
  0
LINE
  5
7EA3
  8
4
 10
6300.0
 20
8850.0
 30
0.0
 11
6300.0
 21
0.0
 31
0.0
  0
LINE
  5
7EA4
  8
4
 10
6300.0
 20
0.0
 30
0.0
 11
0.0
 21
0.0
 31
0.0
  0
DIMENSION
  5
7F7C
  8
3
  2
*D19
 10
1707.5704786437491
 20
2114.7608424030618
 30
0.0
 11
1337.5704786437491
 21
2189.7608424030618
 31
0.0
 70
     0
 13
967.57047864374897
 23
2299.3123359245192
 33
0.0
 14
1707.5704786437491
 24
2299.3123359245192
 34
0.0
1001
ACAD
1000
DSTYLE
1002
{
1070
   287
1070
     3
1070
    40
1040
30.0
1070
   143
1040
0.039
1070
   172
1070
     1
1070
   271
1070
     0
1070
   279
1070
     0
1002
}
  0
DIMENSION
  5
7F89
  8
3
  2
*D20
 10
2157.5704786437491
 20
2114.7608424030618
 30
0.0
 11
1932.5704786437491
 21
2189.7608424030618
 31
0.0
 70
     0
 13
1707.5704786437491
 23
2299.3123359245192
 33
0.0
 14
2157.5704786437491
 24
2299.3123359245192
 34
0.0
1001
ACAD
1000
DSTYLE
1002
{
1070
   287
1070
     3
1070
    40
1040
30.0
1070
   143
1040
0.039
1070
   172
1070
     1
1070
   271
1070
     0
1070
   279
1070
     0
1002
}
  0
DIMENSION
  5
7F96
  8
3
  2
*D21
 10
4770.5741014141404
 20
2114.7608424030618
 30
0.0
 11
4283.0741014141404
 21
2189.7608424030618
 31
0.0
 70
     0
 13
3795.5741014141399
 23
2299.3123359245192
 33
0.0
 14
4770.5741014141404
 24
2299.3123359245178
 34
0.0
1001
ACAD
1000
DSTYLE
1002
{
1070
   287
1070
     3
1070
    40
1040
30.0
1070
   143
1040
0.039
1070
   172
1070
     1
1070
   271
1070
     0
1070
   279
1070
     0
1002
}
  0
DIMENSION
  5
7FA5
  8
3
  2
*D22
 10
5090.5741014141413
 20
2114.7608424030618
 30
0.0
 11
4930.5741014141413
 21
2189.7608424030618
 31
0.0
 70
     0
 13
4770.5741014141404
 23
2299.3123359245178
 33
0.0
 14
5090.5741014141413
 24
2299.3123359245192
 34
0.0
1001
ACAD
1000
DSTYLE
1002
{
1070
   287
1070
     3
1070
    40
1040
30.0
1070
   143
1040
0.039
1070
   172
1070
     1
1070
   271
1070
     0
1070
   279
1070
     0
1002
}
  0
DIMENSION
  5
7FB2
  8
3
  2
*D23
 10
2826.396172370602
 20
2299.3123359245192
 30
0.0
 11
2751.3961723706011
 21
2972.3123359245192
 31
0.0
 70
     0
 13
2207.5704786437491
 23
3645.3123359245178
 33
0.0
 14
2157.5704786437491
 24
2299.3123359245192
 34
0.0
 50
90.0
1001
ACAD
1000
DSTYLE
1002
{
1070
   287
1070
     3
1070
    40
1040
30.0
1070
   143
1040
0.039
1070
   172
1070
     1
1070
   271
1070
     0
1070
   279
1070
     0
1002
}
  0
LINE
  5
7FC3
  8
1
 10
1537.5704786437491
 20
2784.3123359245192
 30
0.0
 11
1877.5704786437491
 21
2784.3123359245201
 31
0.0
  0
LINE
  5
7FC5
  8
1
 10
1877.5704786437491
 20
2784.3123359245192
 30
0.0
 11
1972.5704786437479
 21
2399.3123359245192
 31
0.0
  0
LINE
  5
7FC6
  8
1
 10
1537.5704786437491
 20
2784.3123359245192
 30
0.0
 11
1442.5704786437491
 21
2399.3123359245192
 31
0.0
  0
LINE
  5
7FC9
  8
1
 10
1537.5704786437491
 20
5612.6246307899628
 30
0.0
 11
1537.5704786437491
 21
5042.6246307899637
 31
0.0
  0
LINE
  5
7FCA
  8
1
 10
1877.5704786437491
 20
5612.6246307899628
 30
0.0
 11
1877.5704786437491
 21
5042.6246307899637
 31
0.0
  0
ENDSEC
  0
EOF
