  0
SECTION
  2
HEADER
  9
$ACADVER
  1
AC1009
  9
$INSBASE
 10
0.0
 20
0.0
 30
0.0
  9
$EXTMIN
 10
0.0
 20
0.0
 30
0.0
  9
$EXTMAX
 10
6300.0
 20
8850.0
 30
0.0
  9
$LIMMIN
 10
0.0
 20
0.0
  9
$LIMMAX
 10
297.0
 20
210.0
  9
$ORTHOMODE
 70
     0
  9
$REGENMODE
 70
     1
  9
$FILLMODE
 70
     0
  9
$QTEXTMODE
 70
     0
  9
$MIRRTEXT
 70
     1
  9
$DRAGMODE
 70
     2
  9
$LTSCALE
 40
100.0
  9
$OSMODE
 70
    37
  9
$ATTMODE
 70
     1
  9
$TEXTSIZE
 40
180.0
  9
$TRACEWID
 40
0.05
  9
$TEXTSTYLE
  7
STANDARD
  9
$CLAYER
  8
3
  9
$CELTYPE
  6
BYLAYER
  9
$CECOLOR
 62
   256
  9
$DIMSCALE
 40
30.0
  9
$DIMASZ
 40
2.0
  9
$DIMEXO
 40
0.5
  9
$DIMDLI
 40
10.0
  9
$DIMRND
 40
0.0
  9
$DIMDLE
 40
0.0
  9
$DIMEXE
 40
1.0
  9
$DIMTP
 40
1.0
  9
$DIMTM
 40
1.0
  9
$DIMTXT
 40
3.0
  9
$DIMCEN
 40
0.0
  9
$DIMTSZ
 40
0.0
  9
$DIMTOL
 70
     0
  9
$DIMLIM
 70
     0
  9
$DIMTIH
 70
     0
  9
$DIMTOH
 70
     0
  9
$DIMSE1
 70
     0
  9
$DIMSE2
 70
     0
  9
$DIMTAD
 70
     1
  9
$DIMZIN
 70
     8
  9
$DIMBLK
  1

  9
$DIMASO
 70
     1
  9
$DIMSHO
 70
     1
  9
$DIMPOST
  1

  9
$DIMAPOST
  1

  9
$DIMALT
 70
     0
  9
$DIMALTD
 70
     2
  9
$DIMALTF
 40
0.039
  9
$DIMLFAC
 40
1.0
  9
$DIMTOFL
 70
     1
  9
$DIMTVP
 40
0.0
  9
$DIMTIX
 70
     0
  9
$DIMSOXD
 70
     0
  9
$DIMSAH
 70
     1
  9
$DIMBLK1
  1
OPEN
  9
$DIMBLK2
  1
OPEN
  9
$DIMSTYLE
  2
IGA
  9
$DIMCLRD
 70
     0
  9
$DIMCLRE
 70
     0
  9
$DIMCLRT
 70
     0
  9
$DIMTFAC
 40
10.0
  9
$DIMGAP
 40
1.0
  9
$LUNITS
 70
     2
  9
$LUPREC
 70
     3
  9
$SKETCHINC
 40
0.1
  9
$FILLETRAD
 40
50.0
  9
$AUNITS
 70
     0
  9
$AUPREC
 70
     0
  9
$MENU
  1
acad
  9
$ELEVATION
 40
0.0
  9
$PELEVATION
 40
0.0
  9
$THICKNESS
 40
0.0
  9
$LIMCHECK
 70
     0
  9
$BLIPMODE
 70
     0
  9
$CHAMFERA
 40
0.5
  9
$CHAMFERB
 40
0.5
  9
$SKPOLY
 70
     0
  9
$TDCREATE
 40
2452717.6036704858
  9
$TDUPDATE
 40
2454953.7569095371
  9
$TDINDWG
 40
0.0422432407
  9
$TDUSRTIMER
 40
0.0422432407
  9
$USRTIMER
 70
     1
  9
$ANGBASE
 50
0.0
  9
$ANGDIR
 70
     0
  9
$PDMODE
 70
     0
  9
$PDSIZE
 40
0.0
  9
$PLINEWID
 40
0.0
  9
$COORDS
 70
     1
  9
$SPLFRAME
 70
     0
  9
$SPLINETYPE
 70
     6
  9
$SPLINESEGS
 70
     8
  9
$ATTDIA
 70
     0
  9
$ATTREQ
 70
     1
  9
$HANDLING
 70
 10241
  9
$HANDSEED
  5
823D
  9
$SURFTAB1
 70
     6
  9
$SURFTAB2
 70
     6
  9
$SURFTYPE
 70
     6
  9
$SURFU
 70
     6
  9
$SURFV
 70
     6
  9
$UCSNAME
  2

  9
$UCSORG
 10
0.0
 20
0.0
 30
0.0
  9
$UCSXDIR
 10
1.0
 20
0.0
 30
0.0
  9
$UCSYDIR
 10
0.0
 20
1.0
 30
0.0
  9
$PUCSNAME
  2

  9
$PUCSORG
 10
0.0
 20
0.0
 30
0.0
  9
$PUCSXDIR
 10
1.0
 20
0.0
 30
0.0
  9
$PUCSYDIR
 10
0.0
 20
1.0
 30
0.0
  9
$USERI1
 70
     0
  9
$USERI2
 70
     0
  9
$USERI3
 70
     0
  9
$USERI4
 70
     0
  9
$USERI5
 70
     0
  9
$USERR1
 40
0.0
  9
$USERR2
 40
0.0
  9
$USERR3
 40
0.0
  9
$USERR4
 40
0.0
  9
$USERR5
 40
0.0
  9
$WORLDVIEW
 70
     1
  9
$SHADEDGE
 70
     3
  9
$SHADEDIF
 70
    70
  9
$TILEMODE
 70
     1
  9
$MAXACTVP
 70
    16
  9
$PLIMCHECK
 70
     0
  9
$PEXTMIN
 10
1.0000000000000000E+020
 20
1.0000000000000000E+020
 30
1.0000000000000000E+020
  9
$PEXTMAX
 10
-1.0000000000000000E+020
 20
-1.0000000000000000E+020
 30
-1.0000000000000000E+020
  9
$PLIMMIN
 10
0.0
 20
0.0
  9
$PLIMMAX
 10
12.0
 20
9.0
  9
$UNITMODE
 70
     0
  9
$VISRETAIN
 70
     0
  9
$PLINEGEN
 70
     0
  9
$PSLTSCALE
 70
     1
  0
ENDSEC
  0
SECTION
  2
TABLES
  0
TABLE
  2
VPORT
 70
     2
  0
VPORT
  2
*ACTIVE
 70
     0
 10
0.0
 20
0.0
 11
1.0
 21
1.0
 12
10609.8298765541
 22
4425.0000206055138
 13
0.0
 23
0.0
 14
10.0
 24
10.0
 15
10.0
 25
10.0
 16
0.0
 26
0.0
 36
1.0
 17
0.0
 27
0.0
 37
0.0
 40
8917.8446490508068
 41
3.1666666666666661
 42
50.0
 43
0.0
 44
0.0
 50
0.0
 51
0.0
 71
     0
 72
   100
 73
     1
 74
     0
 75
     0
 76
     0
 77
     0
 78
     0
  0
ENDTAB
  0
TABLE
  2
LTYPE
 70
     2
  0
LTYPE
  2
CONTINUOUS
 70
     0
  3
Solid line
 72
    65
 73
     0
 40
0.0
  0
LTYPE
  2
CENTER
 70
     0
  3
____ _ ____ _ ____ _ ____ _ ____ _ ____ _ ____ 
 72
    65
 73
     4
 40
2.0
 49
1.25
 49
-0.25
 49
0.25
 49
-0.25
  0
ENDTAB
  0
TABLE
  2
LAYER
 70
     6
  0
LAYER
  2
0
 70
     0
 62
     7
  6
CONTINUOUS
  0
LAYER
  2
3
 70
     0
 62
     2
  6
CONTINUOUS
  0
LAYER
  2
2
 70
     0
 62
     3
  6
CENTER
  0
LAYER
  2
1
 70
     0
 62
     4
  6
CONTINUOUS
  0
LAYER
  2
4
 70
     0
 62
     7
  6
CONTINUOUS
  0
LAYER
  2
DEFPOINTS
 70
     0
 62
     7
  6
CONTINUOUS
  0
ENDTAB
  0
TABLE
  2
STYLE
 70
     1
  0
STYLE
  2
STANDARD
 70
     0
 40
0.0
 41
1.0
 50
0.0
 71
     0
 42
180.0
  3
simplex.shx
  4
extfont.shx
  0
ENDTAB
  0
TABLE
  2
VIEW
 70
     0
  0
ENDTAB
  0
TABLE
  2
UCS
 70
     0
  0
ENDTAB
  0
TABLE
  2
APPID
 70
     1
  0
APPID
  2
ACAD
 70
     0
  0
ENDTAB
  0
TABLE
  2
DIMSTYLE
 70
     1
  0
DIMSTYLE
  2
IGA
 70
     0
  3

  4

  5

  6
OPEN
  7
OPEN
 40
2.0
 41
2.0
 42
0.5
 43
10.0
 44
1.0
 45
0.0
 46
0.0
 47
1.0
 48
1.0
140
3.0
141
0.0
142
0.0
143
0.03937
144
1.0
145
0.0
146
10.0
147
1.0
 71
     0
 72
     0
 73
     0
 74
     0
 75
     0
 76
     0
 77
     1
 78
     8
170
     0
171
     2
172
     0
173
     1
174
     0
175
     0
176
     0
177
     0
178
     0
  0
ENDTAB
  0
ENDSEC
  0
SECTION
  2
BLOCKS
  0
BLOCK
  8
0
  2
$MODEL_SPACE
 70
     0
 10
0.0
 20
0.0
 30
0.0
  3
$MODEL_SPACE
  1

  0
ENDBLK
  5
1B
  8
0
  0
BLOCK
 67
     1
  8
0
  2
$PAPER_SPACE
 70
     0
 10
0.0
 20
0.0
 30
0.0
  3
$PAPER_SPACE
  1

  0
ENDBLK
  5
18
 67
     1
  8
0
  0
BLOCK
  8
0
  2
YA_N
 70
     0
 10
0.0
 20
0.0
 30
0.0
  3
YA_N
  1

  0
ENDBLK
  5
79FE
  8
0
  0
BLOCK
  8
0
  2
_OPEN
 70
     0
 10
0.0
 20
0.0
 30
0.0
  3
_OPEN
  1

  0
LINE
  5
7BE5
  8
0
  6
BYBLOCK
 62
     0
 10
-1.0
 20
0.1666666666666666
 30
0.0
 11
0.0
 21
0.0
 31
0.0
  0
LINE
  5
7BE6
  8
0
  6
BYBLOCK
 62
     0
 10
0.0
 20
0.0
 30
0.0
 11
-1.0
 21
-0.1666666666666666
 31
0.0
  0
LINE
  5
7BE7
  8
0
  6
BYBLOCK
 62
     0
 10
0.0
 20
0.0
 30
0.0
 11
-1.0
 21
0.0
 31
0.0
  0
ENDBLK
  5
7BE8
  8
0
  0
BLOCK
  8
0
  2
*D2
 70
     1
 10
0.0
 20
0.0
 30
0.0
  3
*D2
  1

  0
LINE
  5
817F
  8
3
 62
     0
 10
2466.5704786437491
 20
3359.3123359245192
 30
0.0
 11
2466.5704786437491
 21
3586.8417716891208
 31
0.0
  0
LINE
  5
8180
  8
3
 62
     0
 10
1736.5704786437491
 20
3359.3123359245192
 30
0.0
 11
1736.5704786437491
 21
3586.8417716891208
 31
0.0
  0
LINE
  5
8181
  8
3
 62
     0
 10
2406.5704786437491
 20
3556.8417716891208
 30
0.0
 11
1796.5704786437491
 21
3556.8417716891208
 31
0.0
  0
INSERT
  5
8182
  8
3
 62
     0
  2
_OPEN
 10
2466.5704786437491
 20
3556.8417716891208
 30
0.0
 41
60.0
 42
60.0
 43
60.0
  0
INSERT
  5
8183
  8
3
 62
     0
  2
_OPEN
 10
1736.5704786437491
 20
3556.8417716891208
 30
0.0
 41
60.0
 42
60.0
 43
60.0
 50
180.0
  0
TEXT
  8
3
  40
90
  5
8229
  62
0
  72
0
  71
0
 10
1943.36
 20
3472.54
 30
0.000000
  1
730
  0
POINT
  5
8185
  8
DEFPOINTS
 62
     0
 10
2466.5704786437491
 20
3344.3123359245192
 30
0.0
  0
POINT
  5
8186
  8
DEFPOINTS
 62
     0
 10
1736.5704786437491
 20
3344.3123359245192
 30
0.0
  0
POINT
  5
8187
  8
DEFPOINTS
 62
     0
 10
1736.5704786437491
 20
3556.8417716891208
 30
0.0
  0
ENDBLK
  5
8051
  8
0
  0
BLOCK
  8
0
  2
*D3
 70
     1
 10
0.0
 20
0.0
 30
0.0
  3
*D3
  1

  0
LINE
  5
8188
  8
3
 62
     0
 10
2466.5704786437491
 20
3359.3123359245192
 30
0.0
 11
2466.5704786437491
 21
3767.7445087719102
 31
0.0
  0
LINE
  5
8189
  8
3
 62
     0
 10
1707.5704786437491
 20
3417.3420195686431
 30
0.0
 11
1707.5704786437491
 21
3767.7445087719102
 31
0.0
  0
LINE
  5
818A
  8
3
 62
     0
 10
2406.5704786437491
 20
3737.7445087719111
 30
0.0
 11
1767.5704786437491
 21
3737.7445087719111
 31
0.0
  0
INSERT
  5
818B
  8
3
 62
     0
  2
_OPEN
 10
2466.5704786437491
 20
3737.7445087719111
 30
0.0
 41
60.0
 42
60.0
 43
60.0
  0
INSERT
  5
818C
  8
3
 62
     0
  2
_OPEN
 10
1707.5704786437491
 20
3737.7445087719111
 30
0.0
 41
60.0
 42
60.0
 43
60.0
 50
180.0
  0
TEXT
  8
3
  40
90
  5
822A
  62
0
  72
0
  71
0
 10
1896.02
 20
3653.44
 30
0.000000
  1
759
  0
POINT
  5
818E
  8
DEFPOINTS
 62
     0
 10
2466.5704786437491
 20
3344.3123359245192
 30
0.0
  0
POINT
  5
818F
  8
DEFPOINTS
 62
     0
 10
1707.5704786437491
 20
3402.3420195686431
 30
0.0
  0
POINT
  5
8190
  8
DEFPOINTS
 62
     0
 10
1707.5704786437491
 20
3737.7445087719111
 30
0.0
  0
ENDBLK
  5
8046
  8
0
  0
BLOCK
  8
0
  2
*D4
 70
     1
 10
0.0
 20
0.0
 30
0.0
  3
*D4
  1

  0
LINE
  5
8191
  8
3
 62
     0
 10
1134.5407949996249
 20
2844.3123359245192
 30
0.0
 11
935.41658040694915
 21
2844.3123359245192
 31
0.0
  0
LINE
  5
8192
  8
3
 62
     0
 10
1242.5704786437491
 20
2204.3123359245192
 30
0.0
 11
935.41658040694904
 21
2204.3123359245192
 31
0.0
  0
LINE
  5
8193
  8
3
 62
     0
 10
965.41658040694904
 20
2784.3123359245201
 30
0.0
 11
965.41658040694892
 21
2264.3123359245201
 31
0.0
  0
INSERT
  5
8194
  8
3
 62
     0
  2
_OPEN
 10
965.41658040694904
 20
2844.3123359245192
 30
0.0
 41
60.0
 42
60.0
 43
60.0
 50
90.0
  0
INSERT
  5
8195
  8
3
 62
     0
  2
_OPEN
 10
965.41658040694892
 20
2204.3123359245192
 30
0.0
 41
60.0
 42
60.0
 43
60.0
 50
270.0
  0
TEXT
  8
3
  40
90
  5
822B
  62
0
  72
0
  71
0
 10
710.417
 20
2365.01
 30
0.000000
  1
640
  0
POINT
  5
8197
  8
DEFPOINTS
 62
     0
 10
1149.5407949996249
 20
2844.3123359245192
 30
0.0
  0
POINT
  5
8198
  8
DEFPOINTS
 62
     0
 10
1257.5704786437491
 20
2204.3123359245192
 30
0.0
  0
POINT
  5
8199
  8
DEFPOINTS
 62
     0
 10
965.41658040694892
 20
2204.3123359245192
 30
0.0
  0
ENDBLK
  5
80B5
  8
0
  0
BLOCK
  8
0
  2
*D5
 70
     1
 10
0.0
 20
0.0
 30
0.0
  3
*D5
  1

  0
LINE
  5
819A
  8
3
 62
     0
 10
5053.5741014141413
 20
3221.3123359245192
 30
0.0
 11
5328.9003345986976
 21
3221.3123359245192
 31
0.0
  0
LINE
  5
819B
  8
3
 62
     0
 10
5053.5741014141413
 20
2467.3123359245192
 30
0.0
 11
5328.9003345986976
 21
2467.3123359245192
 31
0.0
  0
LINE
  5
819C
  8
3
 62
     0
 10
5298.9003345986976
 20
3161.3123359245178
 30
0.0
 11
5298.9003345986976
 21
2527.3123359245178
 31
0.0
  0
INSERT
  5
819D
  8
3
 62
     0
  2
_OPEN
 10
5298.9003345986976
 20
3221.3123359245192
 30
0.0
 41
60.0
 42
60.0
 43
60.0
 50
90.0
  0
INSERT
  5
819E
  8
3
 62
     0
  2
_OPEN
 10
5298.9003345986976
 20
2467.3123359245192
 30
0.0
 41
60.0
 42
60.0
 43
60.0
 50
270.0
  0
TEXT
  8
3
  40
90
  5
822C
  62
0
  72
0
  71
0
 10
5043.90
 20
2684.18
 30
0.000000
  1
φ754
  0
POINT
  5
81A0
  8
DEFPOINTS
 62
     0
 10
5038.5741014141404
 20
3221.3123359245192
 30
0.0
  0
POINT
  5
81A1
  8
DEFPOINTS
 62
     0
 10
5038.5741014141404
 20
2467.3123359245192
 30
0.0
  0
POINT
  5
81A2
  8
DEFPOINTS
 62
     0
 10
5298.9003345986976
 20
2467.3123359245192
 30
0.0
  0
ENDBLK
  5
7D31
  8
0
  0
BLOCK
  8
0
  2
*D6
 70
     1
 10
0.0
 20
0.0
 30
0.0
  3
*D6
  1

  0
LINE
  5
7DAF
  8
0
  6
BYBLOCK
 62
     0
 10
5038.5741014141404
 20
3660.3123359245192
 30
0.0
 11
5038.5741014141404
 21
3981.61527098939
 31
0.0
  0
LINE
  5
7DB0
  8
0
  6
BYBLOCK
 62
     0
 10
4770.5741014141404
 20
3862.2813391902091
 30
0.0
 11
4770.5741014141404
 21
3981.61527098939
 31
0.0
  0
LINE
  5
7DB1
  8
0
  6
BYBLOCK
 62
     0
 10
4978.5741014141413
 20
3951.61527098939
 30
0.0
 11
4830.5741014141404
 21
3951.61527098939
 31
0.0
  0
TEXT
  5
7DB2
  8
3
 62
     0
 10
4795.4338984993155
 20
3990.3456629039679
 30
0.0
 40
90.0
  1
268
  0
INSERT
  5
7DB3
  8
0
  6
BYBLOCK
 62
     0
  2
_OPEN
 10
5038.5741014141404
 20
3951.61527098939
 30
0.0
 41
60.0
 42
60.0
 43
60.0
  0
INSERT
  5
7DB4
  8
0
  6
BYBLOCK
 62
     0
  2
_OPEN
 10
4770.5741014141404
 20
3951.61527098939
 30
0.0
 41
60.0
 42
60.0
 43
60.0
 50
180.0
  0
POINT
  5
7DB5
  8
DEFPOINTS
  6
BYBLOCK
 62
     0
 10
5038.5741014141404
 20
3645.3123359245178
 30
0.0
  0
POINT
  5
7DB6
  8
DEFPOINTS
  6
BYBLOCK
 62
     0
 10
4770.5741014141404
 20
3847.28133919021
 30
0.0
  0
POINT
  5
7DB7
  8
DEFPOINTS
  6
BYBLOCK
 62
     0
 10
4770.5741014141404
 20
3951.61527098939
 30
0.0
  0
ENDBLK
  5
7DB8
  8
0
  0
BLOCK
  8
0
  2
*D7
 70
     1
 10
0.0
 20
0.0
 30
0.0
  3
*D7
  1

  0
LINE
  5
81A3
  8
3
 62
     0
 10
3625.0741014141399
 20
3079.3123359245192
 30
0.0
 11
3625.0741014141399
 21
3680.61527098939
 31
0.0
  0
LINE
  5
81A4
  8
3
 62
     0
 10
4710.5741014141413
 20
3650.61527098939
 30
0.0
 11
3685.0741014141399
 21
3650.61527098939
 31
0.0
  0
INSERT
  5
81A5
  8
3
 62
     0
  2
_OPEN
 10
4770.5741014141404
 20
3650.61527098939
 30
0.0
 41
60.0
 42
60.0
 43
60.0
  0
INSERT
  5
81A6
  8
3
 62
     0
  2
_OPEN
 10
3625.0741014141399
 20
3650.61527098939
 30
0.0
 41
60.0
 42
60.0
 43
60.0
 50
180.0
  0
TEXT
  8
3
  40
90
  5
822D
  62
0
  72
0
  71
0
 10
4017.82
 20
3641.32
 30
0.000000
  1
MAX
  0
TEXT
  8
3
  40
90
  5
822E
  62
0
  72
0
  71
0
 10
4017.82
 20
3524.32
 30
0.000000
  1
1160
  0
POINT
  5
81A8
  8
DEFPOINTS
 62
     0
 10
4770.5741014141404
 20
3546.2813391902091
 30
0.0
  0
POINT
  5
81A9
  8
DEFPOINTS
 62
     0
 10
3625.0741014141399
 20
3064.3123359245192
 30
0.0
  0
POINT
  5
81AA
  8
DEFPOINTS
 62
     0
 10
3625.0741014141399
 20
3650.61527098939
 30
0.0
  0
ENDBLK
  5
7F78
  8
0
  0
BLOCK
  8
0
  2
*D8
 70
     1
 10
0.0
 20
0.0
 30
0.0
  3
*D8
  1

  0
LINE
  5
81AB
  8
3
 62
     0
 10
4505.5741014141404
 20
3359.3123359245192
 30
0.0
 11
4505.5741014141404
 21
3465.7991624136589
 31
0.0
  0
LINE
  5
81AC
  8
3
 62
     0
 10
5035.5741014141413
 20
3359.3123359245192
 30
0.0
 11
5035.5741014141413
 21
3465.7991624136589
 31
0.0
  0
LINE
  5
81AD
  8
3
 62
     0
 10
4565.5741014141404
 20
3435.799162413658
 30
0.0
 11
4975.5741014141413
 21
3435.799162413658
 31
0.0
  0
INSERT
  5
81AE
  8
3
 62
     0
  2
_OPEN
 10
4505.5741014141404
 20
3435.799162413658
 30
0.0
 41
60.0
 42
60.0
 43
60.0
 50
180.0
  0
INSERT
  5
81AF
  8
3
 62
     0
  2
_OPEN
 10
5035.5741014141413
 20
3435.799162413658
 30
0.0
 41
60.0
 42
60.0
 43
60.0
  0
TEXT
  8
3
  40
90
  5
822F
  62
0
  72
0
  71
0
 10
4589.70
 20
3351.50
 30
0.000000
  1
530
  0
POINT
  5
81B1
  8
DEFPOINTS
 62
     0
 10
4505.5741014141404
 20
3344.3123359245178
 30
0.0
  0
POINT
  5
81B2
  8
DEFPOINTS
 62
     0
 10
5035.5741014141413
 20
3344.3123359245178
 30
0.0
  0
POINT
  5
81B3
  8
DEFPOINTS
 62
     0
 10
5035.5741014141413
 20
3435.799162413658
 30
0.0
  0
ENDBLK
  5
7DA3
  8
0
  0
BLOCK
  8
0
  2
*D9
 70
     1
 10
0.0
 20
0.0
 30
0.0
  3
*D9
  1

  0
LINE
  5
81B4
  8
3
 62
     0
 10
1257.5704786437491
 20
6313.6246307899637
 30
0.0
 11
1257.5704786437491
 21
6495.0181677225701
 31
0.0
  0
LINE
  5
81B5
  8
3
 62
     0
 10
2157.5704786437491
 20
6313.6246307899637
 30
0.0
 11
2157.5704786437491
 21
6495.0181677225701
 31
0.0
  0
LINE
  5
81B6
  8
3
 62
     0
 10
1317.5704786437491
 20
6465.0181677225701
 30
0.0
 11
2097.5704786437491
 21
6465.0181677225701
 31
0.0
  0
INSERT
  5
81B7
  8
3
 62
     0
  2
_OPEN
 10
1257.5704786437491
 20
6465.0181677225701
 30
0.0
 41
60.0
 42
60.0
 43
60.0
 50
180.0
  0
INSERT
  5
81B8
  8
3
 62
     0
  2
_OPEN
 10
2157.5704786437491
 20
6465.0181677225701
 30
0.0
 41
60.0
 42
60.0
 43
60.0
  0
TEXT
  8
3
  40
90
  5
8230
  62
0
  72
0
  71
0
 10
1526.80
 20
6380.72
 30
0.000000
  1
900
  0
POINT
  5
81BA
  8
DEFPOINTS
 62
     0
 10
1257.5704786437491
 20
6298.6246307899637
 30
0.0
  0
POINT
  5
81BB
  8
DEFPOINTS
 62
     0
 10
2157.5704786437491
 20
6298.6246307899637
 30
0.0
  0
POINT
  5
81BC
  8
DEFPOINTS
 62
     0
 10
2157.5704786437491
 20
6465.0181677225701
 30
0.0
  0
ENDBLK
  5
8025
  8
0
  0
BLOCK
  8
0
  2
*D10
 70
     1
 10
0.0
 20
0.0
 30
0.0
  3
*D10
  1

  0
LINE
  5
7FF2
  8
0
  6
BYBLOCK
 62
     0
 10
2447.5704786437491
 20
5723.6246307899637
 30
0.0
 11
2447.5704786437491
 21
6495.0181677225701
 31
0.0
  0
LINE
  5
7FF3
  8
0
  6
BYBLOCK
 62
     0
 10
2217.5704786437491
 20
6465.0181677225701
 30
0.0
 11
2387.5704786437491
 21
6465.0181677225701
 31
0.0
  0
TEXT
  5
7FF4
  8
3
 62
     0
 10
2186.8561929294628
 20
6504.1976473153272
 30
0.0
 40
90.0
  1
290
  0
INSERT
  5
7FF5
  8
0
  6
BYBLOCK
 62
     0
  2
_OPEN
 10
2157.5704786437491
 20
6465.0181677225701
 30
0.0
 41
60.0
 42
60.0
 43
60.0
 50
180.0
  0
INSERT
  5
7FF6
  8
0
  6
BYBLOCK
 62
     0
  2
_OPEN
 10
2447.5704786437491
 20
6465.0181677225701
 30
0.0
 41
60.0
 42
60.0
 43
60.0
  0
POINT
  5
7FF7
  8
DEFPOINTS
  6
BYBLOCK
 62
     0
 10
2157.5704786437491
 20
6298.6246307899637
 30
0.0
  0
POINT
  5
7FF8
  8
DEFPOINTS
  6
BYBLOCK
 62
     0
 10
2447.5704786437491
 20
5708.6246307899628
 30
0.0
  0
POINT
  5
7FF9
  8
DEFPOINTS
  6
BYBLOCK
 62
     0
 10
2447.5704786437491
 20
6465.0181677225701
 30
0.0
  0
ENDBLK
  5
7FFA
  8
0
  0
BLOCK
  8
0
  2
*D11
 70
     1
 10
0.0
 20
0.0
 30
0.0
  3
*D11
  1

  0
LINE
  5
81BD
  8
3
 62
     0
 10
2462.5704786437491
 20
5708.6246307899628
 30
0.0
 11
2702.2348584151009
 21
5708.6246307899628
 31
0.0
  0
LINE
  5
81BE
  8
3
 62
     0
 10
2462.5704786437491
 20
5003.6246307899637
 30
0.0
 11
2702.2348584151009
 21
5003.6246307899637
 31
0.0
  0
LINE
  5
81BF
  8
3
 62
     0
 10
2672.2348584151009
 20
5648.6246307899637
 30
0.0
 11
2672.2348584151009
 21
5063.6246307899637
 31
0.0
  0
INSERT
  5
81C0
  8
3
 62
     0
  2
_OPEN
 10
2672.2348584151009
 20
5708.6246307899628
 30
0.0
 41
60.0
 42
60.0
 43
60.0
 50
90.0
  0
INSERT
  5
81C1
  8
3
 62
     0
  2
_OPEN
 10
2672.2348584151009
 20
5003.6246307899637
 30
0.0
 41
60.0
 42
60.0
 43
60.0
 50
270.0
  0
TEXT
  8
3
  40
90
  5
8231
  62
0
  72
0
  71
0
 10
2417.23
 20
5149.65
 30
0.000000
  1
705
  0
POINT
  5
81C3
  8
DEFPOINTS
 62
     0
 10
2447.5704786437491
 20
5708.6246307899628
 30
0.0
  0
POINT
  5
81C4
  8
DEFPOINTS
 62
     0
 10
2447.5704786437491
 20
5003.6246307899637
 30
0.0
  0
POINT
  5
81C5
  8
DEFPOINTS
 62
     0
 10
2672.2348584151009
 20
5003.6246307899637
 30
0.0
  0
ENDBLK
  5
80AA
  8
0
  0
BLOCK
  8
0
  2
*D12
 70
     1
 10
0.0
 20
0.0
 30
0.0
  3
*D12
  1

  0
LINE
  5
81C6
  8
3
 62
     0
 10
1442.5704786437491
 20
4988.6246307899628
 30
0.0
 11
1442.5704786437491
 21
4599.9055830525167
 31
0.0
  0
LINE
  5
81C7
  8
3
 62
     0
 10
2447.5704786437491
 20
4988.6246307899628
 30
0.0
 11
2447.5704786437491
 21
4599.9055830525167
 31
0.0
  0
LINE
  5
81C8
  8
3
 62
     0
 10
1502.5704786437491
 20
4629.9055830525176
 30
0.0
 11
2387.5704786437491
 21
4629.9055830525176
 31
0.0
  0
INSERT
  5
81C9
  8
3
 62
     0
  2
_OPEN
 10
1442.5704786437491
 20
4629.9055830525176
 30
0.0
 41
60.0
 42
60.0
 43
60.0
 50
180.0
  0
INSERT
  5
81CA
  8
3
 62
     0
  2
_OPEN
 10
2447.5704786437491
 20
4629.9055830525176
 30
0.0
 41
60.0
 42
60.0
 43
60.0
  0
TEXT
  8
3
  40
90
  5
8232
  62
0
  72
0
  71
0
 10
1762.70
 20
4545.61
 30
0.000000
  1
1005
  0
POINT
  5
81CC
  8
DEFPOINTS
 62
     0
 10
1442.5704786437491
 20
5003.6246307899637
 30
0.0
  0
POINT
  5
81CD
  8
DEFPOINTS
 62
     0
 10
2447.5704786437491
 20
5003.6246307899637
 30
0.0
  0
POINT
  5
81CE
  8
DEFPOINTS
 62
     0
 10
2447.5704786437491
 20
4629.9055830525176
 30
0.0
  0
ENDBLK
  5
7FF0
  8
0
  0
BLOCK
  8
0
  2
*D13
 70
     1
 10
0.0
 20
0.0
 30
0.0
  3
*D13
  1

  0
LINE
  5
81CF
  8
3
 62
     0
 10
1427.5704786437491
 20
5003.6246307899637
 30
0.0
 11
924.17427075250157
 21
5003.6246307899637
 31
0.0
  0
LINE
  5
81D0
  8
3
 62
     0
 10
1242.5704786437491
 20
5658.6246307899628
 30
0.0
 11
924.1742707525018
 21
5658.6246307899628
 31
0.0
  0
LINE
  5
81D1
  8
3
 62
     0
 10
954.17427075250168
 20
5063.6246307899637
 30
0.0
 11
954.17427075250168
 21
5598.6246307899637
 31
0.0
  0
INSERT
  5
81D2
  8
3
 62
     0
  2
_OPEN
 10
954.17427075250168
 20
5003.6246307899637
 30
0.0
 41
60.0
 42
60.0
 43
60.0
 50
270.0
  0
INSERT
  5
81D3
  8
3
 62
     0
  2
_OPEN
 10
954.17427075250168
 20
5658.6246307899628
 30
0.0
 41
60.0
 42
60.0
 43
60.0
 50
90.0
  0
TEXT
  8
3
  40
90
  5
8233
  62
0
  72
0
  71
0
 10
699.174
 20
5149.65
 30
0.000000
  1
655
  0
POINT
  5
81D5
  8
DEFPOINTS
 62
     0
 10
1442.5704786437491
 20
5003.6246307899637
 30
0.0
  0
POINT
  5
81D6
  8
DEFPOINTS
 62
     0
 10
1257.5704786437491
 20
5658.6246307899628
 30
0.0
  0
POINT
  5
81D7
  8
DEFPOINTS
 62
     0
 10
954.17427075250168
 20
5658.6246307899628
 30
0.0
  0
ENDBLK
  5
801A
  8
0
  0
BLOCK
  8
0
  2
*D14
 70
     1
 10
0.0
 20
0.0
 30
0.0
  3
*D14
  1

  0
LINE
  5
81D8
  8
3
 62
     0
 10
1242.5704786437491
 20
6298.6246307899637
 30
0.0
 11
924.17427075250089
 21
6298.6246307899637
 31
0.0
  0
LINE
  5
81D9
  8
3
 62
     0
 10
954.17427075250077
 20
5718.6246307899637
 30
0.0
 11
954.17427075250077
 21
6238.6246307899628
 31
0.0
  0
INSERT
  5
81DA
  8
3
 62
     0
  2
_OPEN
 10
954.17427075250077
 20
5658.6246307899628
 30
0.0
 41
60.0
 42
60.0
 43
60.0
 50
270.0
  0
INSERT
  5
81DB
  8
3
 62
     0
  2
_OPEN
 10
954.17427075250077
 20
6298.6246307899637
 30
0.0
 41
60.0
 42
60.0
 43
60.0
 50
90.0
  0
TEXT
  8
3
  40
90
  5
8234
  62
0
  72
0
  71
0
 10
699.174
 20
5819.32
 30
0.000000
  1
640
  0
POINT
  5
81DD
  8
DEFPOINTS
 62
     0
 10
1257.5704786437491
 20
5658.6246307899628
 30
0.0
  0
POINT
  5
81DE
  8
DEFPOINTS
 62
     0
 10
1257.5704786437491
 20
6298.6246307899637
 30
0.0
  0
POINT
  5
81DF
  8
DEFPOINTS
 62
     0
 10
954.17427075250077
 20
6298.6246307899637
 30
0.0
  0
ENDBLK
  5
800F
  8
0
  0
BLOCK
  8
0
  2
_DOT
 70
     0
 10
0.0
 20
0.0
 30
0.0
  3
_DOT
  1

  0
LINE
  5
7FDD
  8
0
  6
BYBLOCK
 62
     0
 10
0.0
 20
0.0
 30
0.0
 11
-1.0
 21
-0.0000000000000284
 31
0.0
  0
POLYLINE
  5
7FDE
  8
0
  6
BYBLOCK
 62
     0
 66
     1
 10
0.0
 20
0.0
 30
0.0
 70
     1
 40
0.1666666666666666
 41
0.1666666666666666
  0
VERTEX
  5
81F9
  8
0
  6
BYBLOCK
 62
     0
 10
-0.0833333333333286
 20
-0.0000000000000284
 30
0.0
 42
1.0
  0
VERTEX
  5
81FA
  8
0
  6
BYBLOCK
 62
     0
 10
0.0833333333333286
 20
-0.0000000000000284
 30
0.0
 42
1.0
  0
SEQEND
  5
81FB
  8
0
  6
BYBLOCK
 62
     0
  0
ENDBLK
  5
7EEA
  8
0
  0
BLOCK
  8
0
  2
*D16
 70
     1
 10
0.0
 20
0.0
 30
0.0
  3
*D16
  1

  0
LINE
  5
81E0
  8
3
 62
     0
 10
1692.5704786437491
 20
3344.3123359245192
 30
0.0
 11
935.41658040694904
 21
3344.3123359245201
 31
0.0
  0
LINE
  5
81E1
  8
3
 62
     0
 10
965.41658040694892
 20
2904.3123359245192
 30
0.0
 11
965.41658040694892
 21
3284.3123359245201
 31
0.0
  0
INSERT
  5
81E2
  8
3
 62
     0
  2
_OPEN
 10
965.41658040694892
 20
2844.3123359245192
 30
0.0
 41
60.0
 42
60.0
 43
60.0
 50
270.0
  0
INSERT
  5
81E3
  8
3
 62
     0
  2
_OPEN
 10
965.41658040694892
 20
3344.3123359245201
 30
0.0
 41
60.0
 42
60.0
 43
60.0
 50
90.0
  0
TEXT
  8
3
  40
90
  5
8235
  62
0
  72
0
  71
0
 10
710.417
 20
2935.01
 30
0.000000
  1
500
  0
POINT
  5
81E5
  8
DEFPOINTS
 62
     0
 10
1149.5407949996249
 20
2844.3123359245192
 30
0.0
  0
POINT
  5
81E6
  8
DEFPOINTS
 62
     0
 10
1707.5704786437491
 20
3344.3123359245192
 30
0.0
  0
POINT
  5
81E7
  8
DEFPOINTS
 62
     0
 10
965.41658040694892
 20
3344.3123359245201
 30
0.0
  0
ENDBLK
  5
80D9
  8
0
  0
BLOCK
  8
0
  2
*D17
 70
     1
 10
0.0
 20
0.0
 30
0.0
  3
*D17
  1

  0
LINE
  5
81E8
  8
3
 62
     0
 10
1201.5704786437491
 20
2806.3123359245192
 30
0.0
 11
1201.5704786437491
 21
3767.7445087719102
 31
0.0
  0
LINE
  5
81E9
  8
3
 62
     0
 10
1647.5704786437491
 20
3737.7445087719111
 30
0.0
 11
1261.5704786437491
 21
3737.7445087719111
 31
0.0
  0
INSERT
  5
81EA
  8
3
 62
     0
  2
_OPEN
 10
1707.5704786437491
 20
3737.7445087719111
 30
0.0
 41
60.0
 42
60.0
 43
60.0
  0
INSERT
  5
81EB
  8
3
 62
     0
  2
_OPEN
 10
1201.5704786437491
 20
3737.7445087719111
 30
0.0
 41
60.0
 42
60.0
 43
60.0
 50
180.0
  0
TEXT
  8
3
  40
90
  5
8236
  62
0
  72
0
  71
0
 10
1274.57
 20
3653.44
 30
0.000000
  1
506
  0
POINT
  5
81ED
  8
DEFPOINTS
 62
     0
 10
1707.5704786437491
 20
3402.3420195686431
 30
0.0
  0
POINT
  5
81EE
  8
DEFPOINTS
 62
     0
 10
1201.5704786437491
 20
2791.3123359245192
 30
0.0
  0
POINT
  5
81EF
  8
DEFPOINTS
 62
     0
 10
1201.5704786437491
 20
3737.7445087719111
 30
0.0
  0
ENDBLK
  5
8066
  8
0
  0
BLOCK
  8
0
  2
*D18
 70
     1
 10
0.0
 20
0.0
 30
0.0
  3
*D18
  1

  0
LINE
  5
81F0
  8
3
 62
     0
 10
2508.5704786437491
 20
3359.3123359245192
 30
0.0
 11
2508.5704786437491
 21
3954.4333985372718
 31
0.0
  0
LINE
  5
81F1
  8
3
 62
     0
 10
1201.5704786437491
 20
2806.3123359245192
 30
0.0
 11
1201.5704786437491
 21
3954.4333985372718
 31
0.0
  0
LINE
  5
81F2
  8
3
 62
     0
 10
2448.5704786437491
 20
3924.4333985372732
 30
0.0
 11
1261.5704786437491
 21
3924.4333985372732
 31
0.0
  0
INSERT
  5
81F3
  8
3
 62
     0
  2
_OPEN
 10
2508.5704786437491
 20
3924.4333985372732
 30
0.0
 41
60.0
 42
60.0
 43
60.0
  0
INSERT
  5
81F4
  8
3
 62
     0
  2
_OPEN
 10
1201.5704786437491
 20
3924.4333985372732
 30
0.0
 41
60.0
 42
60.0
 43
60.0
 50
180.0
  0
TEXT
  8
3
  40
90
  5
8237
  62
0
  72
0
  71
0
 10
1597.49
 20
3840.13
 30
0.000000
  1
1307
  0
POINT
  5
81F6
  8
DEFPOINTS
 62
     0
 10
2508.5704786437491
 20
3344.3123359245192
 30
0.0
  0
POINT
  5
81F7
  8
DEFPOINTS
 62
     0
 10
1201.5704786437491
 20
2791.3123359245192
 30
0.0
  0
POINT
  5
81F8
  8
DEFPOINTS
 62
     0
 10
1201.5704786437491
 20
3924.4333985372732
 30
0.0
  0
ENDBLK
  5
8030
  8
0
  0
BLOCK
  8
0
  2
*D19
 70
     1
 10
0.0
 20
0.0
 30
0.0
  3
*D19
  1

  0
LINE
  5
81FC
  8
3
 62
     0
 10
1257.5704786437491
 20
2189.3123359245192
 30
0.0
 11
1257.5704786437491
 21
2002.6171142559469
 31
0.0
  0
LINE
  5
81FD
  8
3
 62
     0
 10
1707.5704786437479
 20
2189.3123359245192
 30
0.0
 11
1707.5704786437479
 21
2002.6171142559469
 31
0.0
  0
LINE
  5
81FE
  8
3
 62
     0
 10
1317.5704786437491
 20
2032.6171142559469
 30
0.0
 11
1647.5704786437491
 21
2032.6171142559469
 31
0.0
  0
INSERT
  5
81FF
  8
3
 62
     0
  2
_OPEN
 10
1257.5704786437491
 20
2032.6171142559469
 30
0.0
 41
60.0
 42
60.0
 43
60.0
 50
180.0
  0
INSERT
  5
8200
  8
3
 62
     0
  2
_OPEN
 10
1707.5704786437479
 20
2032.6171142559469
 30
0.0
 41
60.0
 42
60.0
 43
60.0
  0
TEXT
  8
3
  40
90
  5
8238
  62
0
  72
0
  71
0
 10
1302.57
 20
1948.32
 30
0.000000
  1
450
  0
POINT
  5
8202
  8
DEFPOINTS
 62
     0
 10
1257.5704786437491
 20
2204.3123359245192
 30
0.0
  0
POINT
  5
8203
  8
DEFPOINTS
 62
     0
 10
1707.5704786437479
 20
2204.3123359245192
 30
0.0
  0
POINT
  5
8204
  8
DEFPOINTS
 62
     0
 10
1707.5704786437479
 20
2032.6171142559469
 30
0.0
  0
ENDBLK
  5
8117
  8
0
  0
BLOCK
  8
0
  2
*D20
 70
     1
 10
0.0
 20
0.0
 30
0.0
  3
*D20
  1

  0
LINE
  5
8205
  8
3
 62
     0
 10
1707.5704786437479
 20
2189.3123359245192
 30
0.0
 11
1707.5704786437479
 21
2002.6171142559469
 31
0.0
  0
LINE
  5
8206
  8
3
 62
     0
 10
2447.5704786437491
 20
2189.3123359245192
 30
0.0
 11
2447.5704786437491
 21
2002.6171142559469
 31
0.0
  0
LINE
  5
8207
  8
3
 62
     0
 10
1767.5704786437479
 20
2032.6171142559469
 30
0.0
 11
2387.5704786437491
 21
2032.6171142559469
 31
0.0
  0
INSERT
  5
8208
  8
3
 62
     0
  2
_OPEN
 10
1707.5704786437479
 20
2032.6171142559469
 30
0.0
 41
60.0
 42
60.0
 43
60.0
 50
180.0
  0
INSERT
  5
8209
  8
3
 62
     0
  2
_OPEN
 10
2447.5704786437491
 20
2032.6171142559469
 30
0.0
 41
60.0
 42
60.0
 43
60.0
  0
TEXT
  8
3
  40
90
  5
8239
  62
0
  72
0
  71
0
 10
1897.57
 20
1948.32
 30
0.000000
  1
740
  0
POINT
  5
820B
  8
DEFPOINTS
 62
     0
 10
1707.5704786437479
 20
2204.3123359245192
 30
0.0
  0
POINT
  5
820C
  8
DEFPOINTS
 62
     0
 10
2447.5704786437491
 20
2204.3123359245192
 30
0.0
  0
POINT
  5
820D
  8
DEFPOINTS
 62
     0
 10
2447.5704786437491
 20
2032.6171142559469
 30
0.0
  0
ENDBLK
  5
8124
  8
0
  0
BLOCK
  8
0
  2
*D21
 70
     1
 10
0.0
 20
0.0
 30
0.0
  3
*D21
  1

  0
LINE
  5
820E
  8
3
 62
     0
 10
3795.5741014141399
 20
2189.3123359245192
 30
0.0
 11
3795.5741014141399
 21
2002.6171142559469
 31
0.0
  0
LINE
  5
820F
  8
3
 62
     0
 10
4770.5741014141404
 20
2189.3123359245192
 30
0.0
 11
4770.5741014141404
 21
2002.6171142559469
 31
0.0
  0
LINE
  5
8210
  8
3
 62
     0
 10
3855.5741014141399
 20
2032.6171142559469
 30
0.0
 11
4710.5741014141413
 21
2032.6171142559469
 31
0.0
  0
INSERT
  5
8211
  8
3
 62
     0
  2
_OPEN
 10
3795.5741014141399
 20
2032.6171142559469
 30
0.0
 41
60.0
 42
60.0
 43
60.0
 50
180.0
  0
INSERT
  5
8212
  8
3
 62
     0
  2
_OPEN
 10
4770.5741014141404
 20
2032.6171142559469
 30
0.0
 41
60.0
 42
60.0
 43
60.0
  0
TEXT
  8
3
  40
90
  5
823A
  62
0
  72
0
  71
0
 10
4103.07
 20
1948.32
 30
0.000000
  1
975
  0
POINT
  5
8214
  8
DEFPOINTS
 62
     0
 10
3795.5741014141399
 20
2204.3123359245192
 30
0.0
  0
POINT
  5
8215
  8
DEFPOINTS
 62
     0
 10
4770.5741014141404
 20
2204.3123359245178
 30
0.0
  0
POINT
  5
8216
  8
DEFPOINTS
 62
     0
 10
4770.5741014141404
 20
2032.6171142559469
 30
0.0
  0
ENDBLK
  5
8131
  8
0
  0
BLOCK
  8
0
  2
*D22
 70
     1
 10
0.0
 20
0.0
 30
0.0
  3
*D22
  1

  0
LINE
  5
8217
  8
3
 62
     0
 10
4770.5741014141404
 20
2189.3123359245192
 30
0.0
 11
4770.5741014141404
 21
2002.6171142559469
 31
0.0
  0
LINE
  5
8218
  8
3
 62
     0
 10
5090.5741014141413
 20
2189.3123359245192
 30
0.0
 11
5090.5741014141413
 21
2002.6171142559469
 31
0.0
  0
LINE
  5
8219
  8
3
 62
     0
 10
4830.5741014141404
 20
2032.6171142559469
 30
0.0
 11
5030.5741014141404
 21
2032.6171142559469
 31
0.0
  0
INSERT
  5
821A
  8
3
 62
     0
  2
_OPEN
 10
4770.5741014141404
 20
2032.6171142559469
 30
0.0
 41
60.0
 42
60.0
 43
60.0
 50
180.0
  0
INSERT
  5
821B
  8
3
 62
     0
  2
_OPEN
 10
5090.5741014141413
 20
2032.6171142559469
 30
0.0
 41
60.0
 42
60.0
 43
60.0
  0
TEXT
  8
3
  40
90
  5
823B
  62
0
  72
0
  71
0
 10
4750.57
 20
1948.32
 30
0.000000
  1
320
  0
POINT
  5
821D
  8
DEFPOINTS
 62
     0
 10
4770.5741014141404
 20
2204.3123359245178
 30
0.0
  0
POINT
  5
821E
  8
DEFPOINTS
 62
     0
 10
5090.5741014141413
 20
2204.3123359245178
 30
0.0
  0
POINT
  5
821F
  8
DEFPOINTS
 62
     0
 10
5090.5741014141413
 20
2032.6171142559469
 30
0.0
  0
ENDBLK
  5
8140
  8
0
  0
BLOCK
  8
0
  2
*D23
 70
     1
 10
0.0
 20
0.0
 30
0.0
  3
*D23
  1

  0
LINE
  5
8220
  8
3
 62
     0
 10
1679.5704786437491
 20
3344.3123359245192
 30
0.0
 11
733.25536645485442
 21
3344.3123359245201
 31
0.0
  0
LINE
  5
8221
  8
3
 62
     0
 10
1242.5704786437491
 20
2204.3123359245192
 30
0.0
 11
733.25536645485408
 21
2204.3123359245192
 31
0.0
  0
LINE
  5
8222
  8
3
 62
     0
 10
763.25536645485431
 20
3284.3123359245201
 30
0.0
 11
763.25536645485408
 21
2264.3123359245201
 31
0.0
  0
INSERT
  5
8223
  8
3
 62
     0
  2
_OPEN
 10
763.25536645485442
 20
3344.3123359245201
 30
0.0
 41
60.0
 42
60.0
 43
60.0
 50
90.0
  0
INSERT
  5
8224
  8
3
 62
     0
  2
_OPEN
 10
763.25536645485408
 20
2204.3123359245192
 30
0.0
 41
60.0
 42
60.0
 43
60.0
 50
270.0
  0
TEXT
  8
3
  40
90
  5
823C
  62
0
  72
0
  71
0
 10
508.255
 20
2615.01
 30
0.000000
  1
1140
  0
POINT
  5
8226
  8
DEFPOINTS
 62
     0
 10
1694.5704786437491
 20
3344.3123359245192
 30
0.0
  0
POINT
  5
8227
  8
DEFPOINTS
 62
     0
 10
1257.5704786437491
 20
2204.3123359245192
 30
0.0
  0
POINT
  5
8228
  8
DEFPOINTS
 62
     0
 10
763.25536645485408
 20
2204.3123359245192
 30
0.0
  0
ENDBLK
  5
814D
  8
0
  0
ENDSEC
  0
SECTION
  2
ENTITIES
  0
INSERT
  5
7AF9
  8
0
  2
YA_N
 10
2375.7491199319738
 20
5.0
 30
0.0
  0
LINE
  5
7AFB
  8
2
 10
1149.5407949996249
 20
2844.3123359245192
 30
0.0
 11
2526.7761855484928
 21
2844.3123359245192
 31
0.0
  0
ARC
  5
7AFC
  8
1
 10
1760.5704786437491
 20
2897.3123359245192
 30
0.0
 40
665.0
 50
339.70515868279341
 51
355.42872127646581
  0
ARC
  5
7AFE
  8
1
 10
1665.5704786437491
 20
2802.3123359245192
 30
0.0
 40
464.0
 50
84.806635702607807
 51
174.80663570260779
  0
LINE
  5
7AFF
  8
1
 10
2508.5704786437491
 20
3344.3123359245192
 30
0.0
 11
1694.5704786437491
 21
3344.3123359245192
 31
0.0
  0
LINE
  5
7B00
  8
1
 10
1736.5704786437491
 20
3344.3123359245192
 30
0.0
 11
1736.5704786437491
 21
3265.3147112147308
 31
0.0
  0
LINE
  5
7B01
  8
1
 10
2423.4550839861872
 20
2844.3123359245192
 30
0.0
 11
2466.5704786437491
 21
3344.3123359245192
 31
0.0
  0
LINE
  5
7B02
  8
1
 10
2508.5704786437491
 20
3344.3123359245192
 30
0.0
 11
2508.5704786437491
 21
3304.3123359245192
 31
0.0
  0
LINE
  5
7B03
  8
1
 10
1694.5704786437491
 20
3344.3123359245192
 30
0.0
 11
1694.5704786437491
 21
3304.3123359245192
 31
0.0
  0
LINE
  5
7B04
  8
1
 10
2508.5704786437491
 20
3304.3123359245192
 30
0.0
 11
1694.5704786437491
 21
3304.3123359245192
 31
0.0
  0
LINE
  5
7B05
  8
1
 10
2508.5704786437491
 20
3341.3123359245192
 30
0.0
 11
1694.5704786437491
 21
3341.3123359245192
 31
0.0
  0
LINE
  5
7B06
  8
1
 10
1257.5704786437491
 20
2304.3123359245192
 30
0.0
 11
1257.5704786437491
 21
2204.3123359245192
 31
0.0
  0
LINE
  5
7B07
  8
1
 10
1257.5704786437491
 20
2304.3123359245192
 30
0.0
 11
2467.5704786437491
 21
2304.3123359245192
 31
0.0
  0
LINE
  5
7B08
  8
1
 10
1257.5704786437491
 20
2204.3123359245192
 30
0.0
 11
2447.5704786437491
 21
2204.3123359245192
 31
0.0
1001
ACAD
1000
ASC_BOUNDS
1002
{
1070
    19
1002
}
  0
LINE
  5
7B09
  8
1
 10
2467.5704786437491
 20
2344.3123359245192
 30
0.0
 11
2467.5704786437491
 21
2304.3123359245192
 31
0.0
  0
LINE
  5
7B0A
  8
2
 10
1707.5704786437479
 20
2204.3123359245192
 30
0.0
 11
1707.5704786437491
 21
3369.8928582416552
 31
0.0
  0
LINE
  5
7B0B
  8
1
 10
2067.5704786437491
 20
2344.3123359245192
 30
0.0
 11
2467.5704786437491
 21
2344.3123359245192
 31
0.0
  0
LINE
  5
7B0C
  8
1
 10
2067.5704786437491
 20
2304.3123359245192
 30
0.0
 11
2067.5704786437491
 21
2344.3123359245192
 31
0.0
  0
LINE
  5
7B10
  8
2
 10
4770.5741014141404
 20
2204.3123359245178
 30
0.0
 11
4770.5741014141404
 21
3429.0449039888508
 31
0.0
  0
LINE
  5
7B11
  8
2
 10
3650.646112690567
 20
2844.3123359245192
 30
0.0
 11
5102.9395614708592
 21
2844.3123359245192
 31
0.0
  0
LINE
  5
7B12
  8
1
 10
3795.5741014141399
 20
2304.3123359245192
 30
0.0
 11
5090.5741014141413
 21
2304.3123359245192
 31
0.0
  0
LINE
  5
7B13
  8
1
 10
3795.5741014141399
 20
2204.3123359245192
 30
0.0
 11
5090.5741014141413
 21
2204.3123359245178
 31
0.0
1001
ACAD
1000
ASC_BOUNDS
1002
{
1070
    19
1002
}
  0
LINE
  5
7B14
  8
1
 10
5037.8741014141387
 20
3239.3123359245192
 30
0.0
 11
5038.5741014141404
 21
3239.3123359245192
 31
0.0
  0
LINE
  5
7B15
  8
1
 10
5037.8741014141387
 20
2449.3123359245192
 30
0.0
 11
5038.5741014141404
 21
2449.3123359245192
 31
0.0
  0
LINE
  5
7B16
  8
2
 10
1707.5704786437491
 20
6353.7099191859561
 30
0.0
 11
1707.5704786437491
 21
4801.4800930230613
 31
0.0
  0
LINE
  5
7B17
  8
2
 10
2552.69886315953
 20
5980.6246307899628
 30
0.0
 11
1145.5502682622639
 21
5980.6246307899637
 31
0.0
  0
LINE
  5
7B19
  8
1
 10
5035.5741014141413
 20
2304.3123359245192
 30
0.0
 11
5035.5741014141413
 21
2844.3123359245192
 31
0.0
  0
LINE
  5
7B1A
  8
1
 10
4505.5741014141404
 20
2304.3123359245192
 30
0.0
 11
4505.5741014141404
 21
2844.3123359245192
 31
0.0
  0
POINT
  5
7B1B
  8
1
 10
2466.5704786437491
 20
3344.3123359245192
 30
0.0
  0
POINT
  5
7B1C
  8
1
 10
1707.5704786437491
 20
3304.4949083889701
 30
0.0
  0
INSERT
  5
7B1D
  8
0
  2
YA_N
 10
1277.7242886368399
 20
-1095.3196821357051
 30
0.0
 41
20.0
 42
20.0
 43
20.0
  0
LINE
  5
7B20
  8
1
 10
2447.5704786437491
 20
2304.3123359245192
 30
0.0
 11
2447.5704786437491
 21
2204.3123359245192
 31
0.0
  0
LINE
  5
7B29
  8
1
 10
1442.5704786437491
 20
2204.3123359245192
 30
0.0
 11
1442.5704786437491
 21
2304.3123359245192
 31
0.0
  0
LINE
  5
7B2A
  8
1
 10
5077.5741014142077
 20
3304.3123359245192
 30
0.0
 11
5077.5741014142277
 21
3344.3123359245178
 31
0.0
  0
LINE
  5
7B2B
  8
1
 10
4463.5741014141404
 20
3304.3123359245192
 30
0.0
 11
4463.5741014141404
 21
3344.3123359245178
 31
0.0
  0
LINE
  5
7B2C
  8
1
 10
3832.5741014141399
 20
2304.3123359245192
 30
0.0
 11
3832.5741014141399
 21
2533.3123359245178
 31
0.0
  0
LINE
  5
7B2D
  8
1
 10
3832.5741014141399
 20
2784.3123359245192
 30
0.0
 11
4402.5741014141404
 21
2784.3123359245192
 31
0.0
  0
LINE
  5
7B2E
  8
1
 10
4402.5741014141404
 20
2304.3123359245192
 30
0.0
 11
4402.5741014141404
 21
2784.3123359245192
 31
0.0
  0
LINE
  5
7B32
  8
1
 10
3777.5741014141399
 20
2865.3123359245192
 30
0.0
 11
3787.5741014141399
 21
2865.3123359245192
 31
0.0
  0
LINE
  5
7B33
  8
1
 10
3777.5741014141399
 20
2823.3123359245192
 30
0.0
 11
3787.5741014141399
 21
2823.3123359245192
 31
0.0
  0
LINE
  5
7B34
  8
1
 10
3787.574101414139
 20
2816.8123359245178
 30
0.0
 11
3787.5741014141399
 21
2871.8123359245192
 31
0.0
  0
LINE
  5
7B38
  8
1
 10
3787.5741014141408
 20
2871.8123359245192
 30
0.0
 11
4505.5741014141404
 21
2871.8123359245201
 31
0.0
  0
LINE
  5
7B39
  8
1
 10
3787.574101414139
 20
2816.8123359245178
 30
0.0
 11
4505.5741014141404
 21
2816.8123359245192
 31
0.0
  0
LINE
  5
7B3A
  8
1
 10
3676.5741014141399
 20
2475.3123359245192
 30
0.0
 11
3676.5741014141399
 21
2996.7123359245188
 31
0.0
  0
LINE
  5
7B3B
  8
1
 10
3777.5741014141399
 20
2475.3123359245192
 30
0.0
 11
3777.5741014141399
 21
2996.7123359245188
 31
0.0
  0
LINE
  5
7B3C
  8
1
 10
3825.0741014141399
 20
2404.3123359245192
 30
0.0
 11
3825.0741014141399
 21
2424.3123359245192
 31
0.0
  0
LINE
  5
7B3D
  8
1
 10
3625.0741014141399
 20
2404.3123359245192
 30
0.0
 11
3625.0741014141399
 21
3064.3123359245192
 31
0.0
  0
POINT
  5
7B3F
  8
1
 10
2447.5704786437491
 20
2204.3123359245192
 30
0.0
  0
LINE
  5
7B42
  8
1
 10
2113.5704786437491
 20
2410.3123359245192
 30
0.0
 11
2133.0029786437481
 21
2463.702335924519
 31
0.0
  0
LINE
  5
7B43
  8
1
 10
2421.5704786437491
 20
2410.3123359245192
 30
0.0
 11
2402.137878643749
 21
2463.702335924519
 31
0.0
  0
ARC
  5
7B44
  8
1
 10
2267.5704786437491
 20
2554.3123359245192
 30
0.0
 40
162.0
 50
180.0
 51
254.35189999999989
  0
ARC
  5
7B45
  8
1
 10
2267.5704786437491
 20
2554.3123359245192
 30
0.0
 40
162.0
 50
285.45729999999998
 51
180.0
  0
LINE
  5
7B46
  8
2
 10
2267.5704786437491
 20
2778.296123871884
 30
0.0
 11
2267.5704786437491
 21
2273.674059576334
 31
0.0
  0
LINE
  5
7B47
  8
1
 10
2311.2510786437492
 20
2398.3123359245192
 30
0.0
 11
2223.8897786437492
 21
2398.3123359245192
 31
0.0
  0
LINE
  5
7B48
  8
1
 10
2352.5143786437488
 20
2416.3683359245192
 30
0.0
 11
2360.6917786437489
 21
2408.1903359245189
 31
0.0
  0
LINE
  5
7B49
  8
1
 10
2374.7836786437492
 20
2412.3123359245192
 30
0.0
 11
2419.5704786437491
 21
2412.3123359245192
 31
0.0
  0
LINE
  5
7B4A
  8
1
 10
2401.8204786437491
 20
2412.3123359245192
 30
0.0
 11
2401.8204786437491
 21
2394.3123359245192
 31
0.0
  0
ARC
  5
7B4B
  8
1
 10
2419.5704786437491
 20
2410.3123359245192
 30
0.0
 40
2.0
 50
0.0
 51
90.0
  0
LINE
  5
7B4C
  8
1
 10
2394.5704786437491
 20
2417.041335924519
 30
0.0
 11
2394.5704786437491
 21
2386.7833359245192
 31
0.0
  0
LINE
  5
7B4D
  8
1
 10
2421.5704786437491
 20
2394.3123359245192
 30
0.0
 11
2421.5704786437491
 21
2410.3123359245192
 31
0.0
  0
LINE
  5
7B4E
  8
1
 10
2387.3204786437482
 20
2412.3123359245192
 30
0.0
 11
2387.3204786437482
 21
2394.3123359245192
 31
0.0
  0
ARC
  5
7B4F
  8
1
 10
2358.5704786437491
 20
2406.0693359245188
 30
0.0
 40
3.0
 50
0.0
 51
45.0
  0
LINE
  5
7B50
  8
1
 10
2361.5704786437491
 20
2394.3123359245192
 30
0.0
 11
2361.5704786437491
 21
2406.0693359245188
 31
0.0
  0
ARC
  5
7B51
  8
1
 10
2372.6509786437491
 20
2424.5153359245191
 30
0.0
 40
8.0
 50
225.0
 51
308.99310000000003
  0
ARC
  5
7B52
  8
1
 10
2267.5704786437491
 20
2554.3123359245192
 30
0.0
 40
175.0
 50
308.99299999999988
 51
313.80709999999999
  0
ARC
  5
7B53
  8
1
 10
2383.1732786437492
 20
2433.7923359245192
 30
0.0
 40
8.0
 50
313.80680000000001
 51
45.0
  0
LINE
  5
7B54
  8
1
 10
2385.3151786437488
 20
2442.9643359245192
 30
0.0
 11
2389.0311786437478
 21
2439.2483359245189
 31
0.0
  0
ARC
  5
7B55
  8
1
 10
2374.7836786437492
 20
2415.3123359245192
 30
0.0
 40
3.0
 50
225.0
 51
270.0
  0
LINE
  5
7B56
  8
1
 10
2362.6816786437489
 20
2423.1713359245191
 30
0.0
 11
2372.6622786437488
 21
2413.1903359245189
 31
0.0
  0
ARC
  5
7B57
  8
1
 10
2162.4898786437479
 20
2424.5153359245191
 30
0.0
 40
8.0
 50
231.00689999999989
 51
315.0
  0
LINE
  5
7B58
  8
1
 10
2160.357278643748
 20
2412.3123359245192
 30
0.0
 11
2115.5704786437491
 21
2412.3123359245192
 31
0.0
  0
LINE
  5
7B59
  8
1
 10
2182.626578643748
 20
2416.3683359245192
 30
0.0
 11
2174.4490786437491
 21
2408.1903359245189
 31
0.0
  0
ARC
  5
7B5A
  8
1
 10
2176.5704786437491
 20
2406.0693359245188
 30
0.0
 40
3.0
 50
135.0
 51
180.0
  0
LINE
  5
7B5B
  8
1
 10
2173.5704786437491
 20
2394.3123359245192
 30
0.0
 11
2173.5704786437491
 21
2406.0693359245188
 31
0.0
  0
ARC
  5
7B5C
  8
1
 10
2160.357278643748
 20
2415.3123359245192
 30
0.0
 40
3.0
 50
270.0
 51
315.0
  0
LINE
  5
7B5D
  8
1
 10
2162.3682786437489
 20
2413.0803359245192
 30
0.0
 11
2172.4592786437488
 21
2423.1713359245191
 31
0.0
  0
LINE
  5
7B5E
  8
1
 10
2147.8204786437491
 20
2412.3123359245192
 30
0.0
 11
2147.8204786437491
 21
2394.3123359245192
 31
0.0
  0
LINE
  5
7B5F
  8
1
 10
2133.3204786437491
 20
2412.3123359245192
 30
0.0
 11
2133.3204786437491
 21
2394.3123359245192
 31
0.0
  0
LINE
  5
7B60
  8
1
 10
2140.5704786437491
 20
2417.041335924519
 30
0.0
 11
2140.5704786437491
 21
2386.7833359245192
 31
0.0
  0
ARC
  5
7B61
  8
1
 10
2151.9675786437492
 20
2433.7923359245192
 30
0.0
 40
8.0
 50
135.0
 51
226.19319999999991
  0
LINE
  5
7B62
  8
1
 10
2149.825778643748
 20
2442.9643359245192
 30
0.0
 11
2146.109778643749
 21
2439.2483359245189
 31
0.0
  0
ARC
  5
7B63
  8
1
 10
2267.5704786437491
 20
2554.3123359245192
 30
0.0
 40
175.0
 50
226.1928999999999
 51
231.00699999999989
  0
ARC
  5
7B64
  8
1
 10
2115.5704786437491
 20
2410.3123359245192
 30
0.0
 40
2.0
 50
90.0
 51
180.0
  0
LINE
  5
7B65
  8
1
 10
2113.5704786437491
 20
2394.3123359245192
 30
0.0
 11
2113.5704786437491
 21
2410.3123359245192
 31
0.0
  0
LINE
  5
7B66
  8
2
 10
2468.926916270349
 20
2554.3123359245192
 30
0.0
 11
2071.2401834326411
 21
2554.3123359245192
 31
0.0
  0
LINE
  5
7B67
  8
1
 10
2083.1714723526852
 20
2394.3123359245192
 30
0.0
 11
2207.5704786437491
 21
2394.3123359245192
 31
0.0
  0
LINE
  5
7B68
  8
1
 10
2465.0704786437491
 20
2344.3123359245192
 30
0.0
 11
2451.63836414769
 21
2394.3123359245192
 31
0.0
  0
LINE
  5
7B69
  8
1
 10
2070.0704786437491
 20
2344.3123359245192
 30
0.0
 11
2083.1714723526852
 21
2394.3123359245192
 31
0.0
  0
LINE
  5
7B6A
  8
1
 10
2207.5704786437491
 20
2389.3123359245192
 30
0.0
 11
2327.5704786437491
 21
2389.3123359245192
 31
0.0
  0
LINE
  5
7B6B
  8
1
 10
2207.5704786437491
 20
2349.3123359245192
 30
0.0
 11
2327.5704786437491
 21
2349.3123359245192
 31
0.0
  0
LINE
  5
7B6C
  8
1
 10
2207.5704786437491
 20
2394.3123359245192
 30
0.0
 11
2207.5704786437491
 21
2389.3123359245192
 31
0.0
  0
LINE
  5
7B6D
  8
1
 10
2327.5704786437491
 20
2394.3123359245192
 30
0.0
 11
2327.5704786437491
 21
2389.3123359245192
 31
0.0
  0
LINE
  5
7B6E
  8
1
 10
2327.5704786437491
 20
2394.3123359245192
 30
0.0
 11
2451.63836414769
 21
2394.3123359245192
 31
0.0
  0
LINE
  5
7B6F
  8
1
 10
2207.5704786437491
 20
2349.3123359245192
 30
0.0
 11
2207.5704786437491
 21
2344.3123359245192
 31
0.0
  0
LINE
  5
7B70
  8
1
 10
2327.5704786437491
 20
2349.3123359245192
 30
0.0
 11
2327.5704786437491
 21
2344.3123359245192
 31
0.0
  0
CIRCLE
  5
7B71
  8
1
 10
2267.5704786437491
 20
2554.3123359245192
 30
0.0
 40
79.0
  0
LINE
  5
7B72
  8
1
 10
3676.5741014141399
 20
2633.3123359245192
 30
0.0
 11
3777.5741014141399
 21
2633.3123359245192
 31
0.0
  0
LINE
  5
7B73
  8
1
 10
3676.5741014141399
 20
2475.3123359245192
 30
0.0
 11
3777.5741014141399
 21
2475.3123359245192
 31
0.0
  0
LINE
  5
7B74
  8
1
 10
3625.0741014141399
 20
2404.3123359245192
 30
0.0
 11
3825.0741014141399
 21
2404.3123359245192
 31
0.0
  0
LINE
  5
7B75
  8
1
 10
3825.0741014141399
 20
3044.3123359245192
 30
0.0
 11
3825.0741014141399
 21
3064.3123359245192
 31
0.0
  0
LINE
  5
7B76
  8
1
 10
2157.5704786437491
 20
6298.6246307899637
 30
0.0
 11
1257.5704786437491
 21
6298.6246307899637
 31
0.0
  0
LINE
  5
7B77
  8
1
 10
1442.5704786437491
 20
5658.6246307899628
 30
0.0
 11
1257.5704786437491
 21
5658.6246307899628
 31
0.0
  0
LINE
  5
7B78
  8
1
 10
1257.5704786437491
 20
6298.6246307899637
 30
0.0
 11
1257.5704786437491
 21
6245.6246307899673
 31
0.0
  0
LINE
  5
7B79
  8
1
 10
2157.5704786437491
 20
6298.6246307899637
 30
0.0
 11
2157.5704786437491
 21
6287.6246307897827
 31
0.0
  0
LINE
  5
7B7A
  8
1
 10
2447.5704786437491
 20
5708.6246307899628
 30
0.0
 11
2447.5704786437491
 21
5003.6246307899628
 31
0.0
  0
LINE
  5
7B7B
  8
1
 10
2447.5704786437491
 20
5708.6246307899628
 30
0.0
 11
2157.5704786437491
 21
5708.6246307899628
 31
0.0
  0
LINE
  5
7B7C
  8
1
 10
2447.5704786437491
 20
5003.6246307899637
 30
0.0
 11
1442.5704786437491
 21
5003.6246307899637
 31
0.0
  0
LINE
  5
7B7D
  8
1
 10
1442.5704786437491
 20
5658.6246307899628
 30
0.0
 11
1442.5704786437491
 21
5003.6246307899637
 31
0.0
  0
INSERT
  5
7B7E
  8
0
  2
YA_N
 10
1455.327808750855
 20
-1134.8543670562351
 30
0.0
 41
20.0
 42
20.0
 43
20.0
  0
LINE
  5
7B80
  8
1
 10
5038.5741014141404
 20
2449.3123359245192
 30
0.0
 11
5038.5741014141404
 21
3344.3123359245178
 31
0.0
  0
POINT
  5
7B84
  8
1
 10
1257.5704786437491
 20
2204.3123359245192
 30
0.0
  0
POINT
  5
7B85
  8
1
 10
5038.5741014141404
 20
3344.3123359245192
 30
0.0
  0
POINT
  5
7B86
  8
1
 10
1257.5704786437491
 20
5658.6246307899628
 30
0.0
  0
POINT
  5
7B8A
  8
1
 10
1257.5704786437491
 20
2204.3123359245192
 30
0.0
  0
LINE
  5
7B8C
  8
1
 10
4463.5741014141404
 20
3344.3123359245178
 30
0.0
 11
5077.5741014142277
 21
3344.3123359245178
 31
0.0
  0
LINE
  5
7B8F
  8
1
 10
4505.5741014141404
 20
2844.3123359245192
 30
0.0
 11
4505.5741014141404
 21
3344.3123359245178
 31
0.0
  0
LINE
  5
7B90
  8
1
 10
5035.5741014141413
 20
2844.3123359245192
 30
0.0
 11
5035.5741014141413
 21
3344.3123359245178
 31
0.0
  0
POINT
  5
7B91
  8
1
 10
5038.5741014141404
 20
3344.3123359245178
 30
0.0
  0
INSERT
  5
7B92
  8
0
  2
YA_N
 10
11334.47253219087
 20
150.26205665596169
 30
0.0
  0
LINE
  5
7B94
  8
1
 10
5022.9696024266323
 20
3241.8123359245192
 30
0.0
 11
5055.0864442214761
 21
3241.8123359245192
 31
0.0
  0
LINE
  5
7B95
  8
1
 10
5022.9696024266323
 20
2446.8123359245192
 30
0.0
 11
5055.0864442214761
 21
2446.8123359245192
 31
0.0
  0
CIRCLE
  5
7B96
  8
1
 10
1707.5704786437491
 20
2844.3123359245192
 30
0.0
 40
152.40000000000001
  0
ARC
  5
7B97
  8
1
 10
1707.5704786437491
 20
2844.3123359245192
 30
0.0
 40
220.0
 50
64.021699557842283
 51
257.58060587445362
  0
ARC
  5
7B98
  8
1
 10
2267.5704786437491
 20
2554.3123359245192
 30
0.0
 40
150.0
 50
257.58060587445362
 51
64.021699557842283
  0
LINE
  5
7B99
  8
1
 10
1803.9372362143549
 20
3042.0835371529279
 30
0.0
 11
2333.275086078253
 21
2689.1563367620711
 31
0.0
  0
LINE
  5
7B9A
  8
1
 10
1775.1165819763789
 20
2980.9259660079688
 30
0.0
 11
2302.5845348332359
 21
2625.1291126738138
 31
0.0
  0
LINE
  5
7B9B
  8
1
 10
2251.026189962261
 20
2477.0641222751178
 30
0.0
 11
1675.6546609847769
 21
2695.2917313654202
 31
0.0
  0
LINE
  5
7B9C
  8
1
 10
1660.2559784496079
 20
2629.4604379310899
 30
0.0
 11
2235.310592147744
 21
2407.8224054744542
 31
0.0
  0
LINE
  5
7B9D
  8
1
 10
3676.5741014141399
 20
2996.7123359245188
 30
0.0
 11
3777.5741014141399
 21
2996.7123359245188
 31
0.0
  0
LINE
  5
7B9E
  8
1
 10
3676.5741014141399
 20
2691.9123359245191
 30
0.0
 11
3777.5741014141399
 21
2691.9123359245191
 31
0.0
  0
LINE
  5
7B9F
  8
1
 10
3625.0741014141399
 20
3064.3123359245192
 30
0.0
 11
3825.0741014141399
 21
3064.3123359245192
 31
0.0
  0
ARC
  5
7BA0
  8
1
 10
1707.5704786437491
 20
2844.3123359245192
 30
0.0
 40
422.0
 50
86.059506657921844
 51
90.0
  0
LINE
  5
7BA2
  8
1
 10
5090.5741014141413
 20
2204.3123359245192
 30
0.0
 11
5090.5741014141413
 21
2304.3123359245192
 31
0.0
  0
LINE
  5
7BA3
  8
1
 10
4502.6194761276847
 20
2204.3123359245192
 30
0.0
 11
4502.6194761276847
 21
2304.3123359245192
 31
0.0
  0
LINE
  5
7BA5
  8
1
 10
3795.5741014141399
 20
2304.3123359245192
 30
0.0
 11
3795.5741014141399
 21
2204.3123359245192
 31
0.0
  0
ARC
  5
7BA6
  8
1
 10
1760.5704786437491
 20
2791.3123359245192
 30
0.0
 40
559.0
 50
174.55949116267749
 51
235.91853450414229
  0
LINE
  5
7BA7
  8
1
 10
2429.5704786437491
 20
5113.6940963854804
 30
0.0
 11
2429.5704786437491
 21
5355.9411363459012
 31
0.0
  0
LINE
  5
7BA8
  8
1
 10
2429.5704786437491
 20
5519.2246882141708
 30
0.0
 11
2429.5704786437491
 21
5045.1029683957513
 31
0.0
  0
LINE
  5
7BA9
  8
1
 10
2107.5704786437491
 20
5045.1029683957513
 30
0.0
 11
2107.5704786437491
 21
5519.2246882141708
 31
0.0
  0
LINE
  5
7BAA
  8
2
 10
2267.5704786437491
 20
5577.3686175523917
 30
0.0
 11
2267.5704786437491
 21
4893.2621017151287
 31
0.0
  0
LINE
  5
7BAB
  8
1
 10
2107.5704786437491
 20
5519.2246882141708
 30
0.0
 11
2429.5704786437491
 21
5519.2246882141708
 31
0.0
  0
LINE
  5
7BAC
  8
1
 10
2429.5704786437491
 20
5045.1029683957513
 30
0.0
 11
2107.5704786437491
 21
5045.1029683957513
 31
0.0
  0
LINE
  5
7BAD
  8
1
 10
2246.57047864375
 20
4916.2246882131803
 30
0.0
 11
2246.57047864375
 21
5026.2246882093086
 31
0.0
  0
LINE
  5
7BAE
  8
1
 10
2288.5704786437491
 20
4916.2246882131803
 30
0.0
 11
2288.5704786437491
 21
5026.2246882093086
 31
0.0
  0
LINE
  5
7BAF
  8
1
 10
2237.1491696979019
 20
5026.2246882093086
 30
0.0
 11
2295.9917875895949
 21
5026.2246882093086
 31
0.0
  0
LINE
  5
7BB0
  8
1
 10
2209.3530296611498
 20
5034.2246882141708
 30
0.0
 11
2325.787927626347
 21
5034.2246882141708
 31
0.0
  0
LINE
  5
7BB1
  8
1
 10
2237.1491696979019
 20
5026.2246882093086
 30
0.0
 11
2237.1491696979028
 21
5034.2246882141708
 31
0.0
  0
LINE
  5
7BB2
  8
1
 10
2209.3530296611498
 20
5045.1029683957513
 30
0.0
 11
2209.3530296611498
 21
5034.2246882141708
 31
0.0
  0
LINE
  5
7BB3
  8
1
 10
2325.787927626347
 20
5045.1029683957513
 30
0.0
 11
2325.787927626347
 21
5034.2246882141708
 31
0.0
  0
LINE
  5
7BB4
  8
1
 10
2295.9917875895949
 20
5026.2246882093086
 30
0.0
 11
2295.9917875895949
 21
5034.2246882141708
 31
0.0
  0
LINE
  5
7BB5
  8
1
 10
2288.5704786437491
 20
4916.2246882131803
 30
0.0
 11
2246.5704786437491
 21
4916.2246882131803
 31
0.0
  0
LINE
  5
7BB6
  8
1
 10
1735.0704786437479
 20
4997.6246307899628
 30
0.0
 11
1735.0704786437491
 21
5673.6246307899492
 31
0.0
  0
LINE
  5
7BB7
  8
1
 10
1680.0704786437491
 20
4997.6246307899637
 30
0.0
 11
1680.0704786437491
 21
5715.6246307899637
 31
0.0
  0
LINE
  5
7BB8
  8
1
 10
2417.5704786437491
 20
4835.1246307899664
 30
0.0
 11
1487.5704786437491
 21
4835.1246307899628
 31
0.0
  0
LINE
  5
7BB9
  8
1
 10
2346.5704786437491
 20
4987.6246307899646
 30
0.0
 11
1555.170478643749
 21
4987.6246307899628
 31
0.0
  0
LINE
  5
7BBA
  8
1
 10
2346.5704786437491
 20
4886.6246307899637
 30
0.0
 11
1555.170478643749
 21
4886.6246307899628
 31
0.0
  0
LINE
  5
7BBC
  8
1
 10
1735.0704786437479
 20
4997.6246307899628
 30
0.0
 11
1680.0704786437491
 21
4997.6246307899637
 31
0.0
  0
LINE
  5
7BBD
  8
1
 10
2417.5704786437491
 20
4835.1246307899628
 30
0.0
 11
2417.5704786437491
 21
5035.1246307899628
 31
0.0
  0
LINE
  5
7BBF
  8
1
 10
2267.5704786437491
 20
4808.938735550616
 30
0.0
 11
2267.5704786437491
 21
5123.020694242512
 31
0.0
  0
LINE
  5
7BC0
  8
1
 10
1859.9704786437489
 20
4886.6246307899628
 30
0.0
 11
1859.9704786437489
 21
4987.6246307899628
 31
0.0
  0
LINE
  5
7BC1
  8
1
 10
2346.5704786437491
 20
4886.6246307899628
 30
0.0
 11
2346.5704786437491
 21
4987.6246307899646
 31
0.0
  0
LINE
  5
7BC2
  8
1
 10
2188.5704786437482
 20
4886.6246307899628
 30
0.0
 11
2188.5704786437482
 21
4987.6246307899628
 31
0.0
  0
LINE
  5
7BC3
  8
1
 10
1728.5704786437491
 20
4987.6246307899628
 30
0.0
 11
1728.5704786437491
 21
4997.6246307899637
 31
0.0
  0
LINE
  5
7BC4
  8
1
 10
1877.5704786437491
 20
5042.6246307899637
 30
0.0
 11
1735.0704786437491
 21
5042.6246307899637
 31
0.0
  0
LINE
  5
7BC5
  8
1
 10
2417.5704786437491
 20
5035.1246307899628
 30
0.0
 11
2397.5704786437491
 21
5035.1246307899628
 31
0.0
  0
LINE
  5
7BC6
  8
1
 10
1877.5704786437491
 20
5612.6246307899628
 30
0.0
 11
1735.0704786437479
 21
5612.6246307899628
 31
0.0
  0
LINE
  5
7BC7
  8
1
 10
1487.5704786437491
 20
4835.1246307899628
 30
0.0
 11
1487.5704786437491
 21
5035.1246307899628
 31
0.0
  0
LINE
  5
7BC9
  8
1
 10
1555.170478643749
 20
4886.6246307899628
 30
0.0
 11
1555.170478643749
 21
4987.6246307899628
 31
0.0
  0
LINE
  5
7BCA
  8
1
 10
1686.5704786437491
 20
4987.6246307899628
 30
0.0
 11
1686.5704786437491
 21
4997.6246307899637
 31
0.0
  0
LINE
  5
7BCB
  8
1
 10
1507.5704786437491
 20
5035.1246307899628
 30
0.0
 11
1487.5704786437491
 21
5035.1246307899628
 31
0.0
  0
LINE
  5
7BCD
  8
1
 10
2508.5704786437491
 20
5673.6246307899646
 30
0.0
 11
1696.5704786437479
 21
5673.6246307899482
 31
0.0
  0
LINE
  5
7BCE
  8
1
 10
2508.5704786437491
 20
6287.6246307896854
 30
0.0
 11
1696.5704786437491
 21
6287.6246307899128
 31
0.0
  0
LINE
  5
7BD0
  8
1
 10
2377.5704786437491
 20
5708.6700055035089
 30
0.0
 11
2277.5704786437482
 21
5708.6700055035089
 31
0.0
  0
LINE
  5
7BD1
  8
1
 10
2466.5704786437491
 20
5715.6246307899628
 30
0.0
 11
1736.5704786437491
 21
5715.6246307899637
 31
0.0
  0
LINE
  5
7BD2
  8
1
 10
2252.5704786437491
 20
5708.6700055035089
 30
0.0
 11
2157.5704786437491
 21
5708.6700055035089
 31
0.0
  0
LINE
  5
7BD3
  8
1
 10
2466.5704786437491
 20
6245.624630789961
 30
0.0
 11
1736.5704786437491
 21
6245.6246307899619
 31
0.0
  0
POINT
  5
7BDC
  8
1
 10
1207.5704786437491
 20
6248.6246307899637
 30
0.0
  0
LINE
  5
7BDF
  8
1
 10
1680.0704786437491
 20
5612.6246307899628
 30
0.0
 11
1537.5704786437491
 21
5612.6246307899628
 31
0.0
  0
LINE
  5
7BE0
  8
1
 10
1680.0704786437491
 20
5042.6246307899637
 30
0.0
 11
1537.5704786437491
 21
5042.6246307899637
 31
0.0
  0
LINE
  5
7BE2
  8
1
 10
2157.5704786437491
 20
5715.6246307899637
 30
0.0
 11
2157.5704786437491
 21
5708.6246307899628
 31
0.0
  0
DIMENSION
  5
7C0E
  8
3
  2
*D2
 10
1736.5704786437491
 20
3556.8417716891208
 30
0.0
 11
2123.3622492533232
 21
3556.8417716891208
 31
0.0
 70
   128
 13
2466.5704786437491
 23
3344.3123359245192
 33
0.0
 14
1736.5704786437491
 24
3344.3123359245192
 34
0.0
 50
180.0
1001
ACAD
1000
DSTYLE
1002
{
1070
   287
1070
     3
1070
    40
1040
30.0
1070
   143
1040
0.039
1070
   172
1070
     1
1070
   271
1070
     0
1070
   279
1070
     0
1070
   288
1070
     1
1002
}
  0
DIMENSION
  5
7C1B
  8
3
  2
*D3
 10
1707.5704786437491
 20
3737.7445087719111
 30
0.0
 11
2076.022049677601
 21
3737.7445087719111
 31
0.0
 70
   128
 13
2466.5704786437491
 23
3344.3123359245192
 33
0.0
 14
1707.5704786437491
 24
3402.3420195686431
 34
0.0
 50
180.0
1001
ACAD
1000
DSTYLE
1002
{
1070
   287
1070
     3
1070
    40
1040
30.0
1070
   143
1040
0.039
1070
   172
1070
     1
1070
   271
1070
     0
1070
   279
1070
     0
1070
   288
1070
     1
1002
}
  0
DIMENSION
  5
7C27
  8
3
  2
*D4
 10
965.41658040694892
 20
2204.3123359245192
 30
0.0
 11
890.41658040694847
 21
2524.3123359245192
 31
0.0
 70
     0
 13
1149.5407949996249
 23
2844.3123359245192
 33
0.0
 14
1257.5704786437491
 24
2204.3123359245192
 34
0.0
 50
270.0
1001
ACAD
1000
DSTYLE
1002
{
1070
   287
1070
     3
1070
    40
1040
30.0
1070
   143
1040
0.039
1070
   172
1070
     1
1070
   271
1070
     0
1070
   279
1070
     0
1070
   288
1070
     1
1002
}
  0
DIMENSION
  5
7D26
  8
3
  2
*D5
 10
5298.9003345986976
 20
2467.3123359245192
 30
0.0
 11
5298.9003345986957
 21
2843.475947659349
 31
0.0
 70
   128
 13
5038.5741014141404
 23
3221.3123359245192
 33
0.0
 14
5038.5741014141404
 24
2467.3123359245192
 34
0.0
 50
90.0
1001
ACAD
1000
DSTYLE
1002
{
1070
   287
1070
     3
1070
     3
1000
φ<>
1070
    40
1040
30.0
1070
   143
1040
0.039
1070
   172
1070
     1
1070
   271
1070
     0
1070
   279
1070
     0
1070
   288
1070
     1
1002
}
  0
DIMENSION
  5
7D3F
  8
3
  2
*D6
 10
4770.5741014141404
 20
3650.61527098939
 30
0.0
 11
4911.1481842136009
 21
3734.345662903967
 31
0.0
 12
0.0
 22
-301.0000000000004
 32
0.0
 70
   128
 13
5038.5741014141404
 23
3344.3123359245178
 33
0.0
 14
4770.5741014141404
 24
3546.2813391902091
 34
0.0
1001
ACAD
1000
DSTYLE
1002
{
1070
   288
1070
     1
1070
   172
1070
     1
1070
    40
1040
30.0
1070
   271
1070
     0
1070
   143
1040
0.039
1002
}
  0
DIMENSION
  5
7D61
  8
3
  2
*D7
 10
3625.0741014141399
 20
3650.61527098939
 30
0.0
 11
4197.8241014141404
 21
3800.61527098939
 31
0.0
 70
     0
  1
MAX\P1160
 13
4770.5741014141404
 23
3546.2813391902091
 33
0.0
 14
3625.0741014141399
 24
3064.3123359245192
 34
0.0
1001
ACAD
1000
DSTYLE
1002
{
1070
   287
1070
     4
1070
    40
1040
30.0
1070
    75
1070
     1
1070
   143
1040
0.039
1070
   172
1070
     1
1070
   271
1070
     0
1070
   279
1070
     1
1070
   288
1070
     1
1002
}
  0
DIMENSION
  5
7D78
  8
3
  2
*D8
 10
5035.5741014141413
 20
3435.799162413658
 30
0.0
 11
4769.6977271789547
 21
3435.799162413658
 31
0.0
 70
   128
 13
4505.5741014141404
 23
3344.3123359245178
 33
0.0
 14
5035.5741014141413
 24
3344.3123359245178
 34
0.0
1001
ACAD
1000
DSTYLE
1002
{
1070
   287
1070
     3
1070
    40
1040
30.0
1070
   143
1040
0.039
1070
   172
1070
     1
1070
   271
1070
     0
1070
   279
1070
     0
1070
   288
1070
     1
1002
}
  0
DIMENSION
  5
7DC6
  8
3
  2
*D9
 10
2157.5704786437491
 20
6465.0181677225701
 30
0.0
 11
1706.798678567345
 21
6465.0181677225701
 31
0.0
 70
   128
 13
1257.5704786437491
 23
6298.6246307899637
 33
0.0
 14
2157.5704786437491
 24
6298.6246307899637
 34
0.0
1001
ACAD
1000
DSTYLE
1002
{
1070
   287
1070
     3
1070
    40
1040
30.0
1070
   143
1040
0.039
1070
   172
1070
     1
1070
   271
1070
     0
1070
   279
1070
     0
1070
   288
1070
     1
1002
}
  0
DIMENSION
  5
7DD4
  8
3
  2
*D10
 10
2447.5704786437491
 20
6465.0181677225701
 30
0.0
 11
2302.5704786437491
 21
6549.1976473153263
 31
0.0
 70
   128
 13
2157.5704786437491
 23
6298.6246307899637
 33
0.0
 14
2447.5704786437491
 24
5708.6246307899628
 34
0.0
1001
ACAD
1000
DSTYLE
1002
{
1070
   288
1070
     1
1070
   172
1070
     1
1070
    75
1070
     1
1070
    40
1040
30.0
1070
   271
1070
     0
1070
   143
1040
0.039
1002
}
  0
DIMENSION
  5
7DF5
  8
3
  2
*D11
 10
2672.2348584151009
 20
5003.6246307899637
 30
0.0
 11
2672.2348584151
 21
5308.9533645522424
 31
0.0
 70
   128
 13
2447.5704786437491
 23
5708.6246307899628
 33
0.0
 14
2447.5704786437491
 24
5003.6246307899637
 34
0.0
 50
270.0
1001
ACAD
1000
DSTYLE
1002
{
1070
   287
1070
     3
1070
    40
1040
30.0
1070
   143
1040
0.039
1070
   172
1070
     1
1070
   271
1070
     0
1070
   279
1070
     0
1070
   288
1070
     1
1002
}
  0
DIMENSION
  5
7E02
  8
3
  2
*D12
 10
2447.5704786437491
 20
4629.9055830525176
 30
0.0
 11
1942.6958849716721
 21
4629.9055830525176
 31
0.0
 70
   128
 13
1442.5704786437491
 23
5003.6246307899637
 33
0.0
 14
2447.5704786437491
 24
5003.6246307899637
 34
0.0
1001
ACAD
1000
DSTYLE
1002
{
1070
   287
1070
     3
1070
    40
1040
30.0
1070
   143
1040
0.039
1070
   172
1070
     1
1070
   271
1070
     0
1070
   279
1070
     0
1070
   288
1070
     1
1002
}
  0
DIMENSION
  5
7E0F
  8
3
  2
*D13
 10
954.17427075250168
 20
5658.6246307899628
 30
0.0
 11
954.17427075250077
 21
5308.9533645522424
 31
0.0
 70
   128
 13
1442.5704786437491
 23
5003.6246307899637
 33
0.0
 14
1257.5704786437491
 24
5658.6246307899628
 34
0.0
 50
270.0
1001
ACAD
1000
DSTYLE
1002
{
1070
   287
1070
     3
1070
    40
1040
30.0
1070
   143
1040
0.039
1070
   172
1070
     1
1070
   271
1070
     0
1070
   279
1070
     0
1070
   288
1070
     1
1002
}
  0
DIMENSION
  5
7E1B
  8
3
  2
*D14
 10
954.17427075250077
 20
6298.6246307899637
 30
0.0
 11
879.17427075249987
 21
5978.6246307899637
 31
0.0
 70
     0
 13
1257.5704786437491
 23
5658.6246307899628
 33
0.0
 14
1257.5704786437491
 24
6298.6246307899637
 34
0.0
 50
270.0
1001
ACAD
1000
DSTYLE
1002
{
1070
   287
1070
     4
1070
    40
1040
30.0
1070
    75
1070
     1
1070
   143
1040
0.039
1070
   172
1070
     1
1070
   271
1070
     0
1070
   279
1070
     1
1070
   288
1070
     1
1002
}
  0
LINE
  5
7E86
  8
4
 10
5550.0
 20
1500.0
 30
0.0
 11
5550.0
 21
900.0
 31
0.0
  0
LINE
  5
7E87
  8
4
 10
3450.0
 20
1500.0
 30
0.0
 11
3450.0
 21
900.0
 31
0.0
  0
LINE
  5
7E88
  8
4
 10
1950.0
 20
1500.0
 30
0.0
 11
1950.0
 21
900.0
 31
0.0
  0
LINE
  5
7E8B
  8
4
 10
1950.0
 20
900.0
 30
0.0
 11
5550.0
 21
900.0
 31
0.0
  0
LINE
  5
7E8C
  8
4
 10
1950.0
 20
1200.0
 30
0.0
 11
5550.0
 21
1200.0
 31
0.0
  0
TEXT
  5
7E8D
  8
4
 10
2065.5062425407041
 20
1294.629077599838
 30
0.0
 40
150.0
  1
機器名称
  0
TEXT
  5
7E8E
  8
4
 10
2058.7743180743919
 20
964.93547019603284
 30
0.0
 40
150.0
  1
機器型番
  0
TEXT
  5
7E8F
  8
4
 10
3533.036236462995
 20
1267.715306872705
 30
0.0
 40
130.0
  1
ミツヤ多翼送風機
  0
TEXT
  5
7E90
  8
4
 10
3559.9634867564419
 20
951.47875283983012
 30
0.0
 40
150.0
  1
MF#4 1/2-1
  0
TEXT
  5
7E92
  8
4
 10
2452.306730691525
 20
7150.2865239975472
 30
0.0
 40
161.99999999999989
  1
床置ベット
  0
TEXT
  5
7E93
  8
4
 10
898.50277998833917
 20
7601.6429285978938
 30
0.0
 40
216.0
  1
遠心式片吸込片持多翼ファン
  0
LINE
  5
7E94
  8
4
 10
750.0
 20
7408.2262627944137
 30
0.0
 11
5550.0
 21
7408.2262627944137
 31
0.0
  0
LINE
  5
7E95
  8
4
 10
750.0
 20
8008.2262627944137
 30
0.0
 11
5550.0
 21
8008.2262627944137
 31
0.0
  0
LINE
  5
7E96
  8
4
 10
1950.0
 20
1500.0
 30
0.0
 11
5550.0
 21
1500.0
 31
0.0
  0
LINE
  5
7E97
  8
4
 10
750.0
 20
8008.2262627944137
 30
0.0
 11
750.0
 21
7408.2262627944137
 31
0.0
  0
TEXT
  5
7E98
  8
4
 10
1144.7302339634191
 20
7146.9584326390304
 30
0.0
 40
161.99999999999989
  1
左回転上向
  0
TEXT
  5
7E99
  8
4
 10
4406.9086777478688
 20
8118.1832444859256
 30
0.0
 40
168.0
  1
No.
  0
TEXT
  5
7E9A
  8
4
 10
3933.8881878000388
 20
7150.2865239975472
 30
0.0
 40
161.99999999999989
  1
縮尺：1/30
  0
LINE
  5
7E9B
  8
4
 10
5550.0
 20
8008.2262627944137
 30
0.0
 11
5550.0
 21
7408.2262627944137
 31
0.0
  0
LINE
  5
7E9C
  8
4
 10
6300.0
 20
8850.0
 30
0.0
 11
6300.0
 21
8850.0
 31
0.0
  0
LINE
  5
7E9D
  8
4
 10
4321.8522670795937
 20
8043.790749376205
 30
0.0
 11
4321.8522670795937
 21
8359.9567846492573
 31
0.0
  0
LINE
  5
7E9E
  8
4
 10
4321.8522670795937
 20
8359.9567846492573
 30
0.0
 11
5550.0
 21
8359.9567846492573
 31
0.0
  0
LINE
  5
7E9F
  8
4
 10
5550.0
 20
8359.9567846492573
 30
0.0
 11
5550.0
 21
8043.790749376205
 31
0.0
  0
LINE
  5
7EA0
  8
4
 10
5550.0
 20
8043.790749376205
 30
0.0
 11
4321.8522670795937
 21
8043.790749376205
 31
0.0
  0
LINE
  5
7EA1
  8
4
 10
0.0
 20
0.0
 30
0.0
 11
0.0
 21
8850.0
 31
0.0
  0
LINE
  5
7EA2
  8
4
 10
0.0
 20
8850.0
 30
0.0
 11
6300.0
 21
8850.0
 31
0.0
  0
LINE
  5
7EA3
  8
4
 10
6300.0
 20
8850.0
 30
0.0
 11
6300.0
 21
0.0
 31
0.0
  0
LINE
  5
7EA4
  8
4
 10
6300.0
 20
0.0
 30
0.0
 11
0.0
 21
0.0
 31
0.0
  0
DIMENSION
  5
7F57
  8
3
  2
*D16
 10
965.41658040694892
 20
3344.3123359245201
 30
0.0
 11
890.41658040694836
 21
3094.3123359245192
 31
0.0
 70
     0
 13
1149.5407949996249
 23
2844.3123359245192
 33
0.0
 14
1707.5704786437491
 24
3344.3123359245192
 34
0.0
 50
270.0
1001
ACAD
1000
DSTYLE
1002
{
1070
   287
1070
     4
1070
    40
1040
30.0
1070
    75
1070
     1
1070
   143
1040
0.039
1070
   172
1070
     1
1070
   271
1070
     0
1070
   279
1070
     1
1070
   288
1070
     1
1002
}
  0
DIMENSION
  5
7F6D
  8
3
  2
*D17
 10
1201.5704786437491
 20
3737.7445087719111
 30
0.0
 11
1454.5704786437491
 21
3812.7445087719111
 31
0.0
 70
     0
 13
1707.5704786437491
 23
3402.3420195686431
 33
0.0
 14
1201.5704786437491
 24
2791.3123359245192
 34
0.0
1001
ACAD
1000
DSTYLE
1002
{
1070
   287
1070
     4
1070
    40
1040
30.0
1070
    75
1070
     1
1070
   143
1040
0.039
1070
   172
1070
     1
1070
   271
1070
     0
1070
   279
1070
     1
1070
   288
1070
     1
1002
}
  0
LINE
  5
7F79
  8
1
 10
4463.5741014141404
 20
3304.3123359245201
 30
0.0
 11
5077.5741014142077
 21
3304.3123359245192
 31
0.0
  0
LINE
  5
7F7C
  8
1
 10
2466.5704786437491
 20
6245.6246307899619
 30
0.0
 11
2466.5704786437491
 21
5715.6246307899628
 31
0.0
  0
LINE
  5
7F7D
  8
1
 10
2508.5704786437491
 20
5673.6246307899646
 30
0.0
 11
2508.5704786437491
 21
6287.6246307896827
 31
0.0
  0
LINE
  5
7F7E
  8
1
 10
1201.5704786437491
 20
6245.6246307899646
 30
0.0
 11
1201.5704786437491
 21
5715.6246307899646
 31
0.0
  0
LINE
  5
7F7F
  8
1
 10
1257.5704786437491
 20
5715.6246307899637
 30
0.0
 11
1257.5704786437491
 21
5658.6246307899646
 31
0.0
  0
LINE
  5
7F81
  8
1
 10
1736.5704786437491
 20
6245.6246307899646
 30
0.0
 11
1736.5704786437491
 21
5715.6246307899637
 31
0.0
  0
LINE
  5
7F82
  8
1
 10
1696.5704786437491
 20
6287.6246307896972
 30
0.0
 11
1696.5704786437491
 21
5673.6246307899646
 31
0.0
  0
LINE
  5
7F83
  8
1
 10
1696.5704786437491
 20
6245.6246307899646
 30
0.0
 11
1201.5704786437491
 21
6245.6246307899673
 31
0.0
  0
LINE
  5
7F84
  8
1
 10
1696.5704786437491
 20
5715.6246307899637
 30
0.0
 11
1201.5704786437491
 21
5715.6246307899637
 31
0.0
  0
LINE
  5
7F85
  8
1
 10
1736.5704786437491
 20
6245.6246307899619
 30
0.0
 11
2466.5704786437491
 21
5715.6246307899628
 31
0.0
  0
LINE
  5
7F86
  8
1
 10
2466.5704786437491
 20
6245.624630789961
 30
0.0
 11
1736.5704786437491
 21
5715.6246307899637
 31
0.0
  0
DIMENSION
  5
7F93
  8
3
  2
*D18
 10
1201.5704786437491
 20
3924.4333985372732
 30
0.0
 11
1777.488582680387
 21
3924.4333985372732
 31
0.0
 70
   128
 13
2508.5704786437491
 23
3344.3123359245192
 33
0.0
 14
1201.5704786437491
 24
2791.3123359245192
 34
0.0
1001
ACAD
1000
DSTYLE
1002
{
1070
   287
1070
     3
1070
    40
1040
30.0
1070
   143
1040
0.039
1070
   172
1070
     1
1070
   271
1070
     0
1070
   279
1070
     0
1070
   288
1070
     1
1002
}
  0
LINE
  5
80EC
  8
1
 10
3861.4436744628092
 20
2392.3123359245192
 30
0.0
 11
3861.4436744628092
 21
2714.3123359245192
 31
0.0
  0
LINE
  5
80ED
  8
1
 10
4335.5653942812287
 20
2714.3123359245192
 30
0.0
 11
4335.5653942812287
 21
2392.3123359245192
 31
0.0
  0
LINE
  5
80EF
  8
1
 10
3861.4436744628092
 20
2714.3123359245192
 30
0.0
 11
4335.5653942812287
 21
2714.3123359245192
 31
0.0
  0
LINE
  5
80F2
  8
2
 10
4393.7093236194496
 20
2554.3123359245192
 30
0.0
 11
3709.6028077821879
 21
2554.3123359245192
 31
0.0
  0
LINE
  5
80F3
  8
1
 10
4335.5653942812287
 20
2392.3123359245192
 30
0.0
 11
3861.4436744628092
 21
2392.3123359245192
 31
0.0
  0
LINE
  5
80F4
  8
1
 10
3930.0348024525392
 20
2392.3123359245192
 30
0.0
 11
4172.2818424129591
 21
2392.3123359245192
 31
0.0
  0
LINE
  5
80F7
  8
1
 10
3850.5653942812291
 20
2612.5297849071171
 30
0.0
 11
3850.5653942812291
 21
2496.0948869419208
 31
0.0
  0
LINE
  5
80F8
  8
1
 10
3842.565394276367
 20
2584.733644870365
 30
0.0
 11
3842.565394276367
 21
2525.8910269786729
 31
0.0
  0
LINE
  5
80FA
  8
1
 10
3732.5653942802378
 20
2533.3123359245192
 30
0.0
 11
3842.565394276367
 21
2533.3123359245178
 31
0.0
  0
LINE
  5
80FB
  8
1
 10
3732.5653942802378
 20
2575.3123359245178
 30
0.0
 11
3842.565394276367
 21
2575.3123359245178
 31
0.0
  0
LINE
  5
80FC
  8
1
 10
3732.5653942802378
 20
2533.3123359245192
 30
0.0
 11
3732.5653942802378
 21
2575.3123359245192
 31
0.0
  0
LINE
  5
80FD
  8
1
 10
3861.4436744628092
 20
2612.5297849071171
 30
0.0
 11
3850.5653942812291
 21
2612.5297849071171
 31
0.0
  0
LINE
  5
80FE
  8
1
 10
3842.565394276367
 20
2584.733644870365
 30
0.0
 11
3850.5653942812291
 21
2584.733644870365
 31
0.0
  0
LINE
  5
8100
  8
1
 10
3842.565394276367
 20
2525.8910269786729
 30
0.0
 11
3850.5653942812291
 21
2525.8910269786729
 31
0.0
  0
LINE
  5
8101
  8
1
 10
3861.4436744628092
 20
2496.0948869419208
 30
0.0
 11
3850.5653942812291
 21
2496.0948869419208
 31
0.0
  0
LINE
  5
8104
  8
1
 10
3832.5741014141399
 20
2575.3123359245178
 30
0.0
 11
3832.5741014141399
 21
2784.3123359245192
 31
0.0
  0
LINE
  5
8105
  8
1
 10
3955.6797392892549
 20
2392.3123359245192
 30
0.0
 11
3955.6797392892549
 21
2304.3123359245192
 31
0.0
  0
LINE
  5
8106
  8
1
 10
4284.6303416414958
 20
2392.3123359245192
 30
0.0
 11
4284.6303416414958
 21
2304.3123359245192
 31
0.0
  0
LINE
  5
8107
  8
1
 10
3955.6797392892549
 20
2344.3123359245178
 30
0.0
 11
4284.6303416414958
 21
2344.3123359245178
 31
0.0
  0
DIMENSION
  5
8118
  8
3
  2
*D19
 10
1707.5704786437479
 20
2032.6171142559469
 30
0.0
 11
1482.5704786437491
 21
2107.6171142559469
 31
0.0
 70
     0
 13
1257.5704786437491
 23
2204.3123359245192
 33
0.0
 14
1707.5704786437479
 24
2204.3123359245192
 34
0.0
1001
ACAD
1000
DSTYLE
1002
{
1070
   287
1070
     3
1070
    40
1040
30.0
1070
   143
1040
0.039
1070
   172
1070
     1
1070
   271
1070
     0
1070
   279
1070
     0
1002
}
  0
DIMENSION
  5
8125
  8
3
  2
*D20
 10
2447.5704786437491
 20
2032.6171142559469
 30
0.0
 11
2077.5704786437491
 21
2107.6171142559469
 31
0.0
 70
     0
 13
1707.5704786437479
 23
2204.3123359245192
 33
0.0
 14
2447.5704786437491
 24
2204.3123359245192
 34
0.0
1001
ACAD
1000
DSTYLE
1002
{
1070
   287
1070
     3
1070
    40
1040
30.0
1070
   143
1040
0.039
1070
   172
1070
     1
1070
   271
1070
     0
1070
   279
1070
     0
1002
}
  0
DIMENSION
  5
8132
  8
3
  2
*D21
 10
4770.5741014141404
 20
2032.6171142559469
 30
0.0
 11
4283.0741014141404
 21
2107.6171142559469
 31
0.0
 70
     0
 13
3795.5741014141399
 23
2204.3123359245192
 33
0.0
 14
4770.5741014141404
 24
2204.3123359245178
 34
0.0
1001
ACAD
1000
DSTYLE
1002
{
1070
   287
1070
     3
1070
    40
1040
30.0
1070
   143
1040
0.039
1070
   172
1070
     1
1070
   271
1070
     0
1070
   279
1070
     0
1002
}
  0
DIMENSION
  5
8141
  8
3
  2
*D22
 10
5090.5741014141413
 20
2032.6171142559469
 30
0.0
 11
4930.5741014141413
 21
2107.6171142559469
 31
0.0
 70
     0
 13
4770.5741014141404
 23
2204.3123359245178
 33
0.0
 14
5090.5741014141413
 24
2204.3123359245178
 34
0.0
1001
ACAD
1000
DSTYLE
1002
{
1070
   287
1070
     3
1070
    40
1040
30.0
1070
   143
1040
0.039
1070
   172
1070
     1
1070
   271
1070
     0
1070
   279
1070
     0
1002
}
  0
DIMENSION
  5
814E
  8
3
  2
*D23
 10
763.25536645485408
 20
2204.3123359245192
 30
0.0
 11
688.25536645485374
 21
2774.3123359245192
 31
0.0
 70
     0
 13
1694.5704786437491
 23
3344.3123359245192
 33
0.0
 14
1257.5704786437491
 24
2204.3123359245192
 34
0.0
 50
90.0
1001
ACAD
1000
DSTYLE
1002
{
1070
   287
1070
     3
1070
    40
1040
30.0
1070
   143
1040
0.039
1070
   172
1070
     1
1070
   271
1070
     0
1070
   279
1070
     0
1002
}
  0
LINE
  5
815B
  8
1
 10
1537.5704786437491
 20
2784.3123359245192
 30
0.0
 11
1877.5704786437491
 21
2784.3123359245192
 31
0.0
  0
LINE
  5
815D
  8
1
 10
1537.5704786437491
 20
2784.3123359245192
 30
0.0
 11
1442.5704786437491
 21
2304.3123359245192
 31
0.0
  0
LINE
  5
815E
  8
1
 10
1877.5704786437491
 20
2784.3123359245192
 30
0.0
 11
1972.5704786437479
 21
2304.3123359245192
 31
0.0
  0
LINE
  5
815F
  8
1
 10
1537.5704786437491
 20
5612.6246307899628
 30
0.0
 11
1537.5704786437491
 21
5042.6246307899637
 31
0.0
  0
LINE
  5
8160
  8
1
 10
1877.5704786437491
 20
5612.6246307899628
 30
0.0
 11
1877.5704786437491
 21
5042.6246307899637
 31
0.0
  0
ENDSEC
  0
EOF
