  0
SECTION
  2
HEADER
  9
$ACADVER
  1
AC1015
  9
$ACADMAINTVER
 70
    20
  9
$DWGCODEPAGE
  3
ANSI_932
  9
$INSBASE
 10
0.0
 20
0.0
 30
0.0
  9
$EXTMIN
 10
-0.1281640493871237
 20
-0.1800399741405272
 30
-0.0015258207003583
  9
$EXTMAX
 10
4200.128183607161
 20
5900.180067448153
 30
0.0000000349246037
  9
$LIMMIN
 10
0.0
 20
0.0
  9
$LIMMAX
 10
297.0
 20
210.0
  9
$ORTHOMODE
 70
     1
  9
$REGENMODE
 70
     1
  9
$FILLMODE
 70
     0
  9
$QTEXTMODE
 70
     0
  9
$MIRRTEXT
 70
     1
  9
$LTSCALE
 40
100.0
  9
$ATTMODE
 70
     1
  9
$TEXTSIZE
 40
180.0
  9
$TRACEWID
 40
0.05
  9
$TEXTSTYLE
  7
STANDARD
  9
$CLAYER
  8
3
  9
$CELTYPE
  6
ByLayer
  9
$CECOLOR
 62
   256
  9
$CELTSCALE
 40
1.0
  9
$DISPSILH
 70
     0
  9
$DIMSCALE
 40
20.0
  9
$DIMASZ
 40
2.0
  9
$DIMEXO
 40
1.0
  9
$DIMDLI
 40
10.0
  9
$DIMRND
 40
0.0
  9
$DIMDLE
 40
0.0
  9
$DIMEXE
 40
1.0
  9
$DIMTP
 40
1.0
  9
$DIMTM
 40
1.0
  9
$DIMTXT
 40
3.0
  9
$DIMCEN
 40
0.0
  9
$DIMTSZ
 40
0.0
  9
$DIMTOL
 70
     0
  9
$DIMLIM
 70
     0
  9
$DIMTIH
 70
     0
  9
$DIMTOH
 70
     0
  9
$DIMSE1
 70
     0
  9
$DIMSE2
 70
     0
  9
$DIMTAD
 70
     1
  9
$DIMZIN
 70
     8
  9
$DIMBLK
  1

  9
$DIMASO
 70
     1
  9
$DIMSHO
 70
     1
  9
$DIMPOST
  1

  9
$DIMAPOST
  1

  9
$DIMALT
 70
     0
  9
$DIMALTD
 70
     2
  9
$DIMALTF
 40
0.039
  9
$DIMLFAC
 40
1.0
  9
$DIMTOFL
 70
     1
  9
$DIMTVP
 40
0.0
  9
$DIMTIX
 70
     0
  9
$DIMSOXD
 70
     0
  9
$DIMSAH
 70
     1
  9
$DIMBLK1
  1
OPEN
  9
$DIMBLK2
  1
OPEN
  9
$DIMSTYLE
  2
IGA
  9
$DIMCLRD
 70
     0
  9
$DIMCLRE
 70
     0
  9
$DIMCLRT
 70
     0
  9
$DIMTFAC
 40
10.0
  9
$DIMGAP
 40
1.0
  9
$DIMJUST
 70
     0
  9
$DIMSD1
 70
     0
  9
$DIMSD2
 70
     0
  9
$DIMTOLJ
 70
     1
  9
$DIMTZIN
 70
     0
  9
$DIMALTZ
 70
     0
  9
$DIMALTTZ
 70
     0
  9
$DIMUPT
 70
     0
  9
$DIMDEC
 70
     4
  9
$DIMTDEC
 70
     4
  9
$DIMALTU
 70
     2
  9
$DIMALTTD
 70
     2
  9
$DIMTXSTY
  7
STANDARD
  9
$DIMAUNIT
 70
     0
  9
$DIMADEC
 70
     0
  9
$DIMALTRND
 40
0.0
  9
$DIMAZIN
 70
     0
  9
$DIMDSEP
 70
    46
  9
$DIMATFIT
 70
     3
  9
$DIMFRAC
 70
     0
  9
$DIMLDRBLK
  1
OPEN
  9
$DIMLUNIT
 70
     2
  9
$DIMLWD
 70
    -2
  9
$DIMLWE
 70
    -2
  9
$DIMTMOVE
 70
     0
  9
$LUNITS
 70
     2
  9
$LUPREC
 70
     3
  9
$SKETCHINC
 40
0.1
  9
$FILLETRAD
 40
50.0
  9
$AUNITS
 70
     0
  9
$AUPREC
 70
     0
  9
$MENU
  1
acad
  9
$ELEVATION
 40
0.0
  9
$PELEVATION
 40
0.0
  9
$THICKNESS
 40
0.0
  9
$LIMCHECK
 70
     0
  9
$CHAMFERA
 40
0.5
  9
$CHAMFERB
 40
0.5
  9
$CHAMFERC
 40
0.0
  9
$CHAMFERD
 40
0.0
  9
$SKPOLY
 70
     0
  9
$TDCREATE
 40
2451387.483285764
  9
$TDUCREATE
 40
2451387.108285764
  9
$TDUPDATE
 40
2460262.699193819
  9
$TDUUPDATE
 40
2460262.324193819
  9
$TDINDWG
 40
0.0179313310
  9
$TDUSRTIMER
 40
0.0179310880
  9
$USRTIMER
 70
     1
  9
$ANGBASE
 50
0.0
  9
$ANGDIR
 70
     0
  9
$PDMODE
 70
     0
  9
$PDSIZE
 40
0.0
  9
$PLINEWID
 40
0.0
  9
$SPLFRAME
 70
     0
  9
$SPLINETYPE
 70
     6
  9
$SPLINESEGS
 70
     8
  9
$HANDSEED
  5
858F
  9
$SURFTAB1
 70
     6
  9
$SURFTAB2
 70
     6
  9
$SURFTYPE
 70
     6
  9
$SURFU
 70
     6
  9
$SURFV
 70
     6
  9
$UCSBASE
  2

  9
$UCSNAME
  2

  9
$UCSORG
 10
0.0
 20
0.0
 30
0.0
  9
$UCSXDIR
 10
1.0
 20
0.0
 30
0.0
  9
$UCSYDIR
 10
0.0
 20
1.0
 30
0.0
  9
$UCSORTHOREF
  2

  9
$UCSORTHOVIEW
 70
     0
  9
$UCSORGTOP
 10
0.0
 20
0.0
 30
0.0
  9
$UCSORGBOTTOM
 10
0.0
 20
0.0
 30
0.0
  9
$UCSORGLEFT
 10
0.0
 20
0.0
 30
0.0
  9
$UCSORGRIGHT
 10
0.0
 20
0.0
 30
0.0
  9
$UCSORGFRONT
 10
0.0
 20
0.0
 30
0.0
  9
$UCSORGBACK
 10
0.0
 20
0.0
 30
0.0
  9
$PUCSBASE
  2

  9
$PUCSNAME
  2

  9
$PUCSORG
 10
0.0
 20
0.0
 30
0.0
  9
$PUCSXDIR
 10
1.0
 20
0.0
 30
0.0
  9
$PUCSYDIR
 10
0.0
 20
1.0
 30
0.0
  9
$PUCSORTHOREF
  2

  9
$PUCSORTHOVIEW
 70
     0
  9
$PUCSORGTOP
 10
0.0
 20
0.0
 30
0.0
  9
$PUCSORGBOTTOM
 10
0.0
 20
0.0
 30
0.0
  9
$PUCSORGLEFT
 10
0.0
 20
0.0
 30
0.0
  9
$PUCSORGRIGHT
 10
0.0
 20
0.0
 30
0.0
  9
$PUCSORGFRONT
 10
0.0
 20
0.0
 30
0.0
  9
$PUCSORGBACK
 10
0.0
 20
0.0
 30
0.0
  9
$USERI1
 70
     0
  9
$USERI2
 70
     0
  9
$USERI3
 70
     0
  9
$USERI4
 70
     0
  9
$USERI5
 70
     0
  9
$USERR1
 40
0.0
  9
$USERR2
 40
0.0
  9
$USERR3
 40
0.0
  9
$USERR4
 40
0.0
  9
$USERR5
 40
0.0
  9
$WORLDVIEW
 70
     1
  9
$SHADEDGE
 70
     3
  9
$SHADEDIF
 70
    70
  9
$TILEMODE
 70
     1
  9
$MAXACTVP
 70
    16
  9
$PINSBASE
 10
0.0
 20
0.0
 30
0.0
  9
$PLIMCHECK
 70
     0
  9
$PEXTMIN
 10
1.000000000000000E+20
 20
1.000000000000000E+20
 30
1.000000000000000E+20
  9
$PEXTMAX
 10
-1.000000000000000E+20
 20
-1.000000000000000E+20
 30
-1.000000000000000E+20
  9
$PLIMMIN
 10
0.0
 20
0.0
  9
$PLIMMAX
 10
12.0
 20
9.0
  9
$UNITMODE
 70
     0
  9
$VISRETAIN
 70
     0
  9
$PLINEGEN
 70
     0
  9
$PSLTSCALE
 70
     1
  9
$TREEDEPTH
 70
  3020
  9
$CMLSTYLE
  2
Standard
  9
$CMLJUST
 70
     0
  9
$CMLSCALE
 40
1.0
  9
$PROXYGRAPHICS
 70
     1
  9
$MEASUREMENT
 70
     0
  9
$CELWEIGHT
370
    -1
  9
$ENDCAPS
280
     0
  9
$JOINSTYLE
280
     0
  9
$LWDISPLAY
290
     0
  9
$INSUNITS
 70
     0
  9
$HYPERLINKBASE
  1

  9
$STYLESHEET
  1

  9
$XEDIT
290
     1
  9
$CEPSNTYPE
380
     0
  9
$PSTYLEMODE
290
     1
  9
$FINGERPRINTGUID
  2
{98866E8A-85BA-4865-8D4B-989FC77CEA67}
  9
$VERSIONGUID
  2
{13A081E5-F383-4FAB-B959-2E909F4F5A31}
  9
$EXTNAMES
290
     1
  9
$PSVPSCALE
 40
0.0
  9
$OLESTARTUP
290
     0
  0
ENDSEC
  0
SECTION
  2
CLASSES
  0
CLASS
  1
ACDBDICTIONARYWDFLT
  2
AcDbDictionaryWithDefault
  3
ObjectDBX Classes
 90
        0
280
     0
281
     0
  0
CLASS
  1
MATERIAL
  2
AcDbMaterial
  3
ObjectDBX Classes
 90
     1153
280
     0
281
     0
  0
CLASS
  1
VISUALSTYLE
  2
AcDbVisualStyle
  3
ObjectDBX Classes
 90
     4095
280
     0
281
     0
  0
CLASS
  1
SCALE
  2
AcDbScale
  3
ObjectDBX Classes
 90
     1153
280
     0
281
     0
  0
CLASS
  1
TABLESTYLE
  2
AcDbTableStyle
  3
ObjectDBX Classes
 90
     4095
280
     0
281
     0
  0
CLASS
  1
MLEADERSTYLE
  2
AcDbMLeaderStyle
  3
ACDB_MLEADERSTYLE_CLASS
 90
     4095
280
     0
281
     0
  0
CLASS
  1
ACDBSECTIONVIEWSTYLE
  2
AcDbSectionViewStyle
  3
ObjectDBX Classes
 90
     1025
280
     0
281
     0
  0
CLASS
  1
ACDBDETAILVIEWSTYLE
  2
AcDbDetailViewStyle
  3
ObjectDBX Classes
 90
     1025
280
     0
281
     0
  0
CLASS
  1
SORTENTSTABLE
  2
AcDbSortentsTable
  3
ObjectDBX Classes
 90
        0
280
     0
281
     0
  0
CLASS
  1
DICTIONARYVAR
  2
AcDbDictionaryVar
  3
ObjectDBX Classes
 90
        0
280
     0
281
     0
  0
CLASS
  1
CELLSTYLEMAP
  2
AcDbCellStyleMap
  3
ObjectDBX Classes
 90
     1152
280
     0
281
     0
  0
CLASS
  1
ACDBPLACEHOLDER
  2
AcDbPlaceHolder
  3
ObjectDBX Classes
 90
        0
280
     0
281
     0
  0
CLASS
  1
LAYOUT
  2
AcDbLayout
  3
ObjectDBX Classes
 90
        0
280
     0
281
     0
  0
ENDSEC
  0
SECTION
  2
TABLES
  0
TABLE
  2
VPORT
  5
8151
330
0
100
AcDbSymbolTable
 70
     1
  0
VPORT
  5
81BD
330
8151
100
AcDbSymbolTableRecord
100
AcDbViewportTableRecord
  2
*ACTIVE
 70
     0
 10
0.0
 20
0.0
 11
1.0
 21
1.0
 12
2100.000009778887
 22
2950.000013737006
 13
0.0
 23
0.0
 14
10.0
 24
10.0
 15
10.0
 25
10.0
 16
0.0
 26
0.0
 36
1.0
 17
0.0
 27
0.0
 37
0.0
 40
5938.142562752639
 41
2.050213675213675
 42
50.0
 43
0.0
 44
0.0
 50
0.0
 51
0.0
 71
     0
 72
   100
 73
     1
 74
     0
 75
     0
 76
     0
 77
     0
 78
     0
281
     0
 65
     1
110
0.0
120
0.0
130
0.0
111
1.0
121
0.0
131
0.0
112
0.0
122
1.0
132
0.0
 79
     0
146
0.0
1001
ACAD_NAV_VCDISPLAY
1070
     3
  0
ENDTAB
  0
TABLE
  2
LTYPE
  5
814E
330
0
100
AcDbSymbolTable
 70
     3
  0
LTYPE
  5
81A3
330
814E
100
AcDbSymbolTableRecord
100
AcDbLinetypeTableRecord
  2
ByBlock
 70
     0
  3

 72
    65
 73
     0
 40
0.0
  0
LTYPE
  5
81A4
330
814E
100
AcDbSymbolTableRecord
100
AcDbLinetypeTableRecord
  2
ByLayer
 70
     0
  3

 72
    65
 73
     0
 40
0.0
  0
LTYPE
  5
81A5
330
814E
100
AcDbSymbolTableRecord
100
AcDbLinetypeTableRecord
  2
CONTINUOUS
 70
     0
  3
Solid line
 72
    65
 73
     0
 40
0.0
  0
LTYPE
  5
81BE
330
814E
100
AcDbSymbolTableRecord
100
AcDbLinetypeTableRecord
  2
CENTER
 70
     0
  3
____ _ ____ _ ____ _ ____ _ ____ _ ____ _ ____ 
 72
    65
 73
     4
 40
2.0
 49
1.25
 74
     0
 49
-0.25
 74
     0
 49
0.25
 74
     0
 49
-0.25
 74
     0
  0
ENDTAB
  0
TABLE
  2
LAYER
  5
814B
330
0
100
AcDbSymbolTable
 70
     6
  0
LAYER
  5
819D
102
{ACAD_XDICTIONARY
360
8539
102
}
330
814B
100
AcDbSymbolTableRecord
100
AcDbLayerTableRecord
  2
0
 70
     0
 62
     7
  6
CONTINUOUS
370
    -3
390
8158
  0
LAYER
  5
81BC
102
{ACAD_XDICTIONARY
360
853B
102
}
330
814B
100
AcDbSymbolTableRecord
100
AcDbLayerTableRecord
  2
3
 70
     0
 62
     2
  6
CONTINUOUS
370
    -3
390
8158
  0
LAYER
  5
81BF
102
{ACAD_XDICTIONARY
360
853D
102
}
330
814B
100
AcDbSymbolTableRecord
100
AcDbLayerTableRecord
  2
2
 70
     0
 62
     3
  6
CENTER
370
    -3
390
8158
  0
LAYER
  5
81C0
102
{ACAD_XDICTIONARY
360
853F
102
}
330
814B
100
AcDbSymbolTableRecord
100
AcDbLayerTableRecord
  2
1
 70
     0
 62
     4
  6
CONTINUOUS
370
    -3
390
8158
  0
LAYER
  5
81C1
102
{ACAD_XDICTIONARY
360
8541
102
}
330
814B
100
AcDbSymbolTableRecord
100
AcDbLayerTableRecord
  2
4
 70
     0
 62
     7
  6
CONTINUOUS
370
    -3
390
8158
  0
LAYER
  5
81C2
330
814B
100
AcDbSymbolTableRecord
100
AcDbLayerTableRecord
  2
DEFPOINTS
 70
     0
 62
     7
  6
CONTINUOUS
290
     0
370
    -3
390
8158
  0
ENDTAB
  0
TABLE
  2
STYLE
  5
814C
330
0
100
AcDbSymbolTable
 70
     2
  0
STYLE
  5
819E
330
814C
100
AcDbSymbolTableRecord
100
AcDbTextStyleTableRecord
  2
STANDARD
 70
     0
 40
0.0
 41
1.0
 50
0.0
 71
     0
 42
180.0
  3
simplex.shx
  4
extfont.shx
  0
STYLE
  5
81A2
330
814C
100
AcDbSymbolTableRecord
100
AcDbTextStyleTableRecord
  2
Annotative
 70
     0
 40
0.0
 41
1.0
 50
0.0
 71
     0
 42
0.2
  3
txt
  4

1001
AcadAnnotative
1000
AnnotativeData
1002
{
1070
     1
1070
     1
1002
}
  0
ENDTAB
  0
TABLE
  2
VIEW
  5
814F
330
0
100
AcDbSymbolTable
 70
     0
  0
ENDTAB
  0
TABLE
  2
UCS
  5
8150
330
0
100
AcDbSymbolTable
 70
     0
  0
ENDTAB
  0
TABLE
  2
APPID
  5
8152
330
0
100
AcDbSymbolTable
 70
     8
  0
APPID
  5
819F
330
8152
100
AcDbSymbolTableRecord
100
AcDbRegAppTableRecord
  2
ACAD
 70
     0
  0
APPID
  5
81A6
330
8152
100
AcDbSymbolTableRecord
100
AcDbRegAppTableRecord
  2
AcadAnnotative
 70
     0
  0
APPID
  5
8204
330
8152
100
AcDbSymbolTableRecord
100
AcDbRegAppTableRecord
  2
ACAD_DSTYLE_DIMJAG
 70
     0
  0
APPID
  5
8205
330
8152
100
AcDbSymbolTableRecord
100
AcDbRegAppTableRecord
  2
ACAD_DSTYLE_DIMTALN
 70
     0
  0
APPID
  5
8220
330
8152
100
AcDbSymbolTableRecord
100
AcDbRegAppTableRecord
  2
AcadAnnoMonitorAlertIconDisabled
 70
     0
  0
APPID
  5
8221
330
8152
100
AcDbSymbolTableRecord
100
AcDbRegAppTableRecord
  2
ACAD_EXEMPT_FROM_CAD_STANDARDS
 70
     0
  0
APPID
  5
854D
330
8152
100
AcDbSymbolTableRecord
100
AcDbRegAppTableRecord
  2
ACAD_NAV_VCDISPLAY
 70
     0
  0
APPID
  5
8586
330
8152
100
AcDbSymbolTableRecord
100
AcDbRegAppTableRecord
  2
ACAD_MLEADERVER
 70
     0
  0
ENDTAB
  0
TABLE
  2
DIMSTYLE
  5
8153
330
0
100
AcDbSymbolTable
 70
     4
100
AcDbDimStyleTable
 71
     1
340
81C3
  0
DIMSTYLE
105
81A0
102
{ACAD_REACTORS
330
7C2A
330
7C2B
330
7C88
330
7C89
330
7C8A
330
7C90
330
7CA0
330
7CA2
102
}
330
8153
100
AcDbSymbolTableRecord
100
AcDbDimStyleTableRecord
  2
Standard
 70
     0
340
819E
  0
DIMSTYLE
105
81A1
330
8153
100
AcDbSymbolTableRecord
100
AcDbDimStyleTableRecord
  2
Annotative
 70
     0
340
819E
1001
AcadAnnotative
1000
AnnotativeData
1002
{
1070
     1
1070
     1
1002
}
  0
DIMSTYLE
105
81C3
102
{ACAD_REACTORS
330
8206
330
8213
330
82E2
330
8346
330
8365
330
8372
330
837F
330
838C
330
8399
330
83A6
330
83B8
330
84E1
330
8500
330
8516
330
8523
102
}
330
8153
100
AcDbSymbolTableRecord
100
AcDbDimStyleTableRecord
  2
IGA
 70
     0
 40
2.0
 41
2.0
 42
0.5
 43
10.0
 44
1.0
 47
1.0
 48
1.0
 73
     0
 74
     0
 77
     1
 78
     8
140
3.0
141
0.0
143
0.03937
146
10.0
147
1.0
173
     1
271
     3
272
     3
279
     2
284
     8
285
     8
286
     8
340
819E
  0
DIMSTYLE
105
81C4
330
8153
100
AcDbSymbolTableRecord
100
AcDbDimStyleTableRecord
  2
MATSU
 70
     0
 41
2.0
 42
1.0
 43
10.0
 44
1.0
 73
     0
 74
     0
 77
     1
 78
     8
140
3.0
141
0.0
143
0.03937
147
0.5
172
     1
173
     1
176
   256
177
   256
178
   256
271
     3
272
     3
279
     2
284
     8
285
     8
286
     8
340
819E
  0
ENDTAB
  0
TABLE
  2
BLOCK_RECORD
  5
814A
330
0
100
AcDbSymbolTable
 70
    54
  0
BLOCK_RECORD
  5
81B8
102
{ACAD_XDICTIONARY
360
8343
102
}
330
814A
100
AcDbSymbolTableRecord
100
AcDbBlockTableRecord
  2
*Model_Space
340
81BB
  0
BLOCK_RECORD
  5
81B4
330
814A
100
AcDbSymbolTableRecord
100
AcDbBlockTableRecord
  2
*Paper_Space
340
81B7
  0
BLOCK_RECORD
  5
81C8
330
814A
100
AcDbSymbolTableRecord
100
AcDbBlockTableRecord
  2
$MODEL_SPACE
340
0
  0
BLOCK_RECORD
  5
81CA
330
814A
100
AcDbSymbolTableRecord
100
AcDbBlockTableRecord
  2
$PAPER_SPACE
340
0
  0
BLOCK_RECORD
  5
81CC
330
814A
100
AcDbSymbolTableRecord
100
AcDbBlockTableRecord
  2
_OPEN
340
0
102
{BLKREFS
331
835F
331
8360
331
836C
331
836D
331
8379
331
837A
331
8386
331
8387
331
7DEA
331
7DEB
331
7DF5
331
7DF6
331
7F46
331
7F47
331
7E21
331
7E22
331
7E37
331
7E38
331
7F66
331
7F67
331
7F5B
331
7F5C
331
7E58
331
7E59
331
7F26
331
7F27
331
8017
331
8018
331
8117
331
8118
331
811F
331
8120
331
8127
331
82D3
331
82D4
331
82DC
331
82DD
331
82E9
331
82EA
331
7F06
331
7F07
331
8128
331
8052
331
8053
331
8095
331
8096
331
7EB8
331
7EB9
331
8130
331
8131
331
813C
331
802B
331
802C
331
8038
331
8039
331
8045
331
8046
331
8393
331
8394
331
83F7
331
83F8
331
8487
331
84DD
331
84FA
331
84FB
331
8510
331
8511
331
851D
331
851E
331
8533
331
8534
102
}
  0
BLOCK_RECORD
  5
81CE
330
814A
100
AcDbSymbolTableRecord
100
AcDbBlockTableRecord
  2
YA_N
340
0
102
{BLKREFS
331
7BFC
331
7C11
102
}
  0
BLOCK_RECORD
  5
81D0
330
814A
100
AcDbSymbolTableRecord
100
AcDbBlockTableRecord
  2
*D4
340
0
  0
BLOCK_RECORD
  5
81D2
330
814A
100
AcDbSymbolTableRecord
100
AcDbBlockTableRecord
  2
*D5
340
0
  0
BLOCK_RECORD
  5
81D4
330
814A
100
AcDbSymbolTableRecord
100
AcDbBlockTableRecord
  2
*D6
340
0
  0
BLOCK_RECORD
  5
81D6
330
814A
100
AcDbSymbolTableRecord
100
AcDbBlockTableRecord
  2
*D7
340
0
  0
BLOCK_RECORD
  5
81D8
330
814A
100
AcDbSymbolTableRecord
100
AcDbBlockTableRecord
  2
*D8
340
0
  0
BLOCK_RECORD
  5
81DA
330
814A
100
AcDbSymbolTableRecord
100
AcDbBlockTableRecord
  2
*D9
340
0
  0
BLOCK_RECORD
  5
81DC
330
814A
100
AcDbSymbolTableRecord
100
AcDbBlockTableRecord
  2
*D10
340
0
  0
BLOCK_RECORD
  5
81DE
330
814A
100
AcDbSymbolTableRecord
100
AcDbBlockTableRecord
  2
*D11
340
0
  0
BLOCK_RECORD
  5
81E0
330
814A
100
AcDbSymbolTableRecord
100
AcDbBlockTableRecord
  2
*D12
340
0
  0
BLOCK_RECORD
  5
81E2
330
814A
100
AcDbSymbolTableRecord
100
AcDbBlockTableRecord
  2
*D13
340
0
  0
BLOCK_RECORD
  5
81E4
330
814A
100
AcDbSymbolTableRecord
100
AcDbBlockTableRecord
  2
*D14
340
0
  0
BLOCK_RECORD
  5
81E6
330
814A
100
AcDbSymbolTableRecord
100
AcDbBlockTableRecord
  2
*D15
340
0
  0
BLOCK_RECORD
  5
81E8
330
814A
100
AcDbSymbolTableRecord
100
AcDbBlockTableRecord
  2
*D16
340
0
  0
BLOCK_RECORD
  5
81EA
330
814A
100
AcDbSymbolTableRecord
100
AcDbBlockTableRecord
  2
*D17
340
0
  0
BLOCK_RECORD
  5
81EC
330
814A
100
AcDbSymbolTableRecord
100
AcDbBlockTableRecord
  2
*D18
340
0
  0
BLOCK_RECORD
  5
81EE
330
814A
100
AcDbSymbolTableRecord
100
AcDbBlockTableRecord
  2
*D19
340
0
  0
BLOCK_RECORD
  5
81F0
330
814A
100
AcDbSymbolTableRecord
100
AcDbBlockTableRecord
  2
*D20
340
0
  0
BLOCK_RECORD
  5
81F2
330
814A
100
AcDbSymbolTableRecord
100
AcDbBlockTableRecord
  2
_DOT
340
0
102
{BLKREFS
331
813B
102
}
  0
BLOCK_RECORD
  5
81F4
330
814A
100
AcDbSymbolTableRecord
100
AcDbBlockTableRecord
  2
*D22
340
0
  0
BLOCK_RECORD
  5
81F6
330
814A
100
AcDbSymbolTableRecord
100
AcDbBlockTableRecord
  2
*D23
340
0
  0
BLOCK_RECORD
  5
81F8
330
814A
100
AcDbSymbolTableRecord
100
AcDbBlockTableRecord
  2
*D24
340
0
  0
BLOCK_RECORD
  5
81FA
330
814A
100
AcDbSymbolTableRecord
100
AcDbBlockTableRecord
  2
*D25
340
0
  0
BLOCK_RECORD
  5
81FC
330
814A
100
AcDbSymbolTableRecord
100
AcDbBlockTableRecord
  2
_NONE
340
0
  0
BLOCK_RECORD
  5
81FE
330
814A
100
AcDbSymbolTableRecord
100
AcDbBlockTableRecord
  2
*D27
340
0
  0
BLOCK_RECORD
  5
8200
330
814A
100
AcDbSymbolTableRecord
100
AcDbBlockTableRecord
  2
*D28
340
0
  0
BLOCK_RECORD
  5
8207
330
814A
100
AcDbSymbolTableRecord
100
AcDbBlockTableRecord
  2
*D29
340
0
  0
BLOCK_RECORD
  5
8214
330
814A
100
AcDbSymbolTableRecord
100
AcDbBlockTableRecord
  2
*D30
340
0
  0
BLOCK_RECORD
  5
8262
330
814A
100
AcDbSymbolTableRecord
100
AcDbBlockTableRecord
  2
*D31
340
0
  0
BLOCK_RECORD
  5
826F
330
814A
100
AcDbSymbolTableRecord
100
AcDbBlockTableRecord
  2
*D32
340
0
  0
BLOCK_RECORD
  5
827C
330
814A
100
AcDbSymbolTableRecord
100
AcDbBlockTableRecord
  2
*D33
340
0
  0
BLOCK_RECORD
  5
8289
330
814A
100
AcDbSymbolTableRecord
100
AcDbBlockTableRecord
  2
*D34
340
0
  0
BLOCK_RECORD
  5
82E3
330
814A
100
AcDbSymbolTableRecord
100
AcDbBlockTableRecord
  2
*D35
340
0
  0
BLOCK_RECORD
  5
82F9
330
814A
100
AcDbSymbolTableRecord
100
AcDbBlockTableRecord
  2
*D36
340
0
  0
BLOCK_RECORD
  5
8304
330
814A
100
AcDbSymbolTableRecord
100
AcDbBlockTableRecord
  2
*D37
340
0
  0
BLOCK_RECORD
  5
8311
330
814A
100
AcDbSymbolTableRecord
100
AcDbBlockTableRecord
  2
*D38
340
0
  0
BLOCK_RECORD
  5
831E
330
814A
100
AcDbSymbolTableRecord
100
AcDbBlockTableRecord
  2
*D39
340
0
  0
BLOCK_RECORD
  5
8335
330
814A
100
AcDbSymbolTableRecord
100
AcDbBlockTableRecord
  2
*D40
340
0
  0
BLOCK_RECORD
  5
8347
330
814A
100
AcDbSymbolTableRecord
100
AcDbBlockTableRecord
  2
*D41
340
0
  0
BLOCK_RECORD
  5
8366
330
814A
100
AcDbSymbolTableRecord
100
AcDbBlockTableRecord
  2
*D42
340
0
  0
BLOCK_RECORD
  5
8373
330
814A
100
AcDbSymbolTableRecord
100
AcDbBlockTableRecord
  2
*D43
340
0
  0
BLOCK_RECORD
  5
8380
330
814A
100
AcDbSymbolTableRecord
100
AcDbBlockTableRecord
  2
*D44
340
0
  0
BLOCK_RECORD
  5
838D
330
814A
100
AcDbSymbolTableRecord
100
AcDbBlockTableRecord
  2
*D45
340
0
  0
BLOCK_RECORD
  5
839A
330
814A
100
AcDbSymbolTableRecord
100
AcDbBlockTableRecord
  2
*D46
340
0
  0
BLOCK_RECORD
  5
83A7
330
814A
100
AcDbSymbolTableRecord
100
AcDbBlockTableRecord
  2
*D47
340
0
  0
BLOCK_RECORD
  5
83B9
330
814A
100
AcDbSymbolTableRecord
100
AcDbBlockTableRecord
  2
*D48
340
0
  0
BLOCK_RECORD
  5
847F
330
814A
100
AcDbSymbolTableRecord
100
AcDbBlockTableRecord
  2
_DotSmall
340
0
102
{BLKREFS
331
8488
331
84DC
102
}
  0
BLOCK_RECORD
  5
84E2
330
814A
100
AcDbSymbolTableRecord
100
AcDbBlockTableRecord
  2
*D50
340
0
  0
BLOCK_RECORD
  5
8501
330
814A
100
AcDbSymbolTableRecord
100
AcDbBlockTableRecord
  2
*D51
340
0
  0
BLOCK_RECORD
  5
8517
330
814A
100
AcDbSymbolTableRecord
100
AcDbBlockTableRecord
  2
*D52
340
0
  0
BLOCK_RECORD
  5
8524
330
814A
100
AcDbSymbolTableRecord
100
AcDbBlockTableRecord
  2
*D53
340
0
  0
ENDTAB
  0
ENDSEC
  0
SECTION
  2
BLOCKS
  0
BLOCK
  5
81B9
330
81B8
100
AcDbEntity
  8
0
100
AcDbBlockBegin
  2
*Model_Space
 70
     0
 10
0.0
 20
0.0
 30
0.0
  3
*Model_Space
  1

  0
ENDBLK
  5
81BA
330
81B8
100
AcDbEntity
  8
0
100
AcDbBlockEnd
  0
BLOCK
  5
81B5
330
81B4
100
AcDbEntity
 67
     1
  8
0
100
AcDbBlockBegin
  2
*Paper_Space
 70
     0
 10
0.0
 20
0.0
 30
0.0
  3
*Paper_Space
  1

  0
ENDBLK
  5
81B6
330
81B4
100
AcDbEntity
 67
     1
  8
0
100
AcDbBlockEnd
  0
BLOCK
  5
81C9
330
81C8
100
AcDbEntity
  8
0
100
AcDbBlockBegin
  2
$MODEL_SPACE
 70
     0
 10
0.0
 20
0.0
 30
0.0
  3
$MODEL_SPACE
  1

  0
ENDBLK
  5
1B
330
81C8
100
AcDbEntity
  8
0
100
AcDbBlockEnd
  0
BLOCK
  5
81CB
330
81CA
100
AcDbEntity
  8
0
100
AcDbBlockBegin
  2
$PAPER_SPACE
 70
     0
 10
0.0
 20
0.0
 30
0.0
  3
$PAPER_SPACE
  1

  0
ENDBLK
  5
18
330
81CA
100
AcDbEntity
  8
0
100
AcDbBlockEnd
  0
BLOCK
  5
81CD
330
81CC
100
AcDbEntity
  8
0
100
AcDbBlockBegin
  2
_OPEN
 70
     0
 10
0.0
 20
0.0
 30
0.0
  3
_OPEN
  1

  0
LINE
  5
79FD
330
81CC
100
AcDbEntity
  8
0
  6
ByBlock
 62
     0
100
AcDbLine
 10
-1.0
 20
0.1666666666666666
 30
0.0
 11
0.0
 21
0.0
 31
0.0
  0
LINE
  5
79FE
330
81CC
100
AcDbEntity
  8
0
  6
ByBlock
 62
     0
100
AcDbLine
 10
0.0
 20
0.0
 30
0.0
 11
-1.0
 21
-0.1666666666666666
 31
0.0
  0
LINE
  5
79FF
330
81CC
100
AcDbEntity
  8
0
  6
ByBlock
 62
     0
100
AcDbLine
 10
0.0
 20
0.0
 30
0.0
 11
-1.0
 21
0.0
 31
0.0
  0
ENDBLK
  5
7A01
330
81CC
100
AcDbEntity
  8
0
100
AcDbBlockEnd
  0
BLOCK
  5
81CF
330
81CE
100
AcDbEntity
  8
0
100
AcDbBlockBegin
  2
YA_N
 70
     0
 10
0.0
 20
0.0
 30
0.0
  3
YA_N
  1

  0
ENDBLK
  5
7A0C
330
81CE
100
AcDbEntity
  8
0
100
AcDbBlockEnd
  0
BLOCK
  5
81D1
330
81D0
100
AcDbEntity
  8
0
100
AcDbBlockBegin
  2
*D4
 70
     1
 10
0.0
 20
0.0
 30
0.0
  3
*D4
  1

  0
LINE
  5
7DE7
330
81D0
100
AcDbEntity
  8
0
  6
ByBlock
100
AcDbLine
 10
-327.9612595271856
 20
-109.9023735498794
 30
0.0
 11
-456.5227942337424
 21
-109.9023735498794
 31
0.0
  0
LINE
  5
7DE8
330
81D0
100
AcDbEntity
  8
0
  6
ByBlock
100
AcDbLine
 10
-327.9612595271856
 20
540.0976264501204
 30
0.0
 11
-456.5227942337424
 21
540.0976264501204
 31
0.0
  0
LINE
  5
7DE9
330
81D0
100
AcDbEntity
  8
0
  6
ByBlock
100
AcDbLine
 10
-436.5227942337424
 20
-69.9023735498795
 30
0.0
 11
-436.5227942337424
 21
500.0976264501204
 31
0.0
  0
INSERT
  5
7DEA
330
81D0
100
AcDbEntity
  8
0
  6
ByBlock
100
AcDbBlockReference
  2
_OPEN
 10
-436.5227942337424
 20
-109.9023735498794
 30
0.0
 41
40.0
 42
40.0
 43
40.0
 50
270.0
  0
INSERT
  5
7DEB
330
81D0
100
AcDbEntity
  8
0
  6
ByBlock
100
AcDbBlockReference
  2
_OPEN
 10
-436.5227942337424
 20
540.0976264501204
 30
0.0
 41
40.0
 42
40.0
 43
40.0
 50
90.0
  0
TEXT
  5
7DEC
330
81D0
100
AcDbEntity
  8
3
100
AcDbText
 10
-446.5227942337422
 20
137.9547693072633
 30
0.0
 40
60.0
  1
650
 50
90.0
100
AcDbText
  0
POINT
  5
7DED
330
81D0
100
AcDbEntity
  8
DEFPOINTS
  6
ByBlock
 62
     0
100
AcDbPoint
 10
-307.9612595271855
 20
-109.9023735498794
 30
0.0
  0
POINT
  5
7DEE
330
81D0
100
AcDbEntity
  8
DEFPOINTS
  6
ByBlock
 62
     0
100
AcDbPoint
 10
-307.9612595271855
 20
540.0976264501204
 30
0.0
  0
POINT
  5
7DEF
330
81D0
100
AcDbEntity
  8
DEFPOINTS
  6
ByBlock
 62
     0
100
AcDbPoint
 10
-436.5227942337424
 20
540.0976264501204
 30
0.0
  0
ENDBLK
  5
7DF0
330
81D0
100
AcDbEntity
  8
0
100
AcDbBlockEnd
  0
BLOCK
  5
81D3
330
81D2
100
AcDbEntity
  8
0
100
AcDbBlockBegin
  2
*D5
 70
     1
 10
0.0
 20
0.0
 30
0.0
  3
*D5
  1

  0
LINE
  5
7DF2
330
81D2
100
AcDbEntity
  8
0
  6
ByBlock
100
AcDbLine
 10
-327.9612595271856
 20
-109.9023735498794
 30
0.0
 11
-576.1118528099395
 21
-109.9023735498794
 31
0.0
  0
LINE
  5
7DF3
330
81D2
100
AcDbEntity
  8
0
  6
ByBlock
100
AcDbLine
 10
-374.8542326301812
 20
568.0976264501205
 30
0.0
 11
-576.1118528099395
 21
568.0976264501205
 31
0.0
  0
LINE
  5
7DF4
330
81D2
100
AcDbEntity
  8
0
  6
ByBlock
100
AcDbLine
 10
-556.1118528099394
 20
-69.9023735498795
 30
0.0
 11
-556.1118528099394
 21
528.0976264501203
 31
0.0
  0
INSERT
  5
7DF5
330
81D2
100
AcDbEntity
  8
0
  6
ByBlock
100
AcDbBlockReference
  2
_OPEN
 10
-556.1118528099394
 20
-109.9023735498794
 30
0.0
 41
40.0
 42
40.0
 43
40.0
 50
270.0
  0
INSERT
  5
7DF6
330
81D2
100
AcDbEntity
  8
0
  6
ByBlock
100
AcDbBlockReference
  2
_OPEN
 10
-556.1118528099394
 20
568.0976264501205
 30
0.0
 41
40.0
 42
40.0
 43
40.0
 50
90.0
  0
TEXT
  5
7DF7
330
81D2
100
AcDbEntity
  8
3
100
AcDbText
 10
-566.1118528099397
 20
151.9547693072633
 30
0.0
 40
60.0
  1
678
 50
90.0
100
AcDbText
  0
POINT
  5
7DF8
330
81D2
100
AcDbEntity
  8
DEFPOINTS
  6
ByBlock
 62
     0
100
AcDbPoint
 10
-307.9612595271855
 20
-109.9023735498794
 30
0.0
  0
POINT
  5
7DF9
330
81D2
100
AcDbEntity
  8
DEFPOINTS
  6
ByBlock
 62
     0
100
AcDbPoint
 10
-354.8542326301812
 20
568.0976264501205
 30
0.0
  0
POINT
  5
7DFA
330
81D2
100
AcDbEntity
  8
DEFPOINTS
  6
ByBlock
 62
     0
100
AcDbPoint
 10
-556.1118528099394
 20
568.0976264501205
 30
0.0
  0
ENDBLK
  5
7DFB
330
81D2
100
AcDbEntity
  8
0
100
AcDbBlockEnd
  0
BLOCK
  5
81D5
330
81D4
100
AcDbEntity
  8
0
100
AcDbBlockBegin
  2
*D6
 70
     1
 10
0.0
 20
0.0
 30
0.0
  3
*D6
  1

  0
LINE
  5
7F43
330
81D4
100
AcDbEntity
  8
0
  6
ByBlock
100
AcDbLine
 10
3668.964424613871
 20
2654.660298728197
 30
0.0
 11
3917.001458184535
 21
2654.660298728197
 31
0.0
  0
LINE
  5
7F44
330
81D4
100
AcDbEntity
  8
0
  6
ByBlock
100
AcDbLine
 10
3668.964424613871
 20
1984.660298728196
 30
0.0
 11
3917.001458184535
 21
1984.660298728196
 31
0.0
  0
LINE
  5
7F45
330
81D4
100
AcDbEntity
  8
0
  6
ByBlock
100
AcDbLine
 10
3897.001458184535
 20
2614.660298728197
 30
0.0
 11
3897.001458184535
 21
2024.660298728196
 31
0.0
  0
INSERT
  5
7F46
330
81D4
100
AcDbEntity
  8
0
  6
ByBlock
100
AcDbBlockReference
  2
_OPEN
 10
3897.001458184535
 20
2654.660298728197
 30
0.0
 41
40.0
 42
40.0
 43
40.0
 50
90.0
  0
INSERT
  5
7F47
330
81D4
100
AcDbEntity
  8
0
  6
ByBlock
100
AcDbBlockReference
  2
_OPEN
 10
3897.001458184535
 20
1984.660298728196
 30
0.0
 41
40.0
 42
40.0
 43
40.0
 50
270.0
  0
TEXT
  5
7F48
330
81D4
100
AcDbEntity
  8
3
100
AcDbText
 10
3887.001458184535
 20
2212.517441585339
 30
0.0
 40
60.0
  1
\U+03C6670
 50
90.0
100
AcDbText
  0
POINT
  5
7F49
330
81D4
100
AcDbEntity
  8
DEFPOINTS
  6
ByBlock
 62
     0
100
AcDbPoint
 10
3648.964424613871
 20
2654.660298728197
 30
0.0
  0
POINT
  5
7F4A
330
81D4
100
AcDbEntity
  8
DEFPOINTS
  6
ByBlock
 62
     0
100
AcDbPoint
 10
3648.964424613871
 20
1984.660298728196
 30
0.0
  0
POINT
  5
7F4B
330
81D4
100
AcDbEntity
  8
DEFPOINTS
  6
ByBlock
 62
     0
100
AcDbPoint
 10
3897.001458184535
 20
1984.660298728196
 30
0.0
  0
ENDBLK
  5
7F4C
330
81D4
100
AcDbEntity
  8
0
100
AcDbBlockEnd
  0
BLOCK
  5
81D7
330
81D6
100
AcDbEntity
  8
0
100
AcDbBlockBegin
  2
*D7
 70
     1
 10
0.0
 20
0.0
 30
0.0
  3
*D7
  1

  0
LINE
  5
7E1E
330
81D6
100
AcDbEntity
  8
0
  6
ByBlock
100
AcDbLine
 10
2167.296193483282
 20
1018.497617330824
 30
0.0
 11
2167.296193483282
 21
1113.682524828345
 31
0.0
  0
LINE
  5
7E1F
330
81D6
100
AcDbEntity
  8
0
  6
ByBlock
100
AcDbLine
 10
2967.296193483282
 20
1018.497617330824
 30
0.0
 11
2967.296193483282
 21
1113.682524828345
 31
0.0
  0
LINE
  5
7E20
330
81D6
100
AcDbEntity
  8
0
  6
ByBlock
100
AcDbLine
 10
2207.296193483281
 20
1093.682524828345
 30
0.0
 11
2927.296193483282
 21
1093.682524828345
 31
0.0
  0
INSERT
  5
7E21
330
81D6
100
AcDbEntity
  8
0
  6
ByBlock
100
AcDbBlockReference
  2
_OPEN
 10
2167.296193483282
 20
1093.682524828345
 30
0.0
 41
40.0
 42
40.0
 43
40.0
 50
180.0
  0
INSERT
  5
7E22
330
81D6
100
AcDbEntity
  8
0
  6
ByBlock
100
AcDbBlockReference
  2
_OPEN
 10
2967.296193483282
 20
1093.682524828345
 30
0.0
 41
40.0
 42
40.0
 43
40.0
  0
TEXT
  5
7E23
330
81D6
100
AcDbEntity
  8
3
100
AcDbText
 10
2490.153336340425
 20
1103.682524828345
 30
0.0
 40
60.0
  1
800
100
AcDbText
  0
POINT
  5
7E24
330
81D6
100
AcDbEntity
  8
DEFPOINTS
  6
ByBlock
 62
     0
100
AcDbPoint
 10
2167.296193483282
 20
998.4976173308242
 30
0.0
  0
POINT
  5
7E25
330
81D6
100
AcDbEntity
  8
DEFPOINTS
  6
ByBlock
 62
     0
100
AcDbPoint
 10
2967.296193483282
 20
998.4976173308238
 30
0.0
  0
POINT
  5
7E26
330
81D6
100
AcDbEntity
  8
DEFPOINTS
  6
ByBlock
 62
     0
100
AcDbPoint
 10
2967.296193483282
 20
1093.682524828345
 30
0.0
  0
ENDBLK
  5
7E27
330
81D6
100
AcDbEntity
  8
0
100
AcDbBlockEnd
  0
BLOCK
  5
81D9
330
81D8
100
AcDbEntity
  8
0
100
AcDbBlockBegin
  2
*D8
 70
     1
 10
0.0
 20
0.0
 30
0.0
  3
*D8
  1

  0
LINE
  5
7E34
330
81D8
100
AcDbEntity
  8
0
  6
ByBlock
100
AcDbLine
 10
1202.038740472814
 20
1858.357209896735
 30
0.0
 11
1202.038740472814
 21
1582.955611777533
 31
0.0
  0
LINE
  5
7E35
330
81D8
100
AcDbEntity
  8
0
  6
ByBlock
100
AcDbLine
 10
-247.9612595271855
 20
1858.357209896736
 30
0.0
 11
-247.9612595271855
 21
1582.955611777533
 31
0.0
  0
LINE
  5
7E36
330
81D8
100
AcDbEntity
  8
0
  6
ByBlock
100
AcDbLine
 10
1162.038740472814
 20
1602.955611777533
 30
0.0
 11
-207.9612595271855
 21
1602.955611777533
 31
0.0
  0
INSERT
  5
7E37
330
81D8
100
AcDbEntity
  8
0
  6
ByBlock
100
AcDbBlockReference
  2
_OPEN
 10
1202.038740472814
 20
1602.955611777533
 30
0.0
 41
40.0
 42
40.0
 43
40.0
  0
INSERT
  5
7E38
330
81D8
100
AcDbEntity
  8
0
  6
ByBlock
100
AcDbBlockReference
  2
_OPEN
 10
-247.9612595271855
 20
1602.955611777533
 30
0.0
 41
40.0
 42
40.0
 43
40.0
 50
180.0
  0
TEXT
  5
7E39
330
81D8
100
AcDbEntity
  8
3
100
AcDbText
 10
377.0387404728144
 20
1612.955611777533
 30
0.0
 40
60.0
  1
1450
100
AcDbText
  0
POINT
  5
7E3A
330
81D8
100
AcDbEntity
  8
DEFPOINTS
  6
ByBlock
 62
     0
100
AcDbPoint
 10
1202.038740472814
 20
1878.357209896735
 30
0.0
  0
POINT
  5
7E3B
330
81D8
100
AcDbEntity
  8
DEFPOINTS
  6
ByBlock
 62
     0
100
AcDbPoint
 10
-247.9612595271855
 20
1878.357209896736
 30
0.0
  0
POINT
  5
7E3C
330
81D8
100
AcDbEntity
  8
DEFPOINTS
  6
ByBlock
 62
     0
100
AcDbPoint
 10
-247.9612595271855
 20
1602.955611777533
 30
0.0
  0
ENDBLK
  5
7E3D
330
81D8
100
AcDbEntity
  8
0
100
AcDbBlockEnd
  0
BLOCK
  5
81DB
330
81DA
100
AcDbEntity
  8
0
100
AcDbBlockBegin
  2
*D9
 70
     1
 10
0.0
 20
0.0
 30
0.0
  3
*D9
  1

  0
LINE
  5
7F63
330
81DA
100
AcDbEntity
  8
0
  6
ByBlock
100
AcDbLine
 10
746.1549378146927
 20
3492.710584264269
 30
0.0
 11
537.3629668160848
 21
3492.710584264269
 31
0.0
  0
LINE
  5
7F64
330
81DA
100
AcDbEntity
  8
0
  6
ByBlock
100
AcDbLine
 10
746.1549378146919
 20
4498.71058426427
 30
0.0
 11
537.3629668160848
 21
4498.71058426427
 31
0.0
  0
LINE
  5
7F65
330
81DA
100
AcDbEntity
  8
0
  6
ByBlock
100
AcDbLine
 10
557.3629668160848
 20
3532.710584264269
 30
0.0
 11
557.3629668160848
 21
4458.71058426427
 31
0.0
  0
INSERT
  5
7F66
330
81DA
100
AcDbEntity
  8
0
  6
ByBlock
100
AcDbBlockReference
  2
_OPEN
 10
557.3629668160848
 20
3492.710584264269
 30
0.0
 41
40.0
 42
40.0
 43
40.0
 50
270.0
  0
INSERT
  5
7F67
330
81DA
100
AcDbEntity
  8
0
  6
ByBlock
100
AcDbBlockReference
  2
_OPEN
 10
557.3629668160848
 20
4498.71058426427
 30
0.0
 41
40.0
 42
40.0
 43
40.0
 50
90.0
  0
TEXT
  5
7F68
330
81DA
100
AcDbEntity
  8
3
100
AcDbText
 10
547.3629668160848
 20
3897.13915569284
 30
0.0
 40
60.0
  1
1006
 50
90.0
100
AcDbText
  0
POINT
  5
7F69
330
81DA
100
AcDbEntity
  8
DEFPOINTS
  6
ByBlock
 62
     0
100
AcDbPoint
 10
766.1549378146927
 20
3492.710584264269
 30
0.0
  0
POINT
  5
7F6A
330
81DA
100
AcDbEntity
  8
DEFPOINTS
  6
ByBlock
 62
     0
100
AcDbPoint
 10
766.1549378146919
 20
4498.71058426427
 30
0.0
  0
POINT
  5
7F6B
330
81DA
100
AcDbEntity
  8
DEFPOINTS
  6
ByBlock
 62
     0
100
AcDbPoint
 10
557.3629668160848
 20
4498.71058426427
 30
0.0
  0
ENDBLK
  5
7F6C
330
81DA
100
AcDbEntity
  8
0
100
AcDbBlockEnd
  0
BLOCK
  5
81DD
330
81DC
100
AcDbEntity
  8
0
100
AcDbBlockBegin
  2
*D10
 70
     1
 10
0.0
 20
0.0
 30
0.0
  3
*D10
  1

  0
LINE
  5
7F58
330
81DC
100
AcDbEntity
  8
0
  6
ByBlock
100
AcDbLine
 10
1566.154937814693
 20
4518.710584264268
 30
0.0
 11
1566.154937814693
 21
4614.543070233767
 31
0.0
  0
LINE
  5
7F59
330
81DC
100
AcDbEntity
  8
0
  6
ByBlock
100
AcDbLine
 10
766.1549378146919
 20
4518.710584264272
 30
0.0
 11
766.1549378146919
 21
4614.543070233767
 31
0.0
  0
LINE
  5
7F5A
330
81DC
100
AcDbEntity
  8
0
  6
ByBlock
100
AcDbLine
 10
1526.154937814693
 20
4594.543070233767
 30
0.0
 11
806.1549378146919
 21
4594.543070233767
 31
0.0
  0
INSERT
  5
7F5B
330
81DC
100
AcDbEntity
  8
0
  6
ByBlock
100
AcDbBlockReference
  2
_OPEN
 10
1566.154937814693
 20
4594.543070233767
 30
0.0
 41
40.0
 42
40.0
 43
40.0
  0
INSERT
  5
7F5C
330
81DC
100
AcDbEntity
  8
0
  6
ByBlock
100
AcDbBlockReference
  2
_OPEN
 10
766.1549378146919
 20
4594.543070233767
 30
0.0
 41
40.0
 42
40.0
 43
40.0
 50
180.0
  0
TEXT
  5
7F5D
330
81DC
100
AcDbEntity
  8
3
100
AcDbText
 10
1089.012080671835
 20
4604.543070233767
 30
0.0
 40
60.0
  1
800
100
AcDbText
  0
POINT
  5
7F5E
330
81DC
100
AcDbEntity
  8
DEFPOINTS
  6
ByBlock
 62
     0
100
AcDbPoint
 10
1566.154937814693
 20
4498.710584264268
 30
0.0
  0
POINT
  5
7F5F
330
81DC
100
AcDbEntity
  8
DEFPOINTS
  6
ByBlock
 62
     0
100
AcDbPoint
 10
766.1549378146919
 20
4498.71058426427
 30
0.0
  0
POINT
  5
7F60
330
81DC
100
AcDbEntity
  8
DEFPOINTS
  6
ByBlock
 62
     0
100
AcDbPoint
 10
766.1549378146919
 20
4594.543070233767
 30
0.0
  0
ENDBLK
  5
7F61
330
81DC
100
AcDbEntity
  8
0
100
AcDbBlockEnd
  0
BLOCK
  5
81DF
330
81DE
100
AcDbEntity
  8
0
100
AcDbBlockBegin
  2
*D11
 70
     1
 10
0.0
 20
0.0
 30
0.0
  3
*D11
  1

  0
LINE
  5
7E55
330
81DE
100
AcDbEntity
  8
0
  6
ByBlock
100
AcDbLine
 10
1222.038740472814
 20
2478.357209896735
 30
0.0
 11
1372.466324348095
 21
2478.357209896735
 31
0.0
  0
LINE
  5
7E56
330
81DE
100
AcDbEntity
  8
0
  6
ByBlock
100
AcDbLine
 10
1222.038740472814
 20
1878.357209896735
 30
0.0
 11
1372.466324348095
 21
1878.357209896735
 31
0.0
  0
LINE
  5
7E57
330
81DE
100
AcDbEntity
  8
0
  6
ByBlock
100
AcDbLine
 10
1352.466324348095
 20
2438.357209896735
 30
0.0
 11
1352.466324348095
 21
1918.357209896735
 31
0.0
  0
INSERT
  5
7E58
330
81DE
100
AcDbEntity
  8
0
  6
ByBlock
100
AcDbBlockReference
  2
_OPEN
 10
1352.466324348095
 20
2478.357209896735
 30
0.0
 41
40.0
 42
40.0
 43
40.0
 50
90.0
  0
INSERT
  5
7E59
330
81DE
100
AcDbEntity
  8
0
  6
ByBlock
100
AcDbBlockReference
  2
_OPEN
 10
1352.466324348095
 20
1878.357209896735
 30
0.0
 41
40.0
 42
40.0
 43
40.0
 50
270.0
  0
TEXT
  5
7E5A
330
81DE
100
AcDbEntity
  8
3
100
AcDbText
 10
1342.466324348095
 20
2101.214352753876
 30
0.0
 40
60.0
  1
600
 50
90.0
100
AcDbText
  0
POINT
  5
7E5B
330
81DE
100
AcDbEntity
  8
DEFPOINTS
  6
ByBlock
 62
     0
100
AcDbPoint
 10
1202.038740472814
 20
2478.357209896735
 30
0.0
  0
POINT
  5
7E5C
330
81DE
100
AcDbEntity
  8
DEFPOINTS
  6
ByBlock
 62
     0
100
AcDbPoint
 10
1202.038740472814
 20
1878.357209896735
 30
0.0
  0
POINT
  5
7E5D
330
81DE
100
AcDbEntity
  8
DEFPOINTS
  6
ByBlock
 62
     0
100
AcDbPoint
 10
1352.466324348095
 20
1878.357209896735
 30
0.0
  0
ENDBLK
  5
7E5E
330
81DE
100
AcDbEntity
  8
0
100
AcDbBlockEnd
  0
BLOCK
  5
81E1
330
81E0
100
AcDbEntity
  8
0
100
AcDbBlockBegin
  2
*D12
 70
     1
 10
0.0
 20
0.0
 30
0.0
  3
*D12
  1

  0
LINE
  5
7F23
330
81E0
100
AcDbEntity
  8
0
  6
ByBlock
100
AcDbLine
 10
2216.154937814692
 20
1742.987676433646
 30
0.0
 11
2216.154937814692
 21
3123.034868643582
 31
0.0
  0
LINE
  5
7F24
330
81E0
100
AcDbEntity
  8
0
  6
ByBlock
100
AcDbLine
 10
706.1549378146927
 20
2383.152369081682
 30
0.0
 11
706.1549378146927
 21
3123.034868643582
 31
0.0
  0
LINE
  5
7F25
330
81E0
100
AcDbEntity
  8
0
  6
ByBlock
100
AcDbLine
 10
2176.154937814692
 20
3103.034868643582
 30
0.0
 11
746.1549378146927
 21
3103.034868643582
 31
0.0
  0
INSERT
  5
7F26
330
81E0
100
AcDbEntity
  8
0
  6
ByBlock
100
AcDbBlockReference
  2
_OPEN
 10
2216.154937814692
 20
3103.034868643582
 30
0.0
 41
40.0
 42
40.0
 43
40.0
  0
INSERT
  5
7F27
330
81E0
100
AcDbEntity
  8
0
  6
ByBlock
100
AcDbBlockReference
  2
_OPEN
 10
706.1549378146927
 20
3103.034868643582
 30
0.0
 41
40.0
 42
40.0
 43
40.0
 50
180.0
  0
TEXT
  5
7F28
330
81E0
100
AcDbEntity
  8
3
100
AcDbText
 10
1366.869223528978
 20
3113.034868643581
 30
0.0
 40
60.0
  1
1510
100
AcDbText
  0
POINT
  5
7F29
330
81E0
100
AcDbEntity
  8
DEFPOINTS
  6
ByBlock
 62
     0
100
AcDbPoint
 10
2216.154937814692
 20
1722.987676433645
 30
0.0
  0
POINT
  5
7F2A
330
81E0
100
AcDbEntity
  8
DEFPOINTS
  6
ByBlock
 62
     0
100
AcDbPoint
 10
706.1549378146927
 20
2363.152369081683
 30
0.0
  0
POINT
  5
7F2B
330
81E0
100
AcDbEntity
  8
DEFPOINTS
  6
ByBlock
 62
     0
100
AcDbPoint
 10
706.1549378146927
 20
3103.034868643582
 30
0.0
  0
ENDBLK
  5
7F2C
330
81E0
100
AcDbEntity
  8
0
100
AcDbBlockEnd
  0
BLOCK
  5
81E3
330
81E2
100
AcDbEntity
  8
0
100
AcDbBlockBegin
  2
*D13
 70
     1
 10
0.0
 20
0.0
 30
0.0
  3
*D13
  1

  0
LINE
  5
8014
330
81E2
100
AcDbEntity
  8
0
  6
ByBlock
100
AcDbLine
 10
3743.464424613871
 20
2309.660298728196
 30
0.0
 11
3743.464424613871
 21
3011.096369271985
 31
0.0
  0
LINE
  5
8015
330
81E2
100
AcDbEntity
  8
0
  6
ByBlock
100
AcDbLine
 10
3243.464424613871
 20
2927.011009353422
 30
0.0
 11
3243.464424613871
 21
3011.096369271985
 31
0.0
  0
LINE
  5
8016
330
81E2
100
AcDbEntity
  8
0
  6
ByBlock
100
AcDbLine
 10
3703.464424613871
 20
2991.096369271985
 30
0.0
 11
3283.464424613871
 21
2991.096369271985
 31
0.0
  0
INSERT
  5
8017
330
81E2
100
AcDbEntity
  8
0
  6
ByBlock
100
AcDbBlockReference
  2
_OPEN
 10
3743.464424613871
 20
2991.096369271985
 30
0.0
 41
40.0
 42
40.0
 43
40.0
  0
INSERT
  5
8018
330
81E2
100
AcDbEntity
  8
0
  6
ByBlock
100
AcDbBlockReference
  2
_OPEN
 10
3243.464424613871
 20
2991.096369271985
 30
0.0
 41
40.0
 42
40.0
 43
40.0
 50
180.0
  0
TEXT
  5
8019
330
81E2
100
AcDbEntity
  8
3
100
AcDbText
 10
3383.464424613871
 20
3026.810654986271
 30
0.0
 40
60.0
  1
(510)
100
AcDbText
  0
POINT
  5
801A
330
81E2
100
AcDbEntity
  8
DEFPOINTS
  6
ByBlock
 62
     0
100
AcDbPoint
 10
3743.464424613871
 20
2289.660298728196
 30
0.0
  0
POINT
  5
801B
330
81E2
100
AcDbEntity
  8
DEFPOINTS
  6
ByBlock
 62
     0
100
AcDbPoint
 10
3243.464424613871
 20
2907.011009353422
 30
0.0
  0
POINT
  5
801C
330
81E2
100
AcDbEntity
  8
DEFPOINTS
  6
ByBlock
 62
     0
100
AcDbPoint
 10
3243.464424613871
 20
2991.096369271985
 30
0.0
  0
ENDBLK
  5
801D
330
81E2
100
AcDbEntity
  8
0
100
AcDbBlockEnd
  0
BLOCK
  5
81E5
330
81E4
100
AcDbEntity
  8
0
100
AcDbBlockBegin
  2
*D14
 70
     1
 10
0.0
 20
0.0
 30
0.0
  3
*D14
  1

  0
LINE
  5
8115
330
81E4
100
AcDbEntity
  8
3
100
AcDbLine
 10
2563.464424613871
 20
2489.660298728197
 30
0.0
 11
2563.464424613871
 21
3011.096369271985
 31
0.0
  0
LINE
  5
8116
330
81E4
100
AcDbEntity
  8
3
100
AcDbLine
 10
3203.464424613871
 20
2991.096369271985
 30
0.0
 11
2603.464424613871
 21
2991.096369271985
 31
0.0
  0
INSERT
  5
8117
330
81E4
100
AcDbEntity
  8
3
100
AcDbBlockReference
  2
_OPEN
 10
3243.464424613871
 20
2991.096369271985
 30
0.0
 41
40.0
 42
40.0
 43
40.0
  0
INSERT
  5
8118
330
81E4
100
AcDbEntity
  8
3
100
AcDbBlockReference
  2
_OPEN
 10
2563.464424613871
 20
2991.096369271985
 30
0.0
 41
40.0
 42
40.0
 43
40.0
 50
180.0
  0
TEXT
  5
8144
330
81E4
100
AcDbEntity
  8
3
100
AcDbText
 10
2783.46
 20
2974.9
 30
0.0
 40
60.0
  1
MAX
100
AcDbText
  0
TEXT
  5
8145
330
81E4
100
AcDbEntity
  8
3
100
AcDbText
 10
2783.46
 20
2896.9
 30
0.0
 40
60.0
  1
710
100
AcDbText
  0
POINT
  5
811A
330
81E4
100
AcDbEntity
  8
DEFPOINTS
 62
     0
100
AcDbPoint
 10
3243.464424613871
 20
2907.011009353422
 30
0.0
  0
POINT
  5
811B
330
81E4
100
AcDbEntity
  8
DEFPOINTS
 62
     0
100
AcDbPoint
 10
2563.464424613871
 20
2469.660298728197
 30
0.0
  0
POINT
  5
811C
330
81E4
100
AcDbEntity
  8
DEFPOINTS
 62
     0
100
AcDbPoint
 10
2563.464424613871
 20
2991.096369271985
 30
0.0
  0
ENDBLK
  5
8012
330
81E4
100
AcDbEntity
  8
0
100
AcDbBlockEnd
  0
BLOCK
  5
81E7
330
81E6
100
AcDbEntity
  8
0
100
AcDbBlockBegin
  2
*D15
 70
     1
 10
0.0
 20
0.0
 30
0.0
  3
*D15
  1

  0
LINE
  5
811D
330
81E6
100
AcDbEntity
  8
3
100
AcDbLine
 10
2459.055040675533
 20
4112.710584264267
 30
0.0
 11
2459.055040675533
 21
4614.543070233767
 31
0.0
  0
LINE
  5
811E
330
81E6
100
AcDbEntity
  8
3
100
AcDbLine
 10
1849.055040675533
 20
4594.543070233767
 30
0.0
 11
2419.055040675532
 21
4594.543070233767
 31
0.0
  0
INSERT
  5
811F
330
81E6
100
AcDbEntity
  8
3
100
AcDbBlockReference
  2
_OPEN
 10
1809.055040675533
 20
4594.543070233767
 30
0.0
 41
40.0
 42
40.0
 43
40.0
 50
180.0
  0
INSERT
  5
8120
330
81E6
100
AcDbEntity
  8
3
100
AcDbBlockReference
  2
_OPEN
 10
2459.055040675533
 20
4594.543070233767
 30
0.0
 41
40.0
 42
40.0
 43
40.0
  0
TEXT
  5
8146
330
81E6
100
AcDbEntity
  8
3
100
AcDbText
 10
2014.06
 20
4528.34
 30
0.0
 40
60.0
  1
650
100
AcDbText
  0
POINT
  5
8122
330
81E6
100
AcDbEntity
  8
DEFPOINTS
 62
     0
100
AcDbPoint
 10
1809.055040675533
 20
4498.710584264268
 30
0.0
  0
POINT
  5
8123
330
81E6
100
AcDbEntity
  8
DEFPOINTS
 62
     0
100
AcDbPoint
 10
2459.055040675533
 20
4092.710584264266
 30
0.0
  0
POINT
  5
8124
330
81E6
100
AcDbEntity
  8
DEFPOINTS
 62
     0
100
AcDbPoint
 10
2459.055040675533
 20
4594.543070233767
 30
0.0
  0
ENDBLK
  5
7F56
330
81E6
100
AcDbEntity
  8
0
100
AcDbBlockEnd
  0
BLOCK
  5
81E9
330
81E8
100
AcDbEntity
  8
0
100
AcDbBlockBegin
  2
*D16
 70
     1
 10
0.0
 20
0.0
 30
0.0
  3
*D16
  1

  0
LINE
  5
7F03
330
81E8
100
AcDbEntity
  8
0
  6
ByBlock
100
AcDbLine
 10
706.1549378146927
 20
2402.987676433645
 30
0.0
 11
706.1549378146927
 21
2992.206601340543
 31
0.0
  0
LINE
  5
7F04
330
81E8
100
AcDbEntity
  8
0
  6
ByBlock
100
AcDbLine
 10
1166.154937814692
 20
2858.70588540751
 30
0.0
 11
1166.154937814692
 21
2992.206601340543
 31
0.0
  0
LINE
  5
7F05
330
81E8
100
AcDbEntity
  8
0
  6
ByBlock
100
AcDbLine
 10
746.1549378146927
 20
2972.206601340543
 30
0.0
 11
1126.154937814692
 21
2972.206601340543
 31
0.0
  0
INSERT
  5
7F06
330
81E8
100
AcDbEntity
  8
0
  6
ByBlock
100
AcDbBlockReference
  2
_OPEN
 10
706.1549378146927
 20
2972.206601340543
 30
0.0
 41
40.0
 42
40.0
 43
40.0
 50
180.0
  0
INSERT
  5
7F07
330
81E8
100
AcDbEntity
  8
0
  6
ByBlock
100
AcDbBlockReference
  2
_OPEN
 10
1166.154937814692
 20
2972.206601340543
 30
0.0
 41
40.0
 42
40.0
 43
40.0
  0
TEXT
  5
7F08
330
81E8
100
AcDbEntity
  8
3
100
AcDbText
 10
859.0120806718356
 20
2982.206601340543
 30
0.0
 40
60.0
  1
460
100
AcDbText
  0
POINT
  5
7F09
330
81E8
100
AcDbEntity
  8
DEFPOINTS
  6
ByBlock
 62
     0
100
AcDbPoint
 10
706.1549378146927
 20
2382.987676433645
 30
0.0
  0
POINT
  5
7F0A
330
81E8
100
AcDbEntity
  8
DEFPOINTS
  6
ByBlock
 62
     0
100
AcDbPoint
 10
1166.154937814692
 20
2838.70588540751
 30
0.0
  0
POINT
  5
7F0B
330
81E8
100
AcDbEntity
  8
DEFPOINTS
  6
ByBlock
 62
     0
100
AcDbPoint
 10
1166.154937814692
 20
2972.206601340543
 30
0.0
  0
ENDBLK
  5
7F0C
330
81E8
100
AcDbEntity
  8
0
100
AcDbBlockEnd
  0
BLOCK
  5
81EB
330
81EA
100
AcDbEntity
  8
0
100
AcDbBlockBegin
  2
*D17
 70
     1
 10
0.0
 20
0.0
 30
0.0
  3
*D17
  1

  0
LINE
  5
8125
330
81EA
100
AcDbEntity
  8
3
100
AcDbLine
 10
1957.055040675532
 20
2292.660298728196
 30
0.0
 11
1957.055040675532
 21
2928.879223635093
 31
0.0
  0
LINE
  5
8126
330
81EA
100
AcDbEntity
  8
3
100
AcDbLine
 10
1449.055040675532
 20
2908.879223635093
 30
0.0
 11
1917.055040675532
 21
2908.879223635093
 31
0.0
  0
INSERT
  5
8127
330
81EA
100
AcDbEntity
  8
3
100
AcDbBlockReference
  2
_OPEN
 10
1409.055040675532
 20
2908.879223635093
 30
0.0
 41
40.0
 42
40.0
 43
40.0
 50
180.0
  0
INSERT
  5
8128
330
81EA
100
AcDbEntity
  8
3
100
AcDbBlockReference
  2
_OPEN
 10
1957.055040675532
 20
2908.879223635093
 30
0.0
 41
40.0
 42
40.0
 43
40.0
  0
TEXT
  5
8147
330
81EA
100
AcDbEntity
  8
3
100
AcDbText
 10
1563.06
 20
2842.68
 30
0.0
 40
60.0
  1
548
100
AcDbText
  0
POINT
  5
812A
330
81EA
100
AcDbEntity
  8
DEFPOINTS
 62
     0
100
AcDbPoint
 10
1409.055040675532
 20
2775.378507702062
 30
0.0
  0
POINT
  5
812B
330
81EA
100
AcDbEntity
  8
DEFPOINTS
 62
     0
100
AcDbPoint
 10
1957.055040675532
 20
2272.660298728196
 30
0.0
  0
POINT
  5
812C
330
81EA
100
AcDbEntity
  8
DEFPOINTS
 62
     0
100
AcDbPoint
 10
1957.055040675532
 20
2908.879223635093
 30
0.0
  0
ENDBLK
  5
7EF6
330
81EA
100
AcDbEntity
  8
0
100
AcDbBlockEnd
  0
BLOCK
  5
81ED
330
81EC
100
AcDbEntity
  8
0
100
AcDbBlockBegin
  2
*D18
 70
     1
 10
0.0
 20
0.0
 30
0.0
  3
*D18
  1

  0
LINE
  5
7EB5
330
81EC
100
AcDbEntity
  8
0
  6
ByBlock
100
AcDbLine
 10
179.0387404728144
 20
1022.09762645012
 30
0.0
 11
-683.540011941328
 21
1022.09762645012
 31
0.0
  0
LINE
  5
7EB6
330
81EC
100
AcDbEntity
  8
0
  6
ByBlock
100
AcDbLine
 10
-394.8542326301812
 20
568.0976264501205
 30
0.0
 11
-683.540011941328
 21
568.0976264501205
 31
0.0
  0
LINE
  5
7EB7
330
81EC
100
AcDbEntity
  8
0
  6
ByBlock
100
AcDbLine
 10
-663.5400119413279
 20
982.0976264501204
 30
0.0
 11
-663.5400119413279
 21
608.0976264501205
 31
0.0
  0
INSERT
  5
7EB8
330
81EC
100
AcDbEntity
  8
0
  6
ByBlock
100
AcDbBlockReference
  2
_OPEN
 10
-663.5400119413279
 20
1022.09762645012
 30
0.0
 41
40.0
 42
40.0
 43
40.0
 50
90.0
  0
INSERT
  5
7EB9
330
81EC
100
AcDbEntity
  8
0
  6
ByBlock
100
AcDbBlockReference
  2
_OPEN
 10
-663.5400119413279
 20
568.0976264501205
 30
0.0
 41
40.0
 42
40.0
 43
40.0
 50
270.0
  0
TEXT
  5
7EBA
330
81EC
100
AcDbEntity
  8
3
100
AcDbText
 10
-673.5400119413278
 20
716.526197878692
 30
0.0
 40
60.0
  1
454
 50
90.0
100
AcDbText
  0
POINT
  5
7EBB
330
81EC
100
AcDbEntity
  8
DEFPOINTS
  6
ByBlock
 62
     0
100
AcDbPoint
 10
199.0387404728144
 20
1022.09762645012
 30
0.0
  0
POINT
  5
7EBC
330
81EC
100
AcDbEntity
  8
DEFPOINTS
  6
ByBlock
 62
     0
100
AcDbPoint
 10
-374.8542326301812
 20
568.0976264501205
 30
0.0
  0
POINT
  5
7EBD
330
81EC
100
AcDbEntity
  8
DEFPOINTS
  6
ByBlock
 62
     0
100
AcDbPoint
 10
-663.5400119413279
 20
568.0976264501205
 30
0.0
  0
ENDBLK
  5
7EBE
330
81EC
100
AcDbEntity
  8
0
100
AcDbBlockEnd
  0
BLOCK
  5
81EF
330
81EE
100
AcDbEntity
  8
0
100
AcDbBlockBegin
  2
*D19
 70
     1
 10
0.0
 20
0.0
 30
0.0
  3
*D19
  1

  0
LINE
  5
812D
330
81EE
100
AcDbEntity
  8
3
 62
     0
100
AcDbLine
 10
872.1620675725372
 20
2319.660298728196
 30
0.0
 11
573.4762882613905
 21
2319.660298728196
 31
0.0
  0
LINE
  5
812E
330
81EE
100
AcDbEntity
  8
3
 62
     0
100
AcDbLine
 10
999.0550406755327
 20
1519.660298728196
 30
0.0
 11
573.4762882613904
 21
1519.660298728196
 31
0.0
  0
LINE
  5
812F
330
81EE
100
AcDbEntity
  8
3
 62
     0
100
AcDbLine
 10
593.4762882613905
 20
2279.660298728197
 30
0.0
 11
593.4762882613904
 21
1559.660298728196
 31
0.0
  0
INSERT
  5
8130
330
81EE
100
AcDbEntity
  8
3
 62
     0
100
AcDbBlockReference
  2
_OPEN
 10
593.4762882613905
 20
2319.660298728196
 30
0.0
 41
40.0
 42
40.0
 43
40.0
 50
90.0
  0
INSERT
  5
8131
330
81EE
100
AcDbEntity
  8
3
 62
     0
100
AcDbBlockReference
  2
_OPEN
 10
593.4762882613904
 20
1519.660298728196
 30
0.0
 41
40.0
 42
40.0
 43
40.0
 50
270.0
  0
TEXT
  5
8148
330
81EE
100
AcDbEntity
  8
3
 62
     0
100
AcDbText
 10
423.4759999999999
 20
1813.46
 30
0.0
 40
60.0
  1
800
100
AcDbText
  0
POINT
  5
8133
330
81EE
100
AcDbEntity
  8
DEFPOINTS
 62
     0
100
AcDbPoint
 10
882.1620675725371
 20
2319.660298728196
 30
0.0
  0
POINT
  5
8134
330
81EE
100
AcDbEntity
  8
DEFPOINTS
 62
     0
100
AcDbPoint
 10
1009.055040675532
 20
1519.660298728196
 30
0.0
  0
POINT
  5
8135
330
81EE
100
AcDbEntity
  8
DEFPOINTS
 62
     0
100
AcDbPoint
 10
593.4762882613904
 20
1519.660298728196
 30
0.0
  0
ENDBLK
  5
7FAE
330
81EE
100
AcDbEntity
  8
0
100
AcDbBlockEnd
  0
BLOCK
  5
81F1
330
81F0
100
AcDbEntity
  8
0
100
AcDbBlockBegin
  2
*D20
 70
     1
 10
0.0
 20
0.0
 30
0.0
  3
*D20
  1

  0
LINE
  5
8136
330
81F0
100
AcDbEntity
  8
3
 62
     0
100
AcDbLine
 10
999.0550406755327
 20
1424.660298728196
 30
0.0
 11
573.4762882613904
 21
1424.660298728196
 31
0.0
  0
LINE
  5
8137
330
81F0
100
AcDbEntity
  8
3
 62
     0
100
AcDbLine
 10
999.0550406755327
 20
1324.660298728196
 30
0.0
 11
573.4762882613904
 21
1324.660298728196
 31
0.0
  0
LINE
  5
8138
330
81F0
100
AcDbEntity
  8
3
 62
     0
100
AcDbLine
 10
593.4762882613904
 20
1464.660298728196
 30
0.0
 11
593.4762882613904
 21
1504.660298728196
 31
0.0
  0
LINE
  5
8139
330
81F0
100
AcDbEntity
  8
3
 62
     0
100
AcDbLine
 10
593.4762882613904
 20
1284.660298728196
 30
0.0
 11
593.4762882613902
 21
1061.803155871053
 31
0.0
  0
LINE
  5
813A
330
81F0
100
AcDbEntity
  8
3
 62
     0
100
AcDbLine
 10
593.4762882613904
 20
1424.660298728196
 30
0.0
 11
593.4762882613904
 21
1324.660298728196
 31
0.0
  0
INSERT
  5
813B
330
81F0
100
AcDbEntity
  8
3
 62
     0
100
AcDbBlockReference
  2
_DOT
 10
593.4762882613904
 20
1424.660298728196
 30
0.0
 41
40.0
 42
40.0
 43
40.0
 50
270.0
  0
INSERT
  5
813C
330
81F0
100
AcDbEntity
  8
3
 62
     0
100
AcDbBlockReference
  2
_OPEN
 10
593.4762882613904
 20
1324.660298728196
 30
0.0
 41
40.0
 42
40.0
 43
40.0
 50
90.0
  0
TEXT
  5
8149
330
81F0
100
AcDbEntity
  8
3
 62
     0
100
AcDbText
 10
423.4759999999999
 20
1047.03
 30
0.0
 40
60.0
  1
100
100
AcDbText
  0
POINT
  5
813E
330
81F0
100
AcDbEntity
  8
DEFPOINTS
 62
     0
100
AcDbPoint
 10
1009.055040675532
 20
1424.660298728196
 30
0.0
  0
POINT
  5
813F
330
81F0
100
AcDbEntity
  8
DEFPOINTS
 62
     0
100
AcDbPoint
 10
1009.055040675532
 20
1324.660298728196
 30
0.0
  0
POINT
  5
8140
330
81F0
100
AcDbEntity
  8
DEFPOINTS
 62
     0
100
AcDbPoint
 10
593.4762882613904
 20
1324.660298728196
 30
0.0
  0
ENDBLK
  5
7FF7
330
81F0
100
AcDbEntity
  8
0
100
AcDbBlockEnd
  0
BLOCK
  5
81F3
330
81F2
100
AcDbEntity
  8
0
100
AcDbBlockBegin
  2
_DOT
 70
     0
 10
0.0
 20
0.0
 30
0.0
  3
_DOT
  1

  0
LWPOLYLINE
  5
7FFA
330
81F2
100
AcDbEntity
  8
0
  6
ByBlock
 62
     0
100
AcDbPolyline
 90
        2
 70
     1
 43
0.25
 10
-0.125
 20
0.0
 42
1.0
 10
0.125
 20
0.0
 42
1.0
  0
LINE
  5
7FFE
330
81F2
100
AcDbEntity
  8
0
  6
ByBlock
 62
     0
100
AcDbLine
 10
-0.25
 20
0.0
 30
0.0
 11
-1.0
 21
0.0
 31
0.0
  0
ENDBLK
  5
7FDD
330
81F2
100
AcDbEntity
  8
0
100
AcDbBlockEnd
  0
BLOCK
  5
81F5
330
81F4
100
AcDbEntity
  8
0
100
AcDbBlockBegin
  2
*D22
 70
     1
 10
0.0
 20
0.0
 30
0.0
  3
*D22
  1

  0
LINE
  5
8028
330
81F4
100
AcDbEntity
  8
0
  6
ByBlock
 62
     0
100
AcDbLine
 10
1009.055040675532
 20
1372.660298728196
 30
0.0
 11
1009.055040675532
 21
1228.490184055159
 31
0.0
  0
LINE
  5
8029
330
81F4
100
AcDbEntity
  8
0
  6
ByBlock
 62
     0
100
AcDbLine
 10
1409.055040675533
 20
1372.660298728196
 30
0.0
 11
1409.055040675533
 21
1228.490184055159
 31
0.0
  0
LINE
  5
802A
330
81F4
100
AcDbEntity
  8
0
  6
ByBlock
 62
     0
100
AcDbLine
 10
1049.055040675533
 20
1248.490184055159
 30
0.0
 11
1369.055040675533
 21
1248.490184055159
 31
0.0
  0
INSERT
  5
802B
330
81F4
100
AcDbEntity
  8
0
  6
ByBlock
 62
     0
100
AcDbBlockReference
  2
_OPEN
 10
1009.055040675532
 20
1248.490184055159
 30
0.0
 41
40.0
 42
40.0
 43
40.0
 50
180.0
  0
INSERT
  5
802C
330
81F4
100
AcDbEntity
  8
0
  6
ByBlock
 62
     0
100
AcDbBlockReference
  2
_OPEN
 10
1409.055040675533
 20
1248.490184055159
 30
0.0
 41
40.0
 42
40.0
 43
40.0
  0
TEXT
  5
802D
330
81F4
100
AcDbEntity
  8
3
 62
     0
100
AcDbText
 10
1131.912183532675
 20
1268.490184055159
 30
0.0
 40
60.0
  1
400
100
AcDbText
  0
POINT
  5
802E
330
81F4
100
AcDbEntity
  8
DEFPOINTS
  6
ByBlock
 62
     0
100
AcDbPoint
 10
1009.055040675532
 20
1392.660298728196
 30
0.0
  0
POINT
  5
802F
330
81F4
100
AcDbEntity
  8
DEFPOINTS
  6
ByBlock
 62
     0
100
AcDbPoint
 10
1409.055040675533
 20
1392.660298728196
 30
0.0
  0
POINT
  5
8030
330
81F4
100
AcDbEntity
  8
DEFPOINTS
  6
ByBlock
 62
     0
100
AcDbPoint
 10
1409.055040675533
 20
1248.490184055159
 30
0.0
  0
ENDBLK
  5
8031
330
81F4
100
AcDbEntity
  8
0
100
AcDbBlockEnd
  0
BLOCK
  5
81F7
330
81F6
100
AcDbEntity
  8
0
100
AcDbBlockBegin
  2
*D23
 70
     1
 10
0.0
 20
0.0
 30
0.0
  3
*D23
  1

  0
LINE
  5
8035
330
81F6
100
AcDbEntity
  8
0
  6
ByBlock
 62
     0
100
AcDbLine
 10
1409.055040675533
 20
1372.660298728196
 30
0.0
 11
1409.055040675533
 21
1228.490184055159
 31
0.0
  0
LINE
  5
8036
330
81F6
100
AcDbEntity
  8
0
  6
ByBlock
 62
     0
100
AcDbLine
 10
2459.055040675533
 20
1372.660298728196
 30
0.0
 11
2459.055040675533
 21
1228.490184055159
 31
0.0
  0
LINE
  5
8037
330
81F6
100
AcDbEntity
  8
0
  6
ByBlock
 62
     0
100
AcDbLine
 10
1449.055040675533
 20
1248.490184055159
 30
0.0
 11
2419.055040675532
 21
1248.490184055159
 31
0.0
  0
INSERT
  5
8038
330
81F6
100
AcDbEntity
  8
0
  6
ByBlock
 62
     0
100
AcDbBlockReference
  2
_OPEN
 10
1409.055040675533
 20
1248.490184055159
 30
0.0
 41
40.0
 42
40.0
 43
40.0
 50
180.0
  0
INSERT
  5
8039
330
81F6
100
AcDbEntity
  8
0
  6
ByBlock
 62
     0
100
AcDbBlockReference
  2
_OPEN
 10
2459.055040675533
 20
1248.490184055159
 30
0.0
 41
40.0
 42
40.0
 43
40.0
  0
TEXT
  5
803A
330
81F6
100
AcDbEntity
  8
3
 62
     0
100
AcDbText
 10
1834.055040675533
 20
1268.490184055159
 30
0.0
 40
60.0
  1
1050
100
AcDbText
  0
POINT
  5
803B
330
81F6
100
AcDbEntity
  8
DEFPOINTS
  6
ByBlock
 62
     0
100
AcDbPoint
 10
1409.055040675533
 20
1392.660298728196
 30
0.0
  0
POINT
  5
803C
330
81F6
100
AcDbEntity
  8
DEFPOINTS
  6
ByBlock
 62
     0
100
AcDbPoint
 10
2459.055040675533
 20
1392.660298728196
 30
0.0
  0
POINT
  5
803D
330
81F6
100
AcDbEntity
  8
DEFPOINTS
  6
ByBlock
 62
     0
100
AcDbPoint
 10
2459.055040675533
 20
1248.490184055159
 30
0.0
  0
ENDBLK
  5
803E
330
81F6
100
AcDbEntity
  8
0
100
AcDbBlockEnd
  0
BLOCK
  5
81F9
330
81F8
100
AcDbEntity
  8
0
100
AcDbBlockBegin
  2
*D24
 70
     1
 10
0.0
 20
0.0
 30
0.0
  3
*D24
  1

  0
LINE
  5
8042
330
81F8
100
AcDbEntity
  8
0
  6
ByBlock
 62
     0
100
AcDbLine
 10
2690.464424613871
 20
1372.660298728196
 30
0.0
 11
2690.464424613871
 21
1228.490184055159
 31
0.0
  0
LINE
  5
8043
330
81F8
100
AcDbEntity
  8
0
  6
ByBlock
 62
     0
100
AcDbLine
 10
3243.464424613871
 20
1372.660298728196
 30
0.0
 11
3243.464424613871
 21
1228.490184055159
 31
0.0
  0
LINE
  5
8044
330
81F8
100
AcDbEntity
  8
0
  6
ByBlock
 62
     0
100
AcDbLine
 10
2730.464424613871
 20
1248.490184055159
 30
0.0
 11
3203.464424613871
 21
1248.490184055159
 31
0.0
  0
INSERT
  5
8045
330
81F8
100
AcDbEntity
  8
0
  6
ByBlock
 62
     0
100
AcDbBlockReference
  2
_OPEN
 10
2690.464424613871
 20
1248.490184055159
 30
0.0
 41
40.0
 42
40.0
 43
40.0
 50
180.0
  0
INSERT
  5
8046
330
81F8
100
AcDbEntity
  8
0
  6
ByBlock
 62
     0
100
AcDbBlockReference
  2
_OPEN
 10
3243.464424613871
 20
1248.490184055159
 30
0.0
 41
40.0
 42
40.0
 43
40.0
  0
TEXT
  5
8047
330
81F8
100
AcDbEntity
  8
3
 62
     0
100
AcDbText
 10
2889.821567471014
 20
1268.490184055159
 30
0.0
 40
60.0
  1
553
100
AcDbText
  0
POINT
  5
8048
330
81F8
100
AcDbEntity
  8
DEFPOINTS
  6
ByBlock
 62
     0
100
AcDbPoint
 10
2690.464424613871
 20
1392.660298728196
 30
0.0
  0
POINT
  5
8049
330
81F8
100
AcDbEntity
  8
DEFPOINTS
  6
ByBlock
 62
     0
100
AcDbPoint
 10
3243.464424613871
 20
1392.660298728196
 30
0.0
  0
POINT
  5
804A
330
81F8
100
AcDbEntity
  8
DEFPOINTS
  6
ByBlock
 62
     0
100
AcDbPoint
 10
3243.464424613871
 20
1248.490184055159
 30
0.0
  0
ENDBLK
  5
804B
330
81F8
100
AcDbEntity
  8
0
100
AcDbBlockEnd
  0
BLOCK
  5
81FB
330
81FA
100
AcDbEntity
  8
0
100
AcDbBlockBegin
  2
*D25
 70
     1
 10
0.0
 20
0.0
 30
0.0
  3
*D25
  1

  0
LINE
  5
804F
330
81FA
100
AcDbEntity
  8
0
  6
ByBlock
 62
     0
100
AcDbLine
 10
3243.464424613871
 20
1372.660298728196
 30
0.0
 11
3243.464424613871
 21
1228.490184055159
 31
0.0
  0
LINE
  5
8050
330
81FA
100
AcDbEntity
  8
0
  6
ByBlock
 62
     0
100
AcDbLine
 10
3696.464424613871
 20
1372.660298728196
 30
0.0
 11
3696.464424613871
 21
1228.490184055159
 31
0.0
  0
LINE
  5
8051
330
81FA
100
AcDbEntity
  8
0
  6
ByBlock
 62
     0
100
AcDbLine
 10
3283.464424613871
 20
1248.490184055159
 30
0.0
 11
3656.464424613871
 21
1248.490184055159
 31
0.0
  0
INSERT
  5
8052
330
81FA
100
AcDbEntity
  8
0
  6
ByBlock
 62
     0
100
AcDbBlockReference
  2
_OPEN
 10
3243.464424613871
 20
1248.490184055159
 30
0.0
 41
40.0
 42
40.0
 43
40.0
 50
180.0
  0
INSERT
  5
8053
330
81FA
100
AcDbEntity
  8
0
  6
ByBlock
 62
     0
100
AcDbBlockReference
  2
_OPEN
 10
3696.464424613871
 20
1248.490184055159
 30
0.0
 41
40.0
 42
40.0
 43
40.0
  0
TEXT
  5
8054
330
81FA
100
AcDbEntity
  8
3
 62
     0
100
AcDbText
 10
3392.821567471013
 20
1268.490184055159
 30
0.0
 40
60.0
  1
453
100
AcDbText
  0
POINT
  5
8055
330
81FA
100
AcDbEntity
  8
DEFPOINTS
  6
ByBlock
 62
     0
100
AcDbPoint
 10
3243.464424613871
 20
1392.660298728196
 30
0.0
  0
POINT
  5
8056
330
81FA
100
AcDbEntity
  8
DEFPOINTS
  6
ByBlock
 62
     0
100
AcDbPoint
 10
3696.464424613871
 20
1392.660298728196
 30
0.0
  0
POINT
  5
8057
330
81FA
100
AcDbEntity
  8
DEFPOINTS
  6
ByBlock
 62
     0
100
AcDbPoint
 10
3696.464424613871
 20
1248.490184055159
 30
0.0
  0
ENDBLK
  5
8058
330
81FA
100
AcDbEntity
  8
0
100
AcDbBlockEnd
  0
BLOCK
  5
81FD
330
81FC
100
AcDbEntity
  8
0
100
AcDbBlockBegin
  2
_NONE
 70
     0
 10
0.0
 20
0.0
 30
0.0
  3
_NONE
  1

  0
CIRCLE
  5
806B
330
81FC
100
AcDbEntity
  8
0
  6
ByBlock
 62
     0
100
AcDbCircle
 10
0.0
 20
0.0
 30
0.0
 40
0.25
  0
ENDBLK
  5
806C
330
81FC
100
AcDbEntity
  8
0
100
AcDbBlockEnd
  0
BLOCK
  5
81FF
330
81FE
100
AcDbEntity
  8
0
100
AcDbBlockBegin
  2
*D27
 70
     1
 10
0.0
 20
0.0
 30
0.0
  3
*D27
  1

  0
LINE
  5
8089
330
81FE
100
AcDbEntity
  8
0
  6
ByBlock
 62
     0
100
AcDbLine
 10
595.7359659875363
 20
1424.660298728196
 30
0.0
 11
595.7359659875363
 21
1519.660298728196
 31
0.0
  0
TEXT
  5
808A
330
81FE
100
AcDbEntity
  8
3
 62
     0
100
AcDbText
 10
520.0216802732508
 20
1385.017441585339
 30
0.0
 40
60.0
  1
(95)
 50
90.0
100
AcDbText
  0
POINT
  5
808B
330
81FE
100
AcDbEntity
  8
DEFPOINTS
  6
ByBlock
 62
     0
100
AcDbPoint
 10
1009.055040675532
 20
1424.660298728196
 30
0.0
  0
POINT
  5
808C
330
81FE
100
AcDbEntity
  8
DEFPOINTS
  6
ByBlock
 62
     0
100
AcDbPoint
 10
1009.055040675532
 20
1519.660298728196
 30
0.0
  0
POINT
  5
808D
330
81FE
100
AcDbEntity
  8
DEFPOINTS
  6
ByBlock
 62
     0
100
AcDbPoint
 10
595.7359659875363
 20
1519.660298728196
 30
0.0
  0
ENDBLK
  5
808E
330
81FE
100
AcDbEntity
  8
0
100
AcDbBlockEnd
  0
BLOCK
  5
8201
330
8200
100
AcDbEntity
  8
0
100
AcDbBlockBegin
  2
*D28
 70
     1
 10
0.0
 20
0.0
 30
0.0
  3
*D28
  1

  0
LINE
  5
8092
330
8200
100
AcDbEntity
  8
0
  6
ByBlock
 62
     0
100
AcDbLine
 10
989.0550406755327
 20
1324.660298728196
 30
0.0
 11
401.0881681796636
 21
1324.660298728196
 31
0.0
  0
LINE
  5
8093
330
8200
100
AcDbEntity
  8
0
  6
ByBlock
 62
     0
100
AcDbLine
 10
1416.055040675533
 20
2773.660298728197
 30
0.0
 11
401.0881681796636
 21
2773.660298728197
 31
0.0
  0
LINE
  5
8094
330
8200
100
AcDbEntity
  8
0
  6
ByBlock
 62
     0
100
AcDbLine
 10
421.0881681796636
 20
1364.660298728196
 30
0.0
 11
421.0881681796636
 21
2733.660298728196
 31
0.0
  0
INSERT
  5
8095
330
8200
100
AcDbEntity
  8
0
  6
ByBlock
 62
     0
100
AcDbBlockReference
  2
_OPEN
 10
421.0881681796636
 20
1324.660298728196
 30
0.0
 41
40.0
 42
40.0
 43
40.0
 50
270.0
  0
INSERT
  5
8096
330
8200
100
AcDbEntity
  8
0
  6
ByBlock
 62
     0
100
AcDbBlockReference
  2
_OPEN
 10
421.0881681796636
 20
2773.660298728197
 30
0.0
 41
40.0
 42
40.0
 43
40.0
 50
90.0
  0
TEXT
  5
8097
330
8200
100
AcDbEntity
  8
3
 62
     0
100
AcDbText
 10
375.3738824653779
 20
1910.588870156768
 30
0.0
 40
60.0
  1
(1449)
 50
90.0
100
AcDbText
  0
POINT
  5
8098
330
8200
100
AcDbEntity
  8
DEFPOINTS
  6
ByBlock
 62
     0
100
AcDbPoint
 10
1009.055040675532
 20
1324.660298728196
 30
0.0
  0
POINT
  5
8099
330
8200
100
AcDbEntity
  8
DEFPOINTS
  6
ByBlock
 62
     0
100
AcDbPoint
 10
1436.055040675532
 20
2773.660298728197
 30
0.0
  0
POINT
  5
809A
330
8200
100
AcDbEntity
  8
DEFPOINTS
  6
ByBlock
 62
     0
100
AcDbPoint
 10
421.0881681796636
 20
2773.660298728197
 30
0.0
  0
ENDBLK
  5
809B
330
8200
100
AcDbEntity
  8
0
100
AcDbBlockEnd
  0
BLOCK
  5
8208
330
8207
100
AcDbEntity
  8
0
100
AcDbBlockBegin
  2
*D29
 70
     1
 10
0.0
 20
0.0
 30
0.0
  3
*D29
  1

  0
LINE
  5
82D0
330
8207
100
AcDbEntity
  8
3
 62
     0
370
    -2
100
AcDbLine
 10
2621.947189452862
 20
2489.660298728197
 30
0.0
 11
2621.947189452862
 21
3044.329631877439
 31
0.0
  0
LINE
  5
82D1
330
8207
100
AcDbEntity
  8
3
 62
     0
370
    -2
100
AcDbLine
 10
3401.947189452862
 20
2935.245197106421
 30
0.0
 11
3401.947189452862
 21
3044.329631877439
 31
0.0
  0
LINE
  5
82D2
330
8207
100
AcDbEntity
  8
3
 62
     0
370
    -2
100
AcDbLine
 10
2661.947189452862
 20
3024.329631877439
 30
0.0
 11
3361.947189452862
 21
3024.329631877439
 31
0.0
  0
INSERT
  5
82D3
330
8207
100
AcDbEntity
  8
3
 62
     0
370
    -2
100
AcDbBlockReference
  2
_OPEN
 10
2621.947189452862
 20
3024.329631877439
 30
0.0
 41
40.0
 42
40.0
 43
40.0
 50
180.0
  0
INSERT
  5
82D4
330
8207
100
AcDbEntity
  8
3
 62
     0
370
    -2
100
AcDbBlockReference
  2
_OPEN
 10
3401.947189452862
 20
3024.329631877439
 30
0.0
 41
40.0
 42
40.0
 43
40.0
  0
MTEXT
  5
82D5
330
8207
100
AcDbEntity
  8
3
 62
     0
100
AcDbMText
 10
3011.947189452862
 20
3090.043917591725
 30
0.0
 40
60.0
 41
0.0
 71
     5
 72
     1
  1
\A1;(780)
 73
     1
 44
1.0
1001
ACAD
1000
MTEXTBEGIN
1070
    73
1070
     1
1070
    44
1040
1.0
1070
    74
1070
     0
1000
MTEXTEND
  0
POINT
  5
82D6
330
8207
100
AcDbEntity
  8
DEFPOINTS
 62
     0
100
AcDbPoint
 10
2621.947189452862
 20
2469.660298728197
 30
0.0
  0
POINT
  5
82D7
330
8207
100
AcDbEntity
  8
DEFPOINTS
 62
     0
100
AcDbPoint
 10
3401.947189452862
 20
2915.245197106421
 30
0.0
  0
POINT
  5
82D8
330
8207
100
AcDbEntity
  8
DEFPOINTS
 62
     0
100
AcDbPoint
 10
3401.947189452862
 20
3024.329631877439
 30
0.0
  0
ENDBLK
  5
8209
330
8207
100
AcDbEntity
  8
0
100
AcDbBlockEnd
  0
BLOCK
  5
8215
330
8214
100
AcDbEntity
  8
0
100
AcDbBlockBegin
  2
*D30
 70
     1
 10
0.0
 20
0.0
 30
0.0
  3
*D30
  1

  0
LINE
  5
82D9
330
8214
100
AcDbEntity
  8
3
 62
     0
370
    -2
100
AcDbLine
 10
3401.947189452862
 20
2935.245197106421
 30
0.0
 11
3401.947189452862
 21
3044.329631877439
 31
0.0
  0
LINE
  5
82DA
330
8214
100
AcDbEntity
  8
3
 62
     0
370
    -2
100
AcDbLine
 10
3901.947189452862
 20
2309.660298728196
 30
0.0
 11
3901.947189452862
 21
3044.329631877439
 31
0.0
  0
LINE
  5
82DB
330
8214
100
AcDbEntity
  8
3
 62
     0
370
    -2
100
AcDbLine
 10
3441.947189452862
 20
3024.329631877439
 30
0.0
 11
3861.947189452862
 21
3024.329631877439
 31
0.0
  0
INSERT
  5
82DC
330
8214
100
AcDbEntity
  8
3
 62
     0
370
    -2
100
AcDbBlockReference
  2
_OPEN
 10
3401.947189452862
 20
3024.329631877439
 30
0.0
 41
40.0
 42
40.0
 43
40.0
 50
180.0
  0
INSERT
  5
82DD
330
8214
100
AcDbEntity
  8
3
 62
     0
370
    -2
100
AcDbBlockReference
  2
_OPEN
 10
3901.947189452862
 20
3024.329631877439
 30
0.0
 41
40.0
 42
40.0
 43
40.0
  0
MTEXT
  5
82DE
330
8214
100
AcDbEntity
  8
3
 62
     0
100
AcDbMText
 10
3651.947189452862
 20
3090.043917591725
 30
0.0
 40
60.0
 41
0.0
 71
     5
 72
     1
  1
\A1;(500)
 73
     1
 44
1.0
1001
ACAD
1000
MTEXTBEGIN
1070
    73
1070
     1
1070
    44
1040
1.0
1070
    74
1070
     0
1000
MTEXTEND
  0
POINT
  5
82DF
330
8214
100
AcDbEntity
  8
DEFPOINTS
 62
     0
100
AcDbPoint
 10
3401.947189452862
 20
2915.245197106421
 30
0.0
  0
POINT
  5
82E0
330
8214
100
AcDbEntity
  8
DEFPOINTS
 62
     0
100
AcDbPoint
 10
3901.947189452862
 20
2289.660298728196
 30
0.0
  0
POINT
  5
82E1
330
8214
100
AcDbEntity
  8
DEFPOINTS
 62
     0
100
AcDbPoint
 10
3901.947189452862
 20
3024.329631877439
 30
0.0
  0
ENDBLK
  5
8216
330
8214
100
AcDbEntity
  8
0
100
AcDbBlockEnd
  0
BLOCK
  5
8263
330
8262
100
AcDbEntity
  8
0
100
AcDbBlockBegin
  2
*D31
 70
     1
 10
0.0
 20
0.0
 30
0.0
  3
*D31
  1

  0
LINE
  5
82A8
330
8262
100
AcDbEntity
  8
3
 62
     0
370
    -2
100
AcDbLine
 10
3808.697189452863
 20
2654.660298728197
 30
0.0
 11
4059.084223023526
 21
2654.660298728197
 31
0.0
  0
LINE
  5
82A9
330
8262
100
AcDbEntity
  8
3
 62
     0
370
    -2
100
AcDbLine
 10
3808.697189452863
 20
1984.660298728196
 30
0.0
 11
4059.084223023526
 21
1984.660298728196
 31
0.0
  0
LINE
  5
82AA
330
8262
100
AcDbEntity
  8
3
 62
     0
370
    -2
100
AcDbLine
 10
4055.484223023525
 20
2651.060298728197
 30
0.0
 11
4055.484223023525
 21
2323.260298728197
 31
0.0
  0
LINE
  5
82AB
330
8262
100
AcDbEntity
  8
3
 62
     0
370
    -2
100
AcDbLine
 10
4055.484223023525
 20
1988.260298728196
 30
0.0
 11
4055.484223023525
 21
2316.060298728197
 31
0.0
  0
SOLID
  5
82AC
330
8262
100
AcDbEntity
  8
3
 62
     0
100
AcDbTrace
 10
4054.884223023526
 20
2651.060298728197
 30
0.0
 11
4056.084223023526
 21
2651.060298728197
 31
0.0
 12
4055.484223023525
 22
2654.660298728197
 32
0.0
 13
4055.484223023525
 23
2654.660298728197
 33
0.0
  0
SOLID
  5
82AD
330
8262
100
AcDbEntity
  8
3
 62
     0
100
AcDbTrace
 10
4054.884223023526
 20
1988.260298728196
 30
0.0
 11
4056.084223023526
 21
1988.260298728196
 31
0.0
 12
4055.484223023525
 22
1984.660298728196
 32
0.0
 13
4055.484223023525
 23
1984.660298728196
 33
0.0
  0
MTEXT
  5
82AE
330
8262
100
AcDbEntity
  8
3
 62
     0
100
AcDbMText
 10
4055.484223023525
 20
2319.660298728198
 30
0.0
 40
3.599999999999999
 41
0.0
 71
     5
 72
     1
  1
\A1;\U+03C6670.0000
 73
     1
 44
1.0
1001
ACAD
1000
MTEXTBEGIN
1070
    73
1070
     1
1070
    44
1040
1.0
1070
    74
1070
     0
1000
MTEXTEND
  0
POINT
  5
82AF
330
8262
100
AcDbEntity
  8
DEFPOINTS
 62
     0
100
AcDbPoint
 10
3807.447189452862
 20
2654.660298728197
 30
0.0
  0
POINT
  5
82B0
330
8262
100
AcDbEntity
  8
DEFPOINTS
 62
     0
100
AcDbPoint
 10
3807.447189452862
 20
1984.660298728196
 30
0.0
  0
POINT
  5
82B1
330
8262
100
AcDbEntity
  8
DEFPOINTS
 62
     0
100
AcDbPoint
 10
4055.484223023525
 20
1984.660298728196
 30
0.0
  0
ENDBLK
  5
8264
330
8262
100
AcDbEntity
  8
0
100
AcDbBlockEnd
  0
BLOCK
  5
8270
330
826F
100
AcDbEntity
  8
0
100
AcDbBlockBegin
  2
*D32
 70
     1
 10
0.0
 20
0.0
 30
0.0
  3
*D32
  1

  0
LINE
  5
82B2
330
826F
100
AcDbEntity
  8
3
 62
     0
370
    -2
100
AcDbLine
 10
3001.947189452861
 20
2751.310289608901
 30
0.0
 11
3001.947189452861
 21
2848.845197106422
 31
0.0
  0
LINE
  5
82B3
330
826F
100
AcDbEntity
  8
3
 62
     0
370
    -2
100
AcDbLine
 10
3801.947189452862
 20
2751.310289608901
 30
0.0
 11
3801.947189452862
 21
2848.845197106422
 31
0.0
  0
LINE
  5
82B4
330
826F
100
AcDbEntity
  8
3
 62
     0
370
    -2
100
AcDbLine
 10
3005.547189452861
 20
2845.245197106422
 30
0.0
 11
3387.804332310004
 21
2845.245197106422
 31
0.0
  0
LINE
  5
82B5
330
826F
100
AcDbEntity
  8
3
 62
     0
370
    -2
100
AcDbLine
 10
3798.347189452861
 20
2845.245197106422
 30
0.0
 11
3416.090046595718
 21
2845.245197106422
 31
0.0
  0
SOLID
  5
82B6
330
826F
100
AcDbEntity
  8
3
 62
     0
100
AcDbTrace
 10
3005.547189452861
 20
2845.845197106422
 30
0.0
 11
3005.547189452861
 21
2844.645197106422
 31
0.0
 12
3001.947189452861
 22
2845.245197106422
 32
0.0
 13
3001.947189452861
 23
2845.245197106422
 33
0.0
  0
SOLID
  5
82B7
330
826F
100
AcDbEntity
  8
3
 62
     0
100
AcDbTrace
 10
3798.347189452861
 20
2845.845197106422
 30
0.0
 11
3798.347189452861
 21
2844.645197106422
 31
0.0
 12
3801.947189452862
 22
2845.245197106422
 32
0.0
 13
3801.947189452862
 23
2845.245197106422
 33
0.0
  0
MTEXT
  5
82B8
330
826F
100
AcDbEntity
  8
3
 62
     0
100
AcDbMText
 10
3401.947189452862
 20
2845.245197106422
 30
0.0
 40
3.599999999999999
 41
0.0
 71
     5
 72
     1
  1
\A1;800.0000
 73
     1
 44
1.0
1001
ACAD
1000
MTEXTBEGIN
1070
    73
1070
     1
1070
    44
1040
1.0
1070
    74
1070
     0
1000
MTEXTEND
  0
POINT
  5
82B9
330
826F
100
AcDbEntity
  8
DEFPOINTS
 62
     0
100
AcDbPoint
 10
3001.947189452861
 20
2750.0602896089
 30
0.0
  0
POINT
  5
82BA
330
826F
100
AcDbEntity
  8
DEFPOINTS
 62
     0
100
AcDbPoint
 10
3801.947189452862
 20
2750.0602896089
 30
0.0
  0
POINT
  5
82BB
330
826F
100
AcDbEntity
  8
DEFPOINTS
 62
     0
100
AcDbPoint
 10
3801.947189452862
 20
2845.245197106422
 30
0.0
  0
ENDBLK
  5
8271
330
826F
100
AcDbEntity
  8
0
100
AcDbBlockEnd
  0
BLOCK
  5
827D
330
827C
100
AcDbEntity
  8
0
100
AcDbBlockBegin
  2
*D33
 70
     1
 10
0.0
 20
0.0
 30
0.0
  3
*D33
  1

  0
LINE
  5
832B
330
827C
100
AcDbEntity
  8
3
 62
     0
370
    -2
100
AcDbLine
 10
2848.947189452862
 20
1319.660298728196
 30
0.0
 11
2848.947189452862
 21
1191.890184055159
 31
0.0
  0
LINE
  5
832C
330
827C
100
AcDbEntity
  8
3
 62
     0
370
    -2
100
AcDbLine
 10
3401.947189452862
 20
1319.660298728196
 30
0.0
 11
3401.947189452862
 21
1191.890184055159
 31
0.0
  0
LINE
  5
832D
330
827C
100
AcDbEntity
  8
3
 62
     0
370
    -2
100
AcDbLine
 10
2852.547189452862
 20
1195.490184055159
 30
0.0
 11
3119.01861802429
 21
1195.490184055159
 31
0.0
  0
LINE
  5
832E
330
827C
100
AcDbEntity
  8
3
 62
     0
370
    -2
100
AcDbLine
 10
3398.347189452862
 20
1195.490184055159
 30
0.0
 11
3131.875760881434
 21
1195.490184055159
 31
0.0
  0
SOLID
  5
832F
330
827C
100
AcDbEntity
  8
3
 62
     0
100
AcDbTrace
 10
2852.547189452862
 20
1196.090184055159
 30
0.0
 11
2852.547189452862
 21
1194.890184055159
 31
0.0
 12
2848.947189452862
 22
1195.490184055159
 32
0.0
 13
2848.947189452862
 23
1195.490184055159
 33
0.0
  0
SOLID
  5
8330
330
827C
100
AcDbEntity
  8
3
 62
     0
100
AcDbTrace
 10
3398.347189452862
 20
1196.090184055159
 30
0.0
 11
3398.347189452862
 21
1194.890184055159
 31
0.0
 12
3401.947189452862
 22
1195.490184055159
 32
0.0
 13
3401.947189452862
 23
1195.490184055159
 33
0.0
  0
MTEXT
  5
8331
330
827C
100
AcDbEntity
  8
3
 62
     0
100
AcDbMText
 10
3125.447189452862
 20
1195.490184055159
 30
0.0
 40
3.599999999999999
 41
0.0
 71
     5
 72
     1
  1
\A1;553
 73
     1
 44
1.0
1001
ACAD
1000
MTEXTBEGIN
1070
    73
1070
     1
1070
    44
1040
1.0
1070
    74
1070
     0
1000
MTEXTEND
  0
POINT
  5
8332
330
827C
100
AcDbEntity
  8
DEFPOINTS
 62
     0
100
AcDbPoint
 10
2848.947189452862
 20
1339.660298728196
 30
0.0
  0
POINT
  5
8333
330
827C
100
AcDbEntity
  8
DEFPOINTS
 62
     0
100
AcDbPoint
 10
3401.947189452862
 20
1339.660298728196
 30
0.0
  0
POINT
  5
8334
330
827C
100
AcDbEntity
  8
DEFPOINTS
 62
     0
100
AcDbPoint
 10
3401.947189452862
 20
1195.490184055159
 30
0.0
  0
ENDBLK
  5
827E
330
827C
100
AcDbEntity
  8
0
100
AcDbBlockEnd
  0
BLOCK
  5
828A
330
8289
100
AcDbEntity
  8
0
100
AcDbBlockBegin
  2
*D34
 70
     1
 10
0.0
 20
0.0
 30
0.0
  3
*D34
  1

  0
LINE
  5
82EF
330
8289
100
AcDbEntity
  8
3
 62
     0
370
    -2
100
AcDbLine
 10
3401.947189452862
 20
1319.660298728196
 30
0.0
 11
3401.947189452862
 21
1191.890184055159
 31
0.0
  0
LINE
  5
82F0
330
8289
100
AcDbEntity
  8
3
 62
     0
370
    -2
100
AcDbLine
 10
3854.947189452862
 20
1319.660298728196
 30
0.0
 11
3854.947189452862
 21
1191.890184055159
 31
0.0
  0
LINE
  5
82F1
330
8289
100
AcDbEntity
  8
3
 62
     0
370
    -2
100
AcDbLine
 10
3405.547189452863
 20
1195.490184055159
 30
0.0
 11
3622.018618024291
 21
1195.490184055159
 31
0.0
  0
LINE
  5
82F2
330
8289
100
AcDbEntity
  8
3
 62
     0
370
    -2
100
AcDbLine
 10
3851.347189452862
 20
1195.490184055159
 30
0.0
 11
3634.875760881434
 21
1195.490184055159
 31
0.0
  0
SOLID
  5
82F3
330
8289
100
AcDbEntity
  8
3
 62
     0
100
AcDbTrace
 10
3405.547189452863
 20
1196.090184055159
 30
0.0
 11
3405.547189452863
 21
1194.890184055159
 31
0.0
 12
3401.947189452862
 22
1195.490184055159
 32
0.0
 13
3401.947189452862
 23
1195.490184055159
 33
0.0
  0
SOLID
  5
82F4
330
8289
100
AcDbEntity
  8
3
 62
     0
100
AcDbTrace
 10
3851.347189452862
 20
1196.090184055159
 30
0.0
 11
3851.347189452862
 21
1194.890184055159
 31
0.0
 12
3854.947189452862
 22
1195.490184055159
 32
0.0
 13
3854.947189452862
 23
1195.490184055159
 33
0.0
  0
MTEXT
  5
82F5
330
8289
100
AcDbEntity
  8
3
 62
     0
100
AcDbMText
 10
3628.447189452862
 20
1195.490184055159
 30
0.0
 40
3.599999999999999
 41
0.0
 71
     5
 72
     1
  1
\A1;453
 73
     1
 44
1.0
1001
ACAD
1000
MTEXTBEGIN
1070
    73
1070
     1
1070
    44
1040
1.0
1070
    74
1070
     0
1000
MTEXTEND
  0
POINT
  5
82F6
330
8289
100
AcDbEntity
  8
DEFPOINTS
 62
     0
100
AcDbPoint
 10
3401.947189452862
 20
1339.660298728196
 30
0.0
  0
POINT
  5
82F7
330
8289
100
AcDbEntity
  8
DEFPOINTS
 62
     0
100
AcDbPoint
 10
3854.947189452862
 20
1339.660298728196
 30
0.0
  0
POINT
  5
82F8
330
8289
100
AcDbEntity
  8
DEFPOINTS
 62
     0
100
AcDbPoint
 10
3854.947189452862
 20
1195.490184055159
 30
0.0
  0
ENDBLK
  5
828B
330
8289
100
AcDbEntity
  8
0
100
AcDbBlockEnd
  0
BLOCK
  5
82E4
330
82E3
100
AcDbEntity
  8
0
100
AcDbBlockBegin
  2
*D35
 70
     1
 10
0.0
 20
0.0
 30
0.0
  3
*D35
  1

  0
LINE
  5
82E6
330
82E3
100
AcDbEntity
  8
3
 62
     0
370
    -2
100
AcDbLine
 10
3001.947189452861
 20
2793.660298728197
 30
0.0
 11
3001.947189452861
 21
2863.613261558012
 31
0.0
  0
LINE
  5
82E7
330
82E3
100
AcDbEntity
  8
3
 62
     0
370
    -2
100
AcDbLine
 10
3801.947189452862
 20
2793.660298728197
 30
0.0
 11
3801.947189452862
 21
2863.613261558012
 31
0.0
  0
LINE
  5
82E8
330
82E3
100
AcDbEntity
  8
3
 62
     0
370
    -2
100
AcDbLine
 10
3041.947189452861
 20
2843.613261558012
 30
0.0
 11
3761.947189452861
 21
2843.613261558012
 31
0.0
  0
INSERT
  5
82E9
330
82E3
100
AcDbEntity
  8
3
 62
     0
370
    -2
100
AcDbBlockReference
  2
_OPEN
 10
3001.947189452861
 20
2843.613261558012
 30
0.0
 41
40.0
 42
40.0
 43
40.0
 50
180.0
  0
INSERT
  5
82EA
330
82E3
100
AcDbEntity
  8
3
 62
     0
370
    -2
100
AcDbBlockReference
  2
_OPEN
 10
3801.947189452862
 20
2843.613261558012
 30
0.0
 41
40.0
 42
40.0
 43
40.0
  0
MTEXT
  5
82EB
330
82E3
100
AcDbEntity
  8
3
 62
     0
100
AcDbMText
 10
3401.947189452862
 20
2893.613261558012
 30
0.0
 40
60.0
 41
0.0
 71
     5
 72
     1
  1
\A1;800
 73
     1
 44
1.0
1001
ACAD
1000
MTEXTBEGIN
1070
    73
1070
     1
1070
    44
1040
1.0
1070
    74
1070
     0
1000
MTEXTEND
  0
POINT
  5
82EC
330
82E3
100
AcDbEntity
  8
DEFPOINTS
 62
     0
100
AcDbPoint
 10
3001.947189452861
 20
2773.660298728197
 30
0.0
  0
POINT
  5
82ED
330
82E3
100
AcDbEntity
  8
DEFPOINTS
 62
     0
100
AcDbPoint
 10
3801.947189452862
 20
2773.660298728197
 30
0.0
  0
POINT
  5
82EE
330
82E3
100
AcDbEntity
  8
DEFPOINTS
 62
     0
100
AcDbPoint
 10
3801.947189452862
 20
2843.613261558012
 30
0.0
  0
ENDBLK
  5
82E5
330
82E3
100
AcDbEntity
  8
0
100
AcDbBlockEnd
  0
BLOCK
  5
82FA
330
82F9
100
AcDbEntity
  8
0
100
AcDbBlockBegin
  2
*D36
 70
     1
 10
0.0
 20
0.0
 30
0.0
  3
*D36
  1

  0
LINE
  5
82FC
330
82F9
100
AcDbEntity
  8
3
 62
     0
370
    -2
100
AcDbLine
 10
595.7359659875363
 20
1443.260298728196
 30
0.0
 11
595.7359659875363
 21
1475.117441585339
 31
0.0
  0
LINE
  5
82FD
330
82F9
100
AcDbEntity
  8
3
 62
     0
370
    -2
100
AcDbLine
 10
595.7359659875363
 20
1516.060298728196
 30
0.0
 11
595.7359659875363
 21
1484.203155871053
 31
0.0
  0
SOLID
  5
82FE
330
82F9
100
AcDbEntity
  8
3
 62
     0
100
AcDbTrace
 10
595.1359659875363
 20
1443.260298728196
 30
0.0
 11
596.3359659875363
 21
1443.260298728196
 31
0.0
 12
595.7359659875363
 22
1439.660298728196
 32
0.0
 13
595.7359659875363
 23
1439.660298728196
 33
0.0
  0
SOLID
  5
82FF
330
82F9
100
AcDbEntity
  8
3
 62
     0
100
AcDbTrace
 10
595.1359659875363
 20
1516.060298728196
 30
0.0
 11
596.3359659875363
 21
1516.060298728196
 31
0.0
 12
595.7359659875363
 22
1519.660298728196
 32
0.0
 13
595.7359659875363
 23
1519.660298728196
 33
0.0
  0
MTEXT
  5
8300
330
82F9
100
AcDbEntity
  8
3
 62
     0
100
AcDbMText
 10
595.7359659875361
 20
1479.660298728196
 30
0.0
 40
3.599999999999999
 41
0.0
 71
     5
 72
     1
  1
\A1;(80)
 73
     1
 44
1.0
1001
ACAD
1000
MTEXTBEGIN
1070
    73
1070
     1
1070
    44
1040
1.0
1070
    74
1070
     0
1000
MTEXTEND
  0
POINT
  5
8301
330
82F9
100
AcDbEntity
  8
DEFPOINTS
 62
     0
100
AcDbPoint
 10
1009.055040675532
 20
1439.660298728196
 30
0.0
  0
POINT
  5
8302
330
82F9
100
AcDbEntity
  8
DEFPOINTS
 62
     0
100
AcDbPoint
 10
1009.055040675532
 20
1519.660298728196
 30
0.0
  0
POINT
  5
8303
330
82F9
100
AcDbEntity
  8
DEFPOINTS
 62
     0
100
AcDbPoint
 10
595.7359659875363
 20
1519.660298728196
 30
0.0
  0
ENDBLK
  5
82FB
330
82F9
100
AcDbEntity
  8
0
100
AcDbBlockEnd
  0
BLOCK
  5
8305
330
8304
100
AcDbEntity
  8
0
100
AcDbBlockBegin
  2
*D37
 70
     1
 10
0.0
 20
0.0
 30
0.0
  3
*D37
  1

  0
LINE
  5
8307
330
8304
100
AcDbEntity
  8
3
 62
     0
370
    -2
100
AcDbLine
 10
989.055040675532
 20
1339.660298728196
 30
0.0
 11
417.4881681796632
 21
1339.660298728196
 31
0.0
  0
LINE
  5
8308
330
8304
100
AcDbEntity
  8
3
 62
     0
370
    -2
100
AcDbLine
 10
1416.055040675532
 20
2773.660298728197
 30
0.0
 11
417.4881681796635
 21
2773.660298728198
 31
0.0
  0
LINE
  5
8309
330
8304
100
AcDbEntity
  8
3
 62
     0
370
    -2
100
AcDbLine
 10
421.0881681796633
 20
1343.260298728196
 30
0.0
 11
421.0881681796634
 21
2052.11744158534
 31
0.0
  0
LINE
  5
830A
330
8304
100
AcDbEntity
  8
3
 62
     0
370
    -2
100
AcDbLine
 10
421.0881681796636
 20
2770.060298728198
 30
0.0
 11
421.0881681796634
 21
2061.203155871054
 31
0.0
  0
SOLID
  5
830B
330
8304
100
AcDbEntity
  8
3
 62
     0
100
AcDbTrace
 10
420.4881681796632
 20
1343.260298728196
 30
0.0
 11
421.6881681796633
 21
1343.260298728196
 31
0.0
 12
421.0881681796633
 22
1339.660298728196
 32
0.0
 13
421.0881681796633
 23
1339.660298728196
 33
0.0
  0
SOLID
  5
830C
330
8304
100
AcDbEntity
  8
3
 62
     0
100
AcDbTrace
 10
420.4881681796636
 20
2770.060298728198
 30
0.0
 11
421.6881681796636
 21
2770.060298728198
 31
0.0
 12
421.0881681796636
 22
2773.660298728198
 32
0.0
 13
421.0881681796636
 23
2773.660298728198
 33
0.0
  0
MTEXT
  5
830D
330
8304
100
AcDbEntity
  8
3
 62
     0
100
AcDbMText
 10
421.0881681796631
 20
2056.660298728197
 30
0.0
 40
3.599999999999999
 41
0.0
 71
     5
 72
     1
  1
\A1;(1434)
 73
     1
 44
1.0
1001
ACAD
1000
MTEXTBEGIN
1070
    73
1070
     1
1070
    44
1040
1.0
1070
    74
1070
     0
1000
MTEXTEND
  0
POINT
  5
830E
330
8304
100
AcDbEntity
  8
DEFPOINTS
 62
     0
100
AcDbPoint
 10
1009.055040675532
 20
1339.660298728196
 30
0.0
  0
POINT
  5
830F
330
8304
100
AcDbEntity
  8
DEFPOINTS
 62
     0
100
AcDbPoint
 10
1436.055040675532
 20
2773.660298728197
 30
0.0
  0
POINT
  5
8310
330
8304
100
AcDbEntity
  8
DEFPOINTS
 62
     0
100
AcDbPoint
 10
421.0881681796636
 20
2773.660298728198
 30
0.0
  0
ENDBLK
  5
8306
330
8304
100
AcDbEntity
  8
0
100
AcDbBlockEnd
  0
BLOCK
  5
8312
330
8311
100
AcDbEntity
  8
0
100
AcDbBlockBegin
  2
*D38
 70
     1
 10
0.0
 20
0.0
 30
0.0
  3
*D38
  1

  0
LINE
  5
8314
330
8311
100
AcDbEntity
  8
3
 62
     0
370
    -2
100
AcDbLine
 10
1009.055040675532
 20
1319.660298728196
 30
0.0
 11
1009.055040675532
 21
1191.890184055159
 31
0.0
  0
LINE
  5
8315
330
8311
100
AcDbEntity
  8
3
 62
     0
370
    -2
100
AcDbLine
 10
1409.055040675532
 20
1319.660298728196
 30
0.0
 11
1409.055040675532
 21
1191.890184055159
 31
0.0
  0
LINE
  5
8316
330
8311
100
AcDbEntity
  8
3
 62
     0
370
    -2
100
AcDbLine
 10
1012.655040675532
 20
1195.490184055159
 30
0.0
 11
1202.626469246961
 21
1195.490184055159
 31
0.0
  0
LINE
  5
8317
330
8311
100
AcDbEntity
  8
3
 62
     0
370
    -2
100
AcDbLine
 10
1405.455040675532
 20
1195.490184055159
 30
0.0
 11
1215.483612104103
 21
1195.490184055159
 31
0.0
  0
SOLID
  5
8318
330
8311
100
AcDbEntity
  8
3
 62
     0
100
AcDbTrace
 10
1012.655040675532
 20
1196.090184055159
 30
0.0
 11
1012.655040675532
 21
1194.890184055159
 31
0.0
 12
1009.055040675532
 22
1195.490184055159
 32
0.0
 13
1009.055040675532
 23
1195.490184055159
 33
0.0
  0
SOLID
  5
8319
330
8311
100
AcDbEntity
  8
3
 62
     0
100
AcDbTrace
 10
1405.455040675532
 20
1196.090184055159
 30
0.0
 11
1405.455040675532
 21
1194.890184055159
 31
0.0
 12
1409.055040675532
 22
1195.490184055159
 32
0.0
 13
1409.055040675532
 23
1195.490184055159
 33
0.0
  0
MTEXT
  5
831A
330
8311
100
AcDbEntity
  8
3
 62
     0
100
AcDbMText
 10
1209.055040675532
 20
1195.490184055159
 30
0.0
 40
3.599999999999999
 41
0.0
 71
     5
 72
     1
  1
\A1;400
 73
     1
 44
1.0
1001
ACAD
1000
MTEXTBEGIN
1070
    73
1070
     1
1070
    44
1040
1.0
1070
    74
1070
     0
1000
MTEXTEND
  0
POINT
  5
831B
330
8311
100
AcDbEntity
  8
DEFPOINTS
 62
     0
100
AcDbPoint
 10
1009.055040675532
 20
1339.660298728196
 30
0.0
  0
POINT
  5
831C
330
8311
100
AcDbEntity
  8
DEFPOINTS
 62
     0
100
AcDbPoint
 10
1409.055040675532
 20
1339.660298728196
 30
0.0
  0
POINT
  5
831D
330
8311
100
AcDbEntity
  8
DEFPOINTS
 62
     0
100
AcDbPoint
 10
1409.055040675532
 20
1195.490184055159
 30
0.0
  0
ENDBLK
  5
8313
330
8311
100
AcDbEntity
  8
0
100
AcDbBlockEnd
  0
BLOCK
  5
831F
330
831E
100
AcDbEntity
  8
0
100
AcDbBlockBegin
  2
*D39
 70
     1
 10
0.0
 20
0.0
 30
0.0
  3
*D39
  1

  0
LINE
  5
8321
330
831E
100
AcDbEntity
  8
3
 62
     0
370
    -2
100
AcDbLine
 10
1409.055040675532
 20
1319.660298728196
 30
0.0
 11
1409.055040675532
 21
1191.890184055159
 31
0.0
  0
LINE
  5
8322
330
831E
100
AcDbEntity
  8
3
 62
     0
370
    -2
100
AcDbLine
 10
2459.055040675533
 20
1319.660298728196
 30
0.0
 11
2459.055040675533
 21
1191.890184055159
 31
0.0
  0
LINE
  5
8323
330
831E
100
AcDbEntity
  8
3
 62
     0
370
    -2
100
AcDbLine
 10
1412.655040675532
 20
1195.490184055159
 30
0.0
 11
1926.255040675533
 21
1195.490184055159
 31
0.0
  0
LINE
  5
8324
330
831E
100
AcDbEntity
  8
3
 62
     0
370
    -2
100
AcDbLine
 10
2455.455040675534
 20
1195.490184055159
 30
0.0
 11
1941.855040675532
 21
1195.490184055159
 31
0.0
  0
SOLID
  5
8325
330
831E
100
AcDbEntity
  8
3
 62
     0
100
AcDbTrace
 10
1412.655040675532
 20
1196.090184055159
 30
0.0
 11
1412.655040675532
 21
1194.890184055159
 31
0.0
 12
1409.055040675532
 22
1195.490184055159
 32
0.0
 13
1409.055040675532
 23
1195.490184055159
 33
0.0
  0
SOLID
  5
8326
330
831E
100
AcDbEntity
  8
3
 62
     0
100
AcDbTrace
 10
2455.455040675534
 20
1196.090184055159
 30
0.0
 11
2455.455040675534
 21
1194.890184055159
 31
0.0
 12
2459.055040675533
 22
1195.490184055159
 32
0.0
 13
2459.055040675533
 23
1195.490184055159
 33
0.0
  0
MTEXT
  5
8327
330
831E
100
AcDbEntity
  8
3
 62
     0
100
AcDbMText
 10
1934.055040675533
 20
1195.490184055159
 30
0.0
 40
3.599999999999999
 41
0.0
 71
     5
 72
     1
  1
\A1;1050
 73
     1
 44
1.0
1001
ACAD
1000
MTEXTBEGIN
1070
    73
1070
     1
1070
    44
1040
1.0
1070
    74
1070
     0
1000
MTEXTEND
  0
POINT
  5
8328
330
831E
100
AcDbEntity
  8
DEFPOINTS
 62
     0
100
AcDbPoint
 10
1409.055040675532
 20
1339.660298728196
 30
0.0
  0
POINT
  5
8329
330
831E
100
AcDbEntity
  8
DEFPOINTS
 62
     0
100
AcDbPoint
 10
2459.055040675533
 20
1339.660298728196
 30
0.0
  0
POINT
  5
832A
330
831E
100
AcDbEntity
  8
DEFPOINTS
 62
     0
100
AcDbPoint
 10
2459.055040675533
 20
1195.490184055159
 30
0.0
  0
ENDBLK
  5
8320
330
831E
100
AcDbEntity
  8
0
100
AcDbBlockEnd
  0
BLOCK
  5
8336
330
8335
100
AcDbEntity
  8
0
100
AcDbBlockBegin
  2
*D40
 70
     1
 10
0.0
 20
0.0
 30
0.0
  3
*D40
  1

  0
LINE
  5
8338
330
8335
100
AcDbEntity
  8
3
 62
     0
370
    -2
100
AcDbLine
 10
1007.805040675532
 20
1439.660298728196
 30
0.0
 11
589.8762882613904
 21
1439.660298728196
 31
0.0
  0
LINE
  5
8339
330
8335
100
AcDbEntity
  8
3
 62
     0
370
    -2
100
AcDbLine
 10
1007.805040675532
 20
1339.660298728196
 30
0.0
 11
589.8762882613904
 21
1339.660298728196
 31
0.0
  0
LINE
  5
833A
330
8335
100
AcDbEntity
  8
3
 62
     0
370
    -2
100
AcDbLine
 10
593.4762882613904
 20
1436.060298728196
 30
0.0
 11
593.4762882613904
 21
1393.260298728196
 31
0.0
  0
LINE
  5
833B
330
8335
100
AcDbEntity
  8
3
 62
     0
370
    -2
100
AcDbLine
 10
593.4762882613904
 20
1343.260298728196
 30
0.0
 11
593.4762882613904
 21
1386.060298728196
 31
0.0
  0
SOLID
  5
833C
330
8335
100
AcDbEntity
  8
3
 62
     0
100
AcDbTrace
 10
592.8762882613904
 20
1436.060298728196
 30
0.0
 11
594.0762882613904
 21
1436.060298728196
 31
0.0
 12
593.4762882613904
 22
1439.660298728196
 32
0.0
 13
593.4762882613904
 23
1439.660298728196
 33
0.0
  0
SOLID
  5
833D
330
8335
100
AcDbEntity
  8
3
 62
     0
100
AcDbTrace
 10
592.8762882613904
 20
1343.260298728196
 30
0.0
 11
594.0762882613904
 21
1343.260298728196
 31
0.0
 12
593.4762882613904
 22
1339.660298728196
 32
0.0
 13
593.4762882613904
 23
1339.660298728196
 33
0.0
  0
MTEXT
  5
833E
330
8335
100
AcDbEntity
  8
3
 62
     0
100
AcDbMText
 10
593.4762882613902
 20
1389.660298728196
 30
0.0
 40
3.599999999999999
 41
0.0
 71
     5
 72
     1
  1
\A1;100
 73
     1
 44
1.0
1001
ACAD
1000
MTEXTBEGIN
1070
    73
1070
     1
1070
    44
1040
1.0
1070
    74
1070
     0
1000
MTEXTEND
  0
POINT
  5
833F
330
8335
100
AcDbEntity
  8
DEFPOINTS
 62
     0
100
AcDbPoint
 10
1009.055040675532
 20
1439.660298728196
 30
0.0
  0
POINT
  5
8340
330
8335
100
AcDbEntity
  8
DEFPOINTS
 62
     0
100
AcDbPoint
 10
1009.055040675532
 20
1339.660298728196
 30
0.0
  0
POINT
  5
8341
330
8335
100
AcDbEntity
  8
DEFPOINTS
 62
     0
100
AcDbPoint
 10
593.4762882613904
 20
1339.660298728196
 30
0.0
  0
ENDBLK
  5
8337
330
8335
100
AcDbEntity
  8
0
100
AcDbBlockEnd
  0
BLOCK
  5
8348
330
8347
100
AcDbEntity
  8
0
100
AcDbBlockBegin
  2
*D41
 70
     1
 10
0.0
 20
0.0
 30
0.0
  3
*D41
  1

  0
LINE
  5
835C
330
8347
100
AcDbEntity
  8
3
 62
     0
370
    -2
100
AcDbLine
 10
3821.947189452862
 20
2654.660298728197
 30
0.0
 11
4048.239519725524
 21
2654.660298728197
 31
0.0
  0
LINE
  5
835D
330
8347
100
AcDbEntity
  8
3
 62
     0
370
    -2
100
AcDbLine
 10
3821.947189452862
 20
1984.660298728196
 30
0.0
 11
4048.239519725524
 21
1984.660298728196
 31
0.0
  0
LINE
  5
835E
330
8347
100
AcDbEntity
  8
3
 62
     0
370
    -2
100
AcDbLine
 10
4028.239519725524
 20
2614.660298728197
 30
0.0
 11
4028.239519725524
 21
2024.660298728196
 31
0.0
  0
INSERT
  5
835F
330
8347
100
AcDbEntity
  8
3
 62
     0
370
    -2
100
AcDbBlockReference
  2
_OPEN
 10
4028.239519725524
 20
2654.660298728197
 30
0.0
 41
40.0
 42
40.0
 43
40.0
 50
90.0
  0
INSERT
  5
8360
330
8347
100
AcDbEntity
  8
3
 62
     0
370
    -2
100
AcDbBlockReference
  2
_OPEN
 10
4028.239519725524
 20
1984.660298728196
 30
0.0
 41
40.0
 42
40.0
 43
40.0
 50
270.0
  0
MTEXT
  5
8361
330
8347
100
AcDbEntity
  8
3
 62
     0
100
AcDbMText
 10
3978.239519725524
 20
2319.660298728197
 30
0.0
 40
60.0
 41
0.0
 71
     5
 72
     1
  1
\A1;\U+03C6670
 11
0.0000000000000001
 21
1.0
 31
0.0
 73
     1
 44
1.0
1001
ACAD
1000
MTEXTBEGIN
1070
    73
1070
     1
1070
    44
1040
1.0
1070
    74
1070
     0
1000
MTEXTEND
  0
POINT
  5
8362
330
8347
100
AcDbEntity
  8
DEFPOINTS
 62
     0
100
AcDbPoint
 10
3801.947189452862
 20
2654.660298728197
 30
0.0
  0
POINT
  5
8363
330
8347
100
AcDbEntity
  8
DEFPOINTS
 62
     0
100
AcDbPoint
 10
3801.947189452862
 20
1984.660298728196
 30
0.0
  0
POINT
  5
8364
330
8347
100
AcDbEntity
  8
DEFPOINTS
 62
     0
100
AcDbPoint
 10
4028.239519725524
 20
1984.660298728196
 30
0.0
  0
ENDBLK
  5
8349
330
8347
100
AcDbEntity
  8
0
100
AcDbBlockEnd
  0
BLOCK
  5
8367
330
8366
100
AcDbEntity
  8
0
100
AcDbBlockBegin
  2
*D42
 70
     1
 10
0.0
 20
0.0
 30
0.0
  3
*D42
  1

  0
LINE
  5
8369
330
8366
100
AcDbEntity
  8
3
 62
     0
370
    -2
100
AcDbLine
 10
2848.947189452862
 20
1319.660298728196
 30
0.0
 11
2848.947189452862
 21
1204.675650508457
 31
0.0
  0
LINE
  5
836A
330
8366
100
AcDbEntity
  8
3
 62
     0
370
    -2
100
AcDbLine
 10
3401.947189452862
 20
1319.660298728196
 30
0.0
 11
3401.947189452862
 21
1204.675650508457
 31
0.0
  0
LINE
  5
836B
330
8366
100
AcDbEntity
  8
3
 62
     0
370
    -2
100
AcDbLine
 10
2888.947189452862
 20
1224.675650508457
 30
0.0
 11
3361.947189452862
 21
1224.675650508457
 31
0.0
  0
INSERT
  5
836C
330
8366
100
AcDbEntity
  8
3
 62
     0
370
    -2
100
AcDbBlockReference
  2
_OPEN
 10
2848.947189452862
 20
1224.675650508457
 30
0.0
 41
40.0
 42
40.0
 43
40.0
 50
180.0
  0
INSERT
  5
836D
330
8366
100
AcDbEntity
  8
3
 62
     0
370
    -2
100
AcDbBlockReference
  2
_OPEN
 10
3401.947189452862
 20
1224.675650508457
 30
0.0
 41
40.0
 42
40.0
 43
40.0
  0
MTEXT
  5
836E
330
8366
100
AcDbEntity
  8
3
 62
     0
100
AcDbMText
 10
3125.447189452862
 20
1274.675650508457
 30
0.0
 40
60.0
 41
0.0
 71
     5
 72
     1
  1
\A1;553
 73
     1
 44
1.0
1001
ACAD
1000
MTEXTBEGIN
1070
    73
1070
     1
1070
    44
1040
1.0
1070
    74
1070
     0
1000
MTEXTEND
  0
POINT
  5
836F
330
8366
100
AcDbEntity
  8
DEFPOINTS
 62
     0
100
AcDbPoint
 10
2848.947189452862
 20
1339.660298728196
 30
0.0
  0
POINT
  5
8370
330
8366
100
AcDbEntity
  8
DEFPOINTS
 62
     0
100
AcDbPoint
 10
3401.947189452862
 20
1339.660298728196
 30
0.0
  0
POINT
  5
8371
330
8366
100
AcDbEntity
  8
DEFPOINTS
 62
     0
100
AcDbPoint
 10
3401.947189452862
 20
1224.675650508457
 30
0.0
  0
ENDBLK
  5
8368
330
8366
100
AcDbEntity
  8
0
100
AcDbBlockEnd
  0
BLOCK
  5
8374
330
8373
100
AcDbEntity
  8
0
100
AcDbBlockBegin
  2
*D43
 70
     1
 10
0.0
 20
0.0
 30
0.0
  3
*D43
  1

  0
LINE
  5
8376
330
8373
100
AcDbEntity
  8
3
 62
     0
370
    -2
100
AcDbLine
 10
3401.947189452862
 20
1319.660298728196
 30
0.0
 11
3401.947189452862
 21
1204.675650508457
 31
0.0
  0
LINE
  5
8377
330
8373
100
AcDbEntity
  8
3
 62
     0
370
    -2
100
AcDbLine
 10
3854.947189452862
 20
1319.660298728196
 30
0.0
 11
3854.947189452862
 21
1204.675650508457
 31
0.0
  0
LINE
  5
8378
330
8373
100
AcDbEntity
  8
3
 62
     0
370
    -2
100
AcDbLine
 10
3441.947189452862
 20
1224.675650508457
 30
0.0
 11
3814.947189452862
 21
1224.675650508457
 31
0.0
  0
INSERT
  5
8379
330
8373
100
AcDbEntity
  8
3
 62
     0
370
    -2
100
AcDbBlockReference
  2
_OPEN
 10
3401.947189452862
 20
1224.675650508457
 30
0.0
 41
40.0
 42
40.0
 43
40.0
 50
180.0
  0
INSERT
  5
837A
330
8373
100
AcDbEntity
  8
3
 62
     0
370
    -2
100
AcDbBlockReference
  2
_OPEN
 10
3854.947189452862
 20
1224.675650508457
 30
0.0
 41
40.0
 42
40.0
 43
40.0
  0
MTEXT
  5
837B
330
8373
100
AcDbEntity
  8
3
 62
     0
100
AcDbMText
 10
3628.447189452862
 20
1274.675650508457
 30
0.0
 40
60.0
 41
0.0
 71
     5
 72
     1
  1
\A1;453
 73
     1
 44
1.0
1001
ACAD
1000
MTEXTBEGIN
1070
    73
1070
     1
1070
    44
1040
1.0
1070
    74
1070
     0
1000
MTEXTEND
  0
POINT
  5
837C
330
8373
100
AcDbEntity
  8
DEFPOINTS
 62
     0
100
AcDbPoint
 10
3401.947189452862
 20
1339.660298728196
 30
0.0
  0
POINT
  5
837D
330
8373
100
AcDbEntity
  8
DEFPOINTS
 62
     0
100
AcDbPoint
 10
3854.947189452862
 20
1339.660298728196
 30
0.0
  0
POINT
  5
837E
330
8373
100
AcDbEntity
  8
DEFPOINTS
 62
     0
100
AcDbPoint
 10
3854.947189452862
 20
1224.675650508457
 30
0.0
  0
ENDBLK
  5
8375
330
8373
100
AcDbEntity
  8
0
100
AcDbBlockEnd
  0
BLOCK
  5
8381
330
8380
100
AcDbEntity
  8
0
100
AcDbBlockBegin
  2
*D44
 70
     1
 10
0.0
 20
0.0
 30
0.0
  3
*D44
  1

  0
LINE
  5
8383
330
8380
100
AcDbEntity
  8
3
 62
     0
370
    -2
100
AcDbLine
 10
1009.055040675532
 20
1319.660298728196
 30
0.0
 11
1009.055040675532
 21
1210.448579449179
 31
0.0
  0
LINE
  5
8384
330
8380
100
AcDbEntity
  8
3
 62
     0
370
    -2
100
AcDbLine
 10
1409.055040675533
 20
1319.660298728196
 30
0.0
 11
1409.055040675533
 21
1210.448579449179
 31
0.0
  0
LINE
  5
8385
330
8380
100
AcDbEntity
  8
3
 62
     0
370
    -2
100
AcDbLine
 10
1049.055040675532
 20
1230.448579449179
 30
0.0
 11
1369.055040675533
 21
1230.448579449179
 31
0.0
  0
INSERT
  5
8386
330
8380
100
AcDbEntity
  8
3
 62
     0
370
    -2
100
AcDbBlockReference
  2
_OPEN
 10
1009.055040675532
 20
1230.448579449179
 30
0.0
 41
40.0
 42
40.0
 43
40.0
 50
180.0
  0
INSERT
  5
8387
330
8380
100
AcDbEntity
  8
3
 62
     0
370
    -2
100
AcDbBlockReference
  2
_OPEN
 10
1409.055040675533
 20
1230.448579449179
 30
0.0
 41
40.0
 42
40.0
 43
40.0
  0
MTEXT
  5
8388
330
8380
100
AcDbEntity
  8
3
 62
     0
100
AcDbMText
 10
1209.055040675532
 20
1280.448579449179
 30
0.0
 40
60.0
 41
0.0
 71
     5
 72
     1
  1
\A1;400
 73
     1
 44
1.0
1001
ACAD
1000
MTEXTBEGIN
1070
    73
1070
     1
1070
    44
1040
1.0
1070
    74
1070
     0
1000
MTEXTEND
  0
POINT
  5
8389
330
8380
100
AcDbEntity
  8
DEFPOINTS
 62
     0
100
AcDbPoint
 10
1009.055040675532
 20
1339.660298728196
 30
0.0
  0
POINT
  5
838A
330
8380
100
AcDbEntity
  8
DEFPOINTS
 62
     0
100
AcDbPoint
 10
1409.055040675533
 20
1339.660298728196
 30
0.0
  0
POINT
  5
838B
330
8380
100
AcDbEntity
  8
DEFPOINTS
 62
     0
100
AcDbPoint
 10
1409.055040675533
 20
1230.448579449179
 30
0.0
  0
ENDBLK
  5
8382
330
8380
100
AcDbEntity
  8
0
100
AcDbBlockEnd
  0
BLOCK
  5
838E
330
838D
100
AcDbEntity
  8
0
100
AcDbBlockBegin
  2
*D45
 70
     1
 10
0.0
 20
0.0
 30
0.0
  3
*D45
  1

  0
LINE
  5
8390
330
838D
100
AcDbEntity
  8
3
 62
     0
370
    -2
100
AcDbLine
 10
1409.055040675533
 20
1319.660298728196
 30
0.0
 11
1409.055040675533
 21
1210.448579449179
 31
0.0
  0
LINE
  5
8391
330
838D
100
AcDbEntity
  8
3
 62
     0
370
    -2
100
AcDbLine
 10
2459.055040675533
 20
1319.660298728196
 30
0.0
 11
2459.055040675533
 21
1210.448579449179
 31
0.0
  0
LINE
  5
8392
330
838D
100
AcDbEntity
  8
3
 62
     0
370
    -2
100
AcDbLine
 10
1449.055040675533
 20
1230.448579449179
 30
0.0
 11
2419.055040675534
 21
1230.448579449179
 31
0.0
  0
INSERT
  5
8393
330
838D
100
AcDbEntity
  8
3
 62
     0
370
    -2
100
AcDbBlockReference
  2
_OPEN
 10
1409.055040675533
 20
1230.448579449179
 30
0.0
 41
40.0
 42
40.0
 43
40.0
 50
180.0
  0
INSERT
  5
8394
330
838D
100
AcDbEntity
  8
3
 62
     0
370
    -2
100
AcDbBlockReference
  2
_OPEN
 10
2459.055040675533
 20
1230.448579449179
 30
0.0
 41
40.0
 42
40.0
 43
40.0
  0
MTEXT
  5
8395
330
838D
100
AcDbEntity
  8
3
 62
     0
100
AcDbMText
 10
1934.055040675533
 20
1280.448579449179
 30
0.0
 40
60.0
 41
0.0
 71
     5
 72
     1
  1
\A1;1050
 73
     1
 44
1.0
1001
ACAD
1000
MTEXTBEGIN
1070
    73
1070
     1
1070
    44
1040
1.0
1070
    74
1070
     0
1000
MTEXTEND
  0
POINT
  5
8396
330
838D
100
AcDbEntity
  8
DEFPOINTS
 62
     0
100
AcDbPoint
 10
1409.055040675533
 20
1339.660298728196
 30
0.0
  0
POINT
  5
8397
330
838D
100
AcDbEntity
  8
DEFPOINTS
 62
     0
100
AcDbPoint
 10
2459.055040675533
 20
1339.660298728196
 30
0.0
  0
POINT
  5
8398
330
838D
100
AcDbEntity
  8
DEFPOINTS
 62
     0
100
AcDbPoint
 10
2459.055040675533
 20
1230.448579449179
 30
0.0
  0
ENDBLK
  5
838F
330
838D
100
AcDbEntity
  8
0
100
AcDbBlockEnd
  0
BLOCK
  5
839B
330
839A
100
AcDbEntity
  8
0
100
AcDbBlockBegin
  2
*D46
 70
     1
 10
0.0
 20
0.0
 30
0.0
  3
*D46
  1

  0
LINE
  5
83F4
330
839A
100
AcDbEntity
  8
3
 62
     0
370
    -2
100
AcDbLine
 10
882.1620675725371
 20
2319.660298728196
 30
0.0
 11
573.4762882613904
 21
2319.660298728196
 31
0.0
  0
LINE
  5
83F5
330
839A
100
AcDbEntity
  8
3
 62
     0
370
    -2
100
AcDbLine
 10
989.055040675532
 20
1519.660298728196
 30
0.0
 11
573.4762882613901
 21
1519.660298728196
 31
0.0
  0
LINE
  5
83F6
330
839A
100
AcDbEntity
  8
3
 62
     0
370
    -2
100
AcDbLine
 10
593.4762882613902
 20
2279.660298728197
 30
0.0
 11
593.4762882613902
 21
1559.660298728196
 31
0.0
  0
INSERT
  5
83F7
330
839A
100
AcDbEntity
  8
3
 62
     0
370
    -2
100
AcDbBlockReference
  2
_OPEN
 10
593.4762882613904
 20
2319.660298728196
 30
0.0
 41
40.0
 42
40.0
 43
40.0
 50
90.0
  0
INSERT
  5
83F8
330
839A
100
AcDbEntity
  8
3
 62
     0
370
    -2
100
AcDbBlockReference
  2
_OPEN
 10
593.4762882613902
 20
1519.660298728196
 30
0.0
 41
40.0
 42
40.0
 43
40.0
 50
270.0
  0
MTEXT
  5
83F9
330
839A
100
AcDbEntity
  8
3
 62
     0
100
AcDbMText
 10
543.47628826139
 20
1919.660298728196
 30
0.0
 40
60.0
 41
0.0
 71
     5
 72
     1
  1
\A1;800
 11
0.0000000000000001
 21
1.0
 31
0.0
 73
     1
 44
1.0
1001
ACAD
1000
MTEXTBEGIN
1070
    73
1070
     1
1070
    44
1040
1.0
1070
    74
1070
     0
1000
MTEXTEND
  0
POINT
  5
83FA
330
839A
100
AcDbEntity
  8
DEFPOINTS
 62
     0
100
AcDbPoint
 10
902.1620675725372
 20
2319.660298728196
 30
0.0
  0
POINT
  5
83FB
330
839A
100
AcDbEntity
  8
DEFPOINTS
 62
     0
100
AcDbPoint
 10
1009.055040675532
 20
1519.660298728196
 30
0.0
  0
POINT
  5
83FC
330
839A
100
AcDbEntity
  8
DEFPOINTS
 62
     0
100
AcDbPoint
 10
593.4762882613902
 20
1519.660298728196
 30
0.0
  0
ENDBLK
  5
839C
330
839A
100
AcDbEntity
  8
0
100
AcDbBlockEnd
  0
BLOCK
  5
83A8
330
83A7
100
AcDbEntity
  8
0
100
AcDbBlockBegin
  2
*D47
 70
     1
 10
0.0
 20
0.0
 30
0.0
  3
*D47
  1

  0
LINE
  5
8483
330
83A7
100
AcDbEntity
  8
3
 62
     0
370
    -2
100
AcDbLine
 10
989.055040675532
 20
1519.660298728196
 30
0.0
 11
573.4762882613901
 21
1519.660298728196
 31
0.0
  0
LINE
  5
8484
330
83A7
100
AcDbEntity
  8
3
 62
     0
370
    -2
100
AcDbLine
 10
989.055040675532
 20
1439.660298728196
 30
0.0
 11
573.4762882613901
 21
1439.660298728196
 31
0.0
  0
LINE
  5
8485
330
83A7
100
AcDbEntity
  8
3
 62
     0
370
    -2
100
AcDbLine
 10
593.4762882613902
 20
1479.660298728196
 30
0.0
 11
593.4762882613902
 21
1439.660298728196
 31
0.0
  0
MTEXT
  5
8486
330
83A7
100
AcDbEntity
  8
3
 62
     0
100
AcDbMText
 10
521.0953358804378
 20
1479.660298728196
 30
0.0
 40
60.0
 41
0.0
 71
     5
 72
     1
  1
\A1;(80)
 11
0.0000000000000001
 21
1.0
 31
0.0
 73
     1
 44
1.0
1001
ACAD
1000
MTEXTBEGIN
1070
    73
1070
     1
1070
    44
1040
1.0
1070
    74
1070
     0
1000
MTEXTEND
  0
INSERT
  5
8487
330
83A7
100
AcDbEntity
  8
3
 62
     0
370
    -2
100
AcDbBlockReference
  2
_OPEN
 10
593.4762882613902
 20
1519.660298728196
 30
0.0
 41
40.0
 42
40.0
 43
40.0
 50
90.0
  0
INSERT
  5
8488
330
83A7
100
AcDbEntity
  8
3
 62
     0
370
    -2
100
AcDbBlockReference
  2
_DotSmall
 10
593.4762882613902
 20
1439.660298728196
 30
0.0
 41
40.0
 42
40.0
 43
40.0
 50
270.0
  0
POINT
  5
8489
330
83A7
100
AcDbEntity
  8
DEFPOINTS
 62
     0
100
AcDbPoint
 10
1009.055040675532
 20
1519.660298728196
 30
0.0
  0
POINT
  5
848A
330
83A7
100
AcDbEntity
  8
DEFPOINTS
 62
     0
100
AcDbPoint
 10
1009.055040675532
 20
1439.660298728196
 30
0.0
  0
POINT
  5
848B
330
83A7
100
AcDbEntity
  8
DEFPOINTS
 62
     0
100
AcDbPoint
 10
593.4762882613902
 20
1439.660298728196
 30
0.0
  0
ENDBLK
  5
83A9
330
83A7
100
AcDbEntity
  8
0
100
AcDbBlockEnd
  0
BLOCK
  5
83BA
330
83B9
100
AcDbEntity
  8
0
100
AcDbBlockBegin
  2
*D48
 70
     1
 10
0.0
 20
0.0
 30
0.0
  3
*D48
  1

  0
LINE
  5
84D8
330
83B9
100
AcDbEntity
  8
3
 62
     0
370
    -2
100
AcDbLine
 10
989.055040675532
 20
1439.660298728196
 30
0.0
 11
573.4762882613901
 21
1439.660298728196
 31
0.0
  0
LINE
  5
84D9
330
83B9
100
AcDbEntity
  8
3
 62
     0
370
    -2
100
AcDbLine
 10
989.055040675532
 20
1339.660298728196
 30
0.0
 11
573.4762882613901
 21
1339.660298728196
 31
0.0
  0
LINE
  5
84DA
330
83B9
100
AcDbEntity
  8
3
 62
     0
370
    -2
100
AcDbLine
 10
593.4762882613902
 20
1439.660298728196
 30
0.0
 11
593.4762882613902
 21
1379.660298728196
 31
0.0
  0
MTEXT
  5
84DB
330
83B9
100
AcDbEntity
  8
3
 62
     0
100
AcDbMText
 10
533.9175239050237
 20
1248.400095471208
 30
0.0
 40
60.0
 41
0.0
 71
     5
 72
     1
  1
\A1;100
 11
0.0000000000000001
 21
1.0
 31
0.0
 73
     1
 44
1.0
1001
ACAD
1000
MTEXTBEGIN
1070
    73
1070
     1
1070
    44
1040
1.0
1070
    74
1070
     0
1000
MTEXTEND
  0
INSERT
  5
84DC
330
83B9
100
AcDbEntity
  8
3
 62
     0
370
    -2
100
AcDbBlockReference
  2
_DotSmall
 10
593.4762882613902
 20
1439.660298728196
 30
0.0
 41
40.0
 42
40.0
 43
40.0
 50
90.0
  0
INSERT
  5
84DD
330
83B9
100
AcDbEntity
  8
3
 62
     0
370
    -2
100
AcDbBlockReference
  2
_OPEN
 10
593.4762882613902
 20
1339.660298728196
 30
0.0
 41
40.0
 42
40.0
 43
40.0
 50
270.0
  0
POINT
  5
84DE
330
83B9
100
AcDbEntity
  8
DEFPOINTS
 62
     0
100
AcDbPoint
 10
1009.055040675532
 20
1439.660298728196
 30
0.0
  0
POINT
  5
84DF
330
83B9
100
AcDbEntity
  8
DEFPOINTS
 62
     0
100
AcDbPoint
 10
1009.055040675532
 20
1339.660298728196
 30
0.0
  0
POINT
  5
84E0
330
83B9
100
AcDbEntity
  8
DEFPOINTS
 62
     0
100
AcDbPoint
 10
593.4762882613902
 20
1339.660298728196
 30
0.0
  0
ENDBLK
  5
83BB
330
83B9
100
AcDbEntity
  8
0
100
AcDbBlockEnd
  0
BLOCK
  5
8481
330
847F
100
AcDbEntity
  8
0
100
AcDbBlockBegin
  2
_DotSmall
 70
     0
 10
0.0
 20
0.0
 30
0.0
  3
_DotSmall
  1

  0
LWPOLYLINE
  5
8480
330
847F
100
AcDbEntity
  8
0
  6
ByBlock
 62
     0
100
AcDbPolyline
 90
        2
 70
     1
 43
0.5
 10
-0.0625
 20
0.0
 42
1.0
 10
0.0625
 20
0.0
 42
1.0
  0
ENDBLK
  5
8482
330
847F
100
AcDbEntity
  8
0
100
AcDbBlockEnd
  0
BLOCK
  5
84E3
330
84E2
100
AcDbEntity
  8
0
100
AcDbBlockBegin
  2
*D50
 70
     1
 10
0.0
 20
0.0
 30
0.0
  3
*D50
  1

  0
LINE
  5
84F7
330
84E2
100
AcDbEntity
  8
3
 62
     0
370
    -2
100
AcDbLine
 10
989.055040675532
 20
1339.660298728196
 30
0.0
 11
405.3436046327258
 21
1339.660298728196
 31
0.0
  0
LINE
  5
84F8
330
84E2
100
AcDbEntity
  8
3
 62
     0
370
    -2
100
AcDbLine
 10
1436.055040675533
 20
2773.660298728196
 30
0.0
 11
405.3436046327262
 21
2773.660298728197
 31
0.0
  0
LINE
  5
84F9
330
84E2
100
AcDbEntity
  8
3
 62
     0
370
    -2
100
AcDbLine
 10
425.3436046327258
 20
1379.660298728196
 30
0.0
 11
425.3436046327261
 21
2733.660298728197
 31
0.0
  0
INSERT
  5
84FA
330
84E2
100
AcDbEntity
  8
3
 62
     0
370
    -2
100
AcDbBlockReference
  2
_OPEN
 10
425.3436046327258
 20
1339.660298728196
 30
0.0
 41
40.0
 42
40.0
 43
40.0
 50
270.0
  0
INSERT
  5
84FB
330
84E2
100
AcDbEntity
  8
3
 62
     0
370
    -2
100
AcDbBlockReference
  2
_OPEN
 10
425.3436046327261
 20
2773.660298728197
 30
0.0
 41
40.0
 42
40.0
 43
40.0
 50
90.0
  0
MTEXT
  5
84FC
330
84E2
100
AcDbEntity
  8
3
 62
     0
100
AcDbMText
 10
359.6293189184399
 20
2056.660298728197
 30
0.0
 40
60.0
 41
0.0
 71
     5
 72
     1
  1
\A1;(1434)
 11
0.0000000000000001
 21
1.0
 31
0.0
 73
     1
 44
1.0
1001
ACAD
1000
MTEXTBEGIN
1070
    73
1070
     1
1070
    44
1040
1.0
1070
    74
1070
     0
1000
MTEXTEND
  0
POINT
  5
84FD
330
84E2
100
AcDbEntity
  8
DEFPOINTS
 62
     0
100
AcDbPoint
 10
1009.055040675532
 20
1339.660298728196
 30
0.0
  0
POINT
  5
84FE
330
84E2
100
AcDbEntity
  8
DEFPOINTS
 62
     0
100
AcDbPoint
 10
1456.055040675533
 20
2773.660298728196
 30
0.0
  0
POINT
  5
84FF
330
84E2
100
AcDbEntity
  8
DEFPOINTS
 62
     0
100
AcDbPoint
 10
425.3436046327261
 20
2773.660298728197
 30
0.0
  0
ENDBLK
  5
84E4
330
84E2
100
AcDbEntity
  8
0
100
AcDbBlockEnd
  0
BLOCK
  5
8502
330
8501
100
AcDbEntity
  8
0
100
AcDbBlockBegin
  2
*D51
 70
     1
 10
0.0
 20
0.0
 30
0.0
  3
*D51
  1

  0
LINE
  5
850D
330
8501
100
AcDbEntity
  8
3
 62
     0
370
    -2
100
AcDbLine
 10
1409.055040675532
 20
2795.378507702061
 30
0.0
 11
1409.055040675532
 21
2928.879223635095
 31
0.0
  0
LINE
  5
850E
330
8501
100
AcDbEntity
  8
3
 62
     0
370
    -2
100
AcDbLine
 10
1957.055040675532
 20
2292.660298728196
 30
0.0
 11
1957.055040675532
 21
2928.879223635095
 31
0.0
  0
LINE
  5
850F
330
8501
100
AcDbEntity
  8
3
 62
     0
370
    -2
100
AcDbLine
 10
1449.055040675532
 20
2908.879223635094
 30
0.0
 11
1917.055040675532
 21
2908.879223635094
 31
0.0
  0
INSERT
  5
8510
330
8501
100
AcDbEntity
  8
3
 62
     0
370
    -2
100
AcDbBlockReference
  2
_OPEN
 10
1409.055040675532
 20
2908.879223635094
 30
0.0
 41
40.0
 42
40.0
 43
40.0
 50
180.0
  0
INSERT
  5
8511
330
8501
100
AcDbEntity
  8
3
 62
     0
370
    -2
100
AcDbBlockReference
  2
_OPEN
 10
1957.055040675532
 20
2908.879223635094
 30
0.0
 41
40.0
 42
40.0
 43
40.0
  0
MTEXT
  5
8512
330
8501
100
AcDbEntity
  8
3
 62
     0
100
AcDbMText
 10
1683.055040675531
 20
2958.879223635094
 30
0.0
 40
60.0
 41
0.0
 71
     5
 72
     1
  1
\A1;548
 73
     1
 44
1.0
1001
ACAD
1000
MTEXTBEGIN
1070
    73
1070
     1
1070
    44
1040
1.0
1070
    74
1070
     0
1000
MTEXTEND
  0
POINT
  5
8513
330
8501
100
AcDbEntity
  8
DEFPOINTS
 62
     0
100
AcDbPoint
 10
1409.055040675532
 20
2775.378507702062
 30
0.0
  0
POINT
  5
8514
330
8501
100
AcDbEntity
  8
DEFPOINTS
 62
     0
100
AcDbPoint
 10
1957.055040675532
 20
2272.660298728196
 30
0.0
  0
POINT
  5
8515
330
8501
100
AcDbEntity
  8
DEFPOINTS
 62
     0
100
AcDbPoint
 10
1957.055040675532
 20
2908.879223635094
 30
0.0
  0
ENDBLK
  5
8503
330
8501
100
AcDbEntity
  8
0
100
AcDbBlockEnd
  0
BLOCK
  5
8518
330
8517
100
AcDbEntity
  8
0
100
AcDbBlockBegin
  2
*D52
 70
     1
 10
0.0
 20
0.0
 30
0.0
  3
*D52
  1

  0
LINE
  5
851A
330
8517
100
AcDbEntity
  8
3
 62
     0
370
    -2
100
AcDbLine
 10
1009.055040675532
 20
3472.710584264269
 30
0.0
 11
1009.055040675532
 21
3139.843471575869
 31
0.0
  0
LINE
  5
851B
330
8517
100
AcDbEntity
  8
3
 62
     0
370
    -2
100
AcDbLine
 10
2459.055040675533
 20
3472.710584264268
 30
0.0
 11
2459.055040675533
 21
3139.843471575869
 31
0.0
  0
LINE
  5
851C
330
8517
100
AcDbEntity
  8
3
 62
     0
370
    -2
100
AcDbLine
 10
1049.055040675532
 20
3159.843471575868
 30
0.0
 11
2419.055040675534
 21
3159.843471575868
 31
0.0
  0
INSERT
  5
851D
330
8517
100
AcDbEntity
  8
3
 62
     0
370
    -2
100
AcDbBlockReference
  2
_OPEN
 10
1009.055040675532
 20
3159.843471575868
 30
0.0
 41
40.0
 42
40.0
 43
40.0
 50
180.0
  0
INSERT
  5
851E
330
8517
100
AcDbEntity
  8
3
 62
     0
370
    -2
100
AcDbBlockReference
  2
_OPEN
 10
2459.055040675533
 20
3159.843471575868
 30
0.0
 41
40.0
 42
40.0
 43
40.0
  0
MTEXT
  5
851F
330
8517
100
AcDbEntity
  8
3
 62
     0
100
AcDbMText
 10
1734.055040675533
 20
3209.843471575869
 30
0.0
 40
60.0
 41
0.0
 71
     5
 72
     1
  1
\A1;1450
 73
     1
 44
1.0
1001
ACAD
1000
MTEXTBEGIN
1070
    73
1070
     1
1070
    44
1040
1.0
1070
    74
1070
     0
1000
MTEXTEND
  0
POINT
  5
8520
330
8517
100
AcDbEntity
  8
DEFPOINTS
 62
     0
100
AcDbPoint
 10
1009.055040675532
 20
3492.710584264269
 30
0.0
  0
POINT
  5
8521
330
8517
100
AcDbEntity
  8
DEFPOINTS
 62
     0
100
AcDbPoint
 10
2459.055040675533
 20
3492.710584264268
 30
0.0
  0
POINT
  5
8522
330
8517
100
AcDbEntity
  8
DEFPOINTS
 62
     0
100
AcDbPoint
 10
2459.055040675533
 20
3159.843471575868
 30
0.0
  0
ENDBLK
  5
8519
330
8517
100
AcDbEntity
  8
0
100
AcDbBlockEnd
  0
BLOCK
  5
8525
330
8524
100
AcDbEntity
  8
0
100
AcDbBlockBegin
  2
*D53
 70
     1
 10
0.0
 20
0.0
 30
0.0
  3
*D53
  1

  0
LINE
  5
8530
330
8524
100
AcDbEntity
  8
3
 62
     0
370
    -2
100
AcDbLine
 10
1809.055040675533
 20
4518.710584264268
 30
0.0
 11
1809.055040675533
 21
4614.543070233767
 31
0.0
  0
LINE
  5
8531
330
8524
100
AcDbEntity
  8
3
 62
     0
370
    -2
100
AcDbLine
 10
2459.055040675533
 20
4112.710584264267
 30
0.0
 11
2459.055040675533
 21
4614.543070233767
 31
0.0
  0
LINE
  5
8532
330
8524
100
AcDbEntity
  8
3
 62
     0
370
    -2
100
AcDbLine
 10
1849.055040675533
 20
4594.543070233767
 30
0.0
 11
2419.055040675534
 21
4594.543070233767
 31
0.0
  0
INSERT
  5
8533
330
8524
100
AcDbEntity
  8
3
 62
     0
370
    -2
100
AcDbBlockReference
  2
_OPEN
 10
1809.055040675533
 20
4594.543070233767
 30
0.0
 41
40.0
 42
40.0
 43
40.0
 50
180.0
  0
INSERT
  5
8534
330
8524
100
AcDbEntity
  8
3
 62
     0
370
    -2
100
AcDbBlockReference
  2
_OPEN
 10
2459.055040675533
 20
4594.543070233767
 30
0.0
 41
40.0
 42
40.0
 43
40.0
  0
MTEXT
  5
8535
330
8524
100
AcDbEntity
  8
3
 62
     0
100
AcDbMText
 10
2134.055040675533
 20
4644.543070233767
 30
0.0
 40
60.0
 41
0.0
 71
     5
 72
     1
  1
\A1;650
 73
     1
 44
1.0
1001
ACAD
1000
MTEXTBEGIN
1070
    73
1070
     1
1070
    44
1040
1.0
1070
    74
1070
     0
1000
MTEXTEND
  0
POINT
  5
8536
330
8524
100
AcDbEntity
  8
DEFPOINTS
 62
     0
100
AcDbPoint
 10
1809.055040675533
 20
4498.710584264268
 30
0.0
  0
POINT
  5
8537
330
8524
100
AcDbEntity
  8
DEFPOINTS
 62
     0
100
AcDbPoint
 10
2459.055040675533
 20
4092.710584264266
 30
0.0
  0
POINT
  5
8538
330
8524
100
AcDbEntity
  8
DEFPOINTS
 62
     0
100
AcDbPoint
 10
2459.055040675533
 20
4594.543070233767
 30
0.0
  0
ENDBLK
  5
8526
330
8524
100
AcDbEntity
  8
0
100
AcDbBlockEnd
  0
ENDSEC
  0
SECTION
  2
ENTITIES
  0
INSERT
  5
7BFC
330
81B8
100
AcDbEntity
  8
0
100
AcDbBlockReference
  2
YA_N
 10
6.0
 20
5.0
 30
0.0
  0
LINE
  5
7BFE
330
81B8
100
AcDbEntity
  8
2
100
AcDbLine
 10
2020.308782981459
 20
2319.660298728196
 30
0.0
 11
902.1620675725372
 21
2319.660298728196
 31
0.0
  0
LINE
  5
7BFF
330
81B8
100
AcDbEntity
  8
2
100
AcDbLine
 10
1409.055040675532
 20
2775.378507702062
 30
0.0
 11
1409.055040675533
 21
1339.660298728196
 31
0.0
  0
ARC
  5
7C00
330
81B8
100
AcDbEntity
  8
1
100
AcDbCircle
 10
1362.055040675532
 20
2272.660298728196
 30
0.0
 40
595.0
100
AcDbArc
 50
274.5306050426826
 51
4.530605042682608
  0
ARC
  5
7C01
330
81B8
100
AcDbEntity
  8
1
100
AcDbCircle
 10
1456.055040675533
 20
2272.660298728196
 30
0.0
 40
501.0
100
AcDbArc
 50
5.382968649881314
 51
95.38296864988129
  0
ARC
  5
7C02
330
81B8
100
AcDbEntity
  8
1
100
AcDbCircle
 10
1447.055040675532
 20
2357.660298728196
 30
0.0
 40
416.0
100
AcDbArc
 50
95.2410550612967
 51
185.2410550612967
  0
LINE
  5
7C03
330
81B8
100
AcDbEntity
  8
1
100
AcDbLine
 10
949.0550406755327
 20
1599.660298728196
 30
0.0
 11
949.0550406755327
 21
2333.660298728196
 31
0.0
  0
LINE
  5
7C04
330
81B8
100
AcDbEntity
  8
1
100
AcDbLine
 10
949.0550406755327
 20
1641.660298728196
 30
0.0
 11
1409.055040675532
 21
1679.51950599851
 31
0.0
  0
LINE
  5
7C05
330
81B8
100
AcDbEntity
  8
1
100
AcDbLine
 10
1032.093504176117
 20
2291.660298728197
 30
0.0
 11
949.0550406755327
 21
2291.660298728197
 31
0.0
  0
LINE
  5
7C06
330
81B8
100
AcDbEntity
  8
1
100
AcDbLine
 10
989.0550406755327
 20
1644.952403708223
 30
0.0
 11
989.0550406755327
 21
2291.660298728197
 31
0.0
  0
LINE
  5
7C07
330
81B8
100
AcDbEntity
  8
1
100
AcDbLine
 10
952.0550406755328
 20
1599.660298728196
 30
0.0
 11
949.0550406755327
 21
1599.660298728196
 31
0.0
  0
LINE
  5
7C08
330
81B8
100
AcDbEntity
  8
1
100
AcDbLine
 10
952.0550406755328
 20
2333.660298728196
 30
0.0
 11
949.0550406755327
 21
2333.660298728196
 31
0.0
  0
LINE
  5
7C09
330
81B8
100
AcDbEntity
  8
1
100
AcDbLine
 10
952.0550406755328
 20
1599.660298728196
 30
0.0
 11
952.0550406755328
 21
2333.660298728196
 31
0.0
  0
LINE
  5
7C0A
330
81B8
100
AcDbEntity
  8
2
100
AcDbLine
 10
3401.947189452862
 20
2828.773054748349
 30
0.0
 11
3401.947189452862
 21
1339.660298728196
 31
0.0
  0
LINE
  5
7C0B
330
81B8
100
AcDbEntity
  8
2
100
AcDbLine
 10
2619.947189452861
 20
2319.660298728196
 30
0.0
 11
3907.618864075011
 21
2319.660298728196
 31
0.0
  0
LINE
  5
7C0C
330
81B8
100
AcDbEntity
  8
1
100
AcDbLine
 10
3854.947189452862
 20
1619.660298728196
 30
0.0
 11
3854.947189452862
 21
1614.19016751501
 31
0.0
  0
LINE
  5
7C0D
330
81B8
100
AcDbEntity
  8
1
100
AcDbLine
 10
3801.947189452862
 20
2773.660298728197
 30
0.0
 11
3801.947189452862
 21
2347.660298728197
 31
0.0
  0
LINE
  5
7C0E
330
81B8
100
AcDbEntity
  8
1
100
AcDbLine
 10
3801.947189452862
 20
2347.660298728197
 30
0.0
 11
3801.947189452862
 21
1641.660298728196
 31
0.0
  0
LINE
  5
7C0F
330
81B8
100
AcDbEntity
  8
2
100
AcDbLine
 10
1409.055040675532
 20
4526.508670769092
 30
0.0
 11
1409.055040675532
 21
3242.157300992572
 31
0.0
  0
LINE
  5
7C10
330
81B8
100
AcDbEntity
  8
2
100
AcDbLine
 10
2010.902890374351
 20
4045.710584264269
 30
0.0
 11
899.5445059917091
 21
4045.710584264269
 31
0.0
  0
INSERT
  5
7C11
330
81B8
100
AcDbEntity
  8
0
100
AcDbBlockReference
  2
YA_N
 10
-1221.011981710642
 20
-542.7332483964637
 30
0.0
 41
15.0
 42
15.0
 43
15.0
  0
LINE
  5
7C13
330
81B8
100
AcDbEntity
  8
1
100
AcDbLine
 10
2459.055040675533
 20
1339.660298728196
 30
0.0
 11
1009.055040675532
 21
1339.660298728196
 31
0.0
  0
LINE
  5
7C14
330
81B8
100
AcDbEntity
  8
1
100
AcDbLine
 10
2459.055040675533
 20
1439.660298728196
 30
0.0
 11
1009.055040675532
 21
1439.660298728196
 31
0.0
1001
ACAD
1000
ASC_BOUNDS
1002
{
1070
    19
1005
0
1005
0
1002
}
  0
LINE
  5
7C15
330
81B8
100
AcDbEntity
  8
1
100
AcDbLine
 10
2459.055040675533
 20
1439.660298728196
 30
0.0
 11
2459.055040675533
 21
1339.660298728196
 31
0.0
  0
LINE
  5
7C16
330
81B8
100
AcDbEntity
  8
1
100
AcDbLine
 10
1009.055040675532
 20
1439.660298728196
 30
0.0
 11
1009.055040675532
 21
1339.660298728196
 31
0.0
  0
ARC
  5
7C17
330
81B8
100
AcDbEntity
  8
1
100
AcDbCircle
 10
2259.055040675534
 20
1836.660298728197
 30
0.0
 40
142.5
100
AcDbArc
 50
180.0
 51
213.0338076719878
  0
ARC
  5
7C18
330
81B8
100
AcDbEntity
  8
1
100
AcDbCircle
 10
2259.055040675534
 20
1836.660298728197
 30
0.0
 40
142.5
100
AcDbArc
 50
326.9661316176382
 51
180.0
  0
LINE
  5
7C19
330
81B8
100
AcDbEntity
  8
2
100
AcDbLine
 10
2259.055040675534
 20
1998.259039845455
 30
0.0
 11
2259.055040675534
 21
1339.660298728196
 31
0.0
  0
LINE
  5
7C1A
330
81B8
100
AcDbEntity
  8
1
100
AcDbLine
 10
2378.519698684455
 20
1758.978605345449
 30
0.0
 11
2389.055040675532
 21
1719.660298728196
 31
0.0
  0
LINE
  5
7C1B
330
81B8
100
AcDbEntity
  8
1
100
AcDbLine
 10
2389.055040675532
 20
1719.462898728196
 30
0.0
 11
2389.055040675532
 21
1704.660298728196
 31
0.0
  0
LINE
  5
7C1C
330
81B8
100
AcDbEntity
  8
1
100
AcDbLine
 10
2139.590300355472
 20
1758.978731929756
 30
0.0
 11
2129.055040675532
 21
1719.660298728196
 31
0.0
  0
LINE
  5
7C1D
330
81B8
100
AcDbEntity
  8
1
100
AcDbLine
 10
2129.055040675532
 20
1719.462898728196
 30
0.0
 11
2129.055040675532
 21
1704.660298728196
 31
0.0
  0
LINE
  5
7C1E
330
81B8
100
AcDbEntity
  8
2
100
AcDbLine
 10
2429.592605491123
 20
1836.660298728197
 30
0.0
 11
2090.554275149872
 21
1836.660298728197
 31
0.0
  0
LINE
  5
7C1F
330
81B8
100
AcDbEntity
  8
1
100
AcDbLine
 10
2059.055040675533
 20
1659.660298728196
 30
0.0
 11
2059.055040675533
 21
1619.660298728196
 31
0.0
  0
LINE
  5
7C20
330
81B8
100
AcDbEntity
  8
1
100
AcDbLine
 10
2459.055040675533
 20
1659.660298728196
 30
0.0
 11
2459.055040675533
 21
1619.660298728196
 31
0.0
  0
LINE
  5
7C22
330
81B8
100
AcDbEntity
  8
1
100
AcDbLine
 10
2422.890697289327
 20
1704.660298728196
 30
0.0
 11
2096.432529284205
 21
1704.660298728196
 31
0.0
  0
LINE
  5
7C23
330
81B8
100
AcDbEntity
  8
1
100
AcDbLine
 10
2434.055040675533
 20
1659.660298728196
 30
0.0
 11
2422.890697289327
 21
1704.660298728196
 31
0.0
  0
LINE
  5
7C24
330
81B8
100
AcDbEntity
  8
1
100
AcDbLine
 10
2084.055040675532
 20
1659.660298728196
 30
0.0
 11
2096.432529284205
 21
1704.660298728196
 31
0.0
  0
LINE
  5
7C25
330
81B8
100
AcDbEntity
  8
1
100
AcDbLine
 10
2848.947189452862
 20
1439.660298728196
 30
0.0
 11
3854.947189452862
 21
1439.660298728196
 31
0.0
1001
ACAD
1000
ASC_BOUNDS
1002
{
1070
    19
1002
}
  0
LINE
  5
7C26
330
81B8
100
AcDbEntity
  8
1
100
AcDbLine
 10
2848.947189452862
 20
1339.660298728196
 30
0.0
 11
3854.947189452862
 21
1339.660298728196
 31
0.0
  0
LINE
  5
7C27
330
81B8
100
AcDbEntity
  8
1
100
AcDbLine
 10
2848.947189452862
 20
1439.660298728196
 30
0.0
 11
2848.947189452862
 21
1339.660298728196
 31
0.0
  0
LINE
  5
7C28
330
81B8
100
AcDbEntity
  8
1
100
AcDbLine
 10
3854.947189452862
 20
1439.660298728196
 30
0.0
 11
3854.947189452862
 21
1339.660298728196
 31
0.0
  0
DIMENSION
  5
7C2A
330
81B8
100
AcDbEntity
  8
3
100
AcDbDimension
  2
*D4
 10
820.4935059689757
 20
2291.660298728197
 30
0.0
 11
780.493505968976
 21
2029.987676433646
 31
0.0
 12
1257.016300202718
 22
1751.562672278076
 32
0.0
 71
     5
 42
-1.0
  3
Standard
100
AcDbAlignedDimension
 13
949.0550406755327
 23
1641.660298728196
 33
0.0
 14
949.0550406755327
 24
2291.660298728197
 34
0.0
 50
270.0
100
AcDbRotatedDimension
1001
ACAD
1000
DSTYLE
1002
{
1070
    40
1040
20.0
1002
}
  0
DIMENSION
  5
7C2B
330
81B8
100
AcDbEntity
  8
3
100
AcDbDimension
  2
*D5
 10
700.9044473927787
 20
2319.660298728196
 30
0.0
 11
660.9044473927788
 21
2043.987676433645
 31
0.0
 12
1257.016300202718
 22
1751.562672278076
 32
0.0
 71
     5
 42
-1.0
  3
Standard
100
AcDbAlignedDimension
 13
949.0550406755327
 23
1641.660298728196
 33
0.0
 14
902.1620675725372
 24
2319.660298728196
 34
0.0
 50
270.0
100
AcDbRotatedDimension
1001
ACAD
1000
DSTYLE
1002
{
1070
    40
1040
20.0
1002
}
  0
POINT
  5
7C2C
330
81B8
100
AcDbEntity
  8
1
100
AcDbPoint
 10
1009.055040675532
 20
1339.660298728196
 30
0.0
  0
LINE
  5
7C2D
330
81B8
100
AcDbEntity
  8
2
100
AcDbLine
 10
2619.947189452861
 20
1836.660298728197
 30
0.0
 11
3343.853028097037
 21
1836.660298728197
 31
0.0
  0
LINE
  5
7C2F
330
81B8
100
AcDbEntity
  8
1
100
AcDbLine
 10
3001.947189452861
 20
2773.660298728197
 30
0.0
 11
3001.947189452861
 21
2347.660298728197
 31
0.0
  0
LINE
  5
7C30
330
81B8
100
AcDbEntity
  8
1
100
AcDbLine
 10
3001.947189452861
 20
2347.660298728197
 30
0.0
 11
3001.947189452861
 21
1979.160298728197
 31
0.0
  0
LINE
  5
7C31
330
81B8
100
AcDbEntity
  8
1
100
AcDbLine
 10
3901.947189452862
 20
2289.660298728196
 30
0.0
 11
3901.947189452862
 21
2189.660298728196
 31
0.0
  0
ARC
  5
7C32
330
81B8
100
AcDbEntity
  8
1
100
AcDbCircle
 10
3891.947189452862
 20
2289.660298728196
 30
0.0
 40
10.0
100
AcDbArc
 50
0.0
 51
90.0
  0
ARC
  5
7C33
330
81B8
100
AcDbEntity
  8
1
100
AcDbCircle
 10
3891.947189452862
 20
2189.660298728196
 30
0.0
 40
10.0
100
AcDbArc
 50
270.0
 51
0.0
  0
LINE
  5
7C34
330
81B8
100
AcDbEntity
  8
1
100
AcDbLine
 10
3801.947189452862
 20
2179.660298728196
 30
0.0
 11
3891.947189452862
 21
2179.660298728196
 31
0.0
  0
LINE
  5
7C35
330
81B8
100
AcDbEntity
  8
1
100
AcDbLine
 10
3801.947189452862
 20
2299.660298728197
 30
0.0
 11
3891.947189452862
 21
2299.660298728197
 31
0.0
  0
CIRCLE
  5
7C36
330
81B8
100
AcDbEntity
  8
1
100
AcDbCircle
 10
2259.055040675534
 20
1836.660298728197
 30
0.0
 40
79.0
  0
CIRCLE
  5
7C37
330
81B8
100
AcDbEntity
  8
1
100
AcDbCircle
 10
1409.055040675532
 20
2319.660298728196
 30
0.0
 40
88.9
  0
ARC
  5
7C38
330
81B8
100
AcDbEntity
  8
1
100
AcDbCircle
 10
1409.055040675532
 20
2319.660298728196
 30
0.0
 40
150.0
100
AcDbArc
 50
77.52830244339076
 51
257.5283024433907
  0
ARC
  5
7C39
330
81B8
100
AcDbEntity
  8
1
100
AcDbCircle
 10
2259.055040675534
 20
1836.660298728197
 30
0.0
 40
150.0
100
AcDbArc
 50
257.5283024433907
 51
77.52830244339076
  0
LINE
  5
7C3A
330
81B8
100
AcDbEntity
  8
1
100
AcDbLine
 10
1441.448639546832
 20
2466.120719156943
 30
0.0
 11
2291.448639546831
 21
1983.120719156943
 31
0.0
  0
LINE
  5
7C3B
330
81B8
100
AcDbEntity
  8
1
100
AcDbLine
 10
1429.239539342421
 20
2406.238563977428
 30
0.0
 11
2276.991771774341
 21
1913.597114866433
 31
0.0
  0
LINE
  5
7C3C
330
81B8
100
AcDbEntity
  8
1
100
AcDbLine
 10
1390.844809799904
 20
2232.645371896897
 30
0.0
 11
2242.872720774805
 21
1759.335448113206
 31
0.0
  0
LINE
  5
7C3D
330
81B8
100
AcDbEntity
  8
1
100
AcDbLine
 10
1376.661441804232
 20
2173.199878299449
 30
0.0
 11
2226.661441804233
 21
1690.199878299449
 31
0.0
  0
LINE
  5
7C3E
330
81B8
100
AcDbEntity
  8
1
100
AcDbLine
 10
2749.947189452863
 20
2408.560298728197
 30
0.0
 11
2749.947189452862
 21
2230.760298728196
 31
0.0
  0
LINE
  5
7C3F
330
81B8
100
AcDbEntity
  8
1
100
AcDbLine
 10
2831.947189452862
 20
2408.560298728197
 30
0.0
 11
2831.947189452861
 21
2230.760298728197
 31
0.0
  0
LINE
  5
7C40
330
81B8
100
AcDbEntity
  8
1
100
AcDbLine
 10
2749.947189452862
 20
2408.560298728197
 30
0.0
 11
2831.947189452862
 21
2408.560298728197
 31
0.0
  0
LINE
  5
7C41
330
81B8
100
AcDbEntity
  8
1
100
AcDbLine
 10
2749.947189452861
 20
2230.760298728196
 30
0.0
 11
2831.947189452861
 21
2230.760298728197
 31
0.0
  0
LINE
  5
7C42
330
81B8
100
AcDbEntity
  8
1
100
AcDbLine
 10
2749.947189452861
 20
1915.660298728196
 30
0.0
 11
2831.947189452861
 21
1915.660298728196
 31
0.0
  0
LINE
  5
7C43
330
81B8
100
AcDbEntity
  8
1
100
AcDbLine
 10
2749.94718945286
 20
1757.660298728197
 30
0.0
 11
2831.94718945286
 21
1757.660298728197
 31
0.0
  0
LINE
  5
7C44
330
81B8
100
AcDbEntity
  8
1
100
AcDbLine
 10
2621.947189452862
 20
2469.660298728197
 30
0.0
 11
2621.94718945286
 21
1686.660298728196
 31
0.0
  0
LINE
  5
7C45
330
81B8
100
AcDbEntity
  8
1
100
AcDbLine
 10
2881.947189452862
 20
2469.660298728197
 30
0.0
 11
2881.947189452862
 21
2449.660298728197
 31
0.0
  0
LINE
  5
7C46
330
81B8
100
AcDbEntity
  8
1
100
AcDbLine
 10
2621.947189452863
 20
2469.660298728197
 30
0.0
 11
2881.947189452862
 21
2469.660298728197
 31
0.0
  0
LINE
  5
7C47
330
81B8
100
AcDbEntity
  8
1
100
AcDbLine
 10
2621.94718945286
 20
1686.660298728196
 30
0.0
 11
2881.94718945286
 21
1686.660298728196
 31
0.0
  0
LINE
  5
7C48
330
81B8
100
AcDbEntity
  8
1
100
AcDbLine
 10
2881.94718945286
 20
1694.160298728196
 30
0.0
 11
2881.94718945286
 21
1686.660298728196
 31
0.0
  0
LINE
  5
7C49
330
81B8
100
AcDbEntity
  8
1
100
AcDbLine
 10
1809.055040675533
 20
4498.710584264268
 30
0.0
 11
1009.055040675532
 21
4498.71058426427
 31
0.0
  0
LINE
  5
7C4A
330
81B8
100
AcDbEntity
  8
1
100
AcDbLine
 10
2459.055040675533
 20
3492.710584264268
 30
0.0
 11
1009.055040675532
 21
3492.710584264269
 31
0.0
  0
LINE
  5
7C4B
330
81B8
100
AcDbEntity
  8
1
100
AcDbLine
 10
1009.055040675532
 20
4498.710584264268
 30
0.0
 11
1009.055040675532
 21
4445.710584264269
 31
0.0
  0
LINE
  5
7C4C
330
81B8
100
AcDbEntity
  8
1
100
AcDbLine
 10
1809.055040675533
 20
4498.710584264268
 30
0.0
 11
1809.055040675533
 21
4445.710584264269
 31
0.0
  0
LINE
  5
7C4D
330
81B8
100
AcDbEntity
  8
1
100
AcDbLine
 10
2459.055040675533
 20
4092.710584264266
 30
0.0
 11
2459.055040675533
 21
3492.710584264268
 31
0.0
  0
LINE
  5
7C4E
330
81B8
100
AcDbEntity
  8
1
100
AcDbLine
 10
2459.055040675533
 20
4092.710584264266
 30
0.0
 11
1957.055040675532
 21
4092.710584264266
 31
0.0
  0
POINT
  5
7C4F
330
81B8
100
AcDbEntity
  8
1
100
AcDbPoint
 10
1009.055040675532
 20
1439.660298728196
 30
0.0
  0
POINT
  5
7C50
330
81B8
100
AcDbEntity
  8
1
100
AcDbPoint
 10
1009.055040675532
 20
1339.660298728196
 30
0.0
  0
POINT
  5
7C51
330
81B8
100
AcDbEntity
  8
1
100
AcDbPoint
 10
1009.055040675532
 20
1439.660298728196
 30
0.0
  0
ARC
  5
7C56
330
81B8
100
AcDbEntity
  8
1
100
AcDbCircle
 10
2909.447189452861
 20
2286.460298728196
 30
0.0
 40
10.0
100
AcDbArc
 50
90.0
 51
180.0
  0
ARC
  5
7C57
330
81B8
100
AcDbEntity
  8
1
100
AcDbCircle
 10
2909.447189452861
 20
2186.460298728196
 30
0.0
 40
10.0
100
AcDbArc
 50
180.0
 51
270.0
  0
LINE
  5
7C58
330
81B8
100
AcDbEntity
  8
1
100
AcDbLine
 10
3001.947189452861
 20
2176.460298728196
 30
0.0
 11
2909.447189452861
 21
2176.460298728196
 31
0.0
  0
LINE
  5
7C59
330
81B8
100
AcDbEntity
  8
1
100
AcDbLine
 10
3001.947189452861
 20
2296.460298728196
 30
0.0
 11
2909.447189452861
 21
2296.460298728196
 31
0.0
  0
LINE
  5
7C5A
330
81B8
100
AcDbEntity
  8
1
100
AcDbLine
 10
2899.447189452861
 20
2286.460298728196
 30
0.0
 11
2899.447189452861
 21
2186.460298728196
 31
0.0
  0
LINE
  5
7C5B
330
81B8
100
AcDbEntity
  8
1
100
AcDbLine
 10
2831.947189452861
 20
2294.660298728196
 30
0.0
 11
2903.847189452862
 21
2294.660298728196
 31
0.0
  0
LINE
  5
7C5D
330
81B8
100
AcDbEntity
  8
1
100
AcDbLine
 10
1009.055040675532
 20
1619.660298728196
 30
0.0
 11
1009.055040675532
 21
1519.660298728196
 31
0.0
  0
LINE
  5
7C5E
330
81B8
100
AcDbEntity
  8
1
100
AcDbLine
 10
2459.055040675533
 20
1619.660298728196
 30
0.0
 11
1009.055040675532
 21
1619.660298728196
 31
0.0
1001
ACAD
1000
ASC_BOUNDS
1002
{
1070
    19
1005
0
1005
0
1002
}
  0
LINE
  5
7C5F
330
81B8
100
AcDbEntity
  8
1
100
AcDbLine
 10
2459.055040675533
 20
1519.660298728196
 30
0.0
 11
1009.055040675532
 21
1519.660298728196
 31
0.0
  0
LINE
  5
7C60
330
81B8
100
AcDbEntity
  8
1
100
AcDbLine
 10
2459.055040675533
 20
1619.660298728196
 30
0.0
 11
2459.055040675533
 21
1519.660298728196
 31
0.0
  0
LINE
  5
7C61
330
81B8
100
AcDbEntity
  8
1
100
AcDbLine
 10
2848.947189452862
 20
1619.660298728196
 30
0.0
 11
3854.247189452863
 21
1619.660298728196
 31
0.0
1001
ACAD
1000
ASC_BOUNDS
1002
{
1070
    19
1002
}
  0
LINE
  5
7C62
330
81B8
100
AcDbEntity
  8
1
100
AcDbLine
 10
2848.947189452862
 20
1619.660298728196
 30
0.0
 11
2848.947189452862
 21
1519.660298728196
 31
0.0
  0
LINE
  5
7C63
330
81B8
100
AcDbEntity
  8
1
100
AcDbLine
 10
2848.947189452862
 20
1519.660298728196
 30
0.0
 11
3854.947189452861
 21
1519.660298728196
 31
0.0
  0
LINE
  5
7C64
330
81B8
100
AcDbEntity
  8
1
100
AcDbLine
 10
3854.947189452862
 20
1619.660298728196
 30
0.0
 11
3854.947189452862
 21
1519.660298728196
 31
0.0
  0
ARC
  5
7C65
330
81B8
100
AcDbEntity
  8
1
100
AcDbCircle
 10
1409.055040675532
 20
2319.660298728196
 30
0.0
 40
378.0
100
AcDbArc
 50
180.0
 51
184.2480226667285
  0
LINE
  5
7C66
330
81B8
100
AcDbEntity
  8
1
100
AcDbLine
 10
1957.055040675532
 20
4445.710584264269
 30
0.0
 11
949.0550406755327
 21
4445.710584264269
 31
0.0
  0
LINE
  5
7C67
330
81B8
100
AcDbEntity
  8
1
100
AcDbLine
 10
1957.055040675532
 20
3645.71058426427
 30
0.0
 11
949.0550406755327
 21
3645.71058426427
 31
0.0
  0
LINE
  5
7C68
330
81B8
100
AcDbEntity
  8
1
100
AcDbLine
 10
949.0550406755327
 20
4485.710584264269
 30
0.0
 11
949.0550406755327
 21
3605.71058426427
 31
0.0
  0
LINE
  5
7C69
330
81B8
100
AcDbEntity
  8
1
100
AcDbLine
 10
1957.055040675532
 20
4445.710584264269
 30
0.0
 11
1957.055040675532
 21
3645.71058426427
 31
0.0
  0
LINE
  5
7C6A
330
81B8
100
AcDbEntity
  8
1
100
AcDbLine
 10
989.0550406755336
 20
4445.710584264269
 30
0.0
 11
989.0550406755327
 21
3645.71058426427
 31
0.0
  0
LINE
  5
7C6B
330
81B8
100
AcDbEntity
  8
1
100
AcDbLine
 10
1009.055040675532
 20
3645.71058426427
 30
0.0
 11
1009.055040675532
 21
3492.710584264269
 31
0.0
  0
LINE
  5
7C6C
330
81B8
100
AcDbEntity
  8
1
100
AcDbLine
 10
2338.055040675532
 20
3393.710584264268
 30
0.0
 11
2180.055040675533
 21
3393.710584264268
 31
0.0
  0
LINE
  5
7C6D
330
81B8
100
AcDbEntity
  8
1
100
AcDbLine
 10
2338.055040675532
 20
3475.710584264269
 30
0.0
 11
2180.055040675533
 21
3475.710584264269
 31
0.0
  0
LINE
  5
7C6E
330
81B8
100
AcDbEntity
  8
1
100
AcDbLine
 10
1320.155040675532
 20
3475.710584264269
 30
0.0
 11
1320.155040675532
 21
3393.710584264269
 31
0.0
  0
LINE
  5
7C6F
330
81B8
100
AcDbEntity
  8
1
100
AcDbLine
 10
1497.955040675533
 20
3475.710584264269
 30
0.0
 11
1497.955040675533
 21
3393.710584264269
 31
0.0
  0
LINE
  5
7C70
330
81B8
100
AcDbEntity
  8
1
100
AcDbLine
 10
2180.055040675533
 20
3475.710584264269
 30
0.0
 11
2180.055040675533
 21
3393.710584264268
 31
0.0
  0
LINE
  5
7C71
330
81B8
100
AcDbEntity
  8
1
100
AcDbLine
 10
2338.055040675532
 20
3475.710584264269
 30
0.0
 11
2338.055040675532
 21
3393.710584264268
 31
0.0
  0
LINE
  5
7C72
330
81B8
100
AcDbEntity
  8
1
100
AcDbLine
 10
2409.055040675533
 20
3265.710584264268
 30
0.0
 11
1259.055040675532
 21
3265.710584264269
 31
0.0
  0
LINE
  5
7C73
330
81B8
100
AcDbEntity
  8
1
100
AcDbLine
 10
1259.055040675532
 20
3525.710584264269
 30
0.0
 11
1259.055040675532
 21
3265.710584264269
 31
0.0
  0
LINE
  5
7C74
330
81B8
100
AcDbEntity
  8
1
100
AcDbLine
 10
2409.055040675533
 20
3525.710584264268
 30
0.0
 11
2409.055040675533
 21
3265.710584264268
 31
0.0
  0
LINE
  5
7C75
330
81B8
100
AcDbEntity
  8
1
100
AcDbLine
 10
2409.055040675533
 20
3525.710584264268
 30
0.0
 11
1259.055040675532
 21
3525.710584264269
 31
0.0
  0
LINE
  5
7C76
330
81B8
100
AcDbEntity
  8
1
100
AcDbLine
 10
1497.955040675533
 20
3475.710584264269
 30
0.0
 11
1320.155040675532
 21
3475.710584264269
 31
0.0
  0
LINE
  5
7C77
330
81B8
100
AcDbEntity
  8
1
100
AcDbLine
 10
1497.955040675533
 20
3393.710584264269
 30
0.0
 11
1320.155040675532
 21
3393.710584264269
 31
0.0
  0
LINE
  5
7C78
330
81B8
100
AcDbEntity
  8
2
100
AcDbLine
 10
2259.055040675534
 20
3954.301477430891
 30
0.0
 11
2259.055040675534
 21
3242.157300992572
 31
0.0
  0
LINE
  5
7C79
330
81B8
100
AcDbEntity
  8
1
100
AcDbLine
 10
2116.555040675533
 20
3912.710284264269
 30
0.0
 11
2401.555040675532
 21
3912.710284264269
 31
0.0
  0
LINE
  5
7C7A
330
81B8
100
AcDbEntity
  8
1
100
AcDbLine
 10
2116.555040675533
 20
3522.710584264268
 30
0.0
 11
2401.555040675532
 21
3522.710584264269
 31
0.0
  0
LINE
  5
7C7B
330
81B8
100
AcDbEntity
  8
1
100
AcDbLine
 10
2278.055040675532
 20
3522.710584264268
 30
0.0
 11
2278.055040675532
 21
3475.710584264269
 31
0.0
  0
LINE
  5
7C7C
330
81B8
100
AcDbEntity
  8
1
100
AcDbLine
 10
2240.055040675533
 20
3522.710584264268
 30
0.0
 11
2240.055040675533
 21
3475.710584264269
 31
0.0
  0
LINE
  5
7C7D
330
81B8
100
AcDbEntity
  8
1
100
AcDbLine
 10
2401.555040675532
 20
3912.710284264269
 30
0.0
 11
2401.555040675532
 21
3522.710584264269
 31
0.0
  0
LINE
  5
7C7E
330
81B8
100
AcDbEntity
  8
1
100
AcDbLine
 10
2116.555040675533
 20
3912.710284264269
 30
0.0
 11
2116.555040675533
 21
3522.710584264268
 31
0.0
  0
LINE
  5
7C7F
330
81B8
100
AcDbEntity
  8
1
100
AcDbLine
 10
1384.055040675532
 20
3645.71058426427
 30
0.0
 11
1384.055040675532
 21
3475.710584264269
 31
0.0
  0
LINE
  5
7C80
330
81B8
100
AcDbEntity
  8
1
100
AcDbLine
 10
1434.055040675533
 20
3645.71058426427
 30
0.0
 11
1434.055040675533
 21
3475.710584264269
 31
0.0
  0
LINE
  5
7C81
330
81B8
100
AcDbEntity
  8
1
100
AcDbLine
 10
2831.947189452862
 20
2344.660298728197
 30
0.0
 11
3001.947189452861
 21
2344.660298728197
 31
0.0
  0
CIRCLE
  5
7C82
330
81B8
100
AcDbEntity
  8
1
100
AcDbCircle
 10
1409.055040675532
 20
2319.660298728196
 30
0.0
 40
335.0
  0
CIRCLE
  5
7C83
330
81B8
100
AcDbEntity
  8
1
100
AcDbCircle
 10
1409.055040675532
 20
2319.660298728196
 30
0.0
 40
375.0
  0
LINE
  5
7C84
330
81B8
100
AcDbEntity
  8
1
100
AcDbLine
 10
2459.055040675532
 20
1659.660298728196
 30
0.0
 11
2059.055040675533
 21
1659.660298728196
 31
0.0
  0
POINT
  5
7C85
330
81B8
100
AcDbEntity
  8
1
100
AcDbPoint
 10
3901.947189452862
 20
2289.660298728196
 30
0.0
  0
POINT
  5
7C86
330
81B8
100
AcDbEntity
  8
1
100
AcDbPoint
 10
2463.464424613871
 20
2469.660298728197
 30
0.0
  0
DIMENSION
  5
7C88
330
81B8
100
AcDbEntity
  8
3
100
AcDbDimension
  2
*D9
 10
800.2630696769246
 20
4498.71058426427
 30
0.0
 11
760.2630696769246
 21
3995.710584264269
 31
0.0
 12
242.90010286084
 22
0.0
 32
0.0
 71
     5
 42
-1.0
  3
Standard
100
AcDbAlignedDimension
 13
1009.055040675532
 23
3492.710584264269
 33
0.0
 14
1009.055040675532
 24
4498.71058426427
 34
0.0
 50
270.0
100
AcDbRotatedDimension
1001
ACAD
1000
DSTYLE
1002
{
1070
    40
1040
20.0
1002
}
  0
DIMENSION
  5
7C89
330
81B8
100
AcDbEntity
  8
3
100
AcDbDimension
  2
*D10
 10
1009.055040675532
 20
4594.543070233767
 30
0.0
 11
1409.055040675532
 21
4634.543070233767
 31
0.0
 12
242.90010286084
 22
0.0
 32
0.0
 71
     5
 42
-1.0
  3
Standard
100
AcDbAlignedDimension
 13
1809.055040675533
 23
4498.710584264268
 33
0.0
 14
1009.055040675532
 24
4498.71058426427
 34
0.0
100
AcDbRotatedDimension
1001
ACAD
1000
DSTYLE
1002
{
1070
    40
1040
20.0
1002
}
  0
DIMENSION
  5
7C8A
330
81B8
100
AcDbEntity
  8
3
100
AcDbDimension
  2
*D11
 10
2609.482624550814
 20
3492.710584264268
 30
0.0
 11
2569.482624550813
 21
3845.483388793175
 31
0.0
 12
1257.016300202718
 22
1614.353374367532
 32
0.0
 71
     5
 42
-1.0
  3
Standard
100
AcDbAlignedDimension
 13
2459.055040675533
 23
4092.710584264266
 33
0.0
 14
2459.055040675533
 24
3492.710584264268
 34
0.0
 50
270.0
100
AcDbRotatedDimension
1001
ACAD
1000
DSTYLE
1002
{
1070
    40
1040
20.0
1002
}
  0
DIMENSION
  5
7C90
330
81B8
100
AcDbEntity
  8
3
100
AcDbDimension
  2
*D12
 10
949.0550406755327
 20
3039.707490938132
 30
0.0
 11
1704.055040675533
 21
3143.034868643582
 31
0.0
 12
242.90010286084
 22
-63.32737770544918
 32
0.0
 71
     5
 42
-1.0
  3
Standard
100
AcDbAlignedDimension
 13
2459.055040675533
 23
1659.660298728196
 33
0.0
 14
949.0550406755327
 24
2299.824991376233
 34
0.0
100
AcDbRotatedDimension
1001
ACAD
1000
DSTYLE
1002
{
1070
    40
1040
20.0
1002
}
  0
LINE
  5
7C91
330
81B8
100
AcDbEntity
  8
1
100
AcDbLine
 10
2878.947189452861
 20
1694.160298728196
 30
0.0
 11
2878.947189452861
 21
1979.160298728197
 31
0.0
  0
LINE
  5
7C92
330
81B8
100
AcDbEntity
  8
1
100
AcDbLine
 10
3268.947189452861
 20
1979.160298728197
 30
0.0
 11
2878.947189452861
 21
1979.160298728197
 31
0.0
  0
LINE
  5
7C93
330
81B8
100
AcDbEntity
  8
1
100
AcDbLine
 10
2878.947189452861
 20
1817.660298728196
 30
0.0
 11
2831.947189452862
 21
1817.660298728196
 31
0.0
  0
LINE
  5
7C94
330
81B8
100
AcDbEntity
  8
1
100
AcDbLine
 10
2878.947189452861
 20
1855.660298728196
 30
0.0
 11
2831.947189452862
 21
1855.660298728196
 31
0.0
  0
LINE
  5
7C95
330
81B8
100
AcDbEntity
  8
1
100
AcDbLine
 10
3268.94718945286
 20
1694.160298728196
 30
0.0
 11
2878.947189452861
 21
1694.160298728196
 31
0.0
  0
POINT
  5
7C96
330
81B8
100
AcDbEntity
  8
1
100
AcDbPoint
 10
1009.055040675532
 20
1439.660298728196
 30
0.0
  0
POINT
  5
7C97
330
81B8
100
AcDbEntity
  8
1
100
AcDbPoint
 10
1009.055040675532
 20
1519.660298728196
 30
0.0
  0
LINE
  5
7C98
330
81B8
100
AcDbEntity
  8
1
100
AcDbLine
 10
2831.94718945286
 20
1915.660298728196
 30
0.0
 11
2831.94718945286
 21
1757.660298728197
 31
0.0
  0
LINE
  5
7C99
330
81B8
100
AcDbEntity
  8
1
100
AcDbLine
 10
2749.947189452861
 20
1915.660298728196
 30
0.0
 11
2749.947189452859
 21
1757.660298728197
 31
0.0
  0
DIMENSION
  5
7CA0
330
81B8
100
AcDbEntity
  8
3
100
AcDbDimension
  2
*D16
 10
1409.055040675532
 20
2908.879223635093
 30
0.0
 11
1179.055040675532
 21
3012.206601340543
 31
0.0
 12
242.90010286084
 22
-63.32737770544918
 32
0.0
 71
     5
 42
-1.0
  3
Standard
100
AcDbAlignedDimension
 13
949.0550406755327
 23
2319.660298728196
 33
0.0
 14
1409.055040675532
 24
2775.378507702062
 34
0.0
100
AcDbRotatedDimension
1001
ACAD
1000
DSTYLE
1002
{
1070
    40
1040
20.0
1002
}
  0
DIMENSION
  5
7CA2
330
81B8
100
AcDbEntity
  8
3
100
AcDbDimension
  2
*D18
 10
593.4762882613904
 20
2319.660298728196
 30
0.0
 11
553.4762882613904
 21
2609.987676433645
 31
0.0
 12
1257.016300202718
 22
1751.562672278076
 32
0.0
 71
     5
 42
-1.0
  3
Standard
100
AcDbAlignedDimension
 13
1456.055040675533
 23
2773.660298728197
 33
0.0
 14
882.1620675725371
 24
2319.660298728196
 34
0.0
 50
270.0
100
AcDbRotatedDimension
1001
ACAD
1000
DSTYLE
1002
{
1070
    40
1040
20.0
1002
}
  0
LINE
  5
7CA6
330
81B8
100
AcDbEntity
  8
1
100
AcDbLine
 10
3001.947189452861
 20
2773.660298728197
 30
0.0
 11
3801.947189452862
 21
2773.660298728197
 31
0.0
  0
LINE
  5
7CA7
330
81B8
100
AcDbEntity
  8
1
100
AcDbLine
 10
3222.378095738361
 20
1641.660298728196
 30
0.0
 11
3801.947189452862
 21
1641.660298728196
 31
0.0
  0
LINE
  5
7CAC
330
81B8
100
AcDbEntity
  8
1
100
AcDbLine
 10
3268.947189452861
 20
1694.160298728196
 30
0.0
 11
3268.947189452861
 21
1979.160298728196
 31
0.0
  0
LINE
  5
7CAD
330
81B8
100
AcDbEntity
  8
1
100
AcDbLine
 10
3222.378095738361
 20
1694.160298728196
 30
0.0
 11
3222.378095738361
 21
1619.660298728196
 31
0.0
  0
LINE
  5
7CAE
330
81B8
100
AcDbEntity
  8
1
100
AcDbLine
 10
2946.272904198952
 20
1694.160298728196
 30
0.0
 11
2946.272904198952
 21
1619.660298728196
 31
0.0
  0
LINE
  5
7CAF
330
81B8
100
AcDbEntity
  8
1
100
AcDbLine
 10
2946.272904198952
 20
1659.660298728196
 30
0.0
 11
3222.378095738361
 21
1659.660298728196
 31
0.0
  0
LINE
  5
7F6D
330
81B8
100
AcDbEntity
  8
4
100
AcDbLine
 10
3700.0
 20
1000.0
 30
0.0
 11
3700.0
 21
600.0
 31
0.0
  0
LINE
  5
7F6E
330
81B8
100
AcDbEntity
  8
4
100
AcDbLine
 10
2300.0
 20
1000.0
 30
0.0
 11
2300.0
 21
600.0
 31
0.0
  0
LINE
  5
7F6F
330
81B8
100
AcDbEntity
  8
4
100
AcDbLine
 10
1300.0
 20
1000.0
 30
0.0
 11
1300.0
 21
600.0
 31
0.0
  0
LINE
  5
7F72
330
81B8
100
AcDbEntity
  8
4
100
AcDbLine
 10
1300.0
 20
600.0
 30
0.0
 11
3700.0
 21
600.0
 31
0.0
  0
LINE
  5
7F73
330
81B8
100
AcDbEntity
  8
4
100
AcDbLine
 10
1300.0
 20
800.0
 30
0.0
 11
3700.0
 21
800.0
 31
0.0
  0
TEXT
  5
7F74
330
81B8
100
AcDbEntity
  8
4
100
AcDbText
 10
1377.004161693803
 20
863.0860517332255
 30
0.0
 40
100.0
  1
機器名称
100
AcDbText
  0
TEXT
  5
7F75
330
81B8
100
AcDbEntity
  8
4
100
AcDbText
 10
1372.516212049595
 20
643.2903134640219
 30
0.0
 40
100.0
  1
機器型番
100
AcDbText
  0
TEXT
  5
7F76
330
81B8
100
AcDbEntity
  8
4
100
AcDbText
 10
2355.357490975329
 20
845.1435379151371
 30
0.0
 40
100.0
  1
ミツヤ多翼送風機
100
AcDbText
  0
TEXT
  5
7F77
330
81B8
100
AcDbEntity
  8
4
100
AcDbText
 10
2373.308991170961
 20
634.3191685598867
 30
0.0
 40
100.0
  1
MF#4-5
100
AcDbText
  0
TEXT
  5
7F79
330
81B8
100
AcDbEntity
  8
4
100
AcDbText
 10
1608.914910157378
 20
4766.857682665031
 30
0.0
 40
107.9999999999999
  1
床置防振ベット
100
AcDbText
  0
TEXT
  5
7F7A
330
81B8
100
AcDbEntity
  8
4
100
AcDbText
 10
632.3351866588928
 20
5067.761952398596
 30
0.0
 40
144.0
  1
遠心式両吸込両持多翼ファン
100
AcDbText
  0
LINE
  5
7F7B
330
81B8
100
AcDbEntity
  8
4
100
AcDbLine
 10
500.0
 20
4938.817508529609
 30
0.0
 11
3700.0
 21
4938.817508529609
 31
0.0
  0
LINE
  5
7F7C
330
81B8
100
AcDbEntity
  8
4
100
AcDbLine
 10
500.0
 20
5338.81750852961
 30
0.0
 11
3700.0
 21
5338.81750852961
 31
0.0
  0
LINE
  5
7F7D
330
81B8
100
AcDbEntity
  8
4
100
AcDbLine
 10
1300.0
 20
1000.0
 30
0.0
 11
3700.0
 21
1000.0
 31
0.0
  0
LINE
  5
7F7E
330
81B8
100
AcDbEntity
  8
4
100
AcDbLine
 10
500.0
 20
5338.81750852961
 30
0.0
 11
500.0
 21
4938.817508529609
 31
0.0
  0
TEXT
  5
7F7F
330
81B8
100
AcDbEntity
  8
4
100
AcDbText
 10
737.1972456719738
 20
4764.638955092687
 30
0.0
 40
107.9999999999999
  1
右回転左横向
100
AcDbText
  0
TEXT
  5
7F80
330
81B8
100
AcDbEntity
  8
4
100
AcDbText
 10
2937.939118498579
 20
5412.122162990619
 30
0.0
 40
112.0
  1
No.
100
AcDbText
  0
TEXT
  5
7F81
330
81B8
100
AcDbEntity
  8
4
100
AcDbText
 10
2622.592125200027
 20
4766.857682665031
 30
0.0
 40
107.9999999999999
  1
縮尺：1/20
100
AcDbText
  0
LINE
  5
7F82
330
81B8
100
AcDbEntity
  8
4
100
AcDbLine
 10
3700.0
 20
5338.81750852961
 30
0.0
 11
3700.0
 21
4938.817508529609
 31
0.0
  0
LINE
  5
7F83
330
81B8
100
AcDbEntity
  8
4
100
AcDbLine
 10
4200.0
 20
5900.0
 30
0.0
 11
4200.0
 21
5900.0
 31
0.0
  0
LINE
  5
7F84
330
81B8
100
AcDbEntity
  8
4
100
AcDbLine
 10
2881.234844719729
 20
5362.527166250802
 30
0.0
 11
2881.234844719729
 21
5573.304523099504
 31
0.0
  0
LINE
  5
7F85
330
81B8
100
AcDbEntity
  8
4
100
AcDbLine
 10
2881.234844719729
 20
5573.304523099504
 30
0.0
 11
3700.0
 21
5573.304523099504
 31
0.0
  0
LINE
  5
7F86
330
81B8
100
AcDbEntity
  8
4
100
AcDbLine
 10
3700.0
 20
5573.304523099504
 30
0.0
 11
3700.0
 21
5362.527166250802
 31
0.0
  0
LINE
  5
7F87
330
81B8
100
AcDbEntity
  8
4
100
AcDbLine
 10
3700.0
 20
5362.527166250802
 30
0.0
 11
2881.234844719729
 21
5362.527166250802
 31
0.0
  0
LINE
  5
7F88
330
81B8
100
AcDbEntity
  8
4
100
AcDbLine
 10
0.0
 20
0.0
 30
0.0
 11
0.0
 21
5900.0
 31
0.0
  0
LINE
  5
7F89
330
81B8
100
AcDbEntity
  8
4
100
AcDbLine
 10
0.0
 20
5900.0
 30
0.0
 11
4200.0
 21
5900.0
 31
0.0
  0
LINE
  5
7F8A
330
81B8
100
AcDbEntity
  8
4
100
AcDbLine
 10
4200.0
 20
5900.0
 30
0.0
 11
4200.0
 21
0.0
 31
0.0
  0
LINE
  5
7F8B
330
81B8
100
AcDbEntity
  8
4
100
AcDbLine
 10
4200.0
 20
0.0
 30
0.0
 11
0.0
 21
0.0
 31
0.0
  0
DIMENSION
  5
8206
330
81B8
100
AcDbEntity
  8
3
100
AcDbDimension
  2
*D29
 10
3401.947189452862
 20
3024.329631877439
 30
0.0
 11
3011.947189452862
 21
3090.043917591725
 31
0.0
 70
    32
  1
(<>)
 71
     5
 42
780.0
  3
IGA
100
AcDbAlignedDimension
 13
2621.947189452862
 23
2469.660298728197
 33
0.0
 14
3401.947189452862
 24
2915.245197106421
 34
0.0
100
AcDbRotatedDimension
1001
ACAD
1000
DSTYLE
1002
{
1070
    40
1040
20.0
1070
    42
1040
1.0
1070
   143
1040
0.039
1070
   172
1070
     1
1070
   271
1070
     4
1070
   272
1070
     4
1070
   279
1070
     0
1070
   284
1070
     0
1070
   285
1070
     0
1070
   286
1070
     0
1070
   341
1005
81CC
1070
   343
1005
81CC
1070
   344
1005
81CC
1002
}
  0
DIMENSION
  5
8213
330
81B8
100
AcDbEntity
  8
3
100
AcDbDimension
  2
*D30
 10
3901.947189452862
 20
3024.329631877439
 30
0.0
 11
3651.947189452862
 21
3090.043917591725
 31
0.0
 70
    32
  1
(<>)
 71
     5
 42
500.0
  3
IGA
100
AcDbAlignedDimension
 13
3401.947189452862
 23
2915.245197106421
 33
0.0
 14
3901.947189452862
 24
2289.660298728196
 34
0.0
100
AcDbRotatedDimension
1001
ACAD
1000
DSTYLE
1002
{
1070
    40
1040
20.0
1070
    42
1040
1.0
1070
   143
1040
0.039
1070
   172
1070
     1
1070
   271
1070
     4
1070
   272
1070
     4
1070
   279
1070
     1
1070
   284
1070
     0
1070
   285
1070
     0
1070
   286
1070
     0
1070
   341
1005
81CC
1070
   343
1005
81CC
1070
   344
1005
81CC
1002
}
  0
DIMENSION
  5
82E2
330
81B8
100
AcDbEntity
  8
3
100
AcDbDimension
  2
*D35
 10
3801.947189452862
 20
2843.613261558012
 30
0.0
 11
3401.947189452862
 21
2893.613261558012
 31
0.0
 70
    32
 71
     5
 42
800.0
  3
IGA
100
AcDbAlignedDimension
 13
3001.947189452861
 23
2773.660298728197
 33
0.0
 14
3801.947189452862
 24
2773.660298728197
 34
0.0
100
AcDbRotatedDimension
1001
ACAD
1000
DSTYLE
1002
{
1070
    40
1040
20.0
1070
    42
1040
1.0
1070
   143
1040
0.039
1070
   172
1070
     1
1070
   271
1070
     4
1070
   272
1070
     4
1070
   279
1070
     0
1070
   284
1070
     0
1070
   285
1070
     0
1070
   286
1070
     0
1070
   341
1005
81CC
1070
   343
1005
81CC
1070
   344
1005
81CC
1002
}
  0
DIMENSION
  5
8346
330
81B8
100
AcDbEntity
  8
3
100
AcDbDimension
  2
*D41
 10
4028.239519725524
 20
1984.660298728196
 30
0.0
 11
3978.239519725524
 21
2319.660298728197
 31
0.0
 70
    32
  1
\U+03C6<>
 71
     5
 42
670.0
  3
IGA
100
AcDbAlignedDimension
 13
3801.947189452862
 23
2654.660298728197
 33
0.0
 14
3801.947189452862
 24
1984.660298728196
 34
0.0
 50
90.0
100
AcDbRotatedDimension
1001
ACAD
1000
DSTYLE
1002
{
1070
    40
1040
20.0
1070
    42
1040
1.0
1070
   143
1040
0.039
1070
   172
1070
     1
1070
   271
1070
     4
1070
   272
1070
     4
1070
   279
1070
     0
1070
   284
1070
     0
1070
   285
1070
     0
1070
   286
1070
     0
1070
   341
1005
81CC
1070
   343
1005
81CC
1070
   344
1005
81CC
1002
}
  0
DIMENSION
  5
8365
330
81B8
100
AcDbEntity
  8
3
100
AcDbDimension
  2
*D42
 10
3401.947189452862
 20
1224.675650508457
 30
0.0
 11
3125.447189452862
 21
1274.675650508457
 31
0.0
 70
    32
 71
     5
 42
553.0
  3
IGA
100
AcDbAlignedDimension
 13
2848.947189452862
 23
1339.660298728196
 33
0.0
 14
3401.947189452862
 24
1339.660298728196
 34
0.0
100
AcDbRotatedDimension
1001
ACAD
1000
DSTYLE
1002
{
1070
    40
1040
20.0
1070
    42
1040
1.0
1070
   143
1040
0.039
1070
   172
1070
     1
1070
   271
1070
     4
1070
   272
1070
     4
1070
   279
1070
     0
1070
   284
1070
     0
1070
   285
1070
     0
1070
   286
1070
     0
1070
   341
1005
81CC
1070
   343
1005
81CC
1070
   344
1005
81CC
1002
}
  0
DIMENSION
  5
8372
330
81B8
100
AcDbEntity
  8
3
100
AcDbDimension
  2
*D43
 10
3854.947189452862
 20
1224.675650508457
 30
0.0
 11
3628.447189452862
 21
1274.675650508457
 31
0.0
 70
    32
 71
     5
 42
453.0
  3
IGA
100
AcDbAlignedDimension
 13
3401.947189452862
 23
1339.660298728196
 33
0.0
 14
3854.947189452862
 24
1339.660298728196
 34
0.0
100
AcDbRotatedDimension
1001
ACAD
1000
DSTYLE
1002
{
1070
    40
1040
20.0
1070
    42
1040
1.0
1070
   143
1040
0.039
1070
   172
1070
     1
1070
   271
1070
     4
1070
   272
1070
     4
1070
   279
1070
     1
1070
   284
1070
     0
1070
   285
1070
     0
1070
   286
1070
     0
1070
   341
1005
81CC
1070
   343
1005
81CC
1070
   344
1005
81CC
1002
}
  0
DIMENSION
  5
837F
330
81B8
100
AcDbEntity
  8
3
100
AcDbDimension
  2
*D44
 10
1409.055040675533
 20
1230.448579449179
 30
0.0
 11
1209.055040675532
 21
1280.448579449179
 31
0.0
 70
    32
 71
     5
 42
400.000000000001
  3
IGA
100
AcDbAlignedDimension
 13
1009.055040675532
 23
1339.660298728196
 33
0.0
 14
1409.055040675533
 24
1339.660298728196
 34
0.0
100
AcDbRotatedDimension
1001
ACAD
1000
DSTYLE
1002
{
1070
    40
1040
20.0
1070
    42
1040
1.0
1070
   143
1040
0.039
1070
   172
1070
     1
1070
   271
1070
     4
1070
   272
1070
     4
1070
   279
1070
     0
1070
   284
1070
     0
1070
   285
1070
     0
1070
   286
1070
     0
1070
   341
1005
81CC
1070
   343
1005
81CC
1070
   344
1005
81CC
1002
}
  0
DIMENSION
  5
838C
330
81B8
100
AcDbEntity
  8
3
100
AcDbDimension
  2
*D45
 10
2459.055040675533
 20
1230.448579449179
 30
0.0
 11
1934.055040675533
 21
1280.448579449179
 31
0.0
 70
    32
 71
     5
 42
1050.0
  3
IGA
100
AcDbAlignedDimension
 13
1409.055040675533
 23
1339.660298728196
 33
0.0
 14
2459.055040675533
 24
1339.660298728196
 34
0.0
100
AcDbRotatedDimension
1001
ACAD
1000
DSTYLE
1002
{
1070
    40
1040
20.0
1070
    42
1040
1.0
1070
   143
1040
0.039
1070
   172
1070
     1
1070
   271
1070
     4
1070
   272
1070
     4
1070
   279
1070
     1
1070
   284
1070
     0
1070
   285
1070
     0
1070
   286
1070
     0
1070
   341
1005
81CC
1070
   343
1005
81CC
1070
   344
1005
81CC
1002
}
  0
DIMENSION
  5
8399
330
81B8
100
AcDbEntity
  8
3
100
AcDbDimension
  2
*D46
 10
593.4762882613902
 20
1519.660298728196
 30
0.0
 11
543.47628826139
 21
1919.660298728196
 31
0.0
 70
    32
 71
     5
 42
800.0
  3
IGA
100
AcDbAlignedDimension
 13
902.1620675725372
 23
2319.660298728196
 33
0.0
 14
1009.055040675532
 24
1519.660298728196
 34
0.0
 50
90.0
100
AcDbRotatedDimension
1001
ACAD
1000
DSTYLE
1002
{
1070
    40
1040
20.0
1070
    42
1040
1.0
1070
   143
1040
0.039
1070
   172
1070
     1
1070
   271
1070
     4
1070
   272
1070
     4
1070
   279
1070
     0
1070
   284
1070
     0
1070
   285
1070
     0
1070
   286
1070
     0
1070
   341
1005
81CC
1070
   343
1005
81CC
1070
   344
1005
81CC
1002
}
  0
DIMENSION
  5
83A6
330
81B8
100
AcDbEntity
  8
3
100
AcDbDimension
  2
*D47
 10
593.4762882613902
 20
1439.660298728196
 30
0.0
 11
586.8096215947235
 21
1479.660298728196
 31
0.0
 70
   160
  1
(<>)
 71
     5
 42
80.0
  3
IGA
100
AcDbAlignedDimension
 13
1009.055040675532
 23
1519.660298728196
 33
0.0
 14
1009.055040675532
 24
1439.660298728196
 34
0.0
 50
90.0
100
AcDbRotatedDimension
1001
ACAD
1000
DSTYLE
1002
{
1070
    40
1040
20.0
1070
    42
1040
1.0
1070
   143
1040
0.039
1070
   172
1070
     1
1070
   271
1070
     4
1070
   272
1070
     4
1070
   279
1070
     1
1070
   284
1070
     0
1070
   285
1070
     0
1070
   286
1070
     0
1070
   341
1005
81CC
1070
   343
1005
81CC
1070
   344
1005
847F
1002
}
  0
DIMENSION
  5
83B8
330
81B8
100
AcDbEntity
  8
3
100
AcDbDimension
  2
*D48
 10
593.4762882613902
 20
1339.660298728196
 30
0.0
 11
583.9175239050237
 21
1248.400095471208
 31
0.0
 70
   160
 71
     5
 42
100.0
  3
IGA
100
AcDbAlignedDimension
 13
1009.055040675532
 23
1439.660298728196
 33
0.0
 14
1009.055040675532
 24
1339.660298728196
 34
0.0
 50
90.0
100
AcDbRotatedDimension
1001
ACAD
1000
DSTYLE
1002
{
1070
    40
1040
20.0
1070
    42
1040
1.0
1070
   143
1040
0.039
1070
   172
1070
     1
1070
   271
1070
     4
1070
   272
1070
     4
1070
   279
1070
     1
1070
   284
1070
     0
1070
   285
1070
     0
1070
   286
1070
     0
1070
   341
1005
81CC
1070
   343
1005
847F
1070
   344
1005
81CC
1002
}
  0
DIMENSION
  5
84E1
330
81B8
100
AcDbEntity
  8
3
100
AcDbDimension
  2
*D50
 10
425.3436046327261
 20
2773.660298728197
 30
0.0
 11
359.6293189184399
 21
2056.660298728197
 31
0.0
 70
    32
  1
(<>)
 71
     5
 42
1434.0
  3
IGA
100
AcDbAlignedDimension
 13
1009.055040675532
 23
1339.660298728196
 33
0.0
 14
1456.055040675533
 24
2773.660298728196
 34
0.0
 50
90.0
100
AcDbRotatedDimension
1001
ACAD
1000
DSTYLE
1002
{
1070
    40
1040
20.0
1070
    42
1040
1.0
1070
   143
1040
0.039
1070
   172
1070
     1
1070
   271
1070
     4
1070
   272
1070
     4
1070
   279
1070
     0
1070
   284
1070
     0
1070
   285
1070
     0
1070
   286
1070
     0
1070
   341
1005
81CC
1070
   343
1005
81CC
1070
   344
1005
81CC
1002
}
  0
DIMENSION
  5
8500
330
81B8
100
AcDbEntity
  8
3
100
AcDbDimension
  2
*D51
 10
1957.055040675532
 20
2908.879223635094
 30
0.0
 11
1683.055040675531
 21
2958.879223635094
 31
0.0
 70
    32
 71
     5
 42
548.0000000000002
  3
IGA
100
AcDbAlignedDimension
 13
1409.055040675532
 23
2775.378507702062
 33
0.0
 14
1957.055040675532
 24
2272.660298728196
 34
0.0
100
AcDbRotatedDimension
1001
ACAD
1000
DSTYLE
1002
{
1070
    40
1040
20.0
1070
    42
1040
1.0
1070
   143
1040
0.039
1070
   172
1070
     1
1070
   271
1070
     4
1070
   272
1070
     4
1070
   279
1070
     0
1070
   284
1070
     0
1070
   285
1070
     0
1070
   286
1070
     0
1070
   341
1005
81CC
1070
   343
1005
81CC
1070
   344
1005
81CC
1002
}
  0
DIMENSION
  5
8516
330
81B8
100
AcDbEntity
  8
3
100
AcDbDimension
  2
*D52
 10
2459.055040675533
 20
3159.843471575868
 30
0.0
 11
1734.055040675533
 21
3209.843471575869
 31
0.0
 70
    32
 71
     5
 42
1450.000000000001
  3
IGA
100
AcDbAlignedDimension
 13
1009.055040675532
 23
3492.710584264269
 33
0.0
 14
2459.055040675533
 24
3492.710584264268
 34
0.0
100
AcDbRotatedDimension
1001
ACAD
1000
DSTYLE
1002
{
1070
    40
1040
20.0
1070
    42
1040
1.0
1070
   143
1040
0.039
1070
   172
1070
     1
1070
   271
1070
     4
1070
   272
1070
     4
1070
   279
1070
     0
1070
   284
1070
     0
1070
   285
1070
     0
1070
   286
1070
     0
1070
   341
1005
81CC
1070
   343
1005
81CC
1070
   344
1005
81CC
1002
}
  0
DIMENSION
  5
8523
330
81B8
100
AcDbEntity
  8
3
100
AcDbDimension
  2
*D53
 10
2459.055040675533
 20
4594.543070233767
 30
0.0
 11
2134.055040675533
 21
4644.543070233767
 31
0.0
 70
    32
 71
     5
 42
650.0000000000004
  3
IGA
100
AcDbAlignedDimension
 13
1809.055040675533
 23
4498.710584264268
 33
0.0
 14
2459.055040675533
 24
4092.710584264266
 34
0.0
100
AcDbRotatedDimension
1001
ACAD
1000
DSTYLE
1002
{
1070
    40
1040
20.0
1070
    42
1040
1.0
1070
   143
1040
0.039
1070
   172
1070
     1
1070
   271
1070
     4
1070
   272
1070
     4
1070
   279
1070
     0
1070
   284
1070
     0
1070
   285
1070
     0
1070
   286
1070
     0
1070
   341
1005
81CC
1070
   343
1005
81CC
1070
   344
1005
81CC
1002
}
  0
ENDSEC
  0
SECTION
  2
OBJECTS
  0
DICTIONARY
  5
8155
330
0
100
AcDbDictionary
281
     1
  3
ACAD_CIP_PREVIOUS_PRODUCT_INFO
350
8202
  3
ACAD_COLOR
350
81AB
  3
ACAD_DETAILVIEWSTYLE
350
81B2
  3
ACAD_GROUP
350
8156
  3
ACAD_LAYOUT
350
81AA
  3
ACAD_MATERIAL
350
8159
  3
ACAD_MLEADERSTYLE
350
81AE
  3
ACAD_MLINESTYLE
350
81A7
  3
ACAD_PLOTSETTINGS
350
81A9
  3
ACAD_PLOTSTYLENAME
350
8157
  3
ACAD_SCALELIST
350
818B
  3
ACAD_SECTIONVIEWSTYLE
350
81B0
  3
ACAD_TABLESTYLE
350
81AC
  3
ACAD_VISUALSTYLE
350
8172
  3
ACDB_RECOMPOSE_DATA
350
8550
  3
AcDbVariableDictionary
350
8543
  3
DWGPROPS
350
8551
  0
DICTIONARY
  5
8539
330
819D
100
AcDbDictionary
280
     1
281
     1
  3
ADSK_XREC_LAYER_RECONCILED
360
853A
  0
DICTIONARY
  5
853B
330
81BC
100
AcDbDictionary
280
     1
281
     1
  3
ADSK_XREC_LAYER_RECONCILED
360
853C
  0
DICTIONARY
  5
853D
330
81BF
100
AcDbDictionary
280
     1
281
     1
  3
ADSK_XREC_LAYER_RECONCILED
360
853E
  0
DICTIONARY
  5
853F
330
81C0
100
AcDbDictionary
280
     1
281
     1
  3
ADSK_XREC_LAYER_RECONCILED
360
8540
  0
DICTIONARY
  5
8541
330
81C1
100
AcDbDictionary
280
     1
281
     1
  3
ADSK_XREC_LAYER_RECONCILED
360
8542
  0
DICTIONARY
  5
8343
330
81B8
100
AcDbDictionary
280
     1
281
     1
  3
ACAD_SORTENTS
360
8344
  0
XRECORD
  5
8202
102
{ACAD_REACTORS
330
8155
102
}
330
8155
100
AcDbXrecord
280
     1
300
ACDLT
300
2015
300
INVLTS_F_S
  0
DICTIONARY
  5
81AB
102
{ACAD_REACTORS
330
8155
102
}
330
8155
100
AcDbDictionary
281
     1
  0
DICTIONARY
  5
81B2
102
{ACAD_REACTORS
330
8155
102
}
330
8155
100
AcDbDictionary
281
     1
  3
Imperial24
350
81B3
  0
DICTIONARY
  5
8156
102
{ACAD_REACTORS
330
8155
102
}
330
8155
100
AcDbDictionary
281
     1
  0
DICTIONARY
  5
81AA
102
{ACAD_REACTORS
330
8155
102
}
330
8155
100
AcDbDictionary
281
     1
  3
Model
350
81BB
  3
レイアウト1
350
81B7
  0
DICTIONARY
  5
8159
102
{ACAD_REACTORS
330
8155
102
}
330
8155
100
AcDbDictionary
281
     1
  3
ByBlock
350
8162
  3
ByLayer
350
815A
  3
Global
350
816A
  0
DICTIONARY
  5
81AE
102
{ACAD_REACTORS
330
8155
102
}
330
8155
100
AcDbDictionary
281
     1
  3
Standard
350
81AF
  0
DICTIONARY
  5
81A7
102
{ACAD_REACTORS
330
8155
102
}
330
8155
100
AcDbDictionary
281
     1
  3
Standard
350
81A8
  0
DICTIONARY
  5
81A9
102
{ACAD_REACTORS
330
8155
102
}
330
8155
100
AcDbDictionary
281
     1
  0
ACDBDICTIONARYWDFLT
  5
8157
102
{ACAD_REACTORS
330
8155
102
}
330
8155
100
AcDbDictionary
281
     1
  3
Normal
350
8158
100
AcDbDictionaryWithDefault
340
8158
  0
DICTIONARY
  5
818B
102
{ACAD_REACTORS
330
8155
102
}
330
8155
100
AcDbDictionary
281
     1
  3
A0
350
818C
  3
A1
350
818D
  3
A2
350
818E
  3
A3
350
818F
  3
A4
350
8190
  3
A5
350
8191
  3
A6
350
8192
  3
A7
350
8193
  3
A8
350
8194
  3
A9
350
8195
  3
B0
350
8196
  3
B1
350
8197
  3
B2
350
8198
  3
B3
350
8199
  3
B4
350
819A
  3
B5
350
819B
  3
B6
350
819C
  0
DICTIONARY
  5
81B0
102
{ACAD_REACTORS
330
8155
102
}
330
8155
100
AcDbDictionary
281
     1
  3
Imperial24
350
81B1
  0
DICTIONARY
  5
81AC
102
{ACAD_REACTORS
330
8155
102
}
330
8155
100
AcDbDictionary
281
     1
  3
Standard
350
81AD
  0
DICTIONARY
  5
8172
102
{ACAD_REACTORS
330
8155
102
}
330
8155
100
AcDbDictionary
281
     1
  3
2dWireframe
350
8178
  3
Basic
350
8177
  3
Brighten
350
817E
  3
ColorChange
350
8182
  3
Conceptual
350
817B
  3
Dim
350
817D
  3
EdgeColorOff
350
818A
  3
Facepattern
350
8181
  3
Flat
350
8173
  3
FlatWithEdges
350
8174
  3
Gouraud
350
8175
  3
GouraudWithEdges
350
8176
  3
Hidden
350
817A
  3
JitterOff
350
8188
  3
Linepattern
350
8180
  3
OverhangOff
350
8189
  3
Realistic
350
817C
  3
Shaded
350
8187
  3
Shaded with edges
350
8186
  3
Shades of Gray
350
8183
  3
Sketchy
350
8184
  3
Thicken
350
817F
  3
Wireframe
350
8179
  3
X-Ray
350
8185
  0
XRECORD
  5
8550
102
{ACAD_REACTORS
330
8155
102
}
330
8155
100
AcDbXrecord
280
     1
 90
        1
330
81AD
  0
DICTIONARY
  5
8543
102
{ACAD_REACTORS
330
8155
102
}
330
8155
100
AcDbDictionary
281
     1
  3
CANNOSCALE
350
8548
  3
CMLEADERSTYLE
350
8545
  3
CTABLESTYLE
350
8544
  3
CVIEWDETAILSTYLE
350
8546
  3
CVIEWSECTIONSTYLE
350
8547
  3
DIMASSOC
350
854B
  3
INDEXCTL
350
854A
  3
SORTENTS
350
8549
  3
XCLIPFRAME
350
854C
  0
XRECORD
  5
8551
102
{ACAD_REACTORS
330
8155
102
}
330
8155
100
AcDbXrecord
280
     1
  1
DWGPROPS COOKIE
  2

  3

  4

  6

  7

  8
yasukiyo.ogawa
  9

300
=
301
=
302
=
303
=
304
=
305
=
306
=
307
=
308
=
309
=
 40
0.017930462962963
 41
2451387.483285764
 42
2460262.699193819
  1

 90
        0
  0
XRECORD
  5
853A
102
{ACAD_REACTORS
330
8539
102
}
330
8539
100
AcDbXrecord
280
     1
290
     1
  0
XRECORD
  5
853C
102
{ACAD_REACTORS
330
853B
102
}
330
853B
100
AcDbXrecord
280
     1
290
     1
  0
XRECORD
  5
853E
102
{ACAD_REACTORS
330
853D
102
}
330
853D
100
AcDbXrecord
280
     1
290
     1
  0
XRECORD
  5
8540
102
{ACAD_REACTORS
330
853F
102
}
330
853F
100
AcDbXrecord
280
     1
290
     1
  0
XRECORD
  5
8542
102
{ACAD_REACTORS
330
8541
102
}
330
8541
100
AcDbXrecord
280
     1
290
     1
  0
SORTENTSTABLE
  5
8344
102
{ACAD_REACTORS
330
8343
102
}
330
8343
100
AcDbSortentsTable
330
81B8
331
7F6D
  5
7F6F
331
7C75
  5
7C77
331
7C86
  5
7C88
331
7C0E
  5
7C10
331
7C97
  5
7C99
331
7C1F
  5
7C22
331
7F79
  5
7F7B
331
7C41
  5
7C43
331
7F8A
  5
8032
331
8213
  5
8342
331
7C63
  5
7C65
331
7C30
  5
7C32
331
7F6E
  5
7F72
331
7C76
  5
7C78
331
7C0F
  5
7C11
331
7C98
  5
7C9F
331
7C20
  5
7C23
331
7F8B
  5
803F
331
7F7A
  5
7F7C
331
7C42
  5
7C44
331
7C64
  5
7C66
331
7C31
  5
7C33
331
7BFE
  5
7BFE
331
7F6F
  5
7F73
331
7C77
  5
7C79
331
7C99
  5
7CA0
331
7C88
  5
7C8A
331
7C10
  5
7C13
331
7F7B
  5
7F7D
331
7C43
  5
7C45
331
7C32
  5
7C34
331
7C65
  5
7C67
331
7BFF
  5
7BFF
331
7C78
  5
7C7A
331
7C89
  5
7C90
331
7C11
  5
7C14
331
7F7C
  5
7F7E
331
7C44
  5
7C46
331
7C33
  5
7C35
331
7C22
  5
7C24
331
7C66
  5
7C68
331
7C00
  5
7C00
331
7C8A
  5
7C91
331
7C79
  5
7C7B
331
7CAC
  5
7CAE
331
7C34
  5
7C36
331
7C23
  5
7C25
331
7F7D
  5
7F7F
331
7C45
  5
7C47
331
7C67
  5
7C69
331
7C56
  5
7C58
331
7C01
  5
7C01
331
7C68
  5
7C6A
331
7C7A
  5
7C7C
331
8206
  5
82E2
331
7CAD
  5
7CAF
331
7C35
  5
7C37
331
7C24
  5
7C26
331
7C13
  5
7C15
331
7F7E
  5
7F80
331
7C46
  5
7C48
331
7C57
  5
7C59
331
7C02
  5
7C02
331
7C69
  5
7C6B
331
7C58
  5
7C5A
331
7C7B
  5
7C7D
331
7CAE
  5
7F6D
331
7C36
  5
7C38
331
7C25
  5
7C27
331
7C14
  5
7C16
331
7F7F
  5
7F81
331
7C47
  5
7C49
331
7C03
  5
7C03
331
7F80
  5
7F82
331
7C48
  5
7C4A
331
7C6A
  5
7C6C
331
7C59
  5
7C5B
331
7C7C
  5
7C7E
331
7CAF
  5
7F6E
331
7C37
  5
7C39
331
7C26
  5
7C28
331
7C15
  5
7C17
331
7C04
  5
7C04
331
7F81
  5
7F83
331
7C49
  5
7C4B
331
7C38
  5
7C3A
331
7C5A
  5
7C5D
331
7C6B
  5
7C6D
331
7C7D
  5
7C7F
331
7C27
  5
7C2A
331
7C16
  5
7C18
331
7C05
  5
7C05
331
7CA0
  5
7CA2
331
7C28
  5
7C2B
331
7F82
  5
7F84
331
7C4A
  5
7C4C
331
7C39
  5
7C3B
331
7C6C
  5
7C6E
331
7C5B
  5
7C5E
331
7C7E
  5
7C80
331
7C17
  5
7C19
331
7C06
  5
7C06
331
7C90
  5
7C92
331
7C18
  5
7C1A
331
7F72
  5
7F74
331
7F83
  5
7F85
331
7C4B
  5
7C4D
331
7C3A
  5
7C3C
331
7C6D
  5
7C6F
331
7C7F
  5
7C81
331
7C07
  5
7C07
331
7C80
  5
7C82
331
7C91
  5
7C93
331
7C19
  5
7C1B
331
7CA2
  5
7CA5
331
7C2A
  5
7C2C
331
7F73
  5
7F75
331
7F84
  5
7F86
331
7C4C
  5
7C4E
331
7C6E
  5
7C70
331
7C5D
  5
7C5F
331
7C3B
  5
7C3D
331
7C08
  5
7C08
331
7C70
  5
7C72
331
7C81
  5
7C83
331
7C92
  5
7C94
331
7C1A
  5
7C1C
331
7C2B
  5
7C2D
331
7F74
  5
7F76
331
7F85
  5
7F87
331
7C4D
  5
7C4F
331
82E2
  5
8345
331
7C6F
  5
7C71
331
7C5E
  5
7C60
331
7C3C
  5
7C3E
331
7C09
  5
7C09
331
7C71
  5
7C73
331
7C82
  5
7C84
331
7C93
  5
7C95
331
7C1B
  5
7C1D
331
7F75
  5
7F77
331
7C3D
  5
7C3F
331
7C2C
  5
7C2F
331
7F86
  5
7F88
331
7C5F
  5
7C61
331
7C4E
  5
7C50
331
7C0A
  5
7C0A
331
7C72
  5
7C74
331
7C83
  5
7C85
331
7C94
  5
7C96
331
7C1C
  5
7C1E
331
7C2D
  5
7C30
331
7F76
  5
7F79
331
7F87
  5
7F89
331
7C4F
  5
7C51
331
7C60
  5
7C62
331
7C3E
  5
7C40
331
7C0B
  5
7C0B
331
7C73
  5
7C75
331
7C84
  5
7C86
331
7C0C
  5
7C0E
331
7CA6
  5
7CAC
331
7C95
  5
7C97
331
7C1D
  5
7C1F
331
7F77
  5
7F7A
331
7F88
  5
7F8A
331
7C50
  5
7C52
331
7C61
  5
7C63
331
7C3F
  5
7C41
331
7C74
  5
7C76
331
7C85
  5
7C87
331
7C0D
  5
7C0F
331
7C96
  5
7C98
331
7C1E
  5
7C20
331
7CA7
  5
7CAD
331
7F89
  5
7F8B
331
7C51
  5
7C56
331
7C40
  5
7C42
331
7C62
  5
7C64
331
7C2F
  5
7C31
331
7BFC
  5
7BFC
  0
ACDBDETAILVIEWSTYLE
  5
81B3
102
{ACAD_XDICTIONARY
360
8589
102
}
102
{ACAD_REACTORS
330
81B2
102
}
330
81B2
100
AcDbModelDocViewStyle
 70
     0
  3
Imperial24
290
     0
100
AcDbDetailViewStyle
 70
     0
 71
     0
 90
        3
 71
     1
340
819E
 40
0.24
340
0
 40
0.24
300

 40
0.36
280
     3
 71
     2
340
81A5
 90
       25
 71
     3
340
819E
 40
0.24
 90
        1
 40
0.75
 90
        1
300
%<\AcVar ViewType \f "%tc1">% %<\AcVar ViewDetailId>%\PSCALE %<\AcVar ViewScale \f "%sn">%
 71
     4
340
81A5
 90
       25
340
81A5
 90
       25
280
     0
  0
LAYOUT
  5
81BB
102
{ACAD_XDICTIONARY
360
858D
102
}
102
{ACAD_REACTORS
330
81AA
102
}
330
81AA
100
AcDbPlotSettings
  1

  2
RICOH imagio MP W3600 RPCS
  4

  6

 40
0.0
 41
0.0
 42
0.0
 43
0.0
 44
0.0
 45
0.0
 46
0.0
 47
0.0
 48
0.0
 49
0.0
140
0.0
141
0.0
142
1.0
143
1.0
 70
  1712
 72
     0
 73
     0
 74
     0
  7

 75
     0
147
1.0
148
0.0
149
0.0
100
AcDbLayout
  1
Model
 70
     1
 71
     0
 10
0.0
 20
0.0
 11
12.0
 21
9.0
 12
0.0
 22
0.0
 32
0.0
 14
0.0
 24
0.0
 34
0.0
 15
0.0
 25
0.0
 35
0.0
146
0.0
 13
0.0
 23
0.0
 33
0.0
 16
1.0
 26
0.0
 36
0.0
 17
0.0
 27
1.0
 37
0.0
 76
     0
330
81B8
331
81BD
  0
LAYOUT
  5
81B7
102
{ACAD_XDICTIONARY
360
858B
102
}
102
{ACAD_REACTORS
330
81AA
102
}
330
81AA
100
AcDbPlotSettings
  1

  2
RICOH imagio MP W3600 RPCS
  4

  6

 40
0.0
 41
0.0
 42
0.0
 43
0.0
 44
0.0
 45
0.0
 46
0.0
 47
0.0
 48
0.0
 49
0.0
140
0.0
141
0.0
142
1.0
143
1.0
 70
   688
 72
     0
 73
     0
 74
     5
  7

 75
    16
147
1.0
148
0.0
149
0.0
100
AcDbLayout
  1
レイアウト1
 70
     1
 71
     1
 10
0.0
 20
0.0
 11
12.0
 21
9.0
 12
0.0
 22
0.0
 32
0.0
 14
1.000000000000000E+20
 24
1.000000000000000E+20
 34
1.000000000000000E+20
 15
-1.000000000000000E+20
 25
-1.000000000000000E+20
 35
-1.000000000000000E+20
146
0.0
 13
0.0
 23
0.0
 33
0.0
 16
1.0
 26
0.0
 36
0.0
 17
0.0
 27
1.0
 37
0.0
 76
     0
330
81B4
  0
MATERIAL
  5
8162
102
{ACAD_XDICTIONARY
360
8163
102
}
102
{ACAD_REACTORS
330
8159
102
}
330
8159
100
AcDbMaterial
  1
ByBlock
 72
     0
 43
0.0208333333333333
 43
0.0
 43
0.0
 43
0.0
 43
0.0
 43
0.0208333333333333
 43
0.0
 43
0.0
 43
0.0
 43
0.0
 43
1.0
 43
0.0
 43
0.0
 43
0.0
 43
0.0
 43
1.0
 77
     0
 47
0.0208333333333333
 47
0.0
 47
0.0
 47
0.0
 47
0.0
 47
0.0208333333333333
 47
0.0
 47
0.0
 47
0.0
 47
0.0
 47
1.0
 47
0.0
 47
0.0
 47
0.0
 47
0.0
 47
1.0
171
     0
 49
0.0208333333333333
 49
0.0
 49
0.0
 49
0.0
 49
0.0
 49
0.0208333333333333
 49
0.0
 49
0.0
 49
0.0
 49
0.0
 49
1.0
 49
0.0
 49
0.0
 49
0.0
 49
0.0
 49
1.0
175
     0
142
0.0208333333333333
142
0.0
142
0.0
142
0.0
142
0.0
142
0.0208333333333333
142
0.0
142
0.0
142
0.0
142
0.0
142
1.0
142
0.0
142
0.0
142
0.0
142
0.0
142
1.0
179
     0
144
0.0208333333333333
144
0.0
144
0.0
144
0.0
144
0.0
144
0.0208333333333333
144
0.0
144
0.0
144
0.0
144
0.0
144
1.0
144
0.0
144
0.0
144
0.0
144
0.0
144
1.0
147
0.0208333333333333
147
0.0
147
0.0
147
0.0
147
0.0
147
0.0208333333333333
147
0.0
147
0.0
147
0.0
147
0.0
147
1.0
147
0.0
147
0.0
147
0.0
147
0.0
147
1.0
  0
MATERIAL
  5
815A
102
{ACAD_XDICTIONARY
360
815B
102
}
102
{ACAD_REACTORS
330
8159
102
}
330
8159
100
AcDbMaterial
  1
ByLayer
 72
     0
 43
0.0208333333333333
 43
0.0
 43
0.0
 43
0.0
 43
0.0
 43
0.0208333333333333
 43
0.0
 43
0.0
 43
0.0
 43
0.0
 43
1.0
 43
0.0
 43
0.0
 43
0.0
 43
0.0
 43
1.0
 77
     0
 47
0.0208333333333333
 47
0.0
 47
0.0
 47
0.0
 47
0.0
 47
0.0208333333333333
 47
0.0
 47
0.0
 47
0.0
 47
0.0
 47
1.0
 47
0.0
 47
0.0
 47
0.0
 47
0.0
 47
1.0
171
     0
 49
0.0208333333333333
 49
0.0
 49
0.0
 49
0.0
 49
0.0
 49
0.0208333333333333
 49
0.0
 49
0.0
 49
0.0
 49
0.0
 49
1.0
 49
0.0
 49
0.0
 49
0.0
 49
0.0
 49
1.0
175
     0
142
0.0208333333333333
142
0.0
142
0.0
142
0.0
142
0.0
142
0.0208333333333333
142
0.0
142
0.0
142
0.0
142
0.0
142
1.0
142
0.0
142
0.0
142
0.0
142
0.0
142
1.0
179
     0
144
0.0208333333333333
144
0.0
144
0.0
144
0.0
144
0.0
144
0.0208333333333333
144
0.0
144
0.0
144
0.0
144
0.0
144
1.0
144
0.0
144
0.0
144
0.0
144
0.0
144
1.0
147
0.0208333333333333
147
0.0
147
0.0
147
0.0
147
0.0
147
0.0208333333333333
147
0.0
147
0.0
147
0.0
147
0.0
147
1.0
147
0.0
147
0.0
147
0.0
147
0.0
147
1.0
  0
MATERIAL
  5
816A
102
{ACAD_XDICTIONARY
360
816B
102
}
102
{ACAD_REACTORS
330
8159
102
}
330
8159
100
AcDbMaterial
  1
Global
 72
     0
 43
0.0208333333333333
 43
0.0
 43
0.0
 43
0.0
 43
0.0
 43
0.0208333333333333
 43
0.0
 43
0.0
 43
0.0
 43
0.0
 43
1.0
 43
0.0
 43
0.0
 43
0.0
 43
0.0
 43
1.0
 77
     0
 47
0.0208333333333333
 47
0.0
 47
0.0
 47
0.0
 47
0.0
 47
0.0208333333333333
 47
0.0
 47
0.0
 47
0.0
 47
0.0
 47
1.0
 47
0.0
 47
0.0
 47
0.0
 47
0.0
 47
1.0
171
     0
 49
0.0208333333333333
 49
0.0
 49
0.0
 49
0.0
 49
0.0
 49
0.0208333333333333
 49
0.0
 49
0.0
 49
0.0
 49
0.0
 49
1.0
 49
0.0
 49
0.0
 49
0.0
 49
0.0
 49
1.0
175
     0
142
0.0208333333333333
142
0.0
142
0.0
142
0.0
142
0.0
142
0.0208333333333333
142
0.0
142
0.0
142
0.0
142
0.0
142
1.0
142
0.0
142
0.0
142
0.0
142
0.0
142
1.0
179
     0
144
0.0208333333333333
144
0.0
144
0.0
144
0.0
144
0.0
144
0.0208333333333333
144
0.0
144
0.0
144
0.0
144
0.0
144
1.0
144
0.0
144
0.0
144
0.0
144
0.0
144
1.0
147
0.0208333333333333
147
0.0
147
0.0
147
0.0
147
0.0
147
0.0208333333333333
147
0.0
147
0.0
147
0.0
147
0.0
147
1.0
147
0.0
147
0.0
147
0.0
147
0.0
147
1.0
  0
MLEADERSTYLE
  5
81AF
102
{ACAD_REACTORS
330
81AE
102
}
330
81AE
100
AcDbMLeaderStyle
170
     2
171
     1
172
     0
 90
        2
 40
0.0
 41
0.0
173
     1
 91
-1056964608
340
81A3
 92
       -2
290
     1
 42
0.09
291
     1
 43
0.36
  3
Standard
 44
0.18
300

342
819E
174
     1
178
     6
175
     1
176
     0
 93
-1056964608
 45
0.18
292
     0
297
     0
 46
0.18
 94
-1056964608
 47
1.0
 49
1.0
140
1.0
293
     1
141
0.0
294
     1
177
     0
142
1.0
295
     0
296
     0
143
0.125
1001
ACAD_MLEADERVER
1070
     2
  0
MLINESTYLE
  5
81A8
102
{ACAD_REACTORS
330
81A7
102
}
330
81A7
100
AcDbMlineStyle
  2
STANDARD
 70
     0
  3

 62
   256
 51
90.0
 52
90.0
 71
     2
 49
0.5
 62
   256
  6
BYLAYER
 49
-0.5
 62
   256
  6
BYLAYER
  0
ACDBPLACEHOLDER
  5
8158
102
{ACAD_REACTORS
330
8157
102
}
330
8157
  0
SCALE
  5
818C
102
{ACAD_REACTORS
330
818B
102
}
330
818B
100
AcDbScale
 70
     0
300
1:1
140
1.0
141
1.0
290
     1
  0
SCALE
  5
818D
102
{ACAD_REACTORS
330
818B
102
}
330
818B
100
AcDbScale
 70
     0
300
1/128" = 1'-0"
140
0.0078125
141
12.0
290
     0
  0
SCALE
  5
818E
102
{ACAD_REACTORS
330
818B
102
}
330
818B
100
AcDbScale
 70
     0
300
1/64" = 1'-0"
140
0.015625
141
12.0
290
     0
  0
SCALE
  5
818F
102
{ACAD_REACTORS
330
818B
102
}
330
818B
100
AcDbScale
 70
     0
300
1/32" = 1'-0"
140
0.03125
141
12.0
290
     0
  0
SCALE
  5
8190
102
{ACAD_REACTORS
330
818B
102
}
330
818B
100
AcDbScale
 70
     0
300
1/16" = 1'-0"
140
0.0625
141
12.0
290
     0
  0
SCALE
  5
8191
102
{ACAD_REACTORS
330
818B
102
}
330
818B
100
AcDbScale
 70
     0
300
3/32" = 1'-0"
140
0.09375
141
12.0
290
     0
  0
SCALE
  5
8192
102
{ACAD_REACTORS
330
818B
102
}
330
818B
100
AcDbScale
 70
     0
300
1/8" = 1'-0"
140
0.125
141
12.0
290
     0
  0
SCALE
  5
8193
102
{ACAD_REACTORS
330
818B
102
}
330
818B
100
AcDbScale
 70
     0
300
3/16" = 1'-0"
140
0.1875
141
12.0
290
     0
  0
SCALE
  5
8194
102
{ACAD_REACTORS
330
818B
102
}
330
818B
100
AcDbScale
 70
     0
300
1/4" = 1'-0"
140
0.25
141
12.0
290
     0
  0
SCALE
  5
8195
102
{ACAD_REACTORS
330
818B
102
}
330
818B
100
AcDbScale
 70
     0
300
3/8" = 1'-0"
140
0.375
141
12.0
290
     0
  0
SCALE
  5
8196
102
{ACAD_REACTORS
330
818B
102
}
330
818B
100
AcDbScale
 70
     0
300
1/2" = 1'-0"
140
0.5
141
12.0
290
     0
  0
SCALE
  5
8197
102
{ACAD_REACTORS
330
818B
102
}
330
818B
100
AcDbScale
 70
     0
300
3/4" = 1'-0"
140
0.75
141
12.0
290
     0
  0
SCALE
  5
8198
102
{ACAD_REACTORS
330
818B
102
}
330
818B
100
AcDbScale
 70
     0
300
1" = 1'-0"
140
1.0
141
12.0
290
     0
  0
SCALE
  5
8199
102
{ACAD_REACTORS
330
818B
102
}
330
818B
100
AcDbScale
 70
     0
300
1-1/2" = 1'-0"
140
1.5
141
12.0
290
     0
  0
SCALE
  5
819A
102
{ACAD_REACTORS
330
818B
102
}
330
818B
100
AcDbScale
 70
     0
300
3" = 1'-0"
140
3.0
141
12.0
290
     0
  0
SCALE
  5
819B
102
{ACAD_REACTORS
330
818B
102
}
330
818B
100
AcDbScale
 70
     0
300
6" = 1'-0"
140
6.0
141
12.0
290
     0
  0
SCALE
  5
819C
102
{ACAD_REACTORS
330
818B
102
}
330
818B
100
AcDbScale
 70
     0
300
1'-0" = 1'-0"
140
12.0
141
12.0
290
     0
  0
ACDBSECTIONVIEWSTYLE
  5
81B1
102
{ACAD_XDICTIONARY
360
8587
102
}
102
{ACAD_REACTORS
330
81B0
102
}
330
81B0
100
AcDbModelDocViewStyle
 70
     0
  3
Imperial24
290
     0
100
AcDbSectionViewStyle
 70
     0
 71
     0
 90
       78
 71
     1
340
819E
 40
0.24
340
0
340
0
 40
0.24
300
I, O, Q, S, X, Z
 40
0.48
 90
        3
 40
0.18
 90
        1
 71
     2
340
81A5
 90
       25
340
81A5
 90
       50
 40
0.24
 40
0.0
 40
0.24
 71
     3
340
819E
 40
0.24
 90
        1
 40
0.75
 90
        1
300
%<\AcVar ViewType \f "%tc1">% %<\AcVar ViewSectionStartId>%-%<\AcVar ViewSectionEndId>%\PSCALE %<\AcVar ViewScale \f "%sn">%
 71
     4
300
ANSI31
 40
1.0
 90
        0
290
     0
290
     0
 90
        6
 40
0.0
 40
1.570796326794896
 40
0.2617993877991494
 40
1.308996938995747
 40
-0.2617993877991494
 40
1.832595714594046
  0
TABLESTYLE
  5
81AD
102
{ACAD_XDICTIONARY
360
854E
102
}
102
{ACAD_REACTORS
330
81AC
102
}
330
81AC
100
AcDbTableStyle
  3
Standard
 70
     0
 71
     0
 40
0.06
 41
0.06
280
     0
281
     0
  7
STANDARD
140
0.18
170
     2
 62
     0
 63
     7
283
     0
274
    -2
284
     1
 64
     0
275
    -2
285
     1
 65
     0
276
    -2
286
     1
 66
     0
277
    -2
287
     1
 67
     0
278
    -2
288
     1
 68
     0
279
    -2
289
     1
 69
     0
  7
STANDARD
140
0.25
170
     5
 62
     0
 63
     7
283
     0
274
    -2
284
     1
 64
     0
275
    -2
285
     1
 65
     0
276
    -2
286
     1
 66
     0
277
    -2
287
     1
 67
     0
278
    -2
288
     1
 68
     0
279
    -2
289
     1
 69
     0
  7
STANDARD
140
0.18
170
     5
 62
     0
 63
     7
283
     0
274
    -2
284
     1
 64
     0
275
    -2
285
     1
 65
     0
276
    -2
286
     1
 66
     0
277
    -2
287
     1
 67
     0
278
    -2
288
     1
 68
     0
279
    -2
289
     1
 69
     0
  0
VISUALSTYLE
  5
8178
102
{ACAD_XDICTIONARY
360
855F
102
}
102
{ACAD_REACTORS
330
8172
102
}
330
8172
100
AcDbVisualStyle
  2
2dWireframe
 70
     4
 71
     0
 72
     2
 73
     0
 90
        0
 40
-0.6
 41
-30.0
 62
     5
 63
     7
 74
     1
 91
        4
 64
     7
 65
   257
 75
     1
175
     1
 42
1.0
 92
        0
 66
   257
 43
1.0
 76
     1
 77
     6
 78
     2
 67
     7
 79
     5
170
     0
171
     0
290
     0
174
     0
 93
        1
 44
0.0
173
     0
291
     0
 45
0.0
1001
ACAD
1000
AcDbSavedByObjectVersion
1070
     0
  0
VISUALSTYLE
  5
8177
102
{ACAD_XDICTIONARY
360
855D
102
}
102
{ACAD_REACTORS
330
8172
102
}
330
8172
100
AcDbVisualStyle
  2
Basic
 70
     7
 71
     1
 72
     0
 73
     1
 90
        0
 40
-0.6
 41
-30.0
 62
     5
 63
     7
 74
     0
 91
        4
 64
     7
 65
   257
 75
     1
175
     1
 42
1.0
 92
        8
 66
     7
 43
1.0
 76
     1
 77
     6
 78
     2
 67
     7
 79
     5
170
     0
171
     0
290
     0
174
     0
 93
        1
 44
0.0
173
     0
291
     1
 45
0.0
1001
ACAD
1000
AcDbSavedByObjectVersion
1070
     0
  0
VISUALSTYLE
  5
817E
102
{ACAD_XDICTIONARY
360
856B
102
}
102
{ACAD_REACTORS
330
8172
102
}
330
8172
100
AcDbVisualStyle
  2
Brighten
 70
    12
 71
     2
 72
     2
 73
     0
 90
        0
 40
-0.6
 41
-30.0
 62
     5
 63
     7
 74
     1
 91
        4
 64
     7
 65
   257
 75
     1
175
     1
 42
1.0
 92
        8
 66
     7
 43
1.0
 76
     1
 77
     6
 78
     2
 67
     7
 79
     5
170
     0
171
     0
290
     0
174
     0
 93
        1
 44
50.0
173
     0
291
     1
 45
0.0
1001
ACAD
1000
AcDbSavedByObjectVersion
1070
     0
  0
VISUALSTYLE
  5
8182
102
{ACAD_XDICTIONARY
360
8573
102
}
102
{ACAD_REACTORS
330
8172
102
}
330
8172
100
AcDbVisualStyle
  2
ColorChange
 70
    16
 71
     2
 72
     2
 73
     3
 90
        0
 40
-0.6
 41
-30.0
 62
     5
 63
     8
 74
     1
 91
        4
 64
     7
 65
   257
 75
     1
175
     1
 42
1.0
 92
        8
 66
     8
 43
1.0
 76
     1
 77
     6
 78
     2
 67
     7
 79
     5
170
     0
171
     0
290
     0
174
     0
 93
        1
 44
0.0
173
     0
291
     1
 45
0.0
1001
ACAD
1000
AcDbSavedByObjectVersion
1070
     0
  0
VISUALSTYLE
  5
817B
102
{ACAD_XDICTIONARY
360
8565
102
}
102
{ACAD_REACTORS
330
8172
102
}
330
8172
100
AcDbVisualStyle
  2
Conceptual
 70
     9
 71
     3
 72
     2
 73
     0
 90
        0
 40
-0.6
 41
-30.0
 62
     5
 63
     7
 74
     2
 91
        2
 64
     7
 65
   257
 75
     1
175
     1
 42
179.0
 92
        8
 66
     7
 43
1.0
 76
     1
 77
     6
 78
     2
 67
     7
 79
     3
170
     0
171
     0
290
     0
174
     0
 93
        1
 44
0.0
173
     0
291
     0
 45
0.0
1001
ACAD
1000
AcDbSavedByObjectVersion
1070
     0
  0
VISUALSTYLE
  5
817D
102
{ACAD_XDICTIONARY
360
8569
102
}
102
{ACAD_REACTORS
330
8172
102
}
330
8172
100
AcDbVisualStyle
  2
Dim
 70
    11
 71
     2
 72
     2
 73
     0
 90
        0
 40
-0.6
 41
-30.0
 62
     5
 63
     7
 74
     1
 91
        4
 64
     7
 65
   257
 75
     1
175
     1
 42
1.0
 92
        8
 66
     7
 43
1.0
 76
     1
 77
     6
 78
     2
 67
     7
 79
     5
170
     0
171
     0
290
     0
174
     0
 93
        1
 44
-50.0
173
     0
291
     1
 45
0.0
1001
ACAD
1000
AcDbSavedByObjectVersion
1070
     0
  0
VISUALSTYLE
  5
818A
102
{ACAD_XDICTIONARY
360
8583
102
}
102
{ACAD_REACTORS
330
8172
102
}
330
8172
100
AcDbVisualStyle
  2
EdgeColorOff
 70
    22
 71
     2
 72
     2
 73
     0
 90
        0
 40
-0.6
 41
-30.0
 62
     5
 63
     7
 74
     1
 91
        4
 64
     7
 65
   257
 75
     1
175
     1
 42
1.0
 92
        8
 66
     7
 43
1.0
 76
     1
 77
     6
 78
     2
 67
     7
 79
     5
170
     0
171
     0
290
     0
174
     0
 93
        1
 44
0.0
173
     0
291
     1
 45
0.0
1001
ACAD
1000
AcDbSavedByObjectVersion
1070
     0
  0
VISUALSTYLE
  5
8181
102
{ACAD_XDICTIONARY
360
8571
102
}
102
{ACAD_REACTORS
330
8172
102
}
330
8172
100
AcDbVisualStyle
  2
Facepattern
 70
    15
 71
     2
 72
     2
 73
     0
 90
        0
 40
-0.6
 41
-30.0
 62
     5
 63
     7
 74
     1
 91
        4
 64
     7
 65
   257
 75
     1
175
     1
 42
1.0
 92
        8
 66
     7
 43
1.0
 76
     1
 77
     6
 78
     2
 67
     7
 79
     5
170
     0
171
     0
290
     0
174
     0
 93
        1
 44
0.0
173
     0
291
     1
 45
0.0
1001
ACAD
1000
AcDbSavedByObjectVersion
1070
     0
  0
VISUALSTYLE
  5
8173
102
{ACAD_XDICTIONARY
360
8555
102
}
102
{ACAD_REACTORS
330
8172
102
}
330
8172
100
AcDbVisualStyle
  2
Flat
 70
     0
 71
     2
 72
     1
 73
     1
 90
        2
 40
-0.6
 41
30.0
 62
     5
 63
     7
 74
     0
 91
        0
 64
     7
 65
   257
 75
     1
175
     1
 42
1.0
 92
        8
 66
     7
 43
1.0
 76
     1
 77
     6
 78
     2
 67
     7
 79
     5
170
     0
171
     0
290
     0
174
     0
 93
       13
 44
0.0
173
     0
291
     1
 45
0.0
1001
ACAD
1000
AcDbSavedByObjectVersion
1070
     0
  0
VISUALSTYLE
  5
8174
102
{ACAD_XDICTIONARY
360
8557
102
}
102
{ACAD_REACTORS
330
8172
102
}
330
8172
100
AcDbVisualStyle
  2
FlatWithEdges
 70
     1
 71
     2
 72
     1
 73
     1
 90
        2
 40
-0.6
 41
30.0
 62
     5
 63
     7
 74
     1
 91
        0
 64
     7
 65
   257
 75
     1
175
     1
 42
1.0
 92
        0
 66
   257
 43
1.0
 76
     1
 77
     6
 78
     2
 67
     7
 79
     5
170
     0
171
     0
290
     0
174
     0
 93
       13
 44
0.0
173
     0
291
     1
 45
0.0
1001
ACAD
1000
AcDbSavedByObjectVersion
1070
     0
  0
VISUALSTYLE
  5
8175
102
{ACAD_XDICTIONARY
360
8559
102
}
102
{ACAD_REACTORS
330
8172
102
}
330
8172
100
AcDbVisualStyle
  2
Gouraud
 70
     2
 71
     2
 72
     2
 73
     1
 90
        2
 40
-0.6
 41
30.0
 62
     5
 63
     7
 74
     0
 91
        0
 64
     7
 65
   257
 75
     1
175
     1
 42
1.0
 92
        0
 66
     7
 43
1.0
 76
     1
 77
     6
 78
     2
 67
     7
 79
     5
170
     0
171
     0
290
     0
174
     0
 93
       13
 44
0.0
173
     0
291
     1
 45
0.0
1001
ACAD
1000
AcDbSavedByObjectVersion
1070
     0
  0
VISUALSTYLE
  5
8176
102
{ACAD_XDICTIONARY
360
855B
102
}
102
{ACAD_REACTORS
330
8172
102
}
330
8172
100
AcDbVisualStyle
  2
GouraudWithEdges
 70
     3
 71
     2
 72
     2
 73
     1
 90
        2
 40
-0.6
 41
30.0
 62
     5
 63
     7
 74
     1
 91
        0
 64
     7
 65
   257
 75
     1
175
     1
 42
1.0
 92
        0
 66
   257
 43
1.0
 76
     1
 77
     6
 78
     2
 67
     7
 79
     5
170
     0
171
     0
290
     0
174
     0
 93
       13
 44
0.0
173
     0
291
     1
 45
0.0
1001
ACAD
1000
AcDbSavedByObjectVersion
1070
     0
  0
VISUALSTYLE
  5
817A
102
{ACAD_XDICTIONARY
360
8563
102
}
102
{ACAD_REACTORS
330
8172
102
}
330
8172
100
AcDbVisualStyle
  2
Hidden
 70
     6
 71
     1
 72
     2
 73
     2
 90
        0
 40
-0.6
 41
-30.0
 62
     5
 63
     7
 74
     2
 91
        2
 64
     7
 65
   257
 75
     2
175
     1
 42
40.0
 92
        0
 66
   257
 43
1.0
 76
     1
 77
     6
 78
     2
 67
     7
 79
     3
170
     0
171
     0
290
     0
174
     0
 93
        1
 44
0.0
173
     0
291
     0
 45
0.0
1001
ACAD
1000
AcDbSavedByObjectVersion
1070
     0
  0
VISUALSTYLE
  5
8188
102
{ACAD_XDICTIONARY
360
857F
102
}
102
{ACAD_REACTORS
330
8172
102
}
330
8172
100
AcDbVisualStyle
  2
JitterOff
 70
    20
 71
     2
 72
     2
 73
     0
 90
        0
 40
-0.6
 41
-30.0
 62
     5
 63
     7
 74
     1
 91
        4
 64
     7
 65
   257
 75
     1
175
     1
 42
1.0
 92
       10
 66
     7
 43
1.0
 76
     1
 77
     6
 78
     2
 67
     7
 79
     5
170
     0
171
     0
290
     0
174
     0
 93
        1
 44
0.0
173
     0
291
     1
 45
0.0
1001
ACAD
1000
AcDbSavedByObjectVersion
1070
     0
  0
VISUALSTYLE
  5
8180
102
{ACAD_XDICTIONARY
360
856F
102
}
102
{ACAD_REACTORS
330
8172
102
}
330
8172
100
AcDbVisualStyle
  2
Linepattern
 70
    14
 71
     2
 72
     2
 73
     0
 90
        0
 40
-0.6
 41
-30.0
 62
     5
 63
     7
 74
     1
 91
        4
 64
     7
 65
   257
 75
     7
175
     7
 42
1.0
 92
        8
 66
     7
 43
1.0
 76
     1
 77
     6
 78
     2
 67
     7
 79
     5
170
     0
171
     0
290
     0
174
     0
 93
        1
 44
0.0
173
     0
291
     1
 45
0.0
1001
ACAD
1000
AcDbSavedByObjectVersion
1070
     0
  0
VISUALSTYLE
  5
8189
102
{ACAD_XDICTIONARY
360
8581
102
}
102
{ACAD_REACTORS
330
8172
102
}
330
8172
100
AcDbVisualStyle
  2
OverhangOff
 70
    21
 71
     2
 72
     2
 73
     0
 90
        0
 40
-0.6
 41
-30.0
 62
     5
 63
     7
 74
     1
 91
        4
 64
     7
 65
   257
 75
     1
175
     1
 42
1.0
 92
        9
 66
     7
 43
1.0
 76
     1
 77
     6
 78
     2
 67
     7
 79
     5
170
     0
171
     0
290
     0
174
     0
 93
        1
 44
0.0
173
     0
291
     1
 45
0.0
1001
ACAD
1000
AcDbSavedByObjectVersion
1070
     0
  0
VISUALSTYLE
  5
817C
102
{ACAD_XDICTIONARY
360
8567
102
}
102
{ACAD_REACTORS
330
8172
102
}
330
8172
100
AcDbVisualStyle
  2
Realistic
 70
     8
 71
     2
 72
     3
 73
     0
 90
        2
 40
-0.6
 41
30.0
 62
     5
 63
     7
 74
     0
 91
        0
 64
     7
 65
   257
 75
     1
175
     1
 42
1.0
 92
        8
 66
   257
 43
1.0
 76
     1
 77
     6
 78
     2
 67
     7
 79
     3
170
     0
171
     0
290
     0
174
     0
 93
       13
 44
0.0
173
     0
291
     0
 45
0.0
1001
ACAD
1000
AcDbSavedByObjectVersion
1070
     0
  0
VISUALSTYLE
  5
8187
102
{ACAD_XDICTIONARY
360
857D
102
}
102
{ACAD_REACTORS
330
8172
102
}
330
8172
100
AcDbVisualStyle
  2
Shaded
 70
    27
 71
     2
 72
     2
 73
     1
 90
        2
 40
-0.6
 41
30.0
 62
     5
 63
     7
 74
     0
 91
        4
 64
     7
 65
   257
 75
     1
175
     1
 42
1.0
 92
        8
 66
   257
 43
1.0
 76
     1
 77
     6
 78
     2
 67
     8
 79
     3
170
     0
171
     0
290
     0
174
     0
 93
        5
 44
0.0
173
     0
291
     0
 45
0.0
1001
ACAD
1000
AcDbSavedByObjectVersion
1070
     0
  0
VISUALSTYLE
  5
8186
102
{ACAD_XDICTIONARY
360
857B
102
}
102
{ACAD_REACTORS
330
8172
102
}
330
8172
100
AcDbVisualStyle
  2
Shaded with edges
 70
    26
 71
     2
 72
     2
 73
     1
 90
        2
 40
-0.6
 41
30.0
 62
     5
 63
     7
 74
     1
 91
       10
 64
     7
 65
   257
 75
     2
175
     1
 42
1.0
 92
        8
 66
   257
 43
1.0
 76
     1
 77
     6
 78
     2
 67
     7
 79
     3
170
     0
171
     0
290
     0
174
     0
 93
        5
 44
0.0
173
     0
291
     0
 45
0.0
1001
ACAD
1000
AcDbSavedByObjectVersion
1070
     0
  0
VISUALSTYLE
  5
8183
102
{ACAD_XDICTIONARY
360
8575
102
}
102
{ACAD_REACTORS
330
8172
102
}
330
8172
100
AcDbVisualStyle
  2
Shades of Gray
 70
    23
 71
     2
 72
     2
 73
     3
 90
        0
 40
-0.6
 41
-30.0
 62
     5
 63
     7
 74
     2
 91
        2
 64
     7
 65
     7
 75
     1
175
     1
 42
40.0
 92
        8
 66
     7
 43
1.0
 76
     1
 77
     6
 78
     2
 67
     7
 79
     3
170
     0
171
     0
290
     0
174
     0
 93
        1
 44
0.0
173
     0
291
     0
 45
0.0
1001
ACAD
1000
AcDbSavedByObjectVersion
1070
     0
  0
VISUALSTYLE
  5
8184
102
{ACAD_XDICTIONARY
360
8577
102
}
102
{ACAD_REACTORS
330
8172
102
}
330
8172
100
AcDbVisualStyle
  2
Sketchy
 70
    24
 71
     1
 72
     2
 73
     2
 90
        0
 40
-0.6
 41
-30.0
 62
     5
 63
     7
 74
     2
 91
        2
 64
     7
 65
     7
 75
     1
175
     1
 42
40.0
 92
       11
 66
     7
 43
1.0
 76
     1
 77
     6
 78
     2
 67
     7
 79
     6
170
     0
171
     0
290
     0
174
     0
 93
        1
 44
0.0
173
     0
291
     0
 45
0.0
1001
ACAD
1000
AcDbSavedByObjectVersion
1070
     0
  0
VISUALSTYLE
  5
817F
102
{ACAD_XDICTIONARY
360
856D
102
}
102
{ACAD_REACTORS
330
8172
102
}
330
8172
100
AcDbVisualStyle
  2
Thicken
 70
    13
 71
     2
 72
     2
 73
     0
 90
        0
 40
-0.6
 41
-30.0
 62
     5
 63
     7
 74
     1
 91
        4
 64
     7
 65
   257
 75
     1
175
     1
 42
1.0
 92
       12
 66
     7
 43
1.0
 76
     1
 77
     6
 78
     2
 67
     7
 79
     5
170
     0
171
     0
290
     0
174
     0
 93
        1
 44
0.0
173
     0
291
     1
 45
0.0
1001
ACAD
1000
AcDbSavedByObjectVersion
1070
     0
  0
VISUALSTYLE
  5
8179
102
{ACAD_XDICTIONARY
360
8561
102
}
102
{ACAD_REACTORS
330
8172
102
}
330
8172
100
AcDbVisualStyle
  2
Wireframe
 70
     5
 71
     0
 72
     2
 73
     0
 90
        0
 40
-0.6
 41
-30.0
 62
     5
 63
     7
 74
     1
 91
        4
 64
     7
 65
   257
 75
     1
175
     1
 42
1.0
 92
        0
 66
   257
 43
1.0
 76
     1
 77
     6
 78
     2
 67
     7
 79
     3
170
     0
171
     0
290
     0
174
     0
 93
        1
 44
0.0
173
     0
291
     0
 45
0.0
1001
ACAD
1000
AcDbSavedByObjectVersion
1070
     0
  0
VISUALSTYLE
  5
8185
102
{ACAD_XDICTIONARY
360
8579
102
}
102
{ACAD_REACTORS
330
8172
102
}
330
8172
100
AcDbVisualStyle
  2
X-Ray
 70
    25
 71
     2
 72
     2
 73
     1
 90
        1
 40
0.5
 41
-30.0
 62
     5
 63
     7
 74
     1
 91
        0
 64
     7
 65
   257
 75
     1
175
     1
 42
1.0
 92
        8
 66
     7
 43
1.0
 76
     1
 77
     6
 78
     2
 67
     7
 79
     3
170
     0
171
     0
290
     0
174
     0
 93
       13
 44
0.0
173
     0
291
     0
 45
0.0
1001
ACAD
1000
AcDbSavedByObjectVersion
1070
     0
  0
DICTIONARYVAR
  5
8548
102
{ACAD_REACTORS
330
8543
102
}
330
8543
100
DictionaryVariables
280
     0
  1
1:1
  0
DICTIONARYVAR
  5
8545
102
{ACAD_REACTORS
330
8543
102
}
330
8543
100
DictionaryVariables
280
     0
  1
STANDARD
  0
DICTIONARYVAR
  5
8544
102
{ACAD_REACTORS
330
8543
102
}
330
8543
100
DictionaryVariables
280
     0
  1
STANDARD
  0
DICTIONARYVAR
  5
8546
102
{ACAD_REACTORS
330
8543
102
}
330
8543
100
DictionaryVariables
280
     0
  1
Imperial24
  0
DICTIONARYVAR
  5
8547
102
{ACAD_REACTORS
330
8543
102
}
330
8543
100
DictionaryVariables
280
     0
  1
Imperial24
  0
DICTIONARYVAR
  5
854B
102
{ACAD_REACTORS
330
8543
102
}
330
8543
100
DictionaryVariables
280
     0
  1
1
  0
DICTIONARYVAR
  5
854A
102
{ACAD_REACTORS
330
8543
102
}
330
8543
100
DictionaryVariables
280
     0
  1
0
  0
DICTIONARYVAR
  5
8549
102
{ACAD_REACTORS
330
8543
102
}
330
8543
100
DictionaryVariables
280
     0
  1
127
  0
DICTIONARYVAR
  5
854C
102
{ACAD_REACTORS
330
8543
102
}
330
8543
100
DictionaryVariables
280
     0
  1
2
  0
DICTIONARY
  5
8589
330
81B3
100
AcDbDictionary
280
     1
281
     1
  3
ACAD_XREC_ROUNDTRIP
360
858A
  0
DICTIONARY
  5
858D
330
81BB
100
AcDbDictionary
280
     1
281
     1
  3
ACAD_XREC_ROUNDTRIP
360
858E
  0
DICTIONARY
  5
858B
330
81B7
100
AcDbDictionary
280
     1
281
     1
  3
ACAD_XREC_ROUNDTRIP
360
858C
  0
DICTIONARY
  5
8163
330
8162
100
AcDbDictionary
280
     1
281
     1
  3
ACAD_XREC_ROUNDTRIP
360
8553
  3
BUMPTILE
360
8165
  3
DIFFUSETILE
360
8164
  3
OPACITYTILE
360
8168
  3
REFLECTIONTILE
360
8167
  3
REFRACTIONTILE
360
8169
  3
SPECULARTILE
360
8166
  0
DICTIONARY
  5
815B
330
815A
100
AcDbDictionary
280
     1
281
     1
  3
ACAD_XREC_ROUNDTRIP
360
8552
  3
BUMPTILE
360
815D
  3
DIFFUSETILE
360
815C
  3
OPACITYTILE
360
8160
  3
REFLECTIONTILE
360
815F
  3
REFRACTIONTILE
360
8161
  3
SPECULARTILE
360
815E
  0
DICTIONARY
  5
816B
330
816A
100
AcDbDictionary
280
     1
281
     1
  3
ACAD_XREC_ROUNDTRIP
360
8554
  3
BUMPTILE
360
816D
  3
DIFFUSETILE
360
816C
  3
FBXASSET
360
8203
  3
OPACITYTILE
360
8170
  3
REFLECTIONTILE
360
816F
  3
REFRACTIONTILE
360
8171
  3
SPECULARTILE
360
816E
  0
DICTIONARY
  5
8587
330
81B1
100
AcDbDictionary
280
     1
281
     1
  3
ACAD_XREC_ROUNDTRIP
360
8588
  0
DICTIONARY
  5
854E
330
81AD
100
AcDbDictionary
280
     1
281
     1
  3
ACAD_ROUNDTRIP_2008_TABLESTYLE_CELLSTYLEMAP
360
854F
  3
ACAD_XREC_ROUNDTRIP
360
8585
  0
DICTIONARY
  5
855F
330
8178
100
AcDbDictionary
280
     1
281
     1
  3
ACAD_XREC_ROUNDTRIP
360
8560
  0
DICTIONARY
  5
855D
330
8177
100
AcDbDictionary
280
     1
281
     1
  3
ACAD_XREC_ROUNDTRIP
360
855E
  0
DICTIONARY
  5
856B
330
817E
100
AcDbDictionary
280
     1
281
     1
  3
ACAD_XREC_ROUNDTRIP
360
856C
  0
DICTIONARY
  5
8573
330
8182
100
AcDbDictionary
280
     1
281
     1
  3
ACAD_XREC_ROUNDTRIP
360
8574
  0
DICTIONARY
  5
8565
330
817B
100
AcDbDictionary
280
     1
281
     1
  3
ACAD_XREC_ROUNDTRIP
360
8566
  0
DICTIONARY
  5
8569
330
817D
100
AcDbDictionary
280
     1
281
     1
  3
ACAD_XREC_ROUNDTRIP
360
856A
  0
DICTIONARY
  5
8583
330
818A
100
AcDbDictionary
280
     1
281
     1
  3
ACAD_XREC_ROUNDTRIP
360
8584
  0
DICTIONARY
  5
8571
330
8181
100
AcDbDictionary
280
     1
281
     1
  3
ACAD_XREC_ROUNDTRIP
360
8572
  0
DICTIONARY
  5
8555
330
8173
100
AcDbDictionary
280
     1
281
     1
  3
ACAD_XREC_ROUNDTRIP
360
8556
  0
DICTIONARY
  5
8557
330
8174
100
AcDbDictionary
280
     1
281
     1
  3
ACAD_XREC_ROUNDTRIP
360
8558
  0
DICTIONARY
  5
8559
330
8175
100
AcDbDictionary
280
     1
281
     1
  3
ACAD_XREC_ROUNDTRIP
360
855A
  0
DICTIONARY
  5
855B
330
8176
100
AcDbDictionary
280
     1
281
     1
  3
ACAD_XREC_ROUNDTRIP
360
855C
  0
DICTIONARY
  5
8563
330
817A
100
AcDbDictionary
280
     1
281
     1
  3
ACAD_XREC_ROUNDTRIP
360
8564
  0
DICTIONARY
  5
857F
330
8188
100
AcDbDictionary
280
     1
281
     1
  3
ACAD_XREC_ROUNDTRIP
360
8580
  0
DICTIONARY
  5
856F
330
8180
100
AcDbDictionary
280
     1
281
     1
  3
ACAD_XREC_ROUNDTRIP
360
8570
  0
DICTIONARY
  5
8581
330
8189
100
AcDbDictionary
280
     1
281
     1
  3
ACAD_XREC_ROUNDTRIP
360
8582
  0
DICTIONARY
  5
8567
330
817C
100
AcDbDictionary
280
     1
281
     1
  3
ACAD_XREC_ROUNDTRIP
360
8568
  0
DICTIONARY
  5
857D
330
8187
100
AcDbDictionary
280
     1
281
     1
  3
ACAD_XREC_ROUNDTRIP
360
857E
  0
DICTIONARY
  5
857B
330
8186
100
AcDbDictionary
280
     1
281
     1
  3
ACAD_XREC_ROUNDTRIP
360
857C
  0
DICTIONARY
  5
8575
330
8183
100
AcDbDictionary
280
     1
281
     1
  3
ACAD_XREC_ROUNDTRIP
360
8576
  0
DICTIONARY
  5
8577
330
8184
100
AcDbDictionary
280
     1
281
     1
  3
ACAD_XREC_ROUNDTRIP
360
8578
  0
DICTIONARY
  5
856D
330
817F
100
AcDbDictionary
280
     1
281
     1
  3
ACAD_XREC_ROUNDTRIP
360
856E
  0
DICTIONARY
  5
8561
330
8179
100
AcDbDictionary
280
     1
281
     1
  3
ACAD_XREC_ROUNDTRIP
360
8562
  0
DICTIONARY
  5
8579
330
8185
100
AcDbDictionary
280
     1
281
     1
  3
ACAD_XREC_ROUNDTRIP
360
857A
  0
XRECORD
  5
858A
102
{ACAD_REACTORS
330
8589
102
}
330
8589
100
AcDbXrecord
280
     1
102
DISPLAYNAME
  1
Imperial24
102
FLAGS
 90
        0
  0
XRECORD
  5
858E
102
{ACAD_REACTORS
330
858D
102
}
330
858D
100
AcDbXrecord
280
     1
102
SHADEPLOT
 70
     0
102
SHADEPLOTRESLEVEL
 70
     2
102
SHADEPLOTCUSTOMDPI
 70
   300
  0
XRECORD
  5
858C
102
{ACAD_REACTORS
330
858B
102
}
330
858B
100
AcDbXrecord
280
     1
102
SHADEPLOT
 70
     0
102
SHADEPLOTRESLEVEL
 70
     2
102
SHADEPLOTCUSTOMDPI
 70
   300
  0
XRECORD
  5
8553
102
{ACAD_REACTORS
330
8163
102
}
330
8163
100
AcDbXrecord
280
     1
102
MATERIAL
148
0.0
149
0.0
149
0.0
 93
        0
 94
      127
282
     0
 72
     0
 77
     0
171
     0
175
     0
179
     0
273
     0
  0
XRECORD
  5
8165
102
{ACAD_REACTORS
330
8163
102
}
330
8163
100
AcDbXrecord
280
     1
270
     1
271
     1
  0
XRECORD
  5
8164
102
{ACAD_REACTORS
330
8163
102
}
330
8163
100
AcDbXrecord
280
     1
270
     1
271
     1
  0
XRECORD
  5
8168
102
{ACAD_REACTORS
330
8163
102
}
330
8163
100
AcDbXrecord
280
     1
270
     1
271
     1
  0
XRECORD
  5
8167
102
{ACAD_REACTORS
330
8163
102
}
330
8163
100
AcDbXrecord
280
     1
270
     1
271
     1
  0
XRECORD
  5
8169
102
{ACAD_REACTORS
330
8163
102
}
330
8163
100
AcDbXrecord
280
     1
270
     1
271
     1
  0
XRECORD
  5
8166
102
{ACAD_REACTORS
330
8163
102
}
330
8163
100
AcDbXrecord
280
     1
270
     1
271
     1
  0
XRECORD
  5
8552
102
{ACAD_REACTORS
330
815B
102
}
330
815B
100
AcDbXrecord
280
     1
102
MATERIAL
148
0.0
149
0.0
149
0.0
 93
        0
 94
      127
282
     0
 72
     0
 77
     0
171
     0
175
     0
179
     0
273
     0
  0
XRECORD
  5
815D
102
{ACAD_REACTORS
330
815B
102
}
330
815B
100
AcDbXrecord
280
     1
270
     1
271
     1
  0
XRECORD
  5
815C
102
{ACAD_REACTORS
330
815B
102
}
330
815B
100
AcDbXrecord
280
     1
270
     1
271
     1
  0
XRECORD
  5
8160
102
{ACAD_REACTORS
330
815B
102
}
330
815B
100
AcDbXrecord
280
     1
270
     1
271
     1
  0
XRECORD
  5
815F
102
{ACAD_REACTORS
330
815B
102
}
330
815B
100
AcDbXrecord
280
     1
270
     1
271
     1
  0
XRECORD
  5
8161
102
{ACAD_REACTORS
330
815B
102
}
330
815B
100
AcDbXrecord
280
     1
270
     1
271
     1
  0
XRECORD
  5
815E
102
{ACAD_REACTORS
330
815B
102
}
330
815B
100
AcDbXrecord
280
     1
270
     1
271
     1
  0
XRECORD
  5
8554
102
{ACAD_REACTORS
330
816B
102
}
330
816B
100
AcDbXrecord
280
     1
102
MATERIAL
148
0.0
149
0.0
149
0.0
 93
        0
 94
      127
282
     0
 72
     0
 77
     0
171
     0
175
     0
179
     0
273
     0
  0
XRECORD
  5
816D
102
{ACAD_REACTORS
330
816B
102
}
330
816B
100
AcDbXrecord
280
     1
270
     1
271
     1
  0
XRECORD
  5
816C
102
{ACAD_REACTORS
330
816B
102
}
330
816B
100
AcDbXrecord
280
     1
270
     1
271
     1
  0
XRECORD
  5
8203
102
{ACAD_REACTORS
330
816B
102
}
330
816B
100
AcDbXrecord
280
     1
 70
     1
 90
1959938040
 71
     1
  1
041A2DC9-25C8-43FC-91AF-37840D11CF00
311
504B030414000608080021856D570DBBA149B9000000200100004F00000044424535414341362D353231462D343030452D393542442D3143384338324145464336462F4173736574446174612F446566696E6974696F6E4974657261746F7250726F706572746965732E62696EEB606060F80F0540260323103700495E20ED
311
9E9A975A94991C9C9C919A9BC8C00612C9C94F4ACC6147C831019920AE4B6A5A62694E0948976F6671726A4E4E625E6A7E69B12042A9426E6209D0B8C41C3D90264E20860914834C48875806B2DF0F88414E02D189290556F689C5C5A925B6FA694915FA864E9646A66606C6BA46CE6696BA262EC64EBA8E8626AEBACE16AE
311
E6C6CE2E66CEC686A6FA45A9C5F9A545C9A9C5FA46FA06F15093E30BF2D28106E200C86180AC0400504B030414000608080021856D57720C2D2C11010000300200004500000044424535414341362D353231462D343030452D393542442D3143384338324145464336462F4173736574446174612F496E7374616E63655072
311
6F706572746965732E62696EEB606060F80F0540260323103700495E20ED9E9A975A94991C9C9C919A9BA8021430303174347271B6D4353275B6D035317673D6B5347474D33536B7303170313474763330604768046931363471713532B5D435353131D635313332D475727372D13534373670367376B67474B5042A03DBCB
311
A019D37FE8ABC6157B20CD04146B0062181F4C03F940F0C11EA29A8141C08141002C0426541C106CAC2CA046088033B02A030AC2157C6006F21A8018AAF50194E6010A610250382264E08660284CD9E98021862280A91564B406929A0FF62C401E28B6F88038B83CB1243943D7A928312F25350524D3F0EDFFF439206908D0
311
7E31896F068CAFDD70F52A4C628684C8833FF50C0C27A0B4039486C9A3D300504B030414000608080021856D5728BB58AF800100009E0500003D00000044424535414341362D353231462D343030452D393542442D3143384338324145464336462F536368656D61732F436F6D6D6F6E536368656D612E786D6CBD544D4FC2
311
3018BEFB2B96DE15493C78601010A34B880709DEDFB52FD0D8B54BD70DF6EFED3AC0B12E6442E2716BFB3CEFF3D18E26FB440405EA8C2B1992E1C323095052C5B8DC842437EBFB673219DF8DA659866649B798C078B48AE6410122242F2A4994AC7F93815DF85C049C8564CA0A901499DD886B2EB9B1E02448F358701A9235
311
880C49A0119892A20C89D1B9FD768815CAD268CB5E0355B40B1E47F3E37A2020464BED06AA57CE8FCC20C3C3446D46761A2632A8C1283D07031EFF2AE7CCB1BFEEE916E406DFAC8E36FFD99A9D60A6944090EEDC3B670C7DC13DE86B6B2C5C240D6E503BB85ACD579D513F1B9F9A69DC9CC22AFA80C426D40AF0B21EA16855
311
9156B6276F0F726A6BFF04DCD513A87A62CAD41FB24FCB2858B3952E3D852084DA25B9303C15687973CC8E8AAE11DF2836C38C6A9E765E8C1BA1BFB1DC29CDFE518C8B5A7655A4ED7E77291ABEB80DBD82EC866ADE1B8D05AF9E35CF09D7A061F38A986D9EC412B8F0F65E5D81534D9B231D1E5A8FE577A241F3A5FD01504B
311
030414000608080021856D572CCEBD668A040000E01200003E00000044424535414341362D353231462D343030452D393542442D3143384338324145464336462F536368656D61732F47656E65726963536368656D612E786D6CD5586D6FDB380CFE7EBF42F0F7A649B70E1B90744856B4970F450FCD7A5F05459613EDE417
311
4872DADCAF3F522F8ED3B88D2F1D06AC4050DBA2493EE4438AF2F8EB73AEC8466823CB62928C06C384888297A92C5693A4B6D9D9E7E4EBD51FE3A931C22EF85AE4EC6AFC38BF261BA626C9AD288496DC3F4FCEAFC63366845F7A10452AF41DB320C0D44EC26EAB20918735565582695670811A6A49643A49A6E9069FA4604A
311
64B29016DC4B48552F95E4932463CA888468C1D2B250DB4962750DF7CE273069CE8363F1FF4EDB00E0A21999574AE4A2B00C353B93F3BD4777B8A61ED8F604ABFEDD79CE56A2B7BDFBDBC50996E0ADDE16FED26223C5D30956C29BDF4A55EA686E5E58B112DA45CE67F76F4FA27EFA3FB672FD7372FC388FAECDCA5209E693
311
CAD167BADCD272F943701B3812F8A3D852008B1D2E32DB927B2F833C6EA95879925356D254582695095A3CE982924720BE5774A3CB9CDCDB350427D2DF20DA1B5532EBE2D5D6288D75D4F7E4FD9890A0EF8E3D93EBB8F8BA4758158EF6FB90A6F9520281C93DE7AAC6D24607DA296BB96018123F821A7D6A5C5884050C475D
311
A4865442732C8B95684A50165CBB3A32F25F783A4A480ED59AD7F924B968AEA50131F46303223E6A397B0E52976030DC1DCA81D7E7C1EDEEA42C19FF27635C505E2BD5198A599020DF50A2330FCB3AAF28CB0124108429553EF1B228802E2265D8F7CC2401042B155BCC7070F1E5C55F13B4A9577362CCCE46C32174E010C3
311
C378C44841A4BDA00FE3A12006CE11EE6AEC59894D3526DDE1CD59D503ECC324017F8061B7F162162FA62EDD81AE3308617770796DCBDAD2B2625C5AE8A63DE20B2C8AA5E95E76E5730823955956E33E705425A2187C185D36489A1B44D3DCEC2172F6BA2105C3546287A7194B2331768EBBE64F6E70A9930ABE0ADEA89E9E
311
2C38523B810287AD67A54A039C1606EAFE68F8304610BB9093DBDDABC0B2AE4E290DCDA15376D7E39F72B556F0B32EAB5D3D498B4C41ABADEC3A1434C422D87E8025A84BDCB2B1417ED750FAE4DA8976863974C577C7F902D3F156AD354DEA3540DE6BEAE2BEA52F7A2EB4CA43802ECE5BF2CE2EDC9347179FFB023CE412E6
311
0BE16DA0BE29B374988A553F561DC04615DD35F7D2C8979F60E5955CE93DF29DED8AFA1EE6642D53418086C03C47C377910F75F7E8F5EF665F70B60FFB22AEDF897D119E8423C773E819A3C1E55E550599EE6EDCA34D0C86FD72057DF2CD46F16A470682471C164E4346D5306BF12D7D12D82CFF673D41636C347443FEB51B
311
50D72EA171A8E4A58623A4A16E0FA2B8B10A0D23268D87C33896EE8FB73305A74BF224EDBADFA0BD674AB354D63DB7BD5D83426761C077DE767728235446A552754EB93B755891C3C4CC6CADE37CF0E912A7BB38DBA010F9DE1282EDF470CA69A9CDA482E334C4A6EA4107987980B17E72F31730EBF88BBD39E7C629F56797
311
A3C0009C2C5AE7951D9A05A02773440F02EEB4DE396A3B6A570C72CCFBCD823B0B8ED3F1D5CEDDFED772FA70236C83FB7D86C385D570B87107535572A60A96035F8F7C6A7192F13007246BBE0521855E6AC46F3E27689CEE7D186A6FD679D98CDCAD13333E04EBE7ED6F55FF01504B030414000608080021856D576180134D
311
5F0100006B0300004500000044424535414341362D353231462D343030452D393542442D3143384338324145464336462F536368656D61732F52656E6465724D6174657269616C536368656D612E786D6CA5934D6FC2300C86EFFB1551EEE343DBA41D1A103009551ADAD40EAE28A4A68D9426284961FCFBE5A340113B2071
311
746D3F765EBF4DC6BFB5407BD0862B49F0B037C0082453059725C18DDD3EBFE3F1E829991803366715D474942CD30FB4A782E00C64017A412D684E454CE3FE28995203B162A6EA5AC94B66997D225E109CD63B0135484BAD1B3C07E9080CA35DB3119C11BCA5C200461A68A1A438126C75E3E230D40FF81FB3F03C91D1E3A3
311
A0AF79FE28E25BC39EC3E17E4C2A2D94A0833A51AF55BCCA7D88572FCBAC529C4140B020FC3AAFA886621DCED7EAD7664CC86024E806DC297DA1BB393E4156543457A4537DB8817349A70F8ACBF09B3EEE2CB2F33E91B65D60786E4E3B39B77E3FEEEF5650424525DA657FB8B46BE6BF064646F0A0F7327C0BC1BC1B4CBBC1
311
C419FA3CCB23500007872A2580CAAE5461865565294E4EDB4617B62FF579DF9A5B2F54E834076A597573A020912FED777F9B3F504B030414000608080021856D57EFD52EE151000000570000004700000044424535414341362D353231462D343030452D393542442D3143384338324145464336462F417373657444617461
311
2F41737365745461626C654F66436F6E74656E74732E62696E5361606030303174347271B6D4353275B6D035317673D6B5347474D33536B73031703134747633301002AACB4D2C492DCA4CCC492C28484D2C4ACC4B4E050A82012F90744FCD03CA26072767A4E6260200504B030414000608080021856D57F8658340580000
311
00680000004500000044424535414341362D353231462D343030452D393542442D3143384338324145464336462F4173736574446174612F53747265616D56657273696F6E5461626C652E696E66558CBD0A80300C06F73E4B117FB66E451741D041DC5BF98480A492E4FDD18EAEC7DD4555D89EF28DF51A0B1BD8340C4DE7
311
DD848B988C0ACF0649566493F2408C508DDEBB99D5129FF8F1AF8CF5B9503E20FAE5A16B5AF702504B030414000608080021856D5784997AE2340100009A0400003600000044424535414341362D353231462D343030452D393542442D3143384338324145464336462F4173736574446174612F636E782E786D6CCD94314F
311
C3301085FF4AE43D76DC22842AC71582A51348540C6C57E752AC3A76645F10FC7BEC3603A888A943D7F3BBF3F327BF53EBCFC1551F18930DBE659237AC426F4267FDBE6513F5F51DABD65AC510E8878C551E066C592933ADF6314CE35CEAB087C995AAB3FE3017EF5342DAC2CEE153FF103CA1A7C42AE320A59625F38E0370
311
982874980EBC03022E79C414A668304F223BE03CC94404C28EE945B358D652D672B995B7AB1BB96A966F4A14A556BB10DCACB7F9B218C6CA9C6E65BA51A21C6B35453B6BCA5B98FECB23DF59AF44566A9528662673077D8DB903C6D1590394D1896008A9CE2284418993582B5118FC22F188BDF5B6B46CB231A0109FB33D8C
311
64F1EA88FCE7F5F264363E117883D7CBE3DCE1E529BC1C7FD0EB2990C7C45C5B4ECE1D72EBFB0BA4441CD7480E4DD92AFA1B504B030414000608080021856D57426586E4080100004F0300003400000044424535414341362D353231462D343030452D393542442D3143384338324145464336462F536368656D61732F636E
311
782E786D6CCD93BD4E042114855F85D02F0C3BC6980DC3161656366A6587707725CB7027FC187D7B61A4D84DECB4D80E0E5FC839878BDC7FCE9E7C404C0EC344051B288160D0BA709C68C987CD1D257B2523623EC328097A868936992A798C58962E5938E8E29BEA5D3875F11EE719C3B37987595362BC4E69A269DD325D32
311
5A48276675D64CB008094B34506FC86E867E8389A03358AAB6C376DC08B111E38BB8DDDD88DD30BE4ADE4825DF107DE75DC810712106EB22543B83E4ED58C9125D675A06AACEBDB1DA86E4955032E5583BE864FE5A2AA997C53BA373AD8AAFE00FA3246F512F023F4080E8CC7526BE30F76F919F2058888FF595A2D3FE3A93
311
FFE6F16F05F075F6EB08B4AFA0BE01504B030414000608080021856D57410A3D5871000000A40000002C00000044424535414341362D353231462D343030452D393542442D3143384338324145464336462F636E782E786D6C55CC4D0E82301086E1AB34B31774E7A22D31F1069E60020334B633A63FC6E34B0909B07DDE2F
311
9FEE7EC1AB2FC5E4840DDC9A2B28E25E06C7938192C7CB1D54677514C9871928C640062A83D55394F2D968A0118BAFEA1DBF377CA444F98919176EAB9FEAAB9F2960DA5BBB1E2ED3FA6FFF504B030414000608080021856D57D12D2E5A7E000000A300000007000000636E782E786D6C4D8CD10A832018465F45FE7BB78C19
311
0ED228D3F7886521330D97638F3F1D5DECEA83C3774EDB7D3687DE26BE6CF01CC8A50264FC23CCD6AF1CD2B16006A8136D0CE1F8BB01F2D36638140CA25D6348FB8966B34CC915EAAC7F9E701C14ED65DF605A138D6F55A5F09D0E2326924956F74ACB4667E35A943CBF5EDE92175F504B030414000608080021856D5716E9
311
9B5DA600000035010000130000005B436F6E74656E745F54797065735D2E786D6C9590410E82301045AFD2740F4517C6180A0BF5065E60AC53688469D30E066F6F91AD9AB89CF9FFFD3F99BA9DC7413C3026E749CB4D59498164FCCD51A7E5C4B6D84BD136F5E5193089ECA5A465CF1C0E4A25D3E308A9F401292BD6C71138
311
8FB15301CC1D3A54DBAADA29E38991B8E0254336F5092D4C038BF39CD76B6FC6A538AEBEA54A4B08617006389FA516557DE4AE8E7E70DE30729138228C5F021CD93F02D4FB0DCD0B504B030414000608080021856D573DEE336E64000000790000001B0000006175746F6465736B2D64657369676E2D7061636B6167652E78
311
6D6C35CBC10E83200C00D05F21DCA56CA76D41FC96062B120735B69A7DBE268BB7777961F8D5AF396893C2ADB70FE7ADA196782C2DF776D7A97B5933C430F15651E5469C55D70F80A4992A3ADC954792C525AE70A1E4D6AD9816CC044FEFDF01FE3FDE907802504B030414000608080021856D57FEDC6726F8000000960100
311
003700000044424535414341362D353231462D343030452D393542442D3143384338324145464336462F4173736574446174612F636F72652E786D6C8550CB6E833010FC15B47703C63424917184027C414FBD59C62156828DFCA8FAF9B50395DA534FBB9A9D99DD1D7AF95A9ED9A7B44E19DD02CE4BC8A41666527A6E21F8
311
1B3A427661D41AE37FD120D37C912D2418189DAD09EB0E09A3BDD409D566923BC89D931E32F18C4D0B4EDCE5C2731E7C64B847BE72F1E0B3CC71BEF1180D414DBB544DD14DDD94B4C0FAD3A1391D872B2278AC513D96153AD6FD88DE06D25D9B6E68BA1ED3228919F56AF9D92EACE45E4EC0AAB222086384C93B3E9C6B7C2E
311
C9072D129351E76DFC795F9ABE03D6A5AB7BEE392DB6E91FD7B04EFFBB06A53DA976D74DE180A5235F03468B94522CAF08634D89B26F504B030414000608080021856D57914BE14FF7000000940100003500000044424535414341362D353231462D343030452D393542442D3143384338324145464336462F536368656D61
311
732F636F72652E786D6C8550416E833010FC0ADABB01030D24328E50800FB4A7DE2CDBA156828DB05DF5F9B5814AEDA9A75DCDCECCEE0EB97ECDCFE453AE5619DD024E7348A4E646283DB5E0DD1D35905C29598D71BF68906836CB16220C944CABF1CB0171A39DD411D546C80364D64A07097F86A605CB3FE4CC52E65D60D8
311
47BA30FE60934C71BAF328F15E8943AA447053772557A0FDF9549F9BE1864A3C56A81AF30235553FA297A1EC6E7537D45D8F4916C5943835FF6CE7AB644E0AA0455E94086384CB377CBA54F89297EF248B4C4AAC5BC3CFC7D2F81DD0D7ED4E4BB27DF6C7D32FE27F4FAFB42B8BC3735758A0F1C46D404916330A650B30D498
311
27FD06504B030414000608080021856D57F9C9CCF002010000D70100002D00000044424535414341362D353231462D343030452D393542442D3143384338324145464336462F636F72652E786D6C9591C16E842010865FC5CC1D155D8DDD201BD7D527E8A9372AB32ED9150C60D3C72F569BB6B7F604F9F9FE19FE19767A9F
311
1ED11B5AA78CAE81C62944A80723951E6B58FC9554109D38B3C6F81F18445A4C58C32A0367A335CBBC4B83D11EF5AA6A2371178573E8211A1EE152831B6E3889582C3E10EE1ECF62B88B11631A6F1C675E4D5FD6C1A2F02881676996134A09CD9F69793CD0639ABFB06425395B94F679B637C3E9156564661F22012F58B2BD
311
066A517267940C7F54578516F8E5DC154DDB94A4C8684F0E69DA91A7E27C21B4ADDA2A6BBABE2DFB5024983973DE86C9EC45D619FCD5BE197F255B66F9CF649BC301A7DFA19275CC9C259F3B08E7BA12FE01504B030414000608080021856D578FADC86807010000B201000008000000636F72652E786D6C8D50C16E842014
311
FC15F2EEA8885D7737C8C6ACFA053DF54685B564158CE0A6FDFBC26A93F6D6D32333F3DE0CC32E9FD3881E6A71DA9A0A48920152A6B7529BA182D5DFF011D085B3C55AFF4B06C88849551061E06C58EC3AEF506F8D5726A2C64AB583C239E501F5637854E0FA0F358944AC3E28DC3D99457F17834A48B2E938F37AFA59ED17
311
25BC92C0F32CA798104CE82B399C0B72CEE81B4BA392B375D572B7D232B8EB9B560BF0E674284FC7F68A29E90A5C74598E8F45D3E19796D6D7B26ECBBA212C8DCB9C39BF843FEF47424E8F9C78445F966E1467EFD68EBB208492C89AF10B78C6D248FC09BDCEF21FA1B5F134DF0F6E1B0E780CF42482716C308C67BD61C6B6
311
F937504B0102140014000608080021856D570DBBA149B9000000200100004F000000000000000000000000000000000044424535414341362D353231462D343030452D393542442D3143384338324145464336462F4173736574446174612F446566696E6974696F6E4974657261746F7250726F706572746965732E62696E
311
504B0102140014000608080021856D57720C2D2C110100003002000045000000000000000000000000002601000044424535414341362D353231462D343030452D393542442D3143384338324145464336462F4173736574446174612F496E7374616E636550726F706572746965732E62696E504B01021400140006080800
311
21856D5728BB58AF800100009E0500003D000000000000000000000000009A02000044424535414341362D353231462D343030452D393542442D3143384338324145464336462F536368656D61732F436F6D6D6F6E536368656D612E786D6C504B0102140014000608080021856D572CCEBD668A040000E01200003E000000
311
000000000000000000007504000044424535414341362D353231462D343030452D393542442D3143384338324145464336462F536368656D61732F47656E65726963536368656D612E786D6C504B0102140014000608080021856D576180134D5F0100006B03000045000000000000000000000000005B0900004442453541
311
4341362D353231462D343030452D393542442D3143384338324145464336462F536368656D61732F52656E6465724D6174657269616C536368656D612E786D6C504B0102140014000608080021856D57EFD52EE1510000005700000047000000000000000000000000001D0B000044424535414341362D353231462D343030
311
452D393542442D3143384338324145464336462F4173736574446174612F41737365745461626C654F66436F6E74656E74732E62696E504B0102140014000608080021856D57F865834058000000680000004500000000000000000000000000D30B000044424535414341362D353231462D343030452D393542442D314338
311
4338324145464336462F4173736574446174612F53747265616D56657273696F6E5461626C652E696E66504B0102140014000608080021856D5784997AE2340100009A04000036000000000000000000000000008E0C000044424535414341362D353231462D343030452D393542442D3143384338324145464336462F4173
311
736574446174612F636E782E786D6C504B0102140014000608080021856D57426586E4080100004F0300003400000000000000000000000000160E000044424535414341362D353231462D343030452D393542442D3143384338324145464336462F536368656D61732F636E782E786D6C504B010214001400060808002185
311
6D57410A3D5871000000A40000002C00000000000000000000000000700F000044424535414341362D353231462D343030452D393542442D3143384338324145464336462F636E782E786D6C504B0102140014000608080021856D57D12D2E5A7E000000A300000007000000000000000000000000002B100000636E782E78
311
6D6C504B0102140014000608080021856D5716E99B5DA6000000350100001300000000000000000000000000CE1000005B436F6E74656E745F54797065735D2E786D6C504B0102140014000608080021856D573DEE336E64000000790000001B00000000000000000000000000A51100006175746F6465736B2D6465736967
311
6E2D7061636B6167652E786D6C504B0102140014000608080021856D57FEDC6726F80000009601000037000000000000000000000000004212000044424535414341362D353231462D343030452D393542442D3143384338324145464336462F4173736574446174612F636F72652E786D6C504B0102140014000608080021
311
856D57914BE14FF70000009401000035000000000000000000000000008F13000044424535414341362D353231462D343030452D393542442D3143384338324145464336462F536368656D61732F636F72652E786D6C504B0102140014000608080021856D57F9C9CCF002010000D70100002D000000000000000000000000
311
00D914000044424535414341362D353231462D343030452D393542442D3143384338324145464336462F636F72652E786D6C504B0102140014000608080021856D578FADC86807010000B2010000080000000000000000000000000026160000636F72652E786D6C504B050600000000110011005A060000531700000000
310
504B030414000608080021856D57000000000000000000000000370000006662782F30303439353142372D424244372D343832432D423537312D3435443534344346333532302F617474726962757465732E62696E504B030414000608080021856D57000000000000000000000000350000006662782F3030343935314237
310
2D424244372D343832432D423537312D3435443534344346333532302F76657274696365732E62696E504B030414000608080021856D57F270F1330600000004000000360000006662782F30303439353142372D424244372D343832432D423537312D3435443534344346333532302F747269616E676C65732E62696E6366
310
60600000504B030414000608080021856D5751464CB48900000043010000360000006662782F30303439353142372D424244372D343832432D423537312D3435443534344346333532302F6469726563746F72792E786D6C9D8F310EC2300C45AF127987122606C71DD918B841D4B851A43646695A717C52A85029031293A5
310
A76FBF6FACEF7DA7264E43906840EF0FA03836E242F406C6DCEE4EA06AC22492573150D1F66C60C640E8938CB705396EEDD86DE9B5042FE27813D640EA63BB001C722AF6E55CB61E4863F58284D5D3F53DD715CE1C3985E63FD7F1B7EBDD617E9F1E504B030414000608080021856D57CE9AEF0A37070000201C0000340000
310
006662782F30303439353142372D424244372D343832432D423537312D3435443534344346333532302F6F626A656374732E786D6CDD596D6FDB3610FE2B84F665FBA037CB76ECC27191C84D6114698B1A1DF64DA065DAE1A2379052E2ECD7EF4891B224CBB692B540B104481C863ADE3D77F7DCF1347BBF8F23F44418A769
310
726DB89663209284E98626BB6BA3C8B7E6C440EFE768C6D234AFED33508263726D8865633EDBB1B4C8D4D2866C7111B557EF6EFF423C240931501861CEAF0D1E3E90185BB8C8D30DE18FD606E7D8DA6DF7966B951B9B62770C670FADA332CC489283AAB09E8014A581DBFC134CB2E7335B6C686C1BF4DBE69DD9664BC39B8A
310
D284E738098FB46AC919F4D3CA73878B0F83D1D41C0D879E391C0F5CF3F6EE7661BA579EE38F7D7F7AF3616AA0F96C9DA651E5808C241BF0E28B317767B6F84F65BE42A14BEF304D12122A34BB366C88924B096F63D200D695A6D51C52DA5A5BF07A1A7F625B2F501A2A35D0D6C6E9DFF5E84DD77F0308BC4F94324E4494F3
310
9C81AF15F6653E3833BB5C6DF8857214E39C308A2314D135C30C1C045B4B0735C4886C11A290C04C7A51CBABEB0A817D3997BAB4DC165124F2D798CB4C0B201F49CEA566F41FC20EDAD74F039DC0DA8226F944199BBF6420623AB3E562F93F6FA0FE590289B611DE41B4809962933768E1E50B2E582E8CF9A7BBF57E25F8A1
310
FBF08CA51961B9883C99CC2AEFB4076BA105C1D7039412D7A6EF0EA87C03E83F03F2952E68069E63743FDC0FB5ED0C277C9BB218BC831C643AF0C341E2E3D1A7995D3D3C47A8C195A73085B4FD419836CC689C5D83743E7B82A04F99A78C5B85388298BEA789C873081414A5B0047CBF5DEF8DF912C81416E1291C81F5F03D
310
B3C54704BF4A39C0372D0F75D16F0F47E98469E7D9C1571F2166180D2B57356C3C85EFE887E07BB3587D5A156C8B4372AF127B41B634A13914D36E851AA03752FEFBF2B3CCC8237B1ABB423867970AE2E8F0CB4AF90549C7802AA20E97AE912BF714D23D8A7042D282ABF52EA20AD32865C1FA252873B8F3AC3F7510948741
310
7E8B08E82433A8EE21A39900C5982BF32A26B40E38091E5401B82B9D1AAC71F828E00D4260ACB7E801518B595B681167018ED32211F47D1CDE6DD32CCF915FAE3B1D38D3C1643AD6C672295E678FA6864A79714E8CB31387F80D6F29D6D092CB3C1A025B76591042CF54E4419AE190E6DDB1D032426528807D56E50DDD6E0B
310
0EA4DE094B4B63CB7347C8A9FDAC0E39AFBD3A24A031DE91608B4585EB3CAF0150255C5BD089CC2E4A39A709E1B2433962AE162A8E054450C6AD96DA1184940731C9F15BE24F96BC56F831B28D02E8A572D1CD5E8E3EADA0AA9EA7248ACE2D4D0269FF4BC0719C45659776090377D03AA11357A1B438E209E22DC079E06C88
310
6CBA2F49AF7841E3DB4BFAF4CDE24FC0C3F04F87471F41A1F5861A79D9B3AE3572A7E26B02A4321EB9DE9576C425ACF451B9E841A202BAA6F025782674F7D08FD07A9DC349B40D6814157150D6839CC4D082E1BC60BDF2753C728E9CAF78A19510B593B6348206B93769CADE43771F60956C3E4E9166ED18308A267047EB65
310
C891159D212C7D21EFA3E2DA75D9FBAF97FA9FF9B27E4F79242FCF29DB746ADA6C237407A61B064197AAC255712425CF67F5E48BE5C5E5320E432D44F15B794B5011C2C8131583097903EABC3FF0679C8740A42BF9DBBC858CD890CDA1A7688853630E630E876A69BA4FADDF7480EC44F968345E4B41A8314C1BB0E0D97BF1
310
21FA86C1D5D0F9715B753576B9BE1485CD82C1CA418F33B2BE7C5CB5A4C04AEFA7BF0A8CC8734B825AF545237746D4F7E5A15F6D4950167D5F9E793C7F28E27582A9A88C222CF0267BF75EDE25AF6DB828D8EEED74301A3B9E39F0C75373B8F06ECD1B77F8C1F4271FAE3C7F31F6A181B019E169C142C2ED81ED04BA77CA92
310
9D0E8C12BA3E370A982A5CBEFAE9786E3BF87F7CA388D2353E158BBFEA85A26AF74443D6CAC5BE178A4EA25EBFAEFB778F88BABB88BDAA732E67053AC0CF972D20235DEFFBB7165AB4EE24BA75AE55C45716DE93B7959F5E631A84DE591F1A3BBA28BFC9C5307BEAA852FA762B79CD19BA3783853F3507237F620EBD3BDF9C
310
BA3777A67735193A0BD7F5EF6AAD8EAA857DEBCA2FC1A15AD9DA180DA6C13C8D280CE5C906ED480A3720983AF4E05716132E6F36D000A832AEDF08F478FAA99CA9E6781DE9A7C3070C83E94855E42284A128DC3AAE0DB58E7E8331A89844CAE194F508854745BB810A46AF0D08819C427DB1D630CE92C34329BD35AE04B7E1
310
6427EE4CE553D5DF87C7043A102B07BBAA3D7D70519635A2138603997C4F006CA71B92B79BAED54138878FEB22AF8C392C1CAC5120E81702A57130F57B54F0EE8178CEDBE55A724F03925E93F9B371504A3573CC7672BC5EC3FB66F1D51693F1E5179445C54EB8F35CBD6F4832459F1115E5106A0681A1CCCCB0B887FBEFEC
310
AF2C85574C31BAA31004E8F7FD64FC87EDA7719C26E5927DA35E54A1D503BC76DAD87AE4078D8B037D8CEC7BD4581FE6569C5878C31F61015CCBA8988D96103702A0A2A75A00688F085FC0638DFDCB055245A0D6C2D65B57018F9CE9234824F12E47A44D7D436D0009B9005A9573DAEA835E98D90C86E0F37F01504B030414
310
000608080021856D57CC80B89E3E01000046050000300000006662782F30303439353142372D424244372D343832432D423537312D3435443534344346333532302F636E782E786D6CCD94C14A033110865F25E4BEC9A61591924DC1834FE041BC65B3D335369B2CC9ACD8B737A9DBAA48C543A1BD85C93FF07F333F23D7EF
310
83236F10930DBEA182D5948037A1B3BE6FE8849BEA8E92B5923104FC26A3C4EB011A5ACA54C93E86699C4B1D6CF4E44AD559BF9D8B1A31DA7642489418A7536A68322F3068A6270C1DA42DEB346A26588414A66820F7A31D60EE3711344247D5A25E2C2B212AB17C14B7AB1BB1AA97CF9217A5926D086ED65B8F10C3484CC8
310
0F9FCDD492976F25A768674D21A0EACB196BAD973CFF2B99B25BDFCF3ADC8D45378ECE1A8D794C3C1804ACB208F420F9A758495E787F503FDC3F1D1C90CE463018E2EE420310A7067034C67212FEC7BF17FE8D1DDAD78C7BA96D9F849D6D9D0DF590D694E3FA7BFF3945DAF7EEFA427F3476FECCE75382D65C1FF2C1D79988
310
F9FEE4E5A5970BA83E00504B030414000608080021856D57A51CBD547D000000A30000000B0000006662782F636E782E786D6C4D8CD10A832018465F45FE7B9B96620335B0D87BC4B290990E97638F3F1D5DECEA83C3778E1C3EBB476F9B5E2E0605B421806CB8C7C5854D413E56DC031AB44C311E7F374061DEAD828A41CB
310
2DC5FC3CD162D739FB4ABD0B8F1312C2AE9C1A818D9904667D3B62C305C58C4F9CB1F1D6F19614E3529532BF5ED99AD75F504B030414000608080021856D57A6D797065F0000008200000007000000636E782E786D6C4DCB3B0E80201045D1AD90E9FD7516806B51190811670C8A61F982B1B0BAC9C97B72CA7B1037C6D333
310
2918DA1E04D2CAC69353902EDB8C20262D23F3F59B81A079470595414B17391D1F19B4730A5583A7ED43BBE4025D9592775E5ADFFA01504B030414000608080021856D574FEB6A7CA0000000F4000000130000005B436F6E74656E745F54797065735D2E786D6C7D8F4B0EC2300C44AF1279DFA6B0400835ED02B8011730C1
310
6D239A8F121795DB93D02D6269CFBC19BBED573B8B17C564BC53B0AB1B10E4B47F18372A5878A88E20FAAEBDBD032591BD2E299898C349CAA427B2986A1FC86565F0D122E7318E32A07EE24872DF3407A9BD63725C71C980AEBDD080CBCCE2BAE6F5D69B7110E7CD57AA146008B3D1C8F92C5954F993BB1BF787F39A89ABC4
310
91D09600F9FDA2FB00504B030414000608080021856D573DEE336E64000000790000001B0000006175746F6465736B2D64657369676E2D7061636B6167652E786D6C35CBC10E83200C00D05F21DCA56CA76D41FC96062B120735B69A7DBE268BB7777961F8D5AF396893C2ADB70FE7ADA196782C2DF776D7A97B5933C430F1
310
5651E5469C55D70F80A4992A3ADC954792C525AE70A1E4D6AD9816CC044FEFDF01FE3FDE907802504B030414000608080021856D579064FB56F9000000960100003B0000006662782F30303439353142372D424244372D343832432D423537312D3435443534344346333532302F7265736F75726365732F636F72652E786D
310
6C8550CB6E833010FC15B47703C62485C8384A9AF60B7AEACD321B6A25D8C88FAA9F5F3B50A93D553EAC353B33BB3BFCF835DF8B4F745E5B33002D6B28D0283B6A330D10C39574501C0577D6865F34288C9C71800C83E093B371D920654D4093516347DC40E93D0628D43D7D06F0EA036759CA1812C3DFCA45AA9B9CB0A4E5
310
CA133C463D6E523D26377DD5E8409C5EFABE7D628C74E77D47DABA7925A7677A26CDE5B2EB775D9F1EE355160B1EF4FC335D39940147104DDD304229A1EC8DEE0F2D3DD4EC9D579929B80F2EDDBC0DCDD78170E86D740A3DAFD6EE1FD7B88CFFBB466D026B36D755E141D0B4E4A3217895534AE51161AA3951F10D504B0304
310
14000608080021856D57EF10C8E8F1000000B1010000310000006662782F30303439353142372D424244372D343832432D423537312D3435443534344346333532302F636F72652E786D6C8D50CB6EC32010FC156BEFD860E33A8D30919CA85FD0536F08888B1283C5A3EAE71762576A6F392D9A9D6166879DBE977BF5A57D
310
30CE8E406A0C95B6D22963E71152BCA2035427CEBC73F10F0D2A2B163D428181B3D9BBB4EE9074366A5B50EB94DE4111828E50C97B7E8C10E4A75E442D52CC8C70AB57216F62D635A9371E67D12CBF52E9B5885A016F71DB214210E9DEC9CB919223EE3E5853989CA564D46E6554763757A33D708CE96B4FA6014DD36540F4
310
D09ED1D40F04D1FED2537A7EEBFA16B3A688390BD1E79BF74FCA75CFCA37E1BFCC69554F64363676ED6EB829027092F33C169C35A5C03C1EEDE659CAE63F504B030414000608080021856D5749CC43DE53010000DD0200000C0000006662782F636F72652E786D6C8D525D6F832014FD2B867754D476DA204DBB6EBF604F7B
310
A3481DA9824130FDF9033FE27C58B7902039F7DE73CE3D111F1F6D130C5CF742C912A0300601974C5542D625B0E60673101C09D64A991F6D2090B4E525F03020B8D6CA7633C494345C7A54AA8ACF20ED7B6E40C01AF72841CFBE784B436A8DEBE8EF6147D99DD63C44E1D447B0B5A29A4745E5D8C44D700DC8E9AD28B29734
310
85F9799FC32C4EDEE1E9159D6172B9EC8A5D5EB893E2C80F136C44BBA833CDA9E11520499CA4102188D20FB43F64E810A79F38F29D04F746BB9D6751BF1D20B7EB034713BEE1B35DF5379F15D2A4C9CC374DF48020676F2C101CF97CDC670C6F9BA11376F9197A6D9615EE0E1A38334A67AE5229BB9606DA58EEA8E3603C38
310
9AAA8E7924F88D2779C2F39CC3054565EDAC51E39E576BBCFAD653C7351CCC23904AB7B459CD4D16D77B15DAACB48C33D528FD9FE965D525CCC8FF98E41B504B030414000608080021856D57CA3C178608010000B201000008000000636F72652E786D6C8D50CB6EC32010FC15B4776C639CD48E3051D2B45FD0536FD41007
310
C5068B47D4FE7D2171A5F65671583433BB33BB6CFF394FE8A69CD7D6F4408A0A90328395DA8C3DC470C62DA03D67CEDAF04B06C88859F59061E06C74362E2B34581394C9A8B152ADA0F05E0540C3943E3DF8E1A26651881892C25F8B450C5731AA82140F1D6741CF3FAD8353222809BCAE6A8A09C184BE91EDAE21BB8ABEB3
310
322B398B51CBD54ACBE4AECF5A39E08797AE6B9E28C5ED71DBE2A6AA5FF1E1991C717D3A6DBA4DDBA54759999B39F3C1A59DD7212967405EDCB22F2B1F14671FD64EAB208592C89AE90B78C5CA4CFC091D17F98FD0DA045AAF031F1D1E384981EE4432CE174CE57EDE54F3B5F937504B0102140014000608080021856D5700
310
00000000000000000000003700000000000000000000000000000000006662782F30303439353142372D424244372D343832432D423537312D3435443534344346333532302F617474726962757465732E62696E504B0102140014000608080021856D57000000000000000000000000350000000000000000000000000055
310
0000006662782F30303439353142372D424244372D343832432D423537312D3435443534344346333532302F76657274696365732E62696E504B0102140014000608080021856D57F270F13306000000040000003600000000000000000000000000A80000006662782F30303439353142372D424244372D343832432D4235
310
37312D3435443534344346333532302F747269616E676C65732E62696E504B0102140014000608080021856D5751464CB489000000430100003600000000000000000000000000020100006662782F30303439353142372D424244372D343832432D423537312D3435443534344346333532302F6469726563746F72792E78
310
6D6C504B0102140014000608080021856D57CE9AEF0A37070000201C00003400000000000000000000000000DF0100006662782F30303439353142372D424244372D343832432D423537312D3435443534344346333532302F6F626A656374732E786D6C504B0102140014000608080021856D57CC80B89E3E010000460500
310
003000000000000000000000000000680900006662782F30303439353142372D424244372D343832432D423537312D3435443534344346333532302F636E782E786D6C504B0102140014000608080021856D57A51CBD547D000000A30000000B00000000000000000000000000F40A00006662782F636E782E786D6C504B01
310
02140014000608080021856D57A6D797065F0000008200000007000000000000000000000000009A0B0000636E782E786D6C504B0102140014000608080021856D574FEB6A7CA0000000F400000013000000000000000000000000001E0C00005B436F6E74656E745F54797065735D2E786D6C504B01021400140006080800
310
21856D573DEE336E64000000790000001B00000000000000000000000000EF0C00006175746F6465736B2D64657369676E2D7061636B6167652E786D6C504B0102140014000608080021856D579064FB56F9000000960100003B000000000000000000000000008C0D00006662782F30303439353142372D424244372D3438
310
32432D423537312D3435443534344346333532302F7265736F75726365732F636F72652E786D6C504B0102140014000608080021856D57EF10C8E8F1000000B10100003100000000000000000000000000DE0E00006662782F30303439353142372D424244372D343832432D423537312D3435443534344346333532302F63
310
6F72652E786D6C504B0102140014000608080021856D5749CC43DE53010000DD0200000C000000000000000000000000001E1000006662782F636F72652E786D6C504B0102140014000608080021856D57CA3C178608010000B201000008000000000000000000000000009B110000636F72652E786D6C504B050600000000
310
0E000E0080040000C91200000000
  0
XRECORD
  5
8170
102
{ACAD_REACTORS
330
816B
102
}
330
816B
100
AcDbXrecord
280
     1
270
     1
271
     1
  0
XRECORD
  5
816F
102
{ACAD_REACTORS
330
816B
102
}
330
816B
100
AcDbXrecord
280
     1
270
     1
271
     1
  0
XRECORD
  5
8171
102
{ACAD_REACTORS
330
816B
102
}
330
816B
100
AcDbXrecord
280
     1
270
     1
271
     1
  0
XRECORD
  5
816E
102
{ACAD_REACTORS
330
816B
102
}
330
816B
100
AcDbXrecord
280
     1
270
     1
271
     1
  0
XRECORD
  5
8588
102
{ACAD_REACTORS
330
8587
102
}
330
8587
100
AcDbXrecord
280
     1
102
DISPLAYNAME
  1
Imperial24
102
FLAGS
 90
        0
  0
CELLSTYLEMAP
  5
854F
102
{ACAD_REACTORS
330
854E
102
}
330
854E
100
AcDbCellStyleMap
 90
        3
300
CELLSTYLE
  1
TABLEFORMAT_BEGIN
 90
        5
170
     1
 91
        0
 92
    32768
 62
   257
 93
        1
300
CONTENTFORMAT
  1
CONTENTFORMAT_BEGIN
 90
        0
 91
        0
 92
      512
 93
        0
300

 40
0.0
140
1.0
 94
        5
 62
     0
340
819E
144
0.25
309
CONTENTFORMAT_END
171
     0
 94
        0
309
TABLEFORMAT_END
  1
CELLSTYLE_BEGIN
 90
        1
 91
        1
300
_TITLE
309
CELLSTYLE_END
300
CELLSTYLE
  1
TABLEFORMAT_BEGIN
 90
        5
170
     1
 91
        0
 92
        0
 62
   257
 93
        1
300
CONTENTFORMAT
  1
CONTENTFORMAT_BEGIN
 90
        0
 91
        0
 92
      512
 93
        0
300

 40
0.0
140
1.0
 94
        5
 62
     0
340
819E
144
0.18
309
CONTENTFORMAT_END
171
     0
 94
        0
309
TABLEFORMAT_END
  1
CELLSTYLE_BEGIN
 90
        2
 91
        1
300
_HEADER
309
CELLSTYLE_END
300
CELLSTYLE
  1
TABLEFORMAT_BEGIN
 90
        5
170
     1
 91
        0
 92
        0
 62
   257
 93
        1
300
CONTENTFORMAT
  1
CONTENTFORMAT_BEGIN
 90
        0
 91
        0
 92
      512
 93
        0
300

 40
0.0
140
1.0
 94
        2
 62
     0
340
819E
144
0.18
309
CONTENTFORMAT_END
171
     0
 94
        0
309
TABLEFORMAT_END
  1
CELLSTYLE_BEGIN
 90
        3
 91
        2
300
_DATA
309
CELLSTYLE_END
  0
XRECORD
  5
8585
102
{ACAD_REACTORS
330
854E
102
}
330
854E
100
AcDbXrecord
280
     1
102
ACAD_ROUNDTRIP_PRE2007_TABLESTYLE
 90
      512
 91
        0
  1

 92
      512
 93
        0
  2

 94
      512
 95
        0
  3

  0
XRECORD
  5
8560
102
{ACAD_REACTORS
330
855F
102
}
330
855F
100
AcDbXrecord
280
     1
102
RTVSPost2010Prop28
280
     1
102
RTVSPost2010PropOp28
 70
     1
102
RTVSPost2010Prop29
280
     1
102
RTVSPost2010PropOp29
 70
     1
102
RTVSPost2010Prop30
280
     0
102
RTVSPost2010PropOp30
 70
     1
102
RTVSPost2010Prop31
280
     0
102
RTVSPost2010PropOp31
 70
     1
102
RTVSPost2010Prop32
280
     0
102
RTVSPost2010PropOp32
 70
     1
102
RTVSPost2010Prop33
280
     0
102
RTVSPost2010PropOp33
 70
     1
102
RTVSPost2010Prop34
280
     0
102
RTVSPost2010PropOp34
 70
     1
102
RTVSPost2010Prop35
280
     0
102
RTVSPost2010PropOp35
 70
     1
102
RTVSPost2010Prop36
280
     0
102
RTVSPost2010PropOp36
 70
     1
102
RTVSPost2010Prop37
 90
       50
102
RTVSPost2010PropOp37
 70
     1
102
RTVSPost2010Prop38
140
0.0
102
RTVSPost2010PropOp38
 70
     1
102
RTVSPost2010Prop39
140
1.0
102
RTVSPost2010PropOp39
 70
     1
102
RTVSPost2010Prop40
 90
        0
102
RTVSPost2010PropOp40
 70
     1
102
RTVSPost2010Prop41ColorIndex
 90
       18
102
RTVSPost2010Prop41ColorRGB
 90
        0
102
RTVSPost2010PropOp41
 70
     1
102
RTVSPost2010Prop42
 90
       50
102
RTVSPost2010PropOp42
 70
     1
102
RTVSPost2010Prop43
 90
        3
102
RTVSPost2010PropOp43
 70
     1
102
RTVSPost2010Prop44ColorIndex
 90
        5
102
RTVSPost2010Prop44ColorRGB
 90
      255
102
RTVSPost2010PropOp44
 70
     1
102
RTVSPost2010Prop45
280
     0
102
RTVSPost2010PropOp45
 70
     1
102
RTVSPost2010Prop46
 90
       50
102
RTVSPost2010PropOp46
 70
     1
102
RTVSPost2010Prop47
 90
       50
102
RTVSPost2010PropOp47
 70
     1
102
RTVSPost2010Prop48
 90
       50
102
RTVSPost2010PropOp48
 70
     1
102
RTVSPost2010Prop49
280
     0
102
RTVSPost2010PropOp49
 70
     1
102
RTVSPost2010Prop50
 90
       50
102
RTVSPost2010PropOp50
 70
     1
102
RTVSPost2010Prop51ColorIndex
 90
      256
102
RTVSPost2010Prop51ColorRGB
 90
-16777216
102
RTVSPost2010PropOp51
 70
     0
102
RTVSPost2010Prop52
140
1.0
102
RTVSPost2010PropOp52
 70
     0
102
RTVSPost2010Prop53
 90
        2
102
RTVSPost2010PropOp53
 70
     1
102
RTVSPost2010Prop54
  1
strokes_ogs.tif
102
RTVSPost2010PropOp54
 70
     1
102
RTVSPost2010Prop55
280
     0
102
RTVSPost2010PropOp55
 70
     1
102
RTVSPost2010Prop56
140
1.0
102
RTVSPost2010PropOp56
 70
     1
102
RTVSPost2010Prop57
140
1.0
102
RTVSPost2010PropOp57
 70
     1
102
RTVSPropertyOp0
 70
     1
102
RTVSPropertyOp1
 70
     1
102
RTVSPropertyOp2
 70
     1
102
RTVSPropertyOp3
 70
     1
102
RTVSPropertyOp4
 70
     1
102
RTVSPropertyOp5
 70
     1
102
RTVSPropertyOp6
 70
     1
102
RTVSPropertyOp7
 70
     1
102
RTVSPropertyOp8
 70
     1
102
RTVSPropertyOp9
 70
     1
102
RTVSPropertyOp10
 70
     1
102
RTVSPropertyOp11
 70
     1
102
RTVSPropertyOp12
 70
     1
102
RTVSPropertyOp13
 70
     1
102
RTVSPropertyOp14
 70
     1
102
RTVSPropertyOp15
 70
     1
102
RTVSPropertyOp16
 70
     1
102
RTVSPropertyOp17
 70
     1
102
RTVSPropertyOp18
 70
     1
102
RTVSPropertyOp19
 70
     1
102
RTVSPropertyOp20
 70
     1
102
RTVSPropertyOp21
 70
     1
102
RTVSPropertyOp22
 70
     1
102
RTVSPropertyOp23
 70
     1
102
RTVSPropertyOp24
 70
     1
102
RTVSPropertyOp25
 70
     1
102
RTVSPropertyOp26
 70
     1
102
RTVSPropertyOp27
 70
     1
102
RTVSPropertyOp28
 70
     1
102
RTVSPropertyOp29
 70
     1
102
RTVSPropertyOp30
 70
     1
102
RTVSPropertyOp31
 70
     1
102
RTVSPropertyOp32
 70
     1
102
RTVSPropertyOp33
 70
     1
102
RTVSPropertyOp34
 70
     1
102
RTVSPropertyOp35
 70
     1
102
RTVSPropertyOp36
 70
     1
102
RTVSPropertyOp37
 70
     1
102
RTVSPropertyOp38
 70
     1
102
RTVSPropertyOp39
 70
     1
102
RTVSPropertyOp40
 70
     1
102
RTVSPropertyOp41
 70
     1
102
RTVSPropertyOp42
 70
     1
102
RTVSPropertyOp43
 70
     1
102
RTVSPropertyOp44
 70
     1
102
RTVSPropertyOp45
 70
     1
102
RTVSPropertyOp46
 70
     1
102
RTVSPropertyOp47
 70
     1
102
RTVSPropertyOp48
 70
     1
102
RTVSPropertyOp49
 70
     1
102
RTVSPropertyOp50
 70
     1
102
RTVSPropertyOp51
 70
     0
102
RTVSPropertyOp52
 70
     0
102
RTVSPropertyOp53
 70
     1
102
RTVSPropertyOp54
 70
     1
102
RTVSPropertyOp55
 70
     1
102
RTVSPropertyOp56
 70
     1
102
RTVSPropertyOp57
 70
     1
102
RTVSPropertyOp58
 70
     1
102
RTVSPropertyOp59
 70
     1
102
RTVSPropertyOp60
 70
     1
102
RTVSPropertyOp61
 70
     1
102
RTVSPropertyOp62
 70
     1
  0
XRECORD
  5
855E
102
{ACAD_REACTORS
330
855D
102
}
330
855D
100
AcDbXrecord
280
     1
102
RTVSPost2010Prop28
280
     0
102
RTVSPost2010PropOp28
 70
     1
102
RTVSPost2010Prop29
280
     1
102
RTVSPost2010PropOp29
 70
     1
102
RTVSPost2010Prop30
280
     1
102
RTVSPost2010PropOp30
 70
     1
102
RTVSPost2010Prop31
280
     0
102
RTVSPost2010PropOp31
 70
     1
102
RTVSPost2010Prop32
280
     0
102
RTVSPost2010PropOp32
 70
     1
102
RTVSPost2010Prop33
280
     0
102
RTVSPost2010PropOp33
 70
     1
102
RTVSPost2010Prop34
280
     0
102
RTVSPost2010PropOp34
 70
     1
102
RTVSPost2010Prop35
280
     0
102
RTVSPost2010PropOp35
 70
     1
102
RTVSPost2010Prop36
280
     0
102
RTVSPost2010PropOp36
 70
     1
102
RTVSPost2010Prop37
 90
       50
102
RTVSPost2010PropOp37
 70
     1
102
RTVSPost2010Prop38
140
0.0
102
RTVSPost2010PropOp38
 70
     1
102
RTVSPost2010Prop39
140
1.0
102
RTVSPost2010PropOp39
 70
     1
102
RTVSPost2010Prop40
 90
        0
102
RTVSPost2010PropOp40
 70
     1
102
RTVSPost2010Prop41ColorIndex
 90
       18
102
RTVSPost2010Prop41ColorRGB
 90
        0
102
RTVSPost2010PropOp41
 70
     1
102
RTVSPost2010Prop42
 90
       50
102
RTVSPost2010PropOp42
 70
     1
102
RTVSPost2010Prop43
 90
        3
102
RTVSPost2010PropOp43
 70
     1
102
RTVSPost2010Prop44ColorIndex
 90
        5
102
RTVSPost2010Prop44ColorRGB
 90
      255
102
RTVSPost2010PropOp44
 70
     1
102
RTVSPost2010Prop45
280
     0
102
RTVSPost2010PropOp45
 70
     1
102
RTVSPost2010Prop46
 90
       50
102
RTVSPost2010PropOp46
 70
     1
102
RTVSPost2010Prop47
 90
       50
102
RTVSPost2010PropOp47
 70
     1
102
RTVSPost2010Prop48
 90
       50
102
RTVSPost2010PropOp48
 70
     1
102
RTVSPost2010Prop49
280
     0
102
RTVSPost2010PropOp49
 70
     1
102
RTVSPost2010Prop50
 90
       50
102
RTVSPost2010PropOp50
 70
     1
102
RTVSPost2010Prop51ColorIndex
 90
      256
102
RTVSPost2010Prop51ColorRGB
 90
-16777216
102
RTVSPost2010PropOp51
 70
     0
102
RTVSPost2010Prop52
140
1.0
102
RTVSPost2010PropOp52
 70
     0
102
RTVSPost2010Prop53
 90
        2
102
RTVSPost2010PropOp53
 70
     1
102
RTVSPost2010Prop54
  1
strokes_ogs.tif
102
RTVSPost2010PropOp54
 70
     1
102
RTVSPost2010Prop55
280
     0
102
RTVSPost2010PropOp55
 70
     1
102
RTVSPost2010Prop56
140
1.0
102
RTVSPost2010PropOp56
 70
     1
102
RTVSPost2010Prop57
140
1.0
102
RTVSPost2010PropOp57
 70
     1
102
RTVSPropertyOp0
 70
     1
102
RTVSPropertyOp1
 70
     1
102
RTVSPropertyOp2
 70
     1
102
RTVSPropertyOp3
 70
     1
102
RTVSPropertyOp4
 70
     1
102
RTVSPropertyOp5
 70
     1
102
RTVSPropertyOp6
 70
     1
102
RTVSPropertyOp7
 70
     1
102
RTVSPropertyOp8
 70
     1
102
RTVSPropertyOp9
 70
     1
102
RTVSPropertyOp10
 70
     1
102
RTVSPropertyOp11
 70
     1
102
RTVSPropertyOp12
 70
     1
102
RTVSPropertyOp13
 70
     1
102
RTVSPropertyOp14
 70
     1
102
RTVSPropertyOp15
 70
     1
102
RTVSPropertyOp16
 70
     1
102
RTVSPropertyOp17
 70
     1
102
RTVSPropertyOp18
 70
     1
102
RTVSPropertyOp19
 70
     1
102
RTVSPropertyOp20
 70
     1
102
RTVSPropertyOp21
 70
     1
102
RTVSPropertyOp22
 70
     1
102
RTVSPropertyOp23
 70
     1
102
RTVSPropertyOp24
 70
     1
102
RTVSPropertyOp25
 70
     1
102
RTVSPropertyOp26
 70
     1
102
RTVSPropertyOp27
 70
     1
102
RTVSPropertyOp28
 70
     1
102
RTVSPropertyOp29
 70
     1
102
RTVSPropertyOp30
 70
     1
102
RTVSPropertyOp31
 70
     1
102
RTVSPropertyOp32
 70
     1
102
RTVSPropertyOp33
 70
     1
102
RTVSPropertyOp34
 70
     1
102
RTVSPropertyOp35
 70
     1
102
RTVSPropertyOp36
 70
     1
102
RTVSPropertyOp37
 70
     1
102
RTVSPropertyOp38
 70
     1
102
RTVSPropertyOp39
 70
     1
102
RTVSPropertyOp40
 70
     1
102
RTVSPropertyOp41
 70
     1
102
RTVSPropertyOp42
 70
     1
102
RTVSPropertyOp43
 70
     1
102
RTVSPropertyOp44
 70
     1
102
RTVSPropertyOp45
 70
     1
102
RTVSPropertyOp46
 70
     1
102
RTVSPropertyOp47
 70
     1
102
RTVSPropertyOp48
 70
     1
102
RTVSPropertyOp49
 70
     1
102
RTVSPropertyOp50
 70
     1
102
RTVSPropertyOp51
 70
     0
102
RTVSPropertyOp52
 70
     0
102
RTVSPropertyOp53
 70
     1
102
RTVSPropertyOp54
 70
     1
102
RTVSPropertyOp55
 70
     1
102
RTVSPropertyOp56
 70
     1
102
RTVSPropertyOp57
 70
     1
102
RTVSPropertyOp58
 70
     1
102
RTVSPropertyOp59
 70
     1
102
RTVSPropertyOp60
 70
     1
102
RTVSPropertyOp61
 70
     1
102
RTVSPropertyOp62
 70
     1
  0
XRECORD
  5
856C
102
{ACAD_REACTORS
330
856B
102
}
330
856B
100
AcDbXrecord
280
     1
102
RTVSPost2010Prop28
280
     0
102
RTVSPost2010PropOp28
 70
     1
102
RTVSPost2010Prop29
280
     1
102
RTVSPost2010PropOp29
 70
     1
102
RTVSPost2010Prop30
280
     1
102
RTVSPost2010PropOp30
 70
     1
102
RTVSPost2010Prop31
280
     0
102
RTVSPost2010PropOp31
 70
     1
102
RTVSPost2010Prop32
280
     0
102
RTVSPost2010PropOp32
 70
     1
102
RTVSPost2010Prop33
280
     0
102
RTVSPost2010PropOp33
 70
     1
102
RTVSPost2010Prop34
280
     0
102
RTVSPost2010PropOp34
 70
     1
102
RTVSPost2010Prop35
280
     0
102
RTVSPost2010PropOp35
 70
     1
102
RTVSPost2010Prop36
280
     0
102
RTVSPost2010PropOp36
 70
     1
102
RTVSPost2010Prop37
 90
       50
102
RTVSPost2010PropOp37
 70
     1
102
RTVSPost2010Prop38
140
0.0
102
RTVSPost2010PropOp38
 70
     1
102
RTVSPost2010Prop39
140
1.0
102
RTVSPost2010PropOp39
 70
     1
102
RTVSPost2010Prop40
 90
        0
102
RTVSPost2010PropOp40
 70
     1
102
RTVSPost2010Prop41ColorIndex
 90
       18
102
RTVSPost2010Prop41ColorRGB
 90
        0
102
RTVSPost2010PropOp41
 70
     1
102
RTVSPost2010Prop42
 90
       50
102
RTVSPost2010PropOp42
 70
     1
102
RTVSPost2010Prop43
 90
        3
102
RTVSPost2010PropOp43
 70
     1
102
RTVSPost2010Prop44ColorIndex
 90
        5
102
RTVSPost2010Prop44ColorRGB
 90
      255
102
RTVSPost2010PropOp44
 70
     1
102
RTVSPost2010Prop45
280
     0
102
RTVSPost2010PropOp45
 70
     1
102
RTVSPost2010Prop46
 90
       50
102
RTVSPost2010PropOp46
 70
     1
102
RTVSPost2010Prop47
 90
       50
102
RTVSPost2010PropOp47
 70
     1
102
RTVSPost2010Prop48
 90
       50
102
RTVSPost2010PropOp48
 70
     1
102
RTVSPost2010Prop49
280
     0
102
RTVSPost2010PropOp49
 70
     1
102
RTVSPost2010Prop50
 90
       50
102
RTVSPost2010PropOp50
 70
     1
102
RTVSPost2010Prop51ColorIndex
 90
      256
102
RTVSPost2010Prop51ColorRGB
 90
-16777216
102
RTVSPost2010PropOp51
 70
     0
102
RTVSPost2010Prop52
140
1.0
102
RTVSPost2010PropOp52
 70
     0
102
RTVSPost2010Prop53
 90
        2
102
RTVSPost2010PropOp53
 70
     1
102
RTVSPost2010Prop54
  1
strokes_ogs.tif
102
RTVSPost2010PropOp54
 70
     1
102
RTVSPost2010Prop55
280
     0
102
RTVSPost2010PropOp55
 70
     1
102
RTVSPost2010Prop56
140
1.0
102
RTVSPost2010PropOp56
 70
     1
102
RTVSPost2010Prop57
140
1.0
102
RTVSPost2010PropOp57
 70
     1
102
RTVSPropertyOp0
 70
     1
102
RTVSPropertyOp1
 70
     1
102
RTVSPropertyOp2
 70
     1
102
RTVSPropertyOp3
 70
     1
102
RTVSPropertyOp4
 70
     1
102
RTVSPropertyOp5
 70
     1
102
RTVSPropertyOp6
 70
     1
102
RTVSPropertyOp7
 70
     1
102
RTVSPropertyOp8
 70
     1
102
RTVSPropertyOp9
 70
     1
102
RTVSPropertyOp10
 70
     1
102
RTVSPropertyOp11
 70
     1
102
RTVSPropertyOp12
 70
     1
102
RTVSPropertyOp13
 70
     1
102
RTVSPropertyOp14
 70
     1
102
RTVSPropertyOp15
 70
     1
102
RTVSPropertyOp16
 70
     1
102
RTVSPropertyOp17
 70
     1
102
RTVSPropertyOp18
 70
     1
102
RTVSPropertyOp19
 70
     1
102
RTVSPropertyOp20
 70
     1
102
RTVSPropertyOp21
 70
     1
102
RTVSPropertyOp22
 70
     1
102
RTVSPropertyOp23
 70
     1
102
RTVSPropertyOp24
 70
     1
102
RTVSPropertyOp25
 70
     1
102
RTVSPropertyOp26
 70
     1
102
RTVSPropertyOp27
 70
     1
102
RTVSPropertyOp28
 70
     1
102
RTVSPropertyOp29
 70
     1
102
RTVSPropertyOp30
 70
     1
102
RTVSPropertyOp31
 70
     1
102
RTVSPropertyOp32
 70
     1
102
RTVSPropertyOp33
 70
     1
102
RTVSPropertyOp34
 70
     1
102
RTVSPropertyOp35
 70
     1
102
RTVSPropertyOp36
 70
     1
102
RTVSPropertyOp37
 70
     1
102
RTVSPropertyOp38
 70
     1
102
RTVSPropertyOp39
 70
     1
102
RTVSPropertyOp40
 70
     1
102
RTVSPropertyOp41
 70
     1
102
RTVSPropertyOp42
 70
     1
102
RTVSPropertyOp43
 70
     1
102
RTVSPropertyOp44
 70
     1
102
RTVSPropertyOp45
 70
     1
102
RTVSPropertyOp46
 70
     1
102
RTVSPropertyOp47
 70
     1
102
RTVSPropertyOp48
 70
     1
102
RTVSPropertyOp49
 70
     1
102
RTVSPropertyOp50
 70
     1
102
RTVSPropertyOp51
 70
     0
102
RTVSPropertyOp52
 70
     0
102
RTVSPropertyOp53
 70
     1
102
RTVSPropertyOp54
 70
     1
102
RTVSPropertyOp55
 70
     1
102
RTVSPropertyOp56
 70
     1
102
RTVSPropertyOp57
 70
     1
102
RTVSPropertyOp58
 70
     1
102
RTVSPropertyOp59
 70
     1
102
RTVSPropertyOp60
 70
     1
102
RTVSPropertyOp61
 70
     1
102
RTVSPropertyOp62
 70
     1
  0
XRECORD
  5
8574
102
{ACAD_REACTORS
330
8573
102
}
330
8573
100
AcDbXrecord
280
     1
102
RTVSPost2010Prop28
280
     0
102
RTVSPost2010PropOp28
 70
     1
102
RTVSPost2010Prop29
280
     1
102
RTVSPost2010PropOp29
 70
     1
102
RTVSPost2010Prop30
280
     1
102
RTVSPost2010PropOp30
 70
     1
102
RTVSPost2010Prop31
280
     0
102
RTVSPost2010PropOp31
 70
     1
102
RTVSPost2010Prop32
280
     0
102
RTVSPost2010PropOp32
 70
     1
102
RTVSPost2010Prop33
280
     0
102
RTVSPost2010PropOp33
 70
     1
102
RTVSPost2010Prop34
280
     0
102
RTVSPost2010PropOp34
 70
     1
102
RTVSPost2010Prop35
280
     0
102
RTVSPost2010PropOp35
 70
     1
102
RTVSPost2010Prop36
280
     0
102
RTVSPost2010PropOp36
 70
     1
102
RTVSPost2010Prop37
 90
       50
102
RTVSPost2010PropOp37
 70
     1
102
RTVSPost2010Prop38
140
0.0
102
RTVSPost2010PropOp38
 70
     1
102
RTVSPost2010Prop39
140
1.0
102
RTVSPost2010PropOp39
 70
     1
102
RTVSPost2010Prop40
 90
        0
102
RTVSPost2010PropOp40
 70
     1
102
RTVSPost2010Prop41ColorIndex
 90
       18
102
RTVSPost2010Prop41ColorRGB
 90
        0
102
RTVSPost2010PropOp41
 70
     1
102
RTVSPost2010Prop42
 90
       50
102
RTVSPost2010PropOp42
 70
     1
102
RTVSPost2010Prop43
 90
        3
102
RTVSPost2010PropOp43
 70
     1
102
RTVSPost2010Prop44ColorIndex
 90
        5
102
RTVSPost2010Prop44ColorRGB
 90
      255
102
RTVSPost2010PropOp44
 70
     1
102
RTVSPost2010Prop45
280
     0
102
RTVSPost2010PropOp45
 70
     1
102
RTVSPost2010Prop46
 90
       50
102
RTVSPost2010PropOp46
 70
     1
102
RTVSPost2010Prop47
 90
       50
102
RTVSPost2010PropOp47
 70
     1
102
RTVSPost2010Prop48
 90
       50
102
RTVSPost2010PropOp48
 70
     1
102
RTVSPost2010Prop49
280
     0
102
RTVSPost2010PropOp49
 70
     1
102
RTVSPost2010Prop50
 90
       50
102
RTVSPost2010PropOp50
 70
     1
102
RTVSPost2010Prop51ColorIndex
 90
      256
102
RTVSPost2010Prop51ColorRGB
 90
-16777216
102
RTVSPost2010PropOp51
 70
     0
102
RTVSPost2010Prop52
140
1.0
102
RTVSPost2010PropOp52
 70
     0
102
RTVSPost2010Prop53
 90
        2
102
RTVSPost2010PropOp53
 70
     1
102
RTVSPost2010Prop54
  1
strokes_ogs.tif
102
RTVSPost2010PropOp54
 70
     1
102
RTVSPost2010Prop55
280
     0
102
RTVSPost2010PropOp55
 70
     1
102
RTVSPost2010Prop56
140
1.0
102
RTVSPost2010PropOp56
 70
     1
102
RTVSPost2010Prop57
140
1.0
102
RTVSPost2010PropOp57
 70
     1
102
RTVSPropertyOp0
 70
     1
102
RTVSPropertyOp1
 70
     1
102
RTVSPropertyOp2
 70
     1
102
RTVSPropertyOp3
 70
     1
102
RTVSPropertyOp4
 70
     1
102
RTVSPropertyOp5
 70
     1
102
RTVSPropertyOp6
 70
     1
102
RTVSPropertyOp7
 70
     1
102
RTVSPropertyOp8
 70
     1
102
RTVSPropertyOp9
 70
     1
102
RTVSPropertyOp10
 70
     1
102
RTVSPropertyOp11
 70
     1
102
RTVSPropertyOp12
 70
     1
102
RTVSPropertyOp13
 70
     1
102
RTVSPropertyOp14
 70
     1
102
RTVSPropertyOp15
 70
     1
102
RTVSPropertyOp16
 70
     1
102
RTVSPropertyOp17
 70
     1
102
RTVSPropertyOp18
 70
     1
102
RTVSPropertyOp19
 70
     1
102
RTVSPropertyOp20
 70
     1
102
RTVSPropertyOp21
 70
     1
102
RTVSPropertyOp22
 70
     1
102
RTVSPropertyOp23
 70
     1
102
RTVSPropertyOp24
 70
     1
102
RTVSPropertyOp25
 70
     1
102
RTVSPropertyOp26
 70
     1
102
RTVSPropertyOp27
 70
     1
102
RTVSPropertyOp28
 70
     1
102
RTVSPropertyOp29
 70
     1
102
RTVSPropertyOp30
 70
     1
102
RTVSPropertyOp31
 70
     1
102
RTVSPropertyOp32
 70
     1
102
RTVSPropertyOp33
 70
     1
102
RTVSPropertyOp34
 70
     1
102
RTVSPropertyOp35
 70
     1
102
RTVSPropertyOp36
 70
     1
102
RTVSPropertyOp37
 70
     1
102
RTVSPropertyOp38
 70
     1
102
RTVSPropertyOp39
 70
     1
102
RTVSPropertyOp40
 70
     1
102
RTVSPropertyOp41
 70
     1
102
RTVSPropertyOp42
 70
     1
102
RTVSPropertyOp43
 70
     1
102
RTVSPropertyOp44
 70
     1
102
RTVSPropertyOp45
 70
     1
102
RTVSPropertyOp46
 70
     1
102
RTVSPropertyOp47
 70
     1
102
RTVSPropertyOp48
 70
     1
102
RTVSPropertyOp49
 70
     1
102
RTVSPropertyOp50
 70
     1
102
RTVSPropertyOp51
 70
     0
102
RTVSPropertyOp52
 70
     0
102
RTVSPropertyOp53
 70
     1
102
RTVSPropertyOp54
 70
     1
102
RTVSPropertyOp55
 70
     1
102
RTVSPropertyOp56
 70
     1
102
RTVSPropertyOp57
 70
     1
102
RTVSPropertyOp58
 70
     1
102
RTVSPropertyOp59
 70
     1
102
RTVSPropertyOp60
 70
     1
102
RTVSPropertyOp61
 70
     1
102
RTVSPropertyOp62
 70
     1
  0
XRECORD
  5
8566
102
{ACAD_REACTORS
330
8565
102
}
330
8565
100
AcDbXrecord
280
     1
102
RTVSPost2010Prop28
280
     0
102
RTVSPost2010PropOp28
 70
     1
102
RTVSPost2010Prop29
280
     1
102
RTVSPost2010PropOp29
 70
     1
102
RTVSPost2010Prop30
280
     1
102
RTVSPost2010PropOp30
 70
     1
102
RTVSPost2010Prop31
280
     0
102
RTVSPost2010PropOp31
 70
     1
102
RTVSPost2010Prop32
280
     0
102
RTVSPost2010PropOp32
 70
     1
102
RTVSPost2010Prop33
280
     0
102
RTVSPost2010PropOp33
 70
     1
102
RTVSPost2010Prop34
280
     0
102
RTVSPost2010PropOp34
 70
     1
102
RTVSPost2010Prop35
280
     0
102
RTVSPost2010PropOp35
 70
     1
102
RTVSPost2010Prop36
280
     0
102
RTVSPost2010PropOp36
 70
     1
102
RTVSPost2010Prop37
 90
       50
102
RTVSPost2010PropOp37
 70
     1
102
RTVSPost2010Prop38
140
0.0
102
RTVSPost2010PropOp38
 70
     1
102
RTVSPost2010Prop39
140
1.0
102
RTVSPost2010PropOp39
 70
     1
102
RTVSPost2010Prop40
 90
        0
102
RTVSPost2010PropOp40
 70
     1
102
RTVSPost2010Prop41ColorIndex
 90
       18
102
RTVSPost2010Prop41ColorRGB
 90
        0
102
RTVSPost2010PropOp41
 70
     1
102
RTVSPost2010Prop42
 90
       50
102
RTVSPost2010PropOp42
 70
     1
102
RTVSPost2010Prop43
 90
        3
102
RTVSPost2010PropOp43
 70
     1
102
RTVSPost2010Prop44ColorIndex
 90
        5
102
RTVSPost2010Prop44ColorRGB
 90
      255
102
RTVSPost2010PropOp44
 70
     1
102
RTVSPost2010Prop45
280
     0
102
RTVSPost2010PropOp45
 70
     1
102
RTVSPost2010Prop46
 90
       50
102
RTVSPost2010PropOp46
 70
     1
102
RTVSPost2010Prop47
 90
       50
102
RTVSPost2010PropOp47
 70
     1
102
RTVSPost2010Prop48
 90
       50
102
RTVSPost2010PropOp48
 70
     1
102
RTVSPost2010Prop49
280
     0
102
RTVSPost2010PropOp49
 70
     1
102
RTVSPost2010Prop50
 90
       50
102
RTVSPost2010PropOp50
 70
     1
102
RTVSPost2010Prop51ColorIndex
 90
      256
102
RTVSPost2010Prop51ColorRGB
 90
-16777216
102
RTVSPost2010PropOp51
 70
     0
102
RTVSPost2010Prop52
140
1.0
102
RTVSPost2010PropOp52
 70
     0
102
RTVSPost2010Prop53
 90
        2
102
RTVSPost2010PropOp53
 70
     1
102
RTVSPost2010Prop54
  1
strokes_ogs.tif
102
RTVSPost2010PropOp54
 70
     1
102
RTVSPost2010Prop55
280
     0
102
RTVSPost2010PropOp55
 70
     1
102
RTVSPost2010Prop56
140
1.0
102
RTVSPost2010PropOp56
 70
     1
102
RTVSPost2010Prop57
140
1.0
102
RTVSPost2010PropOp57
 70
     1
102
RTVSPropertyOp0
 70
     1
102
RTVSPropertyOp1
 70
     1
102
RTVSPropertyOp2
 70
     1
102
RTVSPropertyOp3
 70
     1
102
RTVSPropertyOp4
 70
     1
102
RTVSPropertyOp5
 70
     1
102
RTVSPropertyOp6
 70
     1
102
RTVSPropertyOp7
 70
     1
102
RTVSPropertyOp8
 70
     1
102
RTVSPropertyOp9
 70
     1
102
RTVSPropertyOp10
 70
     1
102
RTVSPropertyOp11
 70
     1
102
RTVSPropertyOp12
 70
     1
102
RTVSPropertyOp13
 70
     1
102
RTVSPropertyOp14
 70
     1
102
RTVSPropertyOp15
 70
     1
102
RTVSPropertyOp16
 70
     1
102
RTVSPropertyOp17
 70
     1
102
RTVSPropertyOp18
 70
     1
102
RTVSPropertyOp19
 70
     1
102
RTVSPropertyOp20
 70
     1
102
RTVSPropertyOp21
 70
     1
102
RTVSPropertyOp22
 70
     1
102
RTVSPropertyOp23
 70
     1
102
RTVSPropertyOp24
 70
     1
102
RTVSPropertyOp25
 70
     1
102
RTVSPropertyOp26
 70
     1
102
RTVSPropertyOp27
 70
     1
102
RTVSPropertyOp28
 70
     1
102
RTVSPropertyOp29
 70
     1
102
RTVSPropertyOp30
 70
     1
102
RTVSPropertyOp31
 70
     1
102
RTVSPropertyOp32
 70
     1
102
RTVSPropertyOp33
 70
     1
102
RTVSPropertyOp34
 70
     1
102
RTVSPropertyOp35
 70
     1
102
RTVSPropertyOp36
 70
     1
102
RTVSPropertyOp37
 70
     1
102
RTVSPropertyOp38
 70
     1
102
RTVSPropertyOp39
 70
     1
102
RTVSPropertyOp40
 70
     1
102
RTVSPropertyOp41
 70
     1
102
RTVSPropertyOp42
 70
     1
102
RTVSPropertyOp43
 70
     1
102
RTVSPropertyOp44
 70
     1
102
RTVSPropertyOp45
 70
     1
102
RTVSPropertyOp46
 70
     1
102
RTVSPropertyOp47
 70
     1
102
RTVSPropertyOp48
 70
     1
102
RTVSPropertyOp49
 70
     1
102
RTVSPropertyOp50
 70
     1
102
RTVSPropertyOp51
 70
     0
102
RTVSPropertyOp52
 70
     0
102
RTVSPropertyOp53
 70
     1
102
RTVSPropertyOp54
 70
     1
102
RTVSPropertyOp55
 70
     1
102
RTVSPropertyOp56
 70
     1
102
RTVSPropertyOp57
 70
     1
102
RTVSPropertyOp58
 70
     1
102
RTVSPropertyOp59
 70
     1
102
RTVSPropertyOp60
 70
     1
102
RTVSPropertyOp61
 70
     1
102
RTVSPropertyOp62
 70
     1
  0
XRECORD
  5
856A
102
{ACAD_REACTORS
330
8569
102
}
330
8569
100
AcDbXrecord
280
     1
102
RTVSPost2010Prop28
280
     0
102
RTVSPost2010PropOp28
 70
     1
102
RTVSPost2010Prop29
280
     1
102
RTVSPost2010PropOp29
 70
     1
102
RTVSPost2010Prop30
280
     1
102
RTVSPost2010PropOp30
 70
     1
102
RTVSPost2010Prop31
280
     0
102
RTVSPost2010PropOp31
 70
     1
102
RTVSPost2010Prop32
280
     0
102
RTVSPost2010PropOp32
 70
     1
102
RTVSPost2010Prop33
280
     0
102
RTVSPost2010PropOp33
 70
     1
102
RTVSPost2010Prop34
280
     0
102
RTVSPost2010PropOp34
 70
     1
102
RTVSPost2010Prop35
280
     0
102
RTVSPost2010PropOp35
 70
     1
102
RTVSPost2010Prop36
280
     0
102
RTVSPost2010PropOp36
 70
     1
102
RTVSPost2010Prop37
 90
       50
102
RTVSPost2010PropOp37
 70
     1
102
RTVSPost2010Prop38
140
0.0
102
RTVSPost2010PropOp38
 70
     1
102
RTVSPost2010Prop39
140
1.0
102
RTVSPost2010PropOp39
 70
     1
102
RTVSPost2010Prop40
 90
        0
102
RTVSPost2010PropOp40
 70
     1
102
RTVSPost2010Prop41ColorIndex
 90
       18
102
RTVSPost2010Prop41ColorRGB
 90
        0
102
RTVSPost2010PropOp41
 70
     1
102
RTVSPost2010Prop42
 90
       50
102
RTVSPost2010PropOp42
 70
     1
102
RTVSPost2010Prop43
 90
        3
102
RTVSPost2010PropOp43
 70
     1
102
RTVSPost2010Prop44ColorIndex
 90
        5
102
RTVSPost2010Prop44ColorRGB
 90
      255
102
RTVSPost2010PropOp44
 70
     1
102
RTVSPost2010Prop45
280
     0
102
RTVSPost2010PropOp45
 70
     1
102
RTVSPost2010Prop46
 90
       50
102
RTVSPost2010PropOp46
 70
     1
102
RTVSPost2010Prop47
 90
       50
102
RTVSPost2010PropOp47
 70
     1
102
RTVSPost2010Prop48
 90
       50
102
RTVSPost2010PropOp48
 70
     1
102
RTVSPost2010Prop49
280
     0
102
RTVSPost2010PropOp49
 70
     1
102
RTVSPost2010Prop50
 90
       50
102
RTVSPost2010PropOp50
 70
     1
102
RTVSPost2010Prop51ColorIndex
 90
      256
102
RTVSPost2010Prop51ColorRGB
 90
-16777216
102
RTVSPost2010PropOp51
 70
     0
102
RTVSPost2010Prop52
140
1.0
102
RTVSPost2010PropOp52
 70
     0
102
RTVSPost2010Prop53
 90
        2
102
RTVSPost2010PropOp53
 70
     1
102
RTVSPost2010Prop54
  1
strokes_ogs.tif
102
RTVSPost2010PropOp54
 70
     1
102
RTVSPost2010Prop55
280
     0
102
RTVSPost2010PropOp55
 70
     1
102
RTVSPost2010Prop56
140
1.0
102
RTVSPost2010PropOp56
 70
     1
102
RTVSPost2010Prop57
140
1.0
102
RTVSPost2010PropOp57
 70
     1
102
RTVSPropertyOp0
 70
     1
102
RTVSPropertyOp1
 70
     1
102
RTVSPropertyOp2
 70
     1
102
RTVSPropertyOp3
 70
     1
102
RTVSPropertyOp4
 70
     1
102
RTVSPropertyOp5
 70
     1
102
RTVSPropertyOp6
 70
     1
102
RTVSPropertyOp7
 70
     1
102
RTVSPropertyOp8
 70
     1
102
RTVSPropertyOp9
 70
     1
102
RTVSPropertyOp10
 70
     1
102
RTVSPropertyOp11
 70
     1
102
RTVSPropertyOp12
 70
     1
102
RTVSPropertyOp13
 70
     1
102
RTVSPropertyOp14
 70
     1
102
RTVSPropertyOp15
 70
     1
102
RTVSPropertyOp16
 70
     1
102
RTVSPropertyOp17
 70
     1
102
RTVSPropertyOp18
 70
     1
102
RTVSPropertyOp19
 70
     1
102
RTVSPropertyOp20
 70
     1
102
RTVSPropertyOp21
 70
     1
102
RTVSPropertyOp22
 70
     1
102
RTVSPropertyOp23
 70
     1
102
RTVSPropertyOp24
 70
     1
102
RTVSPropertyOp25
 70
     1
102
RTVSPropertyOp26
 70
     1
102
RTVSPropertyOp27
 70
     1
102
RTVSPropertyOp28
 70
     1
102
RTVSPropertyOp29
 70
     1
102
RTVSPropertyOp30
 70
     1
102
RTVSPropertyOp31
 70
     1
102
RTVSPropertyOp32
 70
     1
102
RTVSPropertyOp33
 70
     1
102
RTVSPropertyOp34
 70
     1
102
RTVSPropertyOp35
 70
     1
102
RTVSPropertyOp36
 70
     1
102
RTVSPropertyOp37
 70
     1
102
RTVSPropertyOp38
 70
     1
102
RTVSPropertyOp39
 70
     1
102
RTVSPropertyOp40
 70
     1
102
RTVSPropertyOp41
 70
     1
102
RTVSPropertyOp42
 70
     1
102
RTVSPropertyOp43
 70
     1
102
RTVSPropertyOp44
 70
     1
102
RTVSPropertyOp45
 70
     1
102
RTVSPropertyOp46
 70
     1
102
RTVSPropertyOp47
 70
     1
102
RTVSPropertyOp48
 70
     1
102
RTVSPropertyOp49
 70
     1
102
RTVSPropertyOp50
 70
     1
102
RTVSPropertyOp51
 70
     0
102
RTVSPropertyOp52
 70
     0
102
RTVSPropertyOp53
 70
     1
102
RTVSPropertyOp54
 70
     1
102
RTVSPropertyOp55
 70
     1
102
RTVSPropertyOp56
 70
     1
102
RTVSPropertyOp57
 70
     1
102
RTVSPropertyOp58
 70
     1
102
RTVSPropertyOp59
 70
     1
102
RTVSPropertyOp60
 70
     1
102
RTVSPropertyOp61
 70
     1
102
RTVSPropertyOp62
 70
     1
  0
XRECORD
  5
8584
102
{ACAD_REACTORS
330
8583
102
}
330
8583
100
AcDbXrecord
280
     1
102
RTVSPost2010Prop28
280
     0
102
RTVSPost2010PropOp28
 70
     1
102
RTVSPost2010Prop29
280
     1
102
RTVSPost2010PropOp29
 70
     1
102
RTVSPost2010Prop30
280
     1
102
RTVSPost2010PropOp30
 70
     1
102
RTVSPost2010Prop31
280
     0
102
RTVSPost2010PropOp31
 70
     1
102
RTVSPost2010Prop32
280
     0
102
RTVSPost2010PropOp32
 70
     1
102
RTVSPost2010Prop33
280
     0
102
RTVSPost2010PropOp33
 70
     1
102
RTVSPost2010Prop34
280
     0
102
RTVSPost2010PropOp34
 70
     1
102
RTVSPost2010Prop35
280
     0
102
RTVSPost2010PropOp35
 70
     1
102
RTVSPost2010Prop36
280
     0
102
RTVSPost2010PropOp36
 70
     1
102
RTVSPost2010Prop37
 90
       50
102
RTVSPost2010PropOp37
 70
     0
102
RTVSPost2010Prop38
140
0.0
102
RTVSPost2010PropOp38
 70
     0
102
RTVSPost2010Prop39
140
1.0
102
RTVSPost2010PropOp39
 70
     0
102
RTVSPost2010Prop40
 90
        0
102
RTVSPost2010PropOp40
 70
     0
102
RTVSPost2010Prop41ColorIndex
 90
       18
102
RTVSPost2010Prop41ColorRGB
 90
        0
102
RTVSPost2010PropOp41
 70
     0
102
RTVSPost2010Prop42
 90
       50
102
RTVSPost2010PropOp42
 70
     0
102
RTVSPost2010Prop43
 90
        3
102
RTVSPost2010PropOp43
 70
     0
102
RTVSPost2010Prop44ColorIndex
 90
        5
102
RTVSPost2010Prop44ColorRGB
 90
      255
102
RTVSPost2010PropOp44
 70
     0
102
RTVSPost2010Prop45
280
     0
102
RTVSPost2010PropOp45
 70
     1
102
RTVSPost2010Prop46
 90
       50
102
RTVSPost2010PropOp46
 70
     0
102
RTVSPost2010Prop47
 90
       50
102
RTVSPost2010PropOp47
 70
     0
102
RTVSPost2010Prop48
 90
       50
102
RTVSPost2010PropOp48
 70
     0
102
RTVSPost2010Prop49
280
     0
102
RTVSPost2010PropOp49
 70
     1
102
RTVSPost2010Prop50
 90
       50
102
RTVSPost2010PropOp50
 70
     0
102
RTVSPost2010Prop51ColorIndex
 90
      256
102
RTVSPost2010Prop51ColorRGB
 90
-16777216
102
RTVSPost2010PropOp51
 70
     0
102
RTVSPost2010Prop52
140
1.0
102
RTVSPost2010PropOp52
 70
     0
102
RTVSPost2010Prop53
 90
        2
102
RTVSPost2010PropOp53
 70
     0
102
RTVSPost2010Prop54
  1
strokes_ogs.tif
102
RTVSPost2010PropOp54
 70
     0
102
RTVSPost2010Prop55
280
     0
102
RTVSPost2010PropOp55
 70
     1
102
RTVSPost2010Prop56
140
1.0
102
RTVSPost2010PropOp56
 70
     0
102
RTVSPost2010Prop57
140
1.0
102
RTVSPost2010PropOp57
 70
     0
102
RTVSPropertyOp0
 70
     0
102
RTVSPropertyOp1
 70
     0
102
RTVSPropertyOp2
 70
     0
102
RTVSPropertyOp3
 70
     0
102
RTVSPropertyOp4
 70
     0
102
RTVSPropertyOp5
 70
     0
102
RTVSPropertyOp6
 70
     0
102
RTVSPropertyOp7
 70
     0
102
RTVSPropertyOp8
 70
     0
102
RTVSPropertyOp9
 70
     0
102
RTVSPropertyOp10
 70
     0
102
RTVSPropertyOp11
 70
     0
102
RTVSPropertyOp12
 70
     0
102
RTVSPropertyOp13
 70
     0
102
RTVSPropertyOp14
 70
     2
102
RTVSPropertyOp15
 70
     0
102
RTVSPropertyOp16
 70
     0
102
RTVSPropertyOp17
 70
     0
102
RTVSPropertyOp18
 70
     0
102
RTVSPropertyOp19
 70
     0
102
RTVSPropertyOp20
 70
     0
102
RTVSPropertyOp21
 70
     0
102
RTVSPropertyOp22
 70
     0
102
RTVSPropertyOp23
 70
     0
102
RTVSPropertyOp24
 70
     0
102
RTVSPropertyOp25
 70
     0
102
RTVSPropertyOp26
 70
     0
102
RTVSPropertyOp27
 70
     0
102
RTVSPropertyOp28
 70
     1
102
RTVSPropertyOp29
 70
     1
102
RTVSPropertyOp30
 70
     1
102
RTVSPropertyOp31
 70
     1
102
RTVSPropertyOp32
 70
     1
102
RTVSPropertyOp33
 70
     1
102
RTVSPropertyOp34
 70
     1
102
RTVSPropertyOp35
 70
     1
102
RTVSPropertyOp36
 70
     1
102
RTVSPropertyOp37
 70
     0
102
RTVSPropertyOp38
 70
     0
102
RTVSPropertyOp39
 70
     0
102
RTVSPropertyOp40
 70
     0
102
RTVSPropertyOp41
 70
     0
102
RTVSPropertyOp42
 70
     0
102
RTVSPropertyOp43
 70
     0
102
RTVSPropertyOp44
 70
     0
102
RTVSPropertyOp45
 70
     1
102
RTVSPropertyOp46
 70
     0
102
RTVSPropertyOp47
 70
     0
102
RTVSPropertyOp48
 70
     0
102
RTVSPropertyOp49
 70
     1
102
RTVSPropertyOp50
 70
     0
102
RTVSPropertyOp51
 70
     0
102
RTVSPropertyOp52
 70
     0
102
RTVSPropertyOp53
 70
     0
102
RTVSPropertyOp54
 70
     0
102
RTVSPropertyOp55
 70
     1
102
RTVSPropertyOp56
 70
     0
102
RTVSPropertyOp57
 70
     0
102
RTVSPropertyOp58
 70
     0
102
RTVSPropertyOp59
 70
     0
102
RTVSPropertyOp60
 70
     0
102
RTVSPropertyOp61
 70
     0
102
RTVSPropertyOp62
 70
     0
  0
XRECORD
  5
8572
102
{ACAD_REACTORS
330
8571
102
}
330
8571
100
AcDbXrecord
280
     1
102
RTVSPost2010Prop28
280
     0
102
RTVSPost2010PropOp28
 70
     1
102
RTVSPost2010Prop29
280
     1
102
RTVSPost2010PropOp29
 70
     1
102
RTVSPost2010Prop30
280
     1
102
RTVSPost2010PropOp30
 70
     1
102
RTVSPost2010Prop31
280
     0
102
RTVSPost2010PropOp31
 70
     1
102
RTVSPost2010Prop32
280
     0
102
RTVSPost2010PropOp32
 70
     1
102
RTVSPost2010Prop33
280
     0
102
RTVSPost2010PropOp33
 70
     1
102
RTVSPost2010Prop34
280
     0
102
RTVSPost2010PropOp34
 70
     1
102
RTVSPost2010Prop35
280
     0
102
RTVSPost2010PropOp35
 70
     1
102
RTVSPost2010Prop36
280
     0
102
RTVSPost2010PropOp36
 70
     1
102
RTVSPost2010Prop37
 90
       50
102
RTVSPost2010PropOp37
 70
     1
102
RTVSPost2010Prop38
140
0.0
102
RTVSPost2010PropOp38
 70
     1
102
RTVSPost2010Prop39
140
1.0
102
RTVSPost2010PropOp39
 70
     1
102
RTVSPost2010Prop40
 90
        0
102
RTVSPost2010PropOp40
 70
     1
102
RTVSPost2010Prop41ColorIndex
 90
       18
102
RTVSPost2010Prop41ColorRGB
 90
        0
102
RTVSPost2010PropOp41
 70
     1
102
RTVSPost2010Prop42
 90
       50
102
RTVSPost2010PropOp42
 70
     1
102
RTVSPost2010Prop43
 90
        3
102
RTVSPost2010PropOp43
 70
     1
102
RTVSPost2010Prop44ColorIndex
 90
        5
102
RTVSPost2010Prop44ColorRGB
 90
      255
102
RTVSPost2010PropOp44
 70
     1
102
RTVSPost2010Prop45
280
     0
102
RTVSPost2010PropOp45
 70
     1
102
RTVSPost2010Prop46
 90
       50
102
RTVSPost2010PropOp46
 70
     1
102
RTVSPost2010Prop47
 90
       50
102
RTVSPost2010PropOp47
 70
     1
102
RTVSPost2010Prop48
 90
       50
102
RTVSPost2010PropOp48
 70
     1
102
RTVSPost2010Prop49
280
     0
102
RTVSPost2010PropOp49
 70
     1
102
RTVSPost2010Prop50
 90
       50
102
RTVSPost2010PropOp50
 70
     1
102
RTVSPost2010Prop51ColorIndex
 90
      256
102
RTVSPost2010Prop51ColorRGB
 90
-16777216
102
RTVSPost2010PropOp51
 70
     0
102
RTVSPost2010Prop52
140
1.0
102
RTVSPost2010PropOp52
 70
     0
102
RTVSPost2010Prop53
 90
        2
102
RTVSPost2010PropOp53
 70
     1
102
RTVSPost2010Prop54
  1
strokes_ogs.tif
102
RTVSPost2010PropOp54
 70
     1
102
RTVSPost2010Prop55
280
     0
102
RTVSPost2010PropOp55
 70
     1
102
RTVSPost2010Prop56
140
1.0
102
RTVSPost2010PropOp56
 70
     1
102
RTVSPost2010Prop57
140
1.0
102
RTVSPost2010PropOp57
 70
     1
102
RTVSPropertyOp0
 70
     1
102
RTVSPropertyOp1
 70
     1
102
RTVSPropertyOp2
 70
     1
102
RTVSPropertyOp3
 70
     1
102
RTVSPropertyOp4
 70
     1
102
RTVSPropertyOp5
 70
     1
102
RTVSPropertyOp6
 70
     1
102
RTVSPropertyOp7
 70
     1
102
RTVSPropertyOp8
 70
     1
102
RTVSPropertyOp9
 70
     1
102
RTVSPropertyOp10
 70
     1
102
RTVSPropertyOp11
 70
     1
102
RTVSPropertyOp12
 70
     1
102
RTVSPropertyOp13
 70
     1
102
RTVSPropertyOp14
 70
     1
102
RTVSPropertyOp15
 70
     1
102
RTVSPropertyOp16
 70
     1
102
RTVSPropertyOp17
 70
     1
102
RTVSPropertyOp18
 70
     1
102
RTVSPropertyOp19
 70
     1
102
RTVSPropertyOp20
 70
     1
102
RTVSPropertyOp21
 70
     1
102
RTVSPropertyOp22
 70
     1
102
RTVSPropertyOp23
 70
     1
102
RTVSPropertyOp24
 70
     1
102
RTVSPropertyOp25
 70
     1
102
RTVSPropertyOp26
 70
     1
102
RTVSPropertyOp27
 70
     1
102
RTVSPropertyOp28
 70
     1
102
RTVSPropertyOp29
 70
     1
102
RTVSPropertyOp30
 70
     1
102
RTVSPropertyOp31
 70
     1
102
RTVSPropertyOp32
 70
     1
102
RTVSPropertyOp33
 70
     1
102
RTVSPropertyOp34
 70
     1
102
RTVSPropertyOp35
 70
     1
102
RTVSPropertyOp36
 70
     1
102
RTVSPropertyOp37
 70
     1
102
RTVSPropertyOp38
 70
     1
102
RTVSPropertyOp39
 70
     1
102
RTVSPropertyOp40
 70
     1
102
RTVSPropertyOp41
 70
     1
102
RTVSPropertyOp42
 70
     1
102
RTVSPropertyOp43
 70
     1
102
RTVSPropertyOp44
 70
     1
102
RTVSPropertyOp45
 70
     1
102
RTVSPropertyOp46
 70
     1
102
RTVSPropertyOp47
 70
     1
102
RTVSPropertyOp48
 70
     1
102
RTVSPropertyOp49
 70
     1
102
RTVSPropertyOp50
 70
     1
102
RTVSPropertyOp51
 70
     0
102
RTVSPropertyOp52
 70
     0
102
RTVSPropertyOp53
 70
     1
102
RTVSPropertyOp54
 70
     1
102
RTVSPropertyOp55
 70
     1
102
RTVSPropertyOp56
 70
     1
102
RTVSPropertyOp57
 70
     1
102
RTVSPropertyOp58
 70
     1
102
RTVSPropertyOp59
 70
     1
102
RTVSPropertyOp60
 70
     1
102
RTVSPropertyOp61
 70
     1
102
RTVSPropertyOp62
 70
     1
  0
XRECORD
  5
8556
102
{ACAD_REACTORS
330
8555
102
}
330
8555
100
AcDbXrecord
280
     1
102
RTVSPost2010Prop28
280
     0
102
RTVSPost2010PropOp28
 70
     1
102
RTVSPost2010Prop29
280
     1
102
RTVSPost2010PropOp29
 70
     1
102
RTVSPost2010Prop30
280
     1
102
RTVSPost2010PropOp30
 70
     1
102
RTVSPost2010Prop31
280
     0
102
RTVSPost2010PropOp31
 70
     1
102
RTVSPost2010Prop32
280
     0
102
RTVSPost2010PropOp32
 70
     1
102
RTVSPost2010Prop33
280
     0
102
RTVSPost2010PropOp33
 70
     1
102
RTVSPost2010Prop34
280
     0
102
RTVSPost2010PropOp34
 70
     1
102
RTVSPost2010Prop35
280
     0
102
RTVSPost2010PropOp35
 70
     1
102
RTVSPost2010Prop36
280
     0
102
RTVSPost2010PropOp36
 70
     1
102
RTVSPost2010Prop37
 90
       50
102
RTVSPost2010PropOp37
 70
     1
102
RTVSPost2010Prop38
140
0.0
102
RTVSPost2010PropOp38
 70
     1
102
RTVSPost2010Prop39
140
1.0
102
RTVSPost2010PropOp39
 70
     1
102
RTVSPost2010Prop40
 90
        0
102
RTVSPost2010PropOp40
 70
     1
102
RTVSPost2010Prop41ColorIndex
 90
       18
102
RTVSPost2010Prop41ColorRGB
 90
        0
102
RTVSPost2010PropOp41
 70
     1
102
RTVSPost2010Prop42
 90
       50
102
RTVSPost2010PropOp42
 70
     1
102
RTVSPost2010Prop43
 90
        3
102
RTVSPost2010PropOp43
 70
     1
102
RTVSPost2010Prop44ColorIndex
 90
        5
102
RTVSPost2010Prop44ColorRGB
 90
      255
102
RTVSPost2010PropOp44
 70
     1
102
RTVSPost2010Prop45
280
     0
102
RTVSPost2010PropOp45
 70
     1
102
RTVSPost2010Prop46
 90
       50
102
RTVSPost2010PropOp46
 70
     1
102
RTVSPost2010Prop47
 90
       50
102
RTVSPost2010PropOp47
 70
     1
102
RTVSPost2010Prop48
 90
       50
102
RTVSPost2010PropOp48
 70
     1
102
RTVSPost2010Prop49
280
     0
102
RTVSPost2010PropOp49
 70
     1
102
RTVSPost2010Prop50
 90
       50
102
RTVSPost2010PropOp50
 70
     1
102
RTVSPost2010Prop51ColorIndex
 90
      256
102
RTVSPost2010Prop51ColorRGB
 90
-16777216
102
RTVSPost2010PropOp51
 70
     0
102
RTVSPost2010Prop52
140
1.0
102
RTVSPost2010PropOp52
 70
     0
102
RTVSPost2010Prop53
 90
        2
102
RTVSPost2010PropOp53
 70
     1
102
RTVSPost2010Prop54
  1
strokes_ogs.tif
102
RTVSPost2010PropOp54
 70
     1
102
RTVSPost2010Prop55
280
     0
102
RTVSPost2010PropOp55
 70
     1
102
RTVSPost2010Prop56
140
1.0
102
RTVSPost2010PropOp56
 70
     1
102
RTVSPost2010Prop57
140
1.0
102
RTVSPost2010PropOp57
 70
     1
102
RTVSPropertyOp0
 70
     1
102
RTVSPropertyOp1
 70
     1
102
RTVSPropertyOp2
 70
     1
102
RTVSPropertyOp3
 70
     1
102
RTVSPropertyOp4
 70
     1
102
RTVSPropertyOp5
 70
     1
102
RTVSPropertyOp6
 70
     1
102
RTVSPropertyOp7
 70
     1
102
RTVSPropertyOp8
 70
     1
102
RTVSPropertyOp9
 70
     1
102
RTVSPropertyOp10
 70
     1
102
RTVSPropertyOp11
 70
     1
102
RTVSPropertyOp12
 70
     1
102
RTVSPropertyOp13
 70
     1
102
RTVSPropertyOp14
 70
     1
102
RTVSPropertyOp15
 70
     1
102
RTVSPropertyOp16
 70
     1
102
RTVSPropertyOp17
 70
     1
102
RTVSPropertyOp18
 70
     1
102
RTVSPropertyOp19
 70
     1
102
RTVSPropertyOp20
 70
     1
102
RTVSPropertyOp21
 70
     1
102
RTVSPropertyOp22
 70
     1
102
RTVSPropertyOp23
 70
     1
102
RTVSPropertyOp24
 70
     1
102
RTVSPropertyOp25
 70
     1
102
RTVSPropertyOp26
 70
     1
102
RTVSPropertyOp27
 70
     1
102
RTVSPropertyOp28
 70
     1
102
RTVSPropertyOp29
 70
     1
102
RTVSPropertyOp30
 70
     1
102
RTVSPropertyOp31
 70
     1
102
RTVSPropertyOp32
 70
     1
102
RTVSPropertyOp33
 70
     1
102
RTVSPropertyOp34
 70
     1
102
RTVSPropertyOp35
 70
     1
102
RTVSPropertyOp36
 70
     1
102
RTVSPropertyOp37
 70
     1
102
RTVSPropertyOp38
 70
     1
102
RTVSPropertyOp39
 70
     1
102
RTVSPropertyOp40
 70
     1
102
RTVSPropertyOp41
 70
     1
102
RTVSPropertyOp42
 70
     1
102
RTVSPropertyOp43
 70
     1
102
RTVSPropertyOp44
 70
     1
102
RTVSPropertyOp45
 70
     1
102
RTVSPropertyOp46
 70
     1
102
RTVSPropertyOp47
 70
     1
102
RTVSPropertyOp48
 70
     1
102
RTVSPropertyOp49
 70
     1
102
RTVSPropertyOp50
 70
     1
102
RTVSPropertyOp51
 70
     0
102
RTVSPropertyOp52
 70
     0
102
RTVSPropertyOp53
 70
     1
102
RTVSPropertyOp54
 70
     1
102
RTVSPropertyOp55
 70
     1
102
RTVSPropertyOp56
 70
     1
102
RTVSPropertyOp57
 70
     1
102
RTVSPropertyOp58
 70
     1
102
RTVSPropertyOp59
 70
     1
102
RTVSPropertyOp60
 70
     1
102
RTVSPropertyOp61
 70
     1
102
RTVSPropertyOp62
 70
     1
  0
XRECORD
  5
8558
102
{ACAD_REACTORS
330
8557
102
}
330
8557
100
AcDbXrecord
280
     1
102
RTVSPost2010Prop28
280
     0
102
RTVSPost2010PropOp28
 70
     1
102
RTVSPost2010Prop29
280
     1
102
RTVSPost2010PropOp29
 70
     1
102
RTVSPost2010Prop30
280
     1
102
RTVSPost2010PropOp30
 70
     1
102
RTVSPost2010Prop31
280
     0
102
RTVSPost2010PropOp31
 70
     1
102
RTVSPost2010Prop32
280
     0
102
RTVSPost2010PropOp32
 70
     1
102
RTVSPost2010Prop33
280
     0
102
RTVSPost2010PropOp33
 70
     1
102
RTVSPost2010Prop34
280
     0
102
RTVSPost2010PropOp34
 70
     1
102
RTVSPost2010Prop35
280
     0
102
RTVSPost2010PropOp35
 70
     1
102
RTVSPost2010Prop36
280
     0
102
RTVSPost2010PropOp36
 70
     1
102
RTVSPost2010Prop37
 90
       50
102
RTVSPost2010PropOp37
 70
     1
102
RTVSPost2010Prop38
140
0.0
102
RTVSPost2010PropOp38
 70
     1
102
RTVSPost2010Prop39
140
1.0
102
RTVSPost2010PropOp39
 70
     1
102
RTVSPost2010Prop40
 90
        0
102
RTVSPost2010PropOp40
 70
     1
102
RTVSPost2010Prop41ColorIndex
 90
       18
102
RTVSPost2010Prop41ColorRGB
 90
        0
102
RTVSPost2010PropOp41
 70
     1
102
RTVSPost2010Prop42
 90
       50
102
RTVSPost2010PropOp42
 70
     1
102
RTVSPost2010Prop43
 90
        3
102
RTVSPost2010PropOp43
 70
     1
102
RTVSPost2010Prop44ColorIndex
 90
        5
102
RTVSPost2010Prop44ColorRGB
 90
      255
102
RTVSPost2010PropOp44
 70
     1
102
RTVSPost2010Prop45
280
     0
102
RTVSPost2010PropOp45
 70
     1
102
RTVSPost2010Prop46
 90
       50
102
RTVSPost2010PropOp46
 70
     1
102
RTVSPost2010Prop47
 90
       50
102
RTVSPost2010PropOp47
 70
     1
102
RTVSPost2010Prop48
 90
       50
102
RTVSPost2010PropOp48
 70
     1
102
RTVSPost2010Prop49
280
     0
102
RTVSPost2010PropOp49
 70
     1
102
RTVSPost2010Prop50
 90
       50
102
RTVSPost2010PropOp50
 70
     1
102
RTVSPost2010Prop51ColorIndex
 90
      256
102
RTVSPost2010Prop51ColorRGB
 90
-16777216
102
RTVSPost2010PropOp51
 70
     0
102
RTVSPost2010Prop52
140
1.0
102
RTVSPost2010PropOp52
 70
     0
102
RTVSPost2010Prop53
 90
        2
102
RTVSPost2010PropOp53
 70
     1
102
RTVSPost2010Prop54
  1
strokes_ogs.tif
102
RTVSPost2010PropOp54
 70
     1
102
RTVSPost2010Prop55
280
     0
102
RTVSPost2010PropOp55
 70
     1
102
RTVSPost2010Prop56
140
1.0
102
RTVSPost2010PropOp56
 70
     1
102
RTVSPost2010Prop57
140
1.0
102
RTVSPost2010PropOp57
 70
     1
102
RTVSPropertyOp0
 70
     1
102
RTVSPropertyOp1
 70
     1
102
RTVSPropertyOp2
 70
     1
102
RTVSPropertyOp3
 70
     1
102
RTVSPropertyOp4
 70
     1
102
RTVSPropertyOp5
 70
     1
102
RTVSPropertyOp6
 70
     1
102
RTVSPropertyOp7
 70
     1
102
RTVSPropertyOp8
 70
     1
102
RTVSPropertyOp9
 70
     1
102
RTVSPropertyOp10
 70
     1
102
RTVSPropertyOp11
 70
     1
102
RTVSPropertyOp12
 70
     1
102
RTVSPropertyOp13
 70
     1
102
RTVSPropertyOp14
 70
     1
102
RTVSPropertyOp15
 70
     1
102
RTVSPropertyOp16
 70
     1
102
RTVSPropertyOp17
 70
     1
102
RTVSPropertyOp18
 70
     1
102
RTVSPropertyOp19
 70
     1
102
RTVSPropertyOp20
 70
     1
102
RTVSPropertyOp21
 70
     1
102
RTVSPropertyOp22
 70
     1
102
RTVSPropertyOp23
 70
     1
102
RTVSPropertyOp24
 70
     1
102
RTVSPropertyOp25
 70
     1
102
RTVSPropertyOp26
 70
     1
102
RTVSPropertyOp27
 70
     1
102
RTVSPropertyOp28
 70
     1
102
RTVSPropertyOp29
 70
     1
102
RTVSPropertyOp30
 70
     1
102
RTVSPropertyOp31
 70
     1
102
RTVSPropertyOp32
 70
     1
102
RTVSPropertyOp33
 70
     1
102
RTVSPropertyOp34
 70
     1
102
RTVSPropertyOp35
 70
     1
102
RTVSPropertyOp36
 70
     1
102
RTVSPropertyOp37
 70
     1
102
RTVSPropertyOp38
 70
     1
102
RTVSPropertyOp39
 70
     1
102
RTVSPropertyOp40
 70
     1
102
RTVSPropertyOp41
 70
     1
102
RTVSPropertyOp42
 70
     1
102
RTVSPropertyOp43
 70
     1
102
RTVSPropertyOp44
 70
     1
102
RTVSPropertyOp45
 70
     1
102
RTVSPropertyOp46
 70
     1
102
RTVSPropertyOp47
 70
     1
102
RTVSPropertyOp48
 70
     1
102
RTVSPropertyOp49
 70
     1
102
RTVSPropertyOp50
 70
     1
102
RTVSPropertyOp51
 70
     0
102
RTVSPropertyOp52
 70
     0
102
RTVSPropertyOp53
 70
     1
102
RTVSPropertyOp54
 70
     1
102
RTVSPropertyOp55
 70
     1
102
RTVSPropertyOp56
 70
     1
102
RTVSPropertyOp57
 70
     1
102
RTVSPropertyOp58
 70
     1
102
RTVSPropertyOp59
 70
     1
102
RTVSPropertyOp60
 70
     1
102
RTVSPropertyOp61
 70
     1
102
RTVSPropertyOp62
 70
     1
  0
XRECORD
  5
855A
102
{ACAD_REACTORS
330
8559
102
}
330
8559
100
AcDbXrecord
280
     1
102
RTVSPost2010Prop28
280
     0
102
RTVSPost2010PropOp28
 70
     1
102
RTVSPost2010Prop29
280
     1
102
RTVSPost2010PropOp29
 70
     1
102
RTVSPost2010Prop30
280
     1
102
RTVSPost2010PropOp30
 70
     1
102
RTVSPost2010Prop31
280
     0
102
RTVSPost2010PropOp31
 70
     1
102
RTVSPost2010Prop32
280
     0
102
RTVSPost2010PropOp32
 70
     1
102
RTVSPost2010Prop33
280
     0
102
RTVSPost2010PropOp33
 70
     1
102
RTVSPost2010Prop34
280
     0
102
RTVSPost2010PropOp34
 70
     1
102
RTVSPost2010Prop35
280
     0
102
RTVSPost2010PropOp35
 70
     1
102
RTVSPost2010Prop36
280
     0
102
RTVSPost2010PropOp36
 70
     1
102
RTVSPost2010Prop37
 90
       50
102
RTVSPost2010PropOp37
 70
     1
102
RTVSPost2010Prop38
140
0.0
102
RTVSPost2010PropOp38
 70
     1
102
RTVSPost2010Prop39
140
1.0
102
RTVSPost2010PropOp39
 70
     1
102
RTVSPost2010Prop40
 90
        0
102
RTVSPost2010PropOp40
 70
     1
102
RTVSPost2010Prop41ColorIndex
 90
       18
102
RTVSPost2010Prop41ColorRGB
 90
        0
102
RTVSPost2010PropOp41
 70
     1
102
RTVSPost2010Prop42
 90
       50
102
RTVSPost2010PropOp42
 70
     1
102
RTVSPost2010Prop43
 90
        3
102
RTVSPost2010PropOp43
 70
     1
102
RTVSPost2010Prop44ColorIndex
 90
        5
102
RTVSPost2010Prop44ColorRGB
 90
      255
102
RTVSPost2010PropOp44
 70
     1
102
RTVSPost2010Prop45
280
     0
102
RTVSPost2010PropOp45
 70
     1
102
RTVSPost2010Prop46
 90
       50
102
RTVSPost2010PropOp46
 70
     1
102
RTVSPost2010Prop47
 90
       50
102
RTVSPost2010PropOp47
 70
     1
102
RTVSPost2010Prop48
 90
       50
102
RTVSPost2010PropOp48
 70
     1
102
RTVSPost2010Prop49
280
     0
102
RTVSPost2010PropOp49
 70
     1
102
RTVSPost2010Prop50
 90
       50
102
RTVSPost2010PropOp50
 70
     1
102
RTVSPost2010Prop51ColorIndex
 90
      256
102
RTVSPost2010Prop51ColorRGB
 90
-16777216
102
RTVSPost2010PropOp51
 70
     0
102
RTVSPost2010Prop52
140
1.0
102
RTVSPost2010PropOp52
 70
     0
102
RTVSPost2010Prop53
 90
        2
102
RTVSPost2010PropOp53
 70
     1
102
RTVSPost2010Prop54
  1
strokes_ogs.tif
102
RTVSPost2010PropOp54
 70
     1
102
RTVSPost2010Prop55
280
     0
102
RTVSPost2010PropOp55
 70
     1
102
RTVSPost2010Prop56
140
1.0
102
RTVSPost2010PropOp56
 70
     1
102
RTVSPost2010Prop57
140
1.0
102
RTVSPost2010PropOp57
 70
     1
102
RTVSPropertyOp0
 70
     1
102
RTVSPropertyOp1
 70
     1
102
RTVSPropertyOp2
 70
     1
102
RTVSPropertyOp3
 70
     1
102
RTVSPropertyOp4
 70
     1
102
RTVSPropertyOp5
 70
     1
102
RTVSPropertyOp6
 70
     1
102
RTVSPropertyOp7
 70
     1
102
RTVSPropertyOp8
 70
     1
102
RTVSPropertyOp9
 70
     1
102
RTVSPropertyOp10
 70
     1
102
RTVSPropertyOp11
 70
     1
102
RTVSPropertyOp12
 70
     1
102
RTVSPropertyOp13
 70
     1
102
RTVSPropertyOp14
 70
     1
102
RTVSPropertyOp15
 70
     1
102
RTVSPropertyOp16
 70
     1
102
RTVSPropertyOp17
 70
     1
102
RTVSPropertyOp18
 70
     1
102
RTVSPropertyOp19
 70
     1
102
RTVSPropertyOp20
 70
     1
102
RTVSPropertyOp21
 70
     1
102
RTVSPropertyOp22
 70
     1
102
RTVSPropertyOp23
 70
     1
102
RTVSPropertyOp24
 70
     1
102
RTVSPropertyOp25
 70
     1
102
RTVSPropertyOp26
 70
     1
102
RTVSPropertyOp27
 70
     1
102
RTVSPropertyOp28
 70
     1
102
RTVSPropertyOp29
 70
     1
102
RTVSPropertyOp30
 70
     1
102
RTVSPropertyOp31
 70
     1
102
RTVSPropertyOp32
 70
     1
102
RTVSPropertyOp33
 70
     1
102
RTVSPropertyOp34
 70
     1
102
RTVSPropertyOp35
 70
     1
102
RTVSPropertyOp36
 70
     1
102
RTVSPropertyOp37
 70
     1
102
RTVSPropertyOp38
 70
     1
102
RTVSPropertyOp39
 70
     1
102
RTVSPropertyOp40
 70
     1
102
RTVSPropertyOp41
 70
     1
102
RTVSPropertyOp42
 70
     1
102
RTVSPropertyOp43
 70
     1
102
RTVSPropertyOp44
 70
     1
102
RTVSPropertyOp45
 70
     1
102
RTVSPropertyOp46
 70
     1
102
RTVSPropertyOp47
 70
     1
102
RTVSPropertyOp48
 70
     1
102
RTVSPropertyOp49
 70
     1
102
RTVSPropertyOp50
 70
     1
102
RTVSPropertyOp51
 70
     0
102
RTVSPropertyOp52
 70
     0
102
RTVSPropertyOp53
 70
     1
102
RTVSPropertyOp54
 70
     1
102
RTVSPropertyOp55
 70
     1
102
RTVSPropertyOp56
 70
     1
102
RTVSPropertyOp57
 70
     1
102
RTVSPropertyOp58
 70
     1
102
RTVSPropertyOp59
 70
     1
102
RTVSPropertyOp60
 70
     1
102
RTVSPropertyOp61
 70
     1
102
RTVSPropertyOp62
 70
     1
  0
XRECORD
  5
855C
102
{ACAD_REACTORS
330
855B
102
}
330
855B
100
AcDbXrecord
280
     1
102
RTVSPost2010Prop28
280
     0
102
RTVSPost2010PropOp28
 70
     1
102
RTVSPost2010Prop29
280
     1
102
RTVSPost2010PropOp29
 70
     1
102
RTVSPost2010Prop30
280
     1
102
RTVSPost2010PropOp30
 70
     1
102
RTVSPost2010Prop31
280
     0
102
RTVSPost2010PropOp31
 70
     1
102
RTVSPost2010Prop32
280
     0
102
RTVSPost2010PropOp32
 70
     1
102
RTVSPost2010Prop33
280
     0
102
RTVSPost2010PropOp33
 70
     1
102
RTVSPost2010Prop34
280
     0
102
RTVSPost2010PropOp34
 70
     1
102
RTVSPost2010Prop35
280
     0
102
RTVSPost2010PropOp35
 70
     1
102
RTVSPost2010Prop36
280
     0
102
RTVSPost2010PropOp36
 70
     1
102
RTVSPost2010Prop37
 90
       50
102
RTVSPost2010PropOp37
 70
     1
102
RTVSPost2010Prop38
140
0.0
102
RTVSPost2010PropOp38
 70
     1
102
RTVSPost2010Prop39
140
1.0
102
RTVSPost2010PropOp39
 70
     1
102
RTVSPost2010Prop40
 90
        0
102
RTVSPost2010PropOp40
 70
     1
102
RTVSPost2010Prop41ColorIndex
 90
       18
102
RTVSPost2010Prop41ColorRGB
 90
        0
102
RTVSPost2010PropOp41
 70
     1
102
RTVSPost2010Prop42
 90
       50
102
RTVSPost2010PropOp42
 70
     1
102
RTVSPost2010Prop43
 90
        3
102
RTVSPost2010PropOp43
 70
     1
102
RTVSPost2010Prop44ColorIndex
 90
        5
102
RTVSPost2010Prop44ColorRGB
 90
      255
102
RTVSPost2010PropOp44
 70
     1
102
RTVSPost2010Prop45
280
     0
102
RTVSPost2010PropOp45
 70
     1
102
RTVSPost2010Prop46
 90
       50
102
RTVSPost2010PropOp46
 70
     1
102
RTVSPost2010Prop47
 90
       50
102
RTVSPost2010PropOp47
 70
     1
102
RTVSPost2010Prop48
 90
       50
102
RTVSPost2010PropOp48
 70
     1
102
RTVSPost2010Prop49
280
     0
102
RTVSPost2010PropOp49
 70
     1
102
RTVSPost2010Prop50
 90
       50
102
RTVSPost2010PropOp50
 70
     1
102
RTVSPost2010Prop51ColorIndex
 90
      256
102
RTVSPost2010Prop51ColorRGB
 90
-16777216
102
RTVSPost2010PropOp51
 70
     0
102
RTVSPost2010Prop52
140
1.0
102
RTVSPost2010PropOp52
 70
     0
102
RTVSPost2010Prop53
 90
        2
102
RTVSPost2010PropOp53
 70
     1
102
RTVSPost2010Prop54
  1
strokes_ogs.tif
102
RTVSPost2010PropOp54
 70
     1
102
RTVSPost2010Prop55
280
     0
102
RTVSPost2010PropOp55
 70
     1
102
RTVSPost2010Prop56
140
1.0
102
RTVSPost2010PropOp56
 70
     1
102
RTVSPost2010Prop57
140
1.0
102
RTVSPost2010PropOp57
 70
     1
102
RTVSPropertyOp0
 70
     1
102
RTVSPropertyOp1
 70
     1
102
RTVSPropertyOp2
 70
     1
102
RTVSPropertyOp3
 70
     1
102
RTVSPropertyOp4
 70
     1
102
RTVSPropertyOp5
 70
     1
102
RTVSPropertyOp6
 70
     1
102
RTVSPropertyOp7
 70
     1
102
RTVSPropertyOp8
 70
     1
102
RTVSPropertyOp9
 70
     1
102
RTVSPropertyOp10
 70
     1
102
RTVSPropertyOp11
 70
     1
102
RTVSPropertyOp12
 70
     1
102
RTVSPropertyOp13
 70
     1
102
RTVSPropertyOp14
 70
     1
102
RTVSPropertyOp15
 70
     1
102
RTVSPropertyOp16
 70
     1
102
RTVSPropertyOp17
 70
     1
102
RTVSPropertyOp18
 70
     1
102
RTVSPropertyOp19
 70
     1
102
RTVSPropertyOp20
 70
     1
102
RTVSPropertyOp21
 70
     1
102
RTVSPropertyOp22
 70
     1
102
RTVSPropertyOp23
 70
     1
102
RTVSPropertyOp24
 70
     1
102
RTVSPropertyOp25
 70
     1
102
RTVSPropertyOp26
 70
     1
102
RTVSPropertyOp27
 70
     1
102
RTVSPropertyOp28
 70
     1
102
RTVSPropertyOp29
 70
     1
102
RTVSPropertyOp30
 70
     1
102
RTVSPropertyOp31
 70
     1
102
RTVSPropertyOp32
 70
     1
102
RTVSPropertyOp33
 70
     1
102
RTVSPropertyOp34
 70
     1
102
RTVSPropertyOp35
 70
     1
102
RTVSPropertyOp36
 70
     1
102
RTVSPropertyOp37
 70
     1
102
RTVSPropertyOp38
 70
     1
102
RTVSPropertyOp39
 70
     1
102
RTVSPropertyOp40
 70
     1
102
RTVSPropertyOp41
 70
     1
102
RTVSPropertyOp42
 70
     1
102
RTVSPropertyOp43
 70
     1
102
RTVSPropertyOp44
 70
     1
102
RTVSPropertyOp45
 70
     1
102
RTVSPropertyOp46
 70
     1
102
RTVSPropertyOp47
 70
     1
102
RTVSPropertyOp48
 70
     1
102
RTVSPropertyOp49
 70
     1
102
RTVSPropertyOp50
 70
     1
102
RTVSPropertyOp51
 70
     0
102
RTVSPropertyOp52
 70
     0
102
RTVSPropertyOp53
 70
     1
102
RTVSPropertyOp54
 70
     1
102
RTVSPropertyOp55
 70
     1
102
RTVSPropertyOp56
 70
     1
102
RTVSPropertyOp57
 70
     1
102
RTVSPropertyOp58
 70
     1
102
RTVSPropertyOp59
 70
     1
102
RTVSPropertyOp60
 70
     1
102
RTVSPropertyOp61
 70
     1
102
RTVSPropertyOp62
 70
     1
  0
XRECORD
  5
8564
102
{ACAD_REACTORS
330
8563
102
}
330
8563
100
AcDbXrecord
280
     1
102
RTVSPost2010Prop28
280
     0
102
RTVSPost2010PropOp28
 70
     1
102
RTVSPost2010Prop29
280
     1
102
RTVSPost2010PropOp29
 70
     1
102
RTVSPost2010Prop30
280
     1
102
RTVSPost2010PropOp30
 70
     1
102
RTVSPost2010Prop31
280
     0
102
RTVSPost2010PropOp31
 70
     1
102
RTVSPost2010Prop32
280
     0
102
RTVSPost2010PropOp32
 70
     1
102
RTVSPost2010Prop33
280
     0
102
RTVSPost2010PropOp33
 70
     1
102
RTVSPost2010Prop34
280
     0
102
RTVSPost2010PropOp34
 70
     1
102
RTVSPost2010Prop35
280
     0
102
RTVSPost2010PropOp35
 70
     1
102
RTVSPost2010Prop36
280
     0
102
RTVSPost2010PropOp36
 70
     1
102
RTVSPost2010Prop37
 90
       50
102
RTVSPost2010PropOp37
 70
     1
102
RTVSPost2010Prop38
140
0.0
102
RTVSPost2010PropOp38
 70
     1
102
RTVSPost2010Prop39
140
1.0
102
RTVSPost2010PropOp39
 70
     1
102
RTVSPost2010Prop40
 90
        0
102
RTVSPost2010PropOp40
 70
     1
102
RTVSPost2010Prop41ColorIndex
 90
       18
102
RTVSPost2010Prop41ColorRGB
 90
        0
102
RTVSPost2010PropOp41
 70
     1
102
RTVSPost2010Prop42
 90
       50
102
RTVSPost2010PropOp42
 70
     1
102
RTVSPost2010Prop43
 90
        3
102
RTVSPost2010PropOp43
 70
     1
102
RTVSPost2010Prop44ColorIndex
 90
        5
102
RTVSPost2010Prop44ColorRGB
 90
      255
102
RTVSPost2010PropOp44
 70
     1
102
RTVSPost2010Prop45
280
     0
102
RTVSPost2010PropOp45
 70
     1
102
RTVSPost2010Prop46
 90
       50
102
RTVSPost2010PropOp46
 70
     1
102
RTVSPost2010Prop47
 90
       50
102
RTVSPost2010PropOp47
 70
     1
102
RTVSPost2010Prop48
 90
       50
102
RTVSPost2010PropOp48
 70
     1
102
RTVSPost2010Prop49
280
     0
102
RTVSPost2010PropOp49
 70
     1
102
RTVSPost2010Prop50
 90
       50
102
RTVSPost2010PropOp50
 70
     1
102
RTVSPost2010Prop51ColorIndex
 90
      256
102
RTVSPost2010Prop51ColorRGB
 90
-16777216
102
RTVSPost2010PropOp51
 70
     0
102
RTVSPost2010Prop52
140
1.0
102
RTVSPost2010PropOp52
 70
     0
102
RTVSPost2010Prop53
 90
        2
102
RTVSPost2010PropOp53
 70
     1
102
RTVSPost2010Prop54
  1
strokes_ogs.tif
102
RTVSPost2010PropOp54
 70
     1
102
RTVSPost2010Prop55
280
     0
102
RTVSPost2010PropOp55
 70
     1
102
RTVSPost2010Prop56
140
1.0
102
RTVSPost2010PropOp56
 70
     1
102
RTVSPost2010Prop57
140
1.0
102
RTVSPost2010PropOp57
 70
     1
102
RTVSPropertyOp0
 70
     1
102
RTVSPropertyOp1
 70
     1
102
RTVSPropertyOp2
 70
     1
102
RTVSPropertyOp3
 70
     1
102
RTVSPropertyOp4
 70
     1
102
RTVSPropertyOp5
 70
     1
102
RTVSPropertyOp6
 70
     1
102
RTVSPropertyOp7
 70
     1
102
RTVSPropertyOp8
 70
     1
102
RTVSPropertyOp9
 70
     1
102
RTVSPropertyOp10
 70
     1
102
RTVSPropertyOp11
 70
     1
102
RTVSPropertyOp12
 70
     1
102
RTVSPropertyOp13
 70
     1
102
RTVSPropertyOp14
 70
     1
102
RTVSPropertyOp15
 70
     1
102
RTVSPropertyOp16
 70
     1
102
RTVSPropertyOp17
 70
     1
102
RTVSPropertyOp18
 70
     1
102
RTVSPropertyOp19
 70
     1
102
RTVSPropertyOp20
 70
     1
102
RTVSPropertyOp21
 70
     1
102
RTVSPropertyOp22
 70
     1
102
RTVSPropertyOp23
 70
     1
102
RTVSPropertyOp24
 70
     1
102
RTVSPropertyOp25
 70
     1
102
RTVSPropertyOp26
 70
     1
102
RTVSPropertyOp27
 70
     1
102
RTVSPropertyOp28
 70
     1
102
RTVSPropertyOp29
 70
     1
102
RTVSPropertyOp30
 70
     1
102
RTVSPropertyOp31
 70
     1
102
RTVSPropertyOp32
 70
     1
102
RTVSPropertyOp33
 70
     1
102
RTVSPropertyOp34
 70
     1
102
RTVSPropertyOp35
 70
     1
102
RTVSPropertyOp36
 70
     1
102
RTVSPropertyOp37
 70
     1
102
RTVSPropertyOp38
 70
     1
102
RTVSPropertyOp39
 70
     1
102
RTVSPropertyOp40
 70
     1
102
RTVSPropertyOp41
 70
     1
102
RTVSPropertyOp42
 70
     1
102
RTVSPropertyOp43
 70
     1
102
RTVSPropertyOp44
 70
     1
102
RTVSPropertyOp45
 70
     1
102
RTVSPropertyOp46
 70
     1
102
RTVSPropertyOp47
 70
     1
102
RTVSPropertyOp48
 70
     1
102
RTVSPropertyOp49
 70
     1
102
RTVSPropertyOp50
 70
     1
102
RTVSPropertyOp51
 70
     0
102
RTVSPropertyOp52
 70
     0
102
RTVSPropertyOp53
 70
     1
102
RTVSPropertyOp54
 70
     1
102
RTVSPropertyOp55
 70
     1
102
RTVSPropertyOp56
 70
     1
102
RTVSPropertyOp57
 70
     1
102
RTVSPropertyOp58
 70
     1
102
RTVSPropertyOp59
 70
     1
102
RTVSPropertyOp60
 70
     1
102
RTVSPropertyOp61
 70
     1
102
RTVSPropertyOp62
 70
     1
  0
XRECORD
  5
8580
102
{ACAD_REACTORS
330
857F
102
}
330
857F
100
AcDbXrecord
280
     1
102
RTVSPost2010Prop28
280
     0
102
RTVSPost2010PropOp28
 70
     1
102
RTVSPost2010Prop29
280
     1
102
RTVSPost2010PropOp29
 70
     1
102
RTVSPost2010Prop30
280
     1
102
RTVSPost2010PropOp30
 70
     1
102
RTVSPost2010Prop31
280
     0
102
RTVSPost2010PropOp31
 70
     1
102
RTVSPost2010Prop32
280
     0
102
RTVSPost2010PropOp32
 70
     1
102
RTVSPost2010Prop33
280
     0
102
RTVSPost2010PropOp33
 70
     1
102
RTVSPost2010Prop34
280
     0
102
RTVSPost2010PropOp34
 70
     1
102
RTVSPost2010Prop35
280
     0
102
RTVSPost2010PropOp35
 70
     1
102
RTVSPost2010Prop36
280
     0
102
RTVSPost2010PropOp36
 70
     1
102
RTVSPost2010Prop37
 90
       50
102
RTVSPost2010PropOp37
 70
     0
102
RTVSPost2010Prop38
140
0.0
102
RTVSPost2010PropOp38
 70
     0
102
RTVSPost2010Prop39
140
1.0
102
RTVSPost2010PropOp39
 70
     0
102
RTVSPost2010Prop40
 90
        0
102
RTVSPost2010PropOp40
 70
     0
102
RTVSPost2010Prop41ColorIndex
 90
       18
102
RTVSPost2010Prop41ColorRGB
 90
        0
102
RTVSPost2010PropOp41
 70
     0
102
RTVSPost2010Prop42
 90
       50
102
RTVSPost2010PropOp42
 70
     0
102
RTVSPost2010Prop43
 90
        3
102
RTVSPost2010PropOp43
 70
     0
102
RTVSPost2010Prop44ColorIndex
 90
        5
102
RTVSPost2010Prop44ColorRGB
 90
      255
102
RTVSPost2010PropOp44
 70
     0
102
RTVSPost2010Prop45
280
     0
102
RTVSPost2010PropOp45
 70
     1
102
RTVSPost2010Prop46
 90
       50
102
RTVSPost2010PropOp46
 70
     0
102
RTVSPost2010Prop47
 90
       50
102
RTVSPost2010PropOp47
 70
     0
102
RTVSPost2010Prop48
 90
       50
102
RTVSPost2010PropOp48
 70
     0
102
RTVSPost2010Prop49
280
     0
102
RTVSPost2010PropOp49
 70
     1
102
RTVSPost2010Prop50
 90
       50
102
RTVSPost2010PropOp50
 70
     0
102
RTVSPost2010Prop51ColorIndex
 90
      256
102
RTVSPost2010Prop51ColorRGB
 90
-16777216
102
RTVSPost2010PropOp51
 70
     0
102
RTVSPost2010Prop52
140
1.0
102
RTVSPost2010PropOp52
 70
     0
102
RTVSPost2010Prop53
 90
        2
102
RTVSPost2010PropOp53
 70
     0
102
RTVSPost2010Prop54
  1
strokes_ogs.tif
102
RTVSPost2010PropOp54
 70
     0
102
RTVSPost2010Prop55
280
     0
102
RTVSPost2010PropOp55
 70
     1
102
RTVSPost2010Prop56
140
1.0
102
RTVSPost2010PropOp56
 70
     0
102
RTVSPost2010Prop57
140
1.0
102
RTVSPost2010PropOp57
 70
     0
102
RTVSPropertyOp0
 70
     0
102
RTVSPropertyOp1
 70
     0
102
RTVSPropertyOp2
 70
     0
102
RTVSPropertyOp3
 70
     0
102
RTVSPropertyOp4
 70
     0
102
RTVSPropertyOp5
 70
     0
102
RTVSPropertyOp6
 70
     0
102
RTVSPropertyOp7
 70
     0
102
RTVSPropertyOp8
 70
     0
102
RTVSPropertyOp9
 70
     0
102
RTVSPropertyOp10
 70
     0
102
RTVSPropertyOp11
 70
     0
102
RTVSPropertyOp12
 70
     0
102
RTVSPropertyOp13
 70
     0
102
RTVSPropertyOp14
 70
     2
102
RTVSPropertyOp15
 70
     0
102
RTVSPropertyOp16
 70
     0
102
RTVSPropertyOp17
 70
     0
102
RTVSPropertyOp18
 70
     0
102
RTVSPropertyOp19
 70
     0
102
RTVSPropertyOp20
 70
     0
102
RTVSPropertyOp21
 70
     0
102
RTVSPropertyOp22
 70
     0
102
RTVSPropertyOp23
 70
     0
102
RTVSPropertyOp24
 70
     0
102
RTVSPropertyOp25
 70
     0
102
RTVSPropertyOp26
 70
     0
102
RTVSPropertyOp27
 70
     0
102
RTVSPropertyOp28
 70
     1
102
RTVSPropertyOp29
 70
     1
102
RTVSPropertyOp30
 70
     1
102
RTVSPropertyOp31
 70
     1
102
RTVSPropertyOp32
 70
     1
102
RTVSPropertyOp33
 70
     1
102
RTVSPropertyOp34
 70
     1
102
RTVSPropertyOp35
 70
     1
102
RTVSPropertyOp36
 70
     1
102
RTVSPropertyOp37
 70
     0
102
RTVSPropertyOp38
 70
     0
102
RTVSPropertyOp39
 70
     0
102
RTVSPropertyOp40
 70
     0
102
RTVSPropertyOp41
 70
     0
102
RTVSPropertyOp42
 70
     0
102
RTVSPropertyOp43
 70
     0
102
RTVSPropertyOp44
 70
     0
102
RTVSPropertyOp45
 70
     1
102
RTVSPropertyOp46
 70
     0
102
RTVSPropertyOp47
 70
     0
102
RTVSPropertyOp48
 70
     0
102
RTVSPropertyOp49
 70
     1
102
RTVSPropertyOp50
 70
     0
102
RTVSPropertyOp51
 70
     0
102
RTVSPropertyOp52
 70
     0
102
RTVSPropertyOp53
 70
     0
102
RTVSPropertyOp54
 70
     0
102
RTVSPropertyOp55
 70
     1
102
RTVSPropertyOp56
 70
     0
102
RTVSPropertyOp57
 70
     0
102
RTVSPropertyOp58
 70
     0
102
RTVSPropertyOp59
 70
     0
102
RTVSPropertyOp60
 70
     0
102
RTVSPropertyOp61
 70
     0
102
RTVSPropertyOp62
 70
     0
  0
XRECORD
  5
8570
102
{ACAD_REACTORS
330
856F
102
}
330
856F
100
AcDbXrecord
280
     1
102
RTVSPost2010Prop28
280
     0
102
RTVSPost2010PropOp28
 70
     1
102
RTVSPost2010Prop29
280
     1
102
RTVSPost2010PropOp29
 70
     1
102
RTVSPost2010Prop30
280
     1
102
RTVSPost2010PropOp30
 70
     1
102
RTVSPost2010Prop31
280
     0
102
RTVSPost2010PropOp31
 70
     1
102
RTVSPost2010Prop32
280
     0
102
RTVSPost2010PropOp32
 70
     1
102
RTVSPost2010Prop33
280
     0
102
RTVSPost2010PropOp33
 70
     1
102
RTVSPost2010Prop34
280
     0
102
RTVSPost2010PropOp34
 70
     1
102
RTVSPost2010Prop35
280
     0
102
RTVSPost2010PropOp35
 70
     1
102
RTVSPost2010Prop36
280
     0
102
RTVSPost2010PropOp36
 70
     1
102
RTVSPost2010Prop37
 90
       50
102
RTVSPost2010PropOp37
 70
     1
102
RTVSPost2010Prop38
140
0.0
102
RTVSPost2010PropOp38
 70
     1
102
RTVSPost2010Prop39
140
1.0
102
RTVSPost2010PropOp39
 70
     1
102
RTVSPost2010Prop40
 90
        0
102
RTVSPost2010PropOp40
 70
     1
102
RTVSPost2010Prop41ColorIndex
 90
       18
102
RTVSPost2010Prop41ColorRGB
 90
        0
102
RTVSPost2010PropOp41
 70
     1
102
RTVSPost2010Prop42
 90
       50
102
RTVSPost2010PropOp42
 70
     1
102
RTVSPost2010Prop43
 90
        3
102
RTVSPost2010PropOp43
 70
     1
102
RTVSPost2010Prop44ColorIndex
 90
        5
102
RTVSPost2010Prop44ColorRGB
 90
      255
102
RTVSPost2010PropOp44
 70
     1
102
RTVSPost2010Prop45
280
     0
102
RTVSPost2010PropOp45
 70
     1
102
RTVSPost2010Prop46
 90
       50
102
RTVSPost2010PropOp46
 70
     1
102
RTVSPost2010Prop47
 90
       50
102
RTVSPost2010PropOp47
 70
     1
102
RTVSPost2010Prop48
 90
       50
102
RTVSPost2010PropOp48
 70
     1
102
RTVSPost2010Prop49
280
     0
102
RTVSPost2010PropOp49
 70
     1
102
RTVSPost2010Prop50
 90
       50
102
RTVSPost2010PropOp50
 70
     1
102
RTVSPost2010Prop51ColorIndex
 90
      256
102
RTVSPost2010Prop51ColorRGB
 90
-16777216
102
RTVSPost2010PropOp51
 70
     0
102
RTVSPost2010Prop52
140
1.0
102
RTVSPost2010PropOp52
 70
     0
102
RTVSPost2010Prop53
 90
        2
102
RTVSPost2010PropOp53
 70
     1
102
RTVSPost2010Prop54
  1
strokes_ogs.tif
102
RTVSPost2010PropOp54
 70
     1
102
RTVSPost2010Prop55
280
     0
102
RTVSPost2010PropOp55
 70
     1
102
RTVSPost2010Prop56
140
1.0
102
RTVSPost2010PropOp56
 70
     1
102
RTVSPost2010Prop57
140
1.0
102
RTVSPost2010PropOp57
 70
     1
102
RTVSPropertyOp0
 70
     1
102
RTVSPropertyOp1
 70
     1
102
RTVSPropertyOp2
 70
     1
102
RTVSPropertyOp3
 70
     1
102
RTVSPropertyOp4
 70
     1
102
RTVSPropertyOp5
 70
     1
102
RTVSPropertyOp6
 70
     1
102
RTVSPropertyOp7
 70
     1
102
RTVSPropertyOp8
 70
     1
102
RTVSPropertyOp9
 70
     1
102
RTVSPropertyOp10
 70
     1
102
RTVSPropertyOp11
 70
     1
102
RTVSPropertyOp12
 70
     1
102
RTVSPropertyOp13
 70
     1
102
RTVSPropertyOp14
 70
     1
102
RTVSPropertyOp15
 70
     1
102
RTVSPropertyOp16
 70
     1
102
RTVSPropertyOp17
 70
     1
102
RTVSPropertyOp18
 70
     1
102
RTVSPropertyOp19
 70
     1
102
RTVSPropertyOp20
 70
     1
102
RTVSPropertyOp21
 70
     1
102
RTVSPropertyOp22
 70
     1
102
RTVSPropertyOp23
 70
     1
102
RTVSPropertyOp24
 70
     1
102
RTVSPropertyOp25
 70
     1
102
RTVSPropertyOp26
 70
     1
102
RTVSPropertyOp27
 70
     1
102
RTVSPropertyOp28
 70
     1
102
RTVSPropertyOp29
 70
     1
102
RTVSPropertyOp30
 70
     1
102
RTVSPropertyOp31
 70
     1
102
RTVSPropertyOp32
 70
     1
102
RTVSPropertyOp33
 70
     1
102
RTVSPropertyOp34
 70
     1
102
RTVSPropertyOp35
 70
     1
102
RTVSPropertyOp36
 70
     1
102
RTVSPropertyOp37
 70
     1
102
RTVSPropertyOp38
 70
     1
102
RTVSPropertyOp39
 70
     1
102
RTVSPropertyOp40
 70
     1
102
RTVSPropertyOp41
 70
     1
102
RTVSPropertyOp42
 70
     1
102
RTVSPropertyOp43
 70
     1
102
RTVSPropertyOp44
 70
     1
102
RTVSPropertyOp45
 70
     1
102
RTVSPropertyOp46
 70
     1
102
RTVSPropertyOp47
 70
     1
102
RTVSPropertyOp48
 70
     1
102
RTVSPropertyOp49
 70
     1
102
RTVSPropertyOp50
 70
     1
102
RTVSPropertyOp51
 70
     0
102
RTVSPropertyOp52
 70
     0
102
RTVSPropertyOp53
 70
     1
102
RTVSPropertyOp54
 70
     1
102
RTVSPropertyOp55
 70
     1
102
RTVSPropertyOp56
 70
     1
102
RTVSPropertyOp57
 70
     1
102
RTVSPropertyOp58
 70
     1
102
RTVSPropertyOp59
 70
     1
102
RTVSPropertyOp60
 70
     1
102
RTVSPropertyOp61
 70
     1
102
RTVSPropertyOp62
 70
     1
  0
XRECORD
  5
8582
102
{ACAD_REACTORS
330
8581
102
}
330
8581
100
AcDbXrecord
280
     1
102
RTVSPost2010Prop28
280
     0
102
RTVSPost2010PropOp28
 70
     1
102
RTVSPost2010Prop29
280
     1
102
RTVSPost2010PropOp29
 70
     1
102
RTVSPost2010Prop30
280
     1
102
RTVSPost2010PropOp30
 70
     1
102
RTVSPost2010Prop31
280
     0
102
RTVSPost2010PropOp31
 70
     1
102
RTVSPost2010Prop32
280
     0
102
RTVSPost2010PropOp32
 70
     1
102
RTVSPost2010Prop33
280
     0
102
RTVSPost2010PropOp33
 70
     1
102
RTVSPost2010Prop34
280
     0
102
RTVSPost2010PropOp34
 70
     1
102
RTVSPost2010Prop35
280
     0
102
RTVSPost2010PropOp35
 70
     1
102
RTVSPost2010Prop36
280
     0
102
RTVSPost2010PropOp36
 70
     1
102
RTVSPost2010Prop37
 90
       50
102
RTVSPost2010PropOp37
 70
     0
102
RTVSPost2010Prop38
140
0.0
102
RTVSPost2010PropOp38
 70
     0
102
RTVSPost2010Prop39
140
1.0
102
RTVSPost2010PropOp39
 70
     0
102
RTVSPost2010Prop40
 90
        0
102
RTVSPost2010PropOp40
 70
     0
102
RTVSPost2010Prop41ColorIndex
 90
       18
102
RTVSPost2010Prop41ColorRGB
 90
        0
102
RTVSPost2010PropOp41
 70
     0
102
RTVSPost2010Prop42
 90
       50
102
RTVSPost2010PropOp42
 70
     0
102
RTVSPost2010Prop43
 90
        3
102
RTVSPost2010PropOp43
 70
     0
102
RTVSPost2010Prop44ColorIndex
 90
        5
102
RTVSPost2010Prop44ColorRGB
 90
      255
102
RTVSPost2010PropOp44
 70
     0
102
RTVSPost2010Prop45
280
     0
102
RTVSPost2010PropOp45
 70
     1
102
RTVSPost2010Prop46
 90
       50
102
RTVSPost2010PropOp46
 70
     0
102
RTVSPost2010Prop47
 90
       50
102
RTVSPost2010PropOp47
 70
     0
102
RTVSPost2010Prop48
 90
       50
102
RTVSPost2010PropOp48
 70
     0
102
RTVSPost2010Prop49
280
     0
102
RTVSPost2010PropOp49
 70
     1
102
RTVSPost2010Prop50
 90
       50
102
RTVSPost2010PropOp50
 70
     0
102
RTVSPost2010Prop51ColorIndex
 90
      256
102
RTVSPost2010Prop51ColorRGB
 90
-16777216
102
RTVSPost2010PropOp51
 70
     0
102
RTVSPost2010Prop52
140
1.0
102
RTVSPost2010PropOp52
 70
     0
102
RTVSPost2010Prop53
 90
        2
102
RTVSPost2010PropOp53
 70
     0
102
RTVSPost2010Prop54
  1
strokes_ogs.tif
102
RTVSPost2010PropOp54
 70
     0
102
RTVSPost2010Prop55
280
     0
102
RTVSPost2010PropOp55
 70
     1
102
RTVSPost2010Prop56
140
1.0
102
RTVSPost2010PropOp56
 70
     0
102
RTVSPost2010Prop57
140
1.0
102
RTVSPost2010PropOp57
 70
     0
102
RTVSPropertyOp0
 70
     0
102
RTVSPropertyOp1
 70
     0
102
RTVSPropertyOp2
 70
     0
102
RTVSPropertyOp3
 70
     0
102
RTVSPropertyOp4
 70
     0
102
RTVSPropertyOp5
 70
     0
102
RTVSPropertyOp6
 70
     0
102
RTVSPropertyOp7
 70
     0
102
RTVSPropertyOp8
 70
     0
102
RTVSPropertyOp9
 70
     0
102
RTVSPropertyOp10
 70
     0
102
RTVSPropertyOp11
 70
     0
102
RTVSPropertyOp12
 70
     0
102
RTVSPropertyOp13
 70
     0
102
RTVSPropertyOp14
 70
     2
102
RTVSPropertyOp15
 70
     0
102
RTVSPropertyOp16
 70
     0
102
RTVSPropertyOp17
 70
     0
102
RTVSPropertyOp18
 70
     0
102
RTVSPropertyOp19
 70
     0
102
RTVSPropertyOp20
 70
     0
102
RTVSPropertyOp21
 70
     0
102
RTVSPropertyOp22
 70
     0
102
RTVSPropertyOp23
 70
     0
102
RTVSPropertyOp24
 70
     0
102
RTVSPropertyOp25
 70
     0
102
RTVSPropertyOp26
 70
     0
102
RTVSPropertyOp27
 70
     0
102
RTVSPropertyOp28
 70
     1
102
RTVSPropertyOp29
 70
     1
102
RTVSPropertyOp30
 70
     1
102
RTVSPropertyOp31
 70
     1
102
RTVSPropertyOp32
 70
     1
102
RTVSPropertyOp33
 70
     1
102
RTVSPropertyOp34
 70
     1
102
RTVSPropertyOp35
 70
     1
102
RTVSPropertyOp36
 70
     1
102
RTVSPropertyOp37
 70
     0
102
RTVSPropertyOp38
 70
     0
102
RTVSPropertyOp39
 70
     0
102
RTVSPropertyOp40
 70
     0
102
RTVSPropertyOp41
 70
     0
102
RTVSPropertyOp42
 70
     0
102
RTVSPropertyOp43
 70
     0
102
RTVSPropertyOp44
 70
     0
102
RTVSPropertyOp45
 70
     1
102
RTVSPropertyOp46
 70
     0
102
RTVSPropertyOp47
 70
     0
102
RTVSPropertyOp48
 70
     0
102
RTVSPropertyOp49
 70
     1
102
RTVSPropertyOp50
 70
     0
102
RTVSPropertyOp51
 70
     0
102
RTVSPropertyOp52
 70
     0
102
RTVSPropertyOp53
 70
     0
102
RTVSPropertyOp54
 70
     0
102
RTVSPropertyOp55
 70
     1
102
RTVSPropertyOp56
 70
     0
102
RTVSPropertyOp57
 70
     0
102
RTVSPropertyOp58
 70
     0
102
RTVSPropertyOp59
 70
     0
102
RTVSPropertyOp60
 70
     0
102
RTVSPropertyOp61
 70
     0
102
RTVSPropertyOp62
 70
     0
  0
XRECORD
  5
8568
102
{ACAD_REACTORS
330
8567
102
}
330
8567
100
AcDbXrecord
280
     1
102
RTVSPost2010Prop28
280
     0
102
RTVSPost2010PropOp28
 70
     1
102
RTVSPost2010Prop29
280
     1
102
RTVSPost2010PropOp29
 70
     1
102
RTVSPost2010Prop30
280
     1
102
RTVSPost2010PropOp30
 70
     1
102
RTVSPost2010Prop31
280
     0
102
RTVSPost2010PropOp31
 70
     1
102
RTVSPost2010Prop32
280
     0
102
RTVSPost2010PropOp32
 70
     1
102
RTVSPost2010Prop33
280
     0
102
RTVSPost2010PropOp33
 70
     1
102
RTVSPost2010Prop34
280
     0
102
RTVSPost2010PropOp34
 70
     1
102
RTVSPost2010Prop35
280
     0
102
RTVSPost2010PropOp35
 70
     1
102
RTVSPost2010Prop36
280
     0
102
RTVSPost2010PropOp36
 70
     1
102
RTVSPost2010Prop37
 90
       50
102
RTVSPost2010PropOp37
 70
     1
102
RTVSPost2010Prop38
140
0.0
102
RTVSPost2010PropOp38
 70
     1
102
RTVSPost2010Prop39
140
1.0
102
RTVSPost2010PropOp39
 70
     1
102
RTVSPost2010Prop40
 90
        0
102
RTVSPost2010PropOp40
 70
     1
102
RTVSPost2010Prop41ColorIndex
 90
       18
102
RTVSPost2010Prop41ColorRGB
 90
        0
102
RTVSPost2010PropOp41
 70
     1
102
RTVSPost2010Prop42
 90
       50
102
RTVSPost2010PropOp42
 70
     1
102
RTVSPost2010Prop43
 90
        3
102
RTVSPost2010PropOp43
 70
     1
102
RTVSPost2010Prop44ColorIndex
 90
        5
102
RTVSPost2010Prop44ColorRGB
 90
      255
102
RTVSPost2010PropOp44
 70
     1
102
RTVSPost2010Prop45
280
     0
102
RTVSPost2010PropOp45
 70
     1
102
RTVSPost2010Prop46
 90
       50
102
RTVSPost2010PropOp46
 70
     1
102
RTVSPost2010Prop47
 90
       50
102
RTVSPost2010PropOp47
 70
     1
102
RTVSPost2010Prop48
 90
       50
102
RTVSPost2010PropOp48
 70
     1
102
RTVSPost2010Prop49
280
     0
102
RTVSPost2010PropOp49
 70
     1
102
RTVSPost2010Prop50
 90
       50
102
RTVSPost2010PropOp50
 70
     1
102
RTVSPost2010Prop51ColorIndex
 90
      256
102
RTVSPost2010Prop51ColorRGB
 90
-16777216
102
RTVSPost2010PropOp51
 70
     0
102
RTVSPost2010Prop52
140
1.0
102
RTVSPost2010PropOp52
 70
     0
102
RTVSPost2010Prop53
 90
        2
102
RTVSPost2010PropOp53
 70
     1
102
RTVSPost2010Prop54
  1
strokes_ogs.tif
102
RTVSPost2010PropOp54
 70
     1
102
RTVSPost2010Prop55
280
     0
102
RTVSPost2010PropOp55
 70
     1
102
RTVSPost2010Prop56
140
1.0
102
RTVSPost2010PropOp56
 70
     1
102
RTVSPost2010Prop57
140
1.0
102
RTVSPost2010PropOp57
 70
     1
102
RTVSPropertyOp0
 70
     1
102
RTVSPropertyOp1
 70
     1
102
RTVSPropertyOp2
 70
     1
102
RTVSPropertyOp3
 70
     1
102
RTVSPropertyOp4
 70
     1
102
RTVSPropertyOp5
 70
     1
102
RTVSPropertyOp6
 70
     1
102
RTVSPropertyOp7
 70
     1
102
RTVSPropertyOp8
 70
     1
102
RTVSPropertyOp9
 70
     1
102
RTVSPropertyOp10
 70
     1
102
RTVSPropertyOp11
 70
     1
102
RTVSPropertyOp12
 70
     1
102
RTVSPropertyOp13
 70
     1
102
RTVSPropertyOp14
 70
     1
102
RTVSPropertyOp15
 70
     1
102
RTVSPropertyOp16
 70
     1
102
RTVSPropertyOp17
 70
     1
102
RTVSPropertyOp18
 70
     1
102
RTVSPropertyOp19
 70
     1
102
RTVSPropertyOp20
 70
     1
102
RTVSPropertyOp21
 70
     1
102
RTVSPropertyOp22
 70
     1
102
RTVSPropertyOp23
 70
     1
102
RTVSPropertyOp24
 70
     1
102
RTVSPropertyOp25
 70
     1
102
RTVSPropertyOp26
 70
     1
102
RTVSPropertyOp27
 70
     1
102
RTVSPropertyOp28
 70
     1
102
RTVSPropertyOp29
 70
     1
102
RTVSPropertyOp30
 70
     1
102
RTVSPropertyOp31
 70
     1
102
RTVSPropertyOp32
 70
     1
102
RTVSPropertyOp33
 70
     1
102
RTVSPropertyOp34
 70
     1
102
RTVSPropertyOp35
 70
     1
102
RTVSPropertyOp36
 70
     1
102
RTVSPropertyOp37
 70
     1
102
RTVSPropertyOp38
 70
     1
102
RTVSPropertyOp39
 70
     1
102
RTVSPropertyOp40
 70
     1
102
RTVSPropertyOp41
 70
     1
102
RTVSPropertyOp42
 70
     1
102
RTVSPropertyOp43
 70
     1
102
RTVSPropertyOp44
 70
     1
102
RTVSPropertyOp45
 70
     1
102
RTVSPropertyOp46
 70
     1
102
RTVSPropertyOp47
 70
     1
102
RTVSPropertyOp48
 70
     1
102
RTVSPropertyOp49
 70
     1
102
RTVSPropertyOp50
 70
     1
102
RTVSPropertyOp51
 70
     0
102
RTVSPropertyOp52
 70
     0
102
RTVSPropertyOp53
 70
     1
102
RTVSPropertyOp54
 70
     1
102
RTVSPropertyOp55
 70
     1
102
RTVSPropertyOp56
 70
     1
102
RTVSPropertyOp57
 70
     1
102
RTVSPropertyOp58
 70
     1
102
RTVSPropertyOp59
 70
     1
102
RTVSPropertyOp60
 70
     1
102
RTVSPropertyOp61
 70
     1
102
RTVSPropertyOp62
 70
     1
  0
XRECORD
  5
857E
102
{ACAD_REACTORS
330
857D
102
}
330
857D
100
AcDbXrecord
280
     1
102
RTVSPost2010Prop28
280
     0
102
RTVSPost2010PropOp28
 70
     1
102
RTVSPost2010Prop29
280
     1
102
RTVSPost2010PropOp29
 70
     1
102
RTVSPost2010Prop30
280
     1
102
RTVSPost2010PropOp30
 70
     1
102
RTVSPost2010Prop31
280
     0
102
RTVSPost2010PropOp31
 70
     1
102
RTVSPost2010Prop32
280
     0
102
RTVSPost2010PropOp32
 70
     1
102
RTVSPost2010Prop33
280
     0
102
RTVSPost2010PropOp33
 70
     1
102
RTVSPost2010Prop34
280
     0
102
RTVSPost2010PropOp34
 70
     1
102
RTVSPost2010Prop35
280
     0
102
RTVSPost2010PropOp35
 70
     1
102
RTVSPost2010Prop36
280
     0
102
RTVSPost2010PropOp36
 70
     1
102
RTVSPost2010Prop37
 90
       50
102
RTVSPost2010PropOp37
 70
     1
102
RTVSPost2010Prop38
140
0.0
102
RTVSPost2010PropOp38
 70
     1
102
RTVSPost2010Prop39
140
1.0
102
RTVSPost2010PropOp39
 70
     1
102
RTVSPost2010Prop40
 90
        0
102
RTVSPost2010PropOp40
 70
     1
102
RTVSPost2010Prop41ColorIndex
 90
       18
102
RTVSPost2010Prop41ColorRGB
 90
        0
102
RTVSPost2010PropOp41
 70
     1
102
RTVSPost2010Prop42
 90
       50
102
RTVSPost2010PropOp42
 70
     1
102
RTVSPost2010Prop43
 90
        3
102
RTVSPost2010PropOp43
 70
     1
102
RTVSPost2010Prop44ColorIndex
 90
        5
102
RTVSPost2010Prop44ColorRGB
 90
      255
102
RTVSPost2010PropOp44
 70
     1
102
RTVSPost2010Prop45
280
     0
102
RTVSPost2010PropOp45
 70
     1
102
RTVSPost2010Prop46
 90
       50
102
RTVSPost2010PropOp46
 70
     1
102
RTVSPost2010Prop47
 90
       50
102
RTVSPost2010PropOp47
 70
     1
102
RTVSPost2010Prop48
 90
       50
102
RTVSPost2010PropOp48
 70
     1
102
RTVSPost2010Prop49
280
     0
102
RTVSPost2010PropOp49
 70
     1
102
RTVSPost2010Prop50
 90
       50
102
RTVSPost2010PropOp50
 70
     1
102
RTVSPost2010Prop51ColorIndex
 90
      256
102
RTVSPost2010Prop51ColorRGB
 90
-16777216
102
RTVSPost2010PropOp51
 70
     0
102
RTVSPost2010Prop52
140
1.0
102
RTVSPost2010PropOp52
 70
     0
102
RTVSPost2010Prop53
 90
        2
102
RTVSPost2010PropOp53
 70
     1
102
RTVSPost2010Prop54
  1
strokes_ogs.tif
102
RTVSPost2010PropOp54
 70
     1
102
RTVSPost2010Prop55
280
     0
102
RTVSPost2010PropOp55
 70
     1
102
RTVSPost2010Prop56
140
1.0
102
RTVSPost2010PropOp56
 70
     1
102
RTVSPost2010Prop57
140
1.0
102
RTVSPost2010PropOp57
 70
     1
102
RTVSPropertyOp0
 70
     1
102
RTVSPropertyOp1
 70
     1
102
RTVSPropertyOp2
 70
     1
102
RTVSPropertyOp3
 70
     1
102
RTVSPropertyOp4
 70
     1
102
RTVSPropertyOp5
 70
     1
102
RTVSPropertyOp6
 70
     1
102
RTVSPropertyOp7
 70
     1
102
RTVSPropertyOp8
 70
     1
102
RTVSPropertyOp9
 70
     1
102
RTVSPropertyOp10
 70
     1
102
RTVSPropertyOp11
 70
     1
102
RTVSPropertyOp12
 70
     1
102
RTVSPropertyOp13
 70
     1
102
RTVSPropertyOp14
 70
     1
102
RTVSPropertyOp15
 70
     1
102
RTVSPropertyOp16
 70
     1
102
RTVSPropertyOp17
 70
     1
102
RTVSPropertyOp18
 70
     1
102
RTVSPropertyOp19
 70
     1
102
RTVSPropertyOp20
 70
     1
102
RTVSPropertyOp21
 70
     1
102
RTVSPropertyOp22
 70
     1
102
RTVSPropertyOp23
 70
     1
102
RTVSPropertyOp24
 70
     1
102
RTVSPropertyOp25
 70
     1
102
RTVSPropertyOp26
 70
     1
102
RTVSPropertyOp27
 70
     1
102
RTVSPropertyOp28
 70
     1
102
RTVSPropertyOp29
 70
     1
102
RTVSPropertyOp30
 70
     1
102
RTVSPropertyOp31
 70
     1
102
RTVSPropertyOp32
 70
     1
102
RTVSPropertyOp33
 70
     1
102
RTVSPropertyOp34
 70
     1
102
RTVSPropertyOp35
 70
     1
102
RTVSPropertyOp36
 70
     1
102
RTVSPropertyOp37
 70
     1
102
RTVSPropertyOp38
 70
     1
102
RTVSPropertyOp39
 70
     1
102
RTVSPropertyOp40
 70
     1
102
RTVSPropertyOp41
 70
     1
102
RTVSPropertyOp42
 70
     1
102
RTVSPropertyOp43
 70
     1
102
RTVSPropertyOp44
 70
     1
102
RTVSPropertyOp45
 70
     1
102
RTVSPropertyOp46
 70
     1
102
RTVSPropertyOp47
 70
     1
102
RTVSPropertyOp48
 70
     1
102
RTVSPropertyOp49
 70
     1
102
RTVSPropertyOp50
 70
     1
102
RTVSPropertyOp51
 70
     0
102
RTVSPropertyOp52
 70
     0
102
RTVSPropertyOp53
 70
     1
102
RTVSPropertyOp54
 70
     1
102
RTVSPropertyOp55
 70
     1
102
RTVSPropertyOp56
 70
     1
102
RTVSPropertyOp57
 70
     1
102
RTVSPropertyOp58
 70
     1
102
RTVSPropertyOp59
 70
     1
102
RTVSPropertyOp60
 70
     1
102
RTVSPropertyOp61
 70
     1
102
RTVSPropertyOp62
 70
     1
  0
XRECORD
  5
857C
102
{ACAD_REACTORS
330
857B
102
}
330
857B
100
AcDbXrecord
280
     1
102
RTVSPost2010Prop28
280
     0
102
RTVSPost2010PropOp28
 70
     1
102
RTVSPost2010Prop29
280
     1
102
RTVSPost2010PropOp29
 70
     1
102
RTVSPost2010Prop30
280
     1
102
RTVSPost2010PropOp30
 70
     1
102
RTVSPost2010Prop31
280
     0
102
RTVSPost2010PropOp31
 70
     1
102
RTVSPost2010Prop32
280
     0
102
RTVSPost2010PropOp32
 70
     1
102
RTVSPost2010Prop33
280
     0
102
RTVSPost2010PropOp33
 70
     1
102
RTVSPost2010Prop34
280
     0
102
RTVSPost2010PropOp34
 70
     1
102
RTVSPost2010Prop35
280
     0
102
RTVSPost2010PropOp35
 70
     1
102
RTVSPost2010Prop36
280
     0
102
RTVSPost2010PropOp36
 70
     1
102
RTVSPost2010Prop37
 90
       50
102
RTVSPost2010PropOp37
 70
     1
102
RTVSPost2010Prop38
140
0.0
102
RTVSPost2010PropOp38
 70
     1
102
RTVSPost2010Prop39
140
1.0
102
RTVSPost2010PropOp39
 70
     1
102
RTVSPost2010Prop40
 90
        0
102
RTVSPost2010PropOp40
 70
     1
102
RTVSPost2010Prop41ColorIndex
 90
       18
102
RTVSPost2010Prop41ColorRGB
 90
        0
102
RTVSPost2010PropOp41
 70
     1
102
RTVSPost2010Prop42
 90
       50
102
RTVSPost2010PropOp42
 70
     1
102
RTVSPost2010Prop43
 90
        3
102
RTVSPost2010PropOp43
 70
     1
102
RTVSPost2010Prop44ColorIndex
 90
        5
102
RTVSPost2010Prop44ColorRGB
 90
      255
102
RTVSPost2010PropOp44
 70
     1
102
RTVSPost2010Prop45
280
     0
102
RTVSPost2010PropOp45
 70
     1
102
RTVSPost2010Prop46
 90
       50
102
RTVSPost2010PropOp46
 70
     1
102
RTVSPost2010Prop47
 90
       50
102
RTVSPost2010PropOp47
 70
     1
102
RTVSPost2010Prop48
 90
       50
102
RTVSPost2010PropOp48
 70
     1
102
RTVSPost2010Prop49
280
     0
102
RTVSPost2010PropOp49
 70
     1
102
RTVSPost2010Prop50
 90
       50
102
RTVSPost2010PropOp50
 70
     1
102
RTVSPost2010Prop51ColorIndex
 90
      256
102
RTVSPost2010Prop51ColorRGB
 90
-16777216
102
RTVSPost2010PropOp51
 70
     0
102
RTVSPost2010Prop52
140
1.0
102
RTVSPost2010PropOp52
 70
     0
102
RTVSPost2010Prop53
 90
        2
102
RTVSPost2010PropOp53
 70
     1
102
RTVSPost2010Prop54
  1
strokes_ogs.tif
102
RTVSPost2010PropOp54
 70
     1
102
RTVSPost2010Prop55
280
     0
102
RTVSPost2010PropOp55
 70
     1
102
RTVSPost2010Prop56
140
1.0
102
RTVSPost2010PropOp56
 70
     1
102
RTVSPost2010Prop57
140
1.0
102
RTVSPost2010PropOp57
 70
     1
102
RTVSPropertyOp0
 70
     1
102
RTVSPropertyOp1
 70
     1
102
RTVSPropertyOp2
 70
     1
102
RTVSPropertyOp3
 70
     1
102
RTVSPropertyOp4
 70
     1
102
RTVSPropertyOp5
 70
     1
102
RTVSPropertyOp6
 70
     1
102
RTVSPropertyOp7
 70
     1
102
RTVSPropertyOp8
 70
     1
102
RTVSPropertyOp9
 70
     1
102
RTVSPropertyOp10
 70
     1
102
RTVSPropertyOp11
 70
     1
102
RTVSPropertyOp12
 70
     1
102
RTVSPropertyOp13
 70
     1
102
RTVSPropertyOp14
 70
     1
102
RTVSPropertyOp15
 70
     1
102
RTVSPropertyOp16
 70
     1
102
RTVSPropertyOp17
 70
     1
102
RTVSPropertyOp18
 70
     1
102
RTVSPropertyOp19
 70
     1
102
RTVSPropertyOp20
 70
     1
102
RTVSPropertyOp21
 70
     1
102
RTVSPropertyOp22
 70
     1
102
RTVSPropertyOp23
 70
     1
102
RTVSPropertyOp24
 70
     1
102
RTVSPropertyOp25
 70
     1
102
RTVSPropertyOp26
 70
     1
102
RTVSPropertyOp27
 70
     1
102
RTVSPropertyOp28
 70
     1
102
RTVSPropertyOp29
 70
     1
102
RTVSPropertyOp30
 70
     1
102
RTVSPropertyOp31
 70
     1
102
RTVSPropertyOp32
 70
     1
102
RTVSPropertyOp33
 70
     1
102
RTVSPropertyOp34
 70
     1
102
RTVSPropertyOp35
 70
     1
102
RTVSPropertyOp36
 70
     1
102
RTVSPropertyOp37
 70
     1
102
RTVSPropertyOp38
 70
     1
102
RTVSPropertyOp39
 70
     1
102
RTVSPropertyOp40
 70
     1
102
RTVSPropertyOp41
 70
     1
102
RTVSPropertyOp42
 70
     1
102
RTVSPropertyOp43
 70
     1
102
RTVSPropertyOp44
 70
     1
102
RTVSPropertyOp45
 70
     1
102
RTVSPropertyOp46
 70
     1
102
RTVSPropertyOp47
 70
     1
102
RTVSPropertyOp48
 70
     1
102
RTVSPropertyOp49
 70
     1
102
RTVSPropertyOp50
 70
     1
102
RTVSPropertyOp51
 70
     0
102
RTVSPropertyOp52
 70
     0
102
RTVSPropertyOp53
 70
     1
102
RTVSPropertyOp54
 70
     1
102
RTVSPropertyOp55
 70
     1
102
RTVSPropertyOp56
 70
     1
102
RTVSPropertyOp57
 70
     1
102
RTVSPropertyOp58
 70
     1
102
RTVSPropertyOp59
 70
     1
102
RTVSPropertyOp60
 70
     1
102
RTVSPropertyOp61
 70
     1
102
RTVSPropertyOp62
 70
     1
  0
XRECORD
  5
8576
102
{ACAD_REACTORS
330
8575
102
}
330
8575
100
AcDbXrecord
280
     1
102
RTVSPost2010Prop28
280
     0
102
RTVSPost2010PropOp28
 70
     1
102
RTVSPost2010Prop29
280
     1
102
RTVSPost2010PropOp29
 70
     1
102
RTVSPost2010Prop30
280
     1
102
RTVSPost2010PropOp30
 70
     1
102
RTVSPost2010Prop31
280
     0
102
RTVSPost2010PropOp31
 70
     1
102
RTVSPost2010Prop32
280
     0
102
RTVSPost2010PropOp32
 70
     1
102
RTVSPost2010Prop33
280
     0
102
RTVSPost2010PropOp33
 70
     1
102
RTVSPost2010Prop34
280
     0
102
RTVSPost2010PropOp34
 70
     1
102
RTVSPost2010Prop35
280
     0
102
RTVSPost2010PropOp35
 70
     1
102
RTVSPost2010Prop36
280
     0
102
RTVSPost2010PropOp36
 70
     1
102
RTVSPost2010Prop37
 90
       50
102
RTVSPost2010PropOp37
 70
     1
102
RTVSPost2010Prop38
140
0.0
102
RTVSPost2010PropOp38
 70
     1
102
RTVSPost2010Prop39
140
1.0
102
RTVSPost2010PropOp39
 70
     1
102
RTVSPost2010Prop40
 90
        0
102
RTVSPost2010PropOp40
 70
     1
102
RTVSPost2010Prop41ColorIndex
 90
       18
102
RTVSPost2010Prop41ColorRGB
 90
        0
102
RTVSPost2010PropOp41
 70
     1
102
RTVSPost2010Prop42
 90
       50
102
RTVSPost2010PropOp42
 70
     1
102
RTVSPost2010Prop43
 90
        3
102
RTVSPost2010PropOp43
 70
     1
102
RTVSPost2010Prop44ColorIndex
 90
        5
102
RTVSPost2010Prop44ColorRGB
 90
      255
102
RTVSPost2010PropOp44
 70
     1
102
RTVSPost2010Prop45
280
     0
102
RTVSPost2010PropOp45
 70
     1
102
RTVSPost2010Prop46
 90
       50
102
RTVSPost2010PropOp46
 70
     1
102
RTVSPost2010Prop47
 90
       50
102
RTVSPost2010PropOp47
 70
     1
102
RTVSPost2010Prop48
 90
       50
102
RTVSPost2010PropOp48
 70
     1
102
RTVSPost2010Prop49
280
     0
102
RTVSPost2010PropOp49
 70
     1
102
RTVSPost2010Prop50
 90
       50
102
RTVSPost2010PropOp50
 70
     1
102
RTVSPost2010Prop51ColorIndex
 90
      256
102
RTVSPost2010Prop51ColorRGB
 90
-16777216
102
RTVSPost2010PropOp51
 70
     0
102
RTVSPost2010Prop52
140
1.0
102
RTVSPost2010PropOp52
 70
     0
102
RTVSPost2010Prop53
 90
        2
102
RTVSPost2010PropOp53
 70
     1
102
RTVSPost2010Prop54
  1
strokes_ogs.tif
102
RTVSPost2010PropOp54
 70
     1
102
RTVSPost2010Prop55
280
     0
102
RTVSPost2010PropOp55
 70
     1
102
RTVSPost2010Prop56
140
1.0
102
RTVSPost2010PropOp56
 70
     1
102
RTVSPost2010Prop57
140
1.0
102
RTVSPost2010PropOp57
 70
     1
102
RTVSPropertyOp0
 70
     1
102
RTVSPropertyOp1
 70
     1
102
RTVSPropertyOp2
 70
     1
102
RTVSPropertyOp3
 70
     1
102
RTVSPropertyOp4
 70
     1
102
RTVSPropertyOp5
 70
     1
102
RTVSPropertyOp6
 70
     1
102
RTVSPropertyOp7
 70
     1
102
RTVSPropertyOp8
 70
     1
102
RTVSPropertyOp9
 70
     1
102
RTVSPropertyOp10
 70
     1
102
RTVSPropertyOp11
 70
     1
102
RTVSPropertyOp12
 70
     1
102
RTVSPropertyOp13
 70
     1
102
RTVSPropertyOp14
 70
     1
102
RTVSPropertyOp15
 70
     1
102
RTVSPropertyOp16
 70
     1
102
RTVSPropertyOp17
 70
     1
102
RTVSPropertyOp18
 70
     1
102
RTVSPropertyOp19
 70
     1
102
RTVSPropertyOp20
 70
     1
102
RTVSPropertyOp21
 70
     1
102
RTVSPropertyOp22
 70
     1
102
RTVSPropertyOp23
 70
     1
102
RTVSPropertyOp24
 70
     1
102
RTVSPropertyOp25
 70
     1
102
RTVSPropertyOp26
 70
     1
102
RTVSPropertyOp27
 70
     1
102
RTVSPropertyOp28
 70
     1
102
RTVSPropertyOp29
 70
     1
102
RTVSPropertyOp30
 70
     1
102
RTVSPropertyOp31
 70
     1
102
RTVSPropertyOp32
 70
     1
102
RTVSPropertyOp33
 70
     1
102
RTVSPropertyOp34
 70
     1
102
RTVSPropertyOp35
 70
     1
102
RTVSPropertyOp36
 70
     1
102
RTVSPropertyOp37
 70
     1
102
RTVSPropertyOp38
 70
     1
102
RTVSPropertyOp39
 70
     1
102
RTVSPropertyOp40
 70
     1
102
RTVSPropertyOp41
 70
     1
102
RTVSPropertyOp42
 70
     1
102
RTVSPropertyOp43
 70
     1
102
RTVSPropertyOp44
 70
     1
102
RTVSPropertyOp45
 70
     1
102
RTVSPropertyOp46
 70
     1
102
RTVSPropertyOp47
 70
     1
102
RTVSPropertyOp48
 70
     1
102
RTVSPropertyOp49
 70
     1
102
RTVSPropertyOp50
 70
     1
102
RTVSPropertyOp51
 70
     0
102
RTVSPropertyOp52
 70
     0
102
RTVSPropertyOp53
 70
     1
102
RTVSPropertyOp54
 70
     1
102
RTVSPropertyOp55
 70
     1
102
RTVSPropertyOp56
 70
     1
102
RTVSPropertyOp57
 70
     1
102
RTVSPropertyOp58
 70
     1
102
RTVSPropertyOp59
 70
     1
102
RTVSPropertyOp60
 70
     1
102
RTVSPropertyOp61
 70
     1
102
RTVSPropertyOp62
 70
     1
  0
XRECORD
  5
8578
102
{ACAD_REACTORS
330
8577
102
}
330
8577
100
AcDbXrecord
280
     1
102
RTVSPost2010Prop28
280
     0
102
RTVSPost2010PropOp28
 70
     1
102
RTVSPost2010Prop29
280
     1
102
RTVSPost2010PropOp29
 70
     1
102
RTVSPost2010Prop30
280
     1
102
RTVSPost2010PropOp30
 70
     1
102
RTVSPost2010Prop31
280
     0
102
RTVSPost2010PropOp31
 70
     1
102
RTVSPost2010Prop32
280
     0
102
RTVSPost2010PropOp32
 70
     1
102
RTVSPost2010Prop33
280
     0
102
RTVSPost2010PropOp33
 70
     1
102
RTVSPost2010Prop34
280
     0
102
RTVSPost2010PropOp34
 70
     1
102
RTVSPost2010Prop35
280
     0
102
RTVSPost2010PropOp35
 70
     1
102
RTVSPost2010Prop36
280
     0
102
RTVSPost2010PropOp36
 70
     1
102
RTVSPost2010Prop37
 90
       50
102
RTVSPost2010PropOp37
 70
     1
102
RTVSPost2010Prop38
140
0.0
102
RTVSPost2010PropOp38
 70
     1
102
RTVSPost2010Prop39
140
1.0
102
RTVSPost2010PropOp39
 70
     1
102
RTVSPost2010Prop40
 90
        0
102
RTVSPost2010PropOp40
 70
     1
102
RTVSPost2010Prop41ColorIndex
 90
       18
102
RTVSPost2010Prop41ColorRGB
 90
        0
102
RTVSPost2010PropOp41
 70
     1
102
RTVSPost2010Prop42
 90
       50
102
RTVSPost2010PropOp42
 70
     1
102
RTVSPost2010Prop43
 90
        3
102
RTVSPost2010PropOp43
 70
     1
102
RTVSPost2010Prop44ColorIndex
 90
        5
102
RTVSPost2010Prop44ColorRGB
 90
      255
102
RTVSPost2010PropOp44
 70
     1
102
RTVSPost2010Prop45
280
     0
102
RTVSPost2010PropOp45
 70
     1
102
RTVSPost2010Prop46
 90
       50
102
RTVSPost2010PropOp46
 70
     1
102
RTVSPost2010Prop47
 90
       50
102
RTVSPost2010PropOp47
 70
     1
102
RTVSPost2010Prop48
 90
       50
102
RTVSPost2010PropOp48
 70
     1
102
RTVSPost2010Prop49
280
     0
102
RTVSPost2010PropOp49
 70
     1
102
RTVSPost2010Prop50
 90
       50
102
RTVSPost2010PropOp50
 70
     1
102
RTVSPost2010Prop51ColorIndex
 90
      256
102
RTVSPost2010Prop51ColorRGB
 90
-16777216
102
RTVSPost2010PropOp51
 70
     0
102
RTVSPost2010Prop52
140
1.0
102
RTVSPost2010PropOp52
 70
     0
102
RTVSPost2010Prop53
 90
        2
102
RTVSPost2010PropOp53
 70
     1
102
RTVSPost2010Prop54
  1
strokes_ogs.tif
102
RTVSPost2010PropOp54
 70
     1
102
RTVSPost2010Prop55
280
     0
102
RTVSPost2010PropOp55
 70
     1
102
RTVSPost2010Prop56
140
1.0
102
RTVSPost2010PropOp56
 70
     1
102
RTVSPost2010Prop57
140
1.0
102
RTVSPost2010PropOp57
 70
     1
102
RTVSPropertyOp0
 70
     1
102
RTVSPropertyOp1
 70
     1
102
RTVSPropertyOp2
 70
     1
102
RTVSPropertyOp3
 70
     1
102
RTVSPropertyOp4
 70
     1
102
RTVSPropertyOp5
 70
     1
102
RTVSPropertyOp6
 70
     1
102
RTVSPropertyOp7
 70
     1
102
RTVSPropertyOp8
 70
     1
102
RTVSPropertyOp9
 70
     1
102
RTVSPropertyOp10
 70
     1
102
RTVSPropertyOp11
 70
     1
102
RTVSPropertyOp12
 70
     1
102
RTVSPropertyOp13
 70
     1
102
RTVSPropertyOp14
 70
     1
102
RTVSPropertyOp15
 70
     1
102
RTVSPropertyOp16
 70
     1
102
RTVSPropertyOp17
 70
     1
102
RTVSPropertyOp18
 70
     1
102
RTVSPropertyOp19
 70
     1
102
RTVSPropertyOp20
 70
     1
102
RTVSPropertyOp21
 70
     1
102
RTVSPropertyOp22
 70
     1
102
RTVSPropertyOp23
 70
     1
102
RTVSPropertyOp24
 70
     1
102
RTVSPropertyOp25
 70
     1
102
RTVSPropertyOp26
 70
     1
102
RTVSPropertyOp27
 70
     1
102
RTVSPropertyOp28
 70
     1
102
RTVSPropertyOp29
 70
     1
102
RTVSPropertyOp30
 70
     1
102
RTVSPropertyOp31
 70
     1
102
RTVSPropertyOp32
 70
     1
102
RTVSPropertyOp33
 70
     1
102
RTVSPropertyOp34
 70
     1
102
RTVSPropertyOp35
 70
     1
102
RTVSPropertyOp36
 70
     1
102
RTVSPropertyOp37
 70
     1
102
RTVSPropertyOp38
 70
     1
102
RTVSPropertyOp39
 70
     1
102
RTVSPropertyOp40
 70
     1
102
RTVSPropertyOp41
 70
     1
102
RTVSPropertyOp42
 70
     1
102
RTVSPropertyOp43
 70
     1
102
RTVSPropertyOp44
 70
     1
102
RTVSPropertyOp45
 70
     1
102
RTVSPropertyOp46
 70
     1
102
RTVSPropertyOp47
 70
     1
102
RTVSPropertyOp48
 70
     1
102
RTVSPropertyOp49
 70
     1
102
RTVSPropertyOp50
 70
     1
102
RTVSPropertyOp51
 70
     0
102
RTVSPropertyOp52
 70
     0
102
RTVSPropertyOp53
 70
     1
102
RTVSPropertyOp54
 70
     1
102
RTVSPropertyOp55
 70
     1
102
RTVSPropertyOp56
 70
     1
102
RTVSPropertyOp57
 70
     1
102
RTVSPropertyOp58
 70
     1
102
RTVSPropertyOp59
 70
     1
102
RTVSPropertyOp60
 70
     1
102
RTVSPropertyOp61
 70
     1
102
RTVSPropertyOp62
 70
     1
  0
XRECORD
  5
856E
102
{ACAD_REACTORS
330
856D
102
}
330
856D
100
AcDbXrecord
280
     1
102
RTVSPost2010Prop28
280
     0
102
RTVSPost2010PropOp28
 70
     1
102
RTVSPost2010Prop29
280
     1
102
RTVSPost2010PropOp29
 70
     1
102
RTVSPost2010Prop30
280
     1
102
RTVSPost2010PropOp30
 70
     1
102
RTVSPost2010Prop31
280
     0
102
RTVSPost2010PropOp31
 70
     1
102
RTVSPost2010Prop32
280
     0
102
RTVSPost2010PropOp32
 70
     1
102
RTVSPost2010Prop33
280
     0
102
RTVSPost2010PropOp33
 70
     1
102
RTVSPost2010Prop34
280
     0
102
RTVSPost2010PropOp34
 70
     1
102
RTVSPost2010Prop35
280
     0
102
RTVSPost2010PropOp35
 70
     1
102
RTVSPost2010Prop36
280
     0
102
RTVSPost2010PropOp36
 70
     1
102
RTVSPost2010Prop37
 90
       50
102
RTVSPost2010PropOp37
 70
     1
102
RTVSPost2010Prop38
140
0.0
102
RTVSPost2010PropOp38
 70
     1
102
RTVSPost2010Prop39
140
1.0
102
RTVSPost2010PropOp39
 70
     1
102
RTVSPost2010Prop40
 90
        0
102
RTVSPost2010PropOp40
 70
     1
102
RTVSPost2010Prop41ColorIndex
 90
       18
102
RTVSPost2010Prop41ColorRGB
 90
        0
102
RTVSPost2010PropOp41
 70
     1
102
RTVSPost2010Prop42
 90
       50
102
RTVSPost2010PropOp42
 70
     1
102
RTVSPost2010Prop43
 90
        3
102
RTVSPost2010PropOp43
 70
     1
102
RTVSPost2010Prop44ColorIndex
 90
        5
102
RTVSPost2010Prop44ColorRGB
 90
      255
102
RTVSPost2010PropOp44
 70
     1
102
RTVSPost2010Prop45
280
     0
102
RTVSPost2010PropOp45
 70
     1
102
RTVSPost2010Prop46
 90
       50
102
RTVSPost2010PropOp46
 70
     1
102
RTVSPost2010Prop47
 90
       50
102
RTVSPost2010PropOp47
 70
     1
102
RTVSPost2010Prop48
 90
       50
102
RTVSPost2010PropOp48
 70
     1
102
RTVSPost2010Prop49
280
     0
102
RTVSPost2010PropOp49
 70
     1
102
RTVSPost2010Prop50
 90
       50
102
RTVSPost2010PropOp50
 70
     1
102
RTVSPost2010Prop51ColorIndex
 90
      256
102
RTVSPost2010Prop51ColorRGB
 90
-16777216
102
RTVSPost2010PropOp51
 70
     0
102
RTVSPost2010Prop52
140
1.0
102
RTVSPost2010PropOp52
 70
     0
102
RTVSPost2010Prop53
 90
        2
102
RTVSPost2010PropOp53
 70
     1
102
RTVSPost2010Prop54
  1
strokes_ogs.tif
102
RTVSPost2010PropOp54
 70
     1
102
RTVSPost2010Prop55
280
     0
102
RTVSPost2010PropOp55
 70
     1
102
RTVSPost2010Prop56
140
1.0
102
RTVSPost2010PropOp56
 70
     1
102
RTVSPost2010Prop57
140
1.0
102
RTVSPost2010PropOp57
 70
     1
102
RTVSPropertyOp0
 70
     1
102
RTVSPropertyOp1
 70
     1
102
RTVSPropertyOp2
 70
     1
102
RTVSPropertyOp3
 70
     1
102
RTVSPropertyOp4
 70
     1
102
RTVSPropertyOp5
 70
     1
102
RTVSPropertyOp6
 70
     1
102
RTVSPropertyOp7
 70
     1
102
RTVSPropertyOp8
 70
     1
102
RTVSPropertyOp9
 70
     1
102
RTVSPropertyOp10
 70
     1
102
RTVSPropertyOp11
 70
     1
102
RTVSPropertyOp12
 70
     1
102
RTVSPropertyOp13
 70
     1
102
RTVSPropertyOp14
 70
     1
102
RTVSPropertyOp15
 70
     1
102
RTVSPropertyOp16
 70
     1
102
RTVSPropertyOp17
 70
     1
102
RTVSPropertyOp18
 70
     1
102
RTVSPropertyOp19
 70
     1
102
RTVSPropertyOp20
 70
     1
102
RTVSPropertyOp21
 70
     1
102
RTVSPropertyOp22
 70
     1
102
RTVSPropertyOp23
 70
     1
102
RTVSPropertyOp24
 70
     1
102
RTVSPropertyOp25
 70
     1
102
RTVSPropertyOp26
 70
     1
102
RTVSPropertyOp27
 70
     1
102
RTVSPropertyOp28
 70
     1
102
RTVSPropertyOp29
 70
     1
102
RTVSPropertyOp30
 70
     1
102
RTVSPropertyOp31
 70
     1
102
RTVSPropertyOp32
 70
     1
102
RTVSPropertyOp33
 70
     1
102
RTVSPropertyOp34
 70
     1
102
RTVSPropertyOp35
 70
     1
102
RTVSPropertyOp36
 70
     1
102
RTVSPropertyOp37
 70
     1
102
RTVSPropertyOp38
 70
     1
102
RTVSPropertyOp39
 70
     1
102
RTVSPropertyOp40
 70
     1
102
RTVSPropertyOp41
 70
     1
102
RTVSPropertyOp42
 70
     1
102
RTVSPropertyOp43
 70
     1
102
RTVSPropertyOp44
 70
     1
102
RTVSPropertyOp45
 70
     1
102
RTVSPropertyOp46
 70
     1
102
RTVSPropertyOp47
 70
     1
102
RTVSPropertyOp48
 70
     1
102
RTVSPropertyOp49
 70
     1
102
RTVSPropertyOp50
 70
     1
102
RTVSPropertyOp51
 70
     0
102
RTVSPropertyOp52
 70
     0
102
RTVSPropertyOp53
 70
     1
102
RTVSPropertyOp54
 70
     1
102
RTVSPropertyOp55
 70
     1
102
RTVSPropertyOp56
 70
     1
102
RTVSPropertyOp57
 70
     1
102
RTVSPropertyOp58
 70
     1
102
RTVSPropertyOp59
 70
     1
102
RTVSPropertyOp60
 70
     1
102
RTVSPropertyOp61
 70
     1
102
RTVSPropertyOp62
 70
     1
  0
XRECORD
  5
8562
102
{ACAD_REACTORS
330
8561
102
}
330
8561
100
AcDbXrecord
280
     1
102
RTVSPost2010Prop28
280
     0
102
RTVSPost2010PropOp28
 70
     1
102
RTVSPost2010Prop29
280
     1
102
RTVSPost2010PropOp29
 70
     1
102
RTVSPost2010Prop30
280
     1
102
RTVSPost2010PropOp30
 70
     1
102
RTVSPost2010Prop31
280
     0
102
RTVSPost2010PropOp31
 70
     1
102
RTVSPost2010Prop32
280
     0
102
RTVSPost2010PropOp32
 70
     1
102
RTVSPost2010Prop33
280
     0
102
RTVSPost2010PropOp33
 70
     1
102
RTVSPost2010Prop34
280
     0
102
RTVSPost2010PropOp34
 70
     1
102
RTVSPost2010Prop35
280
     0
102
RTVSPost2010PropOp35
 70
     1
102
RTVSPost2010Prop36
280
     0
102
RTVSPost2010PropOp36
 70
     1
102
RTVSPost2010Prop37
 90
       50
102
RTVSPost2010PropOp37
 70
     1
102
RTVSPost2010Prop38
140
0.0
102
RTVSPost2010PropOp38
 70
     1
102
RTVSPost2010Prop39
140
1.0
102
RTVSPost2010PropOp39
 70
     1
102
RTVSPost2010Prop40
 90
        0
102
RTVSPost2010PropOp40
 70
     1
102
RTVSPost2010Prop41ColorIndex
 90
       18
102
RTVSPost2010Prop41ColorRGB
 90
        0
102
RTVSPost2010PropOp41
 70
     1
102
RTVSPost2010Prop42
 90
       50
102
RTVSPost2010PropOp42
 70
     1
102
RTVSPost2010Prop43
 90
        3
102
RTVSPost2010PropOp43
 70
     1
102
RTVSPost2010Prop44ColorIndex
 90
        5
102
RTVSPost2010Prop44ColorRGB
 90
      255
102
RTVSPost2010PropOp44
 70
     1
102
RTVSPost2010Prop45
280
     0
102
RTVSPost2010PropOp45
 70
     1
102
RTVSPost2010Prop46
 90
       50
102
RTVSPost2010PropOp46
 70
     1
102
RTVSPost2010Prop47
 90
       50
102
RTVSPost2010PropOp47
 70
     1
102
RTVSPost2010Prop48
 90
       50
102
RTVSPost2010PropOp48
 70
     1
102
RTVSPost2010Prop49
280
     0
102
RTVSPost2010PropOp49
 70
     1
102
RTVSPost2010Prop50
 90
       50
102
RTVSPost2010PropOp50
 70
     1
102
RTVSPost2010Prop51ColorIndex
 90
      256
102
RTVSPost2010Prop51ColorRGB
 90
-16777216
102
RTVSPost2010PropOp51
 70
     0
102
RTVSPost2010Prop52
140
1.0
102
RTVSPost2010PropOp52
 70
     0
102
RTVSPost2010Prop53
 90
        2
102
RTVSPost2010PropOp53
 70
     1
102
RTVSPost2010Prop54
  1
strokes_ogs.tif
102
RTVSPost2010PropOp54
 70
     1
102
RTVSPost2010Prop55
280
     0
102
RTVSPost2010PropOp55
 70
     1
102
RTVSPost2010Prop56
140
1.0
102
RTVSPost2010PropOp56
 70
     1
102
RTVSPost2010Prop57
140
1.0
102
RTVSPost2010PropOp57
 70
     1
102
RTVSPropertyOp0
 70
     1
102
RTVSPropertyOp1
 70
     1
102
RTVSPropertyOp2
 70
     1
102
RTVSPropertyOp3
 70
     1
102
RTVSPropertyOp4
 70
     1
102
RTVSPropertyOp5
 70
     1
102
RTVSPropertyOp6
 70
     1
102
RTVSPropertyOp7
 70
     1
102
RTVSPropertyOp8
 70
     1
102
RTVSPropertyOp9
 70
     1
102
RTVSPropertyOp10
 70
     1
102
RTVSPropertyOp11
 70
     1
102
RTVSPropertyOp12
 70
     1
102
RTVSPropertyOp13
 70
     1
102
RTVSPropertyOp14
 70
     1
102
RTVSPropertyOp15
 70
     1
102
RTVSPropertyOp16
 70
     1
102
RTVSPropertyOp17
 70
     1
102
RTVSPropertyOp18
 70
     1
102
RTVSPropertyOp19
 70
     1
102
RTVSPropertyOp20
 70
     1
102
RTVSPropertyOp21
 70
     1
102
RTVSPropertyOp22
 70
     1
102
RTVSPropertyOp23
 70
     1
102
RTVSPropertyOp24
 70
     1
102
RTVSPropertyOp25
 70
     1
102
RTVSPropertyOp26
 70
     1
102
RTVSPropertyOp27
 70
     1
102
RTVSPropertyOp28
 70
     1
102
RTVSPropertyOp29
 70
     1
102
RTVSPropertyOp30
 70
     1
102
RTVSPropertyOp31
 70
     1
102
RTVSPropertyOp32
 70
     1
102
RTVSPropertyOp33
 70
     1
102
RTVSPropertyOp34
 70
     1
102
RTVSPropertyOp35
 70
     1
102
RTVSPropertyOp36
 70
     1
102
RTVSPropertyOp37
 70
     1
102
RTVSPropertyOp38
 70
     1
102
RTVSPropertyOp39
 70
     1
102
RTVSPropertyOp40
 70
     1
102
RTVSPropertyOp41
 70
     1
102
RTVSPropertyOp42
 70
     1
102
RTVSPropertyOp43
 70
     1
102
RTVSPropertyOp44
 70
     1
102
RTVSPropertyOp45
 70
     1
102
RTVSPropertyOp46
 70
     1
102
RTVSPropertyOp47
 70
     1
102
RTVSPropertyOp48
 70
     1
102
RTVSPropertyOp49
 70
     1
102
RTVSPropertyOp50
 70
     1
102
RTVSPropertyOp51
 70
     0
102
RTVSPropertyOp52
 70
     0
102
RTVSPropertyOp53
 70
     1
102
RTVSPropertyOp54
 70
     1
102
RTVSPropertyOp55
 70
     1
102
RTVSPropertyOp56
 70
     1
102
RTVSPropertyOp57
 70
     1
102
RTVSPropertyOp58
 70
     1
102
RTVSPropertyOp59
 70
     1
102
RTVSPropertyOp60
 70
     1
102
RTVSPropertyOp61
 70
     1
102
RTVSPropertyOp62
 70
     1
  0
XRECORD
  5
857A
102
{ACAD_REACTORS
330
8579
102
}
330
8579
100
AcDbXrecord
280
     1
102
RTVSPost2010Prop28
280
     0
102
RTVSPost2010PropOp28
 70
     1
102
RTVSPost2010Prop29
280
     1
102
RTVSPost2010PropOp29
 70
     1
102
RTVSPost2010Prop30
280
     1
102
RTVSPost2010PropOp30
 70
     1
102
RTVSPost2010Prop31
280
     0
102
RTVSPost2010PropOp31
 70
     1
102
RTVSPost2010Prop32
280
     0
102
RTVSPost2010PropOp32
 70
     1
102
RTVSPost2010Prop33
280
     0
102
RTVSPost2010PropOp33
 70
     1
102
RTVSPost2010Prop34
280
     0
102
RTVSPost2010PropOp34
 70
     1
102
RTVSPost2010Prop35
280
     0
102
RTVSPost2010PropOp35
 70
     1
102
RTVSPost2010Prop36
280
     0
102
RTVSPost2010PropOp36
 70
     1
102
RTVSPost2010Prop37
 90
       50
102
RTVSPost2010PropOp37
 70
     1
102
RTVSPost2010Prop38
140
0.0
102
RTVSPost2010PropOp38
 70
     1
102
RTVSPost2010Prop39
140
1.0
102
RTVSPost2010PropOp39
 70
     1
102
RTVSPost2010Prop40
 90
        0
102
RTVSPost2010PropOp40
 70
     1
102
RTVSPost2010Prop41ColorIndex
 90
       18
102
RTVSPost2010Prop41ColorRGB
 90
        0
102
RTVSPost2010PropOp41
 70
     1
102
RTVSPost2010Prop42
 90
       50
102
RTVSPost2010PropOp42
 70
     1
102
RTVSPost2010Prop43
 90
        3
102
RTVSPost2010PropOp43
 70
     1
102
RTVSPost2010Prop44ColorIndex
 90
        5
102
RTVSPost2010Prop44ColorRGB
 90
      255
102
RTVSPost2010PropOp44
 70
     1
102
RTVSPost2010Prop45
280
     0
102
RTVSPost2010PropOp45
 70
     1
102
RTVSPost2010Prop46
 90
       50
102
RTVSPost2010PropOp46
 70
     1
102
RTVSPost2010Prop47
 90
       50
102
RTVSPost2010PropOp47
 70
     1
102
RTVSPost2010Prop48
 90
       50
102
RTVSPost2010PropOp48
 70
     1
102
RTVSPost2010Prop49
280
     0
102
RTVSPost2010PropOp49
 70
     1
102
RTVSPost2010Prop50
 90
       50
102
RTVSPost2010PropOp50
 70
     1
102
RTVSPost2010Prop51ColorIndex
 90
      256
102
RTVSPost2010Prop51ColorRGB
 90
-16777216
102
RTVSPost2010PropOp51
 70
     0
102
RTVSPost2010Prop52
140
1.0
102
RTVSPost2010PropOp52
 70
     0
102
RTVSPost2010Prop53
 90
        2
102
RTVSPost2010PropOp53
 70
     1
102
RTVSPost2010Prop54
  1
strokes_ogs.tif
102
RTVSPost2010PropOp54
 70
     1
102
RTVSPost2010Prop55
280
     0
102
RTVSPost2010PropOp55
 70
     1
102
RTVSPost2010Prop56
140
1.0
102
RTVSPost2010PropOp56
 70
     1
102
RTVSPost2010Prop57
140
1.0
102
RTVSPost2010PropOp57
 70
     1
102
RTVSPropertyOp0
 70
     1
102
RTVSPropertyOp1
 70
     1
102
RTVSPropertyOp2
 70
     1
102
RTVSPropertyOp3
 70
     1
102
RTVSPropertyOp4
 70
     1
102
RTVSPropertyOp5
 70
     1
102
RTVSPropertyOp6
 70
     1
102
RTVSPropertyOp7
 70
     1
102
RTVSPropertyOp8
 70
     1
102
RTVSPropertyOp9
 70
     1
102
RTVSPropertyOp10
 70
     1
102
RTVSPropertyOp11
 70
     1
102
RTVSPropertyOp12
 70
     1
102
RTVSPropertyOp13
 70
     1
102
RTVSPropertyOp14
 70
     1
102
RTVSPropertyOp15
 70
     1
102
RTVSPropertyOp16
 70
     1
102
RTVSPropertyOp17
 70
     1
102
RTVSPropertyOp18
 70
     1
102
RTVSPropertyOp19
 70
     1
102
RTVSPropertyOp20
 70
     1
102
RTVSPropertyOp21
 70
     1
102
RTVSPropertyOp22
 70
     1
102
RTVSPropertyOp23
 70
     1
102
RTVSPropertyOp24
 70
     1
102
RTVSPropertyOp25
 70
     1
102
RTVSPropertyOp26
 70
     1
102
RTVSPropertyOp27
 70
     1
102
RTVSPropertyOp28
 70
     1
102
RTVSPropertyOp29
 70
     1
102
RTVSPropertyOp30
 70
     1
102
RTVSPropertyOp31
 70
     1
102
RTVSPropertyOp32
 70
     1
102
RTVSPropertyOp33
 70
     1
102
RTVSPropertyOp34
 70
     1
102
RTVSPropertyOp35
 70
     1
102
RTVSPropertyOp36
 70
     1
102
RTVSPropertyOp37
 70
     1
102
RTVSPropertyOp38
 70
     1
102
RTVSPropertyOp39
 70
     1
102
RTVSPropertyOp40
 70
     1
102
RTVSPropertyOp41
 70
     1
102
RTVSPropertyOp42
 70
     1
102
RTVSPropertyOp43
 70
     1
102
RTVSPropertyOp44
 70
     1
102
RTVSPropertyOp45
 70
     1
102
RTVSPropertyOp46
 70
     1
102
RTVSPropertyOp47
 70
     1
102
RTVSPropertyOp48
 70
     1
102
RTVSPropertyOp49
 70
     1
102
RTVSPropertyOp50
 70
     1
102
RTVSPropertyOp51
 70
     0
102
RTVSPropertyOp52
 70
     0
102
RTVSPropertyOp53
 70
     1
102
RTVSPropertyOp54
 70
     1
102
RTVSPropertyOp55
 70
     1
102
RTVSPropertyOp56
 70
     1
102
RTVSPropertyOp57
 70
     1
102
RTVSPropertyOp58
 70
     1
102
RTVSPropertyOp59
 70
     1
102
RTVSPropertyOp60
 70
     1
102
RTVSPropertyOp61
 70
     1
102
RTVSPropertyOp62
 70
     1
  0
ENDSEC
  0
EOF
