  0
SECTION
  2
HEADER
  9
$ACADVER
  1
AC1015
  9
$ACADMAINTVER
 70
    20
  9
$DWGCODEPAGE
  3
ANSI_932
  9
$INSBASE
 10
0.0
 20
0.0
 30
0.0
  9
$EXTMIN
 10
-0.1281640493871237
 20
-0.1800399741405272
 30
-0.0015258207003583
  9
$EXTMAX
 10
4200.128183607161
 20
5900.180067448153
 30
0.0000000349246037
  9
$LIMMIN
 10
0.0
 20
0.0
  9
$LIMMAX
 10
297.0
 20
210.0
  9
$ORTHOMODE
 70
     1
  9
$REGENMODE
 70
     1
  9
$FILLMODE
 70
     0
  9
$QTEXTMODE
 70
     0
  9
$MIRRTEXT
 70
     1
  9
$LTSCALE
 40
100.0
  9
$ATTMODE
 70
     1
  9
$TEXTSIZE
 40
180.0
  9
$TRACEWID
 40
0.05
  9
$TEXTSTYLE
  7
STANDARD
  9
$CLAYER
  8
3
  9
$CELTYPE
  6
ByLayer
  9
$CECOLOR
 62
   256
  9
$CELTSCALE
 40
1.0
  9
$DISPSILH
 70
     0
  9
$DIMSCALE
 40
20.0
  9
$DIMASZ
 40
2.0
  9
$DIMEXO
 40
1.0
  9
$DIMDLI
 40
10.0
  9
$DIMRND
 40
0.0
  9
$DIMDLE
 40
0.0
  9
$DIMEXE
 40
1.0
  9
$DIMTP
 40
1.0
  9
$DIMTM
 40
1.0
  9
$DIMTXT
 40
3.0
  9
$DIMCEN
 40
0.0
  9
$DIMTSZ
 40
0.0
  9
$DIMTOL
 70
     0
  9
$DIMLIM
 70
     0
  9
$DIMTIH
 70
     0
  9
$DIMTOH
 70
     0
  9
$DIMSE1
 70
     0
  9
$DIMSE2
 70
     0
  9
$DIMTAD
 70
     1
  9
$DIMZIN
 70
     8
  9
$DIMBLK
  1

  9
$DIMASO
 70
     1
  9
$DIMSHO
 70
     1
  9
$DIMPOST
  1

  9
$DIMAPOST
  1

  9
$DIMALT
 70
     0
  9
$DIMALTD
 70
     2
  9
$DIMALTF
 40
0.039
  9
$DIMLFAC
 40
1.0
  9
$DIMTOFL
 70
     1
  9
$DIMTVP
 40
0.0
  9
$DIMTIX
 70
     0
  9
$DIMSOXD
 70
     0
  9
$DIMSAH
 70
     1
  9
$DIMBLK1
  1
OPEN
  9
$DIMBLK2
  1
OPEN
  9
$DIMSTYLE
  2
IGA
  9
$DIMCLRD
 70
     0
  9
$DIMCLRE
 70
     0
  9
$DIMCLRT
 70
     0
  9
$DIMTFAC
 40
10.0
  9
$DIMGAP
 40
1.0
  9
$DIMJUST
 70
     0
  9
$DIMSD1
 70
     0
  9
$DIMSD2
 70
     0
  9
$DIMTOLJ
 70
     1
  9
$DIMTZIN
 70
     0
  9
$DIMALTZ
 70
     0
  9
$DIMALTTZ
 70
     0
  9
$DIMUPT
 70
     0
  9
$DIMDEC
 70
     4
  9
$DIMTDEC
 70
     4
  9
$DIMALTU
 70
     2
  9
$DIMALTTD
 70
     2
  9
$DIMTXSTY
  7
STANDARD
  9
$DIMAUNIT
 70
     0
  9
$DIMADEC
 70
     0
  9
$DIMALTRND
 40
0.0
  9
$DIMAZIN
 70
     0
  9
$DIMDSEP
 70
    46
  9
$DIMATFIT
 70
     3
  9
$DIMFRAC
 70
     0
  9
$DIMLDRBLK
  1
OPEN
  9
$DIMLUNIT
 70
     2
  9
$DIMLWD
 70
    -2
  9
$DIMLWE
 70
    -2
  9
$DIMTMOVE
 70
     0
  9
$LUNITS
 70
     2
  9
$LUPREC
 70
     3
  9
$SKETCHINC
 40
0.1
  9
$FILLETRAD
 40
50.0
  9
$AUNITS
 70
     0
  9
$AUPREC
 70
     0
  9
$MENU
  1
acad
  9
$ELEVATION
 40
0.0
  9
$PELEVATION
 40
0.0
  9
$THICKNESS
 40
0.0
  9
$LIMCHECK
 70
     0
  9
$CHAMFERA
 40
0.5
  9
$CHAMFERB
 40
0.5
  9
$CHAMFERC
 40
0.0
  9
$CHAMFERD
 40
0.0
  9
$SKPOLY
 70
     0
  9
$TDCREATE
 40
2451387.477422685
  9
$TDUCREATE
 40
2451387.102422685
  9
$TDUPDATE
 40
2460262.694639155
  9
$TDUUPDATE
 40
2460262.319639155
  9
$TDINDWG
 40
0.0189813773
  9
$TDUSRTIMER
 40
0.0189811458
  9
$USRTIMER
 70
     1
  9
$ANGBASE
 50
0.0
  9
$ANGDIR
 70
     0
  9
$PDMODE
 70
     0
  9
$PDSIZE
 40
0.0
  9
$PLINEWID
 40
0.0
  9
$SPLFRAME
 70
     0
  9
$SPLINETYPE
 70
     6
  9
$SPLINESEGS
 70
     8
  9
$HANDSEED
  5
8410
  9
$SURFTAB1
 70
     6
  9
$SURFTAB2
 70
     6
  9
$SURFTYPE
 70
     6
  9
$SURFU
 70
     6
  9
$SURFV
 70
     6
  9
$UCSBASE
  2

  9
$UCSNAME
  2

  9
$UCSORG
 10
0.0
 20
0.0
 30
0.0
  9
$UCSXDIR
 10
1.0
 20
0.0
 30
0.0
  9
$UCSYDIR
 10
0.0
 20
1.0
 30
0.0
  9
$UCSORTHOREF
  2

  9
$UCSORTHOVIEW
 70
     0
  9
$UCSORGTOP
 10
0.0
 20
0.0
 30
0.0
  9
$UCSORGBOTTOM
 10
0.0
 20
0.0
 30
0.0
  9
$UCSORGLEFT
 10
0.0
 20
0.0
 30
0.0
  9
$UCSORGRIGHT
 10
0.0
 20
0.0
 30
0.0
  9
$UCSORGFRONT
 10
0.0
 20
0.0
 30
0.0
  9
$UCSORGBACK
 10
0.0
 20
0.0
 30
0.0
  9
$PUCSBASE
  2

  9
$PUCSNAME
  2

  9
$PUCSORG
 10
0.0
 20
0.0
 30
0.0
  9
$PUCSXDIR
 10
1.0
 20
0.0
 30
0.0
  9
$PUCSYDIR
 10
0.0
 20
1.0
 30
0.0
  9
$PUCSORTHOREF
  2

  9
$PUCSORTHOVIEW
 70
     0
  9
$PUCSORGTOP
 10
0.0
 20
0.0
 30
0.0
  9
$PUCSORGBOTTOM
 10
0.0
 20
0.0
 30
0.0
  9
$PUCSORGLEFT
 10
0.0
 20
0.0
 30
0.0
  9
$PUCSORGRIGHT
 10
0.0
 20
0.0
 30
0.0
  9
$PUCSORGFRONT
 10
0.0
 20
0.0
 30
0.0
  9
$PUCSORGBACK
 10
0.0
 20
0.0
 30
0.0
  9
$USERI1
 70
     0
  9
$USERI2
 70
     0
  9
$USERI3
 70
     0
  9
$USERI4
 70
     0
  9
$USERI5
 70
     0
  9
$USERR1
 40
0.0
  9
$USERR2
 40
0.0
  9
$USERR3
 40
0.0
  9
$USERR4
 40
0.0
  9
$USERR5
 40
0.0
  9
$WORLDVIEW
 70
     1
  9
$SHADEDGE
 70
     3
  9
$SHADEDIF
 70
    70
  9
$TILEMODE
 70
     1
  9
$MAXACTVP
 70
    16
  9
$PINSBASE
 10
0.0
 20
0.0
 30
0.0
  9
$PLIMCHECK
 70
     0
  9
$PEXTMIN
 10
1.000000000000000E+20
 20
1.000000000000000E+20
 30
1.000000000000000E+20
  9
$PEXTMAX
 10
-1.000000000000000E+20
 20
-1.000000000000000E+20
 30
-1.000000000000000E+20
  9
$PLIMMIN
 10
0.0
 20
0.0
  9
$PLIMMAX
 10
12.0
 20
9.0
  9
$UNITMODE
 70
     0
  9
$VISRETAIN
 70
     0
  9
$PLINEGEN
 70
     0
  9
$PSLTSCALE
 70
     1
  9
$TREEDEPTH
 70
  3020
  9
$CMLSTYLE
  2
Standard
  9
$CMLJUST
 70
     0
  9
$CMLSCALE
 40
1.0
  9
$PROXYGRAPHICS
 70
     1
  9
$MEASUREMENT
 70
     0
  9
$CELWEIGHT
370
    -1
  9
$ENDCAPS
280
     0
  9
$JOINSTYLE
280
     0
  9
$LWDISPLAY
290
     0
  9
$INSUNITS
 70
     0
  9
$HYPERLINKBASE
  1

  9
$STYLESHEET
  1

  9
$XEDIT
290
     1
  9
$CEPSNTYPE
380
     0
  9
$PSTYLEMODE
290
     1
  9
$FINGERPRINTGUID
  2
{0D427B48-363E-47F4-A814-FAC2CC5573AA}
  9
$VERSIONGUID
  2
{5F8F3998-E2F7-4378-A7C0-5E89FEB0C9F0}
  9
$EXTNAMES
290
     1
  9
$PSVPSCALE
 40
0.0
  9
$OLESTARTUP
290
     0
  0
ENDSEC
  0
SECTION
  2
CLASSES
  0
CLASS
  1
ACDBDICTIONARYWDFLT
  2
AcDbDictionaryWithDefault
  3
ObjectDBX Classes
 90
        0
280
     0
281
     0
  0
CLASS
  1
MATERIAL
  2
AcDbMaterial
  3
ObjectDBX Classes
 90
     1153
280
     0
281
     0
  0
CLASS
  1
VISUALSTYLE
  2
AcDbVisualStyle
  3
ObjectDBX Classes
 90
     4095
280
     0
281
     0
  0
CLASS
  1
SCALE
  2
AcDbScale
  3
ObjectDBX Classes
 90
     1153
280
     0
281
     0
  0
CLASS
  1
TABLESTYLE
  2
AcDbTableStyle
  3
ObjectDBX Classes
 90
     4095
280
     0
281
     0
  0
CLASS
  1
MLEADERSTYLE
  2
AcDbMLeaderStyle
  3
ACDB_MLEADERSTYLE_CLASS
 90
     4095
280
     0
281
     0
  0
CLASS
  1
ACDBSECTIONVIEWSTYLE
  2
AcDbSectionViewStyle
  3
ObjectDBX Classes
 90
     1025
280
     0
281
     0
  0
CLASS
  1
ACDBDETAILVIEWSTYLE
  2
AcDbDetailViewStyle
  3
ObjectDBX Classes
 90
     1025
280
     0
281
     0
  0
CLASS
  1
DICTIONARYVAR
  2
AcDbDictionaryVar
  3
ObjectDBX Classes
 90
        0
280
     0
281
     0
  0
CLASS
  1
CELLSTYLEMAP
  2
AcDbCellStyleMap
  3
ObjectDBX Classes
 90
     1152
280
     0
281
     0
  0
CLASS
  1
ACDBPLACEHOLDER
  2
AcDbPlaceHolder
  3
ObjectDBX Classes
 90
        0
280
     0
281
     0
  0
CLASS
  1
LAYOUT
  2
AcDbLayout
  3
ObjectDBX Classes
 90
        0
280
     0
281
     0
  0
ENDSEC
  0
SECTION
  2
TABLES
  0
TABLE
  2
VPORT
  5
804A
330
0
100
AcDbSymbolTable
 70
     1
  0
VPORT
  5
80B6
330
804A
100
AcDbSymbolTableRecord
100
AcDbViewportTableRecord
  2
*ACTIVE
 70
     0
 10
0.0
 20
0.0
 11
1.0
 21
1.0
 12
2100.000009778887
 22
2950.000013737006
 13
0.0
 23
0.0
 14
10.0
 24
10.0
 15
10.0
 25
10.0
 16
0.0
 26
0.0
 36
1.0
 17
0.0
 27
0.0
 37
0.0
 40
5938.142562752639
 41
2.050213675213675
 42
50.0
 43
0.0
 44
0.0
 50
0.0
 51
0.0
 71
     0
 72
   100
 73
     1
 74
     0
 75
     0
 76
     0
 77
     0
 78
     0
281
     0
 65
     1
110
0.0
120
0.0
130
0.0
111
1.0
121
0.0
131
0.0
112
0.0
122
1.0
132
0.0
 79
     0
146
0.0
1001
ACAD_NAV_VCDISPLAY
1070
     3
  0
ENDTAB
  0
TABLE
  2
LTYPE
  5
8047
330
0
100
AcDbSymbolTable
 70
     4
  0
LTYPE
  5
809C
330
8047
100
AcDbSymbolTableRecord
100
AcDbLinetypeTableRecord
  2
ByBlock
 70
     0
  3

 72
    65
 73
     0
 40
0.0
  0
LTYPE
  5
809D
330
8047
100
AcDbSymbolTableRecord
100
AcDbLinetypeTableRecord
  2
ByLayer
 70
     0
  3

 72
    65
 73
     0
 40
0.0
  0
LTYPE
  5
809E
330
8047
100
AcDbSymbolTableRecord
100
AcDbLinetypeTableRecord
  2
CONTINUOUS
 70
     0
  3
Solid line
 72
    65
 73
     0
 40
0.0
  0
LTYPE
  5
80B7
330
8047
100
AcDbSymbolTableRecord
100
AcDbLinetypeTableRecord
  2
CENTER
 70
     0
  3
____ _ ____ _ ____ _ ____ _ ____ _ ____ _ ____ 
 72
    65
 73
     4
 40
2.0
 49
1.25
 74
     0
 49
-0.25
 74
     0
 49
0.25
 74
     0
 49
-0.25
 74
     0
  0
ENDTAB
  0
TABLE
  2
LAYER
  5
8044
330
0
100
AcDbSymbolTable
 70
     6
  0
LAYER
  5
8096
102
{ACAD_XDICTIONARY
360
83BA
102
}
330
8044
100
AcDbSymbolTableRecord
100
AcDbLayerTableRecord
  2
0
 70
     0
 62
     7
  6
CONTINUOUS
370
    -3
390
8051
  0
LAYER
  5
80B5
102
{ACAD_XDICTIONARY
360
83BC
102
}
330
8044
100
AcDbSymbolTableRecord
100
AcDbLayerTableRecord
  2
3
 70
     0
 62
     2
  6
CONTINUOUS
370
    -3
390
8051
  0
LAYER
  5
80B8
102
{ACAD_XDICTIONARY
360
83BE
102
}
330
8044
100
AcDbSymbolTableRecord
100
AcDbLayerTableRecord
  2
2
 70
     0
 62
     3
  6
CENTER
370
    -3
390
8051
  0
LAYER
  5
80B9
102
{ACAD_XDICTIONARY
360
83C0
102
}
330
8044
100
AcDbSymbolTableRecord
100
AcDbLayerTableRecord
  2
1
 70
     0
 62
     4
  6
CONTINUOUS
370
    -3
390
8051
  0
LAYER
  5
80BA
102
{ACAD_XDICTIONARY
360
83C2
102
}
330
8044
100
AcDbSymbolTableRecord
100
AcDbLayerTableRecord
  2
4
 70
     0
 62
     7
  6
CONTINUOUS
370
    -3
390
8051
  0
LAYER
  5
80BB
330
8044
100
AcDbSymbolTableRecord
100
AcDbLayerTableRecord
  2
DEFPOINTS
 70
     0
 62
     7
  6
CONTINUOUS
290
     0
370
    -3
390
8051
  0
ENDTAB
  0
TABLE
  2
STYLE
  5
8045
330
0
100
AcDbSymbolTable
 70
     2
  0
STYLE
  5
8097
330
8045
100
AcDbSymbolTableRecord
100
AcDbTextStyleTableRecord
  2
STANDARD
 70
     0
 40
0.0
 41
1.0
 50
0.0
 71
     0
 42
180.0
  3
simplex.shx
  4
extfont.shx
  0
STYLE
  5
809B
330
8045
100
AcDbSymbolTableRecord
100
AcDbTextStyleTableRecord
  2
Annotative
 70
     0
 40
0.0
 41
1.0
 50
0.0
 71
     0
 42
0.2
  3
txt
  4

1001
AcadAnnotative
1000
AnnotativeData
1002
{
1070
     1
1070
     1
1002
}
  0
ENDTAB
  0
TABLE
  2
VIEW
  5
8048
330
0
100
AcDbSymbolTable
 70
     0
  0
ENDTAB
  0
TABLE
  2
UCS
  5
8049
330
0
100
AcDbSymbolTable
 70
     0
  0
ENDTAB
  0
TABLE
  2
APPID
  5
804B
330
0
100
AcDbSymbolTable
 70
     8
  0
APPID
  5
8098
330
804B
100
AcDbSymbolTableRecord
100
AcDbRegAppTableRecord
  2
ACAD
 70
     0
  0
APPID
  5
809F
330
804B
100
AcDbSymbolTableRecord
100
AcDbRegAppTableRecord
  2
AcadAnnotative
 70
     0
  0
APPID
  5
80FB
330
804B
100
AcDbSymbolTableRecord
100
AcDbRegAppTableRecord
  2
ACAD_DSTYLE_DIMJAG
 70
     0
  0
APPID
  5
80FC
330
804B
100
AcDbSymbolTableRecord
100
AcDbRegAppTableRecord
  2
ACAD_DSTYLE_DIMTALN
 70
     0
  0
APPID
  5
8129
330
804B
100
AcDbSymbolTableRecord
100
AcDbRegAppTableRecord
  2
AcadAnnoMonitorAlertIconDisabled
 70
     0
  0
APPID
  5
812A
330
804B
100
AcDbSymbolTableRecord
100
AcDbRegAppTableRecord
  2
ACAD_EXEMPT_FROM_CAD_STANDARDS
 70
     0
  0
APPID
  5
83CE
330
804B
100
AcDbSymbolTableRecord
100
AcDbRegAppTableRecord
  2
ACAD_NAV_VCDISPLAY
 70
     0
  0
APPID
  5
8407
330
804B
100
AcDbSymbolTableRecord
100
AcDbRegAppTableRecord
  2
ACAD_MLEADERVER
 70
     0
  0
ENDTAB
  0
TABLE
  2
DIMSTYLE
  5
804C
330
0
100
AcDbSymbolTable
 70
     5
100
AcDbDimStyleTable
 71
     1
340
80BC
  0
DIMSTYLE
105
8099
102
{ACAD_REACTORS
330
7C1C
330
7C1D
330
7C44
330
7C47
330
7C77
330
7C78
330
7C79
330
7C8E
330
7C94
102
}
330
804C
100
AcDbSymbolTableRecord
100
AcDbDimStyleTableRecord
  2
Standard
 70
     0
340
8097
  0
DIMSTYLE
105
809A
330
804C
100
AcDbSymbolTableRecord
100
AcDbDimStyleTableRecord
  2
Annotative
 70
     0
340
8097
1001
AcadAnnotative
1000
AnnotativeData
1002
{
1070
     1
1070
     1
1002
}
  0
DIMSTYLE
105
80BC
102
{ACAD_REACTORS
330
80FD
330
810A
330
816B
330
8178
330
8194
330
820C
330
8219
330
8226
330
8233
330
8245
330
82BF
330
83A0
330
83AD
102
}
330
804C
100
AcDbSymbolTableRecord
100
AcDbDimStyleTableRecord
  2
IGA
 70
     0
 40
2.0
 41
2.0
 42
0.5
 43
10.0
 44
1.0
 47
1.0
 48
1.0
 73
     0
 74
     0
 77
     1
 78
     8
140
3.0
141
0.0
143
0.03937
146
10.0
147
1.0
173
     1
271
     3
272
     3
279
     2
284
     8
285
     8
286
     8
340
8097
  0
DIMSTYLE
105
80BD
330
804C
100
AcDbSymbolTableRecord
100
AcDbDimStyleTableRecord
  2
MATSU
 70
     0
 41
2.0
 42
1.0
 43
10.0
 44
1.0
 73
     0
 74
     0
 77
     1
 78
     8
140
3.0
141
0.0
143
0.03937
147
0.5
172
     1
173
     1
176
   256
177
   256
178
   256
271
     3
272
     3
279
     2
284
     8
285
     8
286
     8
340
8097
  0
ENDTAB
  0
TABLE
  2
BLOCK_RECORD
  5
8043
330
0
100
AcDbSymbolTable
 70
    50
  0
BLOCK_RECORD
  5
80B1
330
8043
100
AcDbSymbolTableRecord
100
AcDbBlockTableRecord
  2
*Model_Space
340
80B4
  0
BLOCK_RECORD
  5
80AD
330
8043
100
AcDbSymbolTableRecord
100
AcDbBlockTableRecord
  2
*Paper_Space
340
80B0
  0
BLOCK_RECORD
  5
80C1
330
8043
100
AcDbSymbolTableRecord
100
AcDbBlockTableRecord
  2
$MODEL_SPACE
340
0
  0
BLOCK_RECORD
  5
80C3
330
8043
100
AcDbSymbolTableRecord
100
AcDbBlockTableRecord
  2
$PAPER_SPACE
340
0
  0
BLOCK_RECORD
  5
80C5
330
8043
100
AcDbSymbolTableRecord
100
AcDbBlockTableRecord
  2
_OPEN
340
0
102
{BLKREFS
331
815C
331
815D
331
8165
331
8166
331
8172
331
8173
331
8188
331
8189
331
81AD
331
81AE
331
7DCC
331
7DCD
331
7DD7
331
7DD8
331
7DE2
331
7DE3
331
7F2E
331
7F2F
331
7F6A
331
7F6B
331
7FA2
331
7FA3
331
7E19
331
7E1A
331
7E24
331
7E25
331
7E2F
331
7E30
331
7E3A
331
7E3B
331
7F23
331
7F24
331
801D
331
801E
331
8025
331
8026
331
802D
331
802E
331
7E7A
331
7E7B
331
8035
331
8036
331
7E9F
331
7F0E
331
7F0F
331
7F43
331
7F44
331
7F50
331
7F51
331
7F5D
331
7F5E
331
8213
331
8214
331
8220
331
8221
331
8284
331
8285
331
82D8
331
82D9
331
8346
331
839C
331
83A7
331
83A8
331
83B4
331
83B5
102
}
  0
BLOCK_RECORD
  5
80C7
330
8043
100
AcDbSymbolTableRecord
100
AcDbBlockTableRecord
  2
YA_N
340
0
102
{BLKREFS
331
7BED
331
7C03
102
}
  0
BLOCK_RECORD
  5
80C9
330
8043
100
AcDbSymbolTableRecord
100
AcDbBlockTableRecord
  2
_DOT
340
0
102
{BLKREFS
331
7E9E
102
}
  0
BLOCK_RECORD
  5
80CB
330
8043
100
AcDbSymbolTableRecord
100
AcDbBlockTableRecord
  2
*D5
340
0
  0
BLOCK_RECORD
  5
80CD
330
8043
100
AcDbSymbolTableRecord
100
AcDbBlockTableRecord
  2
*D6
340
0
  0
BLOCK_RECORD
  5
80CF
330
8043
100
AcDbSymbolTableRecord
100
AcDbBlockTableRecord
  2
*D7
340
0
  0
BLOCK_RECORD
  5
80D1
330
8043
100
AcDbSymbolTableRecord
100
AcDbBlockTableRecord
  2
*D8
340
0
  0
BLOCK_RECORD
  5
80D3
330
8043
100
AcDbSymbolTableRecord
100
AcDbBlockTableRecord
  2
*D9
340
0
  0
BLOCK_RECORD
  5
80D5
330
8043
100
AcDbSymbolTableRecord
100
AcDbBlockTableRecord
  2
*D10
340
0
  0
BLOCK_RECORD
  5
80D7
330
8043
100
AcDbSymbolTableRecord
100
AcDbBlockTableRecord
  2
*D11
340
0
  0
BLOCK_RECORD
  5
80D9
330
8043
100
AcDbSymbolTableRecord
100
AcDbBlockTableRecord
  2
*D12
340
0
  0
BLOCK_RECORD
  5
80DB
330
8043
100
AcDbSymbolTableRecord
100
AcDbBlockTableRecord
  2
*D13
340
0
  0
BLOCK_RECORD
  5
80DD
330
8043
100
AcDbSymbolTableRecord
100
AcDbBlockTableRecord
  2
*D14
340
0
  0
BLOCK_RECORD
  5
80DF
330
8043
100
AcDbSymbolTableRecord
100
AcDbBlockTableRecord
  2
*D15
340
0
  0
BLOCK_RECORD
  5
80E1
330
8043
100
AcDbSymbolTableRecord
100
AcDbBlockTableRecord
  2
*D16
340
0
  0
BLOCK_RECORD
  5
80E3
330
8043
100
AcDbSymbolTableRecord
100
AcDbBlockTableRecord
  2
*D17
340
0
  0
BLOCK_RECORD
  5
80E5
330
8043
100
AcDbSymbolTableRecord
100
AcDbBlockTableRecord
  2
*D18
340
0
  0
BLOCK_RECORD
  5
80E7
330
8043
100
AcDbSymbolTableRecord
100
AcDbBlockTableRecord
  2
*D19
340
0
  0
BLOCK_RECORD
  5
80E9
330
8043
100
AcDbSymbolTableRecord
100
AcDbBlockTableRecord
  2
*D20
340
0
  0
BLOCK_RECORD
  5
80EB
330
8043
100
AcDbSymbolTableRecord
100
AcDbBlockTableRecord
  2
*D21
340
0
  0
BLOCK_RECORD
  5
80ED
330
8043
100
AcDbSymbolTableRecord
100
AcDbBlockTableRecord
  2
*D22
340
0
  0
BLOCK_RECORD
  5
80EF
330
8043
100
AcDbSymbolTableRecord
100
AcDbBlockTableRecord
  2
*D23
340
0
  0
BLOCK_RECORD
  5
80F1
330
8043
100
AcDbSymbolTableRecord
100
AcDbBlockTableRecord
  2
*D24
340
0
  0
BLOCK_RECORD
  5
80F3
330
8043
100
AcDbSymbolTableRecord
100
AcDbBlockTableRecord
  2
_NONE
340
0
  0
BLOCK_RECORD
  5
80F5
330
8043
100
AcDbSymbolTableRecord
100
AcDbBlockTableRecord
  2
*D26
340
0
  0
BLOCK_RECORD
  5
80F7
330
8043
100
AcDbSymbolTableRecord
100
AcDbBlockTableRecord
  2
*D27
340
0
  0
BLOCK_RECORD
  5
80FE
330
8043
100
AcDbSymbolTableRecord
100
AcDbBlockTableRecord
  2
*D28
340
0
  0
BLOCK_RECORD
  5
810B
330
8043
100
AcDbSymbolTableRecord
100
AcDbBlockTableRecord
  2
*D29
340
0
  0
BLOCK_RECORD
  5
816C
330
8043
100
AcDbSymbolTableRecord
100
AcDbBlockTableRecord
  2
*D30
340
0
  0
BLOCK_RECORD
  5
8179
330
8043
100
AcDbSymbolTableRecord
100
AcDbBlockTableRecord
  2
*D31
340
0
  0
BLOCK_RECORD
  5
8195
330
8043
100
AcDbSymbolTableRecord
100
AcDbBlockTableRecord
  2
*D33
340
0
  0
BLOCK_RECORD
  5
81B3
330
8043
100
AcDbSymbolTableRecord
100
AcDbBlockTableRecord
  2
*D34
340
0
  0
BLOCK_RECORD
  5
81C0
330
8043
100
AcDbSymbolTableRecord
100
AcDbBlockTableRecord
  2
*D35
340
0
  0
BLOCK_RECORD
  5
81CD
330
8043
100
AcDbSymbolTableRecord
100
AcDbBlockTableRecord
  2
*D36
340
0
  0
BLOCK_RECORD
  5
81D8
330
8043
100
AcDbSymbolTableRecord
100
AcDbBlockTableRecord
  2
*D37
340
0
  0
BLOCK_RECORD
  5
81E5
330
8043
100
AcDbSymbolTableRecord
100
AcDbBlockTableRecord
  2
*D38
340
0
  0
BLOCK_RECORD
  5
81F2
330
8043
100
AcDbSymbolTableRecord
100
AcDbBlockTableRecord
  2
*D39
340
0
  0
BLOCK_RECORD
  5
81FF
330
8043
100
AcDbSymbolTableRecord
100
AcDbBlockTableRecord
  2
*D40
340
0
  0
BLOCK_RECORD
  5
820D
330
8043
100
AcDbSymbolTableRecord
100
AcDbBlockTableRecord
  2
*D41
340
0
  0
BLOCK_RECORD
  5
821A
330
8043
100
AcDbSymbolTableRecord
100
AcDbBlockTableRecord
  2
*D42
340
0
  0
BLOCK_RECORD
  5
8227
330
8043
100
AcDbSymbolTableRecord
100
AcDbBlockTableRecord
  2
*D43
340
0
  0
BLOCK_RECORD
  5
8234
330
8043
100
AcDbSymbolTableRecord
100
AcDbBlockTableRecord
  2
*D44
340
0
  0
BLOCK_RECORD
  5
8246
330
8043
100
AcDbSymbolTableRecord
100
AcDbBlockTableRecord
  2
*D45
340
0
  0
BLOCK_RECORD
  5
82C0
330
8043
100
AcDbSymbolTableRecord
100
AcDbBlockTableRecord
  2
*D46
340
0
  0
BLOCK_RECORD
  5
833C
330
8043
100
AcDbSymbolTableRecord
100
AcDbBlockTableRecord
  2
_DotSmall
340
0
102
{BLKREFS
331
8347
331
839B
102
}
  0
BLOCK_RECORD
  5
83A1
330
8043
100
AcDbSymbolTableRecord
100
AcDbBlockTableRecord
  2
*D48
340
0
  0
BLOCK_RECORD
  5
83AE
330
8043
100
AcDbSymbolTableRecord
100
AcDbBlockTableRecord
  2
*D49
340
0
  0
ENDTAB
  0
ENDSEC
  0
SECTION
  2
BLOCKS
  0
BLOCK
  5
80B2
330
80B1
100
AcDbEntity
  8
0
100
AcDbBlockBegin
  2
*Model_Space
 70
     0
 10
0.0
 20
0.0
 30
0.0
  3
*Model_Space
  1

  0
ENDBLK
  5
80B3
330
80B1
100
AcDbEntity
  8
0
100
AcDbBlockEnd
  0
BLOCK
  5
80AE
330
80AD
100
AcDbEntity
 67
     1
  8
0
100
AcDbBlockBegin
  2
*Paper_Space
 70
     0
 10
0.0
 20
0.0
 30
0.0
  3
*Paper_Space
  1

  0
ENDBLK
  5
80AF
330
80AD
100
AcDbEntity
 67
     1
  8
0
100
AcDbBlockEnd
  0
BLOCK
  5
80C2
330
80C1
100
AcDbEntity
  8
0
100
AcDbBlockBegin
  2
$MODEL_SPACE
 70
     0
 10
0.0
 20
0.0
 30
0.0
  3
$MODEL_SPACE
  1

  0
ENDBLK
  5
1B
330
80C1
100
AcDbEntity
  8
0
100
AcDbBlockEnd
  0
BLOCK
  5
80C4
330
80C3
100
AcDbEntity
  8
0
100
AcDbBlockBegin
  2
$PAPER_SPACE
 70
     0
 10
0.0
 20
0.0
 30
0.0
  3
$PAPER_SPACE
  1

  0
ENDBLK
  5
18
330
80C3
100
AcDbEntity
  8
0
100
AcDbBlockEnd
  0
BLOCK
  5
80C6
330
80C5
100
AcDbEntity
  8
0
100
AcDbBlockBegin
  2
_OPEN
 70
     0
 10
0.0
 20
0.0
 30
0.0
  3
_OPEN
  1

  0
LINE
  5
79FD
330
80C5
100
AcDbEntity
  8
0
  6
ByBlock
 62
     0
100
AcDbLine
 10
-1.0
 20
0.1666666666666666
 30
0.0
 11
0.0
 21
0.0
 31
0.0
  0
LINE
  5
79FE
330
80C5
100
AcDbEntity
  8
0
  6
ByBlock
 62
     0
100
AcDbLine
 10
0.0
 20
0.0
 30
0.0
 11
-1.0
 21
-0.1666666666666666
 31
0.0
  0
LINE
  5
79FF
330
80C5
100
AcDbEntity
  8
0
  6
ByBlock
 62
     0
100
AcDbLine
 10
0.0
 20
0.0
 30
0.0
 11
-1.0
 21
0.0
 31
0.0
  0
ENDBLK
  5
7A01
330
80C5
100
AcDbEntity
  8
0
100
AcDbBlockEnd
  0
BLOCK
  5
80C8
330
80C7
100
AcDbEntity
  8
0
100
AcDbBlockBegin
  2
YA_N
 70
     0
 10
0.0
 20
0.0
 30
0.0
  3
YA_N
  1

  0
ENDBLK
  5
7A04
330
80C7
100
AcDbEntity
  8
0
100
AcDbBlockEnd
  0
BLOCK
  5
80CA
330
80C9
100
AcDbEntity
  8
0
100
AcDbBlockBegin
  2
_DOT
 70
     0
 10
0.0
 20
0.0
 30
0.0
  3
_DOT
  1

  0
LWPOLYLINE
  5
7EE6
330
80C9
100
AcDbEntity
  8
0
  6
ByBlock
 62
     0
100
AcDbPolyline
 90
        2
 70
     1
 43
0.25
 10
-0.125
 20
0.0
 42
1.0
 10
0.125
 20
0.0
 42
1.0
  0
LINE
  5
7EEA
330
80C9
100
AcDbEntity
  8
0
  6
ByBlock
 62
     0
100
AcDbLine
 10
-0.25
 20
0.0
 30
0.0
 11
-1.0
 21
0.0
 31
0.0
  0
ENDBLK
  5
7B30
330
80C9
100
AcDbEntity
  8
0
100
AcDbBlockEnd
  0
BLOCK
  5
80CC
330
80CB
100
AcDbEntity
  8
0
100
AcDbBlockBegin
  2
*D5
 70
     1
 10
0.0
 20
0.0
 30
0.0
  3
*D5
  1

  0
LINE
  5
7DC9
330
80CB
100
AcDbEntity
  8
0
  6
ByBlock
100
AcDbLine
 10
-98.34700360576155
 20
1048.09762645012
 30
0.0
 11
-98.34700360576155
 21
1198.05544836713
 31
0.0
  0
LINE
  5
7DCA
330
80CB
100
AcDbEntity
  8
0
  6
ByBlock
100
AcDbLine
 10
551.6529963942383
 20
1048.09762645012
 30
0.0
 11
551.6529963942383
 21
1198.05544836713
 31
0.0
  0
LINE
  5
7DCB
330
80CB
100
AcDbEntity
  8
0
  6
ByBlock
100
AcDbLine
 10
-58.34700360576153
 20
1178.05544836713
 30
0.0
 11
511.6529963942383
 21
1178.05544836713
 31
0.0
  0
INSERT
  5
7DCC
330
80CB
100
AcDbEntity
  8
0
  6
ByBlock
100
AcDbBlockReference
  2
_OPEN
 10
-98.34700360576155
 20
1178.05544836713
 30
0.0
 41
40.0
 42
40.0
 43
40.0
 50
180.0
  0
INSERT
  5
7DCD
330
80CB
100
AcDbEntity
  8
0
  6
ByBlock
100
AcDbBlockReference
  2
_OPEN
 10
551.6529963942383
 20
1178.05544836713
 30
0.0
 41
40.0
 42
40.0
 43
40.0
  0
TEXT
  5
7DCE
330
80CB
100
AcDbEntity
  8
3
100
AcDbText
 10
149.5101392513813
 20
1188.05544836713
 30
0.0
 40
60.0
  1
650
100
AcDbText
  0
POINT
  5
7DCF
330
80CB
100
AcDbEntity
  8
DEFPOINTS
  6
ByBlock
 62
     0
100
AcDbPoint
 10
-98.34700360576155
 20
1028.09762645012
 30
0.0
  0
POINT
  5
7DD0
330
80CB
100
AcDbEntity
  8
DEFPOINTS
  6
ByBlock
 62
     0
100
AcDbPoint
 10
551.6529963942383
 20
1028.09762645012
 30
0.0
  0
POINT
  5
7DD1
330
80CB
100
AcDbEntity
  8
DEFPOINTS
  6
ByBlock
 62
     0
100
AcDbPoint
 10
551.6529963942383
 20
1178.05544836713
 30
0.0
  0
ENDBLK
  5
7DD2
330
80CB
100
AcDbEntity
  8
0
100
AcDbBlockEnd
  0
BLOCK
  5
80CE
330
80CD
100
AcDbEntity
  8
0
100
AcDbBlockBegin
  2
*D6
 70
     1
 10
0.0
 20
0.0
 30
0.0
  3
*D6
  1

  0
LINE
  5
7DD4
330
80CD
100
AcDbEntity
  8
0
  6
ByBlock
100
AcDbLine
 10
-98.34700360576155
 20
1048.09762645012
 30
0.0
 11
-98.34700360576155
 21
1347.599292570813
 31
0.0
  0
LINE
  5
7DD5
330
80CD
100
AcDbEntity
  8
0
  6
ByBlock
100
AcDbLine
 10
579.6529963942385
 20
1094.990599553116
 30
0.0
 11
579.6529963942385
 21
1347.599292570813
 31
0.0
  0
LINE
  5
7DD6
330
80CD
100
AcDbEntity
  8
0
  6
ByBlock
100
AcDbLine
 10
-58.34700360576153
 20
1327.599292570813
 30
0.0
 11
539.6529963942383
 21
1327.599292570813
 31
0.0
  0
INSERT
  5
7DD7
330
80CD
100
AcDbEntity
  8
0
  6
ByBlock
100
AcDbBlockReference
  2
_OPEN
 10
-98.34700360576155
 20
1327.599292570813
 30
0.0
 41
40.0
 42
40.0
 43
40.0
 50
180.0
  0
INSERT
  5
7DD8
330
80CD
100
AcDbEntity
  8
0
  6
ByBlock
100
AcDbBlockReference
  2
_OPEN
 10
579.6529963942385
 20
1327.599292570813
 30
0.0
 41
40.0
 42
40.0
 43
40.0
  0
TEXT
  5
7DD9
330
80CD
100
AcDbEntity
  8
3
100
AcDbText
 10
163.5101392513813
 20
1337.599292570813
 30
0.0
 40
60.0
  1
678
100
AcDbText
  0
POINT
  5
7DDA
330
80CD
100
AcDbEntity
  8
DEFPOINTS
  6
ByBlock
 62
     0
100
AcDbPoint
 10
-98.34700360576155
 20
1028.09762645012
 30
0.0
  0
POINT
  5
7DDB
330
80CD
100
AcDbEntity
  8
DEFPOINTS
  6
ByBlock
 62
     0
100
AcDbPoint
 10
579.6529963942385
 20
1074.990599553116
 30
0.0
  0
POINT
  5
7DDC
330
80CD
100
AcDbEntity
  8
DEFPOINTS
  6
ByBlock
 62
     0
100
AcDbPoint
 10
579.6529963942385
 20
1327.599292570813
 30
0.0
  0
ENDBLK
  5
7DDD
330
80CD
100
AcDbEntity
  8
0
100
AcDbBlockEnd
  0
BLOCK
  5
80D0
330
80CF
100
AcDbEntity
  8
0
100
AcDbBlockBegin
  2
*D7
 70
     1
 10
0.0
 20
0.0
 30
0.0
  3
*D7
  1

  0
LINE
  5
7DDF
330
80CF
100
AcDbEntity
  8
0
  6
ByBlock
100
AcDbLine
 10
2992.796193483283
 20
903.0976264501203
 30
0.0
 11
3240.833227053947
 21
903.0976264501203
 31
0.0
  0
LINE
  5
7DE0
330
80CF
100
AcDbEntity
  8
0
  6
ByBlock
100
AcDbLine
 10
2992.796193483283
 20
233.0976264501205
 30
0.0
 11
3240.833227053947
 21
233.0976264501205
 31
0.0
  0
LINE
  5
7DE1
330
80CF
100
AcDbEntity
  8
0
  6
ByBlock
100
AcDbLine
 10
3220.833227053946
 20
863.0976264501205
 30
0.0
 11
3220.833227053946
 21
273.0976264501205
 31
0.0
  0
INSERT
  5
7DE2
330
80CF
100
AcDbEntity
  8
0
  6
ByBlock
100
AcDbBlockReference
  2
_OPEN
 10
3220.833227053946
 20
903.0976264501203
 30
0.0
 41
40.0
 42
40.0
 43
40.0
 50
90.0
  0
INSERT
  5
7DE3
330
80CF
100
AcDbEntity
  8
0
  6
ByBlock
100
AcDbBlockReference
  2
_OPEN
 10
3220.833227053946
 20
233.0976264501205
 30
0.0
 41
40.0
 42
40.0
 43
40.0
 50
270.0
  0
TEXT
  5
7DE4
330
80CF
100
AcDbEntity
  8
3
100
AcDbText
 10
3210.833227053947
 20
460.9547693072634
 30
0.0
 40
60.0
  1
\U+03C6670
 50
90.0
100
AcDbText
  0
POINT
  5
7DE5
330
80CF
100
AcDbEntity
  8
DEFPOINTS
  6
ByBlock
 62
     0
100
AcDbPoint
 10
2972.796193483283
 20
903.0976264501203
 30
0.0
  0
POINT
  5
7DE6
330
80CF
100
AcDbEntity
  8
DEFPOINTS
  6
ByBlock
 62
     0
100
AcDbPoint
 10
2972.796193483283
 20
233.0976264501205
 30
0.0
  0
POINT
  5
7DE7
330
80CF
100
AcDbEntity
  8
DEFPOINTS
  6
ByBlock
 62
     0
100
AcDbPoint
 10
3220.833227053946
 20
233.0976264501205
 30
0.0
  0
ENDBLK
  5
7DE8
330
80CF
100
AcDbEntity
  8
0
100
AcDbBlockEnd
  0
BLOCK
  5
80D2
330
80D1
100
AcDbEntity
  8
0
100
AcDbBlockBegin
  2
*D8
 70
     1
 10
0.0
 20
0.0
 30
0.0
  3
*D8
  1

  0
LINE
  5
7F2B
330
80D1
100
AcDbEntity
  8
0
  6
ByBlock
100
AcDbLine
 10
2847.329593074301
 20
2642.899274892485
 30
0.0
 11
2847.329593074301
 21
2774.56938158193
 31
0.0
  0
LINE
  5
7F2C
330
80D1
100
AcDbEntity
  8
0
  6
ByBlock
100
AcDbLine
 10
3647.3295930743
 20
2642.899274892485
 30
0.0
 11
3647.3295930743
 21
2774.56938158193
 31
0.0
  0
LINE
  5
7F2D
330
80D1
100
AcDbEntity
  8
0
  6
ByBlock
100
AcDbLine
 10
2887.329593074301
 20
2754.56938158193
 30
0.0
 11
3607.3295930743
 21
2754.56938158193
 31
0.0
  0
INSERT
  5
7F2E
330
80D1
100
AcDbEntity
  8
0
  6
ByBlock
100
AcDbBlockReference
  2
_OPEN
 10
2847.329593074301
 20
2754.56938158193
 30
0.0
 41
40.0
 42
40.0
 43
40.0
 50
180.0
  0
INSERT
  5
7F2F
330
80D1
100
AcDbEntity
  8
0
  6
ByBlock
100
AcDbBlockReference
  2
_OPEN
 10
3647.3295930743
 20
2754.56938158193
 30
0.0
 41
40.0
 42
40.0
 43
40.0
  0
TEXT
  5
7F30
330
80D1
100
AcDbEntity
  8
3
100
AcDbText
 10
3170.186735931443
 20
2764.56938158193
 30
0.0
 40
60.0
  1
800
100
AcDbText
  0
POINT
  5
7F31
330
80D1
100
AcDbEntity
  8
DEFPOINTS
  6
ByBlock
 62
     0
100
AcDbPoint
 10
2847.329593074301
 20
2622.899274892485
 30
0.0
  0
POINT
  5
7F32
330
80D1
100
AcDbEntity
  8
DEFPOINTS
  6
ByBlock
 62
     0
100
AcDbPoint
 10
3647.3295930743
 20
2622.899274892485
 30
0.0
  0
POINT
  5
7F33
330
80D1
100
AcDbEntity
  8
DEFPOINTS
  6
ByBlock
 62
     0
100
AcDbPoint
 10
3647.3295930743
 20
2754.56938158193
 30
0.0
  0
ENDBLK
  5
7F34
330
80D1
100
AcDbEntity
  8
0
100
AcDbBlockEnd
  0
BLOCK
  5
80D4
330
80D3
100
AcDbEntity
  8
0
100
AcDbBlockBegin
  2
*D9
 70
     1
 10
0.0
 20
0.0
 30
0.0
  3
*D9
  1

  0
LINE
  5
7E16
330
80D3
100
AcDbEntity
  8
0
  6
ByBlock
100
AcDbLine
 10
-470.3470036057614
 20
2138.414968530632
 30
0.0
 11
-470.3470036057614
 21
1863.01337041143
 31
0.0
  0
LINE
  5
7E17
330
80D3
100
AcDbEntity
  8
0
  6
ByBlock
100
AcDbLine
 10
979.6529963942385
 20
2138.414968530633
 30
0.0
 11
979.6529963942385
 21
1863.01337041143
 31
0.0
  0
LINE
  5
7E18
330
80D3
100
AcDbEntity
  8
0
  6
ByBlock
100
AcDbLine
 10
-430.3470036057614
 20
1883.01337041143
 30
0.0
 11
939.6529963942384
 21
1883.01337041143
 31
0.0
  0
INSERT
  5
7E19
330
80D3
100
AcDbEntity
  8
0
  6
ByBlock
100
AcDbBlockReference
  2
_OPEN
 10
-470.3470036057614
 20
1883.01337041143
 30
0.0
 41
40.0
 42
40.0
 43
40.0
 50
180.0
  0
INSERT
  5
7E1A
330
80D3
100
AcDbEntity
  8
0
  6
ByBlock
100
AcDbBlockReference
  2
_OPEN
 10
979.6529963942385
 20
1883.01337041143
 30
0.0
 41
40.0
 42
40.0
 43
40.0
  0
TEXT
  5
7E1B
330
80D3
100
AcDbEntity
  8
3
100
AcDbText
 10
154.6529963942385
 20
1893.01337041143
 30
0.0
 40
60.0
  1
1450
100
AcDbText
  0
POINT
  5
7E1C
330
80D3
100
AcDbEntity
  8
DEFPOINTS
  6
ByBlock
 62
     0
100
AcDbPoint
 10
-470.3470036057614
 20
2158.414968530632
 30
0.0
  0
POINT
  5
7E1D
330
80D3
100
AcDbEntity
  8
DEFPOINTS
  6
ByBlock
 62
     0
100
AcDbPoint
 10
979.6529963942385
 20
2158.414968530633
 30
0.0
  0
POINT
  5
7E1E
330
80D3
100
AcDbEntity
  8
DEFPOINTS
  6
ByBlock
 62
     0
100
AcDbPoint
 10
979.6529963942385
 20
1883.01337041143
 30
0.0
  0
ENDBLK
  5
7E1F
330
80D3
100
AcDbEntity
  8
0
100
AcDbBlockEnd
  0
BLOCK
  5
80D6
330
80D5
100
AcDbEntity
  8
0
100
AcDbBlockBegin
  2
*D10
 70
     1
 10
0.0
 20
0.0
 30
0.0
  3
*D10
  1

  0
LINE
  5
7E21
330
80D5
100
AcDbEntity
  8
0
  6
ByBlock
100
AcDbLine
 10
999.6529963942384
 20
2158.414968530633
 30
0.0
 11
1208.444967392846
 21
2158.414968530633
 31
0.0
  0
LINE
  5
7E22
330
80D5
100
AcDbEntity
  8
0
  6
ByBlock
100
AcDbLine
 10
999.6529963942387
 20
3164.414968530635
 30
0.0
 11
1208.444967392846
 21
3164.414968530635
 31
0.0
  0
LINE
  5
7E23
330
80D5
100
AcDbEntity
  8
0
  6
ByBlock
100
AcDbLine
 10
1188.444967392846
 20
2198.414968530633
 30
0.0
 11
1188.444967392846
 21
3124.414968530635
 31
0.0
  0
INSERT
  5
7E24
330
80D5
100
AcDbEntity
  8
0
  6
ByBlock
100
AcDbBlockReference
  2
_OPEN
 10
1188.444967392846
 20
2158.414968530633
 30
0.0
 41
40.0
 42
40.0
 43
40.0
 50
270.0
  0
INSERT
  5
7E25
330
80D5
100
AcDbEntity
  8
0
  6
ByBlock
100
AcDbBlockReference
  2
_OPEN
 10
1188.444967392846
 20
3164.414968530635
 30
0.0
 41
40.0
 42
40.0
 43
40.0
 50
90.0
  0
TEXT
  5
7E26
330
80D5
100
AcDbEntity
  8
3
100
AcDbText
 10
1178.444967392846
 20
2562.843539959205
 30
0.0
 40
60.0
  1
1006
 50
90.0
100
AcDbText
  0
POINT
  5
7E27
330
80D5
100
AcDbEntity
  8
DEFPOINTS
  6
ByBlock
 62
     0
100
AcDbPoint
 10
979.6529963942385
 20
2158.414968530633
 30
0.0
  0
POINT
  5
7E28
330
80D5
100
AcDbEntity
  8
DEFPOINTS
  6
ByBlock
 62
     0
100
AcDbPoint
 10
979.6529963942386
 20
3164.414968530635
 30
0.0
  0
POINT
  5
7E29
330
80D5
100
AcDbEntity
  8
DEFPOINTS
  6
ByBlock
 62
     0
100
AcDbPoint
 10
1188.444967392846
 20
3164.414968530635
 30
0.0
  0
ENDBLK
  5
7E2A
330
80D5
100
AcDbEntity
  8
0
100
AcDbBlockEnd
  0
BLOCK
  5
80D8
330
80D7
100
AcDbEntity
  8
0
100
AcDbBlockBegin
  2
*D11
 70
     1
 10
0.0
 20
0.0
 30
0.0
  3
*D11
  1

  0
LINE
  5
7E2C
330
80D7
100
AcDbEntity
  8
0
  6
ByBlock
100
AcDbLine
 10
179.6529963942384
 20
3184.414968530634
 30
0.0
 11
179.6529963942384
 21
3333.020259029039
 31
0.0
  0
LINE
  5
7E2D
330
80D7
100
AcDbEntity
  8
0
  6
ByBlock
100
AcDbLine
 10
979.6529963942386
 20
3184.414968530635
 30
0.0
 11
979.6529963942386
 21
3333.020259029039
 31
0.0
  0
LINE
  5
7E2E
330
80D7
100
AcDbEntity
  8
0
  6
ByBlock
100
AcDbLine
 10
219.6529963942384
 20
3313.020259029039
 30
0.0
 11
939.652996394239
 21
3313.020259029039
 31
0.0
  0
INSERT
  5
7E2F
330
80D7
100
AcDbEntity
  8
0
  6
ByBlock
100
AcDbBlockReference
  2
_OPEN
 10
179.6529963942384
 20
3313.020259029039
 30
0.0
 41
40.0
 42
40.0
 43
40.0
 50
180.0
  0
INSERT
  5
7E30
330
80D7
100
AcDbEntity
  8
0
  6
ByBlock
100
AcDbBlockReference
  2
_OPEN
 10
979.6529963942386
 20
3313.020259029039
 30
0.0
 41
40.0
 42
40.0
 43
40.0
  0
TEXT
  5
7E31
330
80D7
100
AcDbEntity
  8
3
100
AcDbText
 10
502.5101392513816
 20
3323.020259029039
 30
0.0
 40
60.0
  1
800
100
AcDbText
  0
POINT
  5
7E32
330
80D7
100
AcDbEntity
  8
DEFPOINTS
  6
ByBlock
 62
     0
100
AcDbPoint
 10
179.6529963942384
 20
3164.414968530634
 30
0.0
  0
POINT
  5
7E33
330
80D7
100
AcDbEntity
  8
DEFPOINTS
  6
ByBlock
 62
     0
100
AcDbPoint
 10
979.6529963942386
 20
3164.414968530635
 30
0.0
  0
POINT
  5
7E34
330
80D7
100
AcDbEntity
  8
DEFPOINTS
  6
ByBlock
 62
     0
100
AcDbPoint
 10
979.6529963942386
 20
3313.020259029039
 30
0.0
  0
ENDBLK
  5
7E35
330
80D7
100
AcDbEntity
  8
0
100
AcDbBlockEnd
  0
BLOCK
  5
80DA
330
80D9
100
AcDbEntity
  8
0
100
AcDbBlockBegin
  2
*D12
 70
     1
 10
0.0
 20
0.0
 30
0.0
  3
*D12
  1

  0
LINE
  5
7E37
330
80D9
100
AcDbEntity
  8
0
  6
ByBlock
100
AcDbLine
 10
-490.3470036057615
 20
2758.414968530632
 30
0.0
 11
-640.7745874810424
 21
2758.414968530632
 31
0.0
  0
LINE
  5
7E38
330
80D9
100
AcDbEntity
  8
0
  6
ByBlock
100
AcDbLine
 10
-490.3470036057615
 20
2158.414968530632
 30
0.0
 11
-640.7745874810424
 21
2158.414968530632
 31
0.0
  0
LINE
  5
7E39
330
80D9
100
AcDbEntity
  8
0
  6
ByBlock
100
AcDbLine
 10
-620.7745874810424
 20
2718.414968530632
 30
0.0
 11
-620.7745874810424
 21
2198.414968530632
 31
0.0
  0
INSERT
  5
7E3A
330
80D9
100
AcDbEntity
  8
0
  6
ByBlock
100
AcDbBlockReference
  2
_OPEN
 10
-620.7745874810424
 20
2758.414968530632
 30
0.0
 41
40.0
 42
40.0
 43
40.0
 50
90.0
  0
INSERT
  5
7E3B
330
80D9
100
AcDbEntity
  8
0
  6
ByBlock
100
AcDbBlockReference
  2
_OPEN
 10
-620.7745874810424
 20
2158.414968530632
 30
0.0
 41
40.0
 42
40.0
 43
40.0
 50
270.0
  0
TEXT
  5
7E3C
330
80D9
100
AcDbEntity
  8
3
100
AcDbText
 10
-630.7745874810424
 20
2381.272111387775
 30
0.0
 40
60.0
  1
600
 50
90.0
100
AcDbText
  0
POINT
  5
7E3D
330
80D9
100
AcDbEntity
  8
DEFPOINTS
  6
ByBlock
 62
     0
100
AcDbPoint
 10
-470.3470036057614
 20
2758.414968530632
 30
0.0
  0
POINT
  5
7E3E
330
80D9
100
AcDbEntity
  8
DEFPOINTS
  6
ByBlock
 62
     0
100
AcDbPoint
 10
-470.3470036057614
 20
2158.414968530632
 30
0.0
  0
POINT
  5
7E3F
330
80D9
100
AcDbEntity
  8
DEFPOINTS
  6
ByBlock
 62
     0
100
AcDbPoint
 10
-620.7745874810424
 20
2158.414968530632
 30
0.0
  0
ENDBLK
  5
7E40
330
80D9
100
AcDbEntity
  8
0
100
AcDbBlockEnd
  0
BLOCK
  5
80DC
330
80DB
100
AcDbEntity
  8
0
100
AcDbBlockBegin
  2
*D13
 70
     1
 10
0.0
 20
0.0
 30
0.0
  3
*D13
  1

  0
LINE
  5
7F20
330
80DB
100
AcDbEntity
  8
0
  6
ByBlock
100
AcDbLine
 10
3747.329593074301
 20
2152.899274892484
 30
0.0
 11
3747.329593074301
 21
2952.084242600219
 31
0.0
  0
LINE
  5
7F21
330
80DB
100
AcDbEntity
  8
0
  6
ByBlock
100
AcDbLine
 10
3247.329593074301
 20
2867.998882681656
 30
0.0
 11
3247.329593074301
 21
2952.084242600219
 31
0.0
  0
LINE
  5
7F22
330
80DB
100
AcDbEntity
  8
0
  6
ByBlock
100
AcDbLine
 10
3707.329593074302
 20
2932.084242600219
 30
0.0
 11
3287.329593074301
 21
2932.084242600219
 31
0.0
  0
INSERT
  5
7F23
330
80DB
100
AcDbEntity
  8
0
  6
ByBlock
100
AcDbBlockReference
  2
_OPEN
 10
3747.329593074301
 20
2932.084242600219
 30
0.0
 41
40.0
 42
40.0
 43
40.0
  0
INSERT
  5
7F24
330
80DB
100
AcDbEntity
  8
0
  6
ByBlock
100
AcDbBlockReference
  2
_OPEN
 10
3247.329593074301
 20
2932.084242600219
 30
0.0
 41
40.0
 42
40.0
 43
40.0
 50
180.0
  0
TEXT
  5
7F25
330
80DB
100
AcDbEntity
  8
3
100
AcDbText
 10
3387.329593074301
 20
2967.798528314504
 30
0.0
 40
60.0
  1
(510)
100
AcDbText
  0
POINT
  5
7F26
330
80DB
100
AcDbEntity
  8
DEFPOINTS
  6
ByBlock
 62
     0
100
AcDbPoint
 10
3747.329593074301
 20
2132.899274892484
 30
0.0
  0
POINT
  5
7F27
330
80DB
100
AcDbEntity
  8
DEFPOINTS
  6
ByBlock
 62
     0
100
AcDbPoint
 10
3247.329593074301
 20
2847.998882681655
 30
0.0
  0
POINT
  5
7F28
330
80DB
100
AcDbEntity
  8
DEFPOINTS
  6
ByBlock
 62
     0
100
AcDbPoint
 10
3247.329593074301
 20
2932.084242600219
 30
0.0
  0
ENDBLK
  5
7F29
330
80DB
100
AcDbEntity
  8
0
100
AcDbBlockEnd
  0
BLOCK
  5
80DE
330
80DD
100
AcDbEntity
  8
0
100
AcDbBlockBegin
  2
*D14
 70
     1
 10
0.0
 20
0.0
 30
0.0
  3
*D14
  1

  0
LINE
  5
801B
330
80DD
100
AcDbEntity
  8
3
100
AcDbLine
 10
2567.329593074302
 20
2332.899274892485
 30
0.0
 11
2567.329593074302
 21
2952.084242600219
 31
0.0
  0
LINE
  5
801C
330
80DD
100
AcDbEntity
  8
3
100
AcDbLine
 10
3207.329593074302
 20
2932.084242600219
 30
0.0
 11
2607.329593074301
 21
2932.084242600219
 31
0.0
  0
INSERT
  5
801D
330
80DD
100
AcDbEntity
  8
3
100
AcDbBlockReference
  2
_OPEN
 10
3247.329593074301
 20
2932.084242600219
 30
0.0
 41
40.0
 42
40.0
 43
40.0
  0
INSERT
  5
801E
330
80DD
100
AcDbEntity
  8
3
100
AcDbBlockReference
  2
_OPEN
 10
2567.329593074302
 20
2932.084242600219
 30
0.0
 41
40.0
 42
40.0
 43
40.0
 50
180.0
  0
TEXT
  5
803E
330
80DD
100
AcDbEntity
  8
3
100
AcDbText
 10
2787.33
 20
2915.880000000001
 30
0.0
 40
60.0
  1
MAX
100
AcDbText
  0
TEXT
  5
803F
330
80DD
100
AcDbEntity
  8
3
100
AcDbText
 10
2787.33
 20
2837.88
 30
0.0
 40
60.0
  1
710
100
AcDbText
  0
POINT
  5
8020
330
80DD
100
AcDbEntity
  8
DEFPOINTS
 62
     0
100
AcDbPoint
 10
3247.329593074301
 20
2847.998882681655
 30
0.0
  0
POINT
  5
8021
330
80DD
100
AcDbEntity
  8
DEFPOINTS
 62
     0
100
AcDbPoint
 10
2567.329593074302
 20
2312.899274892485
 30
0.0
  0
POINT
  5
8022
330
80DD
100
AcDbEntity
  8
DEFPOINTS
 62
     0
100
AcDbPoint
 10
2567.329593074302
 20
2932.084242600219
 30
0.0
  0
ENDBLK
  5
7F1E
330
80DD
100
AcDbEntity
  8
0
100
AcDbBlockEnd
  0
BLOCK
  5
80E0
330
80DF
100
AcDbEntity
  8
0
100
AcDbBlockBegin
  2
*D15
 70
     1
 10
0.0
 20
0.0
 30
0.0
  3
*D15
  1

  0
LINE
  5
8023
330
80DF
100
AcDbEntity
  8
3
100
AcDbLine
 10
558.1952238038911
 20
4088.243451059675
 30
0.0
 11
558.1952238038911
 21
4642.848741558082
 31
0.0
  0
LINE
  5
8024
330
80DF
100
AcDbEntity
  8
3
100
AcDbLine
 10
1168.19522380389
 20
4622.848741558082
 30
0.0
 11
598.1952238038911
 21
4622.848741558082
 31
0.0
  0
INSERT
  5
8025
330
80DF
100
AcDbEntity
  8
3
100
AcDbBlockReference
  2
_OPEN
 10
1208.195223803891
 20
4622.848741558082
 30
0.0
 41
40.0
 42
40.0
 43
40.0
  0
INSERT
  5
8026
330
80DF
100
AcDbEntity
  8
3
100
AcDbBlockReference
  2
_OPEN
 10
558.1952238038911
 20
4622.848741558082
 30
0.0
 41
40.0
 42
40.0
 43
40.0
 50
180.0
  0
TEXT
  5
8040
330
80DF
100
AcDbEntity
  8
3
100
AcDbText
 10
763.195
 20
4556.65
 30
0.0
 40
60.0
  1
650
100
AcDbText
  0
POINT
  5
8028
330
80DF
100
AcDbEntity
  8
DEFPOINTS
 62
     0
100
AcDbPoint
 10
1208.195223803891
 20
4474.243451059678
 30
0.0
  0
POINT
  5
8029
330
80DF
100
AcDbEntity
  8
DEFPOINTS
 62
     0
100
AcDbPoint
 10
558.1952238038911
 20
4068.243451059674
 30
0.0
  0
POINT
  5
802A
330
80DF
100
AcDbEntity
  8
DEFPOINTS
 62
     0
100
AcDbPoint
 10
558.1952238038911
 20
4622.848741558082
 30
0.0
  0
ENDBLK
  5
7E75
330
80DF
100
AcDbEntity
  8
0
100
AcDbBlockEnd
  0
BLOCK
  5
80E2
330
80E1
100
AcDbEntity
  8
0
100
AcDbBlockBegin
  2
*D16
 70
     1
 10
0.0
 20
0.0
 30
0.0
  3
*D16
  1

  0
LINE
  5
7E77
330
80E1
100
AcDbEntity
  8
0
  6
ByBlock
100
AcDbLine
 10
613.6529963942384
 20
1028.09762645012
 30
0.0
 11
1253.363290337445
 21
1028.09762645012
 31
0.0
  0
LINE
  5
7E78
330
80E1
100
AcDbEntity
  8
0
  6
ByBlock
100
AcDbLine
 10
1106.545969497234
 20
568.0976264501205
 30
0.0
 11
1253.363290337445
 21
568.0976264501205
 31
0.0
  0
LINE
  5
7E79
330
80E1
100
AcDbEntity
  8
0
  6
ByBlock
100
AcDbLine
 10
1233.363290337445
 20
988.0976264501203
 30
0.0
 11
1233.363290337445
 21
608.0976264501205
 31
0.0
  0
INSERT
  5
7E7A
330
80E1
100
AcDbEntity
  8
0
  6
ByBlock
100
AcDbBlockReference
  2
_OPEN
 10
1233.363290337445
 20
1028.09762645012
 30
0.0
 41
40.0
 42
40.0
 43
40.0
 50
90.0
  0
INSERT
  5
7E7B
330
80E1
100
AcDbEntity
  8
0
  6
ByBlock
100
AcDbBlockReference
  2
_OPEN
 10
1233.363290337445
 20
568.0976264501205
 30
0.0
 41
40.0
 42
40.0
 43
40.0
 50
270.0
  0
TEXT
  5
7E7C
330
80E1
100
AcDbEntity
  8
3
100
AcDbText
 10
1223.363290337445
 20
720.9547693072632
 30
0.0
 40
60.0
  1
460
 50
90.0
100
AcDbText
  0
POINT
  5
7E7D
330
80E1
100
AcDbEntity
  8
DEFPOINTS
  6
ByBlock
 62
     0
100
AcDbPoint
 10
593.6529963942383
 20
1028.09762645012
 30
0.0
  0
POINT
  5
7E7E
330
80E1
100
AcDbEntity
  8
DEFPOINTS
  6
ByBlock
 62
     0
100
AcDbPoint
 10
1086.545969497234
 20
568.0976264501205
 30
0.0
  0
POINT
  5
7E7F
330
80E1
100
AcDbEntity
  8
DEFPOINTS
  6
ByBlock
 62
     0
100
AcDbPoint
 10
1233.363290337445
 20
568.0976264501205
 30
0.0
  0
ENDBLK
  5
7E80
330
80E1
100
AcDbEntity
  8
0
100
AcDbBlockEnd
  0
BLOCK
  5
80E4
330
80E3
100
AcDbEntity
  8
0
100
AcDbBlockBegin
  2
*D17
 70
     1
 10
0.0
 20
0.0
 30
0.0
  3
*D17
  1

  0
LINE
  5
802B
330
80E3
100
AcDbEntity
  8
3
100
AcDbLine
 10
2028.195223803891
 20
1582.899274892485
 30
0.0
 11
2281.905517747098
 21
1582.899274892485
 31
0.0
  0
LINE
  5
802C
330
80E3
100
AcDbEntity
  8
3
100
AcDbLine
 10
2261.905517747099
 20
2122.899274892485
 30
0.0
 11
2261.905517747099
 21
1622.899274892485
 31
0.0
  0
INSERT
  5
802D
330
80E3
100
AcDbEntity
  8
3
100
AcDbBlockReference
  2
_OPEN
 10
2261.905517747099
 20
2162.899274892485
 30
0.0
 41
40.0
 42
40.0
 43
40.0
 50
90.0
  0
INSERT
  5
802E
330
80E3
100
AcDbEntity
  8
3
100
AcDbBlockReference
  2
_OPEN
 10
2261.905517747099
 20
1582.899274892485
 30
0.0
 41
40.0
 42
40.0
 43
40.0
 50
270.0
  0
TEXT
  5
8041
330
80E3
100
AcDbEntity
  8
3
100
AcDbText
 10
2101.91
 20
1766.7
 30
0.0
 40
60.0
  1
580
100
AcDbText
  0
POINT
  5
8030
330
80E3
100
AcDbEntity
  8
DEFPOINTS
 62
     0
100
AcDbPoint
 10
2115.088196906886
 20
2162.899274892485
 30
0.0
  0
POINT
  5
8031
330
80E3
100
AcDbEntity
  8
DEFPOINTS
 62
     0
100
AcDbPoint
 10
2008.195223803891
 20
1582.899274892485
 30
0.0
  0
POINT
  5
8032
330
80E3
100
AcDbEntity
  8
DEFPOINTS
 62
     0
100
AcDbPoint
 10
2261.905517747099
 20
1582.899274892485
 30
0.0
  0
ENDBLK
  5
7E8A
330
80E3
100
AcDbEntity
  8
0
100
AcDbBlockEnd
  0
BLOCK
  5
80E6
330
80E5
100
AcDbEntity
  8
0
100
AcDbBlockBegin
  2
*D18
 70
     1
 10
0.0
 20
0.0
 30
0.0
  3
*D18
  1

  0
LINE
  5
7E99
330
80E5
100
AcDbEntity
  8
0
  6
ByBlock
100
AcDbLine
 10
999.6529963942384
 20
-56.90237354987949
 30
0.0
 11
1253.363290337445
 21
-56.90237354987949
 31
0.0
  0
LINE
  5
7E9A
330
80E5
100
AcDbEntity
  8
0
  6
ByBlock
100
AcDbLine
 10
999.6529963942384
 20
-156.9023735498794
 30
0.0
 11
1253.363290337445
 21
-156.9023735498794
 31
0.0
  0
LINE
  5
7E9B
330
80E5
100
AcDbEntity
  8
0
  6
ByBlock
100
AcDbLine
 10
1233.363290337445
 20
-16.90237354987948
 30
0.0
 11
1233.363290337445
 21
23.09762645012051
 31
0.0
  0
LINE
  5
7E9C
330
80E5
100
AcDbEntity
  8
0
  6
ByBlock
100
AcDbLine
 10
1233.363290337445
 20
-196.9023735498794
 30
0.0
 11
1233.363290337445
 21
-399.7595164070223
 31
0.0
  0
LINE
  5
7E9D
330
80E5
100
AcDbEntity
  8
0
  6
ByBlock
100
AcDbLine
 10
1233.363290337445
 20
-56.90237354987949
 30
0.0
 11
1233.363290337445
 21
-156.9023735498794
 31
0.0
  0
INSERT
  5
7E9E
330
80E5
100
AcDbEntity
  8
0
  6
ByBlock
100
AcDbBlockReference
  2
_DOT
 10
1233.363290337445
 20
-56.90237354987949
 30
0.0
 41
40.0
 42
40.0
 43
40.0
 50
270.0
  0
INSERT
  5
7E9F
330
80E5
100
AcDbEntity
  8
0
  6
ByBlock
100
AcDbBlockReference
  2
_OPEN
 10
1233.363290337445
 20
-156.9023735498794
 30
0.0
 41
40.0
 42
40.0
 43
40.0
 50
90.0
  0
TEXT
  5
7EA0
330
80E5
100
AcDbEntity
  8
3
100
AcDbText
 10
1223.363290337445
 20
-389.7595164070223
 30
0.0
 40
60.0
  1
100
 50
90.0
100
AcDbText
  0
POINT
  5
7EA1
330
80E5
100
AcDbEntity
  8
DEFPOINTS
  6
ByBlock
 62
     0
100
AcDbPoint
 10
979.6529963942385
 20
-56.90237354987949
 30
0.0
  0
POINT
  5
7EA2
330
80E5
100
AcDbEntity
  8
DEFPOINTS
  6
ByBlock
 62
     0
100
AcDbPoint
 10
979.6529963942385
 20
-156.9023735498794
 30
0.0
  0
POINT
  5
7EA3
330
80E5
100
AcDbEntity
  8
DEFPOINTS
  6
ByBlock
 62
     0
100
AcDbPoint
 10
1233.363290337445
 20
-156.9023735498794
 30
0.0
  0
ENDBLK
  5
7EA4
330
80E5
100
AcDbEntity
  8
0
100
AcDbBlockEnd
  0
BLOCK
  5
80E8
330
80E7
100
AcDbEntity
  8
0
100
AcDbBlockBegin
  2
*D19
 70
     1
 10
0.0
 20
0.0
 30
0.0
  3
*D19
  1

  0
LINE
  5
8033
330
80E7
100
AcDbEntity
  8
3
100
AcDbLine
 10
2062.195223803891
 20
2135.899274892484
 30
0.0
 11
2062.195223803891
 21
2942.400941013177
 31
0.0
  0
LINE
  5
8034
330
80E7
100
AcDbEntity
  8
3
100
AcDbLine
 10
1648.195223803891
 20
2922.400941013177
 30
0.0
 11
2022.19522380389
 21
2922.400941013177
 31
0.0
  0
INSERT
  5
8035
330
80E7
100
AcDbEntity
  8
3
100
AcDbBlockReference
  2
_OPEN
 10
1608.195223803891
 20
2922.400941013177
 30
0.0
 41
40.0
 42
40.0
 43
40.0
 50
180.0
  0
INSERT
  5
8036
330
80E7
100
AcDbEntity
  8
3
100
AcDbBlockReference
  2
_OPEN
 10
2062.195223803891
 20
2922.400941013177
 30
0.0
 41
40.0
 42
40.0
 43
40.0
  0
TEXT
  5
8042
330
80E7
100
AcDbEntity
  8
3
100
AcDbText
 10
1715.2
 20
2856.2
 30
0.0
 40
60.0
  1
454
100
AcDbText
  0
POINT
  5
8038
330
80E7
100
AcDbEntity
  8
DEFPOINTS
 62
     0
100
AcDbPoint
 10
1608.195223803891
 20
2669.79224799548
 30
0.0
  0
POINT
  5
8039
330
80E7
100
AcDbEntity
  8
DEFPOINTS
 62
     0
100
AcDbPoint
 10
2062.195223803891
 20
2115.899274892484
 30
0.0
  0
POINT
  5
803A
330
80E7
100
AcDbEntity
  8
DEFPOINTS
 62
     0
100
AcDbPoint
 10
2062.195223803891
 20
2922.400941013177
 30
0.0
  0
ENDBLK
  5
7EB9
330
80E7
100
AcDbEntity
  8
0
100
AcDbBlockEnd
  0
BLOCK
  5
80EA
330
80E9
100
AcDbEntity
  8
0
100
AcDbBlockBegin
  2
*D20
 70
     1
 10
0.0
 20
0.0
 30
0.0
  3
*D20
  1

  0
LINE
  5
7F0B
330
80E9
100
AcDbEntity
  8
0
  6
ByBlock
100
AcDbLine
 10
2062.195223803891
 20
2135.899274892484
 30
0.0
 11
2062.195223803891
 21
3065.829449639409
 31
0.0
  0
LINE
  5
7F0C
330
80E9
100
AcDbEntity
  8
0
  6
ByBlock
100
AcDbLine
 10
558.1952238038911
 20
1742.899274892485
 30
0.0
 11
558.1952238038911
 21
3065.829449639409
 31
0.0
  0
LINE
  5
7F0D
330
80E9
100
AcDbEntity
  8
0
  6
ByBlock
100
AcDbLine
 10
2022.19522380389
 20
3045.82944963941
 30
0.0
 11
598.1952238038911
 21
3045.82944963941
 31
0.0
  0
INSERT
  5
7F0E
330
80E9
100
AcDbEntity
  8
0
  6
ByBlock
100
AcDbBlockReference
  2
_OPEN
 10
2062.195223803891
 20
3045.82944963941
 30
0.0
 41
40.0
 42
40.0
 43
40.0
  0
INSERT
  5
7F0F
330
80E9
100
AcDbEntity
  8
0
  6
ByBlock
100
AcDbBlockReference
  2
_OPEN
 10
558.1952238038911
 20
3045.82944963941
 30
0.0
 41
40.0
 42
40.0
 43
40.0
 50
180.0
  0
TEXT
  5
7F10
330
80E9
100
AcDbEntity
  8
3
100
AcDbText
 10
1208.766652375319
 20
3055.829449639409
 30
0.0
 40
60.0
  1
1504
100
AcDbText
  0
POINT
  5
7F11
330
80E9
100
AcDbEntity
  8
DEFPOINTS
  6
ByBlock
 62
     0
100
AcDbPoint
 10
2062.195223803891
 20
2115.899274892484
 30
0.0
  0
POINT
  5
7F12
330
80E9
100
AcDbEntity
  8
DEFPOINTS
  6
ByBlock
 62
     0
100
AcDbPoint
 10
558.1952238038911
 20
1722.899274892484
 30
0.0
  0
POINT
  5
7F13
330
80E9
100
AcDbEntity
  8
DEFPOINTS
  6
ByBlock
 62
     0
100
AcDbPoint
 10
558.1952238038911
 20
3045.82944963941
 30
0.0
  0
ENDBLK
  5
7F14
330
80E9
100
AcDbEntity
  8
0
100
AcDbBlockEnd
  0
BLOCK
  5
80EC
330
80EB
100
AcDbEntity
  8
0
100
AcDbBlockBegin
  2
*D21
 70
     1
 10
0.0
 20
0.0
 30
0.0
  3
*D21
  1

  0
LINE
  5
7F40
330
80EB
100
AcDbEntity
  8
0
  6
ByBlock
 62
     0
100
AcDbLine
 10
558.1952238038911
 20
1435.899274892484
 30
0.0
 11
558.1952238038911
 21
1283.503837695807
 31
0.0
  0
LINE
  5
7F41
330
80EB
100
AcDbEntity
  8
0
  6
ByBlock
 62
     0
100
AcDbLine
 10
1608.195223803891
 20
1435.899274892484
 30
0.0
 11
1608.195223803891
 21
1283.503837695807
 31
0.0
  0
LINE
  5
7F42
330
80EB
100
AcDbEntity
  8
0
  6
ByBlock
 62
     0
100
AcDbLine
 10
598.1952238038911
 20
1303.503837695807
 30
0.0
 11
1568.195223803891
 21
1303.503837695807
 31
0.0
  0
INSERT
  5
7F43
330
80EB
100
AcDbEntity
  8
0
  6
ByBlock
 62
     0
100
AcDbBlockReference
  2
_OPEN
 10
558.1952238038911
 20
1303.503837695807
 30
0.0
 41
40.0
 42
40.0
 43
40.0
 50
180.0
  0
INSERT
  5
7F44
330
80EB
100
AcDbEntity
  8
0
  6
ByBlock
 62
     0
100
AcDbBlockReference
  2
_OPEN
 10
1608.195223803891
 20
1303.503837695807
 30
0.0
 41
40.0
 42
40.0
 43
40.0
  0
TEXT
  5
7F45
330
80EB
100
AcDbEntity
  8
3
 62
     0
100
AcDbText
 10
983.1952238038912
 20
1323.503837695807
 30
0.0
 40
60.0
  1
1050
100
AcDbText
  0
POINT
  5
7F46
330
80EB
100
AcDbEntity
  8
DEFPOINTS
  6
ByBlock
 62
     0
100
AcDbPoint
 10
558.1952238038911
 20
1455.899274892484
 30
0.0
  0
POINT
  5
7F47
330
80EB
100
AcDbEntity
  8
DEFPOINTS
  6
ByBlock
 62
     0
100
AcDbPoint
 10
1608.195223803891
 20
1455.899274892484
 30
0.0
  0
POINT
  5
7F48
330
80EB
100
AcDbEntity
  8
DEFPOINTS
  6
ByBlock
 62
     0
100
AcDbPoint
 10
1608.195223803891
 20
1303.503837695807
 30
0.0
  0
ENDBLK
  5
7F49
330
80EB
100
AcDbEntity
  8
0
100
AcDbBlockEnd
  0
BLOCK
  5
80EE
330
80ED
100
AcDbEntity
  8
0
100
AcDbBlockBegin
  2
*D22
 70
     1
 10
0.0
 20
0.0
 30
0.0
  3
*D22
  1

  0
LINE
  5
7F4D
330
80ED
100
AcDbEntity
  8
0
  6
ByBlock
 62
     0
100
AcDbLine
 10
1608.195223803891
 20
1435.899274892484
 30
0.0
 11
1608.195223803891
 21
1283.503837695807
 31
0.0
  0
LINE
  5
7F4E
330
80ED
100
AcDbEntity
  8
0
  6
ByBlock
 62
     0
100
AcDbLine
 10
2008.195223803891
 20
1435.899274892484
 30
0.0
 11
2008.195223803891
 21
1283.503837695807
 31
0.0
  0
LINE
  5
7F4F
330
80ED
100
AcDbEntity
  8
0
  6
ByBlock
 62
     0
100
AcDbLine
 10
1648.195223803891
 20
1303.503837695807
 30
0.0
 11
1968.19522380389
 21
1303.503837695807
 31
0.0
  0
INSERT
  5
7F50
330
80ED
100
AcDbEntity
  8
0
  6
ByBlock
 62
     0
100
AcDbBlockReference
  2
_OPEN
 10
1608.195223803891
 20
1303.503837695807
 30
0.0
 41
40.0
 42
40.0
 43
40.0
 50
180.0
  0
INSERT
  5
7F51
330
80ED
100
AcDbEntity
  8
0
  6
ByBlock
 62
     0
100
AcDbBlockReference
  2
_OPEN
 10
2008.195223803891
 20
1303.503837695807
 30
0.0
 41
40.0
 42
40.0
 43
40.0
  0
TEXT
  5
7F52
330
80ED
100
AcDbEntity
  8
3
 62
     0
100
AcDbText
 10
1731.052366661034
 20
1323.503837695807
 30
0.0
 40
60.0
  1
400
100
AcDbText
  0
POINT
  5
7F53
330
80ED
100
AcDbEntity
  8
DEFPOINTS
  6
ByBlock
 62
     0
100
AcDbPoint
 10
1608.195223803891
 20
1455.899274892484
 30
0.0
  0
POINT
  5
7F54
330
80ED
100
AcDbEntity
  8
DEFPOINTS
  6
ByBlock
 62
     0
100
AcDbPoint
 10
2008.195223803891
 20
1455.899274892484
 30
0.0
  0
POINT
  5
7F55
330
80ED
100
AcDbEntity
  8
DEFPOINTS
  6
ByBlock
 62
     0
100
AcDbPoint
 10
2008.195223803891
 20
1303.503837695807
 30
0.0
  0
ENDBLK
  5
7F56
330
80ED
100
AcDbEntity
  8
0
100
AcDbBlockEnd
  0
BLOCK
  5
80F0
330
80EF
100
AcDbEntity
  8
0
100
AcDbBlockBegin
  2
*D23
 70
     1
 10
0.0
 20
0.0
 30
0.0
  3
*D23
  1

  0
LINE
  5
7F5A
330
80EF
100
AcDbEntity
  8
0
  6
ByBlock
 62
     0
100
AcDbLine
 10
2694.329593074301
 20
1435.899274892484
 30
0.0
 11
2694.329593074301
 21
1283.503837695807
 31
0.0
  0
LINE
  5
7F5B
330
80EF
100
AcDbEntity
  8
0
  6
ByBlock
 62
     0
100
AcDbLine
 10
3247.3295930743
 20
1435.899274892484
 30
0.0
 11
3247.3295930743
 21
1283.503837695807
 31
0.0
  0
LINE
  5
7F5C
330
80EF
100
AcDbEntity
  8
0
  6
ByBlock
 62
     0
100
AcDbLine
 10
2734.329593074301
 20
1303.503837695807
 30
0.0
 11
3207.3295930743
 21
1303.503837695807
 31
0.0
  0
INSERT
  5
7F5D
330
80EF
100
AcDbEntity
  8
0
  6
ByBlock
 62
     0
100
AcDbBlockReference
  2
_OPEN
 10
2694.329593074301
 20
1303.503837695807
 30
0.0
 41
40.0
 42
40.0
 43
40.0
 50
180.0
  0
INSERT
  5
7F5E
330
80EF
100
AcDbEntity
  8
0
  6
ByBlock
 62
     0
100
AcDbBlockReference
  2
_OPEN
 10
3247.3295930743
 20
1303.503837695807
 30
0.0
 41
40.0
 42
40.0
 43
40.0
  0
TEXT
  5
7F5F
330
80EF
100
AcDbEntity
  8
3
 62
     0
100
AcDbText
 10
2893.686735931443
 20
1323.503837695807
 30
0.0
 40
60.0
  1
553
100
AcDbText
  0
POINT
  5
7F60
330
80EF
100
AcDbEntity
  8
DEFPOINTS
  6
ByBlock
 62
     0
100
AcDbPoint
 10
2694.329593074301
 20
1455.899274892484
 30
0.0
  0
POINT
  5
7F61
330
80EF
100
AcDbEntity
  8
DEFPOINTS
  6
ByBlock
 62
     0
100
AcDbPoint
 10
3247.3295930743
 20
1455.899274892484
 30
0.0
  0
POINT
  5
7F62
330
80EF
100
AcDbEntity
  8
DEFPOINTS
  6
ByBlock
 62
     0
100
AcDbPoint
 10
3247.3295930743
 20
1303.503837695807
 30
0.0
  0
ENDBLK
  5
7F63
330
80EF
100
AcDbEntity
  8
0
100
AcDbBlockEnd
  0
BLOCK
  5
80F2
330
80F1
100
AcDbEntity
  8
0
100
AcDbBlockBegin
  2
*D24
 70
     1
 10
0.0
 20
0.0
 30
0.0
  3
*D24
  1

  0
LINE
  5
7F67
330
80F1
100
AcDbEntity
  8
0
  6
ByBlock
 62
     0
100
AcDbLine
 10
3247.3295930743
 20
1435.899274892484
 30
0.0
 11
3247.3295930743
 21
1283.503837695807
 31
0.0
  0
LINE
  5
7F68
330
80F1
100
AcDbEntity
  8
0
  6
ByBlock
 62
     0
100
AcDbLine
 10
3700.329593074302
 20
1435.899274892484
 30
0.0
 11
3700.329593074302
 21
1283.503837695807
 31
0.0
  0
LINE
  5
7F69
330
80F1
100
AcDbEntity
  8
0
  6
ByBlock
 62
     0
100
AcDbLine
 10
3287.3295930743
 20
1303.503837695807
 30
0.0
 11
3660.329593074301
 21
1303.503837695807
 31
0.0
  0
INSERT
  5
7F6A
330
80F1
100
AcDbEntity
  8
0
  6
ByBlock
 62
     0
100
AcDbBlockReference
  2
_OPEN
 10
3247.3295930743
 20
1303.503837695807
 30
0.0
 41
40.0
 42
40.0
 43
40.0
 50
180.0
  0
INSERT
  5
7F6B
330
80F1
100
AcDbEntity
  8
0
  6
ByBlock
 62
     0
100
AcDbBlockReference
  2
_OPEN
 10
3700.329593074302
 20
1303.503837695807
 30
0.0
 41
40.0
 42
40.0
 43
40.0
  0
TEXT
  5
7F6C
330
80F1
100
AcDbEntity
  8
3
 62
     0
100
AcDbText
 10
3396.686735931443
 20
1323.503837695807
 30
0.0
 40
60.0
  1
453
100
AcDbText
  0
POINT
  5
7F6D
330
80F1
100
AcDbEntity
  8
DEFPOINTS
  6
ByBlock
 62
     0
100
AcDbPoint
 10
3247.3295930743
 20
1455.899274892484
 30
0.0
  0
POINT
  5
7F6E
330
80F1
100
AcDbEntity
  8
DEFPOINTS
  6
ByBlock
 62
     0
100
AcDbPoint
 10
3700.329593074302
 20
1455.899274892484
 30
0.0
  0
POINT
  5
7F6F
330
80F1
100
AcDbEntity
  8
DEFPOINTS
  6
ByBlock
 62
     0
100
AcDbPoint
 10
3700.329593074302
 20
1303.503837695807
 30
0.0
  0
ENDBLK
  5
7F70
330
80F1
100
AcDbEntity
  8
0
100
AcDbBlockEnd
  0
BLOCK
  5
80F4
330
80F3
100
AcDbEntity
  8
0
100
AcDbBlockBegin
  2
_NONE
 70
     0
 10
0.0
 20
0.0
 30
0.0
  3
_NONE
  1

  0
CIRCLE
  5
7F92
330
80F3
100
AcDbEntity
  8
0
  6
ByBlock
 62
     0
100
AcDbCircle
 10
0.0
 20
0.0
 30
0.0
 40
0.25
  0
ENDBLK
  5
7F93
330
80F3
100
AcDbEntity
  8
0
100
AcDbBlockEnd
  0
BLOCK
  5
80F6
330
80F5
100
AcDbEntity
  8
0
100
AcDbBlockBegin
  2
*D26
 70
     1
 10
0.0
 20
0.0
 30
0.0
  3
*D26
  1

  0
LINE
  5
7F96
330
80F5
100
AcDbEntity
  8
0
  6
ByBlock
 62
     0
100
AcDbLine
 10
2263.439342360074
 20
1487.899274892484
 30
0.0
 11
2263.439342360074
 21
1582.899274892485
 31
0.0
  0
TEXT
  5
7F97
330
80F5
100
AcDbEntity
  8
3
 62
     0
100
AcDbText
 10
2379.15362807436
 20
1448.256417749627
 30
0.0
 40
60.0
  1
(95)
 50
90.0
100
AcDbText
  0
POINT
  5
7F98
330
80F5
100
AcDbEntity
  8
DEFPOINTS
  6
ByBlock
 62
     0
100
AcDbPoint
 10
2008.195223803891
 20
1487.899274892484
 30
0.0
  0
POINT
  5
7F99
330
80F5
100
AcDbEntity
  8
DEFPOINTS
  6
ByBlock
 62
     0
100
AcDbPoint
 10
2008.195223803891
 20
1582.899274892485
 30
0.0
  0
POINT
  5
7F9A
330
80F5
100
AcDbEntity
  8
DEFPOINTS
  6
ByBlock
 62
     0
100
AcDbPoint
 10
2263.439342360074
 20
1582.899274892485
 30
0.0
  0
ENDBLK
  5
7F9B
330
80F5
100
AcDbEntity
  8
0
100
AcDbBlockEnd
  0
BLOCK
  5
80F8
330
80F7
100
AcDbEntity
  8
0
100
AcDbBlockBegin
  2
*D27
 70
     1
 10
0.0
 20
0.0
 30
0.0
  3
*D27
  1

  0
LINE
  5
7F9F
330
80F7
100
AcDbEntity
  8
0
  6
ByBlock
 62
     0
100
AcDbLine
 10
1642.195223803891
 20
2622.899274892485
 30
0.0
 11
2438.116753074595
 21
2622.899274892485
 31
0.0
  0
LINE
  5
7FA0
330
80F7
100
AcDbEntity
  8
0
  6
ByBlock
 62
     0
100
AcDbLine
 10
2028.195223803891
 20
1387.899274892484
 30
0.0
 11
2438.116753074595
 21
1387.899274892484
 31
0.0
  0
LINE
  5
7FA1
330
80F7
100
AcDbEntity
  8
0
  6
ByBlock
 62
     0
100
AcDbLine
 10
2418.116753074595
 20
2582.899274892485
 30
0.0
 11
2418.116753074595
 21
1427.899274892484
 31
0.0
  0
INSERT
  5
7FA2
330
80F7
100
AcDbEntity
  8
0
  6
ByBlock
 62
     0
100
AcDbBlockReference
  2
_OPEN
 10
2418.116753074595
 20
2622.899274892485
 30
0.0
 41
40.0
 42
40.0
 43
40.0
 50
90.0
  0
INSERT
  5
7FA3
330
80F7
100
AcDbEntity
  8
0
  6
ByBlock
 62
     0
100
AcDbBlockReference
  2
_OPEN
 10
2418.116753074595
 20
1387.899274892484
 30
0.0
 41
40.0
 42
40.0
 43
40.0
 50
270.0
  0
TEXT
  5
7FA4
330
80F7
100
AcDbEntity
  8
3
 62
     0
100
AcDbText
 10
2372.402467360309
 20
1866.827846321056
 30
0.0
 40
60.0
  1
(1235)
 50
90.0
100
AcDbText
  0
POINT
  5
7FA5
330
80F7
100
AcDbEntity
  8
DEFPOINTS
  6
ByBlock
 62
     0
100
AcDbPoint
 10
1622.19522380389
 20
2622.899274892485
 30
0.0
  0
POINT
  5
7FA6
330
80F7
100
AcDbEntity
  8
DEFPOINTS
  6
ByBlock
 62
     0
100
AcDbPoint
 10
2008.195223803891
 20
1387.899274892484
 30
0.0
  0
POINT
  5
7FA7
330
80F7
100
AcDbEntity
  8
DEFPOINTS
  6
ByBlock
 62
     0
100
AcDbPoint
 10
2418.116753074595
 20
1387.899274892484
 30
0.0
  0
ENDBLK
  5
7FA8
330
80F7
100
AcDbEntity
  8
0
100
AcDbBlockEnd
  0
BLOCK
  5
80FF
330
80FE
100
AcDbEntity
  8
0
100
AcDbBlockBegin
  2
*D28
 70
     1
 10
0.0
 20
0.0
 30
0.0
  3
*D28
  1

  0
LINE
  5
8159
330
80FE
100
AcDbEntity
  8
3
 62
     0
370
    -2
100
AcDbLine
 10
2467.329593074301
 20
2332.899274892485
 30
0.0
 11
2467.329593074301
 21
2918.403503596905
 31
0.0
  0
LINE
  5
815A
330
80FE
100
AcDbEntity
  8
3
 62
     0
370
    -2
100
AcDbLine
 10
3247.329593074301
 20
2844.56938158193
 30
0.0
 11
3247.329593074301
 21
2918.403503596905
 31
0.0
  0
LINE
  5
815B
330
80FE
100
AcDbEntity
  8
3
 62
     0
370
    -2
100
AcDbLine
 10
2507.329593074301
 20
2898.403503596905
 30
0.0
 11
3207.329593074302
 21
2898.403503596905
 31
0.0
  0
INSERT
  5
815C
330
80FE
100
AcDbEntity
  8
3
 62
     0
370
    -2
100
AcDbBlockReference
  2
_OPEN
 10
2467.329593074301
 20
2898.403503596905
 30
0.0
 41
40.0
 42
40.0
 43
40.0
 50
180.0
  0
INSERT
  5
815D
330
80FE
100
AcDbEntity
  8
3
 62
     0
370
    -2
100
AcDbBlockReference
  2
_OPEN
 10
3247.329593074301
 20
2898.403503596905
 30
0.0
 41
40.0
 42
40.0
 43
40.0
  0
MTEXT
  5
815E
330
80FE
100
AcDbEntity
  8
3
 62
     0
100
AcDbMText
 10
2857.329593074301
 20
2964.11778931119
 30
0.0
 40
60.0
 41
0.0
 71
     5
 72
     1
  1
\A1;(780)
 73
     1
 44
1.0
1001
ACAD
1000
MTEXTBEGIN
1070
    73
1070
     1
1070
    44
1040
1.0
1070
    74
1070
     0
1000
MTEXTEND
  0
POINT
  5
815F
330
80FE
100
AcDbEntity
  8
DEFPOINTS
 62
     0
100
AcDbPoint
 10
2467.329593074301
 20
2312.899274892485
 30
0.0
  0
POINT
  5
8160
330
80FE
100
AcDbEntity
  8
DEFPOINTS
 62
     0
100
AcDbPoint
 10
3247.329593074301
 20
2824.56938158193
 30
0.0
  0
POINT
  5
8161
330
80FE
100
AcDbEntity
  8
DEFPOINTS
 62
     0
100
AcDbPoint
 10
3247.329593074301
 20
2898.403503596905
 30
0.0
  0
ENDBLK
  5
8100
330
80FE
100
AcDbEntity
  8
0
100
AcDbBlockEnd
  0
BLOCK
  5
810C
330
810B
100
AcDbEntity
  8
0
100
AcDbBlockBegin
  2
*D29
 70
     1
 10
0.0
 20
0.0
 30
0.0
  3
*D29
  1

  0
LINE
  5
8162
330
810B
100
AcDbEntity
  8
3
 62
     0
370
    -2
100
AcDbLine
 10
3247.329593074301
 20
2844.56938158193
 30
0.0
 11
3247.329593074301
 21
2918.403503596905
 31
0.0
  0
LINE
  5
8163
330
810B
100
AcDbEntity
  8
3
 62
     0
370
    -2
100
AcDbLine
 10
3757.329593074302
 20
2152.899274892484
 30
0.0
 11
3757.329593074302
 21
2918.403503596905
 31
0.0
  0
LINE
  5
8164
330
810B
100
AcDbEntity
  8
3
 62
     0
370
    -2
100
AcDbLine
 10
3287.329593074301
 20
2898.403503596905
 30
0.0
 11
3717.329593074302
 21
2898.403503596905
 31
0.0
  0
INSERT
  5
8165
330
810B
100
AcDbEntity
  8
3
 62
     0
370
    -2
100
AcDbBlockReference
  2
_OPEN
 10
3247.329593074301
 20
2898.403503596905
 30
0.0
 41
40.0
 42
40.0
 43
40.0
 50
180.0
  0
INSERT
  5
8166
330
810B
100
AcDbEntity
  8
3
 62
     0
370
    -2
100
AcDbBlockReference
  2
_OPEN
 10
3757.329593074302
 20
2898.403503596905
 30
0.0
 41
40.0
 42
40.0
 43
40.0
  0
MTEXT
  5
8167
330
810B
100
AcDbEntity
  8
3
 62
     0
100
AcDbMText
 10
3502.329593074302
 20
2964.11778931119
 30
0.0
 40
60.0
 41
0.0
 71
     5
 72
     1
  1
\A1;(510)
 73
     1
 44
1.0
1001
ACAD
1000
MTEXTBEGIN
1070
    73
1070
     1
1070
    44
1040
1.0
1070
    74
1070
     0
1000
MTEXTEND
  0
POINT
  5
8168
330
810B
100
AcDbEntity
  8
DEFPOINTS
 62
     0
100
AcDbPoint
 10
3247.329593074301
 20
2824.56938158193
 30
0.0
  0
POINT
  5
8169
330
810B
100
AcDbEntity
  8
DEFPOINTS
 62
     0
100
AcDbPoint
 10
3757.329593074302
 20
2132.899274892484
 30
0.0
  0
POINT
  5
816A
330
810B
100
AcDbEntity
  8
DEFPOINTS
 62
     0
100
AcDbPoint
 10
3757.329593074302
 20
2898.403503596905
 30
0.0
  0
ENDBLK
  5
810D
330
810B
100
AcDbEntity
  8
0
100
AcDbBlockEnd
  0
BLOCK
  5
816D
330
816C
100
AcDbEntity
  8
0
100
AcDbBlockBegin
  2
*D30
 70
     1
 10
0.0
 20
0.0
 30
0.0
  3
*D30
  1

  0
LINE
  5
816F
330
816C
100
AcDbEntity
  8
3
 62
     0
370
    -2
100
AcDbLine
 10
558.1952238038911
 20
3448.243451059676
 30
0.0
 11
558.1952238038911
 21
3115.49224667534
 31
0.0
  0
LINE
  5
8170
330
816C
100
AcDbEntity
  8
3
 62
     0
370
    -2
100
AcDbLine
 10
2008.195223803891
 20
3448.243451059676
 30
0.0
 11
2008.195223803891
 21
3115.49224667534
 31
0.0
  0
LINE
  5
8171
330
816C
100
AcDbEntity
  8
3
 62
     0
370
    -2
100
AcDbLine
 10
598.1952238038911
 20
3135.49224667534
 30
0.0
 11
1968.19522380389
 21
3135.49224667534
 31
0.0
  0
INSERT
  5
8172
330
816C
100
AcDbEntity
  8
3
 62
     0
370
    -2
100
AcDbBlockReference
  2
_OPEN
 10
558.1952238038911
 20
3135.49224667534
 30
0.0
 41
40.0
 42
40.0
 43
40.0
 50
180.0
  0
INSERT
  5
8173
330
816C
100
AcDbEntity
  8
3
 62
     0
370
    -2
100
AcDbBlockReference
  2
_OPEN
 10
2008.195223803891
 20
3135.49224667534
 30
0.0
 41
40.0
 42
40.0
 43
40.0
  0
MTEXT
  5
8174
330
816C
100
AcDbEntity
  8
3
 62
     0
100
AcDbMText
 10
1283.195223803891
 20
3185.49224667534
 30
0.0
 40
60.0
 41
0.0
 71
     5
 72
     1
  1
\A1;1450
 73
     1
 44
1.0
1001
ACAD
1000
MTEXTBEGIN
1070
    73
1070
     1
1070
    44
1040
1.0
1070
    74
1070
     0
1000
MTEXTEND
  0
POINT
  5
8175
330
816C
100
AcDbEntity
  8
DEFPOINTS
 62
     0
100
AcDbPoint
 10
558.1952238038911
 20
3468.243451059676
 30
0.0
  0
POINT
  5
8176
330
816C
100
AcDbEntity
  8
DEFPOINTS
 62
     0
100
AcDbPoint
 10
2008.195223803891
 20
3468.243451059676
 30
0.0
  0
POINT
  5
8177
330
816C
100
AcDbEntity
  8
DEFPOINTS
 62
     0
100
AcDbPoint
 10
2008.195223803891
 20
3135.49224667534
 30
0.0
  0
ENDBLK
  5
816E
330
816C
100
AcDbEntity
  8
0
100
AcDbBlockEnd
  0
BLOCK
  5
817A
330
8179
100
AcDbEntity
  8
0
100
AcDbBlockBegin
  2
*D31
 70
     1
 10
0.0
 20
0.0
 30
0.0
  3
*D31
  1

  0
LINE
  5
8185
330
8179
100
AcDbEntity
  8
3
 62
     0
370
    -2
100
AcDbLine
 10
558.1952238038911
 20
4088.243451059675
 30
0.0
 11
558.1952238038911
 21
4642.84874155808
 31
0.0
  0
LINE
  5
8186
330
8179
100
AcDbEntity
  8
3
 62
     0
370
    -2
100
AcDbLine
 10
1208.195223803891
 20
4494.243451059677
 30
0.0
 11
1208.195223803891
 21
4642.84874155808
 31
0.0
  0
LINE
  5
8187
330
8179
100
AcDbEntity
  8
3
 62
     0
370
    -2
100
AcDbLine
 10
598.1952238038911
 20
4622.84874155808
 30
0.0
 11
1168.19522380389
 21
4622.84874155808
 31
0.0
  0
INSERT
  5
8188
330
8179
100
AcDbEntity
  8
3
 62
     0
370
    -2
100
AcDbBlockReference
  2
_OPEN
 10
558.1952238038911
 20
4622.84874155808
 30
0.0
 41
40.0
 42
40.0
 43
40.0
 50
180.0
  0
INSERT
  5
8189
330
8179
100
AcDbEntity
  8
3
 62
     0
370
    -2
100
AcDbBlockReference
  2
_OPEN
 10
1208.195223803891
 20
4622.84874155808
 30
0.0
 41
40.0
 42
40.0
 43
40.0
  0
MTEXT
  5
818A
330
8179
100
AcDbEntity
  8
3
 62
     0
100
AcDbMText
 10
883.1952238038908
 20
4672.848741558079
 30
0.0
 40
60.0
 41
0.0
 71
     5
 72
     1
  1
\A1;650
 73
     1
 44
1.0
1001
ACAD
1000
MTEXTBEGIN
1070
    73
1070
     1
1070
    44
1040
1.0
1070
    74
1070
     0
1000
MTEXTEND
  0
POINT
  5
818B
330
8179
100
AcDbEntity
  8
DEFPOINTS
 62
     0
100
AcDbPoint
 10
558.1952238038911
 20
4068.243451059675
 30
0.0
  0
POINT
  5
818C
330
8179
100
AcDbEntity
  8
DEFPOINTS
 62
     0
100
AcDbPoint
 10
1208.195223803891
 20
4474.243451059678
 30
0.0
  0
POINT
  5
818D
330
8179
100
AcDbEntity
  8
DEFPOINTS
 62
     0
100
AcDbPoint
 10
1208.195223803891
 20
4622.84874155808
 30
0.0
  0
ENDBLK
  5
817B
330
8179
100
AcDbEntity
  8
0
100
AcDbBlockEnd
  0
BLOCK
  5
8196
330
8195
100
AcDbEntity
  8
0
100
AcDbBlockBegin
  2
*D33
 70
     1
 10
0.0
 20
0.0
 30
0.0
  3
*D33
  1

  0
LINE
  5
81AA
330
8195
100
AcDbEntity
  8
3
 62
     0
370
    -2
100
AcDbLine
 10
1608.195223803891
 20
2699.943802378379
 30
0.0
 11
1608.195223803891
 21
2942.400941013177
 31
0.0
  0
LINE
  5
81AB
330
8195
100
AcDbEntity
  8
3
 62
     0
370
    -2
100
AcDbLine
 10
2062.195223803891
 20
2135.899274892484
 30
0.0
 11
2062.195223803891
 21
2942.400941013177
 31
0.0
  0
LINE
  5
81AC
330
8195
100
AcDbEntity
  8
3
 62
     0
370
    -2
100
AcDbLine
 10
1648.195223803891
 20
2922.400941013177
 30
0.0
 11
2022.19522380389
 21
2922.400941013177
 31
0.0
  0
INSERT
  5
81AD
330
8195
100
AcDbEntity
  8
3
 62
     0
370
    -2
100
AcDbBlockReference
  2
_OPEN
 10
1608.195223803891
 20
2922.400941013177
 30
0.0
 41
40.0
 42
40.0
 43
40.0
 50
180.0
  0
INSERT
  5
81AE
330
8195
100
AcDbEntity
  8
3
 62
     0
370
    -2
100
AcDbBlockReference
  2
_OPEN
 10
2062.195223803891
 20
2922.400941013177
 30
0.0
 41
40.0
 42
40.0
 43
40.0
  0
MTEXT
  5
81AF
330
8195
100
AcDbEntity
  8
3
 62
     0
100
AcDbMText
 10
1835.195223803891
 20
2972.400941013177
 30
0.0
 40
60.0
 41
0.0
 71
     5
 72
     1
  1
\A1;454
 73
     1
 44
1.0
1001
ACAD
1000
MTEXTBEGIN
1070
    73
1070
     1
1070
    44
1040
1.0
1070
    74
1070
     0
1000
MTEXTEND
  0
POINT
  5
81B0
330
8195
100
AcDbEntity
  8
DEFPOINTS
 62
     0
100
AcDbPoint
 10
1608.195223803891
 20
2679.943802378379
 30
0.0
  0
POINT
  5
81B1
330
8195
100
AcDbEntity
  8
DEFPOINTS
 62
     0
100
AcDbPoint
 10
2062.195223803891
 20
2115.899274892484
 30
0.0
  0
POINT
  5
81B2
330
8195
100
AcDbEntity
  8
DEFPOINTS
 62
     0
100
AcDbPoint
 10
2062.195223803891
 20
2922.400941013177
 30
0.0
  0
ENDBLK
  5
8197
330
8195
100
AcDbEntity
  8
0
100
AcDbBlockEnd
  0
BLOCK
  5
81B4
330
81B3
100
AcDbEntity
  8
0
100
AcDbBlockBegin
  2
*D34
 70
     1
 10
0.0
 20
0.0
 30
0.0
  3
*D34
  1

  0
LINE
  5
81B6
330
81B3
100
AcDbEntity
  8
3
 62
     0
370
    -2
100
AcDbLine
 10
2694.329593074301
 20
1382.899274892484
 30
0.0
 11
2694.329593074301
 21
1246.903837695807
 31
0.0
  0
LINE
  5
81B7
330
81B3
100
AcDbEntity
  8
3
 62
     0
370
    -2
100
AcDbLine
 10
3247.3295930743
 20
1382.899274892484
 30
0.0
 11
3247.3295930743
 21
1246.903837695807
 31
0.0
  0
LINE
  5
81B8
330
81B3
100
AcDbEntity
  8
3
 62
     0
370
    -2
100
AcDbLine
 10
2697.929593074301
 20
1250.503837695807
 30
0.0
 11
2964.401021645729
 21
1250.503837695807
 31
0.0
  0
LINE
  5
81B9
330
81B3
100
AcDbEntity
  8
3
 62
     0
370
    -2
100
AcDbLine
 10
3243.7295930743
 20
1250.503837695807
 30
0.0
 11
2977.258164502872
 21
1250.503837695807
 31
0.0
  0
SOLID
  5
81BA
330
81B3
100
AcDbEntity
  8
3
 62
     0
100
AcDbTrace
 10
2697.929593074301
 20
1251.103837695807
 30
0.0
 11
2697.929593074301
 21
1249.903837695807
 31
0.0
 12
2694.329593074301
 22
1250.503837695807
 32
0.0
 13
2694.329593074301
 23
1250.503837695807
 33
0.0
  0
SOLID
  5
81BB
330
81B3
100
AcDbEntity
  8
3
 62
     0
100
AcDbTrace
 10
3243.7295930743
 20
1251.103837695807
 30
0.0
 11
3243.7295930743
 21
1249.903837695807
 31
0.0
 12
3247.3295930743
 22
1250.503837695807
 32
0.0
 13
3247.3295930743
 23
1250.503837695807
 33
0.0
  0
MTEXT
  5
81BC
330
81B3
100
AcDbEntity
  8
3
 62
     0
100
AcDbMText
 10
2970.829593074301
 20
1250.503837695807
 30
0.0
 40
3.599999999999999
 41
0.0
 71
     5
 72
     1
  1
\A1;553
 73
     1
 44
1.0
1001
ACAD
1000
MTEXTBEGIN
1070
    73
1070
     1
1070
    44
1040
1.0
1070
    74
1070
     0
1000
MTEXTEND
  0
POINT
  5
81BD
330
81B3
100
AcDbEntity
  8
DEFPOINTS
 62
     0
100
AcDbPoint
 10
2694.329593074301
 20
1402.899274892484
 30
0.0
  0
POINT
  5
81BE
330
81B3
100
AcDbEntity
  8
DEFPOINTS
 62
     0
100
AcDbPoint
 10
3247.3295930743
 20
1402.899274892484
 30
0.0
  0
POINT
  5
81BF
330
81B3
100
AcDbEntity
  8
DEFPOINTS
 62
     0
100
AcDbPoint
 10
3247.3295930743
 20
1250.503837695807
 30
0.0
  0
ENDBLK
  5
81B5
330
81B3
100
AcDbEntity
  8
0
100
AcDbBlockEnd
  0
BLOCK
  5
81C1
330
81C0
100
AcDbEntity
  8
0
100
AcDbBlockBegin
  2
*D35
 70
     1
 10
0.0
 20
0.0
 30
0.0
  3
*D35
  1

  0
LINE
  5
81C3
330
81C0
100
AcDbEntity
  8
3
 62
     0
370
    -2
100
AcDbLine
 10
3247.3295930743
 20
1382.899274892484
 30
0.0
 11
3247.3295930743
 21
1246.903837695807
 31
0.0
  0
LINE
  5
81C4
330
81C0
100
AcDbEntity
  8
3
 62
     0
370
    -2
100
AcDbLine
 10
3700.329593074302
 20
1382.899274892484
 30
0.0
 11
3700.329593074302
 21
1246.903837695807
 31
0.0
  0
LINE
  5
81C5
330
81C0
100
AcDbEntity
  8
3
 62
     0
370
    -2
100
AcDbLine
 10
3250.9295930743
 20
1250.503837695807
 30
0.0
 11
3467.401021645729
 21
1250.503837695807
 31
0.0
  0
LINE
  5
81C6
330
81C0
100
AcDbEntity
  8
3
 62
     0
370
    -2
100
AcDbLine
 10
3696.729593074302
 20
1250.503837695807
 30
0.0
 11
3480.258164502873
 21
1250.503837695807
 31
0.0
  0
SOLID
  5
81C7
330
81C0
100
AcDbEntity
  8
3
 62
     0
100
AcDbTrace
 10
3250.9295930743
 20
1251.103837695807
 30
0.0
 11
3250.9295930743
 21
1249.903837695807
 31
0.0
 12
3247.3295930743
 22
1250.503837695807
 32
0.0
 13
3247.3295930743
 23
1250.503837695807
 33
0.0
  0
SOLID
  5
81C8
330
81C0
100
AcDbEntity
  8
3
 62
     0
100
AcDbTrace
 10
3696.729593074302
 20
1251.103837695807
 30
0.0
 11
3696.729593074302
 21
1249.903837695807
 31
0.0
 12
3700.329593074302
 22
1250.503837695807
 32
0.0
 13
3700.329593074302
 23
1250.503837695807
 33
0.0
  0
MTEXT
  5
81C9
330
81C0
100
AcDbEntity
  8
3
 62
     0
100
AcDbMText
 10
3473.829593074301
 20
1250.503837695807
 30
0.0
 40
3.599999999999999
 41
0.0
 71
     5
 72
     1
  1
\A1;453
 73
     1
 44
1.0
1001
ACAD
1000
MTEXTBEGIN
1070
    73
1070
     1
1070
    44
1040
1.0
1070
    74
1070
     0
1000
MTEXTEND
  0
POINT
  5
81CA
330
81C0
100
AcDbEntity
  8
DEFPOINTS
 62
     0
100
AcDbPoint
 10
3247.3295930743
 20
1402.899274892484
 30
0.0
  0
POINT
  5
81CB
330
81C0
100
AcDbEntity
  8
DEFPOINTS
 62
     0
100
AcDbPoint
 10
3700.329593074302
 20
1402.899274892484
 30
0.0
  0
POINT
  5
81CC
330
81C0
100
AcDbEntity
  8
DEFPOINTS
 62
     0
100
AcDbPoint
 10
3700.329593074302
 20
1250.503837695807
 30
0.0
  0
ENDBLK
  5
81C2
330
81C0
100
AcDbEntity
  8
0
100
AcDbBlockEnd
  0
BLOCK
  5
81CE
330
81CD
100
AcDbEntity
  8
0
100
AcDbBlockBegin
  2
*D36
 70
     1
 10
0.0
 20
0.0
 30
0.0
  3
*D36
  1

  0
LINE
  5
81D0
330
81CD
100
AcDbEntity
  8
3
 62
     0
370
    -2
100
AcDbLine
 10
2263.439342360074
 20
1506.499274892484
 30
0.0
 11
2263.439342360074
 21
1538.356417749627
 31
0.0
  0
LINE
  5
81D1
330
81CD
100
AcDbEntity
  8
3
 62
     0
370
    -2
100
AcDbLine
 10
2263.439342360074
 20
1579.299274892485
 30
0.0
 11
2263.439342360074
 21
1547.442132035342
 31
0.0
  0
SOLID
  5
81D2
330
81CD
100
AcDbEntity
  8
3
 62
     0
100
AcDbTrace
 10
2262.839342360074
 20
1506.499274892484
 30
0.0
 11
2264.039342360074
 21
1506.499274892484
 31
0.0
 12
2263.439342360074
 22
1502.899274892484
 32
0.0
 13
2263.439342360074
 23
1502.899274892484
 33
0.0
  0
SOLID
  5
81D3
330
81CD
100
AcDbEntity
  8
3
 62
     0
100
AcDbTrace
 10
2262.839342360074
 20
1579.299274892485
 30
0.0
 11
2264.039342360074
 21
1579.299274892485
 31
0.0
 12
2263.439342360074
 22
1582.899274892485
 32
0.0
 13
2263.439342360074
 23
1582.899274892485
 33
0.0
  0
MTEXT
  5
81D4
330
81CD
100
AcDbEntity
  8
3
 62
     0
100
AcDbMText
 10
2263.439342360074
 20
1542.899274892485
 30
0.0
 40
3.599999999999999
 41
0.0
 71
     5
 72
     1
  1
\A1;(80)
 73
     1
 44
1.0
1001
ACAD
1000
MTEXTBEGIN
1070
    73
1070
     1
1070
    44
1040
1.0
1070
    74
1070
     0
1000
MTEXTEND
  0
POINT
  5
81D5
330
81CD
100
AcDbEntity
  8
DEFPOINTS
 62
     0
100
AcDbPoint
 10
2008.195223803891
 20
1502.899274892484
 30
0.0
  0
POINT
  5
81D6
330
81CD
100
AcDbEntity
  8
DEFPOINTS
 62
     0
100
AcDbPoint
 10
2008.195223803891
 20
1582.899274892485
 30
0.0
  0
POINT
  5
81D7
330
81CD
100
AcDbEntity
  8
DEFPOINTS
 62
     0
100
AcDbPoint
 10
2263.439342360074
 20
1582.899274892485
 30
0.0
  0
ENDBLK
  5
81CF
330
81CD
100
AcDbEntity
  8
0
100
AcDbBlockEnd
  0
BLOCK
  5
81D9
330
81D8
100
AcDbEntity
  8
0
100
AcDbBlockBegin
  2
*D37
 70
     1
 10
0.0
 20
0.0
 30
0.0
  3
*D37
  1

  0
LINE
  5
81DB
330
81D8
100
AcDbEntity
  8
3
 62
     0
370
    -2
100
AcDbLine
 10
1642.195223803891
 20
2622.899274892485
 30
0.0
 11
2421.716753074595
 21
2622.899274892485
 31
0.0
  0
LINE
  5
81DC
330
81D8
100
AcDbEntity
  8
3
 62
     0
370
    -2
100
AcDbLine
 10
2028.195223803891
 20
1402.899274892484
 30
0.0
 11
2421.716753074595
 21
1402.899274892484
 31
0.0
  0
LINE
  5
81DD
330
81D8
100
AcDbEntity
  8
3
 62
     0
370
    -2
100
AcDbLine
 10
2418.116753074595
 20
2619.299274892485
 30
0.0
 11
2418.116753074595
 21
2017.442132035342
 31
0.0
  0
LINE
  5
81DE
330
81D8
100
AcDbEntity
  8
3
 62
     0
370
    -2
100
AcDbLine
 10
2418.116753074595
 20
1406.499274892484
 30
0.0
 11
2418.116753074595
 21
2008.356417749627
 31
0.0
  0
SOLID
  5
81DF
330
81D8
100
AcDbEntity
  8
3
 62
     0
100
AcDbTrace
 10
2417.516753074596
 20
2619.299274892485
 30
0.0
 11
2418.716753074595
 21
2619.299274892485
 31
0.0
 12
2418.116753074595
 22
2622.899274892485
 32
0.0
 13
2418.116753074595
 23
2622.899274892485
 33
0.0
  0
SOLID
  5
81E0
330
81D8
100
AcDbEntity
  8
3
 62
     0
100
AcDbTrace
 10
2417.516753074596
 20
1406.499274892484
 30
0.0
 11
2418.716753074595
 21
1406.499274892484
 31
0.0
 12
2418.116753074595
 22
1402.899274892484
 32
0.0
 13
2418.116753074595
 23
1402.899274892484
 33
0.0
  0
MTEXT
  5
81E1
330
81D8
100
AcDbEntity
  8
3
 62
     0
100
AcDbMText
 10
2418.116753074595
 20
2012.899274892485
 30
0.0
 40
3.599999999999999
 41
0.0
 71
     5
 72
     1
  1
\A1;(1220)
 73
     1
 44
1.0
1001
ACAD
1000
MTEXTBEGIN
1070
    73
1070
     1
1070
    44
1040
1.0
1070
    74
1070
     0
1000
MTEXTEND
  0
POINT
  5
81E2
330
81D8
100
AcDbEntity
  8
DEFPOINTS
 62
     0
100
AcDbPoint
 10
1622.19522380389
 20
2622.899274892485
 30
0.0
  0
POINT
  5
81E3
330
81D8
100
AcDbEntity
  8
DEFPOINTS
 62
     0
100
AcDbPoint
 10
2008.195223803891
 20
1402.899274892484
 30
0.0
  0
POINT
  5
81E4
330
81D8
100
AcDbEntity
  8
DEFPOINTS
 62
     0
100
AcDbPoint
 10
2418.116753074595
 20
1402.899274892484
 30
0.0
  0
ENDBLK
  5
81DA
330
81D8
100
AcDbEntity
  8
0
100
AcDbBlockEnd
  0
BLOCK
  5
81E6
330
81E5
100
AcDbEntity
  8
0
100
AcDbBlockBegin
  2
*D38
 70
     1
 10
0.0
 20
0.0
 30
0.0
  3
*D38
  1

  0
LINE
  5
81E8
330
81E5
100
AcDbEntity
  8
3
 62
     0
370
    -2
100
AcDbLine
 10
558.1952238038911
 20
1382.899274892484
 30
0.0
 11
558.1952238038911
 21
1246.903837695807
 31
0.0
  0
LINE
  5
81E9
330
81E5
100
AcDbEntity
  8
3
 62
     0
370
    -2
100
AcDbLine
 10
1608.195223803891
 20
1382.899274892484
 30
0.0
 11
1608.195223803891
 21
1246.903837695807
 31
0.0
  0
LINE
  5
81EA
330
81E5
100
AcDbEntity
  8
3
 62
     0
370
    -2
100
AcDbLine
 10
561.7952238038911
 20
1250.503837695807
 30
0.0
 11
1075.395223803891
 21
1250.503837695807
 31
0.0
  0
LINE
  5
81EB
330
81E5
100
AcDbEntity
  8
3
 62
     0
370
    -2
100
AcDbLine
 10
1604.59522380389
 20
1250.503837695807
 30
0.0
 11
1090.995223803891
 21
1250.503837695807
 31
0.0
  0
SOLID
  5
81EC
330
81E5
100
AcDbEntity
  8
3
 62
     0
100
AcDbTrace
 10
561.7952238038911
 20
1251.103837695807
 30
0.0
 11
561.7952238038911
 21
1249.903837695807
 31
0.0
 12
558.1952238038911
 22
1250.503837695807
 32
0.0
 13
558.1952238038911
 23
1250.503837695807
 33
0.0
  0
SOLID
  5
81ED
330
81E5
100
AcDbEntity
  8
3
 62
     0
100
AcDbTrace
 10
1604.59522380389
 20
1251.103837695807
 30
0.0
 11
1604.59522380389
 21
1249.903837695807
 31
0.0
 12
1608.195223803891
 22
1250.503837695807
 32
0.0
 13
1608.195223803891
 23
1250.503837695807
 33
0.0
  0
MTEXT
  5
81EE
330
81E5
100
AcDbEntity
  8
3
 62
     0
100
AcDbMText
 10
1083.195223803891
 20
1250.503837695807
 30
0.0
 40
3.599999999999999
 41
0.0
 71
     5
 72
     1
  1
\A1;1050
 73
     1
 44
1.0
1001
ACAD
1000
MTEXTBEGIN
1070
    73
1070
     1
1070
    44
1040
1.0
1070
    74
1070
     0
1000
MTEXTEND
  0
POINT
  5
81EF
330
81E5
100
AcDbEntity
  8
DEFPOINTS
 62
     0
100
AcDbPoint
 10
558.1952238038911
 20
1402.899274892484
 30
0.0
  0
POINT
  5
81F0
330
81E5
100
AcDbEntity
  8
DEFPOINTS
 62
     0
100
AcDbPoint
 10
1608.195223803891
 20
1402.899274892484
 30
0.0
  0
POINT
  5
81F1
330
81E5
100
AcDbEntity
  8
DEFPOINTS
 62
     0
100
AcDbPoint
 10
1608.195223803891
 20
1250.503837695807
 30
0.0
  0
ENDBLK
  5
81E7
330
81E5
100
AcDbEntity
  8
0
100
AcDbBlockEnd
  0
BLOCK
  5
81F3
330
81F2
100
AcDbEntity
  8
0
100
AcDbBlockBegin
  2
*D39
 70
     1
 10
0.0
 20
0.0
 30
0.0
  3
*D39
  1

  0
LINE
  5
81F5
330
81F2
100
AcDbEntity
  8
3
 62
     0
370
    -2
100
AcDbLine
 10
1608.195223803891
 20
1382.899274892484
 30
0.0
 11
1608.195223803891
 21
1246.903837695807
 31
0.0
  0
LINE
  5
81F6
330
81F2
100
AcDbEntity
  8
3
 62
     0
370
    -2
100
AcDbLine
 10
2008.195223803891
 20
1382.899274892484
 30
0.0
 11
2008.195223803891
 21
1246.903837695807
 31
0.0
  0
LINE
  5
81F7
330
81F2
100
AcDbEntity
  8
3
 62
     0
370
    -2
100
AcDbLine
 10
1611.795223803891
 20
1250.503837695807
 30
0.0
 11
1801.766652375319
 21
1250.503837695807
 31
0.0
  0
LINE
  5
81F8
330
81F2
100
AcDbEntity
  8
3
 62
     0
370
    -2
100
AcDbLine
 10
2004.595223803891
 20
1250.503837695807
 30
0.0
 11
1814.623795232462
 21
1250.503837695807
 31
0.0
  0
SOLID
  5
81F9
330
81F2
100
AcDbEntity
  8
3
 62
     0
100
AcDbTrace
 10
1611.795223803891
 20
1251.103837695807
 30
0.0
 11
1611.795223803891
 21
1249.903837695807
 31
0.0
 12
1608.195223803891
 22
1250.503837695807
 32
0.0
 13
1608.195223803891
 23
1250.503837695807
 33
0.0
  0
SOLID
  5
81FA
330
81F2
100
AcDbEntity
  8
3
 62
     0
100
AcDbTrace
 10
2004.595223803891
 20
1251.103837695807
 30
0.0
 11
2004.595223803891
 21
1249.903837695807
 31
0.0
 12
2008.195223803891
 22
1250.503837695807
 32
0.0
 13
2008.195223803891
 23
1250.503837695807
 33
0.0
  0
MTEXT
  5
81FB
330
81F2
100
AcDbEntity
  8
3
 62
     0
100
AcDbMText
 10
1808.195223803891
 20
1250.503837695807
 30
0.0
 40
3.599999999999999
 41
0.0
 71
     5
 72
     1
  1
\A1;400
 73
     1
 44
1.0
1001
ACAD
1000
MTEXTBEGIN
1070
    73
1070
     1
1070
    44
1040
1.0
1070
    74
1070
     0
1000
MTEXTEND
  0
POINT
  5
81FC
330
81F2
100
AcDbEntity
  8
DEFPOINTS
 62
     0
100
AcDbPoint
 10
1608.195223803891
 20
1402.899274892484
 30
0.0
  0
POINT
  5
81FD
330
81F2
100
AcDbEntity
  8
DEFPOINTS
 62
     0
100
AcDbPoint
 10
2008.195223803891
 20
1402.899274892484
 30
0.0
  0
POINT
  5
81FE
330
81F2
100
AcDbEntity
  8
DEFPOINTS
 62
     0
100
AcDbPoint
 10
2008.195223803891
 20
1250.503837695807
 30
0.0
  0
ENDBLK
  5
81F4
330
81F2
100
AcDbEntity
  8
0
100
AcDbBlockEnd
  0
BLOCK
  5
8200
330
81FF
100
AcDbEntity
  8
0
100
AcDbBlockBegin
  2
*D40
 70
     1
 10
0.0
 20
0.0
 30
0.0
  3
*D40
  1

  0
LINE
  5
8202
330
81FF
100
AcDbEntity
  8
3
 62
     0
370
    -2
100
AcDbLine
 10
2009.445223803891
 20
1502.899274892484
 30
0.0
 11
2265.505517747098
 21
1502.899274892484
 31
0.0
  0
LINE
  5
8203
330
81FF
100
AcDbEntity
  8
3
 62
     0
370
    -2
100
AcDbLine
 10
2009.445223803891
 20
1402.899274892484
 30
0.0
 11
2265.505517747098
 21
1402.899274892484
 31
0.0
  0
LINE
  5
8204
330
81FF
100
AcDbEntity
  8
3
 62
     0
370
    -2
100
AcDbLine
 10
2261.905517747099
 20
1499.299274892484
 30
0.0
 11
2261.905517747099
 21
1456.499274892484
 31
0.0
  0
LINE
  5
8205
330
81FF
100
AcDbEntity
  8
3
 62
     0
370
    -2
100
AcDbLine
 10
2261.905517747099
 20
1406.499274892484
 30
0.0
 11
2261.905517747099
 21
1449.299274892484
 31
0.0
  0
SOLID
  5
8206
330
81FF
100
AcDbEntity
  8
3
 62
     0
100
AcDbTrace
 10
2261.305517747098
 20
1499.299274892484
 30
0.0
 11
2262.505517747098
 21
1499.299274892484
 31
0.0
 12
2261.905517747099
 22
1502.899274892484
 32
0.0
 13
2261.905517747099
 23
1502.899274892484
 33
0.0
  0
SOLID
  5
8207
330
81FF
100
AcDbEntity
  8
3
 62
     0
100
AcDbTrace
 10
2261.305517747098
 20
1406.499274892484
 30
0.0
 11
2262.505517747098
 21
1406.499274892484
 31
0.0
 12
2261.905517747099
 22
1402.899274892484
 32
0.0
 13
2261.905517747099
 23
1402.899274892484
 33
0.0
  0
MTEXT
  5
8208
330
81FF
100
AcDbEntity
  8
3
 62
     0
100
AcDbMText
 10
2261.905517747098
 20
1452.899274892484
 30
0.0
 40
3.599999999999999
 41
0.0
 71
     5
 72
     1
  1
\A1;100.0000
 73
     1
 44
1.0
1001
ACAD
1000
MTEXTBEGIN
1070
    73
1070
     1
1070
    44
1040
1.0
1070
    74
1070
     0
1000
MTEXTEND
  0
POINT
  5
8209
330
81FF
100
AcDbEntity
  8
DEFPOINTS
 62
     0
100
AcDbPoint
 10
2008.195223803891
 20
1502.899274892484
 30
0.0
  0
POINT
  5
820A
330
81FF
100
AcDbEntity
  8
DEFPOINTS
 62
     0
100
AcDbPoint
 10
2008.195223803891
 20
1402.899274892484
 30
0.0
  0
POINT
  5
820B
330
81FF
100
AcDbEntity
  8
DEFPOINTS
 62
     0
100
AcDbPoint
 10
2261.905517747099
 20
1402.899274892484
 30
0.0
  0
ENDBLK
  5
8201
330
81FF
100
AcDbEntity
  8
0
100
AcDbBlockEnd
  0
BLOCK
  5
820E
330
820D
100
AcDbEntity
  8
0
100
AcDbBlockBegin
  2
*D41
 70
     1
 10
0.0
 20
0.0
 30
0.0
  3
*D41
  1

  0
LINE
  5
8210
330
820D
100
AcDbEntity
  8
3
 62
     0
370
    -2
100
AcDbLine
 10
2694.329593074301
 20
1382.899274892484
 30
0.0
 11
2694.329593074301
 21
1254.695815237022
 31
0.0
  0
LINE
  5
8211
330
820D
100
AcDbEntity
  8
3
 62
     0
370
    -2
100
AcDbLine
 10
3247.3295930743
 20
1382.899274892484
 30
0.0
 11
3247.3295930743
 21
1254.695815237022
 31
0.0
  0
LINE
  5
8212
330
820D
100
AcDbEntity
  8
3
 62
     0
370
    -2
100
AcDbLine
 10
2734.329593074301
 20
1274.695815237022
 30
0.0
 11
3207.3295930743
 21
1274.695815237022
 31
0.0
  0
INSERT
  5
8213
330
820D
100
AcDbEntity
  8
3
 62
     0
370
    -2
100
AcDbBlockReference
  2
_OPEN
 10
2694.329593074301
 20
1274.695815237022
 30
0.0
 41
40.0
 42
40.0
 43
40.0
 50
180.0
  0
INSERT
  5
8214
330
820D
100
AcDbEntity
  8
3
 62
     0
370
    -2
100
AcDbBlockReference
  2
_OPEN
 10
3247.3295930743
 20
1274.695815237022
 30
0.0
 41
40.0
 42
40.0
 43
40.0
  0
MTEXT
  5
8215
330
820D
100
AcDbEntity
  8
3
 62
     0
100
AcDbMText
 10
2970.829593074301
 20
1324.695815237022
 30
0.0
 40
60.0
 41
0.0
 71
     5
 72
     1
  1
\A1;553
 73
     1
 44
1.0
1001
ACAD
1000
MTEXTBEGIN
1070
    73
1070
     1
1070
    44
1040
1.0
1070
    74
1070
     0
1000
MTEXTEND
  0
POINT
  5
8216
330
820D
100
AcDbEntity
  8
DEFPOINTS
 62
     0
100
AcDbPoint
 10
2694.329593074301
 20
1402.899274892484
 30
0.0
  0
POINT
  5
8217
330
820D
100
AcDbEntity
  8
DEFPOINTS
 62
     0
100
AcDbPoint
 10
3247.3295930743
 20
1402.899274892484
 30
0.0
  0
POINT
  5
8218
330
820D
100
AcDbEntity
  8
DEFPOINTS
 62
     0
100
AcDbPoint
 10
3247.3295930743
 20
1274.695815237022
 30
0.0
  0
ENDBLK
  5
820F
330
820D
100
AcDbEntity
  8
0
100
AcDbBlockEnd
  0
BLOCK
  5
821B
330
821A
100
AcDbEntity
  8
0
100
AcDbBlockBegin
  2
*D42
 70
     1
 10
0.0
 20
0.0
 30
0.0
  3
*D42
  1

  0
LINE
  5
821D
330
821A
100
AcDbEntity
  8
3
 62
     0
370
    -2
100
AcDbLine
 10
3247.3295930743
 20
1382.899274892484
 30
0.0
 11
3247.3295930743
 21
1254.695815237022
 31
0.0
  0
LINE
  5
821E
330
821A
100
AcDbEntity
  8
3
 62
     0
370
    -2
100
AcDbLine
 10
3700.329593074302
 20
1382.899274892484
 30
0.0
 11
3700.329593074302
 21
1254.695815237022
 31
0.0
  0
LINE
  5
821F
330
821A
100
AcDbEntity
  8
3
 62
     0
370
    -2
100
AcDbLine
 10
3287.3295930743
 20
1274.695815237022
 30
0.0
 11
3660.329593074301
 21
1274.695815237022
 31
0.0
  0
INSERT
  5
8220
330
821A
100
AcDbEntity
  8
3
 62
     0
370
    -2
100
AcDbBlockReference
  2
_OPEN
 10
3247.3295930743
 20
1274.695815237022
 30
0.0
 41
40.0
 42
40.0
 43
40.0
 50
180.0
  0
INSERT
  5
8221
330
821A
100
AcDbEntity
  8
3
 62
     0
370
    -2
100
AcDbBlockReference
  2
_OPEN
 10
3700.329593074302
 20
1274.695815237022
 30
0.0
 41
40.0
 42
40.0
 43
40.0
  0
MTEXT
  5
8222
330
821A
100
AcDbEntity
  8
3
 62
     0
100
AcDbMText
 10
3473.829593074301
 20
1324.695815237022
 30
0.0
 40
60.0
 41
0.0
 71
     5
 72
     1
  1
\A1;453
 73
     1
 44
1.0
1001
ACAD
1000
MTEXTBEGIN
1070
    73
1070
     1
1070
    44
1040
1.0
1070
    74
1070
     0
1000
MTEXTEND
  0
POINT
  5
8223
330
821A
100
AcDbEntity
  8
DEFPOINTS
 62
     0
100
AcDbPoint
 10
3247.3295930743
 20
1402.899274892484
 30
0.0
  0
POINT
  5
8224
330
821A
100
AcDbEntity
  8
DEFPOINTS
 62
     0
100
AcDbPoint
 10
3700.329593074302
 20
1402.899274892484
 30
0.0
  0
POINT
  5
8225
330
821A
100
AcDbEntity
  8
DEFPOINTS
 62
     0
100
AcDbPoint
 10
3700.329593074302
 20
1274.695815237022
 30
0.0
  0
ENDBLK
  5
821C
330
821A
100
AcDbEntity
  8
0
100
AcDbBlockEnd
  0
BLOCK
  5
8228
330
8227
100
AcDbEntity
  8
0
100
AcDbBlockBegin
  2
*D43
 70
     1
 10
0.0
 20
0.0
 30
0.0
  3
*D43
  1

  0
LINE
  5
8281
330
8227
100
AcDbEntity
  8
3
 62
     0
370
    -2
100
AcDbLine
 10
2135.088196906886
 20
2162.899274892485
 30
0.0
 11
2281.905517747097
 21
2162.899274892485
 31
0.0
  0
LINE
  5
8282
330
8227
100
AcDbEntity
  8
3
 62
     0
370
    -2
100
AcDbLine
 10
2028.195223803891
 20
1582.899274892485
 30
0.0
 11
2281.905517747097
 21
1582.899274892485
 31
0.0
  0
LINE
  5
8283
330
8227
100
AcDbEntity
  8
3
 62
     0
370
    -2
100
AcDbLine
 10
2261.905517747097
 20
2122.899274892484
 30
0.0
 11
2261.905517747097
 21
1622.899274892485
 31
0.0
  0
INSERT
  5
8284
330
8227
100
AcDbEntity
  8
3
 62
     0
370
    -2
100
AcDbBlockReference
  2
_OPEN
 10
2261.905517747097
 20
2162.899274892485
 30
0.0
 41
40.0
 42
40.0
 43
40.0
 50
90.0
  0
INSERT
  5
8285
330
8227
100
AcDbEntity
  8
3
 62
     0
370
    -2
100
AcDbBlockReference
  2
_OPEN
 10
2261.905517747097
 20
1582.899274892485
 30
0.0
 41
40.0
 42
40.0
 43
40.0
 50
270.0
  0
MTEXT
  5
8286
330
8227
100
AcDbEntity
  8
3
 62
     0
100
AcDbMText
 10
2211.905517747097
 20
1872.899274892485
 30
0.0
 40
60.0
 41
0.0
 71
     5
 72
     1
  1
\A1;580
 11
0.0000000000000001
 21
1.0
 31
0.0
 73
     1
 44
1.0
1001
ACAD
1000
MTEXTBEGIN
1070
    73
1070
     1
1070
    44
1040
1.0
1070
    74
1070
     0
1000
MTEXTEND
  0
POINT
  5
8287
330
8227
100
AcDbEntity
  8
DEFPOINTS
 62
     0
100
AcDbPoint
 10
2115.088196906886
 20
2162.899274892485
 30
0.0
  0
POINT
  5
8288
330
8227
100
AcDbEntity
  8
DEFPOINTS
 62
     0
100
AcDbPoint
 10
2008.195223803891
 20
1582.899274892485
 30
0.0
  0
POINT
  5
8289
330
8227
100
AcDbEntity
  8
DEFPOINTS
 62
     0
100
AcDbPoint
 10
2261.905517747097
 20
1582.899274892485
 30
0.0
  0
ENDBLK
  5
8229
330
8227
100
AcDbEntity
  8
0
100
AcDbBlockEnd
  0
BLOCK
  5
8235
330
8234
100
AcDbEntity
  8
0
100
AcDbBlockBegin
  2
*D44
 70
     1
 10
0.0
 20
0.0
 30
0.0
  3
*D44
  1

  0
LINE
  5
8340
330
8234
100
AcDbEntity
  8
3
 62
     0
370
    -2
100
AcDbLine
 10
2028.195223803891
 20
1582.899274892485
 30
0.0
 11
2281.905517747097
 21
1582.899274892485
 31
0.0
  0
LINE
  5
8341
330
8234
100
AcDbEntity
  8
3
 62
     0
370
    -2
100
AcDbLine
 10
2028.195223803891
 20
1502.899274892484
 30
0.0
 11
2281.905517747097
 21
1502.899274892484
 31
0.0
  0
LINE
  5
8342
330
8234
100
AcDbEntity
  8
3
 62
     0
370
    -2
100
AcDbLine
 10
2261.905517747097
 20
1542.899274892485
 30
0.0
 11
2261.905517747097
 21
1502.899274892484
 31
0.0
  0
LINE
  5
8343
330
8234
100
AcDbEntity
  8
3
 62
     0
370
    -2
100
AcDbLine
 10
2261.905517747097
 20
1542.899274892484
 30
0.0
 11
2388.443912725518
 21
1599.042132035341
 31
0.0
  0
LINE
  5
8344
330
8234
100
AcDbEntity
  8
3
 62
     0
370
    -2
100
AcDbLine
 10
2388.443912725518
 20
1599.042132035341
 30
0.0
 11
2388.443912725518
 21
1813.327846321056
 31
0.0
  0
MTEXT
  5
8345
330
8234
100
AcDbEntity
  8
3
 62
     0
100
AcDbMText
 10
2322.729627011232
 20
1706.184989178199
 30
0.0
 40
60.0
 41
0.0
 71
     5
 72
     1
  1
\A1;(80)
 11
0.0000000000000001
 21
1.0
 31
0.0
 73
     1
 44
1.0
1001
ACAD
1000
MTEXTBEGIN
1070
    73
1070
     1
1070
    44
1040
1.0
1070
    74
1070
     0
1000
MTEXTEND
  0
INSERT
  5
8346
330
8234
100
AcDbEntity
  8
3
 62
     0
370
    -2
100
AcDbBlockReference
  2
_OPEN
 10
2261.905517747097
 20
1582.899274892485
 30
0.0
 41
40.0
 42
40.0
 43
40.0
 50
90.0
  0
INSERT
  5
8347
330
8234
100
AcDbEntity
  8
3
 62
     0
370
    -2
100
AcDbBlockReference
  2
_DotSmall
 10
2261.905517747097
 20
1502.899274892484
 30
0.0
 41
40.0
 42
40.0
 43
40.0
 50
270.0
  0
POINT
  5
8348
330
8234
100
AcDbEntity
  8
DEFPOINTS
 62
     0
100
AcDbPoint
 10
2008.195223803891
 20
1582.899274892485
 30
0.0
  0
POINT
  5
8349
330
8234
100
AcDbEntity
  8
DEFPOINTS
 62
     0
100
AcDbPoint
 10
2008.195223803891
 20
1502.899274892484
 30
0.0
  0
POINT
  5
834A
330
8234
100
AcDbEntity
  8
DEFPOINTS
 62
     0
100
AcDbPoint
 10
2261.905517747097
 20
1502.899274892484
 30
0.0
  0
ENDBLK
  5
8236
330
8234
100
AcDbEntity
  8
0
100
AcDbBlockEnd
  0
BLOCK
  5
8247
330
8246
100
AcDbEntity
  8
0
100
AcDbBlockBegin
  2
*D45
 70
     1
 10
0.0
 20
0.0
 30
0.0
  3
*D45
  1

  0
LINE
  5
8397
330
8246
100
AcDbEntity
  8
3
 62
     0
370
    -2
100
AcDbLine
 10
2028.195223803891
 20
1502.899274892484
 30
0.0
 11
2281.905517747097
 21
1502.899274892484
 31
0.0
  0
LINE
  5
8398
330
8246
100
AcDbEntity
  8
3
 62
     0
370
    -2
100
AcDbLine
 10
2028.195223803891
 20
1402.899274892484
 30
0.0
 11
2281.905517747097
 21
1402.899274892484
 31
0.0
  0
LINE
  5
8399
330
8246
100
AcDbEntity
  8
3
 62
     0
370
    -2
100
AcDbLine
 10
2261.905517747097
 20
1502.899274892484
 30
0.0
 11
2261.905517747097
 21
1442.899274892484
 31
0.0
  0
MTEXT
  5
839A
330
8246
100
AcDbEntity
  8
3
 62
     0
100
AcDbMText
 10
2209.903046837768
 20
1315.734216743314
 30
0.0
 40
60.0
 41
0.0
 71
     5
 72
     1
  1
\A1;100
 11
0.0000000000000001
 21
1.0
 31
0.0
 73
     1
 44
1.0
1001
ACAD
1000
MTEXTBEGIN
1070
    73
1070
     1
1070
    44
1040
1.0
1070
    74
1070
     0
1000
MTEXTEND
  0
INSERT
  5
839B
330
8246
100
AcDbEntity
  8
3
 62
     0
370
    -2
100
AcDbBlockReference
  2
_DotSmall
 10
2261.905517747097
 20
1502.899274892484
 30
0.0
 41
40.0
 42
40.0
 43
40.0
 50
90.0
  0
INSERT
  5
839C
330
8246
100
AcDbEntity
  8
3
 62
     0
370
    -2
100
AcDbBlockReference
  2
_OPEN
 10
2261.905517747097
 20
1402.899274892484
 30
0.0
 41
40.0
 42
40.0
 43
40.0
 50
270.0
  0
POINT
  5
839D
330
8246
100
AcDbEntity
  8
DEFPOINTS
 62
     0
100
AcDbPoint
 10
2008.195223803891
 20
1502.899274892484
 30
0.0
  0
POINT
  5
839E
330
8246
100
AcDbEntity
  8
DEFPOINTS
 62
     0
100
AcDbPoint
 10
2008.195223803891
 20
1402.899274892484
 30
0.0
  0
POINT
  5
839F
330
8246
100
AcDbEntity
  8
DEFPOINTS
 62
     0
100
AcDbPoint
 10
2261.905517747097
 20
1402.899274892484
 30
0.0
  0
ENDBLK
  5
8248
330
8246
100
AcDbEntity
  8
0
100
AcDbBlockEnd
  0
BLOCK
  5
82C1
330
82C0
100
AcDbEntity
  8
0
100
AcDbBlockBegin
  2
*D46
 70
     1
 10
0.0
 20
0.0
 30
0.0
  3
*D46
  1

  0
LINE
  5
82D5
330
82C0
100
AcDbEntity
  8
3
 62
     0
370
    -2
100
AcDbLine
 10
2028.195223803891
 20
1402.899274892484
 30
0.0
 11
2433.767562549875
 21
1402.899274892484
 31
0.0
  0
LINE
  5
82D6
330
82C0
100
AcDbEntity
  8
3
 62
     0
370
    -2
100
AcDbLine
 10
1642.195223803891
 20
2622.899274892485
 30
0.0
 11
2433.767562549875
 21
2622.899274892485
 31
0.0
  0
LINE
  5
82D7
330
82C0
100
AcDbEntity
  8
3
 62
     0
370
    -2
100
AcDbLine
 10
2413.767562549874
 20
1442.899274892484
 30
0.0
 11
2413.767562549874
 21
2582.899274892485
 31
0.0
  0
INSERT
  5
82D8
330
82C0
100
AcDbEntity
  8
3
 62
     0
370
    -2
100
AcDbBlockReference
  2
_OPEN
 10
2413.767562549874
 20
1402.899274892484
 30
0.0
 41
40.0
 42
40.0
 43
40.0
 50
270.0
  0
INSERT
  5
82D9
330
82C0
100
AcDbEntity
  8
3
 62
     0
370
    -2
100
AcDbBlockReference
  2
_OPEN
 10
2413.767562549874
 20
2622.899274892485
 30
0.0
 41
40.0
 42
40.0
 43
40.0
 50
90.0
  0
MTEXT
  5
82DA
330
82C0
100
AcDbEntity
  8
3
 62
     0
100
AcDbMText
 10
2348.053276835588
 20
2012.899274892485
 30
0.0
 40
60.0
 41
0.0
 71
     5
 72
     1
  1
\A1;(1220)
 11
0.0000000000000001
 21
1.0
 31
0.0
 73
     1
 44
1.0
1001
ACAD
1000
MTEXTBEGIN
1070
    73
1070
     1
1070
    44
1040
1.0
1070
    74
1070
     0
1000
MTEXTEND
  0
POINT
  5
82DB
330
82C0
100
AcDbEntity
  8
DEFPOINTS
 62
     0
100
AcDbPoint
 10
2008.195223803891
 20
1402.899274892484
 30
0.0
  0
POINT
  5
82DC
330
82C0
100
AcDbEntity
  8
DEFPOINTS
 62
     0
100
AcDbPoint
 10
1622.19522380389
 20
2622.899274892485
 30
0.0
  0
POINT
  5
82DD
330
82C0
100
AcDbEntity
  8
DEFPOINTS
 62
     0
100
AcDbPoint
 10
2413.767562549874
 20
2622.899274892485
 30
0.0
  0
ENDBLK
  5
82C2
330
82C0
100
AcDbEntity
  8
0
100
AcDbBlockEnd
  0
BLOCK
  5
833E
330
833C
100
AcDbEntity
  8
0
100
AcDbBlockBegin
  2
_DotSmall
 70
     0
 10
0.0
 20
0.0
 30
0.0
  3
_DotSmall
  1

  0
LWPOLYLINE
  5
833D
330
833C
100
AcDbEntity
  8
0
  6
ByBlock
 62
     0
100
AcDbPolyline
 90
        2
 70
     1
 43
0.5
 10
-0.0625
 20
0.0
 42
1.0
 10
0.0625
 20
0.0
 42
1.0
  0
ENDBLK
  5
833F
330
833C
100
AcDbEntity
  8
0
100
AcDbBlockEnd
  0
BLOCK
  5
83A2
330
83A1
100
AcDbEntity
  8
0
100
AcDbBlockBegin
  2
*D48
 70
     1
 10
0.0
 20
0.0
 30
0.0
  3
*D48
  1

  0
LINE
  5
83A4
330
83A1
100
AcDbEntity
  8
3
 62
     0
370
    -2
100
AcDbLine
 10
558.1952238038911
 20
1382.899274892484
 30
0.0
 11
558.1952238038911
 21
1250.073536992595
 31
0.0
  0
LINE
  5
83A5
330
83A1
100
AcDbEntity
  8
3
 62
     0
370
    -2
100
AcDbLine
 10
1608.195223803891
 20
1382.899274892484
 30
0.0
 11
1608.195223803891
 21
1250.073536992595
 31
0.0
  0
LINE
  5
83A6
330
83A1
100
AcDbEntity
  8
3
 62
     0
370
    -2
100
AcDbLine
 10
598.1952238038911
 20
1270.073536992595
 30
0.0
 11
1568.195223803891
 21
1270.073536992595
 31
0.0
  0
INSERT
  5
83A7
330
83A1
100
AcDbEntity
  8
3
 62
     0
370
    -2
100
AcDbBlockReference
  2
_OPEN
 10
558.1952238038911
 20
1270.073536992595
 30
0.0
 41
40.0
 42
40.0
 43
40.0
 50
180.0
  0
INSERT
  5
83A8
330
83A1
100
AcDbEntity
  8
3
 62
     0
370
    -2
100
AcDbBlockReference
  2
_OPEN
 10
1608.195223803891
 20
1270.073536992595
 30
0.0
 41
40.0
 42
40.0
 43
40.0
  0
MTEXT
  5
83A9
330
83A1
100
AcDbEntity
  8
3
 62
     0
100
AcDbMText
 10
1083.195223803891
 20
1320.073536992595
 30
0.0
 40
60.0
 41
0.0
 71
     5
 72
     1
  1
\A1;1050
 73
     1
 44
1.0
1001
ACAD
1000
MTEXTBEGIN
1070
    73
1070
     1
1070
    44
1040
1.0
1070
    74
1070
     0
1000
MTEXTEND
  0
POINT
  5
83AA
330
83A1
100
AcDbEntity
  8
DEFPOINTS
 62
     0
100
AcDbPoint
 10
558.1952238038911
 20
1402.899274892484
 30
0.0
  0
POINT
  5
83AB
330
83A1
100
AcDbEntity
  8
DEFPOINTS
 62
     0
100
AcDbPoint
 10
1608.195223803891
 20
1402.899274892484
 30
0.0
  0
POINT
  5
83AC
330
83A1
100
AcDbEntity
  8
DEFPOINTS
 62
     0
100
AcDbPoint
 10
1608.195223803891
 20
1270.073536992595
 30
0.0
  0
ENDBLK
  5
83A3
330
83A1
100
AcDbEntity
  8
0
100
AcDbBlockEnd
  0
BLOCK
  5
83AF
330
83AE
100
AcDbEntity
  8
0
100
AcDbBlockBegin
  2
*D49
 70
     1
 10
0.0
 20
0.0
 30
0.0
  3
*D49
  1

  0
LINE
  5
83B1
330
83AE
100
AcDbEntity
  8
3
 62
     0
370
    -2
100
AcDbLine
 10
1608.195223803891
 20
1382.899274892484
 30
0.0
 11
1608.195223803891
 21
1250.073536992595
 31
0.0
  0
LINE
  5
83B2
330
83AE
100
AcDbEntity
  8
3
 62
     0
370
    -2
100
AcDbLine
 10
2008.195223803891
 20
1382.899274892484
 30
0.0
 11
2008.195223803891
 21
1250.073536992595
 31
0.0
  0
LINE
  5
83B3
330
83AE
100
AcDbEntity
  8
3
 62
     0
370
    -2
100
AcDbLine
 10
1648.195223803891
 20
1270.073536992595
 30
0.0
 11
1968.19522380389
 21
1270.073536992595
 31
0.0
  0
INSERT
  5
83B4
330
83AE
100
AcDbEntity
  8
3
 62
     0
370
    -2
100
AcDbBlockReference
  2
_OPEN
 10
1608.195223803891
 20
1270.073536992595
 30
0.0
 41
40.0
 42
40.0
 43
40.0
 50
180.0
  0
INSERT
  5
83B5
330
83AE
100
AcDbEntity
  8
3
 62
     0
370
    -2
100
AcDbBlockReference
  2
_OPEN
 10
2008.195223803891
 20
1270.073536992595
 30
0.0
 41
40.0
 42
40.0
 43
40.0
  0
MTEXT
  5
83B6
330
83AE
100
AcDbEntity
  8
3
 62
     0
100
AcDbMText
 10
1808.195223803891
 20
1320.073536992595
 30
0.0
 40
60.0
 41
0.0
 71
     5
 72
     1
  1
\A1;400
 73
     1
 44
1.0
1001
ACAD
1000
MTEXTBEGIN
1070
    73
1070
     1
1070
    44
1040
1.0
1070
    74
1070
     0
1000
MTEXTEND
  0
POINT
  5
83B7
330
83AE
100
AcDbEntity
  8
DEFPOINTS
 62
     0
100
AcDbPoint
 10
1608.195223803891
 20
1402.899274892484
 30
0.0
  0
POINT
  5
83B8
330
83AE
100
AcDbEntity
  8
DEFPOINTS
 62
     0
100
AcDbPoint
 10
2008.195223803891
 20
1402.899274892484
 30
0.0
  0
POINT
  5
83B9
330
83AE
100
AcDbEntity
  8
DEFPOINTS
 62
     0
100
AcDbPoint
 10
2008.195223803891
 20
1270.073536992595
 30
0.0
  0
ENDBLK
  5
83B0
330
83AE
100
AcDbEntity
  8
0
100
AcDbBlockEnd
  0
ENDSEC
  0
SECTION
  2
ENTITIES
  0
INSERT
  5
7BED
330
80B1
100
AcDbEntity
  8
0
100
AcDbBlockReference
  2
YA_N
 10
6.0
 20
5.0
 30
0.0
  0
LINE
  5
7BEF
330
80B1
100
AcDbEntity
  8
2
100
AcDbLine
 10
852.4652819352773
 20
2162.899274892485
 30
0.0
 11
2115.088196906886
 21
2162.899274892485
 31
0.0
  0
LINE
  5
7BF0
330
80B1
100
AcDbEntity
  8
2
100
AcDbLine
 10
1608.195223803891
 20
2679.943802378379
 30
0.0
 11
1608.195223803891
 21
1402.899274892484
 31
0.0
  0
ARC
  5
7BF1
330
80B1
100
AcDbEntity
  8
1
100
AcDbCircle
 10
1561.195223803891
 20
2209.899274892484
 30
0.0
 40
595.0
100
AcDbArc
 50
184.5306050426826
 51
242.3395501006991
  0
ARC
  5
7BF2
330
80B1
100
AcDbEntity
  8
1
100
AcDbCircle
 10
1561.195223803891
 20
2115.899274892484
 30
0.0
 40
501.0
100
AcDbArc
 50
300.2003809902944
 51
5.382968649881329
  0
ARC
  5
7BF3
330
80B1
100
AcDbEntity
  8
1
100
AcDbCircle
 10
1646.195223803891
 20
2124.899274892484
 30
0.0
 40
416.0
100
AcDbArc
 50
5.241055061296708
 51
95.2410550612967
  0
LINE
  5
7BF4
330
80B1
100
AcDbEntity
  8
1
100
AcDbLine
 10
888.1952238038909
 20
2622.899274892485
 30
0.0
 11
1622.19522380389
 21
2622.899274892485
 31
0.0
  0
LINE
  5
7BF5
330
80B1
100
AcDbEntity
  8
1
100
AcDbLine
 10
930.1952238038909
 20
2622.899274892485
 30
0.0
 11
968.054431074206
 21
2162.899274892485
 31
0.0
  0
LINE
  5
7BF6
330
80B1
100
AcDbEntity
  8
1
100
AcDbLine
 10
1580.19522380389
 20
2539.8608113919
 30
0.0
 11
1580.19522380389
 21
2622.899274892485
 31
0.0
  0
LINE
  5
7BF7
330
80B1
100
AcDbEntity
  8
1
100
AcDbLine
 10
933.4873287839183
 20
2582.899274892485
 30
0.0
 11
1580.19522380389
 21
2582.899274892485
 31
0.0
  0
LINE
  5
7BF8
330
80B1
100
AcDbEntity
  8
1
100
AcDbLine
 10
888.1952238038909
 20
2619.899274892484
 30
0.0
 11
888.1952238038909
 21
2622.899274892485
 31
0.0
  0
LINE
  5
7BF9
330
80B1
100
AcDbEntity
  8
1
100
AcDbLine
 10
1622.19522380389
 20
2619.899274892484
 30
0.0
 11
1622.19522380389
 21
2622.899274892485
 31
0.0
  0
LINE
  5
7BFA
330
80B1
100
AcDbEntity
  8
1
100
AcDbLine
 10
888.1952238038909
 20
2619.899274892484
 30
0.0
 11
1622.19522380389
 21
2619.899274892484
 31
0.0
  0
LINE
  5
7BFB
330
80B1
100
AcDbEntity
  8
2
100
AcDbLine
 10
3247.329593074301
 20
2738.097239223859
 30
0.0
 11
3247.3295930743
 21
1402.899274892484
 31
0.0
  0
LINE
  5
7BFC
330
80B1
100
AcDbEntity
  8
2
100
AcDbLine
 10
2465.3295930743
 20
2162.899274892485
 30
0.0
 11
3753.001267696451
 21
2162.899274892485
 31
0.0
  0
LINE
  5
7BFD
330
80B1
100
AcDbEntity
  8
1
100
AcDbLine
 10
3700.329593074302
 20
1682.899274892484
 30
0.0
 11
3700.329593074302
 21
1677.429143679298
 31
0.0
  0
LINE
  5
7BFE
330
80B1
100
AcDbEntity
  8
1
100
AcDbLine
 10
3647.329593074302
 20
2622.899274892485
 30
0.0
 11
3647.329593074302
 21
2190.899274892485
 31
0.0
  0
LINE
  5
7BFF
330
80B1
100
AcDbEntity
  8
1
100
AcDbLine
 10
2807.3295930743
 20
2622.899274892485
 30
0.0
 11
3687.3295930743
 21
2622.899274892485
 31
0.0
  0
LINE
  5
7C00
330
80B1
100
AcDbEntity
  8
1
100
AcDbLine
 10
3647.3295930743
 20
2190.899274892485
 30
0.0
 11
3647.329593074302
 21
1682.899274892484
 31
0.0
  0
LINE
  5
7C01
330
80B1
100
AcDbEntity
  8
2
100
AcDbLine
 10
1608.195223803891
 20
4502.041537564497
 30
0.0
 11
1608.195223803891
 21
3217.690167787979
 31
0.0
  0
LINE
  5
7C02
330
80B1
100
AcDbEntity
  8
2
100
AcDbLine
 10
1006.347374105073
 20
4021.243451059675
 30
0.0
 11
2117.705758487713
 21
4021.243451059677
 31
0.0
  0
INSERT
  5
7C03
330
80B1
100
AcDbEntity
  8
0
100
AcDbBlockReference
  2
YA_N
 10
-1221.011981710642
 20
-542.7332483964637
 30
0.0
 41
15.0
 42
15.0
 43
15.0
  0
LINE
  5
7C05
330
80B1
100
AcDbEntity
  8
1
100
AcDbLine
 10
558.1952238038911
 20
1402.899274892484
 30
0.0
 11
2008.195223803891
 21
1402.899274892484
 31
0.0
  0
LINE
  5
7C06
330
80B1
100
AcDbEntity
  8
1
100
AcDbLine
 10
558.1952238038911
 20
1502.899274892484
 30
0.0
 11
2008.195223803891
 21
1502.899274892484
 31
0.0
1001
ACAD
1000
ASC_BOUNDS
1002
{
1070
    19
1005
0
1005
0
1002
}
  0
LINE
  5
7C07
330
80B1
100
AcDbEntity
  8
1
100
AcDbLine
 10
558.1952238038911
 20
1502.899274892484
 30
0.0
 11
558.1952238038911
 21
1402.899274892484
 31
0.0
  0
LINE
  5
7C08
330
80B1
100
AcDbEntity
  8
1
100
AcDbLine
 10
2008.195223803891
 20
1502.899274892484
 30
0.0
 11
2008.195223803891
 21
1402.899274892484
 31
0.0
  0
ARC
  5
7C09
330
80B1
100
AcDbEntity
  8
1
100
AcDbCircle
 10
758.1952238038909
 20
1899.899274892485
 30
0.0
 40
142.5
100
AcDbArc
 50
326.966192328012
 51
0.0
  0
ARC
  5
7C0A
330
80B1
100
AcDbEntity
  8
1
100
AcDbCircle
 10
758.1952238038909
 20
1899.899274892485
 30
0.0
 40
142.5
100
AcDbArc
 50
0.0
 51
213.0338683823617
  0
LINE
  5
7C0B
330
80B1
100
AcDbEntity
  8
2
100
AcDbLine
 10
758.1952238038909
 20
2061.498016009744
 30
0.0
 11
758.1952238038909
 21
1402.899274892484
 31
0.0
  0
LINE
  5
7C0C
330
80B1
100
AcDbEntity
  8
1
100
AcDbLine
 10
638.7305657949681
 20
1822.217581509736
 30
0.0
 11
628.1952238038911
 21
1782.899274892484
 31
0.0
  0
LINE
  5
7C0D
330
80B1
100
AcDbEntity
  8
1
100
AcDbLine
 10
628.1952238038911
 20
1782.701874892484
 30
0.0
 11
628.1952238038911
 21
1767.899274892484
 31
0.0
  0
LINE
  5
7C0E
330
80B1
100
AcDbEntity
  8
1
100
AcDbLine
 10
877.6599641239515
 20
1822.217708094044
 30
0.0
 11
888.1952238038909
 21
1782.899274892484
 31
0.0
  0
LINE
  5
7C0F
330
80B1
100
AcDbEntity
  8
1
100
AcDbLine
 10
888.1952238038909
 20
1782.701874892484
 30
0.0
 11
888.1952238038909
 21
1767.899274892484
 31
0.0
  0
LINE
  5
7C10
330
80B1
100
AcDbEntity
  8
2
100
AcDbLine
 10
587.6576589883008
 20
1899.899274892485
 30
0.0
 11
926.6959893295513
 21
1899.899274892485
 31
0.0
  0
LINE
  5
7C11
330
80B1
100
AcDbEntity
  8
1
100
AcDbLine
 10
958.1952238038912
 20
1722.899274892484
 30
0.0
 11
958.1952238038912
 21
1682.899274892484
 31
0.0
  0
LINE
  5
7C12
330
80B1
100
AcDbEntity
  8
1
100
AcDbLine
 10
558.1952238038911
 20
1722.899274892484
 30
0.0
 11
558.1952238038911
 21
1682.899274892484
 31
0.0
  0
LINE
  5
7C13
330
80B1
100
AcDbEntity
  8
1
100
AcDbLine
 10
558.1952238038911
 20
1722.899274892484
 30
0.0
 11
958.1952238038912
 21
1722.899274892484
 31
0.0
  0
LINE
  5
7C14
330
80B1
100
AcDbEntity
  8
1
100
AcDbLine
 10
594.3595671900966
 20
1767.899274892484
 30
0.0
 11
920.8177351952182
 21
1767.899274892484
 31
0.0
  0
LINE
  5
7C15
330
80B1
100
AcDbEntity
  8
1
100
AcDbLine
 10
583.1952238038911
 20
1722.899274892484
 30
0.0
 11
594.3595671900966
 21
1767.899274892484
 31
0.0
  0
LINE
  5
7C16
330
80B1
100
AcDbEntity
  8
1
100
AcDbLine
 10
933.1952238038912
 20
1722.899274892484
 30
0.0
 11
920.8177351952182
 21
1767.899274892484
 31
0.0
  0
LINE
  5
7C17
330
80B1
100
AcDbEntity
  8
1
100
AcDbLine
 10
2694.329593074301
 20
1502.899274892484
 30
0.0
 11
3700.329593074302
 21
1502.899274892484
 31
0.0
1001
ACAD
1000
ASC_BOUNDS
1002
{
1070
    19
1002
}
  0
LINE
  5
7C18
330
80B1
100
AcDbEntity
  8
1
100
AcDbLine
 10
2694.329593074301
 20
1402.899274892484
 30
0.0
 11
3700.329593074302
 21
1402.899274892484
 31
0.0
  0
LINE
  5
7C19
330
80B1
100
AcDbEntity
  8
1
100
AcDbLine
 10
2694.329593074301
 20
1502.899274892484
 30
0.0
 11
2694.329593074301
 21
1402.899274892484
 31
0.0
  0
LINE
  5
7C1A
330
80B1
100
AcDbEntity
  8
1
100
AcDbLine
 10
3700.329593074302
 20
1502.899274892484
 30
0.0
 11
3700.329593074302
 21
1402.899274892484
 31
0.0
  0
DIMENSION
  5
7C1C
330
80B1
100
AcDbEntity
  8
3
100
AcDbDimension
  2
*D5
 10
1580.19522380389
 20
2772.857096809494
 30
0.0
 11
1255.195223803891
 21
2812.857096809494
 31
0.0
 12
1028.542227409652
 22
1594.801648442364
 32
0.0
 71
     5
 42
-1.0
  3
Standard
100
AcDbAlignedDimension
 13
930.1952238038909
 23
2622.899274892485
 33
0.0
 14
1580.19522380389
 24
2622.899274892485
 34
0.0
 50
180.0
100
AcDbRotatedDimension
1001
ACAD
1000
DSTYLE
1002
{
1070
    40
1040
20.0
1002
}
  0
DIMENSION
  5
7C1D
330
80B1
100
AcDbEntity
  8
3
100
AcDbDimension
  2
*D6
 10
1608.195223803891
 20
2922.400941013177
 30
0.0
 11
1269.195223803891
 21
2962.400941013177
 31
0.0
 12
1028.542227409652
 22
1594.801648442364
 32
0.0
 71
     5
 42
-1.0
  3
Standard
100
AcDbAlignedDimension
 13
930.1952238038909
 23
2622.899274892485
 33
0.0
 14
1608.195223803891
 24
2669.79224799548
 34
0.0
 50
180.0
100
AcDbRotatedDimension
1001
ACAD
1000
DSTYLE
1002
{
1070
    40
1040
20.0
1002
}
  0
POINT
  5
7C1E
330
80B1
100
AcDbEntity
  8
1
100
AcDbPoint
 10
2008.195223803891
 20
1477.899274892484
 30
0.0
  0
LINE
  5
7C1F
330
80B1
100
AcDbEntity
  8
2
100
AcDbLine
 10
2465.3295930743
 20
1899.899274892485
 30
0.0
 11
2847.329593074301
 21
1899.899274892485
 31
0.0
  0
LINE
  5
7C21
330
80B1
100
AcDbEntity
  8
1
100
AcDbLine
 10
2847.329593074301
 20
2622.899274892485
 30
0.0
 11
2847.329593074301
 21
2190.899274892485
 31
0.0
  0
LINE
  5
7C22
330
80B1
100
AcDbEntity
  8
1
100
AcDbLine
 10
2847.329593074301
 20
2190.899274892485
 30
0.0
 11
2847.329593074301
 21
1682.899274892484
 31
0.0
  0
LINE
  5
7C23
330
80B1
100
AcDbEntity
  8
1
100
AcDbLine
 10
3757.329593074302
 20
2132.899274892484
 30
0.0
 11
3757.329593074302
 21
2032.899274892484
 31
0.0
  0
ARC
  5
7C24
330
80B1
100
AcDbEntity
  8
1
100
AcDbCircle
 10
3747.329593074301
 20
2132.899274892484
 30
0.0
 40
10.0
100
AcDbArc
 50
0.0
 51
90.0
  0
ARC
  5
7C25
330
80B1
100
AcDbEntity
  8
1
100
AcDbCircle
 10
3747.329593074301
 20
2032.899274892484
 30
0.0
 40
10.0
100
AcDbArc
 50
270.0
 51
0.0
  0
LINE
  5
7C26
330
80B1
100
AcDbEntity
  8
1
100
AcDbLine
 10
3647.329593074302
 20
2022.899274892484
 30
0.0
 11
3747.329593074301
 21
2022.899274892484
 31
0.0
  0
LINE
  5
7C27
330
80B1
100
AcDbEntity
  8
1
100
AcDbLine
 10
3647.329593074302
 20
2142.899274892485
 30
0.0
 11
3747.329593074301
 21
2142.899274892485
 31
0.0
  0
CIRCLE
  5
7C28
330
80B1
100
AcDbEntity
  8
1
100
AcDbCircle
 10
758.1952238038909
 20
1899.899274892485
 30
0.0
 40
79.0
  0
CIRCLE
  5
7C29
330
80B1
100
AcDbEntity
  8
1
100
AcDbCircle
 10
1608.195223803891
 20
2162.899274892485
 30
0.0
 40
88.9
  0
ARC
  5
7C2A
330
80B1
100
AcDbEntity
  8
1
100
AcDbCircle
 10
1608.195223803891
 20
2162.899274892485
 30
0.0
 40
150.0
100
AcDbArc
 50
282.4716975566092
 51
102.4716975566092
  0
ARC
  5
7C2B
330
80B1
100
AcDbEntity
  8
1
100
AcDbCircle
 10
758.1952238038909
 20
1899.899274892485
 30
0.0
 40
150.0
100
AcDbArc
 50
102.4716975566092
 51
282.4716975566092
  0
LINE
  5
7C2C
330
80B1
100
AcDbEntity
  8
1
100
AcDbLine
 10
1575.801624932592
 20
2309.359695321231
 30
0.0
 11
725.8016249325918
 21
2046.359695321231
 31
0.0
  0
LINE
  5
7C2D
330
80B1
100
AcDbEntity
  8
1
100
AcDbLine
 10
1588.010725137002
 20
2249.477540141716
 30
0.0
 11
740.2584927050811
 21
1976.836091030721
 31
0.0
  0
LINE
  5
7C2E
330
80B1
100
AcDbEntity
  8
1
100
AcDbLine
 10
1626.405454679519
 20
2075.884348061185
 30
0.0
 11
774.3775437046187
 21
1822.574424277494
 31
0.0
  0
LINE
  5
7C2F
330
80B1
100
AcDbEntity
  8
1
100
AcDbLine
 10
1640.58882267519
 20
2016.438854463737
 30
0.0
 11
790.5888226751904
 21
1753.438854463737
 31
0.0
  0
LINE
  5
7C30
330
80B1
100
AcDbEntity
  8
1
100
AcDbLine
 10
2595.329593074302
 20
2251.799274892485
 30
0.0
 11
2595.3295930743
 21
2073.999274892484
 31
0.0
  0
LINE
  5
7C31
330
80B1
100
AcDbEntity
  8
1
100
AcDbLine
 10
2677.329593074301
 20
2251.799274892485
 30
0.0
 11
2677.329593074301
 21
2073.999274892485
 31
0.0
  0
LINE
  5
7C32
330
80B1
100
AcDbEntity
  8
1
100
AcDbLine
 10
2595.329593074302
 20
2251.799274892485
 30
0.0
 11
2677.329593074301
 21
2251.799274892485
 31
0.0
  0
LINE
  5
7C33
330
80B1
100
AcDbEntity
  8
1
100
AcDbLine
 10
2595.3295930743
 20
2073.999274892484
 30
0.0
 11
2677.329593074301
 21
2073.999274892485
 31
0.0
  0
LINE
  5
7C34
330
80B1
100
AcDbEntity
  8
1
100
AcDbLine
 10
2595.3295930743
 20
1978.899274892484
 30
0.0
 11
2677.329593074301
 21
1978.899274892484
 31
0.0
  0
LINE
  5
7C35
330
80B1
100
AcDbEntity
  8
1
100
AcDbLine
 10
2595.329593074299
 20
1820.899274892484
 30
0.0
 11
2677.329593074299
 21
1820.899274892484
 31
0.0
  0
LINE
  5
7C36
330
80B1
100
AcDbEntity
  8
1
100
AcDbLine
 10
2467.329593074301
 20
2312.899274892485
 30
0.0
 11
2467.329593074299
 21
1749.899274892484
 31
0.0
  0
LINE
  5
7C37
330
80B1
100
AcDbEntity
  8
1
100
AcDbLine
 10
2727.329593074301
 20
2312.899274892485
 30
0.0
 11
2727.329593074302
 21
2292.899274892485
 31
0.0
  0
LINE
  5
7C38
330
80B1
100
AcDbEntity
  8
1
100
AcDbLine
 10
2467.329593074302
 20
2312.899274892485
 30
0.0
 11
2727.329593074301
 21
2312.899274892485
 31
0.0
  0
LINE
  5
7C39
330
80B1
100
AcDbEntity
  8
1
100
AcDbLine
 10
2467.329593074299
 20
1749.899274892484
 30
0.0
 11
2727.3295930743
 21
1749.899274892484
 31
0.0
  0
LINE
  5
7C3A
330
80B1
100
AcDbEntity
  8
1
100
AcDbLine
 10
2727.3295930743
 20
1757.399274892484
 30
0.0
 11
2727.3295930743
 21
1749.899274892484
 31
0.0
  0
LINE
  5
7C3B
330
80B1
100
AcDbEntity
  8
1
100
AcDbLine
 10
1208.195223803891
 20
4474.243451059678
 30
0.0
 11
2008.195223803892
 21
4474.243451059678
 31
0.0
  0
LINE
  5
7C3C
330
80B1
100
AcDbEntity
  8
1
100
AcDbLine
 10
558.1952238038911
 20
3468.243451059676
 30
0.0
 11
2008.195223803891
 21
3468.243451059676
 31
0.0
  0
LINE
  5
7C3D
330
80B1
100
AcDbEntity
  8
1
100
AcDbLine
 10
2008.195223803891
 20
4474.243451059678
 30
0.0
 11
2008.195223803891
 21
4421.243451059678
 31
0.0
  0
LINE
  5
7C3E
330
80B1
100
AcDbEntity
  8
1
100
AcDbLine
 10
1208.195223803891
 20
4474.243451059678
 30
0.0
 11
1208.195223803891
 21
4421.243451059676
 31
0.0
  0
LINE
  5
7C3F
330
80B1
100
AcDbEntity
  8
1
100
AcDbLine
 10
558.1952238038911
 20
4068.243451059675
 30
0.0
 11
558.1952238038911
 21
3468.243451059676
 31
0.0
  0
LINE
  5
7C40
330
80B1
100
AcDbEntity
  8
1
100
AcDbLine
 10
558.1952238038911
 20
4068.243451059674
 30
0.0
 11
930.1952238038909
 21
4068.243451059675
 31
0.0
  0
POINT
  5
7C41
330
80B1
100
AcDbEntity
  8
1
100
AcDbPoint
 10
2008.195223803891
 20
1612.899274892484
 30
0.0
  0
POINT
  5
7C42
330
80B1
100
AcDbEntity
  8
1
100
AcDbPoint
 10
2008.195223803891
 20
1477.899274892484
 30
0.0
  0
POINT
  5
7C43
330
80B1
100
AcDbEntity
  8
1
100
AcDbPoint
 10
2008.195223803891
 20
1612.899274892484
 30
0.0
  0
DIMENSION
  5
7C44
330
80B1
100
AcDbEntity
  8
3
100
AcDbDimension
  2
*D7
 10
3900.866626644966
 20
1827.899274892484
 30
0.0
 11
3860.866626644965
 21
2162.899274892485
 31
0.0
 12
680.0333995910185
 22
1594.801648442364
 32
0.0
 71
     5
 42
-1.0
  3
Standard
100
AcDbAlignedDimension
 13
3652.829593074303
 23
2497.899274892485
 33
0.0
 14
3652.829593074303
 24
1827.899274892484
 34
0.0
 50
90.0
100
AcDbRotatedDimension
1001
ACAD
1000
DSTYLE
1002
{
1070
    40
1040
20.0
1070
     3
1000
\U+03C6<>
1002
}
  0
DIMENSION
  5
7C47
330
80B1
100
AcDbEntity
  8
3
100
AcDbDimension
  2
*D8
 10
3647.3295930743
 20
2754.56938158193
 30
0.0
 11
3247.3295930743
 21
2794.56938158193
 31
0.0
 71
     5
 42
-1.0
  3
Standard
100
AcDbAlignedDimension
 13
2847.329593074301
 23
2622.899274892485
 33
0.0
 14
3647.3295930743
 24
2622.899274892485
 34
0.0
100
AcDbRotatedDimension
1001
ACAD
1000
DSTYLE
1002
{
1070
    40
1040
20.0
1002
}
  0
ARC
  5
7C48
330
80B1
100
AcDbEntity
  8
1
100
AcDbCircle
 10
2754.8295930743
 20
2129.699274892484
 30
0.0
 40
10.0
100
AcDbArc
 50
90.0
 51
180.0
  0
ARC
  5
7C49
330
80B1
100
AcDbEntity
  8
1
100
AcDbCircle
 10
2754.8295930743
 20
2029.699274892484
 30
0.0
 40
10.0
100
AcDbArc
 50
180.0
 51
270.0
  0
LINE
  5
7C4A
330
80B1
100
AcDbEntity
  8
1
100
AcDbLine
 10
2847.329593074301
 20
2019.699274892484
 30
0.0
 11
2754.8295930743
 21
2019.699274892484
 31
0.0
  0
LINE
  5
7C4B
330
80B1
100
AcDbEntity
  8
1
100
AcDbLine
 10
2847.329593074301
 20
2139.699274892484
 30
0.0
 11
2754.8295930743
 21
2139.699274892484
 31
0.0
  0
LINE
  5
7C4C
330
80B1
100
AcDbEntity
  8
1
100
AcDbLine
 10
2744.8295930743
 20
2129.699274892484
 30
0.0
 11
2744.8295930743
 21
2029.699274892484
 31
0.0
  0
LINE
  5
7C4D
330
80B1
100
AcDbEntity
  8
1
100
AcDbLine
 10
2677.329593074301
 20
2137.899274892484
 30
0.0
 11
2749.2295930743
 21
2137.899274892484
 31
0.0
  0
LINE
  5
7C4F
330
80B1
100
AcDbEntity
  8
1
100
AcDbLine
 10
2008.195223803891
 20
1682.899274892484
 30
0.0
 11
2008.195223803891
 21
1582.899274892485
 31
0.0
  0
LINE
  5
7C50
330
80B1
100
AcDbEntity
  8
1
100
AcDbLine
 10
558.1952238038911
 20
1682.899274892484
 30
0.0
 11
2008.195223803891
 21
1682.899274892484
 31
0.0
1001
ACAD
1000
ASC_BOUNDS
1002
{
1070
    19
1005
0
1005
0
1002
}
  0
LINE
  5
7C51
330
80B1
100
AcDbEntity
  8
1
100
AcDbLine
 10
558.1952238038911
 20
1582.899274892485
 30
0.0
 11
2008.195223803891
 21
1582.899274892485
 31
0.0
  0
LINE
  5
7C52
330
80B1
100
AcDbEntity
  8
1
100
AcDbLine
 10
558.1952238038911
 20
1682.899274892484
 30
0.0
 11
558.1952238038911
 21
1582.899274892485
 31
0.0
  0
LINE
  5
7C53
330
80B1
100
AcDbEntity
  8
1
100
AcDbLine
 10
2694.329593074301
 20
1682.899274892484
 30
0.0
 11
3699.629593074302
 21
1682.899274892484
 31
0.0
1001
ACAD
1000
ASC_BOUNDS
1002
{
1070
    19
1002
}
  0
LINE
  5
7C54
330
80B1
100
AcDbEntity
  8
1
100
AcDbLine
 10
2694.329593074301
 20
1682.899274892484
 30
0.0
 11
2694.329593074301
 21
1582.899274892485
 31
0.0
  0
LINE
  5
7C55
330
80B1
100
AcDbEntity
  8
1
100
AcDbLine
 10
2694.329593074301
 20
1582.899274892485
 30
0.0
 11
3700.3295930743
 21
1582.899274892485
 31
0.0
  0
LINE
  5
7C56
330
80B1
100
AcDbEntity
  8
1
100
AcDbLine
 10
3700.329593074302
 20
1682.899274892484
 30
0.0
 11
3700.329593074302
 21
1582.899274892485
 31
0.0
  0
ARC
  5
7C57
330
80B1
100
AcDbEntity
  8
1
100
AcDbCircle
 10
1608.195223803891
 20
2162.899274892485
 30
0.0
 40
378.0
100
AcDbArc
 50
0.0
 51
4.248022666728545
  0
LINE
  5
7C58
330
80B1
100
AcDbEntity
  8
1
100
AcDbLine
 10
930.1952238038909
 20
4421.243451059676
 30
0.0
 11
2062.195223803891
 21
4421.243451059678
 31
0.0
  0
LINE
  5
7C59
330
80B1
100
AcDbEntity
  8
1
100
AcDbLine
 10
930.1952238038909
 20
3621.243451059676
 30
0.0
 11
2062.195223803891
 21
3621.243451059677
 31
0.0
  0
LINE
  5
7C5A
330
80B1
100
AcDbEntity
  8
1
100
AcDbLine
 10
2008.195223803891
 20
3621.243451059676
 30
0.0
 11
2008.195223803891
 21
3468.243451059676
 31
0.0
  0
LINE
  5
7C5B
330
80B1
100
AcDbEntity
  8
1
100
AcDbLine
 10
679.1952238038911
 20
3369.243451059676
 30
0.0
 11
837.1952238038909
 21
3369.243451059676
 31
0.0
  0
LINE
  5
7C5C
330
80B1
100
AcDbEntity
  8
1
100
AcDbLine
 10
679.1952238038911
 20
3451.243451059678
 30
0.0
 11
837.1952238038909
 21
3451.243451059678
 31
0.0
  0
LINE
  5
7C5D
330
80B1
100
AcDbEntity
  8
1
100
AcDbLine
 10
1697.095223803891
 20
3451.243451059677
 30
0.0
 11
1697.095223803891
 21
3369.243451059676
 31
0.0
  0
LINE
  5
7C5E
330
80B1
100
AcDbEntity
  8
1
100
AcDbLine
 10
1519.29522380389
 20
3451.243451059677
 30
0.0
 11
1519.29522380389
 21
3369.243451059676
 31
0.0
  0
LINE
  5
7C5F
330
80B1
100
AcDbEntity
  8
1
100
AcDbLine
 10
837.1952238038909
 20
3451.243451059677
 30
0.0
 11
837.1952238038909
 21
3369.243451059676
 31
0.0
  0
LINE
  5
7C60
330
80B1
100
AcDbEntity
  8
1
100
AcDbLine
 10
679.1952238038911
 20
3451.243451059677
 30
0.0
 11
679.1952238038911
 21
3369.243451059676
 31
0.0
  0
LINE
  5
7C61
330
80B1
100
AcDbEntity
  8
1
100
AcDbLine
 10
608.1952238038911
 20
3241.243451059676
 30
0.0
 11
1758.195223803891
 21
3241.243451059676
 31
0.0
  0
LINE
  5
7C62
330
80B1
100
AcDbEntity
  8
1
100
AcDbLine
 10
1758.195223803891
 20
3501.243451059676
 30
0.0
 11
1758.195223803891
 21
3241.243451059676
 31
0.0
  0
LINE
  5
7C63
330
80B1
100
AcDbEntity
  8
1
100
AcDbLine
 10
608.1952238038911
 20
3501.243451059675
 30
0.0
 11
608.1952238038911
 21
3241.243451059676
 31
0.0
  0
LINE
  5
7C64
330
80B1
100
AcDbEntity
  8
1
100
AcDbLine
 10
608.1952238038911
 20
3501.243451059675
 30
0.0
 11
1758.195223803891
 21
3501.243451059676
 31
0.0
  0
LINE
  5
7C65
330
80B1
100
AcDbEntity
  8
1
100
AcDbLine
 10
1519.295223803891
 20
3451.243451059677
 30
0.0
 11
1697.095223803891
 21
3451.243451059677
 31
0.0
  0
LINE
  5
7C66
330
80B1
100
AcDbEntity
  8
1
100
AcDbLine
 10
1519.29522380389
 20
3369.243451059676
 30
0.0
 11
1697.095223803891
 21
3369.243451059678
 31
0.0
  0
LINE
  5
7C67
330
80B1
100
AcDbEntity
  8
2
100
AcDbLine
 10
758.1952238038909
 20
3929.834344226298
 30
0.0
 11
758.1952238038909
 21
3217.690167787979
 31
0.0
  0
LINE
  5
7C68
330
80B1
100
AcDbEntity
  8
1
100
AcDbLine
 10
900.6952238038909
 20
3888.243151059675
 30
0.0
 11
615.6952238038911
 21
3888.243151059675
 31
0.0
  0
LINE
  5
7C69
330
80B1
100
AcDbEntity
  8
1
100
AcDbLine
 10
900.6952238038909
 20
3498.243451059676
 30
0.0
 11
615.6952238038911
 21
3498.243451059676
 31
0.0
  0
LINE
  5
7C6A
330
80B1
100
AcDbEntity
  8
1
100
AcDbLine
 10
739.1952238038909
 20
3498.243451059676
 30
0.0
 11
739.1952238038909
 21
3451.243451059678
 31
0.0
  0
LINE
  5
7C6B
330
80B1
100
AcDbEntity
  8
1
100
AcDbLine
 10
777.1952238038909
 20
3498.243451059676
 30
0.0
 11
777.1952238038909
 21
3451.243451059678
 31
0.0
  0
LINE
  5
7C6C
330
80B1
100
AcDbEntity
  8
1
100
AcDbLine
 10
615.6952238038911
 20
3888.243151059675
 30
0.0
 11
615.6952238038911
 21
3498.243451059678
 31
0.0
  0
LINE
  5
7C6D
330
80B1
100
AcDbEntity
  8
1
100
AcDbLine
 10
900.6952238038909
 20
3888.243151059675
 30
0.0
 11
900.6952238038909
 21
3498.243451059676
 31
0.0
  0
LINE
  5
7C6E
330
80B1
100
AcDbEntity
  8
1
100
AcDbLine
 10
1633.195223803891
 20
3621.243451059676
 30
0.0
 11
1633.195223803891
 21
3451.243451059677
 31
0.0
  0
LINE
  5
7C6F
330
80B1
100
AcDbEntity
  8
1
100
AcDbLine
 10
1583.195223803891
 20
3621.243451059676
 30
0.0
 11
1583.195223803891
 21
3451.243451059677
 31
0.0
  0
LINE
  5
7C70
330
80B1
100
AcDbEntity
  8
1
100
AcDbLine
 10
2677.329593074301
 20
2187.899274892485
 30
0.0
 11
2847.329593074301
 21
2187.899274892485
 31
0.0
  0
CIRCLE
  5
7C71
330
80B1
100
AcDbEntity
  8
1
100
AcDbCircle
 10
1608.195223803891
 20
2162.899274892485
 30
0.0
 40
335.0
  0
CIRCLE
  5
7C72
330
80B1
100
AcDbEntity
  8
1
100
AcDbCircle
 10
1608.195223803891
 20
2162.899274892485
 30
0.0
 40
375.0
  0
POINT
  5
7C74
330
80B1
100
AcDbEntity
  8
1
100
AcDbPoint
 10
3757.329593074302
 20
2132.899274892484
 30
0.0
  0
POINT
  5
7C75
330
80B1
100
AcDbEntity
  8
1
100
AcDbPoint
 10
2467.329593074301
 20
2312.899274892485
 30
0.0
  0
DIMENSION
  5
7C77
330
80B1
100
AcDbEntity
  8
3
100
AcDbDimension
  2
*D10
 10
2216.987194802499
 20
4474.243451059678
 30
0.0
 11
2176.987194802499
 21
3971.243451059677
 31
0.0
 12
1028.542227409652
 22
1309.828482529042
 32
0.0
 71
     5
 42
-1.0
  3
Standard
100
AcDbAlignedDimension
 13
2008.195223803891
 23
3468.243451059676
 33
0.0
 14
2008.195223803892
 24
4474.243451059678
 34
0.0
 50
90.0
100
AcDbRotatedDimension
1001
ACAD
1000
DSTYLE
1002
{
1070
    40
1040
20.0
1002
}
  0
DIMENSION
  5
7C78
330
80B1
100
AcDbEntity
  8
3
100
AcDbDimension
  2
*D11
 10
2008.195223803892
 20
4622.848741558082
 30
0.0
 11
1608.195223803891
 21
4662.848741558081
 31
0.0
 12
1028.542227409652
 22
1309.828482529042
 32
0.0
 71
     5
 42
-1.0
  3
Standard
100
AcDbAlignedDimension
 13
1208.195223803891
 23
4474.243451059678
 33
0.0
 14
2008.195223803892
 24
4474.243451059678
 34
0.0
100
AcDbRotatedDimension
1001
ACAD
1000
DSTYLE
1002
{
1070
    40
1040
20.0
1002
}
  0
DIMENSION
  5
7C79
330
80B1
100
AcDbEntity
  8
3
100
AcDbDimension
  2
*D12
 10
407.7676399286101
 20
3468.243451059676
 30
0.0
 11
367.7676399286101
 21
3768.243451059676
 31
0.0
 12
1028.542227409652
 22
1309.828482529042
 32
0.0
 71
     5
 42
-1.0
  3
Standard
100
AcDbAlignedDimension
 13
558.1952238038911
 23
4068.243451059675
 33
0.0
 14
558.1952238038911
 24
3468.243451059676
 34
0.0
 50
90.0
100
AcDbRotatedDimension
1001
ACAD
1000
DSTYLE
1002
{
1070
    40
1040
20.0
1002
}
  0
LINE
  5
7C7F
330
80B1
100
AcDbEntity
  8
1
100
AcDbLine
 10
2724.3295930743
 20
1757.399274892484
 30
0.0
 11
2724.3295930743
 21
2042.399274892484
 31
0.0
  0
LINE
  5
7C80
330
80B1
100
AcDbEntity
  8
1
100
AcDbLine
 10
2744.8295930743
 20
2042.399274892484
 30
0.0
 11
2724.329593074302
 21
2042.399274892484
 31
0.0
  0
LINE
  5
7C81
330
80B1
100
AcDbEntity
  8
1
100
AcDbLine
 10
2724.3295930743
 20
1880.899274892484
 30
0.0
 11
2677.329593074301
 21
1880.899274892484
 31
0.0
  0
LINE
  5
7C82
330
80B1
100
AcDbEntity
  8
1
100
AcDbLine
 10
2724.3295930743
 20
1918.899274892484
 30
0.0
 11
2677.329593074301
 21
1918.899274892484
 31
0.0
  0
LINE
  5
7C83
330
80B1
100
AcDbEntity
  8
1
100
AcDbLine
 10
2847.329593074301
 20
1757.399274892484
 30
0.0
 11
2724.3295930743
 21
1757.399274892484
 31
0.0
  0
POINT
  5
7C84
330
80B1
100
AcDbEntity
  8
1
100
AcDbPoint
 10
2008.195223803891
 20
1612.899274892484
 30
0.0
  0
POINT
  5
7C85
330
80B1
100
AcDbEntity
  8
1
100
AcDbPoint
 10
2008.195223803891
 20
1657.899274892484
 30
0.0
  0
LINE
  5
7C86
330
80B1
100
AcDbEntity
  8
1
100
AcDbLine
 10
2677.3295930743
 20
1978.899274892484
 30
0.0
 11
2677.329593074299
 21
1820.899274892484
 31
0.0
  0
LINE
  5
7C87
330
80B1
100
AcDbEntity
  8
1
100
AcDbLine
 10
2595.3295930743
 20
1978.899274892484
 30
0.0
 11
2595.329593074299
 21
1820.899274892484
 31
0.0
  0
DIMENSION
  5
7C8E
330
80B1
100
AcDbEntity
  8
3
100
AcDbDimension
  2
*D16
 10
2261.905517747099
 20
2162.899274892485
 30
0.0
 11
2221.905517747098
 21
2392.899274892485
 31
0.0
 12
1028.542227409652
 22
1594.801648442364
 32
0.0
 71
     5
 42
-1.0
  3
Standard
100
AcDbAlignedDimension
 13
1622.19522380389
 23
2622.899274892485
 33
0.0
 14
2115.088196906886
 24
2162.899274892485
 34
0.0
 50
90.0
100
AcDbRotatedDimension
1001
ACAD
1000
DSTYLE
1002
{
1070
    40
1040
20.0
1002
}
  0
DIMENSION
  5
7C94
330
80B1
100
AcDbEntity
  8
3
100
AcDbDimension
  2
*D20
 10
558.1952238038911
 20
3045.82944963941
 30
0.0
 11
1310.19522380389
 21
3085.829449639409
 31
0.0
 71
     5
 42
-1.0
  3
Standard
100
AcDbAlignedDimension
 13
2062.195223803891
 23
2115.899274892484
 33
0.0
 14
558.1952238038911
 24
1722.899274892484
 34
0.0
100
AcDbRotatedDimension
1001
ACAD
1000
DSTYLE
1002
{
1070
    40
1040
20.0
1002
}
  0
LINE
  5
7C95
330
80B1
100
AcDbEntity
  8
1
100
AcDbLine
 10
930.1952238038909
 20
4421.243451059676
 30
0.0
 11
930.1952238038909
 21
3621.243451059676
 31
0.0
  0
LINE
  5
7C96
330
80B1
100
AcDbEntity
  8
1
100
AcDbLine
 10
2062.195223803891
 20
4421.243451059677
 30
0.0
 11
2062.195223803891
 21
3621.243451059676
 31
0.0
  0
LINE
  5
7C97
330
80B1
100
AcDbEntity
  8
1
100
AcDbLine
 10
1580.19522380389
 20
4421.243451059676
 30
0.0
 11
1580.19522380389
 21
3621.243451059676
 31
0.0
  0
LINE
  5
7C98
330
80B1
100
AcDbEntity
  8
1
100
AcDbLine
 10
1580.19522380389
 20
4421.243451059677
 30
0.0
 11
930.1952238038909
 21
3621.243451059676
 31
0.0
  0
LINE
  5
7C99
330
80B1
100
AcDbEntity
  8
1
100
AcDbLine
 10
930.1952238038909
 20
4421.243451059676
 30
0.0
 11
1580.19522380389
 21
3621.243451059676
 31
0.0
  0
LINE
  5
7C9A
330
80B1
100
AcDbEntity
  8
1
100
AcDbLine
 10
2807.3295930743
 20
2619.899274892484
 30
0.0
 11
3687.3295930743
 21
2619.899274892484
 31
0.0
  0
LINE
  5
7C9B
330
80B1
100
AcDbEntity
  8
1
100
AcDbLine
 10
2807.3295930743
 20
2622.899274892485
 30
0.0
 11
2807.3295930743
 21
2619.899274892484
 31
0.0
  0
LINE
  5
7C9C
330
80B1
100
AcDbEntity
  8
1
100
AcDbLine
 10
3687.329593074302
 20
2622.899274892485
 30
0.0
 11
3687.329593074302
 21
2619.899274892484
 31
0.0
  0
LINE
  5
7EC5
330
80B1
100
AcDbEntity
  8
4
100
AcDbLine
 10
3700.0
 20
1000.0
 30
0.0
 11
3700.0
 21
600.0
 31
0.0
  0
LINE
  5
7EC6
330
80B1
100
AcDbEntity
  8
4
100
AcDbLine
 10
2300.0
 20
1000.0
 30
0.0
 11
2300.0
 21
600.0
 31
0.0
  0
LINE
  5
7EC7
330
80B1
100
AcDbEntity
  8
4
100
AcDbLine
 10
1300.0
 20
1000.0
 30
0.0
 11
1300.0
 21
600.0
 31
0.0
  0
LINE
  5
7ECA
330
80B1
100
AcDbEntity
  8
4
100
AcDbLine
 10
1300.0
 20
600.0
 30
0.0
 11
3700.0
 21
600.0
 31
0.0
  0
LINE
  5
7ECB
330
80B1
100
AcDbEntity
  8
4
100
AcDbLine
 10
1300.0
 20
800.0
 30
0.0
 11
3700.0
 21
800.0
 31
0.0
  0
TEXT
  5
7ECC
330
80B1
100
AcDbEntity
  8
4
100
AcDbText
 10
1377.004161693803
 20
863.0860517332255
 30
0.0
 40
100.0
  1
機器名称
100
AcDbText
  0
TEXT
  5
7ECD
330
80B1
100
AcDbEntity
  8
4
100
AcDbText
 10
1372.516212049595
 20
643.2903134640219
 30
0.0
 40
100.0
  1
機器型番
100
AcDbText
  0
TEXT
  5
7ECE
330
80B1
100
AcDbEntity
  8
4
100
AcDbText
 10
2355.357490975329
 20
845.1435379151371
 30
0.0
 40
100.0
  1
ミツヤ多翼送風機
100
AcDbText
  0
TEXT
  5
7ECF
330
80B1
100
AcDbEntity
  8
4
100
AcDbText
 10
2373.308991170961
 20
634.3191685598867
 30
0.0
 40
100.0
  1
MF#4-5
100
AcDbText
  0
TEXT
  5
7ED1
330
80B1
100
AcDbEntity
  8
4
100
AcDbText
 10
1598.354034469477
 20
4766.857682665031
 30
0.0
 40
107.9999999999999
  1
床置防振ベット
100
AcDbText
  0
TEXT
  5
7ED2
330
80B1
100
AcDbEntity
  8
4
100
AcDbText
 10
632.3351866588928
 20
5067.761952398596
 30
0.0
 40
144.0
  1
遠心式両吸込両持多翼ファン
100
AcDbText
  0
LINE
  5
7ED3
330
80B1
100
AcDbEntity
  8
4
100
AcDbLine
 10
500.0
 20
4938.817508529609
 30
0.0
 11
3700.0
 21
4938.817508529609
 31
0.0
  0
LINE
  5
7ED4
330
80B1
100
AcDbEntity
  8
4
100
AcDbLine
 10
500.0
 20
5338.81750852961
 30
0.0
 11
3700.0
 21
5338.81750852961
 31
0.0
  0
LINE
  5
7ED5
330
80B1
100
AcDbEntity
  8
4
100
AcDbLine
 10
1300.0
 20
1000.0
 30
0.0
 11
3700.0
 21
1000.0
 31
0.0
  0
LINE
  5
7ED6
330
80B1
100
AcDbEntity
  8
4
100
AcDbLine
 10
500.0
 20
5338.81750852961
 30
0.0
 11
500.0
 21
4938.817508529609
 31
0.0
  0
TEXT
  5
7ED7
330
80B1
100
AcDbEntity
  8
4
100
AcDbText
 10
726.6363699840732
 20
4764.638955092687
 30
0.0
 40
107.9999999999999
  1
右回転上向
100
AcDbText
  0
TEXT
  5
7ED8
330
80B1
100
AcDbEntity
  8
4
100
AcDbText
 10
2937.939118498579
 20
5412.122162990619
 30
0.0
 40
112.0
  1
No.
100
AcDbText
  0
TEXT
  5
7ED9
330
80B1
100
AcDbEntity
  8
4
100
AcDbText
 10
2622.592125200027
 20
4766.857682665031
 30
0.0
 40
107.9999999999999
  1
縮尺：1/20
100
AcDbText
  0
LINE
  5
7EDA
330
80B1
100
AcDbEntity
  8
4
100
AcDbLine
 10
3700.0
 20
5338.81750852961
 30
0.0
 11
3700.0
 21
4938.817508529609
 31
0.0
  0
LINE
  5
7EDB
330
80B1
100
AcDbEntity
  8
4
100
AcDbLine
 10
4200.0
 20
5900.0
 30
0.0
 11
4200.0
 21
5900.0
 31
0.0
  0
LINE
  5
7EDC
330
80B1
100
AcDbEntity
  8
4
100
AcDbLine
 10
2881.234844719729
 20
5362.527166250802
 30
0.0
 11
2881.234844719729
 21
5573.304523099504
 31
0.0
  0
LINE
  5
7EDD
330
80B1
100
AcDbEntity
  8
4
100
AcDbLine
 10
2881.234844719729
 20
5573.304523099504
 30
0.0
 11
3700.0
 21
5573.304523099504
 31
0.0
  0
LINE
  5
7EDE
330
80B1
100
AcDbEntity
  8
4
100
AcDbLine
 10
3700.0
 20
5573.304523099504
 30
0.0
 11
3700.0
 21
5362.527166250802
 31
0.0
  0
LINE
  5
7EDF
330
80B1
100
AcDbEntity
  8
4
100
AcDbLine
 10
3700.0
 20
5362.527166250802
 30
0.0
 11
2881.234844719729
 21
5362.527166250802
 31
0.0
  0
LINE
  5
7EE0
330
80B1
100
AcDbEntity
  8
4
100
AcDbLine
 10
0.0
 20
0.0
 30
0.0
 11
0.0
 21
5900.0
 31
0.0
  0
LINE
  5
7EE1
330
80B1
100
AcDbEntity
  8
4
100
AcDbLine
 10
0.0
 20
5900.0
 30
0.0
 11
4200.0
 21
5900.0
 31
0.0
  0
LINE
  5
7EE2
330
80B1
100
AcDbEntity
  8
4
100
AcDbLine
 10
4200.0
 20
5900.0
 30
0.0
 11
4200.0
 21
0.0
 31
0.0
  0
LINE
  5
7EE3
330
80B1
100
AcDbEntity
  8
4
100
AcDbLine
 10
4200.0
 20
0.0
 30
0.0
 11
0.0
 21
0.0
 31
0.0
  0
DIMENSION
  5
80FD
330
80B1
100
AcDbEntity
  8
3
100
AcDbDimension
  2
*D28
 10
3247.329593074301
 20
2898.403503596905
 30
0.0
 11
2857.329593074301
 21
2964.11778931119
 31
0.0
 70
    32
  1
(<>)
 71
     5
 42
780.0
  3
IGA
100
AcDbAlignedDimension
 13
2467.329593074301
 23
2312.899274892485
 33
0.0
 14
3247.329593074301
 24
2824.56938158193
 34
0.0
100
AcDbRotatedDimension
1001
ACAD
1000
DSTYLE
1002
{
1070
    40
1040
20.0
1070
    42
1040
1.0
1070
   143
1040
0.039
1070
   172
1070
     1
1070
   271
1070
     4
1070
   272
1070
     4
1070
   279
1070
     0
1070
   284
1070
     0
1070
   285
1070
     0
1070
   286
1070
     0
1070
   341
1005
80C5
1070
   343
1005
80C5
1070
   344
1005
80C5
1002
}
  0
DIMENSION
  5
810A
330
80B1
100
AcDbEntity
  8
3
100
AcDbDimension
  2
*D29
 10
3757.329593074302
 20
2898.403503596905
 30
0.0
 11
3502.329593074302
 21
2964.11778931119
 31
0.0
 70
    32
  1
(<>)
 71
     5
 42
510.0000000000004
  3
IGA
100
AcDbAlignedDimension
 13
3247.329593074301
 23
2824.56938158193
 33
0.0
 14
3757.329593074302
 24
2132.899274892484
 34
0.0
100
AcDbRotatedDimension
1001
ACAD
1000
DSTYLE
1002
{
1070
    40
1040
20.0
1070
    42
1040
1.0
1070
   143
1040
0.039
1070
   172
1070
     1
1070
   271
1070
     4
1070
   272
1070
     4
1070
   279
1070
     1
1070
   284
1070
     0
1070
   285
1070
     0
1070
   286
1070
     0
1070
   341
1005
80C5
1070
   343
1005
80C5
1070
   344
1005
80C5
1002
}
  0
DIMENSION
  5
816B
330
80B1
100
AcDbEntity
  8
3
100
AcDbDimension
  2
*D30
 10
2008.195223803891
 20
3135.49224667534
 30
0.0
 11
1283.195223803891
 21
3185.49224667534
 31
0.0
 70
    32
 71
     5
 42
1450.0
  3
IGA
100
AcDbAlignedDimension
 13
558.1952238038911
 23
3468.243451059676
 33
0.0
 14
2008.195223803891
 24
3468.243451059676
 34
0.0
100
AcDbRotatedDimension
1001
ACAD
1000
DSTYLE
1002
{
1070
    40
1040
20.0
1070
    42
1040
1.0
1070
   143
1040
0.039
1070
   172
1070
     1
1070
   271
1070
     4
1070
   272
1070
     4
1070
   279
1070
     0
1070
   284
1070
     0
1070
   285
1070
     0
1070
   286
1070
     0
1070
   341
1005
80C5
1070
   343
1005
80C5
1070
   344
1005
80C5
1002
}
  0
DIMENSION
  5
8178
330
80B1
100
AcDbEntity
  8
3
100
AcDbDimension
  2
*D31
 10
1208.195223803891
 20
4622.84874155808
 30
0.0
 11
883.1952238038908
 21
4672.848741558079
 31
0.0
 70
    32
 71
     5
 42
649.9999999999995
  3
IGA
100
AcDbAlignedDimension
 13
558.1952238038911
 23
4068.243451059675
 33
0.0
 14
1208.195223803891
 24
4474.243451059678
 34
0.0
100
AcDbRotatedDimension
1001
ACAD
1000
DSTYLE
1002
{
1070
    40
1040
20.0
1070
    42
1040
1.0
1070
   143
1040
0.039
1070
   172
1070
     1
1070
   271
1070
     4
1070
   272
1070
     4
1070
   279
1070
     0
1070
   284
1070
     0
1070
   285
1070
     0
1070
   286
1070
     0
1070
   341
1005
80C5
1070
   343
1005
80C5
1070
   344
1005
80C5
1002
}
  0
DIMENSION
  5
8194
330
80B1
100
AcDbEntity
  8
3
100
AcDbDimension
  2
*D33
 10
2062.195223803891
 20
2922.400941013177
 30
0.0
 11
1835.195223803891
 21
2972.400941013177
 31
0.0
 70
    32
 71
     5
 42
454.0
  3
IGA
100
AcDbAlignedDimension
 13
1608.195223803891
 23
2679.943802378379
 33
0.0
 14
2062.195223803891
 24
2115.899274892484
 34
0.0
100
AcDbRotatedDimension
1001
ACAD
1000
DSTYLE
1002
{
1070
    40
1040
20.0
1070
    42
1040
1.0
1070
   143
1040
0.039
1070
   172
1070
     1
1070
   271
1070
     4
1070
   272
1070
     4
1070
   279
1070
     0
1070
   284
1070
     0
1070
   285
1070
     0
1070
   286
1070
     0
1070
   341
1005
80C5
1070
   343
1005
80C5
1070
   344
1005
80C5
1002
}
  0
DIMENSION
  5
820C
330
80B1
100
AcDbEntity
  8
3
100
AcDbDimension
  2
*D41
 10
3247.3295930743
 20
1274.695815237022
 30
0.0
 11
2970.829593074301
 21
1324.695815237022
 31
0.0
 70
    32
 71
     5
 42
552.9999999999986
  3
IGA
100
AcDbAlignedDimension
 13
2694.329593074301
 23
1402.899274892484
 33
0.0
 14
3247.3295930743
 24
1402.899274892484
 34
0.0
100
AcDbRotatedDimension
1001
ACAD
1000
DSTYLE
1002
{
1070
    40
1040
20.0
1070
    42
1040
1.0
1070
   143
1040
0.039
1070
   172
1070
     1
1070
   271
1070
     4
1070
   272
1070
     4
1070
   279
1070
     0
1070
   284
1070
     0
1070
   285
1070
     0
1070
   286
1070
     0
1070
   341
1005
80C5
1070
   343
1005
80C5
1070
   344
1005
80C5
1002
}
  0
DIMENSION
  5
8219
330
80B1
100
AcDbEntity
  8
3
100
AcDbDimension
  2
*D42
 10
3700.329593074302
 20
1274.695815237022
 30
0.0
 11
3473.829593074301
 21
1324.695815237022
 31
0.0
 70
    32
 71
     5
 42
453.0000000000013
  3
IGA
100
AcDbAlignedDimension
 13
3247.3295930743
 23
1402.899274892484
 33
0.0
 14
3700.329593074302
 24
1402.899274892484
 34
0.0
100
AcDbRotatedDimension
1001
ACAD
1000
DSTYLE
1002
{
1070
    40
1040
20.0
1070
    42
1040
1.0
1070
   143
1040
0.039
1070
   172
1070
     1
1070
   271
1070
     4
1070
   272
1070
     4
1070
   279
1070
     1
1070
   284
1070
     0
1070
   285
1070
     0
1070
   286
1070
     0
1070
   341
1005
80C5
1070
   343
1005
80C5
1070
   344
1005
80C5
1002
}
  0
DIMENSION
  5
8226
330
80B1
100
AcDbEntity
  8
3
100
AcDbDimension
  2
*D43
 10
2261.905517747097
 20
1582.899274892485
 30
0.0
 11
2211.905517747097
 21
1872.899274892485
 31
0.0
 70
    32
 71
     5
 42
579.9999999999993
  3
IGA
100
AcDbAlignedDimension
 13
2115.088196906886
 23
2162.899274892485
 33
0.0
 14
2008.195223803891
 24
1582.899274892485
 34
0.0
 50
90.0
100
AcDbRotatedDimension
1001
ACAD
1000
DSTYLE
1002
{
1070
    40
1040
20.0
1070
    42
1040
1.0
1070
   143
1040
0.039
1070
   172
1070
     1
1070
   271
1070
     4
1070
   272
1070
     4
1070
   279
1070
     0
1070
   284
1070
     0
1070
   285
1070
     0
1070
   286
1070
     0
1070
   341
1005
80C5
1070
   343
1005
80C5
1070
   344
1005
80C5
1002
}
  0
DIMENSION
  5
8233
330
80B1
100
AcDbEntity
  8
3
100
AcDbDimension
  2
*D44
 10
2261.905517747097
 20
1502.899274892484
 30
0.0
 11
2388.443912725517
 21
1619.042132035342
 31
0.0
 70
   160
  1
(<>)
 71
     5
 42
80.0000000000009
  3
IGA
100
AcDbAlignedDimension
 13
2008.195223803891
 23
1582.899274892485
 33
0.0
 14
2008.195223803891
 24
1502.899274892484
 34
0.0
 50
90.0
100
AcDbRotatedDimension
1001
ACAD
1000
DSTYLE
1002
{
1070
    40
1040
20.0
1070
    42
1040
1.0
1070
   143
1040
0.039
1070
   172
1070
     1
1070
   271
1070
     4
1070
   272
1070
     4
1070
   279
1070
     1
1070
   284
1070
     0
1070
   285
1070
     0
1070
   286
1070
     0
1070
   341
1005
80C5
1070
   343
1005
80C5
1070
   344
1005
833C
1002
}
  0
DIMENSION
  5
8245
330
80B1
100
AcDbEntity
  8
3
100
AcDbDimension
  2
*D45
 10
2261.905517747097
 20
1402.899274892484
 30
0.0
 11
2259.903046837768
 21
1315.734216743314
 31
0.0
 70
   160
 71
     5
 42
100.0
  3
IGA
100
AcDbAlignedDimension
 13
2008.195223803891
 23
1502.899274892484
 33
0.0
 14
2008.195223803891
 24
1402.899274892484
 34
0.0
 50
90.0
100
AcDbRotatedDimension
1001
ACAD
1000
DSTYLE
1002
{
1070
    40
1040
20.0
1070
    42
1040
1.0
1070
   143
1040
0.039
1070
   172
1070
     1
1070
   271
1070
     4
1070
   272
1070
     4
1070
   279
1070
     1
1070
   284
1070
     0
1070
   285
1070
     0
1070
   286
1070
     0
1070
   341
1005
80C5
1070
   343
1005
833C
1070
   344
1005
80C5
1002
}
  0
DIMENSION
  5
82BF
330
80B1
100
AcDbEntity
  8
3
100
AcDbDimension
  2
*D46
 10
2413.767562549874
 20
2622.899274892485
 30
0.0
 11
2348.053276835588
 21
2012.899274892485
 31
0.0
 70
    32
  1
(<>)
 71
     5
 42
1220.000000000001
  3
IGA
100
AcDbAlignedDimension
 13
2008.195223803891
 23
1402.899274892484
 33
0.0
 14
1622.19522380389
 24
2622.899274892485
 34
0.0
 50
90.0
100
AcDbRotatedDimension
1001
ACAD
1000
DSTYLE
1002
{
1070
    40
1040
20.0
1070
    42
1040
1.0
1070
   143
1040
0.039
1070
   172
1070
     1
1070
   271
1070
     4
1070
   272
1070
     4
1070
   279
1070
     0
1070
   284
1070
     0
1070
   285
1070
     0
1070
   286
1070
     0
1070
   341
1005
80C5
1070
   343
1005
80C5
1070
   344
1005
80C5
1002
}
  0
DIMENSION
  5
83A0
330
80B1
100
AcDbEntity
  8
3
100
AcDbDimension
  2
*D48
 10
1608.195223803891
 20
1270.073536992595
 30
0.0
 11
1083.195223803891
 21
1320.073536992595
 31
0.0
 70
    32
 71
     5
 42
1049.999999999999
  3
IGA
100
AcDbAlignedDimension
 13
558.1952238038911
 23
1402.899274892484
 33
0.0
 14
1608.195223803891
 24
1402.899274892484
 34
0.0
100
AcDbRotatedDimension
1001
ACAD
1000
DSTYLE
1002
{
1070
    40
1040
20.0
1070
    42
1040
1.0
1070
   143
1040
0.039
1070
   172
1070
     1
1070
   271
1070
     4
1070
   272
1070
     4
1070
   279
1070
     0
1070
   284
1070
     0
1070
   285
1070
     0
1070
   286
1070
     0
1070
   341
1005
80C5
1070
   343
1005
80C5
1070
   344
1005
80C5
1002
}
  0
DIMENSION
  5
83AD
330
80B1
100
AcDbEntity
  8
3
100
AcDbDimension
  2
*D49
 10
2008.195223803891
 20
1270.073536992595
 30
0.0
 11
1808.195223803891
 21
1320.073536992595
 31
0.0
 70
    32
 71
     5
 42
400.0
  3
IGA
100
AcDbAlignedDimension
 13
1608.195223803891
 23
1402.899274892484
 33
0.0
 14
2008.195223803891
 24
1402.899274892484
 34
0.0
100
AcDbRotatedDimension
1001
ACAD
1000
DSTYLE
1002
{
1070
    40
1040
20.0
1070
    42
1040
1.0
1070
   143
1040
0.039
1070
   172
1070
     1
1070
   271
1070
     4
1070
   272
1070
     4
1070
   279
1070
     1
1070
   284
1070
     0
1070
   285
1070
     0
1070
   286
1070
     0
1070
   341
1005
80C5
1070
   343
1005
80C5
1070
   344
1005
80C5
1002
}
  0
ENDSEC
  0
SECTION
  2
OBJECTS
  0
DICTIONARY
  5
804E
330
0
100
AcDbDictionary
281
     1
  3
ACAD_CIP_PREVIOUS_PRODUCT_INFO
350
80F9
  3
ACAD_COLOR
350
80A4
  3
ACAD_DETAILVIEWSTYLE
350
80AB
  3
ACAD_GROUP
350
804F
  3
ACAD_LAYOUT
350
80A3
  3
ACAD_MATERIAL
350
8052
  3
ACAD_MLEADERSTYLE
350
80A7
  3
ACAD_MLINESTYLE
350
80A0
  3
ACAD_PLOTSETTINGS
350
80A2
  3
ACAD_PLOTSTYLENAME
350
8050
  3
ACAD_SCALELIST
350
8084
  3
ACAD_SECTIONVIEWSTYLE
350
80A9
  3
ACAD_TABLESTYLE
350
80A5
  3
ACAD_VISUALSTYLE
350
806B
  3
ACDB_RECOMPOSE_DATA
350
83D1
  3
AcDbVariableDictionary
350
83C4
  3
DWGPROPS
350
83D2
  0
DICTIONARY
  5
83BA
330
8096
100
AcDbDictionary
280
     1
281
     1
  3
ADSK_XREC_LAYER_RECONCILED
360
83BB
  0
DICTIONARY
  5
83BC
330
80B5
100
AcDbDictionary
280
     1
281
     1
  3
ADSK_XREC_LAYER_RECONCILED
360
83BD
  0
DICTIONARY
  5
83BE
330
80B8
100
AcDbDictionary
280
     1
281
     1
  3
ADSK_XREC_LAYER_RECONCILED
360
83BF
  0
DICTIONARY
  5
83C0
330
80B9
100
AcDbDictionary
280
     1
281
     1
  3
ADSK_XREC_LAYER_RECONCILED
360
83C1
  0
DICTIONARY
  5
83C2
330
80BA
100
AcDbDictionary
280
     1
281
     1
  3
ADSK_XREC_LAYER_RECONCILED
360
83C3
  0
XRECORD
  5
80F9
102
{ACAD_REACTORS
330
804E
102
}
330
804E
100
AcDbXrecord
280
     1
300
ACDLT
300
2015
300
INVLTS_F_S
  0
DICTIONARY
  5
80A4
102
{ACAD_REACTORS
330
804E
102
}
330
804E
100
AcDbDictionary
281
     1
  0
DICTIONARY
  5
80AB
102
{ACAD_REACTORS
330
804E
102
}
330
804E
100
AcDbDictionary
281
     1
  3
Imperial24
350
80AC
  0
DICTIONARY
  5
804F
102
{ACAD_REACTORS
330
804E
102
}
330
804E
100
AcDbDictionary
281
     1
  0
DICTIONARY
  5
80A3
102
{ACAD_REACTORS
330
804E
102
}
330
804E
100
AcDbDictionary
281
     1
  3
Model
350
80B4
  3
レイアウト1
350
80B0
  0
DICTIONARY
  5
8052
102
{ACAD_REACTORS
330
804E
102
}
330
804E
100
AcDbDictionary
281
     1
  3
ByBlock
350
805B
  3
ByLayer
350
8053
  3
Global
350
8063
  0
DICTIONARY
  5
80A7
102
{ACAD_REACTORS
330
804E
102
}
330
804E
100
AcDbDictionary
281
     1
  3
Standard
350
80A8
  0
DICTIONARY
  5
80A0
102
{ACAD_REACTORS
330
804E
102
}
330
804E
100
AcDbDictionary
281
     1
  3
Standard
350
80A1
  0
DICTIONARY
  5
80A2
102
{ACAD_REACTORS
330
804E
102
}
330
804E
100
AcDbDictionary
281
     1
  0
ACDBDICTIONARYWDFLT
  5
8050
102
{ACAD_REACTORS
330
804E
102
}
330
804E
100
AcDbDictionary
281
     1
  3
Normal
350
8051
100
AcDbDictionaryWithDefault
340
8051
  0
DICTIONARY
  5
8084
102
{ACAD_REACTORS
330
804E
102
}
330
804E
100
AcDbDictionary
281
     1
  3
A0
350
8085
  3
A1
350
8086
  3
A2
350
8087
  3
A3
350
8088
  3
A4
350
8089
  3
A5
350
808A
  3
A6
350
808B
  3
A7
350
808C
  3
A8
350
808D
  3
A9
350
808E
  3
B0
350
808F
  3
B1
350
8090
  3
B2
350
8091
  3
B3
350
8092
  3
B4
350
8093
  3
B5
350
8094
  3
B6
350
8095
  0
DICTIONARY
  5
80A9
102
{ACAD_REACTORS
330
804E
102
}
330
804E
100
AcDbDictionary
281
     1
  3
Imperial24
350
80AA
  0
DICTIONARY
  5
80A5
102
{ACAD_REACTORS
330
804E
102
}
330
804E
100
AcDbDictionary
281
     1
  3
Standard
350
80A6
  0
DICTIONARY
  5
806B
102
{ACAD_REACTORS
330
804E
102
}
330
804E
100
AcDbDictionary
281
     1
  3
2dWireframe
350
8071
  3
Basic
350
8070
  3
Brighten
350
8077
  3
ColorChange
350
807B
  3
Conceptual
350
8074
  3
Dim
350
8076
  3
EdgeColorOff
350
8083
  3
Facepattern
350
807A
  3
Flat
350
806C
  3
FlatWithEdges
350
806D
  3
Gouraud
350
806E
  3
GouraudWithEdges
350
806F
  3
Hidden
350
8073
  3
JitterOff
350
8081
  3
Linepattern
350
8079
  3
OverhangOff
350
8082
  3
Realistic
350
8075
  3
Shaded
350
8080
  3
Shaded with edges
350
807F
  3
Shades of Gray
350
807C
  3
Sketchy
350
807D
  3
Thicken
350
8078
  3
Wireframe
350
8072
  3
X-Ray
350
807E
  0
XRECORD
  5
83D1
102
{ACAD_REACTORS
330
804E
102
}
330
804E
100
AcDbXrecord
280
     1
 90
        1
330
80A6
  0
DICTIONARY
  5
83C4
102
{ACAD_REACTORS
330
804E
102
}
330
804E
100
AcDbDictionary
281
     1
  3
CANNOSCALE
350
83C9
  3
CMLEADERSTYLE
350
83C6
  3
CTABLESTYLE
350
83C5
  3
CVIEWDETAILSTYLE
350
83C7
  3
CVIEWSECTIONSTYLE
350
83C8
  3
DIMASSOC
350
83CC
  3
INDEXCTL
350
83CB
  3
SORTENTS
350
83CA
  3
XCLIPFRAME
350
83CD
  0
XRECORD
  5
83D2
102
{ACAD_REACTORS
330
804E
102
}
330
804E
100
AcDbXrecord
280
     1
  1
DWGPROPS COOKIE
  2

  3

  4

  6

  7

  8
yasukiyo.ogawa
  9

300
=
301
=
302
=
303
=
304
=
305
=
306
=
307
=
308
=
309
=
 40
0.0189804976851852
 41
2451387.477422685
 42
2460262.694639155
  1

 90
        0
  0
XRECORD
  5
83BB
102
{ACAD_REACTORS
330
83BA
102
}
330
83BA
100
AcDbXrecord
280
     1
290
     1
  0
XRECORD
  5
83BD
102
{ACAD_REACTORS
330
83BC
102
}
330
83BC
100
AcDbXrecord
280
     1
290
     1
  0
XRECORD
  5
83BF
102
{ACAD_REACTORS
330
83BE
102
}
330
83BE
100
AcDbXrecord
280
     1
290
     1
  0
XRECORD
  5
83C1
102
{ACAD_REACTORS
330
83C0
102
}
330
83C0
100
AcDbXrecord
280
     1
290
     1
  0
XRECORD
  5
83C3
102
{ACAD_REACTORS
330
83C2
102
}
330
83C2
100
AcDbXrecord
280
     1
290
     1
  0
ACDBDETAILVIEWSTYLE
  5
80AC
102
{ACAD_XDICTIONARY
360
840A
102
}
102
{ACAD_REACTORS
330
80AB
102
}
330
80AB
100
AcDbModelDocViewStyle
 70
     0
  3
Imperial24
290
     0
100
AcDbDetailViewStyle
 70
     0
 71
     0
 90
        3
 71
     1
340
8097
 40
0.24
340
0
 40
0.24
300

 40
0.36
280
     3
 71
     2
340
809E
 90
       25
 71
     3
340
8097
 40
0.24
 90
        1
 40
0.75
 90
        1
300
%<\AcVar ViewType \f "%tc1">% %<\AcVar ViewDetailId>%\PSCALE %<\AcVar ViewScale \f "%sn">%
 71
     4
340
809E
 90
       25
340
809E
 90
       25
280
     0
  0
LAYOUT
  5
80B4
102
{ACAD_XDICTIONARY
360
840E
102
}
102
{ACAD_REACTORS
330
80A3
102
}
330
80A3
100
AcDbPlotSettings
  1

  2
RICOH imagio MP W3600 RPCS
  4

  6

 40
0.0
 41
0.0
 42
0.0
 43
0.0
 44
0.0
 45
0.0
 46
0.0
 47
0.0
 48
0.0
 49
0.0
140
0.0
141
0.0
142
1.0
143
1.0
 70
  1712
 72
     0
 73
     0
 74
     0
  7

 75
     0
147
1.0
148
0.0
149
0.0
100
AcDbLayout
  1
Model
 70
     1
 71
     0
 10
0.0
 20
0.0
 11
12.0
 21
9.0
 12
0.0
 22
0.0
 32
0.0
 14
0.0
 24
0.0
 34
0.0
 15
0.0
 25
0.0
 35
0.0
146
0.0
 13
0.0
 23
0.0
 33
0.0
 16
1.0
 26
0.0
 36
0.0
 17
0.0
 27
1.0
 37
0.0
 76
     0
330
80B1
331
80B6
  0
LAYOUT
  5
80B0
102
{ACAD_XDICTIONARY
360
840C
102
}
102
{ACAD_REACTORS
330
80A3
102
}
330
80A3
100
AcDbPlotSettings
  1

  2
RICOH imagio MP W3600 RPCS
  4

  6

 40
0.0
 41
0.0
 42
0.0
 43
0.0
 44
0.0
 45
0.0
 46
0.0
 47
0.0
 48
0.0
 49
0.0
140
0.0
141
0.0
142
1.0
143
1.0
 70
   688
 72
     0
 73
     0
 74
     5
  7

 75
    16
147
1.0
148
0.0
149
0.0
100
AcDbLayout
  1
レイアウト1
 70
     1
 71
     1
 10
0.0
 20
0.0
 11
12.0
 21
9.0
 12
0.0
 22
0.0
 32
0.0
 14
1.000000000000000E+20
 24
1.000000000000000E+20
 34
1.000000000000000E+20
 15
-1.000000000000000E+20
 25
-1.000000000000000E+20
 35
-1.000000000000000E+20
146
0.0
 13
0.0
 23
0.0
 33
0.0
 16
1.0
 26
0.0
 36
0.0
 17
0.0
 27
1.0
 37
0.0
 76
     0
330
80AD
  0
MATERIAL
  5
805B
102
{ACAD_XDICTIONARY
360
805C
102
}
102
{ACAD_REACTORS
330
8052
102
}
330
8052
100
AcDbMaterial
  1
ByBlock
 72
     0
 43
0.0208333333333333
 43
0.0
 43
0.0
 43
0.0
 43
0.0
 43
0.0208333333333333
 43
0.0
 43
0.0
 43
0.0
 43
0.0
 43
1.0
 43
0.0
 43
0.0
 43
0.0
 43
0.0
 43
1.0
 77
     0
 47
0.0208333333333333
 47
0.0
 47
0.0
 47
0.0
 47
0.0
 47
0.0208333333333333
 47
0.0
 47
0.0
 47
0.0
 47
0.0
 47
1.0
 47
0.0
 47
0.0
 47
0.0
 47
0.0
 47
1.0
171
     0
 49
0.0208333333333333
 49
0.0
 49
0.0
 49
0.0
 49
0.0
 49
0.0208333333333333
 49
0.0
 49
0.0
 49
0.0
 49
0.0
 49
1.0
 49
0.0
 49
0.0
 49
0.0
 49
0.0
 49
1.0
175
     0
142
0.0208333333333333
142
0.0
142
0.0
142
0.0
142
0.0
142
0.0208333333333333
142
0.0
142
0.0
142
0.0
142
0.0
142
1.0
142
0.0
142
0.0
142
0.0
142
0.0
142
1.0
179
     0
144
0.0208333333333333
144
0.0
144
0.0
144
0.0
144
0.0
144
0.0208333333333333
144
0.0
144
0.0
144
0.0
144
0.0
144
1.0
144
0.0
144
0.0
144
0.0
144
0.0
144
1.0
147
0.0208333333333333
147
0.0
147
0.0
147
0.0
147
0.0
147
0.0208333333333333
147
0.0
147
0.0
147
0.0
147
0.0
147
1.0
147
0.0
147
0.0
147
0.0
147
0.0
147
1.0
  0
MATERIAL
  5
8053
102
{ACAD_XDICTIONARY
360
8054
102
}
102
{ACAD_REACTORS
330
8052
102
}
330
8052
100
AcDbMaterial
  1
ByLayer
 72
     0
 43
0.0208333333333333
 43
0.0
 43
0.0
 43
0.0
 43
0.0
 43
0.0208333333333333
 43
0.0
 43
0.0
 43
0.0
 43
0.0
 43
1.0
 43
0.0
 43
0.0
 43
0.0
 43
0.0
 43
1.0
 77
     0
 47
0.0208333333333333
 47
0.0
 47
0.0
 47
0.0
 47
0.0
 47
0.0208333333333333
 47
0.0
 47
0.0
 47
0.0
 47
0.0
 47
1.0
 47
0.0
 47
0.0
 47
0.0
 47
0.0
 47
1.0
171
     0
 49
0.0208333333333333
 49
0.0
 49
0.0
 49
0.0
 49
0.0
 49
0.0208333333333333
 49
0.0
 49
0.0
 49
0.0
 49
0.0
 49
1.0
 49
0.0
 49
0.0
 49
0.0
 49
0.0
 49
1.0
175
     0
142
0.0208333333333333
142
0.0
142
0.0
142
0.0
142
0.0
142
0.0208333333333333
142
0.0
142
0.0
142
0.0
142
0.0
142
1.0
142
0.0
142
0.0
142
0.0
142
0.0
142
1.0
179
     0
144
0.0208333333333333
144
0.0
144
0.0
144
0.0
144
0.0
144
0.0208333333333333
144
0.0
144
0.0
144
0.0
144
0.0
144
1.0
144
0.0
144
0.0
144
0.0
144
0.0
144
1.0
147
0.0208333333333333
147
0.0
147
0.0
147
0.0
147
0.0
147
0.0208333333333333
147
0.0
147
0.0
147
0.0
147
0.0
147
1.0
147
0.0
147
0.0
147
0.0
147
0.0
147
1.0
  0
MATERIAL
  5
8063
102
{ACAD_XDICTIONARY
360
8064
102
}
102
{ACAD_REACTORS
330
8052
102
}
330
8052
100
AcDbMaterial
  1
Global
 72
     0
 43
0.0208333333333333
 43
0.0
 43
0.0
 43
0.0
 43
0.0
 43
0.0208333333333333
 43
0.0
 43
0.0
 43
0.0
 43
0.0
 43
1.0
 43
0.0
 43
0.0
 43
0.0
 43
0.0
 43
1.0
 77
     0
 47
0.0208333333333333
 47
0.0
 47
0.0
 47
0.0
 47
0.0
 47
0.0208333333333333
 47
0.0
 47
0.0
 47
0.0
 47
0.0
 47
1.0
 47
0.0
 47
0.0
 47
0.0
 47
0.0
 47
1.0
171
     0
 49
0.0208333333333333
 49
0.0
 49
0.0
 49
0.0
 49
0.0
 49
0.0208333333333333
 49
0.0
 49
0.0
 49
0.0
 49
0.0
 49
1.0
 49
0.0
 49
0.0
 49
0.0
 49
0.0
 49
1.0
175
     0
142
0.0208333333333333
142
0.0
142
0.0
142
0.0
142
0.0
142
0.0208333333333333
142
0.0
142
0.0
142
0.0
142
0.0
142
1.0
142
0.0
142
0.0
142
0.0
142
0.0
142
1.0
179
     0
144
0.0208333333333333
144
0.0
144
0.0
144
0.0
144
0.0
144
0.0208333333333333
144
0.0
144
0.0
144
0.0
144
0.0
144
1.0
144
0.0
144
0.0
144
0.0
144
0.0
144
1.0
147
0.0208333333333333
147
0.0
147
0.0
147
0.0
147
0.0
147
0.0208333333333333
147
0.0
147
0.0
147
0.0
147
0.0
147
1.0
147
0.0
147
0.0
147
0.0
147
0.0
147
1.0
  0
MLEADERSTYLE
  5
80A8
102
{ACAD_REACTORS
330
80A7
102
}
330
80A7
100
AcDbMLeaderStyle
170
     2
171
     1
172
     0
 90
        2
 40
0.0
 41
0.0
173
     1
 91
-1056964608
340
809C
 92
       -2
290
     1
 42
0.09
291
     1
 43
0.36
  3
Standard
 44
0.18
300

342
8097
174
     1
178
     6
175
     1
176
     0
 93
-1056964608
 45
0.18
292
     0
297
     0
 46
0.18
 94
-1056964608
 47
1.0
 49
1.0
140
1.0
293
     1
141
0.0
294
     1
177
     0
142
1.0
295
     0
296
     0
143
0.125
1001
ACAD_MLEADERVER
1070
     2
  0
MLINESTYLE
  5
80A1
102
{ACAD_REACTORS
330
80A0
102
}
330
80A0
100
AcDbMlineStyle
  2
STANDARD
 70
     0
  3

 62
   256
 51
90.0
 52
90.0
 71
     2
 49
0.5
 62
   256
  6
BYLAYER
 49
-0.5
 62
   256
  6
BYLAYER
  0
ACDBPLACEHOLDER
  5
8051
102
{ACAD_REACTORS
330
8050
102
}
330
8050
  0
SCALE
  5
8085
102
{ACAD_REACTORS
330
8084
102
}
330
8084
100
AcDbScale
 70
     0
300
1:1
140
1.0
141
1.0
290
     1
  0
SCALE
  5
8086
102
{ACAD_REACTORS
330
8084
102
}
330
8084
100
AcDbScale
 70
     0
300
1/128" = 1'-0"
140
0.0078125
141
12.0
290
     0
  0
SCALE
  5
8087
102
{ACAD_REACTORS
330
8084
102
}
330
8084
100
AcDbScale
 70
     0
300
1/64" = 1'-0"
140
0.015625
141
12.0
290
     0
  0
SCALE
  5
8088
102
{ACAD_REACTORS
330
8084
102
}
330
8084
100
AcDbScale
 70
     0
300
1/32" = 1'-0"
140
0.03125
141
12.0
290
     0
  0
SCALE
  5
8089
102
{ACAD_REACTORS
330
8084
102
}
330
8084
100
AcDbScale
 70
     0
300
1/16" = 1'-0"
140
0.0625
141
12.0
290
     0
  0
SCALE
  5
808A
102
{ACAD_REACTORS
330
8084
102
}
330
8084
100
AcDbScale
 70
     0
300
3/32" = 1'-0"
140
0.09375
141
12.0
290
     0
  0
SCALE
  5
808B
102
{ACAD_REACTORS
330
8084
102
}
330
8084
100
AcDbScale
 70
     0
300
1/8" = 1'-0"
140
0.125
141
12.0
290
     0
  0
SCALE
  5
808C
102
{ACAD_REACTORS
330
8084
102
}
330
8084
100
AcDbScale
 70
     0
300
3/16" = 1'-0"
140
0.1875
141
12.0
290
     0
  0
SCALE
  5
808D
102
{ACAD_REACTORS
330
8084
102
}
330
8084
100
AcDbScale
 70
     0
300
1/4" = 1'-0"
140
0.25
141
12.0
290
     0
  0
SCALE
  5
808E
102
{ACAD_REACTORS
330
8084
102
}
330
8084
100
AcDbScale
 70
     0
300
3/8" = 1'-0"
140
0.375
141
12.0
290
     0
  0
SCALE
  5
808F
102
{ACAD_REACTORS
330
8084
102
}
330
8084
100
AcDbScale
 70
     0
300
1/2" = 1'-0"
140
0.5
141
12.0
290
     0
  0
SCALE
  5
8090
102
{ACAD_REACTORS
330
8084
102
}
330
8084
100
AcDbScale
 70
     0
300
3/4" = 1'-0"
140
0.75
141
12.0
290
     0
  0
SCALE
  5
8091
102
{ACAD_REACTORS
330
8084
102
}
330
8084
100
AcDbScale
 70
     0
300
1" = 1'-0"
140
1.0
141
12.0
290
     0
  0
SCALE
  5
8092
102
{ACAD_REACTORS
330
8084
102
}
330
8084
100
AcDbScale
 70
     0
300
1-1/2" = 1'-0"
140
1.5
141
12.0
290
     0
  0
SCALE
  5
8093
102
{ACAD_REACTORS
330
8084
102
}
330
8084
100
AcDbScale
 70
     0
300
3" = 1'-0"
140
3.0
141
12.0
290
     0
  0
SCALE
  5
8094
102
{ACAD_REACTORS
330
8084
102
}
330
8084
100
AcDbScale
 70
     0
300
6" = 1'-0"
140
6.0
141
12.0
290
     0
  0
SCALE
  5
8095
102
{ACAD_REACTORS
330
8084
102
}
330
8084
100
AcDbScale
 70
     0
300
1'-0" = 1'-0"
140
12.0
141
12.0
290
     0
  0
ACDBSECTIONVIEWSTYLE
  5
80AA
102
{ACAD_XDICTIONARY
360
8408
102
}
102
{ACAD_REACTORS
330
80A9
102
}
330
80A9
100
AcDbModelDocViewStyle
 70
     0
  3
Imperial24
290
     0
100
AcDbSectionViewStyle
 70
     0
 71
     0
 90
       78
 71
     1
340
8097
 40
0.24
340
0
340
0
 40
0.24
300
I, O, Q, S, X, Z
 40
0.48
 90
        3
 40
0.18
 90
        1
 71
     2
340
809E
 90
       25
340
809E
 90
       50
 40
0.24
 40
0.0
 40
0.24
 71
     3
340
8097
 40
0.24
 90
        1
 40
0.75
 90
        1
300
%<\AcVar ViewType \f "%tc1">% %<\AcVar ViewSectionStartId>%-%<\AcVar ViewSectionEndId>%\PSCALE %<\AcVar ViewScale \f "%sn">%
 71
     4
300
ANSI31
 40
1.0
 90
        0
290
     0
290
     0
 90
        6
 40
0.0
 40
1.570796326794896
 40
0.2617993877991494
 40
1.308996938995747
 40
-0.2617993877991494
 40
1.832595714594046
  0
TABLESTYLE
  5
80A6
102
{ACAD_XDICTIONARY
360
83CF
102
}
102
{ACAD_REACTORS
330
80A5
102
}
330
80A5
100
AcDbTableStyle
  3
Standard
 70
     0
 71
     0
 40
0.06
 41
0.06
280
     0
281
     0
  7
STANDARD
140
0.18
170
     2
 62
     0
 63
     7
283
     0
274
    -2
284
     1
 64
     0
275
    -2
285
     1
 65
     0
276
    -2
286
     1
 66
     0
277
    -2
287
     1
 67
     0
278
    -2
288
     1
 68
     0
279
    -2
289
     1
 69
     0
  7
STANDARD
140
0.25
170
     5
 62
     0
 63
     7
283
     0
274
    -2
284
     1
 64
     0
275
    -2
285
     1
 65
     0
276
    -2
286
     1
 66
     0
277
    -2
287
     1
 67
     0
278
    -2
288
     1
 68
     0
279
    -2
289
     1
 69
     0
  7
STANDARD
140
0.18
170
     5
 62
     0
 63
     7
283
     0
274
    -2
284
     1
 64
     0
275
    -2
285
     1
 65
     0
276
    -2
286
     1
 66
     0
277
    -2
287
     1
 67
     0
278
    -2
288
     1
 68
     0
279
    -2
289
     1
 69
     0
  0
VISUALSTYLE
  5
8071
102
{ACAD_XDICTIONARY
360
83E0
102
}
102
{ACAD_REACTORS
330
806B
102
}
330
806B
100
AcDbVisualStyle
  2
2dWireframe
 70
     4
 71
     0
 72
     2
 73
     0
 90
        0
 40
-0.6
 41
-30.0
 62
     5
 63
     7
 74
     1
 91
        4
 64
     7
 65
   257
 75
     1
175
     1
 42
1.0
 92
        0
 66
   257
 43
1.0
 76
     1
 77
     6
 78
     2
 67
     7
 79
     5
170
     0
171
     0
290
     0
174
     0
 93
        1
 44
0.0
173
     0
291
     0
 45
0.0
1001
ACAD
1000
AcDbSavedByObjectVersion
1070
     0
  0
VISUALSTYLE
  5
8070
102
{ACAD_XDICTIONARY
360
83DE
102
}
102
{ACAD_REACTORS
330
806B
102
}
330
806B
100
AcDbVisualStyle
  2
Basic
 70
     7
 71
     1
 72
     0
 73
     1
 90
        0
 40
-0.6
 41
-30.0
 62
     5
 63
     7
 74
     0
 91
        4
 64
     7
 65
   257
 75
     1
175
     1
 42
1.0
 92
        8
 66
     7
 43
1.0
 76
     1
 77
     6
 78
     2
 67
     7
 79
     5
170
     0
171
     0
290
     0
174
     0
 93
        1
 44
0.0
173
     0
291
     1
 45
0.0
1001
ACAD
1000
AcDbSavedByObjectVersion
1070
     0
  0
VISUALSTYLE
  5
8077
102
{ACAD_XDICTIONARY
360
83EC
102
}
102
{ACAD_REACTORS
330
806B
102
}
330
806B
100
AcDbVisualStyle
  2
Brighten
 70
    12
 71
     2
 72
     2
 73
     0
 90
        0
 40
-0.6
 41
-30.0
 62
     5
 63
     7
 74
     1
 91
        4
 64
     7
 65
   257
 75
     1
175
     1
 42
1.0
 92
        8
 66
     7
 43
1.0
 76
     1
 77
     6
 78
     2
 67
     7
 79
     5
170
     0
171
     0
290
     0
174
     0
 93
        1
 44
50.0
173
     0
291
     1
 45
0.0
1001
ACAD
1000
AcDbSavedByObjectVersion
1070
     0
  0
VISUALSTYLE
  5
807B
102
{ACAD_XDICTIONARY
360
83F4
102
}
102
{ACAD_REACTORS
330
806B
102
}
330
806B
100
AcDbVisualStyle
  2
ColorChange
 70
    16
 71
     2
 72
     2
 73
     3
 90
        0
 40
-0.6
 41
-30.0
 62
     5
 63
     8
 74
     1
 91
        4
 64
     7
 65
   257
 75
     1
175
     1
 42
1.0
 92
        8
 66
     8
 43
1.0
 76
     1
 77
     6
 78
     2
 67
     7
 79
     5
170
     0
171
     0
290
     0
174
     0
 93
        1
 44
0.0
173
     0
291
     1
 45
0.0
1001
ACAD
1000
AcDbSavedByObjectVersion
1070
     0
  0
VISUALSTYLE
  5
8074
102
{ACAD_XDICTIONARY
360
83E6
102
}
102
{ACAD_REACTORS
330
806B
102
}
330
806B
100
AcDbVisualStyle
  2
Conceptual
 70
     9
 71
     3
 72
     2
 73
     0
 90
        0
 40
-0.6
 41
-30.0
 62
     5
 63
     7
 74
     2
 91
        2
 64
     7
 65
   257
 75
     1
175
     1
 42
179.0
 92
        8
 66
     7
 43
1.0
 76
     1
 77
     6
 78
     2
 67
     7
 79
     3
170
     0
171
     0
290
     0
174
     0
 93
        1
 44
0.0
173
     0
291
     0
 45
0.0
1001
ACAD
1000
AcDbSavedByObjectVersion
1070
     0
  0
VISUALSTYLE
  5
8076
102
{ACAD_XDICTIONARY
360
83EA
102
}
102
{ACAD_REACTORS
330
806B
102
}
330
806B
100
AcDbVisualStyle
  2
Dim
 70
    11
 71
     2
 72
     2
 73
     0
 90
        0
 40
-0.6
 41
-30.0
 62
     5
 63
     7
 74
     1
 91
        4
 64
     7
 65
   257
 75
     1
175
     1
 42
1.0
 92
        8
 66
     7
 43
1.0
 76
     1
 77
     6
 78
     2
 67
     7
 79
     5
170
     0
171
     0
290
     0
174
     0
 93
        1
 44
-50.0
173
     0
291
     1
 45
0.0
1001
ACAD
1000
AcDbSavedByObjectVersion
1070
     0
  0
VISUALSTYLE
  5
8083
102
{ACAD_XDICTIONARY
360
8404
102
}
102
{ACAD_REACTORS
330
806B
102
}
330
806B
100
AcDbVisualStyle
  2
EdgeColorOff
 70
    22
 71
     2
 72
     2
 73
     0
 90
        0
 40
-0.6
 41
-30.0
 62
     5
 63
     7
 74
     1
 91
        4
 64
     7
 65
   257
 75
     1
175
     1
 42
1.0
 92
        8
 66
     7
 43
1.0
 76
     1
 77
     6
 78
     2
 67
     7
 79
     5
170
     0
171
     0
290
     0
174
     0
 93
        1
 44
0.0
173
     0
291
     1
 45
0.0
1001
ACAD
1000
AcDbSavedByObjectVersion
1070
     0
  0
VISUALSTYLE
  5
807A
102
{ACAD_XDICTIONARY
360
83F2
102
}
102
{ACAD_REACTORS
330
806B
102
}
330
806B
100
AcDbVisualStyle
  2
Facepattern
 70
    15
 71
     2
 72
     2
 73
     0
 90
        0
 40
-0.6
 41
-30.0
 62
     5
 63
     7
 74
     1
 91
        4
 64
     7
 65
   257
 75
     1
175
     1
 42
1.0
 92
        8
 66
     7
 43
1.0
 76
     1
 77
     6
 78
     2
 67
     7
 79
     5
170
     0
171
     0
290
     0
174
     0
 93
        1
 44
0.0
173
     0
291
     1
 45
0.0
1001
ACAD
1000
AcDbSavedByObjectVersion
1070
     0
  0
VISUALSTYLE
  5
806C
102
{ACAD_XDICTIONARY
360
83D6
102
}
102
{ACAD_REACTORS
330
806B
102
}
330
806B
100
AcDbVisualStyle
  2
Flat
 70
     0
 71
     2
 72
     1
 73
     1
 90
        2
 40
-0.6
 41
30.0
 62
     5
 63
     7
 74
     0
 91
        0
 64
     7
 65
   257
 75
     1
175
     1
 42
1.0
 92
        8
 66
     7
 43
1.0
 76
     1
 77
     6
 78
     2
 67
     7
 79
     5
170
     0
171
     0
290
     0
174
     0
 93
       13
 44
0.0
173
     0
291
     1
 45
0.0
1001
ACAD
1000
AcDbSavedByObjectVersion
1070
     0
  0
VISUALSTYLE
  5
806D
102
{ACAD_XDICTIONARY
360
83D8
102
}
102
{ACAD_REACTORS
330
806B
102
}
330
806B
100
AcDbVisualStyle
  2
FlatWithEdges
 70
     1
 71
     2
 72
     1
 73
     1
 90
        2
 40
-0.6
 41
30.0
 62
     5
 63
     7
 74
     1
 91
        0
 64
     7
 65
   257
 75
     1
175
     1
 42
1.0
 92
        0
 66
   257
 43
1.0
 76
     1
 77
     6
 78
     2
 67
     7
 79
     5
170
     0
171
     0
290
     0
174
     0
 93
       13
 44
0.0
173
     0
291
     1
 45
0.0
1001
ACAD
1000
AcDbSavedByObjectVersion
1070
     0
  0
VISUALSTYLE
  5
806E
102
{ACAD_XDICTIONARY
360
83DA
102
}
102
{ACAD_REACTORS
330
806B
102
}
330
806B
100
AcDbVisualStyle
  2
Gouraud
 70
     2
 71
     2
 72
     2
 73
     1
 90
        2
 40
-0.6
 41
30.0
 62
     5
 63
     7
 74
     0
 91
        0
 64
     7
 65
   257
 75
     1
175
     1
 42
1.0
 92
        0
 66
     7
 43
1.0
 76
     1
 77
     6
 78
     2
 67
     7
 79
     5
170
     0
171
     0
290
     0
174
     0
 93
       13
 44
0.0
173
     0
291
     1
 45
0.0
1001
ACAD
1000
AcDbSavedByObjectVersion
1070
     0
  0
VISUALSTYLE
  5
806F
102
{ACAD_XDICTIONARY
360
83DC
102
}
102
{ACAD_REACTORS
330
806B
102
}
330
806B
100
AcDbVisualStyle
  2
GouraudWithEdges
 70
     3
 71
     2
 72
     2
 73
     1
 90
        2
 40
-0.6
 41
30.0
 62
     5
 63
     7
 74
     1
 91
        0
 64
     7
 65
   257
 75
     1
175
     1
 42
1.0
 92
        0
 66
   257
 43
1.0
 76
     1
 77
     6
 78
     2
 67
     7
 79
     5
170
     0
171
     0
290
     0
174
     0
 93
       13
 44
0.0
173
     0
291
     1
 45
0.0
1001
ACAD
1000
AcDbSavedByObjectVersion
1070
     0
  0
VISUALSTYLE
  5
8073
102
{ACAD_XDICTIONARY
360
83E4
102
}
102
{ACAD_REACTORS
330
806B
102
}
330
806B
100
AcDbVisualStyle
  2
Hidden
 70
     6
 71
     1
 72
     2
 73
     2
 90
        0
 40
-0.6
 41
-30.0
 62
     5
 63
     7
 74
     2
 91
        2
 64
     7
 65
   257
 75
     2
175
     1
 42
40.0
 92
        0
 66
   257
 43
1.0
 76
     1
 77
     6
 78
     2
 67
     7
 79
     3
170
     0
171
     0
290
     0
174
     0
 93
        1
 44
0.0
173
     0
291
     0
 45
0.0
1001
ACAD
1000
AcDbSavedByObjectVersion
1070
     0
  0
VISUALSTYLE
  5
8081
102
{ACAD_XDICTIONARY
360
8400
102
}
102
{ACAD_REACTORS
330
806B
102
}
330
806B
100
AcDbVisualStyle
  2
JitterOff
 70
    20
 71
     2
 72
     2
 73
     0
 90
        0
 40
-0.6
 41
-30.0
 62
     5
 63
     7
 74
     1
 91
        4
 64
     7
 65
   257
 75
     1
175
     1
 42
1.0
 92
       10
 66
     7
 43
1.0
 76
     1
 77
     6
 78
     2
 67
     7
 79
     5
170
     0
171
     0
290
     0
174
     0
 93
        1
 44
0.0
173
     0
291
     1
 45
0.0
1001
ACAD
1000
AcDbSavedByObjectVersion
1070
     0
  0
VISUALSTYLE
  5
8079
102
{ACAD_XDICTIONARY
360
83F0
102
}
102
{ACAD_REACTORS
330
806B
102
}
330
806B
100
AcDbVisualStyle
  2
Linepattern
 70
    14
 71
     2
 72
     2
 73
     0
 90
        0
 40
-0.6
 41
-30.0
 62
     5
 63
     7
 74
     1
 91
        4
 64
     7
 65
   257
 75
     7
175
     7
 42
1.0
 92
        8
 66
     7
 43
1.0
 76
     1
 77
     6
 78
     2
 67
     7
 79
     5
170
     0
171
     0
290
     0
174
     0
 93
        1
 44
0.0
173
     0
291
     1
 45
0.0
1001
ACAD
1000
AcDbSavedByObjectVersion
1070
     0
  0
VISUALSTYLE
  5
8082
102
{ACAD_XDICTIONARY
360
8402
102
}
102
{ACAD_REACTORS
330
806B
102
}
330
806B
100
AcDbVisualStyle
  2
OverhangOff
 70
    21
 71
     2
 72
     2
 73
     0
 90
        0
 40
-0.6
 41
-30.0
 62
     5
 63
     7
 74
     1
 91
        4
 64
     7
 65
   257
 75
     1
175
     1
 42
1.0
 92
        9
 66
     7
 43
1.0
 76
     1
 77
     6
 78
     2
 67
     7
 79
     5
170
     0
171
     0
290
     0
174
     0
 93
        1
 44
0.0
173
     0
291
     1
 45
0.0
1001
ACAD
1000
AcDbSavedByObjectVersion
1070
     0
  0
VISUALSTYLE
  5
8075
102
{ACAD_XDICTIONARY
360
83E8
102
}
102
{ACAD_REACTORS
330
806B
102
}
330
806B
100
AcDbVisualStyle
  2
Realistic
 70
     8
 71
     2
 72
     3
 73
     0
 90
        2
 40
-0.6
 41
30.0
 62
     5
 63
     7
 74
     0
 91
        0
 64
     7
 65
   257
 75
     1
175
     1
 42
1.0
 92
        8
 66
   257
 43
1.0
 76
     1
 77
     6
 78
     2
 67
     7
 79
     3
170
     0
171
     0
290
     0
174
     0
 93
       13
 44
0.0
173
     0
291
     0
 45
0.0
1001
ACAD
1000
AcDbSavedByObjectVersion
1070
     0
  0
VISUALSTYLE
  5
8080
102
{ACAD_XDICTIONARY
360
83FE
102
}
102
{ACAD_REACTORS
330
806B
102
}
330
806B
100
AcDbVisualStyle
  2
Shaded
 70
    27
 71
     2
 72
     2
 73
     1
 90
        2
 40
-0.6
 41
30.0
 62
     5
 63
     7
 74
     0
 91
        4
 64
     7
 65
   257
 75
     1
175
     1
 42
1.0
 92
        8
 66
   257
 43
1.0
 76
     1
 77
     6
 78
     2
 67
     8
 79
     3
170
     0
171
     0
290
     0
174
     0
 93
        5
 44
0.0
173
     0
291
     0
 45
0.0
1001
ACAD
1000
AcDbSavedByObjectVersion
1070
     0
  0
VISUALSTYLE
  5
807F
102
{ACAD_XDICTIONARY
360
83FC
102
}
102
{ACAD_REACTORS
330
806B
102
}
330
806B
100
AcDbVisualStyle
  2
Shaded with edges
 70
    26
 71
     2
 72
     2
 73
     1
 90
        2
 40
-0.6
 41
30.0
 62
     5
 63
     7
 74
     1
 91
       10
 64
     7
 65
   257
 75
     2
175
     1
 42
1.0
 92
        8
 66
   257
 43
1.0
 76
     1
 77
     6
 78
     2
 67
     7
 79
     3
170
     0
171
     0
290
     0
174
     0
 93
        5
 44
0.0
173
     0
291
     0
 45
0.0
1001
ACAD
1000
AcDbSavedByObjectVersion
1070
     0
  0
VISUALSTYLE
  5
807C
102
{ACAD_XDICTIONARY
360
83F6
102
}
102
{ACAD_REACTORS
330
806B
102
}
330
806B
100
AcDbVisualStyle
  2
Shades of Gray
 70
    23
 71
     2
 72
     2
 73
     3
 90
        0
 40
-0.6
 41
-30.0
 62
     5
 63
     7
 74
     2
 91
        2
 64
     7
 65
     7
 75
     1
175
     1
 42
40.0
 92
        8
 66
     7
 43
1.0
 76
     1
 77
     6
 78
     2
 67
     7
 79
     3
170
     0
171
     0
290
     0
174
     0
 93
        1
 44
0.0
173
     0
291
     0
 45
0.0
1001
ACAD
1000
AcDbSavedByObjectVersion
1070
     0
  0
VISUALSTYLE
  5
807D
102
{ACAD_XDICTIONARY
360
83F8
102
}
102
{ACAD_REACTORS
330
806B
102
}
330
806B
100
AcDbVisualStyle
  2
Sketchy
 70
    24
 71
     1
 72
     2
 73
     2
 90
        0
 40
-0.6
 41
-30.0
 62
     5
 63
     7
 74
     2
 91
        2
 64
     7
 65
     7
 75
     1
175
     1
 42
40.0
 92
       11
 66
     7
 43
1.0
 76
     1
 77
     6
 78
     2
 67
     7
 79
     6
170
     0
171
     0
290
     0
174
     0
 93
        1
 44
0.0
173
     0
291
     0
 45
0.0
1001
ACAD
1000
AcDbSavedByObjectVersion
1070
     0
  0
VISUALSTYLE
  5
8078
102
{ACAD_XDICTIONARY
360
83EE
102
}
102
{ACAD_REACTORS
330
806B
102
}
330
806B
100
AcDbVisualStyle
  2
Thicken
 70
    13
 71
     2
 72
     2
 73
     0
 90
        0
 40
-0.6
 41
-30.0
 62
     5
 63
     7
 74
     1
 91
        4
 64
     7
 65
   257
 75
     1
175
     1
 42
1.0
 92
       12
 66
     7
 43
1.0
 76
     1
 77
     6
 78
     2
 67
     7
 79
     5
170
     0
171
     0
290
     0
174
     0
 93
        1
 44
0.0
173
     0
291
     1
 45
0.0
1001
ACAD
1000
AcDbSavedByObjectVersion
1070
     0
  0
VISUALSTYLE
  5
8072
102
{ACAD_XDICTIONARY
360
83E2
102
}
102
{ACAD_REACTORS
330
806B
102
}
330
806B
100
AcDbVisualStyle
  2
Wireframe
 70
     5
 71
     0
 72
     2
 73
     0
 90
        0
 40
-0.6
 41
-30.0
 62
     5
 63
     7
 74
     1
 91
        4
 64
     7
 65
   257
 75
     1
175
     1
 42
1.0
 92
        0
 66
   257
 43
1.0
 76
     1
 77
     6
 78
     2
 67
     7
 79
     3
170
     0
171
     0
290
     0
174
     0
 93
        1
 44
0.0
173
     0
291
     0
 45
0.0
1001
ACAD
1000
AcDbSavedByObjectVersion
1070
     0
  0
VISUALSTYLE
  5
807E
102
{ACAD_XDICTIONARY
360
83FA
102
}
102
{ACAD_REACTORS
330
806B
102
}
330
806B
100
AcDbVisualStyle
  2
X-Ray
 70
    25
 71
     2
 72
     2
 73
     1
 90
        1
 40
0.5
 41
-30.0
 62
     5
 63
     7
 74
     1
 91
        0
 64
     7
 65
   257
 75
     1
175
     1
 42
1.0
 92
        8
 66
     7
 43
1.0
 76
     1
 77
     6
 78
     2
 67
     7
 79
     3
170
     0
171
     0
290
     0
174
     0
 93
       13
 44
0.0
173
     0
291
     0
 45
0.0
1001
ACAD
1000
AcDbSavedByObjectVersion
1070
     0
  0
DICTIONARYVAR
  5
83C9
102
{ACAD_REACTORS
330
83C4
102
}
330
83C4
100
DictionaryVariables
280
     0
  1
1:1
  0
DICTIONARYVAR
  5
83C6
102
{ACAD_REACTORS
330
83C4
102
}
330
83C4
100
DictionaryVariables
280
     0
  1
STANDARD
  0
DICTIONARYVAR
  5
83C5
102
{ACAD_REACTORS
330
83C4
102
}
330
83C4
100
DictionaryVariables
280
     0
  1
STANDARD
  0
DICTIONARYVAR
  5
83C7
102
{ACAD_REACTORS
330
83C4
102
}
330
83C4
100
DictionaryVariables
280
     0
  1
Imperial24
  0
DICTIONARYVAR
  5
83C8
102
{ACAD_REACTORS
330
83C4
102
}
330
83C4
100
DictionaryVariables
280
     0
  1
Imperial24
  0
DICTIONARYVAR
  5
83CC
102
{ACAD_REACTORS
330
83C4
102
}
330
83C4
100
DictionaryVariables
280
     0
  1
1
  0
DICTIONARYVAR
  5
83CB
102
{ACAD_REACTORS
330
83C4
102
}
330
83C4
100
DictionaryVariables
280
     0
  1
0
  0
DICTIONARYVAR
  5
83CA
102
{ACAD_REACTORS
330
83C4
102
}
330
83C4
100
DictionaryVariables
280
     0
  1
127
  0
DICTIONARYVAR
  5
83CD
102
{ACAD_REACTORS
330
83C4
102
}
330
83C4
100
DictionaryVariables
280
     0
  1
2
  0
DICTIONARY
  5
840A
330
80AC
100
AcDbDictionary
280
     1
281
     1
  3
ACAD_XREC_ROUNDTRIP
360
840B
  0
DICTIONARY
  5
840E
330
80B4
100
AcDbDictionary
280
     1
281
     1
  3
ACAD_XREC_ROUNDTRIP
360
840F
  0
DICTIONARY
  5
840C
330
80B0
100
AcDbDictionary
280
     1
281
     1
  3
ACAD_XREC_ROUNDTRIP
360
840D
  0
DICTIONARY
  5
805C
330
805B
100
AcDbDictionary
280
     1
281
     1
  3
ACAD_XREC_ROUNDTRIP
360
83D4
  3
BUMPTILE
360
805E
  3
DIFFUSETILE
360
805D
  3
OPACITYTILE
360
8061
  3
REFLECTIONTILE
360
8060
  3
REFRACTIONTILE
360
8062
  3
SPECULARTILE
360
805F
  0
DICTIONARY
  5
8054
330
8053
100
AcDbDictionary
280
     1
281
     1
  3
ACAD_XREC_ROUNDTRIP
360
83D3
  3
BUMPTILE
360
8056
  3
DIFFUSETILE
360
8055
  3
OPACITYTILE
360
8059
  3
REFLECTIONTILE
360
8058
  3
REFRACTIONTILE
360
805A
  3
SPECULARTILE
360
8057
  0
DICTIONARY
  5
8064
330
8063
100
AcDbDictionary
280
     1
281
     1
  3
ACAD_XREC_ROUNDTRIP
360
83D5
  3
BUMPTILE
360
8066
  3
DIFFUSETILE
360
8065
  3
FBXASSET
360
80FA
  3
OPACITYTILE
360
8069
  3
REFLECTIONTILE
360
8068
  3
REFRACTIONTILE
360
806A
  3
SPECULARTILE
360
8067
  0
DICTIONARY
  5
8408
330
80AA
100
AcDbDictionary
280
     1
281
     1
  3
ACAD_XREC_ROUNDTRIP
360
8409
  0
DICTIONARY
  5
83CF
330
80A6
100
AcDbDictionary
280
     1
281
     1
  3
ACAD_ROUNDTRIP_2008_TABLESTYLE_CELLSTYLEMAP
360
83D0
  3
ACAD_XREC_ROUNDTRIP
360
8406
  0
DICTIONARY
  5
83E0
330
8071
100
AcDbDictionary
280
     1
281
     1
  3
ACAD_XREC_ROUNDTRIP
360
83E1
  0
DICTIONARY
  5
83DE
330
8070
100
AcDbDictionary
280
     1
281
     1
  3
ACAD_XREC_ROUNDTRIP
360
83DF
  0
DICTIONARY
  5
83EC
330
8077
100
AcDbDictionary
280
     1
281
     1
  3
ACAD_XREC_ROUNDTRIP
360
83ED
  0
DICTIONARY
  5
83F4
330
807B
100
AcDbDictionary
280
     1
281
     1
  3
ACAD_XREC_ROUNDTRIP
360
83F5
  0
DICTIONARY
  5
83E6
330
8074
100
AcDbDictionary
280
     1
281
     1
  3
ACAD_XREC_ROUNDTRIP
360
83E7
  0
DICTIONARY
  5
83EA
330
8076
100
AcDbDictionary
280
     1
281
     1
  3
ACAD_XREC_ROUNDTRIP
360
83EB
  0
DICTIONARY
  5
8404
330
8083
100
AcDbDictionary
280
     1
281
     1
  3
ACAD_XREC_ROUNDTRIP
360
8405
  0
DICTIONARY
  5
83F2
330
807A
100
AcDbDictionary
280
     1
281
     1
  3
ACAD_XREC_ROUNDTRIP
360
83F3
  0
DICTIONARY
  5
83D6
330
806C
100
AcDbDictionary
280
     1
281
     1
  3
ACAD_XREC_ROUNDTRIP
360
83D7
  0
DICTIONARY
  5
83D8
330
806D
100
AcDbDictionary
280
     1
281
     1
  3
ACAD_XREC_ROUNDTRIP
360
83D9
  0
DICTIONARY
  5
83DA
330
806E
100
AcDbDictionary
280
     1
281
     1
  3
ACAD_XREC_ROUNDTRIP
360
83DB
  0
DICTIONARY
  5
83DC
330
806F
100
AcDbDictionary
280
     1
281
     1
  3
ACAD_XREC_ROUNDTRIP
360
83DD
  0
DICTIONARY
  5
83E4
330
8073
100
AcDbDictionary
280
     1
281
     1
  3
ACAD_XREC_ROUNDTRIP
360
83E5
  0
DICTIONARY
  5
8400
330
8081
100
AcDbDictionary
280
     1
281
     1
  3
ACAD_XREC_ROUNDTRIP
360
8401
  0
DICTIONARY
  5
83F0
330
8079
100
AcDbDictionary
280
     1
281
     1
  3
ACAD_XREC_ROUNDTRIP
360
83F1
  0
DICTIONARY
  5
8402
330
8082
100
AcDbDictionary
280
     1
281
     1
  3
ACAD_XREC_ROUNDTRIP
360
8403
  0
DICTIONARY
  5
83E8
330
8075
100
AcDbDictionary
280
     1
281
     1
  3
ACAD_XREC_ROUNDTRIP
360
83E9
  0
DICTIONARY
  5
83FE
330
8080
100
AcDbDictionary
280
     1
281
     1
  3
ACAD_XREC_ROUNDTRIP
360
83FF
  0
DICTIONARY
  5
83FC
330
807F
100
AcDbDictionary
280
     1
281
     1
  3
ACAD_XREC_ROUNDTRIP
360
83FD
  0
DICTIONARY
  5
83F6
330
807C
100
AcDbDictionary
280
     1
281
     1
  3
ACAD_XREC_ROUNDTRIP
360
83F7
  0
DICTIONARY
  5
83F8
330
807D
100
AcDbDictionary
280
     1
281
     1
  3
ACAD_XREC_ROUNDTRIP
360
83F9
  0
DICTIONARY
  5
83EE
330
8078
100
AcDbDictionary
280
     1
281
     1
  3
ACAD_XREC_ROUNDTRIP
360
83EF
  0
DICTIONARY
  5
83E2
330
8072
100
AcDbDictionary
280
     1
281
     1
  3
ACAD_XREC_ROUNDTRIP
360
83E3
  0
DICTIONARY
  5
83FA
330
807E
100
AcDbDictionary
280
     1
281
     1
  3
ACAD_XREC_ROUNDTRIP
360
83FB
  0
XRECORD
  5
840B
102
{ACAD_REACTORS
330
840A
102
}
330
840A
100
AcDbXrecord
280
     1
102
DISPLAYNAME
  1
Imperial24
102
FLAGS
 90
        0
  0
XRECORD
  5
840F
102
{ACAD_REACTORS
330
840E
102
}
330
840E
100
AcDbXrecord
280
     1
102
SHADEPLOT
 70
     0
102
SHADEPLOTRESLEVEL
 70
     2
102
SHADEPLOTCUSTOMDPI
 70
   300
  0
XRECORD
  5
840D
102
{ACAD_REACTORS
330
840C
102
}
330
840C
100
AcDbXrecord
280
     1
102
SHADEPLOT
 70
     0
102
SHADEPLOTRESLEVEL
 70
     2
102
SHADEPLOTCUSTOMDPI
 70
   300
  0
XRECORD
  5
83D4
102
{ACAD_REACTORS
330
805C
102
}
330
805C
100
AcDbXrecord
280
     1
102
MATERIAL
148
0.0
149
0.0
149
0.0
 93
        0
 94
      127
282
     0
 72
     0
 77
     0
171
     0
175
     0
179
     0
273
     0
  0
XRECORD
  5
805E
102
{ACAD_REACTORS
330
805C
102
}
330
805C
100
AcDbXrecord
280
     1
270
     1
271
     1
  0
XRECORD
  5
805D
102
{ACAD_REACTORS
330
805C
102
}
330
805C
100
AcDbXrecord
280
     1
270
     1
271
     1
  0
XRECORD
  5
8061
102
{ACAD_REACTORS
330
805C
102
}
330
805C
100
AcDbXrecord
280
     1
270
     1
271
     1
  0
XRECORD
  5
8060
102
{ACAD_REACTORS
330
805C
102
}
330
805C
100
AcDbXrecord
280
     1
270
     1
271
     1
  0
XRECORD
  5
8062
102
{ACAD_REACTORS
330
805C
102
}
330
805C
100
AcDbXrecord
280
     1
270
     1
271
     1
  0
XRECORD
  5
805F
102
{ACAD_REACTORS
330
805C
102
}
330
805C
100
AcDbXrecord
280
     1
270
     1
271
     1
  0
XRECORD
  5
83D3
102
{ACAD_REACTORS
330
8054
102
}
330
8054
100
AcDbXrecord
280
     1
102
MATERIAL
148
0.0
149
0.0
149
0.0
 93
        0
 94
      127
282
     0
 72
     0
 77
     0
171
     0
175
     0
179
     0
273
     0
  0
XRECORD
  5
8056
102
{ACAD_REACTORS
330
8054
102
}
330
8054
100
AcDbXrecord
280
     1
270
     1
271
     1
  0
XRECORD
  5
8055
102
{ACAD_REACTORS
330
8054
102
}
330
8054
100
AcDbXrecord
280
     1
270
     1
271
     1
  0
XRECORD
  5
8059
102
{ACAD_REACTORS
330
8054
102
}
330
8054
100
AcDbXrecord
280
     1
270
     1
271
     1
  0
XRECORD
  5
8058
102
{ACAD_REACTORS
330
8054
102
}
330
8054
100
AcDbXrecord
280
     1
270
     1
271
     1
  0
XRECORD
  5
805A
102
{ACAD_REACTORS
330
8054
102
}
330
8054
100
AcDbXrecord
280
     1
270
     1
271
     1
  0
XRECORD
  5
8057
102
{ACAD_REACTORS
330
8054
102
}
330
8054
100
AcDbXrecord
280
     1
270
     1
271
     1
  0
XRECORD
  5
83D5
102
{ACAD_REACTORS
330
8064
102
}
330
8064
100
AcDbXrecord
280
     1
102
MATERIAL
148
0.0
149
0.0
149
0.0
 93
        0
 94
      127
282
     0
 72
     0
 77
     0
171
     0
175
     0
179
     0
273
     0
  0
XRECORD
  5
8066
102
{ACAD_REACTORS
330
8064
102
}
330
8064
100
AcDbXrecord
280
     1
270
     1
271
     1
  0
XRECORD
  5
8065
102
{ACAD_REACTORS
330
8064
102
}
330
8064
100
AcDbXrecord
280
     1
270
     1
271
     1
  0
XRECORD
  5
80FA
102
{ACAD_REACTORS
330
8064
102
}
330
8064
100
AcDbXrecord
280
     1
 70
     1
 90
1959938040
 71
     1
  1
512A5CEF-236A-4116-962D-E7ACA270D7C6
311
504B0304140006080800C3836D57DE24DD97D7000000200100004F00000037423635313742302D314142302D343731422D383236352D3435343945333041393330332F4173736574446174612F446566696E6974696F6E4974657261746F7250726F706572746965732E62696EEB606060F80F0540260323103700495E20ED
311
9E9A975A94991C9C9C919A9BC8C00612C9C94F4ACC6147C831019920AE4B6A5A62694E0948976F6671726A4E4E625E6A7E69B12042A9426E6209D0B8C41C3D90264E20860914834C48875806B2DF0F88414E02D189290556F689C5C5A925B6FA694915FA864E9646A66606C6BA46CE6696BA262EC64EBA8E8626AEBACE16AE
311
E6C6CE2E66CEC686A6FA45A9C5F9A545C9A9C5FA46FA06F15093E30BF2D283221DEB0C19188280D6B330BCDF77326CA76B4E3877851ED02297F4E6989D063337019948601F00504B0304140006080800C3836D57D2763571F7000000300200004500000037423635313742302D314142302D343731422D383236352D343534
311
3945333041393330332F4173736574446174612F496E7374616E636550726F706572746965732E62696EEB606060F80F0540260323103700495E20ED9E9A975A94991C9C9C919A9BA802143035347234757675D335323673D435313434D3B5343372D1753577747634323770317736634768046931363471713532B5D43535
311
3131D635313332D475727372D13534373670367376B67474B5042A03DBCBA019D37FE8ABC6157B20CD04146B0062181F4C03F940F0C11EA29A8141C08141002C0426541C106CAC2CA046088033B02A030AC2157C6006F21A8018AAF50194E6010A610250382264E08660284CD9E98021862280A91564B406929A0FF62C401E
311
28B6F88038B83CB1243943D7A928312F25350524432E08587D52FF6F3D76DD20370000504B0304140006080800C3836D5728BB58AF800100009E0500003D00000037423635313742302D314142302D343731422D383236352D3435343945333041393330332F536368656D61732F436F6D6D6F6E536368656D612E786D6CBD
311
544D4FC23018BEFB2B96DE15493C78601010A34B880709DEDFB52FD0D8B54BD70DF6EFED3AC0B12E6442E2716BFB3CEFF3D18E26FB440405EA8C2B1992E1C323095052C5B8DC842437EBFB673219DF8DA659866649B798C078B48AE6410122242F2A4994AC7F93815DF85C049C8564CA0A901499DD886B2EB9B1E02448F358
311
701A9235880C49A0119892A20C89D1B9FD768815CAD268CB5E0355B40B1E47F3E37A2020464BED06AA57CE8FCC20C3C3446D46761A2632A8C1283D07031EFF2AE7CCB1BFEEE916E406DFAC8E36FFD99A9D60A6944090EEDC3B670C7DC13DE86B6B2C5C240D6E503BB85ACD579D513F1B9F9A69DC9CC22AFA80C426D40AF0B2
311
1EA168559156B6276F0F726A6BFF04DCD513A87A62CAD41FB24FCB2858B3952E3D852084DA25B9303C15687973CC8E8AAE11DF2836C38C6A9E765E8C1BA1BFB1DC29CDFE518C8B5A7655A4ED7E77291ABEB80DBD82EC866ADE1B8D05AF9E35CF09D7A061F38A986D9EC412B8F0F65E5D81534D9B231D1E5A8FE577A241F3A5
311
FD01504B0304140006080800C3836D572CCEBD668A040000E01200003E00000037423635313742302D314142302D343731422D383236352D3435343945333041393330332F536368656D61732F47656E65726963536368656D612E786D6CD5586D6FDB380CFE7EBF42F0F7A649B70E1B90744856B4970F450FCD7A5F054596
311
13EDE4174872DADCAF3F522F8ED3B88D2F1D06AC4050DBA2493EE4438AF2F8EB73AEC8466823CB62928C06C384888297A92C5693A4B6D9D9E7E4EBD51FE3A931C22EF85AE4EC6AFC38BF261BA626C9AD288496DC3F4FCEAFC63366845F7A10452AF41DB320C0D44EC26EAB20918735565582695670811A6A49643A49A6E906
311
9FA4604A64B29016DC4B48552F95E4932463CA888468C1D2B250DB4962750DF7CE273069CE8363F1FF4EDB00E0A21999574AE4A2B00C353B93F3BD4777B8A61ED8F604ABFEDD79CE56A2B7BDFBDBC50996E0ADDE16FED26223C5D30956C29BDF4A55EA686E5E58B112DA45CE67F76F4FA27EFA3FB672FD7372FC388FAECDCA
311
5209E693CAD167BADCD272F943701B3812F8A3D852008B1D2E32DB927B2F833C6EA95879925356D254582695095A3CE982924720BE5774A3CB9CDCDB350427D2DF20DA1B5532EBE2D5D6288D75D4F7E4FD9890A0EF8E3D93EBB8F8BA4758158EF6FB90A6F9520281C93DE7AAC6D24607DA296BB96018123F821A7D6A5C5884
311
050C475DA4865442732C8B95684A50165CBB3A32F25F783A4A480ED59AD7F924B968AEA50131F46303223E6A397B0E52976030DC1DCA81D7E7C1EDEEA42C19FF27635C505E2BD5198A599020DF50A2330FCB3AAF28CB0124108429553EF1B228802E2265D8F7CC2401042B155BCC7070F1E5C55F13B4A9577362CCCE46C321
311
74E010C3C378C44841A4BDA00FE3A12006CE11EE6AEC59894D3526DDE1CD59D503ECC324017F8061B7F162162FA62EDD81AE3308617770796DCBDAD2B2625C5AE8A63DE20B2C8AA5E95E76E5730823955956E33E705425A2187C185D36489A1B44D3DCEC2172F6BA2105C3546287A7194B2331768EBBE64F6E70A9930ABE0A
311
DEA89E9E2C38523B810287AD67A54A039C1606EAFE68F8304610BB9093DBDDABC0B2AE4E290DCDA15376D7E39F72B556F0B32EAB5D3D498B4C41ABADEC3A1434C422D87E8025A84BDCB2B1417ED750FAE4DA8976863974C577C7F902D3F156AD354DEA3540DE6BEAE2BEA52F7A2EB4CA43802ECE5BF2CE2EDC9347179FFB02
311
3CE412E60BE16DA0BE29B374988A553F561DC04615DD35F7D2C8979F60E5955CE93DF29DED8AFA1EE6642D53418086C03C47C377910F75F7E8F5EF665F70B60FFB22AEDF897D119E8423C773E819A3C1E55E550599EE6EDCA34D0C86FD72057DF2CD46F16A470682471C164E4346D5306BF12D7D12D82CFF673D41636C3474
311
43FEB51B50D72EA171A8E4A58623A4A16E0FA2B8B10A0D23268D87C33896EE8FB73305A74BF224EDBADFA0BD674AB354D63DB7BD5D83426761C077DE767728235446A552754EB93B755891C3C4CC6CADE37CF0E912A7BB38DBA010F9DE1282EDF470CA69A9CDA482E334C4A6EA4107987980B17E72F31730EBF88BBD39E7C6
311
29F56797A3C0009C2C5AE7951D9A05A02773440F02EEB4DE396A3B6A570C72CCFBCD823B0B8ED3F1D5CEDDFED772FA70236C83FB7D86C385D570B87107535572A60A96035F8F7C6A7192F13007246BBE0521855E6AC46F3E27689CEE7D186A6FD679D98CDCAD13333E04EBE7ED6F55FF01504B0304140006080800C3836D57
311
6180134D5F0100006B0300004500000037423635313742302D314142302D343731422D383236352D3435343945333041393330332F536368656D61732F52656E6465724D6174657269616C536368656D612E786D6CA5934D6FC2300C86EFFB1551EEE343DBA41D1A103009551ADAD40EAE28A4A68D9426284961FCFBE5A340
311
113B2071746D3F765EBF4DC6BFB5407BD0862B49F0B037C0082453059725C18DDD3EBFE3F1E829991803366715D474942CD30FB4A782E00C64017A412D684E454CE3FE28995203B162A6EA5AC94B66997D225E109CD63B0135484BAD1B3C07E9080CA35DB3119C11BCA5C200461A68A1A438126C75E3E230D40FF81FB3F03C
311
91D1E3A3A0AF79FE28E25BC39EC3E17E4C2A2D94A0833A51AF55BCCA7D88572FCBAC529C4140B020FC3AAFA886621DCED7EAD7664CC86024E806DC297DA1BB393E4156543457A4537DB8817349A70F8ACBF09B3EEE2CB2F33E91B65D60786E4E3B39B77E3FEEEF5650424525DA657FB8B46BE6BF064646F0A0F7327C0BC1BC
311
1B4CBBC1C419FA3CCB23500007872A2580CAAE5461865565294E4EDB4617B62FF579DF9A5B2F54E834076A597573A020912FED777F9B3F504B0304140006080800C3836D5794A9CEFC51000000570000004700000037423635313742302D314142302D343731422D383236352D3435343945333041393330332F4173736574
311
446174612F41737365745461626C654F66436F6E74656E74732E62696E536160603035347234757675D335323673D435313434D3B5343372D17535777476343237703177361302AACB4D2C492DCA4CCC492C28484D2C4ACC4B4E050A82012F90744FCD03CA26072767A4E6260200504B0304140006080800C3836D57F86583
311
4058000000680000004500000037423635313742302D314142302D343731422D383236352D3435343945333041393330332F4173736574446174612F53747265616D56657273696F6E5461626C652E696E66558CBD0A80300C06F73E4B117FB66E451741D041DC5BF98480A492E4FDD18EAEC7DD4555D89EF28DF51A0B1BD8
311
340C4DE7DD848B988C0ACF0649566493F2408C508DDEBB99D5129FF8F1AF8CF5B9503E20FAE5A16B5AF702504B0304140006080800C3836D578920F601340100009A0400003600000037423635313742302D314142302D343731422D383236352D3435343945333041393330332F4173736574446174612F636E782E786D6C
311
CD94314FC3301085FF4AE43D76D24A802AC71582A51348540C6C57E752AC3A76645F10FC7BEC3603A8882943D6F3BBF3F327BF93DBCFDE161F18A2F1AE6135AF58814EFBD6B863C346EACA3B566C950CDED30F192B1CF4D8B05C664A1E831F87A9D46207A3CD556BDC692ADEC788B48783C5A7EEC13B42479115DA428C0D8B
311
FA1D7BE030926F319E780B04BCE601A31F83C634894C8FD3241D10085BA656D56A5DD67559AFF7F5CD665D6DAADB3729B252C983F776D29B7459F043A12FB7325549918F951C839934F92D4CFDE5911F8C932229958C141293A983BE86D401C3608D064AE884D784542611422FC545ACA4C80C7E9178C4CE38935B76C91890
311
0FCFC91E0632B83822FF799D9FCCCE4502A771B93CAE1DCE4FE1E5FC835E2F813C27666939B976C88DEB66488938AF91149ABC55D437504B0304140006080800C3836D573A121AD7080100004F0300003400000037423635313742302D314142302D343731422D383236352D3435343945333041393330332F536368656D61
311
732F636E782E786D6CCD93BD4E042114855F6542BF30EC246A360C5B5858D9A8951DC2DD952C7027FC187D7B61A4D84DECB4D80E0E5FC839878BD87F7A377C404C16C34C381DC90041A3B1E13893920F9B3B32ECA58888F90C2343501E66D26422C5316259BA64E0A08A6BAAB3E1D4C57BF41EC3B37E07AFC8A09D4A692669
311
DD5255321A48276A545694D308094BD4506FC8D643BF414750190C91DB713B6D38DFF0E985DFECA67137DEBE0AD64829DE105DE76DC810711934D645A87646C1DAB11425DACEB40C449E7BA3B50DC12A2145CAB176D0C9FCB554522D8BB35AE55A155BC11F460AD6A25E047E8000D1EAEB4C7C61EEDF223F4130101FEB2B45
311
ABDC7526FFCDE3DF0A60EBECD711685F417E03504B0304140006080800C3836D57410A3D5871000000A40000002C00000037423635313742302D314142302D343731422D383236352D3435343945333041393330332F636E782E786D6C55CC4D0E82301086E1AB34B31774E7A22D31F1069E60020334B633A63FC6E34B0909
311
B07DDE2F9FEE7EC1AB2FC5E4840DDC9A2B28E25E06C7938192C7CB1D54677514C9871928C640062A83D55394F2D968A0118BAFEA1DBF377CA444F98919176EAB9FEAAB9F2960DA5BBB1E2ED3FA6FFF504B0304140006080800C3836D57870EA6C37D000000A300000007000000636E782E786D6C4D8CD10A832018855F45FE
311
7B379D9A056A24EC416259C84AC3E5D8E34F4717BB391F7C9C7354FFD956F476E9E563D0402F04900B8F38F9B068C8C78C5B40BD5129C6E3AF06288C9BD3503518B5A498F7534D6E1EF35AEDEAC3F394D236824A4B301D4A70492D6E6F8DC05CF0EECEC8D031C2CAE25A2705BFBFC27A6FBE504B0304140006080800C3836D
311
5716E99B5DA600000035010000130000005B436F6E74656E745F54797065735D2E786D6C9590410E82301045AFD2740F4517C6180A0BF5065E60AC53688469D30E066F6F91AD9AB89CF9FFFD3F99BA9DC7413C3026E749CB4D59498164FCCD51A7E5C4B6D84BD136F5E5193089ECA5A465CF1C0E4A25D3E308A9F401292BD6
311
C711388FB15301CC1D3A54DBAADA29E38991B8E0254336F5092D4C038BF39CD76B6FC6A538AEBEA54A4B08617006389FA516557DE4AE8E7E70DE30729138228C5F021CD93F02D4FB0DCD0B504B0304140006080800C3836D573DEE336E64000000790000001B0000006175746F6465736B2D64657369676E2D7061636B6167
311
652E786D6C35CBC10E83200C00D05F21DCA56CA76D41FC96062B120735B69A7DBE268BB7777961F8D5AF396893C2ADB70FE7ADA196782C2DF776D7A97B5933C430F15651E5469C55D70F80A4992A3ADC954792C525AE70A1E4D6AD9816CC044FEFDF01FE3FDE907802504B0304140006080800C3836D57137248C3F7000000
311
960100003700000037423635313742302D314142302D343731422D383236352D3435343945333041393330332F4173736574446174612F636F72652E786D6C8550CB6E833010FC15B477838D514323E38840FA053DF5661987580936F2A3EAE7D70E546A4F3DED6A76667677D8E96B79149FCA796D4D07A4C4502823EDA4CD
311
DC410C57D44271E2CC591B7ED1A03062511D6418389B9D8DEB0E496B8232193576523B28BC57010AF9484D075EDED4224A114362F87BB90A7917B32A49B9F1388B514FBB544FC94D5FB572C06B3CD0819C29BA8C63831AFC7A467D8B7B74190E4D4BDF4883FB915559CC59D0CBCF76E994086ACAFA9A224210A1EFE4E548F1
311
111F3E5895999CF9E0D2CFFBD2FC1DF03E5F3D8A2058B54DFFB8C675FADF356A1368BDBB6E0A0F9CA4239F03CEAA9C522ACF0853CD89F26F504B0304140006080800C3836D5716EF007FF6000000940100003500000037423635313742302D314142302D343731422D383236352D3435343945333041393330332F53636865
311
6D61732F636F72652E786D6C8550CB6E833010FC15B477838D519346C61181F407DA536F9671A89560233FAA7E7E6DA0527BEA6957B333B3BBC3CE5FF3A3F854CE6B6B5A202586421969476DA61662B8A1231467CE9CB5E1170D0A2366D5428681B3C9D9B8EC90B4262893516347B583C27B15A0908FD4B4E0E5879A452962
311
480C7F2F1721EF62522529371E6731EA7197EA31B9E99B560E788D7BDA930B45D7616850839F2FA83BE20E5DFB4373A42FA4C1DDC0AA2CE62CE8F967BB744A0435667D4D112188D037F274A2F8840FEFACCA4CCE7C70E9E77D69FE0EF8EB7AA767D536FBE31997F17FCFA84DA0F5EEB9293C70924E5C079C5539A354D60053
311
CD79F26F504B0304140006080800C3836D57D4BC940100010000D70100002D00000037423635313742302D314142302D343731422D383236352D3435343945333041393330332F636F72652E786D6C95914D6EC3201085AF82666F1B8C7F920813C5526FD05577D44C1C94182C03558F5F5CBB6ABB6B37801EDF1B7833E2FC
311
3E3DC81B2EDE38DB01CB2910B483D3C68E1DC470CD0E40CE522CCE851F1810AB26EC6095418A717171DEA5C1D9807655ADD3B88BCA7B0C4086473A74E0871B4E2A573124C2DFF3590D773562CEF28D932298E9CB3A2CA8026A90252D79C658C6F8336B4E9C9E68FB228A9594221A1B78B93F86D32B6AE2E6902281AC45B1DD
311
262A1ABD3346A73F9AABC10564DB37356B7B9AB14B5AAA96F5D9A16CEAACAAABE313A79723A73C154966297C585267F6226B0FFE6ADF8CBF92C559FF33D9E6F020D977A8626DB314C5E70CD2BE8E447E00504B0304140006080800C3836D577C5CCF2305010000B201000008000000636F72652E786D6C8D50CB6E842014FD
311
15C21E05311D3B41268E4EBFA0ABEE2830968C821198B47F5F186DD2EEBABAE43CEE395C76FA9C2770D7AB37CEB6901418026DA553C68E2D8CE18A1A084E9CADCE855F3208AC98750B330C391B5717971D92CE066D336A9DD23B28BCD7010239A5470BBDFCD0B328440C49E16FC522E44D8CBA20C5A6E32C98F9C72A572D82
311
569057B8A2881044E82B793A527CC4873756662567311AB5471995D2CDD5E8355B7ADA9333459761A8518D9FCFA86B70872EFDA16EE80BA97137B0329B39F3614D7FDE97A49E017871CFB9ACDC28CEDE9D9B76412AA580B3D317E4989599F8533A2EEA1FA58D0DB4DA176E0E0F3949851E440ACE174CE371DE34F3B5F93750
311
4B01021400140006080800C3836D57DE24DD97D7000000200100004F000000000000000000000000000000000037423635313742302D314142302D343731422D383236352D3435343945333041393330332F4173736574446174612F446566696E6974696F6E4974657261746F7250726F706572746965732E62696E504B01
311
021400140006080800C3836D57D2763571F70000003002000045000000000000000000000000004401000037423635313742302D314142302D343731422D383236352D3435343945333041393330332F4173736574446174612F496E7374616E636550726F706572746965732E62696E504B01021400140006080800C3836D
311
5728BB58AF800100009E0500003D000000000000000000000000009E02000037423635313742302D314142302D343731422D383236352D3435343945333041393330332F536368656D61732F436F6D6D6F6E536368656D612E786D6C504B01021400140006080800C3836D572CCEBD668A040000E01200003E000000000000
311
000000000000007904000037423635313742302D314142302D343731422D383236352D3435343945333041393330332F536368656D61732F47656E65726963536368656D612E786D6C504B01021400140006080800C3836D576180134D5F0100006B03000045000000000000000000000000005F0900003742363531374230
311
2D314142302D343731422D383236352D3435343945333041393330332F536368656D61732F52656E6465724D6174657269616C536368656D612E786D6C504B01021400140006080800C3836D5794A9CEFC51000000570000004700000000000000000000000000210B000037423635313742302D314142302D343731422D38
311
3236352D3435343945333041393330332F4173736574446174612F41737365745461626C654F66436F6E74656E74732E62696E504B01021400140006080800C3836D57F865834058000000680000004500000000000000000000000000D70B000037423635313742302D314142302D343731422D383236352D343534394533
311
3041393330332F4173736574446174612F53747265616D56657273696F6E5461626C652E696E66504B01021400140006080800C3836D578920F601340100009A0400003600000000000000000000000000920C000037423635313742302D314142302D343731422D383236352D3435343945333041393330332F4173736574
311
446174612F636E782E786D6C504B01021400140006080800C3836D573A121AD7080100004F03000034000000000000000000000000001A0E000037423635313742302D314142302D343731422D383236352D3435343945333041393330332F536368656D61732F636E782E786D6C504B01021400140006080800C3836D5741
311
0A3D5871000000A40000002C00000000000000000000000000740F000037423635313742302D314142302D343731422D383236352D3435343945333041393330332F636E782E786D6C504B01021400140006080800C3836D57870EA6C37D000000A300000007000000000000000000000000002F100000636E782E786D6C50
311
4B01021400140006080800C3836D5716E99B5DA6000000350100001300000000000000000000000000D11000005B436F6E74656E745F54797065735D2E786D6C504B01021400140006080800C3836D573DEE336E64000000790000001B00000000000000000000000000A81100006175746F6465736B2D64657369676E2D70
311
61636B6167652E786D6C504B01021400140006080800C3836D57137248C3F70000009601000037000000000000000000000000004512000037423635313742302D314142302D343731422D383236352D3435343945333041393330332F4173736574446174612F636F72652E786D6C504B01021400140006080800C3836D57
311
16EF007FF60000009401000035000000000000000000000000009113000037423635313742302D314142302D343731422D383236352D3435343945333041393330332F536368656D61732F636F72652E786D6C504B01021400140006080800C3836D57D4BC940100010000D70100002D00000000000000000000000000DA14
311
000037423635313742302D314142302D343731422D383236352D3435343945333041393330332F636F72652E786D6C504B01021400140006080800C3836D577C5CCF2305010000B2010000080000000000000000000000000025160000636F72652E786D6C504B050600000000110011005A060000501700000000
310
504B0304140006080800C3836D57000000000000000000000000370000006662782F34383139313731432D364141452D343537442D424339302D4134314336463232343636392F617474726962757465732E62696E504B0304140006080800C3836D57000000000000000000000000350000006662782F3438313931373143
310
2D364141452D343537442D424339302D4134314336463232343636392F76657274696365732E62696E504B0304140006080800C3836D57F270F1330600000004000000360000006662782F34383139313731432D364141452D343537442D424339302D4134314336463232343636392F747269616E676C65732E62696E6366
310
60600000504B0304140006080800C3836D5751464CB48900000043010000360000006662782F34383139313731432D364141452D343537442D424339302D4134314336463232343636392F6469726563746F72792E786D6C9D8F310EC2300C45AF127987122606C71DD918B841D4B851A43646695A717C52A85029031293A5
310
A76FBF6FACEF7DA7264E43906840EF0FA03836E242F406C6DCEE4EA06AC22492573150D1F66C60C640E8938CB705396EEDD86DE9B5042FE27813D640EA63BB001C722AF6E55CB61E4863F58284D5D3F53DD715CE1C3985E63FD7F1B7EBDD617E9F1E504B0304140006080800C3836D57735F927C3C070000201C0000340000
310
006662782F34383139313731432D364141452D343537442D424339302D4134314336463232343636392F6F626A656374732E786D6CDD59596FDB3810FE2B84F665F741A78FC485E3C2B193C228D2160DBAD837819669871BEA002525CEFEFA1D52A42C2AB2ADF400169B00B14391C3996FEED1F4FD3E66E889F09CA6C995E5
310
3B9E854812A51B9AECAEACB2D8DA97167A3F43539EA645639F85121C932B4B2C5BB3E98EA765A69636648B4BD65EBDBDFE0BE5114988852286F3FCCACAA3071263079745BA21F9A3B3C1057676DBBDE33BD54693EC8EE3ECA175558639490A6015D613A0A238F0CD7F4124773675C50663DBA0DFB6E0C436570A6E324A93BC
310
C049F48AABD675C111AE5AD70DFCE1F226184DECD17038B087E3C0B7AF6FAF97B67F31F016E3C56232BF995868365DA729AB15909164035A7CB166FED4154F6AF1150A5D7C4769929048A1D9B56143145D4AF2362606B0BE14ADA1904AD6C6C2A0A7F047B6F502C560C9405B0BA73F9BD69BAEFF0610F23E56CA7322AC3C2F
310
38E85A615FF9833775AB55432F3447312E08A7982146D71C7350106CAD14649011DE2248218199D4A2A6D7E4150CFBBC2F7571B92D1913FE6BCDA4A785E08FA4C82567F41FC20FDC376F039E40DA9226C5A512B678C980C464EACAC5EAD920500F2B20D196E11D580B8829360D82165E0B110B564B6BF6F176BDBF17F1A1FB
310
F28CA719E185B03CE9CCCAEFB4061BA605C6D703940A5753770754BE02F49F00F99A173405CD71BA1FEE875A768E937C9BF218B4833C647BF0C743E2EBAB6F53B73E3C43C88895C73005B7FD49981A62187737209D4D9FC0E8533E50C2DD4798814DDFD144F839180A62292C41BCDFAEF7D66C05C11416E11466203DFC4E5D
310
F115C1474507E24D4B435DE1B787A2B4C3B4FDECA0AB0F60339C46B5AA0C198FE13BFA29F8CE97F71FEF4BBEC511B9538EBD245B9AD0029269374306E886CB7F5B7D921EF981A56BCC0EA78D4D115CB34B45DCE850CBBD520B927A014E441AAE342357EE28783B6338216999ABF5AE3815A52CE5E1FA25AC5CB8F3AE3FB50D
310
54972903E88C6590DC234E3381893553DAAA03A1D310142C0C736581BB4AABE1BA8CB310C769998850FBDA14DB7C409C1196085425356DD8DA6B35D90DDD6ECB1C825727C98501A4F2674DB8B2F021C4B12E7E39D9720C49344D420A39189CA5F306E3821ABCD33CE7846D43CA5819875BCA208F8431CE8ED0EF294133733D
310
9297E7946F3A099A96A57D52DB90005C01AB41D2D9AA8AF94AA79C3C515166CA7CA6B381B143D5A1D66C78245D884CD101A8364669E6233F988F1637B7763018CFEDA1EF8FEDC93858DA3717F3C53CB8F096178B719B4F1DAD9AF90E5429CA1CC3FF8A87325E2798327820C4C69BECDD7B993DAF5C088DAE7F3D0946636F60
310
078BF1C41E2E07D7F6DC1FDED88BCB9B8BC162395E0CFC91CB499E963C22B91BB85EA84D324B76C7B8D2DCBD8EA150D69C4F765A5F6D61FEC731B49D130C25FE5783681DBB3A0AC2BE41541C6D87501C3D8A14154650F575BA4F2B88B6F9E88A736F8CCB9E33F0E48FEF4F026F125C4E0E2E783250CB7B7E38CE75491041DF
310
5916619AE18816DD09B5854BCF38FDA6DCE2404040804EFDB7BEE4749E51978434C63B126EB1E8123A02E339093A73D88EA5794E1392CB2EEF55F5D7A2E939504C9939B7C308691EC6A4C0DF637FB26D68D934C46616423F5A8889C0D9AAA03668D5811CA328BA5F48DC52FE9730C771C6AA4EF71C067EA021D03D4E97C509
310
A6C5154F606F212E426F43E4E0E21CF59A7D5D1F746AAD4D7DF2DDE48FC0A3EB9A5F088FBEA27FE9E48CFC89F8B984A0321EF9830BAD887358E9AB0AD1C7B1123ACFE8257C2674F7D0ABD0ECA79346C95615D50589A18DC545C97BF9EB78E4BDBA48C5859643346E7A637128FB37DDC1017AB2813B56DE36AE813A942630E7
310
EA25C82B293A4D58EA42CEF4C4E8EA0D7E7D52D94DAA3F1C2F7F79C5DC74BE580E7FCEE300D572158055F4316AEACEAADBA887F2675C441048EFE5A77D0D1EB1219B43636690EB2AD1757D7AAE7A5E89801AC3C4168B387B27BEB0AF18540DDD73EE7EA88A36B75A5F89C4E6C070FAC087C1B449EBF387FB161558E97DFA8B
310
C0883CB728A8D585E8864F90FAB63AF4FC2D0A4AA26FAB13C7FF131D855660638C06D3E03C651486F26483762485EC0D63871EDD068F492EB33218AF0A52FA8D408FD34FD54CB5C06BA64F470F1806D34CF56265044351C89857965A47BFC118544C22E570CA7984364CC5300B959C5E5960B105856ECB59C3384B0E0F25F5
310
D6B8121C1B273B91EFAB53F5FF8763021D884A07B9EA3D7D70519219CE04856D26DF1340D5573D984DBF5F74CD0EC2057C5D97452DCC61E1208D0241BF10A88483A9DFA382770F05C569B97C47EE3120E935993F69071555BBC07C27C7EB0DBCE7CB2FAE988CAF3EA38C953BA1CE53DDAF41C9165D372BAB29D4140C438999
310
6151432EDEB95F780AAF9862744BC108D0EFFBCBF11FEE228DE334A996DCB97A5185EE1FE0B5D3C6D5233F68E33DE8EAE514408DF5C335CE898337F9232C806A3915B3D10A62C300EA68DA3000AD11A10B3866EC5F2D91AA8D1A139266D815F0C8993E024712EF7284DB3437340690E00BC0957C78F8A217A62E8721F8EC5F
310
504B0304140006080800C3836D5723884CA93E01000046050000300000006662782F34383139313731432D364141452D343537442D424339302D4134314336463232343636392F636E782E786D6CCD94C14A033110865F25E4BE9B4D0B2A259B82079FC08378CB66A76B6C36599259B16F6F52D3AA48C543A1BD85C93FF07F
310
333F23D6EFA3256F10A2F1AEA5BC6E2801A77D6FDCD0D21937D51D256B2982F7F84D46895323B43497A91443F0F3544A3D6CD46C73D51AB72D4585184C3723444AB45531B634EA171855AD66F43DC46DDD2B5435AF03443F070DA91FCD08A55F0750083D958B66B1AC38AFF8F291DFAC96CDAAB97D162C2BA5E8BCB7456F1C
310
42F013D13E3D5C32D30896BFA59883299A4C40E597B3BA334EB0F42F454C6EDD5074B89BB26E9AACD10AD39898D708582511A851B04FB1142CF3FEA07EB87F3A3820BD09A0D187DD8506C04F0DE068AC4E49F81FFF5EF837B6EF5E13EEA5B67D12B6D83A1BEA21AD31C5F5F7FE538A941BECF585FE68ECFC994FA7048DBE3E
310
E483AF3311B3FDC94B4BCF17507E00504B0304140006080800C3836D57808D7D557E000000A30000000B0000006662782F636E782E786D6C4D8CD10AC22018465F45FE7B6B0E7313D46156EF319A1B92D3B0193D7E1ABBE8EA83C3778E183EAB476F9B5E2E0609E4D000B2E11E27171609799B710F685022C5B8FDDD008571
310
B5122A06259614F37347939DC7EC2BF52E3C76487BC249470C665A5F313D75177C36BCC19A12C36E6D4B19E3C53856A5CCAF57B6E6D517504B0304140006080800C3836D57A6D797065F0000008200000007000000636E782E786D6C4DCB3B0E80201045D1AD90E9FD7516806B51190811670C8A61F982B1B0BAC9C97B72CA
310
7B1037C6D3332918DA1E04D2CAC69353902EDB8C20262D23F3F59B81A079470595414B17391D1F19B4730A5583A7ED43BBE4025D9592775E5ADFFA01504B0304140006080800C3836D574FEB6A7CA0000000F4000000130000005B436F6E74656E745F54797065735D2E786D6C7D8F4B0EC2300C44AF1279DFA6B0400835ED
310
02B8011730C16D239A8F121795DB93D02D6269CFBC19BBED573B8B17C564BC53B0AB1B10E4B47F18372A5878A88E20FAAEBDBD032591BD2E299898C349CAA427B2986A1FC86565F0D122E7318E32A07EE24872DF3407A9BD63725C71C980AEBDD080CBCCE2BAE6F5D69B7110E7CD57AA146008B3D1C8F92C5954F993BB1BF7
310
87F39A89ABC491D09600F9FDA2FB00504B0304140006080800C3836D573DEE336E64000000790000001B0000006175746F6465736B2D64657369676E2D7061636B6167652E786D6C35CBC10E83200C00D05F21DCA56CA76D41FC96062B120735B69A7DBE268BB7777961F8D5AF396893C2ADB70FE7ADA196782C2DF776D7A9
310
7B5933C430F15651E5469C55D70F80A4992A3ADC954792C525AE70A1E4D6AD9816CC044FEFDF01FE3FDE907802504B0304140006080800C3836D57753D90F1FA000000960100003B0000006662782F34383139313731432D364141452D343537442D424339302D4134314336463232343636392F7265736F75726365732F63
310
6F72652E786D6C8550CB6E833010FC15B477038E0981C8386A52F2053DF566994D6A25D8C88FAA9F5F3BA1527BEA6957B333B3BBC30F5FF3BDF844E7B53503D0B286028DB29336D70162B8900E8A83E0CEDAF08B068591330E906110FCEA6C5C56485913D064D4D80957507A8F010A754FCD005E7DE02C4B194362F85BB948
310
7593572C69F9E4091EA39E56A99E929BBE687420CEDD783A6E1B46C623EB48D3B723E9FBFE4458FBCA765D737E61DB9157592C78D0F3CF76E550069C406CEA0D239412CADE68BB67F5BEDEBDF32A3305F7C1A59FD7A5F93B100EBD8D4EA1E7D573FAC7352ED3FFAE519BC036ABEB53E141D074E463207895534AE51161AA39
310
51F10D504B0304140006080800C3836D579F973210F3000000B1010000310000006662782F34383139313731432D364141452D343537442D424339302D4134314336463232343636392F636F72652E786D6C8D50CB6E833010FC15B47703060221328E286DBFA0A7DE2CDBA156828DFC88FAF9B50395DA5B4E6BCDCE786687
310
9CBF975B7697D629A307C0790999D4DC08A5E70182BFA02364674AAC31FE0F0D32CD163940828192D99AB0EE1037DA4B9D506D84DC41E69CF490F15B7C0CE0F8975C58CE828F0C77CD57C6AF6C9639CE371E255E2DBF526E25F35200ADCAAA4618235C7FE0F65497A7B2FB24456252128212BB9512D15D5D94B4409B23EE71
310
8727D48EE31B6A0EDD2B7A99FA128D0D9EDAF7AA6ADAB627451253E2BC8D37EF9FA4EB9E956FC27F99C32A9EC8ACB4AFABDD705338A038E6792C28295281713CDA8D33954D7F00504B0304140006080800C3836D57CF33495055010000DD0200000C0000006662782F636F72652E786D6C8D52CB6E833010FC15E43B4F9304
310
22E3A849C917F4D49B631C6A056C646C94CFAFCD439443D30AC958B3BB333B23A3D3B36DBC81A99E4B5180388880C70495151775018CBEFB19F04E182929F58F36E009D2B202381860542B69BA19A25268261C2A64C56690F43DD3C0A38DBD14A0A75FAC250131DA76F48FA023F4416A16C4C1D4879131BC9A477965D9F89D
310
3305F0352B2FE75D0AFDF20C333FCDF7A59FE7F9C587FB7778C8D2EB1BDC952874C31869DE2EEA5431A25905701225D08F633F861FF1FE08A36374F844A1EBC4A8D7CA7A9E459D3B80EFB7270A277CC367BAEA6F3EC38586C9CC374DF400C776BDB18051E8F2B1BF31BC6D8656D8E6A7C9AD592C3C2C3430AAA54A6DA59266
310
2D0DA431CC5247DEF8A170AA5AE691E0379EE405CF6B0E1B1411B55D8D687BBD19EDD4B73B754CF9837E7A42AA9634EB72D38AEBB90A6D2C2DE3543652FD677AB1BA8419BA8789BF01504B0304140006080800C3836D575702DCE208010000B201000008000000636F72652E786D6C8D50C172832014FC15E6DD5111633483
310
649AD47C414FBD5121868982239869FFBE10ED4C7BEBE931BBFBDE2ECB8E9FE3801E6A76DA9A0648920152A6B3529BBE81C55F7105E8C8D96CADFF250364C4A81A883070D6CF769936A8B3C62B135163A5DA40E19CF280BA213C1A70DD4D8D22118B0F0A774F26D1DD45AF1292AC3ACEBC1E7F56BB5909AF24F03CCB292604
310
13FA46CA03CD0ED9FE9DA551C9D9B268B9596919DCF555AB19F8A56ACFA75D41717BA2152EEAB2C5755D9F312D5FE9BE2A2E2F74D7B2342E73E6FC1CFEBC1D09393D72E2117D59BA529C7D583B6C82104A226B862FE0194B23F127F432C97F84D6C6D37C3BB86E38E024047A12C1383618C6B3DE3063DBFC1B504B01021400
310
140006080800C3836D570000000000000000000000003700000000000000000000000000000000006662782F34383139313731432D364141452D343537442D424339302D4134314336463232343636392F617474726962757465732E62696E504B01021400140006080800C3836D5700000000000000000000000035000000
310
00000000000000000000550000006662782F34383139313731432D364141452D343537442D424339302D4134314336463232343636392F76657274696365732E62696E504B01021400140006080800C3836D57F270F13306000000040000003600000000000000000000000000A80000006662782F34383139313731432D36
310
4141452D343537442D424339302D4134314336463232343636392F747269616E676C65732E62696E504B01021400140006080800C3836D5751464CB489000000430100003600000000000000000000000000020100006662782F34383139313731432D364141452D343537442D424339302D4134314336463232343636392F
310
6469726563746F72792E786D6C504B01021400140006080800C3836D57735F927C3C070000201C00003400000000000000000000000000DF0100006662782F34383139313731432D364141452D343537442D424339302D4134314336463232343636392F6F626A656374732E786D6C504B01021400140006080800C3836D57
310
23884CA93E0100004605000030000000000000000000000000006D0900006662782F34383139313731432D364141452D343537442D424339302D4134314336463232343636392F636E782E786D6C504B01021400140006080800C3836D57808D7D557E000000A30000000B00000000000000000000000000F90A0000666278
310
2F636E782E786D6C504B01021400140006080800C3836D57A6D797065F000000820000000700000000000000000000000000A00B0000636E782E786D6C504B01021400140006080800C3836D574FEB6A7CA0000000F40000001300000000000000000000000000240C00005B436F6E74656E745F54797065735D2E786D6C50
310
4B01021400140006080800C3836D573DEE336E64000000790000001B00000000000000000000000000F50C00006175746F6465736B2D64657369676E2D7061636B6167652E786D6C504B01021400140006080800C3836D57753D90F1FA000000960100003B00000000000000000000000000920D00006662782F3438313931
310
3731432D364141452D343537442D424339302D4134314336463232343636392F7265736F75726365732F636F72652E786D6C504B01021400140006080800C3836D579F973210F3000000B10100003100000000000000000000000000E50E00006662782F34383139313731432D364141452D343537442D424339302D413431
310
4336463232343636392F636F72652E786D6C504B01021400140006080800C3836D57CF33495055010000DD0200000C00000000000000000000000000271000006662782F636F72652E786D6C504B01021400140006080800C3836D575702DCE208010000B20100000800000000000000000000000000A6110000636F72652E
310
786D6C504B0506000000000E000E0080040000D41200000000
  0
XRECORD
  5
8069
102
{ACAD_REACTORS
330
8064
102
}
330
8064
100
AcDbXrecord
280
     1
270
     1
271
     1
  0
XRECORD
  5
8068
102
{ACAD_REACTORS
330
8064
102
}
330
8064
100
AcDbXrecord
280
     1
270
     1
271
     1
  0
XRECORD
  5
806A
102
{ACAD_REACTORS
330
8064
102
}
330
8064
100
AcDbXrecord
280
     1
270
     1
271
     1
  0
XRECORD
  5
8067
102
{ACAD_REACTORS
330
8064
102
}
330
8064
100
AcDbXrecord
280
     1
270
     1
271
     1
  0
XRECORD
  5
8409
102
{ACAD_REACTORS
330
8408
102
}
330
8408
100
AcDbXrecord
280
     1
102
DISPLAYNAME
  1
Imperial24
102
FLAGS
 90
        0
  0
CELLSTYLEMAP
  5
83D0
102
{ACAD_REACTORS
330
83CF
102
}
330
83CF
100
AcDbCellStyleMap
 90
        3
300
CELLSTYLE
  1
TABLEFORMAT_BEGIN
 90
        5
170
     1
 91
        0
 92
    32768
 62
   257
 93
        1
300
CONTENTFORMAT
  1
CONTENTFORMAT_BEGIN
 90
        0
 91
        0
 92
      512
 93
        0
300

 40
0.0
140
1.0
 94
        5
 62
     0
340
8097
144
0.25
309
CONTENTFORMAT_END
171
     0
 94
        0
309
TABLEFORMAT_END
  1
CELLSTYLE_BEGIN
 90
        1
 91
        1
300
_TITLE
309
CELLSTYLE_END
300
CELLSTYLE
  1
TABLEFORMAT_BEGIN
 90
        5
170
     1
 91
        0
 92
        0
 62
   257
 93
        1
300
CONTENTFORMAT
  1
CONTENTFORMAT_BEGIN
 90
        0
 91
        0
 92
      512
 93
        0
300

 40
0.0
140
1.0
 94
        5
 62
     0
340
8097
144
0.18
309
CONTENTFORMAT_END
171
     0
 94
        0
309
TABLEFORMAT_END
  1
CELLSTYLE_BEGIN
 90
        2
 91
        1
300
_HEADER
309
CELLSTYLE_END
300
CELLSTYLE
  1
TABLEFORMAT_BEGIN
 90
        5
170
     1
 91
        0
 92
        0
 62
   257
 93
        1
300
CONTENTFORMAT
  1
CONTENTFORMAT_BEGIN
 90
        0
 91
        0
 92
      512
 93
        0
300

 40
0.0
140
1.0
 94
        2
 62
     0
340
8097
144
0.18
309
CONTENTFORMAT_END
171
     0
 94
        0
309
TABLEFORMAT_END
  1
CELLSTYLE_BEGIN
 90
        3
 91
        2
300
_DATA
309
CELLSTYLE_END
  0
XRECORD
  5
8406
102
{ACAD_REACTORS
330
83CF
102
}
330
83CF
100
AcDbXrecord
280
     1
102
ACAD_ROUNDTRIP_PRE2007_TABLESTYLE
 90
      512
 91
        0
  1

 92
      512
 93
        0
  2

 94
      512
 95
        0
  3

  0
XRECORD
  5
83E1
102
{ACAD_REACTORS
330
83E0
102
}
330
83E0
100
AcDbXrecord
280
     1
102
RTVSPost2010Prop28
280
     1
102
RTVSPost2010PropOp28
 70
     1
102
RTVSPost2010Prop29
280
     1
102
RTVSPost2010PropOp29
 70
     1
102
RTVSPost2010Prop30
280
     0
102
RTVSPost2010PropOp30
 70
     1
102
RTVSPost2010Prop31
280
     0
102
RTVSPost2010PropOp31
 70
     1
102
RTVSPost2010Prop32
280
     0
102
RTVSPost2010PropOp32
 70
     1
102
RTVSPost2010Prop33
280
     0
102
RTVSPost2010PropOp33
 70
     1
102
RTVSPost2010Prop34
280
     0
102
RTVSPost2010PropOp34
 70
     1
102
RTVSPost2010Prop35
280
     0
102
RTVSPost2010PropOp35
 70
     1
102
RTVSPost2010Prop36
280
     0
102
RTVSPost2010PropOp36
 70
     1
102
RTVSPost2010Prop37
 90
       50
102
RTVSPost2010PropOp37
 70
     1
102
RTVSPost2010Prop38
140
0.0
102
RTVSPost2010PropOp38
 70
     1
102
RTVSPost2010Prop39
140
1.0
102
RTVSPost2010PropOp39
 70
     1
102
RTVSPost2010Prop40
 90
        0
102
RTVSPost2010PropOp40
 70
     1
102
RTVSPost2010Prop41ColorIndex
 90
       18
102
RTVSPost2010Prop41ColorRGB
 90
        0
102
RTVSPost2010PropOp41
 70
     1
102
RTVSPost2010Prop42
 90
       50
102
RTVSPost2010PropOp42
 70
     1
102
RTVSPost2010Prop43
 90
        3
102
RTVSPost2010PropOp43
 70
     1
102
RTVSPost2010Prop44ColorIndex
 90
        5
102
RTVSPost2010Prop44ColorRGB
 90
      255
102
RTVSPost2010PropOp44
 70
     1
102
RTVSPost2010Prop45
280
     0
102
RTVSPost2010PropOp45
 70
     1
102
RTVSPost2010Prop46
 90
       50
102
RTVSPost2010PropOp46
 70
     1
102
RTVSPost2010Prop47
 90
       50
102
RTVSPost2010PropOp47
 70
     1
102
RTVSPost2010Prop48
 90
       50
102
RTVSPost2010PropOp48
 70
     1
102
RTVSPost2010Prop49
280
     0
102
RTVSPost2010PropOp49
 70
     1
102
RTVSPost2010Prop50
 90
       50
102
RTVSPost2010PropOp50
 70
     1
102
RTVSPost2010Prop51ColorIndex
 90
      256
102
RTVSPost2010Prop51ColorRGB
 90
-16777216
102
RTVSPost2010PropOp51
 70
     0
102
RTVSPost2010Prop52
140
1.0
102
RTVSPost2010PropOp52
 70
     0
102
RTVSPost2010Prop53
 90
        2
102
RTVSPost2010PropOp53
 70
     1
102
RTVSPost2010Prop54
  1
strokes_ogs.tif
102
RTVSPost2010PropOp54
 70
     1
102
RTVSPost2010Prop55
280
     0
102
RTVSPost2010PropOp55
 70
     1
102
RTVSPost2010Prop56
140
1.0
102
RTVSPost2010PropOp56
 70
     1
102
RTVSPost2010Prop57
140
1.0
102
RTVSPost2010PropOp57
 70
     1
102
RTVSPropertyOp0
 70
     1
102
RTVSPropertyOp1
 70
     1
102
RTVSPropertyOp2
 70
     1
102
RTVSPropertyOp3
 70
     1
102
RTVSPropertyOp4
 70
     1
102
RTVSPropertyOp5
 70
     1
102
RTVSPropertyOp6
 70
     1
102
RTVSPropertyOp7
 70
     1
102
RTVSPropertyOp8
 70
     1
102
RTVSPropertyOp9
 70
     1
102
RTVSPropertyOp10
 70
     1
102
RTVSPropertyOp11
 70
     1
102
RTVSPropertyOp12
 70
     1
102
RTVSPropertyOp13
 70
     1
102
RTVSPropertyOp14
 70
     1
102
RTVSPropertyOp15
 70
     1
102
RTVSPropertyOp16
 70
     1
102
RTVSPropertyOp17
 70
     1
102
RTVSPropertyOp18
 70
     1
102
RTVSPropertyOp19
 70
     1
102
RTVSPropertyOp20
 70
     1
102
RTVSPropertyOp21
 70
     1
102
RTVSPropertyOp22
 70
     1
102
RTVSPropertyOp23
 70
     1
102
RTVSPropertyOp24
 70
     1
102
RTVSPropertyOp25
 70
     1
102
RTVSPropertyOp26
 70
     1
102
RTVSPropertyOp27
 70
     1
102
RTVSPropertyOp28
 70
     1
102
RTVSPropertyOp29
 70
     1
102
RTVSPropertyOp30
 70
     1
102
RTVSPropertyOp31
 70
     1
102
RTVSPropertyOp32
 70
     1
102
RTVSPropertyOp33
 70
     1
102
RTVSPropertyOp34
 70
     1
102
RTVSPropertyOp35
 70
     1
102
RTVSPropertyOp36
 70
     1
102
RTVSPropertyOp37
 70
     1
102
RTVSPropertyOp38
 70
     1
102
RTVSPropertyOp39
 70
     1
102
RTVSPropertyOp40
 70
     1
102
RTVSPropertyOp41
 70
     1
102
RTVSPropertyOp42
 70
     1
102
RTVSPropertyOp43
 70
     1
102
RTVSPropertyOp44
 70
     1
102
RTVSPropertyOp45
 70
     1
102
RTVSPropertyOp46
 70
     1
102
RTVSPropertyOp47
 70
     1
102
RTVSPropertyOp48
 70
     1
102
RTVSPropertyOp49
 70
     1
102
RTVSPropertyOp50
 70
     1
102
RTVSPropertyOp51
 70
     0
102
RTVSPropertyOp52
 70
     0
102
RTVSPropertyOp53
 70
     1
102
RTVSPropertyOp54
 70
     1
102
RTVSPropertyOp55
 70
     1
102
RTVSPropertyOp56
 70
     1
102
RTVSPropertyOp57
 70
     1
102
RTVSPropertyOp58
 70
     1
102
RTVSPropertyOp59
 70
     1
102
RTVSPropertyOp60
 70
     1
102
RTVSPropertyOp61
 70
     1
102
RTVSPropertyOp62
 70
     1
  0
XRECORD
  5
83DF
102
{ACAD_REACTORS
330
83DE
102
}
330
83DE
100
AcDbXrecord
280
     1
102
RTVSPost2010Prop28
280
     0
102
RTVSPost2010PropOp28
 70
     1
102
RTVSPost2010Prop29
280
     1
102
RTVSPost2010PropOp29
 70
     1
102
RTVSPost2010Prop30
280
     1
102
RTVSPost2010PropOp30
 70
     1
102
RTVSPost2010Prop31
280
     0
102
RTVSPost2010PropOp31
 70
     1
102
RTVSPost2010Prop32
280
     0
102
RTVSPost2010PropOp32
 70
     1
102
RTVSPost2010Prop33
280
     0
102
RTVSPost2010PropOp33
 70
     1
102
RTVSPost2010Prop34
280
     0
102
RTVSPost2010PropOp34
 70
     1
102
RTVSPost2010Prop35
280
     0
102
RTVSPost2010PropOp35
 70
     1
102
RTVSPost2010Prop36
280
     0
102
RTVSPost2010PropOp36
 70
     1
102
RTVSPost2010Prop37
 90
       50
102
RTVSPost2010PropOp37
 70
     1
102
RTVSPost2010Prop38
140
0.0
102
RTVSPost2010PropOp38
 70
     1
102
RTVSPost2010Prop39
140
1.0
102
RTVSPost2010PropOp39
 70
     1
102
RTVSPost2010Prop40
 90
        0
102
RTVSPost2010PropOp40
 70
     1
102
RTVSPost2010Prop41ColorIndex
 90
       18
102
RTVSPost2010Prop41ColorRGB
 90
        0
102
RTVSPost2010PropOp41
 70
     1
102
RTVSPost2010Prop42
 90
       50
102
RTVSPost2010PropOp42
 70
     1
102
RTVSPost2010Prop43
 90
        3
102
RTVSPost2010PropOp43
 70
     1
102
RTVSPost2010Prop44ColorIndex
 90
        5
102
RTVSPost2010Prop44ColorRGB
 90
      255
102
RTVSPost2010PropOp44
 70
     1
102
RTVSPost2010Prop45
280
     0
102
RTVSPost2010PropOp45
 70
     1
102
RTVSPost2010Prop46
 90
       50
102
RTVSPost2010PropOp46
 70
     1
102
RTVSPost2010Prop47
 90
       50
102
RTVSPost2010PropOp47
 70
     1
102
RTVSPost2010Prop48
 90
       50
102
RTVSPost2010PropOp48
 70
     1
102
RTVSPost2010Prop49
280
     0
102
RTVSPost2010PropOp49
 70
     1
102
RTVSPost2010Prop50
 90
       50
102
RTVSPost2010PropOp50
 70
     1
102
RTVSPost2010Prop51ColorIndex
 90
      256
102
RTVSPost2010Prop51ColorRGB
 90
-16777216
102
RTVSPost2010PropOp51
 70
     0
102
RTVSPost2010Prop52
140
1.0
102
RTVSPost2010PropOp52
 70
     0
102
RTVSPost2010Prop53
 90
        2
102
RTVSPost2010PropOp53
 70
     1
102
RTVSPost2010Prop54
  1
strokes_ogs.tif
102
RTVSPost2010PropOp54
 70
     1
102
RTVSPost2010Prop55
280
     0
102
RTVSPost2010PropOp55
 70
     1
102
RTVSPost2010Prop56
140
1.0
102
RTVSPost2010PropOp56
 70
     1
102
RTVSPost2010Prop57
140
1.0
102
RTVSPost2010PropOp57
 70
     1
102
RTVSPropertyOp0
 70
     1
102
RTVSPropertyOp1
 70
     1
102
RTVSPropertyOp2
 70
     1
102
RTVSPropertyOp3
 70
     1
102
RTVSPropertyOp4
 70
     1
102
RTVSPropertyOp5
 70
     1
102
RTVSPropertyOp6
 70
     1
102
RTVSPropertyOp7
 70
     1
102
RTVSPropertyOp8
 70
     1
102
RTVSPropertyOp9
 70
     1
102
RTVSPropertyOp10
 70
     1
102
RTVSPropertyOp11
 70
     1
102
RTVSPropertyOp12
 70
     1
102
RTVSPropertyOp13
 70
     1
102
RTVSPropertyOp14
 70
     1
102
RTVSPropertyOp15
 70
     1
102
RTVSPropertyOp16
 70
     1
102
RTVSPropertyOp17
 70
     1
102
RTVSPropertyOp18
 70
     1
102
RTVSPropertyOp19
 70
     1
102
RTVSPropertyOp20
 70
     1
102
RTVSPropertyOp21
 70
     1
102
RTVSPropertyOp22
 70
     1
102
RTVSPropertyOp23
 70
     1
102
RTVSPropertyOp24
 70
     1
102
RTVSPropertyOp25
 70
     1
102
RTVSPropertyOp26
 70
     1
102
RTVSPropertyOp27
 70
     1
102
RTVSPropertyOp28
 70
     1
102
RTVSPropertyOp29
 70
     1
102
RTVSPropertyOp30
 70
     1
102
RTVSPropertyOp31
 70
     1
102
RTVSPropertyOp32
 70
     1
102
RTVSPropertyOp33
 70
     1
102
RTVSPropertyOp34
 70
     1
102
RTVSPropertyOp35
 70
     1
102
RTVSPropertyOp36
 70
     1
102
RTVSPropertyOp37
 70
     1
102
RTVSPropertyOp38
 70
     1
102
RTVSPropertyOp39
 70
     1
102
RTVSPropertyOp40
 70
     1
102
RTVSPropertyOp41
 70
     1
102
RTVSPropertyOp42
 70
     1
102
RTVSPropertyOp43
 70
     1
102
RTVSPropertyOp44
 70
     1
102
RTVSPropertyOp45
 70
     1
102
RTVSPropertyOp46
 70
     1
102
RTVSPropertyOp47
 70
     1
102
RTVSPropertyOp48
 70
     1
102
RTVSPropertyOp49
 70
     1
102
RTVSPropertyOp50
 70
     1
102
RTVSPropertyOp51
 70
     0
102
RTVSPropertyOp52
 70
     0
102
RTVSPropertyOp53
 70
     1
102
RTVSPropertyOp54
 70
     1
102
RTVSPropertyOp55
 70
     1
102
RTVSPropertyOp56
 70
     1
102
RTVSPropertyOp57
 70
     1
102
RTVSPropertyOp58
 70
     1
102
RTVSPropertyOp59
 70
     1
102
RTVSPropertyOp60
 70
     1
102
RTVSPropertyOp61
 70
     1
102
RTVSPropertyOp62
 70
     1
  0
XRECORD
  5
83ED
102
{ACAD_REACTORS
330
83EC
102
}
330
83EC
100
AcDbXrecord
280
     1
102
RTVSPost2010Prop28
280
     0
102
RTVSPost2010PropOp28
 70
     1
102
RTVSPost2010Prop29
280
     1
102
RTVSPost2010PropOp29
 70
     1
102
RTVSPost2010Prop30
280
     1
102
RTVSPost2010PropOp30
 70
     1
102
RTVSPost2010Prop31
280
     0
102
RTVSPost2010PropOp31
 70
     1
102
RTVSPost2010Prop32
280
     0
102
RTVSPost2010PropOp32
 70
     1
102
RTVSPost2010Prop33
280
     0
102
RTVSPost2010PropOp33
 70
     1
102
RTVSPost2010Prop34
280
     0
102
RTVSPost2010PropOp34
 70
     1
102
RTVSPost2010Prop35
280
     0
102
RTVSPost2010PropOp35
 70
     1
102
RTVSPost2010Prop36
280
     0
102
RTVSPost2010PropOp36
 70
     1
102
RTVSPost2010Prop37
 90
       50
102
RTVSPost2010PropOp37
 70
     1
102
RTVSPost2010Prop38
140
0.0
102
RTVSPost2010PropOp38
 70
     1
102
RTVSPost2010Prop39
140
1.0
102
RTVSPost2010PropOp39
 70
     1
102
RTVSPost2010Prop40
 90
        0
102
RTVSPost2010PropOp40
 70
     1
102
RTVSPost2010Prop41ColorIndex
 90
       18
102
RTVSPost2010Prop41ColorRGB
 90
        0
102
RTVSPost2010PropOp41
 70
     1
102
RTVSPost2010Prop42
 90
       50
102
RTVSPost2010PropOp42
 70
     1
102
RTVSPost2010Prop43
 90
        3
102
RTVSPost2010PropOp43
 70
     1
102
RTVSPost2010Prop44ColorIndex
 90
        5
102
RTVSPost2010Prop44ColorRGB
 90
      255
102
RTVSPost2010PropOp44
 70
     1
102
RTVSPost2010Prop45
280
     0
102
RTVSPost2010PropOp45
 70
     1
102
RTVSPost2010Prop46
 90
       50
102
RTVSPost2010PropOp46
 70
     1
102
RTVSPost2010Prop47
 90
       50
102
RTVSPost2010PropOp47
 70
     1
102
RTVSPost2010Prop48
 90
       50
102
RTVSPost2010PropOp48
 70
     1
102
RTVSPost2010Prop49
280
     0
102
RTVSPost2010PropOp49
 70
     1
102
RTVSPost2010Prop50
 90
       50
102
RTVSPost2010PropOp50
 70
     1
102
RTVSPost2010Prop51ColorIndex
 90
      256
102
RTVSPost2010Prop51ColorRGB
 90
-16777216
102
RTVSPost2010PropOp51
 70
     0
102
RTVSPost2010Prop52
140
1.0
102
RTVSPost2010PropOp52
 70
     0
102
RTVSPost2010Prop53
 90
        2
102
RTVSPost2010PropOp53
 70
     1
102
RTVSPost2010Prop54
  1
strokes_ogs.tif
102
RTVSPost2010PropOp54
 70
     1
102
RTVSPost2010Prop55
280
     0
102
RTVSPost2010PropOp55
 70
     1
102
RTVSPost2010Prop56
140
1.0
102
RTVSPost2010PropOp56
 70
     1
102
RTVSPost2010Prop57
140
1.0
102
RTVSPost2010PropOp57
 70
     1
102
RTVSPropertyOp0
 70
     1
102
RTVSPropertyOp1
 70
     1
102
RTVSPropertyOp2
 70
     1
102
RTVSPropertyOp3
 70
     1
102
RTVSPropertyOp4
 70
     1
102
RTVSPropertyOp5
 70
     1
102
RTVSPropertyOp6
 70
     1
102
RTVSPropertyOp7
 70
     1
102
RTVSPropertyOp8
 70
     1
102
RTVSPropertyOp9
 70
     1
102
RTVSPropertyOp10
 70
     1
102
RTVSPropertyOp11
 70
     1
102
RTVSPropertyOp12
 70
     1
102
RTVSPropertyOp13
 70
     1
102
RTVSPropertyOp14
 70
     1
102
RTVSPropertyOp15
 70
     1
102
RTVSPropertyOp16
 70
     1
102
RTVSPropertyOp17
 70
     1
102
RTVSPropertyOp18
 70
     1
102
RTVSPropertyOp19
 70
     1
102
RTVSPropertyOp20
 70
     1
102
RTVSPropertyOp21
 70
     1
102
RTVSPropertyOp22
 70
     1
102
RTVSPropertyOp23
 70
     1
102
RTVSPropertyOp24
 70
     1
102
RTVSPropertyOp25
 70
     1
102
RTVSPropertyOp26
 70
     1
102
RTVSPropertyOp27
 70
     1
102
RTVSPropertyOp28
 70
     1
102
RTVSPropertyOp29
 70
     1
102
RTVSPropertyOp30
 70
     1
102
RTVSPropertyOp31
 70
     1
102
RTVSPropertyOp32
 70
     1
102
RTVSPropertyOp33
 70
     1
102
RTVSPropertyOp34
 70
     1
102
RTVSPropertyOp35
 70
     1
102
RTVSPropertyOp36
 70
     1
102
RTVSPropertyOp37
 70
     1
102
RTVSPropertyOp38
 70
     1
102
RTVSPropertyOp39
 70
     1
102
RTVSPropertyOp40
 70
     1
102
RTVSPropertyOp41
 70
     1
102
RTVSPropertyOp42
 70
     1
102
RTVSPropertyOp43
 70
     1
102
RTVSPropertyOp44
 70
     1
102
RTVSPropertyOp45
 70
     1
102
RTVSPropertyOp46
 70
     1
102
RTVSPropertyOp47
 70
     1
102
RTVSPropertyOp48
 70
     1
102
RTVSPropertyOp49
 70
     1
102
RTVSPropertyOp50
 70
     1
102
RTVSPropertyOp51
 70
     0
102
RTVSPropertyOp52
 70
     0
102
RTVSPropertyOp53
 70
     1
102
RTVSPropertyOp54
 70
     1
102
RTVSPropertyOp55
 70
     1
102
RTVSPropertyOp56
 70
     1
102
RTVSPropertyOp57
 70
     1
102
RTVSPropertyOp58
 70
     1
102
RTVSPropertyOp59
 70
     1
102
RTVSPropertyOp60
 70
     1
102
RTVSPropertyOp61
 70
     1
102
RTVSPropertyOp62
 70
     1
  0
XRECORD
  5
83F5
102
{ACAD_REACTORS
330
83F4
102
}
330
83F4
100
AcDbXrecord
280
     1
102
RTVSPost2010Prop28
280
     0
102
RTVSPost2010PropOp28
 70
     1
102
RTVSPost2010Prop29
280
     1
102
RTVSPost2010PropOp29
 70
     1
102
RTVSPost2010Prop30
280
     1
102
RTVSPost2010PropOp30
 70
     1
102
RTVSPost2010Prop31
280
     0
102
RTVSPost2010PropOp31
 70
     1
102
RTVSPost2010Prop32
280
     0
102
RTVSPost2010PropOp32
 70
     1
102
RTVSPost2010Prop33
280
     0
102
RTVSPost2010PropOp33
 70
     1
102
RTVSPost2010Prop34
280
     0
102
RTVSPost2010PropOp34
 70
     1
102
RTVSPost2010Prop35
280
     0
102
RTVSPost2010PropOp35
 70
     1
102
RTVSPost2010Prop36
280
     0
102
RTVSPost2010PropOp36
 70
     1
102
RTVSPost2010Prop37
 90
       50
102
RTVSPost2010PropOp37
 70
     1
102
RTVSPost2010Prop38
140
0.0
102
RTVSPost2010PropOp38
 70
     1
102
RTVSPost2010Prop39
140
1.0
102
RTVSPost2010PropOp39
 70
     1
102
RTVSPost2010Prop40
 90
        0
102
RTVSPost2010PropOp40
 70
     1
102
RTVSPost2010Prop41ColorIndex
 90
       18
102
RTVSPost2010Prop41ColorRGB
 90
        0
102
RTVSPost2010PropOp41
 70
     1
102
RTVSPost2010Prop42
 90
       50
102
RTVSPost2010PropOp42
 70
     1
102
RTVSPost2010Prop43
 90
        3
102
RTVSPost2010PropOp43
 70
     1
102
RTVSPost2010Prop44ColorIndex
 90
        5
102
RTVSPost2010Prop44ColorRGB
 90
      255
102
RTVSPost2010PropOp44
 70
     1
102
RTVSPost2010Prop45
280
     0
102
RTVSPost2010PropOp45
 70
     1
102
RTVSPost2010Prop46
 90
       50
102
RTVSPost2010PropOp46
 70
     1
102
RTVSPost2010Prop47
 90
       50
102
RTVSPost2010PropOp47
 70
     1
102
RTVSPost2010Prop48
 90
       50
102
RTVSPost2010PropOp48
 70
     1
102
RTVSPost2010Prop49
280
     0
102
RTVSPost2010PropOp49
 70
     1
102
RTVSPost2010Prop50
 90
       50
102
RTVSPost2010PropOp50
 70
     1
102
RTVSPost2010Prop51ColorIndex
 90
      256
102
RTVSPost2010Prop51ColorRGB
 90
-16777216
102
RTVSPost2010PropOp51
 70
     0
102
RTVSPost2010Prop52
140
1.0
102
RTVSPost2010PropOp52
 70
     0
102
RTVSPost2010Prop53
 90
        2
102
RTVSPost2010PropOp53
 70
     1
102
RTVSPost2010Prop54
  1
strokes_ogs.tif
102
RTVSPost2010PropOp54
 70
     1
102
RTVSPost2010Prop55
280
     0
102
RTVSPost2010PropOp55
 70
     1
102
RTVSPost2010Prop56
140
1.0
102
RTVSPost2010PropOp56
 70
     1
102
RTVSPost2010Prop57
140
1.0
102
RTVSPost2010PropOp57
 70
     1
102
RTVSPropertyOp0
 70
     1
102
RTVSPropertyOp1
 70
     1
102
RTVSPropertyOp2
 70
     1
102
RTVSPropertyOp3
 70
     1
102
RTVSPropertyOp4
 70
     1
102
RTVSPropertyOp5
 70
     1
102
RTVSPropertyOp6
 70
     1
102
RTVSPropertyOp7
 70
     1
102
RTVSPropertyOp8
 70
     1
102
RTVSPropertyOp9
 70
     1
102
RTVSPropertyOp10
 70
     1
102
RTVSPropertyOp11
 70
     1
102
RTVSPropertyOp12
 70
     1
102
RTVSPropertyOp13
 70
     1
102
RTVSPropertyOp14
 70
     1
102
RTVSPropertyOp15
 70
     1
102
RTVSPropertyOp16
 70
     1
102
RTVSPropertyOp17
 70
     1
102
RTVSPropertyOp18
 70
     1
102
RTVSPropertyOp19
 70
     1
102
RTVSPropertyOp20
 70
     1
102
RTVSPropertyOp21
 70
     1
102
RTVSPropertyOp22
 70
     1
102
RTVSPropertyOp23
 70
     1
102
RTVSPropertyOp24
 70
     1
102
RTVSPropertyOp25
 70
     1
102
RTVSPropertyOp26
 70
     1
102
RTVSPropertyOp27
 70
     1
102
RTVSPropertyOp28
 70
     1
102
RTVSPropertyOp29
 70
     1
102
RTVSPropertyOp30
 70
     1
102
RTVSPropertyOp31
 70
     1
102
RTVSPropertyOp32
 70
     1
102
RTVSPropertyOp33
 70
     1
102
RTVSPropertyOp34
 70
     1
102
RTVSPropertyOp35
 70
     1
102
RTVSPropertyOp36
 70
     1
102
RTVSPropertyOp37
 70
     1
102
RTVSPropertyOp38
 70
     1
102
RTVSPropertyOp39
 70
     1
102
RTVSPropertyOp40
 70
     1
102
RTVSPropertyOp41
 70
     1
102
RTVSPropertyOp42
 70
     1
102
RTVSPropertyOp43
 70
     1
102
RTVSPropertyOp44
 70
     1
102
RTVSPropertyOp45
 70
     1
102
RTVSPropertyOp46
 70
     1
102
RTVSPropertyOp47
 70
     1
102
RTVSPropertyOp48
 70
     1
102
RTVSPropertyOp49
 70
     1
102
RTVSPropertyOp50
 70
     1
102
RTVSPropertyOp51
 70
     0
102
RTVSPropertyOp52
 70
     0
102
RTVSPropertyOp53
 70
     1
102
RTVSPropertyOp54
 70
     1
102
RTVSPropertyOp55
 70
     1
102
RTVSPropertyOp56
 70
     1
102
RTVSPropertyOp57
 70
     1
102
RTVSPropertyOp58
 70
     1
102
RTVSPropertyOp59
 70
     1
102
RTVSPropertyOp60
 70
     1
102
RTVSPropertyOp61
 70
     1
102
RTVSPropertyOp62
 70
     1
  0
XRECORD
  5
83E7
102
{ACAD_REACTORS
330
83E6
102
}
330
83E6
100
AcDbXrecord
280
     1
102
RTVSPost2010Prop28
280
     0
102
RTVSPost2010PropOp28
 70
     1
102
RTVSPost2010Prop29
280
     1
102
RTVSPost2010PropOp29
 70
     1
102
RTVSPost2010Prop30
280
     1
102
RTVSPost2010PropOp30
 70
     1
102
RTVSPost2010Prop31
280
     0
102
RTVSPost2010PropOp31
 70
     1
102
RTVSPost2010Prop32
280
     0
102
RTVSPost2010PropOp32
 70
     1
102
RTVSPost2010Prop33
280
     0
102
RTVSPost2010PropOp33
 70
     1
102
RTVSPost2010Prop34
280
     0
102
RTVSPost2010PropOp34
 70
     1
102
RTVSPost2010Prop35
280
     0
102
RTVSPost2010PropOp35
 70
     1
102
RTVSPost2010Prop36
280
     0
102
RTVSPost2010PropOp36
 70
     1
102
RTVSPost2010Prop37
 90
       50
102
RTVSPost2010PropOp37
 70
     1
102
RTVSPost2010Prop38
140
0.0
102
RTVSPost2010PropOp38
 70
     1
102
RTVSPost2010Prop39
140
1.0
102
RTVSPost2010PropOp39
 70
     1
102
RTVSPost2010Prop40
 90
        0
102
RTVSPost2010PropOp40
 70
     1
102
RTVSPost2010Prop41ColorIndex
 90
       18
102
RTVSPost2010Prop41ColorRGB
 90
        0
102
RTVSPost2010PropOp41
 70
     1
102
RTVSPost2010Prop42
 90
       50
102
RTVSPost2010PropOp42
 70
     1
102
RTVSPost2010Prop43
 90
        3
102
RTVSPost2010PropOp43
 70
     1
102
RTVSPost2010Prop44ColorIndex
 90
        5
102
RTVSPost2010Prop44ColorRGB
 90
      255
102
RTVSPost2010PropOp44
 70
     1
102
RTVSPost2010Prop45
280
     0
102
RTVSPost2010PropOp45
 70
     1
102
RTVSPost2010Prop46
 90
       50
102
RTVSPost2010PropOp46
 70
     1
102
RTVSPost2010Prop47
 90
       50
102
RTVSPost2010PropOp47
 70
     1
102
RTVSPost2010Prop48
 90
       50
102
RTVSPost2010PropOp48
 70
     1
102
RTVSPost2010Prop49
280
     0
102
RTVSPost2010PropOp49
 70
     1
102
RTVSPost2010Prop50
 90
       50
102
RTVSPost2010PropOp50
 70
     1
102
RTVSPost2010Prop51ColorIndex
 90
      256
102
RTVSPost2010Prop51ColorRGB
 90
-16777216
102
RTVSPost2010PropOp51
 70
     0
102
RTVSPost2010Prop52
140
1.0
102
RTVSPost2010PropOp52
 70
     0
102
RTVSPost2010Prop53
 90
        2
102
RTVSPost2010PropOp53
 70
     1
102
RTVSPost2010Prop54
  1
strokes_ogs.tif
102
RTVSPost2010PropOp54
 70
     1
102
RTVSPost2010Prop55
280
     0
102
RTVSPost2010PropOp55
 70
     1
102
RTVSPost2010Prop56
140
1.0
102
RTVSPost2010PropOp56
 70
     1
102
RTVSPost2010Prop57
140
1.0
102
RTVSPost2010PropOp57
 70
     1
102
RTVSPropertyOp0
 70
     1
102
RTVSPropertyOp1
 70
     1
102
RTVSPropertyOp2
 70
     1
102
RTVSPropertyOp3
 70
     1
102
RTVSPropertyOp4
 70
     1
102
RTVSPropertyOp5
 70
     1
102
RTVSPropertyOp6
 70
     1
102
RTVSPropertyOp7
 70
     1
102
RTVSPropertyOp8
 70
     1
102
RTVSPropertyOp9
 70
     1
102
RTVSPropertyOp10
 70
     1
102
RTVSPropertyOp11
 70
     1
102
RTVSPropertyOp12
 70
     1
102
RTVSPropertyOp13
 70
     1
102
RTVSPropertyOp14
 70
     1
102
RTVSPropertyOp15
 70
     1
102
RTVSPropertyOp16
 70
     1
102
RTVSPropertyOp17
 70
     1
102
RTVSPropertyOp18
 70
     1
102
RTVSPropertyOp19
 70
     1
102
RTVSPropertyOp20
 70
     1
102
RTVSPropertyOp21
 70
     1
102
RTVSPropertyOp22
 70
     1
102
RTVSPropertyOp23
 70
     1
102
RTVSPropertyOp24
 70
     1
102
RTVSPropertyOp25
 70
     1
102
RTVSPropertyOp26
 70
     1
102
RTVSPropertyOp27
 70
     1
102
RTVSPropertyOp28
 70
     1
102
RTVSPropertyOp29
 70
     1
102
RTVSPropertyOp30
 70
     1
102
RTVSPropertyOp31
 70
     1
102
RTVSPropertyOp32
 70
     1
102
RTVSPropertyOp33
 70
     1
102
RTVSPropertyOp34
 70
     1
102
RTVSPropertyOp35
 70
     1
102
RTVSPropertyOp36
 70
     1
102
RTVSPropertyOp37
 70
     1
102
RTVSPropertyOp38
 70
     1
102
RTVSPropertyOp39
 70
     1
102
RTVSPropertyOp40
 70
     1
102
RTVSPropertyOp41
 70
     1
102
RTVSPropertyOp42
 70
     1
102
RTVSPropertyOp43
 70
     1
102
RTVSPropertyOp44
 70
     1
102
RTVSPropertyOp45
 70
     1
102
RTVSPropertyOp46
 70
     1
102
RTVSPropertyOp47
 70
     1
102
RTVSPropertyOp48
 70
     1
102
RTVSPropertyOp49
 70
     1
102
RTVSPropertyOp50
 70
     1
102
RTVSPropertyOp51
 70
     0
102
RTVSPropertyOp52
 70
     0
102
RTVSPropertyOp53
 70
     1
102
RTVSPropertyOp54
 70
     1
102
RTVSPropertyOp55
 70
     1
102
RTVSPropertyOp56
 70
     1
102
RTVSPropertyOp57
 70
     1
102
RTVSPropertyOp58
 70
     1
102
RTVSPropertyOp59
 70
     1
102
RTVSPropertyOp60
 70
     1
102
RTVSPropertyOp61
 70
     1
102
RTVSPropertyOp62
 70
     1
  0
XRECORD
  5
83EB
102
{ACAD_REACTORS
330
83EA
102
}
330
83EA
100
AcDbXrecord
280
     1
102
RTVSPost2010Prop28
280
     0
102
RTVSPost2010PropOp28
 70
     1
102
RTVSPost2010Prop29
280
     1
102
RTVSPost2010PropOp29
 70
     1
102
RTVSPost2010Prop30
280
     1
102
RTVSPost2010PropOp30
 70
     1
102
RTVSPost2010Prop31
280
     0
102
RTVSPost2010PropOp31
 70
     1
102
RTVSPost2010Prop32
280
     0
102
RTVSPost2010PropOp32
 70
     1
102
RTVSPost2010Prop33
280
     0
102
RTVSPost2010PropOp33
 70
     1
102
RTVSPost2010Prop34
280
     0
102
RTVSPost2010PropOp34
 70
     1
102
RTVSPost2010Prop35
280
     0
102
RTVSPost2010PropOp35
 70
     1
102
RTVSPost2010Prop36
280
     0
102
RTVSPost2010PropOp36
 70
     1
102
RTVSPost2010Prop37
 90
       50
102
RTVSPost2010PropOp37
 70
     1
102
RTVSPost2010Prop38
140
0.0
102
RTVSPost2010PropOp38
 70
     1
102
RTVSPost2010Prop39
140
1.0
102
RTVSPost2010PropOp39
 70
     1
102
RTVSPost2010Prop40
 90
        0
102
RTVSPost2010PropOp40
 70
     1
102
RTVSPost2010Prop41ColorIndex
 90
       18
102
RTVSPost2010Prop41ColorRGB
 90
        0
102
RTVSPost2010PropOp41
 70
     1
102
RTVSPost2010Prop42
 90
       50
102
RTVSPost2010PropOp42
 70
     1
102
RTVSPost2010Prop43
 90
        3
102
RTVSPost2010PropOp43
 70
     1
102
RTVSPost2010Prop44ColorIndex
 90
        5
102
RTVSPost2010Prop44ColorRGB
 90
      255
102
RTVSPost2010PropOp44
 70
     1
102
RTVSPost2010Prop45
280
     0
102
RTVSPost2010PropOp45
 70
     1
102
RTVSPost2010Prop46
 90
       50
102
RTVSPost2010PropOp46
 70
     1
102
RTVSPost2010Prop47
 90
       50
102
RTVSPost2010PropOp47
 70
     1
102
RTVSPost2010Prop48
 90
       50
102
RTVSPost2010PropOp48
 70
     1
102
RTVSPost2010Prop49
280
     0
102
RTVSPost2010PropOp49
 70
     1
102
RTVSPost2010Prop50
 90
       50
102
RTVSPost2010PropOp50
 70
     1
102
RTVSPost2010Prop51ColorIndex
 90
      256
102
RTVSPost2010Prop51ColorRGB
 90
-16777216
102
RTVSPost2010PropOp51
 70
     0
102
RTVSPost2010Prop52
140
1.0
102
RTVSPost2010PropOp52
 70
     0
102
RTVSPost2010Prop53
 90
        2
102
RTVSPost2010PropOp53
 70
     1
102
RTVSPost2010Prop54
  1
strokes_ogs.tif
102
RTVSPost2010PropOp54
 70
     1
102
RTVSPost2010Prop55
280
     0
102
RTVSPost2010PropOp55
 70
     1
102
RTVSPost2010Prop56
140
1.0
102
RTVSPost2010PropOp56
 70
     1
102
RTVSPost2010Prop57
140
1.0
102
RTVSPost2010PropOp57
 70
     1
102
RTVSPropertyOp0
 70
     1
102
RTVSPropertyOp1
 70
     1
102
RTVSPropertyOp2
 70
     1
102
RTVSPropertyOp3
 70
     1
102
RTVSPropertyOp4
 70
     1
102
RTVSPropertyOp5
 70
     1
102
RTVSPropertyOp6
 70
     1
102
RTVSPropertyOp7
 70
     1
102
RTVSPropertyOp8
 70
     1
102
RTVSPropertyOp9
 70
     1
102
RTVSPropertyOp10
 70
     1
102
RTVSPropertyOp11
 70
     1
102
RTVSPropertyOp12
 70
     1
102
RTVSPropertyOp13
 70
     1
102
RTVSPropertyOp14
 70
     1
102
RTVSPropertyOp15
 70
     1
102
RTVSPropertyOp16
 70
     1
102
RTVSPropertyOp17
 70
     1
102
RTVSPropertyOp18
 70
     1
102
RTVSPropertyOp19
 70
     1
102
RTVSPropertyOp20
 70
     1
102
RTVSPropertyOp21
 70
     1
102
RTVSPropertyOp22
 70
     1
102
RTVSPropertyOp23
 70
     1
102
RTVSPropertyOp24
 70
     1
102
RTVSPropertyOp25
 70
     1
102
RTVSPropertyOp26
 70
     1
102
RTVSPropertyOp27
 70
     1
102
RTVSPropertyOp28
 70
     1
102
RTVSPropertyOp29
 70
     1
102
RTVSPropertyOp30
 70
     1
102
RTVSPropertyOp31
 70
     1
102
RTVSPropertyOp32
 70
     1
102
RTVSPropertyOp33
 70
     1
102
RTVSPropertyOp34
 70
     1
102
RTVSPropertyOp35
 70
     1
102
RTVSPropertyOp36
 70
     1
102
RTVSPropertyOp37
 70
     1
102
RTVSPropertyOp38
 70
     1
102
RTVSPropertyOp39
 70
     1
102
RTVSPropertyOp40
 70
     1
102
RTVSPropertyOp41
 70
     1
102
RTVSPropertyOp42
 70
     1
102
RTVSPropertyOp43
 70
     1
102
RTVSPropertyOp44
 70
     1
102
RTVSPropertyOp45
 70
     1
102
RTVSPropertyOp46
 70
     1
102
RTVSPropertyOp47
 70
     1
102
RTVSPropertyOp48
 70
     1
102
RTVSPropertyOp49
 70
     1
102
RTVSPropertyOp50
 70
     1
102
RTVSPropertyOp51
 70
     0
102
RTVSPropertyOp52
 70
     0
102
RTVSPropertyOp53
 70
     1
102
RTVSPropertyOp54
 70
     1
102
RTVSPropertyOp55
 70
     1
102
RTVSPropertyOp56
 70
     1
102
RTVSPropertyOp57
 70
     1
102
RTVSPropertyOp58
 70
     1
102
RTVSPropertyOp59
 70
     1
102
RTVSPropertyOp60
 70
     1
102
RTVSPropertyOp61
 70
     1
102
RTVSPropertyOp62
 70
     1
  0
XRECORD
  5
8405
102
{ACAD_REACTORS
330
8404
102
}
330
8404
100
AcDbXrecord
280
     1
102
RTVSPost2010Prop28
280
     0
102
RTVSPost2010PropOp28
 70
     1
102
RTVSPost2010Prop29
280
     1
102
RTVSPost2010PropOp29
 70
     1
102
RTVSPost2010Prop30
280
     1
102
RTVSPost2010PropOp30
 70
     1
102
RTVSPost2010Prop31
280
     0
102
RTVSPost2010PropOp31
 70
     1
102
RTVSPost2010Prop32
280
     0
102
RTVSPost2010PropOp32
 70
     1
102
RTVSPost2010Prop33
280
     0
102
RTVSPost2010PropOp33
 70
     1
102
RTVSPost2010Prop34
280
     0
102
RTVSPost2010PropOp34
 70
     1
102
RTVSPost2010Prop35
280
     0
102
RTVSPost2010PropOp35
 70
     1
102
RTVSPost2010Prop36
280
     0
102
RTVSPost2010PropOp36
 70
     1
102
RTVSPost2010Prop37
 90
       50
102
RTVSPost2010PropOp37
 70
     0
102
RTVSPost2010Prop38
140
0.0
102
RTVSPost2010PropOp38
 70
     0
102
RTVSPost2010Prop39
140
1.0
102
RTVSPost2010PropOp39
 70
     0
102
RTVSPost2010Prop40
 90
        0
102
RTVSPost2010PropOp40
 70
     0
102
RTVSPost2010Prop41ColorIndex
 90
       18
102
RTVSPost2010Prop41ColorRGB
 90
        0
102
RTVSPost2010PropOp41
 70
     0
102
RTVSPost2010Prop42
 90
       50
102
RTVSPost2010PropOp42
 70
     0
102
RTVSPost2010Prop43
 90
        3
102
RTVSPost2010PropOp43
 70
     0
102
RTVSPost2010Prop44ColorIndex
 90
        5
102
RTVSPost2010Prop44ColorRGB
 90
      255
102
RTVSPost2010PropOp44
 70
     0
102
RTVSPost2010Prop45
280
     0
102
RTVSPost2010PropOp45
 70
     1
102
RTVSPost2010Prop46
 90
       50
102
RTVSPost2010PropOp46
 70
     0
102
RTVSPost2010Prop47
 90
       50
102
RTVSPost2010PropOp47
 70
     0
102
RTVSPost2010Prop48
 90
       50
102
RTVSPost2010PropOp48
 70
     0
102
RTVSPost2010Prop49
280
     0
102
RTVSPost2010PropOp49
 70
     1
102
RTVSPost2010Prop50
 90
       50
102
RTVSPost2010PropOp50
 70
     0
102
RTVSPost2010Prop51ColorIndex
 90
      256
102
RTVSPost2010Prop51ColorRGB
 90
-16777216
102
RTVSPost2010PropOp51
 70
     0
102
RTVSPost2010Prop52
140
1.0
102
RTVSPost2010PropOp52
 70
     0
102
RTVSPost2010Prop53
 90
        2
102
RTVSPost2010PropOp53
 70
     0
102
RTVSPost2010Prop54
  1
strokes_ogs.tif
102
RTVSPost2010PropOp54
 70
     0
102
RTVSPost2010Prop55
280
     0
102
RTVSPost2010PropOp55
 70
     1
102
RTVSPost2010Prop56
140
1.0
102
RTVSPost2010PropOp56
 70
     0
102
RTVSPost2010Prop57
140
1.0
102
RTVSPost2010PropOp57
 70
     0
102
RTVSPropertyOp0
 70
     0
102
RTVSPropertyOp1
 70
     0
102
RTVSPropertyOp2
 70
     0
102
RTVSPropertyOp3
 70
     0
102
RTVSPropertyOp4
 70
     0
102
RTVSPropertyOp5
 70
     0
102
RTVSPropertyOp6
 70
     0
102
RTVSPropertyOp7
 70
     0
102
RTVSPropertyOp8
 70
     0
102
RTVSPropertyOp9
 70
     0
102
RTVSPropertyOp10
 70
     0
102
RTVSPropertyOp11
 70
     0
102
RTVSPropertyOp12
 70
     0
102
RTVSPropertyOp13
 70
     0
102
RTVSPropertyOp14
 70
     2
102
RTVSPropertyOp15
 70
     0
102
RTVSPropertyOp16
 70
     0
102
RTVSPropertyOp17
 70
     0
102
RTVSPropertyOp18
 70
     0
102
RTVSPropertyOp19
 70
     0
102
RTVSPropertyOp20
 70
     0
102
RTVSPropertyOp21
 70
     0
102
RTVSPropertyOp22
 70
     0
102
RTVSPropertyOp23
 70
     0
102
RTVSPropertyOp24
 70
     0
102
RTVSPropertyOp25
 70
     0
102
RTVSPropertyOp26
 70
     0
102
RTVSPropertyOp27
 70
     0
102
RTVSPropertyOp28
 70
     1
102
RTVSPropertyOp29
 70
     1
102
RTVSPropertyOp30
 70
     1
102
RTVSPropertyOp31
 70
     1
102
RTVSPropertyOp32
 70
     1
102
RTVSPropertyOp33
 70
     1
102
RTVSPropertyOp34
 70
     1
102
RTVSPropertyOp35
 70
     1
102
RTVSPropertyOp36
 70
     1
102
RTVSPropertyOp37
 70
     0
102
RTVSPropertyOp38
 70
     0
102
RTVSPropertyOp39
 70
     0
102
RTVSPropertyOp40
 70
     0
102
RTVSPropertyOp41
 70
     0
102
RTVSPropertyOp42
 70
     0
102
RTVSPropertyOp43
 70
     0
102
RTVSPropertyOp44
 70
     0
102
RTVSPropertyOp45
 70
     1
102
RTVSPropertyOp46
 70
     0
102
RTVSPropertyOp47
 70
     0
102
RTVSPropertyOp48
 70
     0
102
RTVSPropertyOp49
 70
     1
102
RTVSPropertyOp50
 70
     0
102
RTVSPropertyOp51
 70
     0
102
RTVSPropertyOp52
 70
     0
102
RTVSPropertyOp53
 70
     0
102
RTVSPropertyOp54
 70
     0
102
RTVSPropertyOp55
 70
     1
102
RTVSPropertyOp56
 70
     0
102
RTVSPropertyOp57
 70
     0
102
RTVSPropertyOp58
 70
     0
102
RTVSPropertyOp59
 70
     0
102
RTVSPropertyOp60
 70
     0
102
RTVSPropertyOp61
 70
     0
102
RTVSPropertyOp62
 70
     0
  0
XRECORD
  5
83F3
102
{ACAD_REACTORS
330
83F2
102
}
330
83F2
100
AcDbXrecord
280
     1
102
RTVSPost2010Prop28
280
     0
102
RTVSPost2010PropOp28
 70
     1
102
RTVSPost2010Prop29
280
     1
102
RTVSPost2010PropOp29
 70
     1
102
RTVSPost2010Prop30
280
     1
102
RTVSPost2010PropOp30
 70
     1
102
RTVSPost2010Prop31
280
     0
102
RTVSPost2010PropOp31
 70
     1
102
RTVSPost2010Prop32
280
     0
102
RTVSPost2010PropOp32
 70
     1
102
RTVSPost2010Prop33
280
     0
102
RTVSPost2010PropOp33
 70
     1
102
RTVSPost2010Prop34
280
     0
102
RTVSPost2010PropOp34
 70
     1
102
RTVSPost2010Prop35
280
     0
102
RTVSPost2010PropOp35
 70
     1
102
RTVSPost2010Prop36
280
     0
102
RTVSPost2010PropOp36
 70
     1
102
RTVSPost2010Prop37
 90
       50
102
RTVSPost2010PropOp37
 70
     1
102
RTVSPost2010Prop38
140
0.0
102
RTVSPost2010PropOp38
 70
     1
102
RTVSPost2010Prop39
140
1.0
102
RTVSPost2010PropOp39
 70
     1
102
RTVSPost2010Prop40
 90
        0
102
RTVSPost2010PropOp40
 70
     1
102
RTVSPost2010Prop41ColorIndex
 90
       18
102
RTVSPost2010Prop41ColorRGB
 90
        0
102
RTVSPost2010PropOp41
 70
     1
102
RTVSPost2010Prop42
 90
       50
102
RTVSPost2010PropOp42
 70
     1
102
RTVSPost2010Prop43
 90
        3
102
RTVSPost2010PropOp43
 70
     1
102
RTVSPost2010Prop44ColorIndex
 90
        5
102
RTVSPost2010Prop44ColorRGB
 90
      255
102
RTVSPost2010PropOp44
 70
     1
102
RTVSPost2010Prop45
280
     0
102
RTVSPost2010PropOp45
 70
     1
102
RTVSPost2010Prop46
 90
       50
102
RTVSPost2010PropOp46
 70
     1
102
RTVSPost2010Prop47
 90
       50
102
RTVSPost2010PropOp47
 70
     1
102
RTVSPost2010Prop48
 90
       50
102
RTVSPost2010PropOp48
 70
     1
102
RTVSPost2010Prop49
280
     0
102
RTVSPost2010PropOp49
 70
     1
102
RTVSPost2010Prop50
 90
       50
102
RTVSPost2010PropOp50
 70
     1
102
RTVSPost2010Prop51ColorIndex
 90
      256
102
RTVSPost2010Prop51ColorRGB
 90
-16777216
102
RTVSPost2010PropOp51
 70
     0
102
RTVSPost2010Prop52
140
1.0
102
RTVSPost2010PropOp52
 70
     0
102
RTVSPost2010Prop53
 90
        2
102
RTVSPost2010PropOp53
 70
     1
102
RTVSPost2010Prop54
  1
strokes_ogs.tif
102
RTVSPost2010PropOp54
 70
     1
102
RTVSPost2010Prop55
280
     0
102
RTVSPost2010PropOp55
 70
     1
102
RTVSPost2010Prop56
140
1.0
102
RTVSPost2010PropOp56
 70
     1
102
RTVSPost2010Prop57
140
1.0
102
RTVSPost2010PropOp57
 70
     1
102
RTVSPropertyOp0
 70
     1
102
RTVSPropertyOp1
 70
     1
102
RTVSPropertyOp2
 70
     1
102
RTVSPropertyOp3
 70
     1
102
RTVSPropertyOp4
 70
     1
102
RTVSPropertyOp5
 70
     1
102
RTVSPropertyOp6
 70
     1
102
RTVSPropertyOp7
 70
     1
102
RTVSPropertyOp8
 70
     1
102
RTVSPropertyOp9
 70
     1
102
RTVSPropertyOp10
 70
     1
102
RTVSPropertyOp11
 70
     1
102
RTVSPropertyOp12
 70
     1
102
RTVSPropertyOp13
 70
     1
102
RTVSPropertyOp14
 70
     1
102
RTVSPropertyOp15
 70
     1
102
RTVSPropertyOp16
 70
     1
102
RTVSPropertyOp17
 70
     1
102
RTVSPropertyOp18
 70
     1
102
RTVSPropertyOp19
 70
     1
102
RTVSPropertyOp20
 70
     1
102
RTVSPropertyOp21
 70
     1
102
RTVSPropertyOp22
 70
     1
102
RTVSPropertyOp23
 70
     1
102
RTVSPropertyOp24
 70
     1
102
RTVSPropertyOp25
 70
     1
102
RTVSPropertyOp26
 70
     1
102
RTVSPropertyOp27
 70
     1
102
RTVSPropertyOp28
 70
     1
102
RTVSPropertyOp29
 70
     1
102
RTVSPropertyOp30
 70
     1
102
RTVSPropertyOp31
 70
     1
102
RTVSPropertyOp32
 70
     1
102
RTVSPropertyOp33
 70
     1
102
RTVSPropertyOp34
 70
     1
102
RTVSPropertyOp35
 70
     1
102
RTVSPropertyOp36
 70
     1
102
RTVSPropertyOp37
 70
     1
102
RTVSPropertyOp38
 70
     1
102
RTVSPropertyOp39
 70
     1
102
RTVSPropertyOp40
 70
     1
102
RTVSPropertyOp41
 70
     1
102
RTVSPropertyOp42
 70
     1
102
RTVSPropertyOp43
 70
     1
102
RTVSPropertyOp44
 70
     1
102
RTVSPropertyOp45
 70
     1
102
RTVSPropertyOp46
 70
     1
102
RTVSPropertyOp47
 70
     1
102
RTVSPropertyOp48
 70
     1
102
RTVSPropertyOp49
 70
     1
102
RTVSPropertyOp50
 70
     1
102
RTVSPropertyOp51
 70
     0
102
RTVSPropertyOp52
 70
     0
102
RTVSPropertyOp53
 70
     1
102
RTVSPropertyOp54
 70
     1
102
RTVSPropertyOp55
 70
     1
102
RTVSPropertyOp56
 70
     1
102
RTVSPropertyOp57
 70
     1
102
RTVSPropertyOp58
 70
     1
102
RTVSPropertyOp59
 70
     1
102
RTVSPropertyOp60
 70
     1
102
RTVSPropertyOp61
 70
     1
102
RTVSPropertyOp62
 70
     1
  0
XRECORD
  5
83D7
102
{ACAD_REACTORS
330
83D6
102
}
330
83D6
100
AcDbXrecord
280
     1
102
RTVSPost2010Prop28
280
     0
102
RTVSPost2010PropOp28
 70
     1
102
RTVSPost2010Prop29
280
     1
102
RTVSPost2010PropOp29
 70
     1
102
RTVSPost2010Prop30
280
     1
102
RTVSPost2010PropOp30
 70
     1
102
RTVSPost2010Prop31
280
     0
102
RTVSPost2010PropOp31
 70
     1
102
RTVSPost2010Prop32
280
     0
102
RTVSPost2010PropOp32
 70
     1
102
RTVSPost2010Prop33
280
     0
102
RTVSPost2010PropOp33
 70
     1
102
RTVSPost2010Prop34
280
     0
102
RTVSPost2010PropOp34
 70
     1
102
RTVSPost2010Prop35
280
     0
102
RTVSPost2010PropOp35
 70
     1
102
RTVSPost2010Prop36
280
     0
102
RTVSPost2010PropOp36
 70
     1
102
RTVSPost2010Prop37
 90
       50
102
RTVSPost2010PropOp37
 70
     1
102
RTVSPost2010Prop38
140
0.0
102
RTVSPost2010PropOp38
 70
     1
102
RTVSPost2010Prop39
140
1.0
102
RTVSPost2010PropOp39
 70
     1
102
RTVSPost2010Prop40
 90
        0
102
RTVSPost2010PropOp40
 70
     1
102
RTVSPost2010Prop41ColorIndex
 90
       18
102
RTVSPost2010Prop41ColorRGB
 90
        0
102
RTVSPost2010PropOp41
 70
     1
102
RTVSPost2010Prop42
 90
       50
102
RTVSPost2010PropOp42
 70
     1
102
RTVSPost2010Prop43
 90
        3
102
RTVSPost2010PropOp43
 70
     1
102
RTVSPost2010Prop44ColorIndex
 90
        5
102
RTVSPost2010Prop44ColorRGB
 90
      255
102
RTVSPost2010PropOp44
 70
     1
102
RTVSPost2010Prop45
280
     0
102
RTVSPost2010PropOp45
 70
     1
102
RTVSPost2010Prop46
 90
       50
102
RTVSPost2010PropOp46
 70
     1
102
RTVSPost2010Prop47
 90
       50
102
RTVSPost2010PropOp47
 70
     1
102
RTVSPost2010Prop48
 90
       50
102
RTVSPost2010PropOp48
 70
     1
102
RTVSPost2010Prop49
280
     0
102
RTVSPost2010PropOp49
 70
     1
102
RTVSPost2010Prop50
 90
       50
102
RTVSPost2010PropOp50
 70
     1
102
RTVSPost2010Prop51ColorIndex
 90
      256
102
RTVSPost2010Prop51ColorRGB
 90
-16777216
102
RTVSPost2010PropOp51
 70
     0
102
RTVSPost2010Prop52
140
1.0
102
RTVSPost2010PropOp52
 70
     0
102
RTVSPost2010Prop53
 90
        2
102
RTVSPost2010PropOp53
 70
     1
102
RTVSPost2010Prop54
  1
strokes_ogs.tif
102
RTVSPost2010PropOp54
 70
     1
102
RTVSPost2010Prop55
280
     0
102
RTVSPost2010PropOp55
 70
     1
102
RTVSPost2010Prop56
140
1.0
102
RTVSPost2010PropOp56
 70
     1
102
RTVSPost2010Prop57
140
1.0
102
RTVSPost2010PropOp57
 70
     1
102
RTVSPropertyOp0
 70
     1
102
RTVSPropertyOp1
 70
     1
102
RTVSPropertyOp2
 70
     1
102
RTVSPropertyOp3
 70
     1
102
RTVSPropertyOp4
 70
     1
102
RTVSPropertyOp5
 70
     1
102
RTVSPropertyOp6
 70
     1
102
RTVSPropertyOp7
 70
     1
102
RTVSPropertyOp8
 70
     1
102
RTVSPropertyOp9
 70
     1
102
RTVSPropertyOp10
 70
     1
102
RTVSPropertyOp11
 70
     1
102
RTVSPropertyOp12
 70
     1
102
RTVSPropertyOp13
 70
     1
102
RTVSPropertyOp14
 70
     1
102
RTVSPropertyOp15
 70
     1
102
RTVSPropertyOp16
 70
     1
102
RTVSPropertyOp17
 70
     1
102
RTVSPropertyOp18
 70
     1
102
RTVSPropertyOp19
 70
     1
102
RTVSPropertyOp20
 70
     1
102
RTVSPropertyOp21
 70
     1
102
RTVSPropertyOp22
 70
     1
102
RTVSPropertyOp23
 70
     1
102
RTVSPropertyOp24
 70
     1
102
RTVSPropertyOp25
 70
     1
102
RTVSPropertyOp26
 70
     1
102
RTVSPropertyOp27
 70
     1
102
RTVSPropertyOp28
 70
     1
102
RTVSPropertyOp29
 70
     1
102
RTVSPropertyOp30
 70
     1
102
RTVSPropertyOp31
 70
     1
102
RTVSPropertyOp32
 70
     1
102
RTVSPropertyOp33
 70
     1
102
RTVSPropertyOp34
 70
     1
102
RTVSPropertyOp35
 70
     1
102
RTVSPropertyOp36
 70
     1
102
RTVSPropertyOp37
 70
     1
102
RTVSPropertyOp38
 70
     1
102
RTVSPropertyOp39
 70
     1
102
RTVSPropertyOp40
 70
     1
102
RTVSPropertyOp41
 70
     1
102
RTVSPropertyOp42
 70
     1
102
RTVSPropertyOp43
 70
     1
102
RTVSPropertyOp44
 70
     1
102
RTVSPropertyOp45
 70
     1
102
RTVSPropertyOp46
 70
     1
102
RTVSPropertyOp47
 70
     1
102
RTVSPropertyOp48
 70
     1
102
RTVSPropertyOp49
 70
     1
102
RTVSPropertyOp50
 70
     1
102
RTVSPropertyOp51
 70
     0
102
RTVSPropertyOp52
 70
     0
102
RTVSPropertyOp53
 70
     1
102
RTVSPropertyOp54
 70
     1
102
RTVSPropertyOp55
 70
     1
102
RTVSPropertyOp56
 70
     1
102
RTVSPropertyOp57
 70
     1
102
RTVSPropertyOp58
 70
     1
102
RTVSPropertyOp59
 70
     1
102
RTVSPropertyOp60
 70
     1
102
RTVSPropertyOp61
 70
     1
102
RTVSPropertyOp62
 70
     1
  0
XRECORD
  5
83D9
102
{ACAD_REACTORS
330
83D8
102
}
330
83D8
100
AcDbXrecord
280
     1
102
RTVSPost2010Prop28
280
     0
102
RTVSPost2010PropOp28
 70
     1
102
RTVSPost2010Prop29
280
     1
102
RTVSPost2010PropOp29
 70
     1
102
RTVSPost2010Prop30
280
     1
102
RTVSPost2010PropOp30
 70
     1
102
RTVSPost2010Prop31
280
     0
102
RTVSPost2010PropOp31
 70
     1
102
RTVSPost2010Prop32
280
     0
102
RTVSPost2010PropOp32
 70
     1
102
RTVSPost2010Prop33
280
     0
102
RTVSPost2010PropOp33
 70
     1
102
RTVSPost2010Prop34
280
     0
102
RTVSPost2010PropOp34
 70
     1
102
RTVSPost2010Prop35
280
     0
102
RTVSPost2010PropOp35
 70
     1
102
RTVSPost2010Prop36
280
     0
102
RTVSPost2010PropOp36
 70
     1
102
RTVSPost2010Prop37
 90
       50
102
RTVSPost2010PropOp37
 70
     1
102
RTVSPost2010Prop38
140
0.0
102
RTVSPost2010PropOp38
 70
     1
102
RTVSPost2010Prop39
140
1.0
102
RTVSPost2010PropOp39
 70
     1
102
RTVSPost2010Prop40
 90
        0
102
RTVSPost2010PropOp40
 70
     1
102
RTVSPost2010Prop41ColorIndex
 90
       18
102
RTVSPost2010Prop41ColorRGB
 90
        0
102
RTVSPost2010PropOp41
 70
     1
102
RTVSPost2010Prop42
 90
       50
102
RTVSPost2010PropOp42
 70
     1
102
RTVSPost2010Prop43
 90
        3
102
RTVSPost2010PropOp43
 70
     1
102
RTVSPost2010Prop44ColorIndex
 90
        5
102
RTVSPost2010Prop44ColorRGB
 90
      255
102
RTVSPost2010PropOp44
 70
     1
102
RTVSPost2010Prop45
280
     0
102
RTVSPost2010PropOp45
 70
     1
102
RTVSPost2010Prop46
 90
       50
102
RTVSPost2010PropOp46
 70
     1
102
RTVSPost2010Prop47
 90
       50
102
RTVSPost2010PropOp47
 70
     1
102
RTVSPost2010Prop48
 90
       50
102
RTVSPost2010PropOp48
 70
     1
102
RTVSPost2010Prop49
280
     0
102
RTVSPost2010PropOp49
 70
     1
102
RTVSPost2010Prop50
 90
       50
102
RTVSPost2010PropOp50
 70
     1
102
RTVSPost2010Prop51ColorIndex
 90
      256
102
RTVSPost2010Prop51ColorRGB
 90
-16777216
102
RTVSPost2010PropOp51
 70
     0
102
RTVSPost2010Prop52
140
1.0
102
RTVSPost2010PropOp52
 70
     0
102
RTVSPost2010Prop53
 90
        2
102
RTVSPost2010PropOp53
 70
     1
102
RTVSPost2010Prop54
  1
strokes_ogs.tif
102
RTVSPost2010PropOp54
 70
     1
102
RTVSPost2010Prop55
280
     0
102
RTVSPost2010PropOp55
 70
     1
102
RTVSPost2010Prop56
140
1.0
102
RTVSPost2010PropOp56
 70
     1
102
RTVSPost2010Prop57
140
1.0
102
RTVSPost2010PropOp57
 70
     1
102
RTVSPropertyOp0
 70
     1
102
RTVSPropertyOp1
 70
     1
102
RTVSPropertyOp2
 70
     1
102
RTVSPropertyOp3
 70
     1
102
RTVSPropertyOp4
 70
     1
102
RTVSPropertyOp5
 70
     1
102
RTVSPropertyOp6
 70
     1
102
RTVSPropertyOp7
 70
     1
102
RTVSPropertyOp8
 70
     1
102
RTVSPropertyOp9
 70
     1
102
RTVSPropertyOp10
 70
     1
102
RTVSPropertyOp11
 70
     1
102
RTVSPropertyOp12
 70
     1
102
RTVSPropertyOp13
 70
     1
102
RTVSPropertyOp14
 70
     1
102
RTVSPropertyOp15
 70
     1
102
RTVSPropertyOp16
 70
     1
102
RTVSPropertyOp17
 70
     1
102
RTVSPropertyOp18
 70
     1
102
RTVSPropertyOp19
 70
     1
102
RTVSPropertyOp20
 70
     1
102
RTVSPropertyOp21
 70
     1
102
RTVSPropertyOp22
 70
     1
102
RTVSPropertyOp23
 70
     1
102
RTVSPropertyOp24
 70
     1
102
RTVSPropertyOp25
 70
     1
102
RTVSPropertyOp26
 70
     1
102
RTVSPropertyOp27
 70
     1
102
RTVSPropertyOp28
 70
     1
102
RTVSPropertyOp29
 70
     1
102
RTVSPropertyOp30
 70
     1
102
RTVSPropertyOp31
 70
     1
102
RTVSPropertyOp32
 70
     1
102
RTVSPropertyOp33
 70
     1
102
RTVSPropertyOp34
 70
     1
102
RTVSPropertyOp35
 70
     1
102
RTVSPropertyOp36
 70
     1
102
RTVSPropertyOp37
 70
     1
102
RTVSPropertyOp38
 70
     1
102
RTVSPropertyOp39
 70
     1
102
RTVSPropertyOp40
 70
     1
102
RTVSPropertyOp41
 70
     1
102
RTVSPropertyOp42
 70
     1
102
RTVSPropertyOp43
 70
     1
102
RTVSPropertyOp44
 70
     1
102
RTVSPropertyOp45
 70
     1
102
RTVSPropertyOp46
 70
     1
102
RTVSPropertyOp47
 70
     1
102
RTVSPropertyOp48
 70
     1
102
RTVSPropertyOp49
 70
     1
102
RTVSPropertyOp50
 70
     1
102
RTVSPropertyOp51
 70
     0
102
RTVSPropertyOp52
 70
     0
102
RTVSPropertyOp53
 70
     1
102
RTVSPropertyOp54
 70
     1
102
RTVSPropertyOp55
 70
     1
102
RTVSPropertyOp56
 70
     1
102
RTVSPropertyOp57
 70
     1
102
RTVSPropertyOp58
 70
     1
102
RTVSPropertyOp59
 70
     1
102
RTVSPropertyOp60
 70
     1
102
RTVSPropertyOp61
 70
     1
102
RTVSPropertyOp62
 70
     1
  0
XRECORD
  5
83DB
102
{ACAD_REACTORS
330
83DA
102
}
330
83DA
100
AcDbXrecord
280
     1
102
RTVSPost2010Prop28
280
     0
102
RTVSPost2010PropOp28
 70
     1
102
RTVSPost2010Prop29
280
     1
102
RTVSPost2010PropOp29
 70
     1
102
RTVSPost2010Prop30
280
     1
102
RTVSPost2010PropOp30
 70
     1
102
RTVSPost2010Prop31
280
     0
102
RTVSPost2010PropOp31
 70
     1
102
RTVSPost2010Prop32
280
     0
102
RTVSPost2010PropOp32
 70
     1
102
RTVSPost2010Prop33
280
     0
102
RTVSPost2010PropOp33
 70
     1
102
RTVSPost2010Prop34
280
     0
102
RTVSPost2010PropOp34
 70
     1
102
RTVSPost2010Prop35
280
     0
102
RTVSPost2010PropOp35
 70
     1
102
RTVSPost2010Prop36
280
     0
102
RTVSPost2010PropOp36
 70
     1
102
RTVSPost2010Prop37
 90
       50
102
RTVSPost2010PropOp37
 70
     1
102
RTVSPost2010Prop38
140
0.0
102
RTVSPost2010PropOp38
 70
     1
102
RTVSPost2010Prop39
140
1.0
102
RTVSPost2010PropOp39
 70
     1
102
RTVSPost2010Prop40
 90
        0
102
RTVSPost2010PropOp40
 70
     1
102
RTVSPost2010Prop41ColorIndex
 90
       18
102
RTVSPost2010Prop41ColorRGB
 90
        0
102
RTVSPost2010PropOp41
 70
     1
102
RTVSPost2010Prop42
 90
       50
102
RTVSPost2010PropOp42
 70
     1
102
RTVSPost2010Prop43
 90
        3
102
RTVSPost2010PropOp43
 70
     1
102
RTVSPost2010Prop44ColorIndex
 90
        5
102
RTVSPost2010Prop44ColorRGB
 90
      255
102
RTVSPost2010PropOp44
 70
     1
102
RTVSPost2010Prop45
280
     0
102
RTVSPost2010PropOp45
 70
     1
102
RTVSPost2010Prop46
 90
       50
102
RTVSPost2010PropOp46
 70
     1
102
RTVSPost2010Prop47
 90
       50
102
RTVSPost2010PropOp47
 70
     1
102
RTVSPost2010Prop48
 90
       50
102
RTVSPost2010PropOp48
 70
     1
102
RTVSPost2010Prop49
280
     0
102
RTVSPost2010PropOp49
 70
     1
102
RTVSPost2010Prop50
 90
       50
102
RTVSPost2010PropOp50
 70
     1
102
RTVSPost2010Prop51ColorIndex
 90
      256
102
RTVSPost2010Prop51ColorRGB
 90
-16777216
102
RTVSPost2010PropOp51
 70
     0
102
RTVSPost2010Prop52
140
1.0
102
RTVSPost2010PropOp52
 70
     0
102
RTVSPost2010Prop53
 90
        2
102
RTVSPost2010PropOp53
 70
     1
102
RTVSPost2010Prop54
  1
strokes_ogs.tif
102
RTVSPost2010PropOp54
 70
     1
102
RTVSPost2010Prop55
280
     0
102
RTVSPost2010PropOp55
 70
     1
102
RTVSPost2010Prop56
140
1.0
102
RTVSPost2010PropOp56
 70
     1
102
RTVSPost2010Prop57
140
1.0
102
RTVSPost2010PropOp57
 70
     1
102
RTVSPropertyOp0
 70
     1
102
RTVSPropertyOp1
 70
     1
102
RTVSPropertyOp2
 70
     1
102
RTVSPropertyOp3
 70
     1
102
RTVSPropertyOp4
 70
     1
102
RTVSPropertyOp5
 70
     1
102
RTVSPropertyOp6
 70
     1
102
RTVSPropertyOp7
 70
     1
102
RTVSPropertyOp8
 70
     1
102
RTVSPropertyOp9
 70
     1
102
RTVSPropertyOp10
 70
     1
102
RTVSPropertyOp11
 70
     1
102
RTVSPropertyOp12
 70
     1
102
RTVSPropertyOp13
 70
     1
102
RTVSPropertyOp14
 70
     1
102
RTVSPropertyOp15
 70
     1
102
RTVSPropertyOp16
 70
     1
102
RTVSPropertyOp17
 70
     1
102
RTVSPropertyOp18
 70
     1
102
RTVSPropertyOp19
 70
     1
102
RTVSPropertyOp20
 70
     1
102
RTVSPropertyOp21
 70
     1
102
RTVSPropertyOp22
 70
     1
102
RTVSPropertyOp23
 70
     1
102
RTVSPropertyOp24
 70
     1
102
RTVSPropertyOp25
 70
     1
102
RTVSPropertyOp26
 70
     1
102
RTVSPropertyOp27
 70
     1
102
RTVSPropertyOp28
 70
     1
102
RTVSPropertyOp29
 70
     1
102
RTVSPropertyOp30
 70
     1
102
RTVSPropertyOp31
 70
     1
102
RTVSPropertyOp32
 70
     1
102
RTVSPropertyOp33
 70
     1
102
RTVSPropertyOp34
 70
     1
102
RTVSPropertyOp35
 70
     1
102
RTVSPropertyOp36
 70
     1
102
RTVSPropertyOp37
 70
     1
102
RTVSPropertyOp38
 70
     1
102
RTVSPropertyOp39
 70
     1
102
RTVSPropertyOp40
 70
     1
102
RTVSPropertyOp41
 70
     1
102
RTVSPropertyOp42
 70
     1
102
RTVSPropertyOp43
 70
     1
102
RTVSPropertyOp44
 70
     1
102
RTVSPropertyOp45
 70
     1
102
RTVSPropertyOp46
 70
     1
102
RTVSPropertyOp47
 70
     1
102
RTVSPropertyOp48
 70
     1
102
RTVSPropertyOp49
 70
     1
102
RTVSPropertyOp50
 70
     1
102
RTVSPropertyOp51
 70
     0
102
RTVSPropertyOp52
 70
     0
102
RTVSPropertyOp53
 70
     1
102
RTVSPropertyOp54
 70
     1
102
RTVSPropertyOp55
 70
     1
102
RTVSPropertyOp56
 70
     1
102
RTVSPropertyOp57
 70
     1
102
RTVSPropertyOp58
 70
     1
102
RTVSPropertyOp59
 70
     1
102
RTVSPropertyOp60
 70
     1
102
RTVSPropertyOp61
 70
     1
102
RTVSPropertyOp62
 70
     1
  0
XRECORD
  5
83DD
102
{ACAD_REACTORS
330
83DC
102
}
330
83DC
100
AcDbXrecord
280
     1
102
RTVSPost2010Prop28
280
     0
102
RTVSPost2010PropOp28
 70
     1
102
RTVSPost2010Prop29
280
     1
102
RTVSPost2010PropOp29
 70
     1
102
RTVSPost2010Prop30
280
     1
102
RTVSPost2010PropOp30
 70
     1
102
RTVSPost2010Prop31
280
     0
102
RTVSPost2010PropOp31
 70
     1
102
RTVSPost2010Prop32
280
     0
102
RTVSPost2010PropOp32
 70
     1
102
RTVSPost2010Prop33
280
     0
102
RTVSPost2010PropOp33
 70
     1
102
RTVSPost2010Prop34
280
     0
102
RTVSPost2010PropOp34
 70
     1
102
RTVSPost2010Prop35
280
     0
102
RTVSPost2010PropOp35
 70
     1
102
RTVSPost2010Prop36
280
     0
102
RTVSPost2010PropOp36
 70
     1
102
RTVSPost2010Prop37
 90
       50
102
RTVSPost2010PropOp37
 70
     1
102
RTVSPost2010Prop38
140
0.0
102
RTVSPost2010PropOp38
 70
     1
102
RTVSPost2010Prop39
140
1.0
102
RTVSPost2010PropOp39
 70
     1
102
RTVSPost2010Prop40
 90
        0
102
RTVSPost2010PropOp40
 70
     1
102
RTVSPost2010Prop41ColorIndex
 90
       18
102
RTVSPost2010Prop41ColorRGB
 90
        0
102
RTVSPost2010PropOp41
 70
     1
102
RTVSPost2010Prop42
 90
       50
102
RTVSPost2010PropOp42
 70
     1
102
RTVSPost2010Prop43
 90
        3
102
RTVSPost2010PropOp43
 70
     1
102
RTVSPost2010Prop44ColorIndex
 90
        5
102
RTVSPost2010Prop44ColorRGB
 90
      255
102
RTVSPost2010PropOp44
 70
     1
102
RTVSPost2010Prop45
280
     0
102
RTVSPost2010PropOp45
 70
     1
102
RTVSPost2010Prop46
 90
       50
102
RTVSPost2010PropOp46
 70
     1
102
RTVSPost2010Prop47
 90
       50
102
RTVSPost2010PropOp47
 70
     1
102
RTVSPost2010Prop48
 90
       50
102
RTVSPost2010PropOp48
 70
     1
102
RTVSPost2010Prop49
280
     0
102
RTVSPost2010PropOp49
 70
     1
102
RTVSPost2010Prop50
 90
       50
102
RTVSPost2010PropOp50
 70
     1
102
RTVSPost2010Prop51ColorIndex
 90
      256
102
RTVSPost2010Prop51ColorRGB
 90
-16777216
102
RTVSPost2010PropOp51
 70
     0
102
RTVSPost2010Prop52
140
1.0
102
RTVSPost2010PropOp52
 70
     0
102
RTVSPost2010Prop53
 90
        2
102
RTVSPost2010PropOp53
 70
     1
102
RTVSPost2010Prop54
  1
strokes_ogs.tif
102
RTVSPost2010PropOp54
 70
     1
102
RTVSPost2010Prop55
280
     0
102
RTVSPost2010PropOp55
 70
     1
102
RTVSPost2010Prop56
140
1.0
102
RTVSPost2010PropOp56
 70
     1
102
RTVSPost2010Prop57
140
1.0
102
RTVSPost2010PropOp57
 70
     1
102
RTVSPropertyOp0
 70
     1
102
RTVSPropertyOp1
 70
     1
102
RTVSPropertyOp2
 70
     1
102
RTVSPropertyOp3
 70
     1
102
RTVSPropertyOp4
 70
     1
102
RTVSPropertyOp5
 70
     1
102
RTVSPropertyOp6
 70
     1
102
RTVSPropertyOp7
 70
     1
102
RTVSPropertyOp8
 70
     1
102
RTVSPropertyOp9
 70
     1
102
RTVSPropertyOp10
 70
     1
102
RTVSPropertyOp11
 70
     1
102
RTVSPropertyOp12
 70
     1
102
RTVSPropertyOp13
 70
     1
102
RTVSPropertyOp14
 70
     1
102
RTVSPropertyOp15
 70
     1
102
RTVSPropertyOp16
 70
     1
102
RTVSPropertyOp17
 70
     1
102
RTVSPropertyOp18
 70
     1
102
RTVSPropertyOp19
 70
     1
102
RTVSPropertyOp20
 70
     1
102
RTVSPropertyOp21
 70
     1
102
RTVSPropertyOp22
 70
     1
102
RTVSPropertyOp23
 70
     1
102
RTVSPropertyOp24
 70
     1
102
RTVSPropertyOp25
 70
     1
102
RTVSPropertyOp26
 70
     1
102
RTVSPropertyOp27
 70
     1
102
RTVSPropertyOp28
 70
     1
102
RTVSPropertyOp29
 70
     1
102
RTVSPropertyOp30
 70
     1
102
RTVSPropertyOp31
 70
     1
102
RTVSPropertyOp32
 70
     1
102
RTVSPropertyOp33
 70
     1
102
RTVSPropertyOp34
 70
     1
102
RTVSPropertyOp35
 70
     1
102
RTVSPropertyOp36
 70
     1
102
RTVSPropertyOp37
 70
     1
102
RTVSPropertyOp38
 70
     1
102
RTVSPropertyOp39
 70
     1
102
RTVSPropertyOp40
 70
     1
102
RTVSPropertyOp41
 70
     1
102
RTVSPropertyOp42
 70
     1
102
RTVSPropertyOp43
 70
     1
102
RTVSPropertyOp44
 70
     1
102
RTVSPropertyOp45
 70
     1
102
RTVSPropertyOp46
 70
     1
102
RTVSPropertyOp47
 70
     1
102
RTVSPropertyOp48
 70
     1
102
RTVSPropertyOp49
 70
     1
102
RTVSPropertyOp50
 70
     1
102
RTVSPropertyOp51
 70
     0
102
RTVSPropertyOp52
 70
     0
102
RTVSPropertyOp53
 70
     1
102
RTVSPropertyOp54
 70
     1
102
RTVSPropertyOp55
 70
     1
102
RTVSPropertyOp56
 70
     1
102
RTVSPropertyOp57
 70
     1
102
RTVSPropertyOp58
 70
     1
102
RTVSPropertyOp59
 70
     1
102
RTVSPropertyOp60
 70
     1
102
RTVSPropertyOp61
 70
     1
102
RTVSPropertyOp62
 70
     1
  0
XRECORD
  5
83E5
102
{ACAD_REACTORS
330
83E4
102
}
330
83E4
100
AcDbXrecord
280
     1
102
RTVSPost2010Prop28
280
     0
102
RTVSPost2010PropOp28
 70
     1
102
RTVSPost2010Prop29
280
     1
102
RTVSPost2010PropOp29
 70
     1
102
RTVSPost2010Prop30
280
     1
102
RTVSPost2010PropOp30
 70
     1
102
RTVSPost2010Prop31
280
     0
102
RTVSPost2010PropOp31
 70
     1
102
RTVSPost2010Prop32
280
     0
102
RTVSPost2010PropOp32
 70
     1
102
RTVSPost2010Prop33
280
     0
102
RTVSPost2010PropOp33
 70
     1
102
RTVSPost2010Prop34
280
     0
102
RTVSPost2010PropOp34
 70
     1
102
RTVSPost2010Prop35
280
     0
102
RTVSPost2010PropOp35
 70
     1
102
RTVSPost2010Prop36
280
     0
102
RTVSPost2010PropOp36
 70
     1
102
RTVSPost2010Prop37
 90
       50
102
RTVSPost2010PropOp37
 70
     1
102
RTVSPost2010Prop38
140
0.0
102
RTVSPost2010PropOp38
 70
     1
102
RTVSPost2010Prop39
140
1.0
102
RTVSPost2010PropOp39
 70
     1
102
RTVSPost2010Prop40
 90
        0
102
RTVSPost2010PropOp40
 70
     1
102
RTVSPost2010Prop41ColorIndex
 90
       18
102
RTVSPost2010Prop41ColorRGB
 90
        0
102
RTVSPost2010PropOp41
 70
     1
102
RTVSPost2010Prop42
 90
       50
102
RTVSPost2010PropOp42
 70
     1
102
RTVSPost2010Prop43
 90
        3
102
RTVSPost2010PropOp43
 70
     1
102
RTVSPost2010Prop44ColorIndex
 90
        5
102
RTVSPost2010Prop44ColorRGB
 90
      255
102
RTVSPost2010PropOp44
 70
     1
102
RTVSPost2010Prop45
280
     0
102
RTVSPost2010PropOp45
 70
     1
102
RTVSPost2010Prop46
 90
       50
102
RTVSPost2010PropOp46
 70
     1
102
RTVSPost2010Prop47
 90
       50
102
RTVSPost2010PropOp47
 70
     1
102
RTVSPost2010Prop48
 90
       50
102
RTVSPost2010PropOp48
 70
     1
102
RTVSPost2010Prop49
280
     0
102
RTVSPost2010PropOp49
 70
     1
102
RTVSPost2010Prop50
 90
       50
102
RTVSPost2010PropOp50
 70
     1
102
RTVSPost2010Prop51ColorIndex
 90
      256
102
RTVSPost2010Prop51ColorRGB
 90
-16777216
102
RTVSPost2010PropOp51
 70
     0
102
RTVSPost2010Prop52
140
1.0
102
RTVSPost2010PropOp52
 70
     0
102
RTVSPost2010Prop53
 90
        2
102
RTVSPost2010PropOp53
 70
     1
102
RTVSPost2010Prop54
  1
strokes_ogs.tif
102
RTVSPost2010PropOp54
 70
     1
102
RTVSPost2010Prop55
280
     0
102
RTVSPost2010PropOp55
 70
     1
102
RTVSPost2010Prop56
140
1.0
102
RTVSPost2010PropOp56
 70
     1
102
RTVSPost2010Prop57
140
1.0
102
RTVSPost2010PropOp57
 70
     1
102
RTVSPropertyOp0
 70
     1
102
RTVSPropertyOp1
 70
     1
102
RTVSPropertyOp2
 70
     1
102
RTVSPropertyOp3
 70
     1
102
RTVSPropertyOp4
 70
     1
102
RTVSPropertyOp5
 70
     1
102
RTVSPropertyOp6
 70
     1
102
RTVSPropertyOp7
 70
     1
102
RTVSPropertyOp8
 70
     1
102
RTVSPropertyOp9
 70
     1
102
RTVSPropertyOp10
 70
     1
102
RTVSPropertyOp11
 70
     1
102
RTVSPropertyOp12
 70
     1
102
RTVSPropertyOp13
 70
     1
102
RTVSPropertyOp14
 70
     1
102
RTVSPropertyOp15
 70
     1
102
RTVSPropertyOp16
 70
     1
102
RTVSPropertyOp17
 70
     1
102
RTVSPropertyOp18
 70
     1
102
RTVSPropertyOp19
 70
     1
102
RTVSPropertyOp20
 70
     1
102
RTVSPropertyOp21
 70
     1
102
RTVSPropertyOp22
 70
     1
102
RTVSPropertyOp23
 70
     1
102
RTVSPropertyOp24
 70
     1
102
RTVSPropertyOp25
 70
     1
102
RTVSPropertyOp26
 70
     1
102
RTVSPropertyOp27
 70
     1
102
RTVSPropertyOp28
 70
     1
102
RTVSPropertyOp29
 70
     1
102
RTVSPropertyOp30
 70
     1
102
RTVSPropertyOp31
 70
     1
102
RTVSPropertyOp32
 70
     1
102
RTVSPropertyOp33
 70
     1
102
RTVSPropertyOp34
 70
     1
102
RTVSPropertyOp35
 70
     1
102
RTVSPropertyOp36
 70
     1
102
RTVSPropertyOp37
 70
     1
102
RTVSPropertyOp38
 70
     1
102
RTVSPropertyOp39
 70
     1
102
RTVSPropertyOp40
 70
     1
102
RTVSPropertyOp41
 70
     1
102
RTVSPropertyOp42
 70
     1
102
RTVSPropertyOp43
 70
     1
102
RTVSPropertyOp44
 70
     1
102
RTVSPropertyOp45
 70
     1
102
RTVSPropertyOp46
 70
     1
102
RTVSPropertyOp47
 70
     1
102
RTVSPropertyOp48
 70
     1
102
RTVSPropertyOp49
 70
     1
102
RTVSPropertyOp50
 70
     1
102
RTVSPropertyOp51
 70
     0
102
RTVSPropertyOp52
 70
     0
102
RTVSPropertyOp53
 70
     1
102
RTVSPropertyOp54
 70
     1
102
RTVSPropertyOp55
 70
     1
102
RTVSPropertyOp56
 70
     1
102
RTVSPropertyOp57
 70
     1
102
RTVSPropertyOp58
 70
     1
102
RTVSPropertyOp59
 70
     1
102
RTVSPropertyOp60
 70
     1
102
RTVSPropertyOp61
 70
     1
102
RTVSPropertyOp62
 70
     1
  0
XRECORD
  5
8401
102
{ACAD_REACTORS
330
8400
102
}
330
8400
100
AcDbXrecord
280
     1
102
RTVSPost2010Prop28
280
     0
102
RTVSPost2010PropOp28
 70
     1
102
RTVSPost2010Prop29
280
     1
102
RTVSPost2010PropOp29
 70
     1
102
RTVSPost2010Prop30
280
     1
102
RTVSPost2010PropOp30
 70
     1
102
RTVSPost2010Prop31
280
     0
102
RTVSPost2010PropOp31
 70
     1
102
RTVSPost2010Prop32
280
     0
102
RTVSPost2010PropOp32
 70
     1
102
RTVSPost2010Prop33
280
     0
102
RTVSPost2010PropOp33
 70
     1
102
RTVSPost2010Prop34
280
     0
102
RTVSPost2010PropOp34
 70
     1
102
RTVSPost2010Prop35
280
     0
102
RTVSPost2010PropOp35
 70
     1
102
RTVSPost2010Prop36
280
     0
102
RTVSPost2010PropOp36
 70
     1
102
RTVSPost2010Prop37
 90
       50
102
RTVSPost2010PropOp37
 70
     0
102
RTVSPost2010Prop38
140
0.0
102
RTVSPost2010PropOp38
 70
     0
102
RTVSPost2010Prop39
140
1.0
102
RTVSPost2010PropOp39
 70
     0
102
RTVSPost2010Prop40
 90
        0
102
RTVSPost2010PropOp40
 70
     0
102
RTVSPost2010Prop41ColorIndex
 90
       18
102
RTVSPost2010Prop41ColorRGB
 90
        0
102
RTVSPost2010PropOp41
 70
     0
102
RTVSPost2010Prop42
 90
       50
102
RTVSPost2010PropOp42
 70
     0
102
RTVSPost2010Prop43
 90
        3
102
RTVSPost2010PropOp43
 70
     0
102
RTVSPost2010Prop44ColorIndex
 90
        5
102
RTVSPost2010Prop44ColorRGB
 90
      255
102
RTVSPost2010PropOp44
 70
     0
102
RTVSPost2010Prop45
280
     0
102
RTVSPost2010PropOp45
 70
     1
102
RTVSPost2010Prop46
 90
       50
102
RTVSPost2010PropOp46
 70
     0
102
RTVSPost2010Prop47
 90
       50
102
RTVSPost2010PropOp47
 70
     0
102
RTVSPost2010Prop48
 90
       50
102
RTVSPost2010PropOp48
 70
     0
102
RTVSPost2010Prop49
280
     0
102
RTVSPost2010PropOp49
 70
     1
102
RTVSPost2010Prop50
 90
       50
102
RTVSPost2010PropOp50
 70
     0
102
RTVSPost2010Prop51ColorIndex
 90
      256
102
RTVSPost2010Prop51ColorRGB
 90
-16777216
102
RTVSPost2010PropOp51
 70
     0
102
RTVSPost2010Prop52
140
1.0
102
RTVSPost2010PropOp52
 70
     0
102
RTVSPost2010Prop53
 90
        2
102
RTVSPost2010PropOp53
 70
     0
102
RTVSPost2010Prop54
  1
strokes_ogs.tif
102
RTVSPost2010PropOp54
 70
     0
102
RTVSPost2010Prop55
280
     0
102
RTVSPost2010PropOp55
 70
     1
102
RTVSPost2010Prop56
140
1.0
102
RTVSPost2010PropOp56
 70
     0
102
RTVSPost2010Prop57
140
1.0
102
RTVSPost2010PropOp57
 70
     0
102
RTVSPropertyOp0
 70
     0
102
RTVSPropertyOp1
 70
     0
102
RTVSPropertyOp2
 70
     0
102
RTVSPropertyOp3
 70
     0
102
RTVSPropertyOp4
 70
     0
102
RTVSPropertyOp5
 70
     0
102
RTVSPropertyOp6
 70
     0
102
RTVSPropertyOp7
 70
     0
102
RTVSPropertyOp8
 70
     0
102
RTVSPropertyOp9
 70
     0
102
RTVSPropertyOp10
 70
     0
102
RTVSPropertyOp11
 70
     0
102
RTVSPropertyOp12
 70
     0
102
RTVSPropertyOp13
 70
     0
102
RTVSPropertyOp14
 70
     2
102
RTVSPropertyOp15
 70
     0
102
RTVSPropertyOp16
 70
     0
102
RTVSPropertyOp17
 70
     0
102
RTVSPropertyOp18
 70
     0
102
RTVSPropertyOp19
 70
     0
102
RTVSPropertyOp20
 70
     0
102
RTVSPropertyOp21
 70
     0
102
RTVSPropertyOp22
 70
     0
102
RTVSPropertyOp23
 70
     0
102
RTVSPropertyOp24
 70
     0
102
RTVSPropertyOp25
 70
     0
102
RTVSPropertyOp26
 70
     0
102
RTVSPropertyOp27
 70
     0
102
RTVSPropertyOp28
 70
     1
102
RTVSPropertyOp29
 70
     1
102
RTVSPropertyOp30
 70
     1
102
RTVSPropertyOp31
 70
     1
102
RTVSPropertyOp32
 70
     1
102
RTVSPropertyOp33
 70
     1
102
RTVSPropertyOp34
 70
     1
102
RTVSPropertyOp35
 70
     1
102
RTVSPropertyOp36
 70
     1
102
RTVSPropertyOp37
 70
     0
102
RTVSPropertyOp38
 70
     0
102
RTVSPropertyOp39
 70
     0
102
RTVSPropertyOp40
 70
     0
102
RTVSPropertyOp41
 70
     0
102
RTVSPropertyOp42
 70
     0
102
RTVSPropertyOp43
 70
     0
102
RTVSPropertyOp44
 70
     0
102
RTVSPropertyOp45
 70
     1
102
RTVSPropertyOp46
 70
     0
102
RTVSPropertyOp47
 70
     0
102
RTVSPropertyOp48
 70
     0
102
RTVSPropertyOp49
 70
     1
102
RTVSPropertyOp50
 70
     0
102
RTVSPropertyOp51
 70
     0
102
RTVSPropertyOp52
 70
     0
102
RTVSPropertyOp53
 70
     0
102
RTVSPropertyOp54
 70
     0
102
RTVSPropertyOp55
 70
     1
102
RTVSPropertyOp56
 70
     0
102
RTVSPropertyOp57
 70
     0
102
RTVSPropertyOp58
 70
     0
102
RTVSPropertyOp59
 70
     0
102
RTVSPropertyOp60
 70
     0
102
RTVSPropertyOp61
 70
     0
102
RTVSPropertyOp62
 70
     0
  0
XRECORD
  5
83F1
102
{ACAD_REACTORS
330
83F0
102
}
330
83F0
100
AcDbXrecord
280
     1
102
RTVSPost2010Prop28
280
     0
102
RTVSPost2010PropOp28
 70
     1
102
RTVSPost2010Prop29
280
     1
102
RTVSPost2010PropOp29
 70
     1
102
RTVSPost2010Prop30
280
     1
102
RTVSPost2010PropOp30
 70
     1
102
RTVSPost2010Prop31
280
     0
102
RTVSPost2010PropOp31
 70
     1
102
RTVSPost2010Prop32
280
     0
102
RTVSPost2010PropOp32
 70
     1
102
RTVSPost2010Prop33
280
     0
102
RTVSPost2010PropOp33
 70
     1
102
RTVSPost2010Prop34
280
     0
102
RTVSPost2010PropOp34
 70
     1
102
RTVSPost2010Prop35
280
     0
102
RTVSPost2010PropOp35
 70
     1
102
RTVSPost2010Prop36
280
     0
102
RTVSPost2010PropOp36
 70
     1
102
RTVSPost2010Prop37
 90
       50
102
RTVSPost2010PropOp37
 70
     1
102
RTVSPost2010Prop38
140
0.0
102
RTVSPost2010PropOp38
 70
     1
102
RTVSPost2010Prop39
140
1.0
102
RTVSPost2010PropOp39
 70
     1
102
RTVSPost2010Prop40
 90
        0
102
RTVSPost2010PropOp40
 70
     1
102
RTVSPost2010Prop41ColorIndex
 90
       18
102
RTVSPost2010Prop41ColorRGB
 90
        0
102
RTVSPost2010PropOp41
 70
     1
102
RTVSPost2010Prop42
 90
       50
102
RTVSPost2010PropOp42
 70
     1
102
RTVSPost2010Prop43
 90
        3
102
RTVSPost2010PropOp43
 70
     1
102
RTVSPost2010Prop44ColorIndex
 90
        5
102
RTVSPost2010Prop44ColorRGB
 90
      255
102
RTVSPost2010PropOp44
 70
     1
102
RTVSPost2010Prop45
280
     0
102
RTVSPost2010PropOp45
 70
     1
102
RTVSPost2010Prop46
 90
       50
102
RTVSPost2010PropOp46
 70
     1
102
RTVSPost2010Prop47
 90
       50
102
RTVSPost2010PropOp47
 70
     1
102
RTVSPost2010Prop48
 90
       50
102
RTVSPost2010PropOp48
 70
     1
102
RTVSPost2010Prop49
280
     0
102
RTVSPost2010PropOp49
 70
     1
102
RTVSPost2010Prop50
 90
       50
102
RTVSPost2010PropOp50
 70
     1
102
RTVSPost2010Prop51ColorIndex
 90
      256
102
RTVSPost2010Prop51ColorRGB
 90
-16777216
102
RTVSPost2010PropOp51
 70
     0
102
RTVSPost2010Prop52
140
1.0
102
RTVSPost2010PropOp52
 70
     0
102
RTVSPost2010Prop53
 90
        2
102
RTVSPost2010PropOp53
 70
     1
102
RTVSPost2010Prop54
  1
strokes_ogs.tif
102
RTVSPost2010PropOp54
 70
     1
102
RTVSPost2010Prop55
280
     0
102
RTVSPost2010PropOp55
 70
     1
102
RTVSPost2010Prop56
140
1.0
102
RTVSPost2010PropOp56
 70
     1
102
RTVSPost2010Prop57
140
1.0
102
RTVSPost2010PropOp57
 70
     1
102
RTVSPropertyOp0
 70
     1
102
RTVSPropertyOp1
 70
     1
102
RTVSPropertyOp2
 70
     1
102
RTVSPropertyOp3
 70
     1
102
RTVSPropertyOp4
 70
     1
102
RTVSPropertyOp5
 70
     1
102
RTVSPropertyOp6
 70
     1
102
RTVSPropertyOp7
 70
     1
102
RTVSPropertyOp8
 70
     1
102
RTVSPropertyOp9
 70
     1
102
RTVSPropertyOp10
 70
     1
102
RTVSPropertyOp11
 70
     1
102
RTVSPropertyOp12
 70
     1
102
RTVSPropertyOp13
 70
     1
102
RTVSPropertyOp14
 70
     1
102
RTVSPropertyOp15
 70
     1
102
RTVSPropertyOp16
 70
     1
102
RTVSPropertyOp17
 70
     1
102
RTVSPropertyOp18
 70
     1
102
RTVSPropertyOp19
 70
     1
102
RTVSPropertyOp20
 70
     1
102
RTVSPropertyOp21
 70
     1
102
RTVSPropertyOp22
 70
     1
102
RTVSPropertyOp23
 70
     1
102
RTVSPropertyOp24
 70
     1
102
RTVSPropertyOp25
 70
     1
102
RTVSPropertyOp26
 70
     1
102
RTVSPropertyOp27
 70
     1
102
RTVSPropertyOp28
 70
     1
102
RTVSPropertyOp29
 70
     1
102
RTVSPropertyOp30
 70
     1
102
RTVSPropertyOp31
 70
     1
102
RTVSPropertyOp32
 70
     1
102
RTVSPropertyOp33
 70
     1
102
RTVSPropertyOp34
 70
     1
102
RTVSPropertyOp35
 70
     1
102
RTVSPropertyOp36
 70
     1
102
RTVSPropertyOp37
 70
     1
102
RTVSPropertyOp38
 70
     1
102
RTVSPropertyOp39
 70
     1
102
RTVSPropertyOp40
 70
     1
102
RTVSPropertyOp41
 70
     1
102
RTVSPropertyOp42
 70
     1
102
RTVSPropertyOp43
 70
     1
102
RTVSPropertyOp44
 70
     1
102
RTVSPropertyOp45
 70
     1
102
RTVSPropertyOp46
 70
     1
102
RTVSPropertyOp47
 70
     1
102
RTVSPropertyOp48
 70
     1
102
RTVSPropertyOp49
 70
     1
102
RTVSPropertyOp50
 70
     1
102
RTVSPropertyOp51
 70
     0
102
RTVSPropertyOp52
 70
     0
102
RTVSPropertyOp53
 70
     1
102
RTVSPropertyOp54
 70
     1
102
RTVSPropertyOp55
 70
     1
102
RTVSPropertyOp56
 70
     1
102
RTVSPropertyOp57
 70
     1
102
RTVSPropertyOp58
 70
     1
102
RTVSPropertyOp59
 70
     1
102
RTVSPropertyOp60
 70
     1
102
RTVSPropertyOp61
 70
     1
102
RTVSPropertyOp62
 70
     1
  0
XRECORD
  5
8403
102
{ACAD_REACTORS
330
8402
102
}
330
8402
100
AcDbXrecord
280
     1
102
RTVSPost2010Prop28
280
     0
102
RTVSPost2010PropOp28
 70
     1
102
RTVSPost2010Prop29
280
     1
102
RTVSPost2010PropOp29
 70
     1
102
RTVSPost2010Prop30
280
     1
102
RTVSPost2010PropOp30
 70
     1
102
RTVSPost2010Prop31
280
     0
102
RTVSPost2010PropOp31
 70
     1
102
RTVSPost2010Prop32
280
     0
102
RTVSPost2010PropOp32
 70
     1
102
RTVSPost2010Prop33
280
     0
102
RTVSPost2010PropOp33
 70
     1
102
RTVSPost2010Prop34
280
     0
102
RTVSPost2010PropOp34
 70
     1
102
RTVSPost2010Prop35
280
     0
102
RTVSPost2010PropOp35
 70
     1
102
RTVSPost2010Prop36
280
     0
102
RTVSPost2010PropOp36
 70
     1
102
RTVSPost2010Prop37
 90
       50
102
RTVSPost2010PropOp37
 70
     0
102
RTVSPost2010Prop38
140
0.0
102
RTVSPost2010PropOp38
 70
     0
102
RTVSPost2010Prop39
140
1.0
102
RTVSPost2010PropOp39
 70
     0
102
RTVSPost2010Prop40
 90
        0
102
RTVSPost2010PropOp40
 70
     0
102
RTVSPost2010Prop41ColorIndex
 90
       18
102
RTVSPost2010Prop41ColorRGB
 90
        0
102
RTVSPost2010PropOp41
 70
     0
102
RTVSPost2010Prop42
 90
       50
102
RTVSPost2010PropOp42
 70
     0
102
RTVSPost2010Prop43
 90
        3
102
RTVSPost2010PropOp43
 70
     0
102
RTVSPost2010Prop44ColorIndex
 90
        5
102
RTVSPost2010Prop44ColorRGB
 90
      255
102
RTVSPost2010PropOp44
 70
     0
102
RTVSPost2010Prop45
280
     0
102
RTVSPost2010PropOp45
 70
     1
102
RTVSPost2010Prop46
 90
       50
102
RTVSPost2010PropOp46
 70
     0
102
RTVSPost2010Prop47
 90
       50
102
RTVSPost2010PropOp47
 70
     0
102
RTVSPost2010Prop48
 90
       50
102
RTVSPost2010PropOp48
 70
     0
102
RTVSPost2010Prop49
280
     0
102
RTVSPost2010PropOp49
 70
     1
102
RTVSPost2010Prop50
 90
       50
102
RTVSPost2010PropOp50
 70
     0
102
RTVSPost2010Prop51ColorIndex
 90
      256
102
RTVSPost2010Prop51ColorRGB
 90
-16777216
102
RTVSPost2010PropOp51
 70
     0
102
RTVSPost2010Prop52
140
1.0
102
RTVSPost2010PropOp52
 70
     0
102
RTVSPost2010Prop53
 90
        2
102
RTVSPost2010PropOp53
 70
     0
102
RTVSPost2010Prop54
  1
strokes_ogs.tif
102
RTVSPost2010PropOp54
 70
     0
102
RTVSPost2010Prop55
280
     0
102
RTVSPost2010PropOp55
 70
     1
102
RTVSPost2010Prop56
140
1.0
102
RTVSPost2010PropOp56
 70
     0
102
RTVSPost2010Prop57
140
1.0
102
RTVSPost2010PropOp57
 70
     0
102
RTVSPropertyOp0
 70
     0
102
RTVSPropertyOp1
 70
     0
102
RTVSPropertyOp2
 70
     0
102
RTVSPropertyOp3
 70
     0
102
RTVSPropertyOp4
 70
     0
102
RTVSPropertyOp5
 70
     0
102
RTVSPropertyOp6
 70
     0
102
RTVSPropertyOp7
 70
     0
102
RTVSPropertyOp8
 70
     0
102
RTVSPropertyOp9
 70
     0
102
RTVSPropertyOp10
 70
     0
102
RTVSPropertyOp11
 70
     0
102
RTVSPropertyOp12
 70
     0
102
RTVSPropertyOp13
 70
     0
102
RTVSPropertyOp14
 70
     2
102
RTVSPropertyOp15
 70
     0
102
RTVSPropertyOp16
 70
     0
102
RTVSPropertyOp17
 70
     0
102
RTVSPropertyOp18
 70
     0
102
RTVSPropertyOp19
 70
     0
102
RTVSPropertyOp20
 70
     0
102
RTVSPropertyOp21
 70
     0
102
RTVSPropertyOp22
 70
     0
102
RTVSPropertyOp23
 70
     0
102
RTVSPropertyOp24
 70
     0
102
RTVSPropertyOp25
 70
     0
102
RTVSPropertyOp26
 70
     0
102
RTVSPropertyOp27
 70
     0
102
RTVSPropertyOp28
 70
     1
102
RTVSPropertyOp29
 70
     1
102
RTVSPropertyOp30
 70
     1
102
RTVSPropertyOp31
 70
     1
102
RTVSPropertyOp32
 70
     1
102
RTVSPropertyOp33
 70
     1
102
RTVSPropertyOp34
 70
     1
102
RTVSPropertyOp35
 70
     1
102
RTVSPropertyOp36
 70
     1
102
RTVSPropertyOp37
 70
     0
102
RTVSPropertyOp38
 70
     0
102
RTVSPropertyOp39
 70
     0
102
RTVSPropertyOp40
 70
     0
102
RTVSPropertyOp41
 70
     0
102
RTVSPropertyOp42
 70
     0
102
RTVSPropertyOp43
 70
     0
102
RTVSPropertyOp44
 70
     0
102
RTVSPropertyOp45
 70
     1
102
RTVSPropertyOp46
 70
     0
102
RTVSPropertyOp47
 70
     0
102
RTVSPropertyOp48
 70
     0
102
RTVSPropertyOp49
 70
     1
102
RTVSPropertyOp50
 70
     0
102
RTVSPropertyOp51
 70
     0
102
RTVSPropertyOp52
 70
     0
102
RTVSPropertyOp53
 70
     0
102
RTVSPropertyOp54
 70
     0
102
RTVSPropertyOp55
 70
     1
102
RTVSPropertyOp56
 70
     0
102
RTVSPropertyOp57
 70
     0
102
RTVSPropertyOp58
 70
     0
102
RTVSPropertyOp59
 70
     0
102
RTVSPropertyOp60
 70
     0
102
RTVSPropertyOp61
 70
     0
102
RTVSPropertyOp62
 70
     0
  0
XRECORD
  5
83E9
102
{ACAD_REACTORS
330
83E8
102
}
330
83E8
100
AcDbXrecord
280
     1
102
RTVSPost2010Prop28
280
     0
102
RTVSPost2010PropOp28
 70
     1
102
RTVSPost2010Prop29
280
     1
102
RTVSPost2010PropOp29
 70
     1
102
RTVSPost2010Prop30
280
     1
102
RTVSPost2010PropOp30
 70
     1
102
RTVSPost2010Prop31
280
     0
102
RTVSPost2010PropOp31
 70
     1
102
RTVSPost2010Prop32
280
     0
102
RTVSPost2010PropOp32
 70
     1
102
RTVSPost2010Prop33
280
     0
102
RTVSPost2010PropOp33
 70
     1
102
RTVSPost2010Prop34
280
     0
102
RTVSPost2010PropOp34
 70
     1
102
RTVSPost2010Prop35
280
     0
102
RTVSPost2010PropOp35
 70
     1
102
RTVSPost2010Prop36
280
     0
102
RTVSPost2010PropOp36
 70
     1
102
RTVSPost2010Prop37
 90
       50
102
RTVSPost2010PropOp37
 70
     1
102
RTVSPost2010Prop38
140
0.0
102
RTVSPost2010PropOp38
 70
     1
102
RTVSPost2010Prop39
140
1.0
102
RTVSPost2010PropOp39
 70
     1
102
RTVSPost2010Prop40
 90
        0
102
RTVSPost2010PropOp40
 70
     1
102
RTVSPost2010Prop41ColorIndex
 90
       18
102
RTVSPost2010Prop41ColorRGB
 90
        0
102
RTVSPost2010PropOp41
 70
     1
102
RTVSPost2010Prop42
 90
       50
102
RTVSPost2010PropOp42
 70
     1
102
RTVSPost2010Prop43
 90
        3
102
RTVSPost2010PropOp43
 70
     1
102
RTVSPost2010Prop44ColorIndex
 90
        5
102
RTVSPost2010Prop44ColorRGB
 90
      255
102
RTVSPost2010PropOp44
 70
     1
102
RTVSPost2010Prop45
280
     0
102
RTVSPost2010PropOp45
 70
     1
102
RTVSPost2010Prop46
 90
       50
102
RTVSPost2010PropOp46
 70
     1
102
RTVSPost2010Prop47
 90
       50
102
RTVSPost2010PropOp47
 70
     1
102
RTVSPost2010Prop48
 90
       50
102
RTVSPost2010PropOp48
 70
     1
102
RTVSPost2010Prop49
280
     0
102
RTVSPost2010PropOp49
 70
     1
102
RTVSPost2010Prop50
 90
       50
102
RTVSPost2010PropOp50
 70
     1
102
RTVSPost2010Prop51ColorIndex
 90
      256
102
RTVSPost2010Prop51ColorRGB
 90
-16777216
102
RTVSPost2010PropOp51
 70
     0
102
RTVSPost2010Prop52
140
1.0
102
RTVSPost2010PropOp52
 70
     0
102
RTVSPost2010Prop53
 90
        2
102
RTVSPost2010PropOp53
 70
     1
102
RTVSPost2010Prop54
  1
strokes_ogs.tif
102
RTVSPost2010PropOp54
 70
     1
102
RTVSPost2010Prop55
280
     0
102
RTVSPost2010PropOp55
 70
     1
102
RTVSPost2010Prop56
140
1.0
102
RTVSPost2010PropOp56
 70
     1
102
RTVSPost2010Prop57
140
1.0
102
RTVSPost2010PropOp57
 70
     1
102
RTVSPropertyOp0
 70
     1
102
RTVSPropertyOp1
 70
     1
102
RTVSPropertyOp2
 70
     1
102
RTVSPropertyOp3
 70
     1
102
RTVSPropertyOp4
 70
     1
102
RTVSPropertyOp5
 70
     1
102
RTVSPropertyOp6
 70
     1
102
RTVSPropertyOp7
 70
     1
102
RTVSPropertyOp8
 70
     1
102
RTVSPropertyOp9
 70
     1
102
RTVSPropertyOp10
 70
     1
102
RTVSPropertyOp11
 70
     1
102
RTVSPropertyOp12
 70
     1
102
RTVSPropertyOp13
 70
     1
102
RTVSPropertyOp14
 70
     1
102
RTVSPropertyOp15
 70
     1
102
RTVSPropertyOp16
 70
     1
102
RTVSPropertyOp17
 70
     1
102
RTVSPropertyOp18
 70
     1
102
RTVSPropertyOp19
 70
     1
102
RTVSPropertyOp20
 70
     1
102
RTVSPropertyOp21
 70
     1
102
RTVSPropertyOp22
 70
     1
102
RTVSPropertyOp23
 70
     1
102
RTVSPropertyOp24
 70
     1
102
RTVSPropertyOp25
 70
     1
102
RTVSPropertyOp26
 70
     1
102
RTVSPropertyOp27
 70
     1
102
RTVSPropertyOp28
 70
     1
102
RTVSPropertyOp29
 70
     1
102
RTVSPropertyOp30
 70
     1
102
RTVSPropertyOp31
 70
     1
102
RTVSPropertyOp32
 70
     1
102
RTVSPropertyOp33
 70
     1
102
RTVSPropertyOp34
 70
     1
102
RTVSPropertyOp35
 70
     1
102
RTVSPropertyOp36
 70
     1
102
RTVSPropertyOp37
 70
     1
102
RTVSPropertyOp38
 70
     1
102
RTVSPropertyOp39
 70
     1
102
RTVSPropertyOp40
 70
     1
102
RTVSPropertyOp41
 70
     1
102
RTVSPropertyOp42
 70
     1
102
RTVSPropertyOp43
 70
     1
102
RTVSPropertyOp44
 70
     1
102
RTVSPropertyOp45
 70
     1
102
RTVSPropertyOp46
 70
     1
102
RTVSPropertyOp47
 70
     1
102
RTVSPropertyOp48
 70
     1
102
RTVSPropertyOp49
 70
     1
102
RTVSPropertyOp50
 70
     1
102
RTVSPropertyOp51
 70
     0
102
RTVSPropertyOp52
 70
     0
102
RTVSPropertyOp53
 70
     1
102
RTVSPropertyOp54
 70
     1
102
RTVSPropertyOp55
 70
     1
102
RTVSPropertyOp56
 70
     1
102
RTVSPropertyOp57
 70
     1
102
RTVSPropertyOp58
 70
     1
102
RTVSPropertyOp59
 70
     1
102
RTVSPropertyOp60
 70
     1
102
RTVSPropertyOp61
 70
     1
102
RTVSPropertyOp62
 70
     1
  0
XRECORD
  5
83FF
102
{ACAD_REACTORS
330
83FE
102
}
330
83FE
100
AcDbXrecord
280
     1
102
RTVSPost2010Prop28
280
     0
102
RTVSPost2010PropOp28
 70
     1
102
RTVSPost2010Prop29
280
     1
102
RTVSPost2010PropOp29
 70
     1
102
RTVSPost2010Prop30
280
     1
102
RTVSPost2010PropOp30
 70
     1
102
RTVSPost2010Prop31
280
     0
102
RTVSPost2010PropOp31
 70
     1
102
RTVSPost2010Prop32
280
     0
102
RTVSPost2010PropOp32
 70
     1
102
RTVSPost2010Prop33
280
     0
102
RTVSPost2010PropOp33
 70
     1
102
RTVSPost2010Prop34
280
     0
102
RTVSPost2010PropOp34
 70
     1
102
RTVSPost2010Prop35
280
     0
102
RTVSPost2010PropOp35
 70
     1
102
RTVSPost2010Prop36
280
     0
102
RTVSPost2010PropOp36
 70
     1
102
RTVSPost2010Prop37
 90
       50
102
RTVSPost2010PropOp37
 70
     1
102
RTVSPost2010Prop38
140
0.0
102
RTVSPost2010PropOp38
 70
     1
102
RTVSPost2010Prop39
140
1.0
102
RTVSPost2010PropOp39
 70
     1
102
RTVSPost2010Prop40
 90
        0
102
RTVSPost2010PropOp40
 70
     1
102
RTVSPost2010Prop41ColorIndex
 90
       18
102
RTVSPost2010Prop41ColorRGB
 90
        0
102
RTVSPost2010PropOp41
 70
     1
102
RTVSPost2010Prop42
 90
       50
102
RTVSPost2010PropOp42
 70
     1
102
RTVSPost2010Prop43
 90
        3
102
RTVSPost2010PropOp43
 70
     1
102
RTVSPost2010Prop44ColorIndex
 90
        5
102
RTVSPost2010Prop44ColorRGB
 90
      255
102
RTVSPost2010PropOp44
 70
     1
102
RTVSPost2010Prop45
280
     0
102
RTVSPost2010PropOp45
 70
     1
102
RTVSPost2010Prop46
 90
       50
102
RTVSPost2010PropOp46
 70
     1
102
RTVSPost2010Prop47
 90
       50
102
RTVSPost2010PropOp47
 70
     1
102
RTVSPost2010Prop48
 90
       50
102
RTVSPost2010PropOp48
 70
     1
102
RTVSPost2010Prop49
280
     0
102
RTVSPost2010PropOp49
 70
     1
102
RTVSPost2010Prop50
 90
       50
102
RTVSPost2010PropOp50
 70
     1
102
RTVSPost2010Prop51ColorIndex
 90
      256
102
RTVSPost2010Prop51ColorRGB
 90
-16777216
102
RTVSPost2010PropOp51
 70
     0
102
RTVSPost2010Prop52
140
1.0
102
RTVSPost2010PropOp52
 70
     0
102
RTVSPost2010Prop53
 90
        2
102
RTVSPost2010PropOp53
 70
     1
102
RTVSPost2010Prop54
  1
strokes_ogs.tif
102
RTVSPost2010PropOp54
 70
     1
102
RTVSPost2010Prop55
280
     0
102
RTVSPost2010PropOp55
 70
     1
102
RTVSPost2010Prop56
140
1.0
102
RTVSPost2010PropOp56
 70
     1
102
RTVSPost2010Prop57
140
1.0
102
RTVSPost2010PropOp57
 70
     1
102
RTVSPropertyOp0
 70
     1
102
RTVSPropertyOp1
 70
     1
102
RTVSPropertyOp2
 70
     1
102
RTVSPropertyOp3
 70
     1
102
RTVSPropertyOp4
 70
     1
102
RTVSPropertyOp5
 70
     1
102
RTVSPropertyOp6
 70
     1
102
RTVSPropertyOp7
 70
     1
102
RTVSPropertyOp8
 70
     1
102
RTVSPropertyOp9
 70
     1
102
RTVSPropertyOp10
 70
     1
102
RTVSPropertyOp11
 70
     1
102
RTVSPropertyOp12
 70
     1
102
RTVSPropertyOp13
 70
     1
102
RTVSPropertyOp14
 70
     1
102
RTVSPropertyOp15
 70
     1
102
RTVSPropertyOp16
 70
     1
102
RTVSPropertyOp17
 70
     1
102
RTVSPropertyOp18
 70
     1
102
RTVSPropertyOp19
 70
     1
102
RTVSPropertyOp20
 70
     1
102
RTVSPropertyOp21
 70
     1
102
RTVSPropertyOp22
 70
     1
102
RTVSPropertyOp23
 70
     1
102
RTVSPropertyOp24
 70
     1
102
RTVSPropertyOp25
 70
     1
102
RTVSPropertyOp26
 70
     1
102
RTVSPropertyOp27
 70
     1
102
RTVSPropertyOp28
 70
     1
102
RTVSPropertyOp29
 70
     1
102
RTVSPropertyOp30
 70
     1
102
RTVSPropertyOp31
 70
     1
102
RTVSPropertyOp32
 70
     1
102
RTVSPropertyOp33
 70
     1
102
RTVSPropertyOp34
 70
     1
102
RTVSPropertyOp35
 70
     1
102
RTVSPropertyOp36
 70
     1
102
RTVSPropertyOp37
 70
     1
102
RTVSPropertyOp38
 70
     1
102
RTVSPropertyOp39
 70
     1
102
RTVSPropertyOp40
 70
     1
102
RTVSPropertyOp41
 70
     1
102
RTVSPropertyOp42
 70
     1
102
RTVSPropertyOp43
 70
     1
102
RTVSPropertyOp44
 70
     1
102
RTVSPropertyOp45
 70
     1
102
RTVSPropertyOp46
 70
     1
102
RTVSPropertyOp47
 70
     1
102
RTVSPropertyOp48
 70
     1
102
RTVSPropertyOp49
 70
     1
102
RTVSPropertyOp50
 70
     1
102
RTVSPropertyOp51
 70
     0
102
RTVSPropertyOp52
 70
     0
102
RTVSPropertyOp53
 70
     1
102
RTVSPropertyOp54
 70
     1
102
RTVSPropertyOp55
 70
     1
102
RTVSPropertyOp56
 70
     1
102
RTVSPropertyOp57
 70
     1
102
RTVSPropertyOp58
 70
     1
102
RTVSPropertyOp59
 70
     1
102
RTVSPropertyOp60
 70
     1
102
RTVSPropertyOp61
 70
     1
102
RTVSPropertyOp62
 70
     1
  0
XRECORD
  5
83FD
102
{ACAD_REACTORS
330
83FC
102
}
330
83FC
100
AcDbXrecord
280
     1
102
RTVSPost2010Prop28
280
     0
102
RTVSPost2010PropOp28
 70
     1
102
RTVSPost2010Prop29
280
     1
102
RTVSPost2010PropOp29
 70
     1
102
RTVSPost2010Prop30
280
     1
102
RTVSPost2010PropOp30
 70
     1
102
RTVSPost2010Prop31
280
     0
102
RTVSPost2010PropOp31
 70
     1
102
RTVSPost2010Prop32
280
     0
102
RTVSPost2010PropOp32
 70
     1
102
RTVSPost2010Prop33
280
     0
102
RTVSPost2010PropOp33
 70
     1
102
RTVSPost2010Prop34
280
     0
102
RTVSPost2010PropOp34
 70
     1
102
RTVSPost2010Prop35
280
     0
102
RTVSPost2010PropOp35
 70
     1
102
RTVSPost2010Prop36
280
     0
102
RTVSPost2010PropOp36
 70
     1
102
RTVSPost2010Prop37
 90
       50
102
RTVSPost2010PropOp37
 70
     1
102
RTVSPost2010Prop38
140
0.0
102
RTVSPost2010PropOp38
 70
     1
102
RTVSPost2010Prop39
140
1.0
102
RTVSPost2010PropOp39
 70
     1
102
RTVSPost2010Prop40
 90
        0
102
RTVSPost2010PropOp40
 70
     1
102
RTVSPost2010Prop41ColorIndex
 90
       18
102
RTVSPost2010Prop41ColorRGB
 90
        0
102
RTVSPost2010PropOp41
 70
     1
102
RTVSPost2010Prop42
 90
       50
102
RTVSPost2010PropOp42
 70
     1
102
RTVSPost2010Prop43
 90
        3
102
RTVSPost2010PropOp43
 70
     1
102
RTVSPost2010Prop44ColorIndex
 90
        5
102
RTVSPost2010Prop44ColorRGB
 90
      255
102
RTVSPost2010PropOp44
 70
     1
102
RTVSPost2010Prop45
280
     0
102
RTVSPost2010PropOp45
 70
     1
102
RTVSPost2010Prop46
 90
       50
102
RTVSPost2010PropOp46
 70
     1
102
RTVSPost2010Prop47
 90
       50
102
RTVSPost2010PropOp47
 70
     1
102
RTVSPost2010Prop48
 90
       50
102
RTVSPost2010PropOp48
 70
     1
102
RTVSPost2010Prop49
280
     0
102
RTVSPost2010PropOp49
 70
     1
102
RTVSPost2010Prop50
 90
       50
102
RTVSPost2010PropOp50
 70
     1
102
RTVSPost2010Prop51ColorIndex
 90
      256
102
RTVSPost2010Prop51ColorRGB
 90
-16777216
102
RTVSPost2010PropOp51
 70
     0
102
RTVSPost2010Prop52
140
1.0
102
RTVSPost2010PropOp52
 70
     0
102
RTVSPost2010Prop53
 90
        2
102
RTVSPost2010PropOp53
 70
     1
102
RTVSPost2010Prop54
  1
strokes_ogs.tif
102
RTVSPost2010PropOp54
 70
     1
102
RTVSPost2010Prop55
280
     0
102
RTVSPost2010PropOp55
 70
     1
102
RTVSPost2010Prop56
140
1.0
102
RTVSPost2010PropOp56
 70
     1
102
RTVSPost2010Prop57
140
1.0
102
RTVSPost2010PropOp57
 70
     1
102
RTVSPropertyOp0
 70
     1
102
RTVSPropertyOp1
 70
     1
102
RTVSPropertyOp2
 70
     1
102
RTVSPropertyOp3
 70
     1
102
RTVSPropertyOp4
 70
     1
102
RTVSPropertyOp5
 70
     1
102
RTVSPropertyOp6
 70
     1
102
RTVSPropertyOp7
 70
     1
102
RTVSPropertyOp8
 70
     1
102
RTVSPropertyOp9
 70
     1
102
RTVSPropertyOp10
 70
     1
102
RTVSPropertyOp11
 70
     1
102
RTVSPropertyOp12
 70
     1
102
RTVSPropertyOp13
 70
     1
102
RTVSPropertyOp14
 70
     1
102
RTVSPropertyOp15
 70
     1
102
RTVSPropertyOp16
 70
     1
102
RTVSPropertyOp17
 70
     1
102
RTVSPropertyOp18
 70
     1
102
RTVSPropertyOp19
 70
     1
102
RTVSPropertyOp20
 70
     1
102
RTVSPropertyOp21
 70
     1
102
RTVSPropertyOp22
 70
     1
102
RTVSPropertyOp23
 70
     1
102
RTVSPropertyOp24
 70
     1
102
RTVSPropertyOp25
 70
     1
102
RTVSPropertyOp26
 70
     1
102
RTVSPropertyOp27
 70
     1
102
RTVSPropertyOp28
 70
     1
102
RTVSPropertyOp29
 70
     1
102
RTVSPropertyOp30
 70
     1
102
RTVSPropertyOp31
 70
     1
102
RTVSPropertyOp32
 70
     1
102
RTVSPropertyOp33
 70
     1
102
RTVSPropertyOp34
 70
     1
102
RTVSPropertyOp35
 70
     1
102
RTVSPropertyOp36
 70
     1
102
RTVSPropertyOp37
 70
     1
102
RTVSPropertyOp38
 70
     1
102
RTVSPropertyOp39
 70
     1
102
RTVSPropertyOp40
 70
     1
102
RTVSPropertyOp41
 70
     1
102
RTVSPropertyOp42
 70
     1
102
RTVSPropertyOp43
 70
     1
102
RTVSPropertyOp44
 70
     1
102
RTVSPropertyOp45
 70
     1
102
RTVSPropertyOp46
 70
     1
102
RTVSPropertyOp47
 70
     1
102
RTVSPropertyOp48
 70
     1
102
RTVSPropertyOp49
 70
     1
102
RTVSPropertyOp50
 70
     1
102
RTVSPropertyOp51
 70
     0
102
RTVSPropertyOp52
 70
     0
102
RTVSPropertyOp53
 70
     1
102
RTVSPropertyOp54
 70
     1
102
RTVSPropertyOp55
 70
     1
102
RTVSPropertyOp56
 70
     1
102
RTVSPropertyOp57
 70
     1
102
RTVSPropertyOp58
 70
     1
102
RTVSPropertyOp59
 70
     1
102
RTVSPropertyOp60
 70
     1
102
RTVSPropertyOp61
 70
     1
102
RTVSPropertyOp62
 70
     1
  0
XRECORD
  5
83F7
102
{ACAD_REACTORS
330
83F6
102
}
330
83F6
100
AcDbXrecord
280
     1
102
RTVSPost2010Prop28
280
     0
102
RTVSPost2010PropOp28
 70
     1
102
RTVSPost2010Prop29
280
     1
102
RTVSPost2010PropOp29
 70
     1
102
RTVSPost2010Prop30
280
     1
102
RTVSPost2010PropOp30
 70
     1
102
RTVSPost2010Prop31
280
     0
102
RTVSPost2010PropOp31
 70
     1
102
RTVSPost2010Prop32
280
     0
102
RTVSPost2010PropOp32
 70
     1
102
RTVSPost2010Prop33
280
     0
102
RTVSPost2010PropOp33
 70
     1
102
RTVSPost2010Prop34
280
     0
102
RTVSPost2010PropOp34
 70
     1
102
RTVSPost2010Prop35
280
     0
102
RTVSPost2010PropOp35
 70
     1
102
RTVSPost2010Prop36
280
     0
102
RTVSPost2010PropOp36
 70
     1
102
RTVSPost2010Prop37
 90
       50
102
RTVSPost2010PropOp37
 70
     1
102
RTVSPost2010Prop38
140
0.0
102
RTVSPost2010PropOp38
 70
     1
102
RTVSPost2010Prop39
140
1.0
102
RTVSPost2010PropOp39
 70
     1
102
RTVSPost2010Prop40
 90
        0
102
RTVSPost2010PropOp40
 70
     1
102
RTVSPost2010Prop41ColorIndex
 90
       18
102
RTVSPost2010Prop41ColorRGB
 90
        0
102
RTVSPost2010PropOp41
 70
     1
102
RTVSPost2010Prop42
 90
       50
102
RTVSPost2010PropOp42
 70
     1
102
RTVSPost2010Prop43
 90
        3
102
RTVSPost2010PropOp43
 70
     1
102
RTVSPost2010Prop44ColorIndex
 90
        5
102
RTVSPost2010Prop44ColorRGB
 90
      255
102
RTVSPost2010PropOp44
 70
     1
102
RTVSPost2010Prop45
280
     0
102
RTVSPost2010PropOp45
 70
     1
102
RTVSPost2010Prop46
 90
       50
102
RTVSPost2010PropOp46
 70
     1
102
RTVSPost2010Prop47
 90
       50
102
RTVSPost2010PropOp47
 70
     1
102
RTVSPost2010Prop48
 90
       50
102
RTVSPost2010PropOp48
 70
     1
102
RTVSPost2010Prop49
280
     0
102
RTVSPost2010PropOp49
 70
     1
102
RTVSPost2010Prop50
 90
       50
102
RTVSPost2010PropOp50
 70
     1
102
RTVSPost2010Prop51ColorIndex
 90
      256
102
RTVSPost2010Prop51ColorRGB
 90
-16777216
102
RTVSPost2010PropOp51
 70
     0
102
RTVSPost2010Prop52
140
1.0
102
RTVSPost2010PropOp52
 70
     0
102
RTVSPost2010Prop53
 90
        2
102
RTVSPost2010PropOp53
 70
     1
102
RTVSPost2010Prop54
  1
strokes_ogs.tif
102
RTVSPost2010PropOp54
 70
     1
102
RTVSPost2010Prop55
280
     0
102
RTVSPost2010PropOp55
 70
     1
102
RTVSPost2010Prop56
140
1.0
102
RTVSPost2010PropOp56
 70
     1
102
RTVSPost2010Prop57
140
1.0
102
RTVSPost2010PropOp57
 70
     1
102
RTVSPropertyOp0
 70
     1
102
RTVSPropertyOp1
 70
     1
102
RTVSPropertyOp2
 70
     1
102
RTVSPropertyOp3
 70
     1
102
RTVSPropertyOp4
 70
     1
102
RTVSPropertyOp5
 70
     1
102
RTVSPropertyOp6
 70
     1
102
RTVSPropertyOp7
 70
     1
102
RTVSPropertyOp8
 70
     1
102
RTVSPropertyOp9
 70
     1
102
RTVSPropertyOp10
 70
     1
102
RTVSPropertyOp11
 70
     1
102
RTVSPropertyOp12
 70
     1
102
RTVSPropertyOp13
 70
     1
102
RTVSPropertyOp14
 70
     1
102
RTVSPropertyOp15
 70
     1
102
RTVSPropertyOp16
 70
     1
102
RTVSPropertyOp17
 70
     1
102
RTVSPropertyOp18
 70
     1
102
RTVSPropertyOp19
 70
     1
102
RTVSPropertyOp20
 70
     1
102
RTVSPropertyOp21
 70
     1
102
RTVSPropertyOp22
 70
     1
102
RTVSPropertyOp23
 70
     1
102
RTVSPropertyOp24
 70
     1
102
RTVSPropertyOp25
 70
     1
102
RTVSPropertyOp26
 70
     1
102
RTVSPropertyOp27
 70
     1
102
RTVSPropertyOp28
 70
     1
102
RTVSPropertyOp29
 70
     1
102
RTVSPropertyOp30
 70
     1
102
RTVSPropertyOp31
 70
     1
102
RTVSPropertyOp32
 70
     1
102
RTVSPropertyOp33
 70
     1
102
RTVSPropertyOp34
 70
     1
102
RTVSPropertyOp35
 70
     1
102
RTVSPropertyOp36
 70
     1
102
RTVSPropertyOp37
 70
     1
102
RTVSPropertyOp38
 70
     1
102
RTVSPropertyOp39
 70
     1
102
RTVSPropertyOp40
 70
     1
102
RTVSPropertyOp41
 70
     1
102
RTVSPropertyOp42
 70
     1
102
RTVSPropertyOp43
 70
     1
102
RTVSPropertyOp44
 70
     1
102
RTVSPropertyOp45
 70
     1
102
RTVSPropertyOp46
 70
     1
102
RTVSPropertyOp47
 70
     1
102
RTVSPropertyOp48
 70
     1
102
RTVSPropertyOp49
 70
     1
102
RTVSPropertyOp50
 70
     1
102
RTVSPropertyOp51
 70
     0
102
RTVSPropertyOp52
 70
     0
102
RTVSPropertyOp53
 70
     1
102
RTVSPropertyOp54
 70
     1
102
RTVSPropertyOp55
 70
     1
102
RTVSPropertyOp56
 70
     1
102
RTVSPropertyOp57
 70
     1
102
RTVSPropertyOp58
 70
     1
102
RTVSPropertyOp59
 70
     1
102
RTVSPropertyOp60
 70
     1
102
RTVSPropertyOp61
 70
     1
102
RTVSPropertyOp62
 70
     1
  0
XRECORD
  5
83F9
102
{ACAD_REACTORS
330
83F8
102
}
330
83F8
100
AcDbXrecord
280
     1
102
RTVSPost2010Prop28
280
     0
102
RTVSPost2010PropOp28
 70
     1
102
RTVSPost2010Prop29
280
     1
102
RTVSPost2010PropOp29
 70
     1
102
RTVSPost2010Prop30
280
     1
102
RTVSPost2010PropOp30
 70
     1
102
RTVSPost2010Prop31
280
     0
102
RTVSPost2010PropOp31
 70
     1
102
RTVSPost2010Prop32
280
     0
102
RTVSPost2010PropOp32
 70
     1
102
RTVSPost2010Prop33
280
     0
102
RTVSPost2010PropOp33
 70
     1
102
RTVSPost2010Prop34
280
     0
102
RTVSPost2010PropOp34
 70
     1
102
RTVSPost2010Prop35
280
     0
102
RTVSPost2010PropOp35
 70
     1
102
RTVSPost2010Prop36
280
     0
102
RTVSPost2010PropOp36
 70
     1
102
RTVSPost2010Prop37
 90
       50
102
RTVSPost2010PropOp37
 70
     1
102
RTVSPost2010Prop38
140
0.0
102
RTVSPost2010PropOp38
 70
     1
102
RTVSPost2010Prop39
140
1.0
102
RTVSPost2010PropOp39
 70
     1
102
RTVSPost2010Prop40
 90
        0
102
RTVSPost2010PropOp40
 70
     1
102
RTVSPost2010Prop41ColorIndex
 90
       18
102
RTVSPost2010Prop41ColorRGB
 90
        0
102
RTVSPost2010PropOp41
 70
     1
102
RTVSPost2010Prop42
 90
       50
102
RTVSPost2010PropOp42
 70
     1
102
RTVSPost2010Prop43
 90
        3
102
RTVSPost2010PropOp43
 70
     1
102
RTVSPost2010Prop44ColorIndex
 90
        5
102
RTVSPost2010Prop44ColorRGB
 90
      255
102
RTVSPost2010PropOp44
 70
     1
102
RTVSPost2010Prop45
280
     0
102
RTVSPost2010PropOp45
 70
     1
102
RTVSPost2010Prop46
 90
       50
102
RTVSPost2010PropOp46
 70
     1
102
RTVSPost2010Prop47
 90
       50
102
RTVSPost2010PropOp47
 70
     1
102
RTVSPost2010Prop48
 90
       50
102
RTVSPost2010PropOp48
 70
     1
102
RTVSPost2010Prop49
280
     0
102
RTVSPost2010PropOp49
 70
     1
102
RTVSPost2010Prop50
 90
       50
102
RTVSPost2010PropOp50
 70
     1
102
RTVSPost2010Prop51ColorIndex
 90
      256
102
RTVSPost2010Prop51ColorRGB
 90
-16777216
102
RTVSPost2010PropOp51
 70
     0
102
RTVSPost2010Prop52
140
1.0
102
RTVSPost2010PropOp52
 70
     0
102
RTVSPost2010Prop53
 90
        2
102
RTVSPost2010PropOp53
 70
     1
102
RTVSPost2010Prop54
  1
strokes_ogs.tif
102
RTVSPost2010PropOp54
 70
     1
102
RTVSPost2010Prop55
280
     0
102
RTVSPost2010PropOp55
 70
     1
102
RTVSPost2010Prop56
140
1.0
102
RTVSPost2010PropOp56
 70
     1
102
RTVSPost2010Prop57
140
1.0
102
RTVSPost2010PropOp57
 70
     1
102
RTVSPropertyOp0
 70
     1
102
RTVSPropertyOp1
 70
     1
102
RTVSPropertyOp2
 70
     1
102
RTVSPropertyOp3
 70
     1
102
RTVSPropertyOp4
 70
     1
102
RTVSPropertyOp5
 70
     1
102
RTVSPropertyOp6
 70
     1
102
RTVSPropertyOp7
 70
     1
102
RTVSPropertyOp8
 70
     1
102
RTVSPropertyOp9
 70
     1
102
RTVSPropertyOp10
 70
     1
102
RTVSPropertyOp11
 70
     1
102
RTVSPropertyOp12
 70
     1
102
RTVSPropertyOp13
 70
     1
102
RTVSPropertyOp14
 70
     1
102
RTVSPropertyOp15
 70
     1
102
RTVSPropertyOp16
 70
     1
102
RTVSPropertyOp17
 70
     1
102
RTVSPropertyOp18
 70
     1
102
RTVSPropertyOp19
 70
     1
102
RTVSPropertyOp20
 70
     1
102
RTVSPropertyOp21
 70
     1
102
RTVSPropertyOp22
 70
     1
102
RTVSPropertyOp23
 70
     1
102
RTVSPropertyOp24
 70
     1
102
RTVSPropertyOp25
 70
     1
102
RTVSPropertyOp26
 70
     1
102
RTVSPropertyOp27
 70
     1
102
RTVSPropertyOp28
 70
     1
102
RTVSPropertyOp29
 70
     1
102
RTVSPropertyOp30
 70
     1
102
RTVSPropertyOp31
 70
     1
102
RTVSPropertyOp32
 70
     1
102
RTVSPropertyOp33
 70
     1
102
RTVSPropertyOp34
 70
     1
102
RTVSPropertyOp35
 70
     1
102
RTVSPropertyOp36
 70
     1
102
RTVSPropertyOp37
 70
     1
102
RTVSPropertyOp38
 70
     1
102
RTVSPropertyOp39
 70
     1
102
RTVSPropertyOp40
 70
     1
102
RTVSPropertyOp41
 70
     1
102
RTVSPropertyOp42
 70
     1
102
RTVSPropertyOp43
 70
     1
102
RTVSPropertyOp44
 70
     1
102
RTVSPropertyOp45
 70
     1
102
RTVSPropertyOp46
 70
     1
102
RTVSPropertyOp47
 70
     1
102
RTVSPropertyOp48
 70
     1
102
RTVSPropertyOp49
 70
     1
102
RTVSPropertyOp50
 70
     1
102
RTVSPropertyOp51
 70
     0
102
RTVSPropertyOp52
 70
     0
102
RTVSPropertyOp53
 70
     1
102
RTVSPropertyOp54
 70
     1
102
RTVSPropertyOp55
 70
     1
102
RTVSPropertyOp56
 70
     1
102
RTVSPropertyOp57
 70
     1
102
RTVSPropertyOp58
 70
     1
102
RTVSPropertyOp59
 70
     1
102
RTVSPropertyOp60
 70
     1
102
RTVSPropertyOp61
 70
     1
102
RTVSPropertyOp62
 70
     1
  0
XRECORD
  5
83EF
102
{ACAD_REACTORS
330
83EE
102
}
330
83EE
100
AcDbXrecord
280
     1
102
RTVSPost2010Prop28
280
     0
102
RTVSPost2010PropOp28
 70
     1
102
RTVSPost2010Prop29
280
     1
102
RTVSPost2010PropOp29
 70
     1
102
RTVSPost2010Prop30
280
     1
102
RTVSPost2010PropOp30
 70
     1
102
RTVSPost2010Prop31
280
     0
102
RTVSPost2010PropOp31
 70
     1
102
RTVSPost2010Prop32
280
     0
102
RTVSPost2010PropOp32
 70
     1
102
RTVSPost2010Prop33
280
     0
102
RTVSPost2010PropOp33
 70
     1
102
RTVSPost2010Prop34
280
     0
102
RTVSPost2010PropOp34
 70
     1
102
RTVSPost2010Prop35
280
     0
102
RTVSPost2010PropOp35
 70
     1
102
RTVSPost2010Prop36
280
     0
102
RTVSPost2010PropOp36
 70
     1
102
RTVSPost2010Prop37
 90
       50
102
RTVSPost2010PropOp37
 70
     1
102
RTVSPost2010Prop38
140
0.0
102
RTVSPost2010PropOp38
 70
     1
102
RTVSPost2010Prop39
140
1.0
102
RTVSPost2010PropOp39
 70
     1
102
RTVSPost2010Prop40
 90
        0
102
RTVSPost2010PropOp40
 70
     1
102
RTVSPost2010Prop41ColorIndex
 90
       18
102
RTVSPost2010Prop41ColorRGB
 90
        0
102
RTVSPost2010PropOp41
 70
     1
102
RTVSPost2010Prop42
 90
       50
102
RTVSPost2010PropOp42
 70
     1
102
RTVSPost2010Prop43
 90
        3
102
RTVSPost2010PropOp43
 70
     1
102
RTVSPost2010Prop44ColorIndex
 90
        5
102
RTVSPost2010Prop44ColorRGB
 90
      255
102
RTVSPost2010PropOp44
 70
     1
102
RTVSPost2010Prop45
280
     0
102
RTVSPost2010PropOp45
 70
     1
102
RTVSPost2010Prop46
 90
       50
102
RTVSPost2010PropOp46
 70
     1
102
RTVSPost2010Prop47
 90
       50
102
RTVSPost2010PropOp47
 70
     1
102
RTVSPost2010Prop48
 90
       50
102
RTVSPost2010PropOp48
 70
     1
102
RTVSPost2010Prop49
280
     0
102
RTVSPost2010PropOp49
 70
     1
102
RTVSPost2010Prop50
 90
       50
102
RTVSPost2010PropOp50
 70
     1
102
RTVSPost2010Prop51ColorIndex
 90
      256
102
RTVSPost2010Prop51ColorRGB
 90
-16777216
102
RTVSPost2010PropOp51
 70
     0
102
RTVSPost2010Prop52
140
1.0
102
RTVSPost2010PropOp52
 70
     0
102
RTVSPost2010Prop53
 90
        2
102
RTVSPost2010PropOp53
 70
     1
102
RTVSPost2010Prop54
  1
strokes_ogs.tif
102
RTVSPost2010PropOp54
 70
     1
102
RTVSPost2010Prop55
280
     0
102
RTVSPost2010PropOp55
 70
     1
102
RTVSPost2010Prop56
140
1.0
102
RTVSPost2010PropOp56
 70
     1
102
RTVSPost2010Prop57
140
1.0
102
RTVSPost2010PropOp57
 70
     1
102
RTVSPropertyOp0
 70
     1
102
RTVSPropertyOp1
 70
     1
102
RTVSPropertyOp2
 70
     1
102
RTVSPropertyOp3
 70
     1
102
RTVSPropertyOp4
 70
     1
102
RTVSPropertyOp5
 70
     1
102
RTVSPropertyOp6
 70
     1
102
RTVSPropertyOp7
 70
     1
102
RTVSPropertyOp8
 70
     1
102
RTVSPropertyOp9
 70
     1
102
RTVSPropertyOp10
 70
     1
102
RTVSPropertyOp11
 70
     1
102
RTVSPropertyOp12
 70
     1
102
RTVSPropertyOp13
 70
     1
102
RTVSPropertyOp14
 70
     1
102
RTVSPropertyOp15
 70
     1
102
RTVSPropertyOp16
 70
     1
102
RTVSPropertyOp17
 70
     1
102
RTVSPropertyOp18
 70
     1
102
RTVSPropertyOp19
 70
     1
102
RTVSPropertyOp20
 70
     1
102
RTVSPropertyOp21
 70
     1
102
RTVSPropertyOp22
 70
     1
102
RTVSPropertyOp23
 70
     1
102
RTVSPropertyOp24
 70
     1
102
RTVSPropertyOp25
 70
     1
102
RTVSPropertyOp26
 70
     1
102
RTVSPropertyOp27
 70
     1
102
RTVSPropertyOp28
 70
     1
102
RTVSPropertyOp29
 70
     1
102
RTVSPropertyOp30
 70
     1
102
RTVSPropertyOp31
 70
     1
102
RTVSPropertyOp32
 70
     1
102
RTVSPropertyOp33
 70
     1
102
RTVSPropertyOp34
 70
     1
102
RTVSPropertyOp35
 70
     1
102
RTVSPropertyOp36
 70
     1
102
RTVSPropertyOp37
 70
     1
102
RTVSPropertyOp38
 70
     1
102
RTVSPropertyOp39
 70
     1
102
RTVSPropertyOp40
 70
     1
102
RTVSPropertyOp41
 70
     1
102
RTVSPropertyOp42
 70
     1
102
RTVSPropertyOp43
 70
     1
102
RTVSPropertyOp44
 70
     1
102
RTVSPropertyOp45
 70
     1
102
RTVSPropertyOp46
 70
     1
102
RTVSPropertyOp47
 70
     1
102
RTVSPropertyOp48
 70
     1
102
RTVSPropertyOp49
 70
     1
102
RTVSPropertyOp50
 70
     1
102
RTVSPropertyOp51
 70
     0
102
RTVSPropertyOp52
 70
     0
102
RTVSPropertyOp53
 70
     1
102
RTVSPropertyOp54
 70
     1
102
RTVSPropertyOp55
 70
     1
102
RTVSPropertyOp56
 70
     1
102
RTVSPropertyOp57
 70
     1
102
RTVSPropertyOp58
 70
     1
102
RTVSPropertyOp59
 70
     1
102
RTVSPropertyOp60
 70
     1
102
RTVSPropertyOp61
 70
     1
102
RTVSPropertyOp62
 70
     1
  0
XRECORD
  5
83E3
102
{ACAD_REACTORS
330
83E2
102
}
330
83E2
100
AcDbXrecord
280
     1
102
RTVSPost2010Prop28
280
     0
102
RTVSPost2010PropOp28
 70
     1
102
RTVSPost2010Prop29
280
     1
102
RTVSPost2010PropOp29
 70
     1
102
RTVSPost2010Prop30
280
     1
102
RTVSPost2010PropOp30
 70
     1
102
RTVSPost2010Prop31
280
     0
102
RTVSPost2010PropOp31
 70
     1
102
RTVSPost2010Prop32
280
     0
102
RTVSPost2010PropOp32
 70
     1
102
RTVSPost2010Prop33
280
     0
102
RTVSPost2010PropOp33
 70
     1
102
RTVSPost2010Prop34
280
     0
102
RTVSPost2010PropOp34
 70
     1
102
RTVSPost2010Prop35
280
     0
102
RTVSPost2010PropOp35
 70
     1
102
RTVSPost2010Prop36
280
     0
102
RTVSPost2010PropOp36
 70
     1
102
RTVSPost2010Prop37
 90
       50
102
RTVSPost2010PropOp37
 70
     1
102
RTVSPost2010Prop38
140
0.0
102
RTVSPost2010PropOp38
 70
     1
102
RTVSPost2010Prop39
140
1.0
102
RTVSPost2010PropOp39
 70
     1
102
RTVSPost2010Prop40
 90
        0
102
RTVSPost2010PropOp40
 70
     1
102
RTVSPost2010Prop41ColorIndex
 90
       18
102
RTVSPost2010Prop41ColorRGB
 90
        0
102
RTVSPost2010PropOp41
 70
     1
102
RTVSPost2010Prop42
 90
       50
102
RTVSPost2010PropOp42
 70
     1
102
RTVSPost2010Prop43
 90
        3
102
RTVSPost2010PropOp43
 70
     1
102
RTVSPost2010Prop44ColorIndex
 90
        5
102
RTVSPost2010Prop44ColorRGB
 90
      255
102
RTVSPost2010PropOp44
 70
     1
102
RTVSPost2010Prop45
280
     0
102
RTVSPost2010PropOp45
 70
     1
102
RTVSPost2010Prop46
 90
       50
102
RTVSPost2010PropOp46
 70
     1
102
RTVSPost2010Prop47
 90
       50
102
RTVSPost2010PropOp47
 70
     1
102
RTVSPost2010Prop48
 90
       50
102
RTVSPost2010PropOp48
 70
     1
102
RTVSPost2010Prop49
280
     0
102
RTVSPost2010PropOp49
 70
     1
102
RTVSPost2010Prop50
 90
       50
102
RTVSPost2010PropOp50
 70
     1
102
RTVSPost2010Prop51ColorIndex
 90
      256
102
RTVSPost2010Prop51ColorRGB
 90
-16777216
102
RTVSPost2010PropOp51
 70
     0
102
RTVSPost2010Prop52
140
1.0
102
RTVSPost2010PropOp52
 70
     0
102
RTVSPost2010Prop53
 90
        2
102
RTVSPost2010PropOp53
 70
     1
102
RTVSPost2010Prop54
  1
strokes_ogs.tif
102
RTVSPost2010PropOp54
 70
     1
102
RTVSPost2010Prop55
280
     0
102
RTVSPost2010PropOp55
 70
     1
102
RTVSPost2010Prop56
140
1.0
102
RTVSPost2010PropOp56
 70
     1
102
RTVSPost2010Prop57
140
1.0
102
RTVSPost2010PropOp57
 70
     1
102
RTVSPropertyOp0
 70
     1
102
RTVSPropertyOp1
 70
     1
102
RTVSPropertyOp2
 70
     1
102
RTVSPropertyOp3
 70
     1
102
RTVSPropertyOp4
 70
     1
102
RTVSPropertyOp5
 70
     1
102
RTVSPropertyOp6
 70
     1
102
RTVSPropertyOp7
 70
     1
102
RTVSPropertyOp8
 70
     1
102
RTVSPropertyOp9
 70
     1
102
RTVSPropertyOp10
 70
     1
102
RTVSPropertyOp11
 70
     1
102
RTVSPropertyOp12
 70
     1
102
RTVSPropertyOp13
 70
     1
102
RTVSPropertyOp14
 70
     1
102
RTVSPropertyOp15
 70
     1
102
RTVSPropertyOp16
 70
     1
102
RTVSPropertyOp17
 70
     1
102
RTVSPropertyOp18
 70
     1
102
RTVSPropertyOp19
 70
     1
102
RTVSPropertyOp20
 70
     1
102
RTVSPropertyOp21
 70
     1
102
RTVSPropertyOp22
 70
     1
102
RTVSPropertyOp23
 70
     1
102
RTVSPropertyOp24
 70
     1
102
RTVSPropertyOp25
 70
     1
102
RTVSPropertyOp26
 70
     1
102
RTVSPropertyOp27
 70
     1
102
RTVSPropertyOp28
 70
     1
102
RTVSPropertyOp29
 70
     1
102
RTVSPropertyOp30
 70
     1
102
RTVSPropertyOp31
 70
     1
102
RTVSPropertyOp32
 70
     1
102
RTVSPropertyOp33
 70
     1
102
RTVSPropertyOp34
 70
     1
102
RTVSPropertyOp35
 70
     1
102
RTVSPropertyOp36
 70
     1
102
RTVSPropertyOp37
 70
     1
102
RTVSPropertyOp38
 70
     1
102
RTVSPropertyOp39
 70
     1
102
RTVSPropertyOp40
 70
     1
102
RTVSPropertyOp41
 70
     1
102
RTVSPropertyOp42
 70
     1
102
RTVSPropertyOp43
 70
     1
102
RTVSPropertyOp44
 70
     1
102
RTVSPropertyOp45
 70
     1
102
RTVSPropertyOp46
 70
     1
102
RTVSPropertyOp47
 70
     1
102
RTVSPropertyOp48
 70
     1
102
RTVSPropertyOp49
 70
     1
102
RTVSPropertyOp50
 70
     1
102
RTVSPropertyOp51
 70
     0
102
RTVSPropertyOp52
 70
     0
102
RTVSPropertyOp53
 70
     1
102
RTVSPropertyOp54
 70
     1
102
RTVSPropertyOp55
 70
     1
102
RTVSPropertyOp56
 70
     1
102
RTVSPropertyOp57
 70
     1
102
RTVSPropertyOp58
 70
     1
102
RTVSPropertyOp59
 70
     1
102
RTVSPropertyOp60
 70
     1
102
RTVSPropertyOp61
 70
     1
102
RTVSPropertyOp62
 70
     1
  0
XRECORD
  5
83FB
102
{ACAD_REACTORS
330
83FA
102
}
330
83FA
100
AcDbXrecord
280
     1
102
RTVSPost2010Prop28
280
     0
102
RTVSPost2010PropOp28
 70
     1
102
RTVSPost2010Prop29
280
     1
102
RTVSPost2010PropOp29
 70
     1
102
RTVSPost2010Prop30
280
     1
102
RTVSPost2010PropOp30
 70
     1
102
RTVSPost2010Prop31
280
     0
102
RTVSPost2010PropOp31
 70
     1
102
RTVSPost2010Prop32
280
     0
102
RTVSPost2010PropOp32
 70
     1
102
RTVSPost2010Prop33
280
     0
102
RTVSPost2010PropOp33
 70
     1
102
RTVSPost2010Prop34
280
     0
102
RTVSPost2010PropOp34
 70
     1
102
RTVSPost2010Prop35
280
     0
102
RTVSPost2010PropOp35
 70
     1
102
RTVSPost2010Prop36
280
     0
102
RTVSPost2010PropOp36
 70
     1
102
RTVSPost2010Prop37
 90
       50
102
RTVSPost2010PropOp37
 70
     1
102
RTVSPost2010Prop38
140
0.0
102
RTVSPost2010PropOp38
 70
     1
102
RTVSPost2010Prop39
140
1.0
102
RTVSPost2010PropOp39
 70
     1
102
RTVSPost2010Prop40
 90
        0
102
RTVSPost2010PropOp40
 70
     1
102
RTVSPost2010Prop41ColorIndex
 90
       18
102
RTVSPost2010Prop41ColorRGB
 90
        0
102
RTVSPost2010PropOp41
 70
     1
102
RTVSPost2010Prop42
 90
       50
102
RTVSPost2010PropOp42
 70
     1
102
RTVSPost2010Prop43
 90
        3
102
RTVSPost2010PropOp43
 70
     1
102
RTVSPost2010Prop44ColorIndex
 90
        5
102
RTVSPost2010Prop44ColorRGB
 90
      255
102
RTVSPost2010PropOp44
 70
     1
102
RTVSPost2010Prop45
280
     0
102
RTVSPost2010PropOp45
 70
     1
102
RTVSPost2010Prop46
 90
       50
102
RTVSPost2010PropOp46
 70
     1
102
RTVSPost2010Prop47
 90
       50
102
RTVSPost2010PropOp47
 70
     1
102
RTVSPost2010Prop48
 90
       50
102
RTVSPost2010PropOp48
 70
     1
102
RTVSPost2010Prop49
280
     0
102
RTVSPost2010PropOp49
 70
     1
102
RTVSPost2010Prop50
 90
       50
102
RTVSPost2010PropOp50
 70
     1
102
RTVSPost2010Prop51ColorIndex
 90
      256
102
RTVSPost2010Prop51ColorRGB
 90
-16777216
102
RTVSPost2010PropOp51
 70
     0
102
RTVSPost2010Prop52
140
1.0
102
RTVSPost2010PropOp52
 70
     0
102
RTVSPost2010Prop53
 90
        2
102
RTVSPost2010PropOp53
 70
     1
102
RTVSPost2010Prop54
  1
strokes_ogs.tif
102
RTVSPost2010PropOp54
 70
     1
102
RTVSPost2010Prop55
280
     0
102
RTVSPost2010PropOp55
 70
     1
102
RTVSPost2010Prop56
140
1.0
102
RTVSPost2010PropOp56
 70
     1
102
RTVSPost2010Prop57
140
1.0
102
RTVSPost2010PropOp57
 70
     1
102
RTVSPropertyOp0
 70
     1
102
RTVSPropertyOp1
 70
     1
102
RTVSPropertyOp2
 70
     1
102
RTVSPropertyOp3
 70
     1
102
RTVSPropertyOp4
 70
     1
102
RTVSPropertyOp5
 70
     1
102
RTVSPropertyOp6
 70
     1
102
RTVSPropertyOp7
 70
     1
102
RTVSPropertyOp8
 70
     1
102
RTVSPropertyOp9
 70
     1
102
RTVSPropertyOp10
 70
     1
102
RTVSPropertyOp11
 70
     1
102
RTVSPropertyOp12
 70
     1
102
RTVSPropertyOp13
 70
     1
102
RTVSPropertyOp14
 70
     1
102
RTVSPropertyOp15
 70
     1
102
RTVSPropertyOp16
 70
     1
102
RTVSPropertyOp17
 70
     1
102
RTVSPropertyOp18
 70
     1
102
RTVSPropertyOp19
 70
     1
102
RTVSPropertyOp20
 70
     1
102
RTVSPropertyOp21
 70
     1
102
RTVSPropertyOp22
 70
     1
102
RTVSPropertyOp23
 70
     1
102
RTVSPropertyOp24
 70
     1
102
RTVSPropertyOp25
 70
     1
102
RTVSPropertyOp26
 70
     1
102
RTVSPropertyOp27
 70
     1
102
RTVSPropertyOp28
 70
     1
102
RTVSPropertyOp29
 70
     1
102
RTVSPropertyOp30
 70
     1
102
RTVSPropertyOp31
 70
     1
102
RTVSPropertyOp32
 70
     1
102
RTVSPropertyOp33
 70
     1
102
RTVSPropertyOp34
 70
     1
102
RTVSPropertyOp35
 70
     1
102
RTVSPropertyOp36
 70
     1
102
RTVSPropertyOp37
 70
     1
102
RTVSPropertyOp38
 70
     1
102
RTVSPropertyOp39
 70
     1
102
RTVSPropertyOp40
 70
     1
102
RTVSPropertyOp41
 70
     1
102
RTVSPropertyOp42
 70
     1
102
RTVSPropertyOp43
 70
     1
102
RTVSPropertyOp44
 70
     1
102
RTVSPropertyOp45
 70
     1
102
RTVSPropertyOp46
 70
     1
102
RTVSPropertyOp47
 70
     1
102
RTVSPropertyOp48
 70
     1
102
RTVSPropertyOp49
 70
     1
102
RTVSPropertyOp50
 70
     1
102
RTVSPropertyOp51
 70
     0
102
RTVSPropertyOp52
 70
     0
102
RTVSPropertyOp53
 70
     1
102
RTVSPropertyOp54
 70
     1
102
RTVSPropertyOp55
 70
     1
102
RTVSPropertyOp56
 70
     1
102
RTVSPropertyOp57
 70
     1
102
RTVSPropertyOp58
 70
     1
102
RTVSPropertyOp59
 70
     1
102
RTVSPropertyOp60
 70
     1
102
RTVSPropertyOp61
 70
     1
102
RTVSPropertyOp62
 70
     1
  0
ENDSEC
  0
EOF
