  0
SECTION
  2
HEADER
  9
$ACADVER
  1
AC1015
  9
$ACADMAINTVER
 70
    20
  9
$DWGCODEPAGE
  3
ANSI_932
  9
$INSBASE
 10
0.0
 20
0.0
 30
0.0
  9
$EXTMIN
 10
-0.1281640493871237
 20
-0.1800399741405272
 30
-0.0015258207003583
  9
$EXTMAX
 10
4200.128183607161
 20
5900.180067448153
 30
0.0000000349246037
  9
$LIMMIN
 10
0.0
 20
0.0
  9
$LIMMAX
 10
297.0
 20
210.0
  9
$ORTHOMODE
 70
     1
  9
$REGENMODE
 70
     1
  9
$FILLMODE
 70
     0
  9
$QTEXTMODE
 70
     0
  9
$MIRRTEXT
 70
     1
  9
$LTSCALE
 40
100.0
  9
$ATTMODE
 70
     1
  9
$TEXTSIZE
 40
180.0
  9
$TRACEWID
 40
0.05
  9
$TEXTSTYLE
  7
STANDARD
  9
$CLAYER
  8
3
  9
$CELTYPE
  6
ByLayer
  9
$CECOLOR
 62
   256
  9
$CELTSCALE
 40
1.0
  9
$DISPSILH
 70
     0
  9
$DIMSCALE
 40
20.0
  9
$DIMASZ
 40
2.0
  9
$DIMEXO
 40
1.0
  9
$DIMDLI
 40
10.0
  9
$DIMRND
 40
0.0
  9
$DIMDLE
 40
0.0
  9
$DIMEXE
 40
1.0
  9
$DIMTP
 40
1.0
  9
$DIMTM
 40
1.0
  9
$DIMTXT
 40
3.0
  9
$DIMCEN
 40
0.0
  9
$DIMTSZ
 40
0.0
  9
$DIMTOL
 70
     0
  9
$DIMLIM
 70
     0
  9
$DIMTIH
 70
     0
  9
$DIMTOH
 70
     0
  9
$DIMSE1
 70
     0
  9
$DIMSE2
 70
     0
  9
$DIMTAD
 70
     1
  9
$DIMZIN
 70
     8
  9
$DIMBLK
  1

  9
$DIMASO
 70
     1
  9
$DIMSHO
 70
     1
  9
$DIMPOST
  1

  9
$DIMAPOST
  1

  9
$DIMALT
 70
     0
  9
$DIMALTD
 70
     2
  9
$DIMALTF
 40
0.039
  9
$DIMLFAC
 40
1.0
  9
$DIMTOFL
 70
     1
  9
$DIMTVP
 40
0.0
  9
$DIMTIX
 70
     0
  9
$DIMSOXD
 70
     0
  9
$DIMSAH
 70
     1
  9
$DIMBLK1
  1
OPEN
  9
$DIMBLK2
  1
OPEN
  9
$DIMSTYLE
  2
IGA
  9
$DIMCLRD
 70
     0
  9
$DIMCLRE
 70
     0
  9
$DIMCLRT
 70
     0
  9
$DIMTFAC
 40
10.0
  9
$DIMGAP
 40
1.0
  9
$DIMJUST
 70
     0
  9
$DIMSD1
 70
     0
  9
$DIMSD2
 70
     0
  9
$DIMTOLJ
 70
     1
  9
$DIMTZIN
 70
     0
  9
$DIMALTZ
 70
     0
  9
$DIMALTTZ
 70
     0
  9
$DIMUPT
 70
     0
  9
$DIMDEC
 70
     4
  9
$DIMTDEC
 70
     4
  9
$DIMALTU
 70
     2
  9
$DIMALTTD
 70
     2
  9
$DIMTXSTY
  7
STANDARD
  9
$DIMAUNIT
 70
     0
  9
$DIMADEC
 70
     0
  9
$DIMALTRND
 40
0.0
  9
$DIMAZIN
 70
     0
  9
$DIMDSEP
 70
    46
  9
$DIMATFIT
 70
     3
  9
$DIMFRAC
 70
     0
  9
$DIMLDRBLK
  1
OPEN
  9
$DIMLUNIT
 70
     2
  9
$DIMLWD
 70
    -2
  9
$DIMLWE
 70
    -2
  9
$DIMTMOVE
 70
     0
  9
$LUNITS
 70
     2
  9
$LUPREC
 70
     3
  9
$SKETCHINC
 40
0.1
  9
$FILLETRAD
 40
50.0
  9
$AUNITS
 70
     0
  9
$AUPREC
 70
     0
  9
$MENU
  1
acad
  9
$ELEVATION
 40
0.0
  9
$PELEVATION
 40
0.0
  9
$THICKNESS
 40
0.0
  9
$LIMCHECK
 70
     0
  9
$CHAMFERA
 40
0.5
  9
$CHAMFERB
 40
0.5
  9
$CHAMFERC
 40
0.0
  9
$CHAMFERD
 40
0.0
  9
$SKPOLY
 70
     0
  9
$TDCREATE
 40
2451387.398891204
  9
$TDUCREATE
 40
2451387.023891204
  9
$TDUPDATE
 40
2460262.687163079
  9
$TDUUPDATE
 40
2460262.312163079
  9
$TDINDWG
 40
0.0911538657
  9
$TDUSRTIMER
 40
0.0911535764
  9
$USRTIMER
 70
     1
  9
$ANGBASE
 50
0.0
  9
$ANGDIR
 70
     0
  9
$PDMODE
 70
     0
  9
$PDSIZE
 40
0.0
  9
$PLINEWID
 40
0.0
  9
$SPLFRAME
 70
     0
  9
$SPLINETYPE
 70
     6
  9
$SPLINESEGS
 70
     8
  9
$HANDSEED
  5
8495
  9
$SURFTAB1
 70
     6
  9
$SURFTAB2
 70
     6
  9
$SURFTYPE
 70
     6
  9
$SURFU
 70
     6
  9
$SURFV
 70
     6
  9
$UCSBASE
  2

  9
$UCSNAME
  2

  9
$UCSORG
 10
0.0
 20
0.0
 30
0.0
  9
$UCSXDIR
 10
1.0
 20
0.0
 30
0.0
  9
$UCSYDIR
 10
0.0
 20
1.0
 30
0.0
  9
$UCSORTHOREF
  2

  9
$UCSORTHOVIEW
 70
     0
  9
$UCSORGTOP
 10
0.0
 20
0.0
 30
0.0
  9
$UCSORGBOTTOM
 10
0.0
 20
0.0
 30
0.0
  9
$UCSORGLEFT
 10
0.0
 20
0.0
 30
0.0
  9
$UCSORGRIGHT
 10
0.0
 20
0.0
 30
0.0
  9
$UCSORGFRONT
 10
0.0
 20
0.0
 30
0.0
  9
$UCSORGBACK
 10
0.0
 20
0.0
 30
0.0
  9
$PUCSBASE
  2

  9
$PUCSNAME
  2

  9
$PUCSORG
 10
0.0
 20
0.0
 30
0.0
  9
$PUCSXDIR
 10
1.0
 20
0.0
 30
0.0
  9
$PUCSYDIR
 10
0.0
 20
1.0
 30
0.0
  9
$PUCSORTHOREF
  2

  9
$PUCSORTHOVIEW
 70
     0
  9
$PUCSORGTOP
 10
0.0
 20
0.0
 30
0.0
  9
$PUCSORGBOTTOM
 10
0.0
 20
0.0
 30
0.0
  9
$PUCSORGLEFT
 10
0.0
 20
0.0
 30
0.0
  9
$PUCSORGRIGHT
 10
0.0
 20
0.0
 30
0.0
  9
$PUCSORGFRONT
 10
0.0
 20
0.0
 30
0.0
  9
$PUCSORGBACK
 10
0.0
 20
0.0
 30
0.0
  9
$USERI1
 70
     0
  9
$USERI2
 70
     0
  9
$USERI3
 70
     0
  9
$USERI4
 70
     0
  9
$USERI5
 70
     0
  9
$USERR1
 40
0.0
  9
$USERR2
 40
0.0
  9
$USERR3
 40
0.0
  9
$USERR4
 40
0.0
  9
$USERR5
 40
0.0
  9
$WORLDVIEW
 70
     1
  9
$SHADEDGE
 70
     3
  9
$SHADEDIF
 70
    70
  9
$TILEMODE
 70
     1
  9
$MAXACTVP
 70
    16
  9
$PINSBASE
 10
0.0
 20
0.0
 30
0.0
  9
$PLIMCHECK
 70
     0
  9
$PEXTMIN
 10
1.000000000000000E+20
 20
1.000000000000000E+20
 30
1.000000000000000E+20
  9
$PEXTMAX
 10
-1.000000000000000E+20
 20
-1.000000000000000E+20
 30
-1.000000000000000E+20
  9
$PLIMMIN
 10
0.0
 20
0.0
  9
$PLIMMAX
 10
12.0
 20
9.0
  9
$UNITMODE
 70
     0
  9
$VISRETAIN
 70
     0
  9
$PLINEGEN
 70
     0
  9
$PSLTSCALE
 70
     1
  9
$TREEDEPTH
 70
  3020
  9
$CMLSTYLE
  2
Standard
  9
$CMLJUST
 70
     0
  9
$CMLSCALE
 40
1.0
  9
$PROXYGRAPHICS
 70
     1
  9
$MEASUREMENT
 70
     0
  9
$CELWEIGHT
370
    -1
  9
$ENDCAPS
280
     0
  9
$JOINSTYLE
280
     0
  9
$LWDISPLAY
290
     0
  9
$INSUNITS
 70
     0
  9
$HYPERLINKBASE
  1

  9
$STYLESHEET
  1

  9
$XEDIT
290
     1
  9
$CEPSNTYPE
380
     0
  9
$PSTYLEMODE
290
     1
  9
$FINGERPRINTGUID
  2
{7937B5F5-690C-4B51-A5BE-5C81660FD90C}
  9
$VERSIONGUID
  2
{DFCE108F-DADC-4DA2-8090-40C1AC6D741A}
  9
$EXTNAMES
290
     1
  9
$PSVPSCALE
 40
0.0
  9
$OLESTARTUP
290
     0
  0
ENDSEC
  0
SECTION
  2
CLASSES
  0
CLASS
  1
ACDBDICTIONARYWDFLT
  2
AcDbDictionaryWithDefault
  3
ObjectDBX Classes
 90
        0
280
     0
281
     0
  0
CLASS
  1
MATERIAL
  2
AcDbMaterial
  3
ObjectDBX Classes
 90
     1153
280
     0
281
     0
  0
CLASS
  1
VISUALSTYLE
  2
AcDbVisualStyle
  3
ObjectDBX Classes
 90
     4095
280
     0
281
     0
  0
CLASS
  1
SCALE
  2
AcDbScale
  3
ObjectDBX Classes
 90
     1153
280
     0
281
     0
  0
CLASS
  1
TABLESTYLE
  2
AcDbTableStyle
  3
ObjectDBX Classes
 90
     4095
280
     0
281
     0
  0
CLASS
  1
MLEADERSTYLE
  2
AcDbMLeaderStyle
  3
ACDB_MLEADERSTYLE_CLASS
 90
     4095
280
     0
281
     0
  0
CLASS
  1
ACDBSECTIONVIEWSTYLE
  2
AcDbSectionViewStyle
  3
ObjectDBX Classes
 90
     1025
280
     0
281
     0
  0
CLASS
  1
ACDBDETAILVIEWSTYLE
  2
AcDbDetailViewStyle
  3
ObjectDBX Classes
 90
     1025
280
     0
281
     0
  0
CLASS
  1
DICTIONARYVAR
  2
AcDbDictionaryVar
  3
ObjectDBX Classes
 90
        0
280
     0
281
     0
  0
CLASS
  1
CELLSTYLEMAP
  2
AcDbCellStyleMap
  3
ObjectDBX Classes
 90
     1152
280
     0
281
     0
  0
CLASS
  1
ACDBPLACEHOLDER
  2
AcDbPlaceHolder
  3
ObjectDBX Classes
 90
        0
280
     0
281
     0
  0
CLASS
  1
LAYOUT
  2
AcDbLayout
  3
ObjectDBX Classes
 90
        0
280
     0
281
     0
  0
ENDSEC
  0
SECTION
  2
TABLES
  0
TABLE
  2
VPORT
  5
80A8
330
0
100
AcDbSymbolTable
 70
     1
  0
VPORT
  5
8114
330
80A8
100
AcDbSymbolTableRecord
100
AcDbViewportTableRecord
  2
*ACTIVE
 70
     0
 10
0.0
 20
0.0
 11
1.0
 21
1.0
 12
2100.000009778887
 22
2950.000013737006
 13
0.0
 23
0.0
 14
10.0
 24
10.0
 15
10.0
 25
10.0
 16
0.0
 26
0.0
 36
1.0
 17
0.0
 27
0.0
 37
0.0
 40
5938.142562752639
 41
2.050213675213675
 42
50.0
 43
0.0
 44
0.0
 50
0.0
 51
0.0
 71
     0
 72
   100
 73
     1
 74
     0
 75
     0
 76
     0
 77
     0
 78
     0
281
     0
 65
     1
110
0.0
120
0.0
130
0.0
111
1.0
121
0.0
131
0.0
112
0.0
122
1.0
132
0.0
 79
     0
146
0.0
1001
ACAD_NAV_VCDISPLAY
1070
     3
  0
ENDTAB
  0
TABLE
  2
LTYPE
  5
80A5
330
0
100
AcDbSymbolTable
 70
     3
  0
LTYPE
  5
80FA
330
80A5
100
AcDbSymbolTableRecord
100
AcDbLinetypeTableRecord
  2
ByBlock
 70
     0
  3

 72
    65
 73
     0
 40
0.0
  0
LTYPE
  5
80FB
330
80A5
100
AcDbSymbolTableRecord
100
AcDbLinetypeTableRecord
  2
ByLayer
 70
     0
  3

 72
    65
 73
     0
 40
0.0
  0
LTYPE
  5
80FC
330
80A5
100
AcDbSymbolTableRecord
100
AcDbLinetypeTableRecord
  2
CONTINUOUS
 70
     0
  3
Solid line
 72
    65
 73
     0
 40
0.0
  0
LTYPE
  5
8115
330
80A5
100
AcDbSymbolTableRecord
100
AcDbLinetypeTableRecord
  2
CENTER
 70
     0
  3
____ _ ____ _ ____ _ ____ _ ____ _ ____ _ ____ 
 72
    65
 73
     4
 40
2.0
 49
1.25
 74
     0
 49
-0.25
 74
     0
 49
0.25
 74
     0
 49
-0.25
 74
     0
  0
ENDTAB
  0
TABLE
  2
LAYER
  5
80A2
330
0
100
AcDbSymbolTable
 70
     6
  0
LAYER
  5
80F4
102
{ACAD_XDICTIONARY
360
843F
102
}
330
80A2
100
AcDbSymbolTableRecord
100
AcDbLayerTableRecord
  2
0
 70
     0
 62
     7
  6
CONTINUOUS
370
    -3
390
80AF
  0
LAYER
  5
8113
102
{ACAD_XDICTIONARY
360
8441
102
}
330
80A2
100
AcDbSymbolTableRecord
100
AcDbLayerTableRecord
  2
3
 70
     0
 62
     2
  6
CONTINUOUS
370
    -3
390
80AF
  0
LAYER
  5
8116
102
{ACAD_XDICTIONARY
360
8443
102
}
330
80A2
100
AcDbSymbolTableRecord
100
AcDbLayerTableRecord
  2
2
 70
     0
 62
     3
  6
CENTER
370
    -3
390
80AF
  0
LAYER
  5
8117
102
{ACAD_XDICTIONARY
360
8445
102
}
330
80A2
100
AcDbSymbolTableRecord
100
AcDbLayerTableRecord
  2
1
 70
     0
 62
     4
  6
CONTINUOUS
370
    -3
390
80AF
  0
LAYER
  5
8118
102
{ACAD_XDICTIONARY
360
8447
102
}
330
80A2
100
AcDbSymbolTableRecord
100
AcDbLayerTableRecord
  2
4
 70
     0
 62
     7
  6
CONTINUOUS
370
    -3
390
80AF
  0
LAYER
  5
8119
330
80A2
100
AcDbSymbolTableRecord
100
AcDbLayerTableRecord
  2
DEFPOINTS
 70
     0
 62
     7
  6
CONTINUOUS
290
     0
370
    -3
390
80AF
  0
ENDTAB
  0
TABLE
  2
STYLE
  5
80A3
330
0
100
AcDbSymbolTable
 70
     2
  0
STYLE
  5
80F5
330
80A3
100
AcDbSymbolTableRecord
100
AcDbTextStyleTableRecord
  2
STANDARD
 70
     0
 40
0.0
 41
1.0
 50
0.0
 71
     0
 42
180.0
  3
simplex.shx
  4
extfont.shx
  0
STYLE
  5
80F9
330
80A3
100
AcDbSymbolTableRecord
100
AcDbTextStyleTableRecord
  2
Annotative
 70
     0
 40
0.0
 41
1.0
 50
0.0
 71
     0
 42
0.2
  3
txt
  4

1001
AcadAnnotative
1000
AnnotativeData
1002
{
1070
     1
1070
     1
1002
}
  0
ENDTAB
  0
TABLE
  2
VIEW
  5
80A6
330
0
100
AcDbSymbolTable
 70
     0
  0
ENDTAB
  0
TABLE
  2
UCS
  5
80A7
330
0
100
AcDbSymbolTable
 70
     0
  0
ENDTAB
  0
TABLE
  2
APPID
  5
80A9
330
0
100
AcDbSymbolTable
 70
     8
  0
APPID
  5
80F6
330
80A9
100
AcDbSymbolTableRecord
100
AcDbRegAppTableRecord
  2
ACAD
 70
     0
  0
APPID
  5
80FD
330
80A9
100
AcDbSymbolTableRecord
100
AcDbRegAppTableRecord
  2
AcadAnnotative
 70
     0
  0
APPID
  5
8159
330
80A9
100
AcDbSymbolTableRecord
100
AcDbRegAppTableRecord
  2
ACAD_DSTYLE_DIMJAG
 70
     0
  0
APPID
  5
815A
330
80A9
100
AcDbSymbolTableRecord
100
AcDbRegAppTableRecord
  2
ACAD_DSTYLE_DIMTALN
 70
     0
  0
APPID
  5
8187
330
80A9
100
AcDbSymbolTableRecord
100
AcDbRegAppTableRecord
  2
AcadAnnoMonitorAlertIconDisabled
 70
     0
  0
APPID
  5
8188
330
80A9
100
AcDbSymbolTableRecord
100
AcDbRegAppTableRecord
  2
ACAD_EXEMPT_FROM_CAD_STANDARDS
 70
     0
  0
APPID
  5
8453
330
80A9
100
AcDbSymbolTableRecord
100
AcDbRegAppTableRecord
  2
ACAD_NAV_VCDISPLAY
 70
     0
  0
APPID
  5
848C
330
80A9
100
AcDbSymbolTableRecord
100
AcDbRegAppTableRecord
  2
ACAD_MLEADERVER
 70
     0
  0
ENDTAB
  0
TABLE
  2
DIMSTYLE
  5
80AA
330
0
100
AcDbSymbolTable
 70
     4
100
AcDbDimStyleTable
 71
     1
340
811A
  0
DIMSTYLE
105
80F7
102
{ACAD_REACTORS
330
7C1D
330
7C1E
330
7C20
330
7C48
330
7C4B
330
7C80
330
7C81
330
7C82
330
7C88
102
}
330
80AA
100
AcDbSymbolTableRecord
100
AcDbDimStyleTableRecord
  2
Standard
 70
     0
340
80F5
  0
DIMSTYLE
105
80F8
330
80AA
100
AcDbSymbolTableRecord
100
AcDbDimStyleTableRecord
  2
Annotative
 70
     0
340
80F5
1001
AcadAnnotative
1000
AnnotativeData
1002
{
1070
     1
1070
     1
1002
}
  0
DIMSTYLE
105
811A
102
{ACAD_REACTORS
330
815B
330
8168
330
8219
330
8226
330
8233
330
8240
330
824D
330
825A
330
826C
330
82D2
330
83CC
330
83E2
330
83EF
102
}
330
80AA
100
AcDbSymbolTableRecord
100
AcDbDimStyleTableRecord
  2
IGA
 70
     0
 40
2.0
 41
2.0
 42
0.5
 43
10.0
 44
1.0
 47
1.0
 48
1.0
 73
     0
 74
     0
 77
     1
 78
     8
140
3.0
141
0.0
143
0.03937
146
10.0
147
1.0
173
     1
271
     3
272
     3
279
     2
284
     8
285
     8
286
     8
340
80F5
  0
DIMSTYLE
105
811B
330
80AA
100
AcDbSymbolTableRecord
100
AcDbDimStyleTableRecord
  2
MATSU
 70
     0
 41
2.0
 42
1.0
 43
10.0
 44
1.0
 73
     0
 74
     0
 77
     1
 78
     8
140
3.0
141
0.0
143
0.03937
147
0.5
172
     1
173
     1
176
   256
177
   256
178
   256
271
     3
272
     3
279
     2
284
     8
285
     8
286
     8
340
80F5
  0
ENDTAB
  0
TABLE
  2
BLOCK_RECORD
  5
80A1
330
0
100
AcDbSymbolTable
 70
    49
  0
BLOCK_RECORD
  5
810F
330
80A1
100
AcDbSymbolTableRecord
100
AcDbBlockTableRecord
  2
*Model_Space
340
8112
  0
BLOCK_RECORD
  5
810B
330
80A1
100
AcDbSymbolTableRecord
100
AcDbBlockTableRecord
  2
*Paper_Space
340
810E
  0
BLOCK_RECORD
  5
811F
330
80A1
100
AcDbSymbolTableRecord
100
AcDbBlockTableRecord
  2
$MODEL_SPACE
340
0
  0
BLOCK_RECORD
  5
8121
330
80A1
100
AcDbSymbolTableRecord
100
AcDbBlockTableRecord
  2
$PAPER_SPACE
340
0
  0
BLOCK_RECORD
  5
8123
330
80A1
100
AcDbSymbolTableRecord
100
AcDbBlockTableRecord
  2
_OPEN
340
0
102
{BLKREFS
331
81B1
331
81B2
331
81BA
331
81BB
331
7DCC
331
7DCD
331
7DD7
331
7DD8
331
7ECB
331
7ECC
331
7EE1
331
7EE2
331
7EEC
331
7EED
331
7FF3
331
7FF4
331
8027
331
8028
331
7DF8
331
7DF9
331
7E03
331
7E04
331
7F0C
331
7F0D
331
7E3A
331
7E3B
331
7E45
331
7E46
331
7E50
331
7E51
331
7F6E
331
7F6F
331
7E8C
331
7F9E
331
7F9F
331
808D
331
808E
331
8095
331
8096
331
7FCC
331
7FCD
331
7FD9
331
7FDA
331
7FE6
331
7FE7
331
8220
331
8221
331
822D
331
822E
331
823A
331
823B
331
8247
331
8248
331
83DC
331
83DD
331
83E9
331
83EA
331
83FF
331
8400
331
8408
331
8409
331
8427
331
8431
331
8439
331
843A
102
}
  0
BLOCK_RECORD
  5
8125
330
80A1
100
AcDbSymbolTableRecord
100
AcDbBlockTableRecord
  2
YA_N
340
0
102
{BLKREFS
331
7BED
331
7C04
102
}
  0
BLOCK_RECORD
  5
8127
330
80A1
100
AcDbSymbolTableRecord
100
AcDbBlockTableRecord
  2
_DOT
340
0
102
{BLKREFS
331
7E8B
102
}
  0
BLOCK_RECORD
  5
8129
330
80A1
100
AcDbSymbolTableRecord
100
AcDbBlockTableRecord
  2
*D5
340
0
  0
BLOCK_RECORD
  5
812B
330
80A1
100
AcDbSymbolTableRecord
100
AcDbBlockTableRecord
  2
*D6
340
0
  0
BLOCK_RECORD
  5
812D
330
80A1
100
AcDbSymbolTableRecord
100
AcDbBlockTableRecord
  2
*D7
340
0
  0
BLOCK_RECORD
  5
812F
330
80A1
100
AcDbSymbolTableRecord
100
AcDbBlockTableRecord
  2
*D8
340
0
  0
BLOCK_RECORD
  5
8131
330
80A1
100
AcDbSymbolTableRecord
100
AcDbBlockTableRecord
  2
*D9
340
0
  0
BLOCK_RECORD
  5
8133
330
80A1
100
AcDbSymbolTableRecord
100
AcDbBlockTableRecord
  2
*D10
340
0
  0
BLOCK_RECORD
  5
8135
330
80A1
100
AcDbSymbolTableRecord
100
AcDbBlockTableRecord
  2
*D11
340
0
  0
BLOCK_RECORD
  5
8137
330
80A1
100
AcDbSymbolTableRecord
100
AcDbBlockTableRecord
  2
*D12
340
0
  0
BLOCK_RECORD
  5
8139
330
80A1
100
AcDbSymbolTableRecord
100
AcDbBlockTableRecord
  2
*D13
340
0
  0
BLOCK_RECORD
  5
813B
330
80A1
100
AcDbSymbolTableRecord
100
AcDbBlockTableRecord
  2
*D14
340
0
  0
BLOCK_RECORD
  5
813D
330
80A1
100
AcDbSymbolTableRecord
100
AcDbBlockTableRecord
  2
*D15
340
0
  0
BLOCK_RECORD
  5
813F
330
80A1
100
AcDbSymbolTableRecord
100
AcDbBlockTableRecord
  2
*D16
340
0
  0
BLOCK_RECORD
  5
8141
330
80A1
100
AcDbSymbolTableRecord
100
AcDbBlockTableRecord
  2
*D17
340
0
  0
BLOCK_RECORD
  5
8143
330
80A1
100
AcDbSymbolTableRecord
100
AcDbBlockTableRecord
  2
*D18
340
0
  0
BLOCK_RECORD
  5
8145
330
80A1
100
AcDbSymbolTableRecord
100
AcDbBlockTableRecord
  2
*D19
340
0
  0
BLOCK_RECORD
  5
8147
330
80A1
100
AcDbSymbolTableRecord
100
AcDbBlockTableRecord
  2
*D20
340
0
  0
BLOCK_RECORD
  5
8149
330
80A1
100
AcDbSymbolTableRecord
100
AcDbBlockTableRecord
  2
*D21
340
0
  0
BLOCK_RECORD
  5
814B
330
80A1
100
AcDbSymbolTableRecord
100
AcDbBlockTableRecord
  2
*D22
340
0
  0
BLOCK_RECORD
  5
814D
330
80A1
100
AcDbSymbolTableRecord
100
AcDbBlockTableRecord
  2
*D23
340
0
  0
BLOCK_RECORD
  5
814F
330
80A1
100
AcDbSymbolTableRecord
100
AcDbBlockTableRecord
  2
*D24
340
0
  0
BLOCK_RECORD
  5
8151
330
80A1
100
AcDbSymbolTableRecord
100
AcDbBlockTableRecord
  2
_NONE
340
0
  0
BLOCK_RECORD
  5
8153
330
80A1
100
AcDbSymbolTableRecord
100
AcDbBlockTableRecord
  2
*D26
340
0
  0
BLOCK_RECORD
  5
8155
330
80A1
100
AcDbSymbolTableRecord
100
AcDbBlockTableRecord
  2
*D27
340
0
  0
BLOCK_RECORD
  5
815C
330
80A1
100
AcDbSymbolTableRecord
100
AcDbBlockTableRecord
  2
*D28
340
0
  0
BLOCK_RECORD
  5
8169
330
80A1
100
AcDbSymbolTableRecord
100
AcDbBlockTableRecord
  2
*D29
340
0
  0
BLOCK_RECORD
  5
81C0
330
80A1
100
AcDbSymbolTableRecord
100
AcDbBlockTableRecord
  2
*D30
340
0
  0
BLOCK_RECORD
  5
81CD
330
80A1
100
AcDbSymbolTableRecord
100
AcDbBlockTableRecord
  2
*D31
340
0
  0
BLOCK_RECORD
  5
81D8
330
80A1
100
AcDbSymbolTableRecord
100
AcDbBlockTableRecord
  2
*D32
340
0
  0
BLOCK_RECORD
  5
81E5
330
80A1
100
AcDbSymbolTableRecord
100
AcDbBlockTableRecord
  2
*D33
340
0
  0
BLOCK_RECORD
  5
81F2
330
80A1
100
AcDbSymbolTableRecord
100
AcDbBlockTableRecord
  2
*D34
340
0
  0
BLOCK_RECORD
  5
81FF
330
80A1
100
AcDbSymbolTableRecord
100
AcDbBlockTableRecord
  2
*D35
340
0
  0
BLOCK_RECORD
  5
820C
330
80A1
100
AcDbSymbolTableRecord
100
AcDbBlockTableRecord
  2
*D36
340
0
  0
BLOCK_RECORD
  5
821A
330
80A1
100
AcDbSymbolTableRecord
100
AcDbBlockTableRecord
  2
*D37
340
0
  0
BLOCK_RECORD
  5
8227
330
80A1
100
AcDbSymbolTableRecord
100
AcDbBlockTableRecord
  2
*D38
340
0
  0
BLOCK_RECORD
  5
8234
330
80A1
100
AcDbSymbolTableRecord
100
AcDbBlockTableRecord
  2
*D39
340
0
  0
BLOCK_RECORD
  5
8241
330
80A1
100
AcDbSymbolTableRecord
100
AcDbBlockTableRecord
  2
*D40
340
0
  0
BLOCK_RECORD
  5
824E
330
80A1
100
AcDbSymbolTableRecord
100
AcDbBlockTableRecord
  2
*D41
340
0
  0
BLOCK_RECORD
  5
825B
330
80A1
100
AcDbSymbolTableRecord
100
AcDbBlockTableRecord
  2
*D42
340
0
  0
BLOCK_RECORD
  5
826D
330
80A1
100
AcDbSymbolTableRecord
100
AcDbBlockTableRecord
  2
*D43
340
0
  0
BLOCK_RECORD
  5
82D3
330
80A1
100
AcDbSymbolTableRecord
100
AcDbBlockTableRecord
  2
*D44
340
0
  0
BLOCK_RECORD
  5
833D
330
80A1
100
AcDbSymbolTableRecord
100
AcDbBlockTableRecord
  2
_DotSmall
340
0
102
{BLKREFS
331
8426
331
8432
102
}
  0
BLOCK_RECORD
  5
83CD
330
80A1
100
AcDbSymbolTableRecord
100
AcDbBlockTableRecord
  2
*D46
340
0
  0
BLOCK_RECORD
  5
83E3
330
80A1
100
AcDbSymbolTableRecord
100
AcDbBlockTableRecord
  2
*D47
340
0
  0
BLOCK_RECORD
  5
83F0
330
80A1
100
AcDbSymbolTableRecord
100
AcDbBlockTableRecord
  2
*D48
340
0
  0
ENDTAB
  0
ENDSEC
  0
SECTION
  2
BLOCKS
  0
BLOCK
  5
8110
330
810F
100
AcDbEntity
  8
0
100
AcDbBlockBegin
  2
*Model_Space
 70
     0
 10
0.0
 20
0.0
 30
0.0
  3
*Model_Space
  1

  0
ENDBLK
  5
8111
330
810F
100
AcDbEntity
  8
0
100
AcDbBlockEnd
  0
BLOCK
  5
810C
330
810B
100
AcDbEntity
 67
     1
  8
0
100
AcDbBlockBegin
  2
*Paper_Space
 70
     0
 10
0.0
 20
0.0
 30
0.0
  3
*Paper_Space
  1

  0
ENDBLK
  5
810D
330
810B
100
AcDbEntity
 67
     1
  8
0
100
AcDbBlockEnd
  0
BLOCK
  5
8120
330
811F
100
AcDbEntity
  8
0
100
AcDbBlockBegin
  2
$MODEL_SPACE
 70
     0
 10
0.0
 20
0.0
 30
0.0
  3
$MODEL_SPACE
  1

  0
ENDBLK
  5
1B
330
811F
100
AcDbEntity
  8
0
100
AcDbBlockEnd
  0
BLOCK
  5
8122
330
8121
100
AcDbEntity
  8
0
100
AcDbBlockBegin
  2
$PAPER_SPACE
 70
     0
 10
0.0
 20
0.0
 30
0.0
  3
$PAPER_SPACE
  1

  0
ENDBLK
  5
18
330
8121
100
AcDbEntity
  8
0
100
AcDbBlockEnd
  0
BLOCK
  5
8124
330
8123
100
AcDbEntity
  8
0
100
AcDbBlockBegin
  2
_OPEN
 70
     0
 10
0.0
 20
0.0
 30
0.0
  3
_OPEN
  1

  0
LINE
  5
79FD
330
8123
100
AcDbEntity
  8
0
  6
ByBlock
 62
     0
100
AcDbLine
 10
-1.0
 20
0.1666666666666666
 30
0.0
 11
0.0
 21
0.0
 31
0.0
  0
LINE
  5
79FE
330
8123
100
AcDbEntity
  8
0
  6
ByBlock
 62
     0
100
AcDbLine
 10
0.0
 20
0.0
 30
0.0
 11
-1.0
 21
-0.1666666666666666
 31
0.0
  0
LINE
  5
79FF
330
8123
100
AcDbEntity
  8
0
  6
ByBlock
 62
     0
100
AcDbLine
 10
0.0
 20
0.0
 30
0.0
 11
-1.0
 21
0.0
 31
0.0
  0
ENDBLK
  5
7A01
330
8123
100
AcDbEntity
  8
0
100
AcDbBlockEnd
  0
BLOCK
  5
8126
330
8125
100
AcDbEntity
  8
0
100
AcDbBlockBegin
  2
YA_N
 70
     0
 10
0.0
 20
0.0
 30
0.0
  3
YA_N
  1

  0
ENDBLK
  5
7A04
330
8125
100
AcDbEntity
  8
0
100
AcDbBlockEnd
  0
BLOCK
  5
8128
330
8127
100
AcDbEntity
  8
0
100
AcDbBlockBegin
  2
_DOT
 70
     0
 10
0.0
 20
0.0
 30
0.0
  3
_DOT
  1

  0
LWPOLYLINE
  5
7F5E
330
8127
100
AcDbEntity
  8
0
  6
ByBlock
 62
     0
100
AcDbPolyline
 90
        2
 70
     1
 43
0.25
 10
-0.125
 20
0.0
 42
1.0
 10
0.125
 20
0.0
 42
1.0
  0
LINE
  5
7F62
330
8127
100
AcDbEntity
  8
0
  6
ByBlock
 62
     0
100
AcDbLine
 10
-0.25
 20
0.0
 30
0.0
 11
-1.0
 21
0.0
 31
0.0
  0
ENDBLK
  5
7B32
330
8127
100
AcDbEntity
  8
0
100
AcDbBlockEnd
  0
BLOCK
  5
812A
330
8129
100
AcDbEntity
  8
0
100
AcDbBlockBegin
  2
*D5
 70
     1
 10
0.0
 20
0.0
 30
0.0
  3
*D5
  1

  0
LINE
  5
7DC9
330
8129
100
AcDbEntity
  8
0
  6
ByBlock
100
AcDbLine
 10
1059.652996394238
 20
1246.09762645012
 30
0.0
 11
1209.610818311248
 21
1246.09762645012
 31
0.0
  0
LINE
  5
7DCA
330
8129
100
AcDbEntity
  8
0
  6
ByBlock
100
AcDbLine
 10
1059.652996394238
 20
596.0976264501205
 30
0.0
 11
1209.610818311248
 21
596.0976264501205
 31
0.0
  0
LINE
  5
7DCB
330
8129
100
AcDbEntity
  8
0
  6
ByBlock
100
AcDbLine
 10
1189.610818311248
 20
1206.09762645012
 30
0.0
 11
1189.610818311248
 21
636.0976264501204
 31
0.0
  0
INSERT
  5
7DCC
330
8129
100
AcDbEntity
  8
0
  6
ByBlock
100
AcDbBlockReference
  2
_OPEN
 10
1189.610818311248
 20
1246.09762645012
 30
0.0
 41
40.0
 42
40.0
 43
40.0
 50
90.0
  0
INSERT
  5
7DCD
330
8129
100
AcDbEntity
  8
0
  6
ByBlock
100
AcDbBlockReference
  2
_OPEN
 10
1189.610818311248
 20
596.0976264501205
 30
0.0
 41
40.0
 42
40.0
 43
40.0
 50
270.0
  0
TEXT
  5
7DCE
330
8129
100
AcDbEntity
  8
3
100
AcDbText
 10
1179.610818311248
 20
843.9547693072633
 30
0.0
 40
60.0
  1
650
 50
90.0
100
AcDbText
  0
POINT
  5
7DCF
330
8129
100
AcDbEntity
  8
DEFPOINTS
  6
ByBlock
 62
     0
100
AcDbPoint
 10
1039.652996394238
 20
1246.09762645012
 30
0.0
  0
POINT
  5
7DD0
330
8129
100
AcDbEntity
  8
DEFPOINTS
  6
ByBlock
 62
     0
100
AcDbPoint
 10
1039.652996394238
 20
596.0976264501205
 30
0.0
  0
POINT
  5
7DD1
330
8129
100
AcDbEntity
  8
DEFPOINTS
  6
ByBlock
 62
     0
100
AcDbPoint
 10
1189.610818311248
 20
596.0976264501205
 30
0.0
  0
ENDBLK
  5
7DD2
330
8129
100
AcDbEntity
  8
0
100
AcDbBlockEnd
  0
BLOCK
  5
812C
330
812B
100
AcDbEntity
  8
0
100
AcDbBlockBegin
  2
*D6
 70
     1
 10
0.0
 20
0.0
 30
0.0
  3
*D6
  1

  0
LINE
  5
7DD4
330
812B
100
AcDbEntity
  8
0
  6
ByBlock
100
AcDbLine
 10
1059.652996394238
 20
1246.09762645012
 30
0.0
 11
1359.154662514931
 21
1246.09762645012
 31
0.0
  0
LINE
  5
7DD5
330
812B
100
AcDbEntity
  8
0
  6
ByBlock
100
AcDbLine
 10
1106.545969497234
 20
568.0976264501205
 30
0.0
 11
1359.154662514931
 21
568.0976264501205
 31
0.0
  0
LINE
  5
7DD6
330
812B
100
AcDbEntity
  8
0
  6
ByBlock
100
AcDbLine
 10
1339.154662514931
 20
1206.09762645012
 30
0.0
 11
1339.154662514931
 21
608.0976264501205
 31
0.0
  0
INSERT
  5
7DD7
330
812B
100
AcDbEntity
  8
0
  6
ByBlock
100
AcDbBlockReference
  2
_OPEN
 10
1339.154662514931
 20
1246.09762645012
 30
0.0
 41
40.0
 42
40.0
 43
40.0
 50
90.0
  0
INSERT
  5
7DD8
330
812B
100
AcDbEntity
  8
0
  6
ByBlock
100
AcDbBlockReference
  2
_OPEN
 10
1339.154662514931
 20
568.0976264501205
 30
0.0
 41
40.0
 42
40.0
 43
40.0
 50
270.0
  0
TEXT
  5
7DD9
330
812B
100
AcDbEntity
  8
3
100
AcDbText
 10
1329.154662514931
 20
829.9547693072632
 30
0.0
 40
60.0
  1
678
 50
90.0
100
AcDbText
  0
POINT
  5
7DDA
330
812B
100
AcDbEntity
  8
DEFPOINTS
  6
ByBlock
 62
     0
100
AcDbPoint
 10
1039.652996394238
 20
1246.09762645012
 30
0.0
  0
POINT
  5
7DDB
330
812B
100
AcDbEntity
  8
DEFPOINTS
  6
ByBlock
 62
     0
100
AcDbPoint
 10
1086.545969497234
 20
568.0976264501205
 30
0.0
  0
POINT
  5
7DDC
330
812B
100
AcDbEntity
  8
DEFPOINTS
  6
ByBlock
 62
     0
100
AcDbPoint
 10
1339.154662514931
 20
568.0976264501205
 30
0.0
  0
ENDBLK
  5
7DDD
330
812B
100
AcDbEntity
  8
0
100
AcDbBlockEnd
  0
BLOCK
  5
812E
330
812D
100
AcDbEntity
  8
0
100
AcDbBlockBegin
  2
*D7
 70
     1
 10
0.0
 20
0.0
 30
0.0
  3
*D7
  1

  0
LINE
  5
7EC8
330
812D
100
AcDbEntity
  8
0
  6
ByBlock
100
AcDbLine
 10
1873.189366350638
 20
2839.086641991409
 30
0.0
 11
1873.189366350638
 21
2937.308396717435
 31
0.0
  0
LINE
  5
7EC9
330
812D
100
AcDbEntity
  8
0
  6
ByBlock
100
AcDbLine
 10
1413.189366350638
 20
2838.719477643283
 30
0.0
 11
1413.189366350638
 21
2937.308396717435
 31
0.0
  0
LINE
  5
7ECA
330
812D
100
AcDbEntity
  8
0
  6
ByBlock
100
AcDbLine
 10
1833.189366350638
 20
2917.308396717436
 30
0.0
 11
1453.189366350638
 21
2917.308396717436
 31
0.0
  0
INSERT
  5
7ECB
330
812D
100
AcDbEntity
  8
0
  6
ByBlock
100
AcDbBlockReference
  2
_OPEN
 10
1873.189366350638
 20
2917.308396717436
 30
0.0
 41
40.0
 42
40.0
 43
40.0
  0
INSERT
  5
7ECC
330
812D
100
AcDbEntity
  8
0
  6
ByBlock
100
AcDbBlockReference
  2
_OPEN
 10
1413.189366350638
 20
2917.308396717436
 30
0.0
 41
40.0
 42
40.0
 43
40.0
 50
180.0
  0
TEXT
  5
7ECD
330
812D
100
AcDbEntity
  8
3
100
AcDbText
 10
1566.046509207781
 20
2927.308396717436
 30
0.0
 40
60.0
  1
460
100
AcDbText
  0
POINT
  5
7ECE
330
812D
100
AcDbEntity
  8
DEFPOINTS
  6
ByBlock
 62
     0
100
AcDbPoint
 10
1873.189366350638
 20
2819.086641991409
 30
0.0
  0
POINT
  5
7ECF
330
812D
100
AcDbEntity
  8
DEFPOINTS
  6
ByBlock
 62
     0
100
AcDbPoint
 10
1413.189366350638
 20
2818.719477643282
 30
0.0
  0
POINT
  5
7ED0
330
812D
100
AcDbEntity
  8
DEFPOINTS
  6
ByBlock
 62
     0
100
AcDbPoint
 10
1413.189366350638
 20
2917.308396717436
 30
0.0
  0
ENDBLK
  5
7ED1
330
812D
100
AcDbEntity
  8
0
100
AcDbBlockEnd
  0
BLOCK
  5
8130
330
812F
100
AcDbEntity
  8
0
100
AcDbBlockBegin
  2
*D8
 70
     1
 10
0.0
 20
0.0
 30
0.0
  3
*D8
  1

  0
LINE
  5
7EDE
330
812F
100
AcDbEntity
  8
0
  6
ByBlock
100
AcDbLine
 10
1413.189366350638
 20
2838.719477643283
 30
0.0
 11
1413.189366350638
 21
2937.087950343302
 31
0.0
  0
LINE
  5
7EDF
330
812F
100
AcDbEntity
  8
0
  6
ByBlock
100
AcDbLine
 10
867.3988291509038
 20
2119.086641991409
 30
0.0
 11
867.3988291509038
 21
2937.087950343302
 31
0.0
  0
LINE
  5
7EE0
330
812F
100
AcDbEntity
  8
0
  6
ByBlock
100
AcDbLine
 10
1373.189366350638
 20
2917.087950343302
 30
0.0
 11
907.3988291509039
 21
2917.087950343302
 31
0.0
  0
INSERT
  5
7EE1
330
812F
100
AcDbEntity
  8
0
  6
ByBlock
100
AcDbBlockReference
  2
_OPEN
 10
1413.189366350638
 20
2917.087950343302
 30
0.0
 41
40.0
 42
40.0
 43
40.0
  0
INSERT
  5
7EE2
330
812F
100
AcDbEntity
  8
0
  6
ByBlock
100
AcDbBlockReference
  2
_OPEN
 10
867.3988291509038
 20
2917.087950343302
 30
0.0
 41
40.0
 42
40.0
 43
40.0
 50
180.0
  0
TEXT
  5
7EE3
330
812F
100
AcDbEntity
  8
3
100
AcDbText
 10
1063.151240607914
 20
2927.087950343302
 30
0.0
 40
60.0
  1
548
100
AcDbText
  0
POINT
  5
7EE4
330
812F
100
AcDbEntity
  8
DEFPOINTS
  6
ByBlock
 62
     0
100
AcDbPoint
 10
1413.189366350638
 20
2818.719477643282
 30
0.0
  0
POINT
  5
7EE5
330
812F
100
AcDbEntity
  8
DEFPOINTS
  6
ByBlock
 62
     0
100
AcDbPoint
 10
867.3988291509038
 20
2099.086641991409
 30
0.0
  0
POINT
  5
7EE6
330
812F
100
AcDbEntity
  8
DEFPOINTS
  6
ByBlock
 62
     0
100
AcDbPoint
 10
867.3988291509038
 20
2917.087950343302
 30
0.0
  0
ENDBLK
  5
7EE7
330
812F
100
AcDbEntity
  8
0
100
AcDbBlockEnd
  0
BLOCK
  5
8132
330
8131
100
AcDbEntity
  8
0
100
AcDbBlockBegin
  2
*D9
 70
     1
 10
0.0
 20
0.0
 30
0.0
  3
*D9
  1

  0
LINE
  5
7DF5
330
8131
100
AcDbEntity
  8
0
  6
ByBlock
100
AcDbLine
 10
1106.545969497234
 20
568.0976264501205
 30
0.0
 11
1359.854953013287
 21
568.0976264501205
 31
0.0
  0
LINE
  5
7DF6
330
8131
100
AcDbEntity
  8
0
  6
ByBlock
100
AcDbLine
 10
999.6529963942384
 20
63.0976264501205
 30
0.0
 11
1359.854953013287
 21
63.0976264501205
 31
0.0
  0
LINE
  5
7DF7
330
8131
100
AcDbEntity
  8
0
  6
ByBlock
100
AcDbLine
 10
1339.854953013287
 20
528.0976264501203
 30
0.0
 11
1339.854953013287
 21
103.0976264501205
 31
0.0
  0
INSERT
  5
7DF8
330
8131
100
AcDbEntity
  8
0
  6
ByBlock
100
AcDbBlockReference
  2
_OPEN
 10
1339.854953013287
 20
568.0976264501205
 30
0.0
 41
40.0
 42
40.0
 43
40.0
 50
90.0
  0
INSERT
  5
7DF9
330
8131
100
AcDbEntity
  8
0
  6
ByBlock
100
AcDbBlockReference
  2
_OPEN
 10
1339.854953013287
 20
63.0976264501205
 30
0.0
 41
40.0
 42
40.0
 43
40.0
 50
270.0
  0
TEXT
  5
7DFA
330
8131
100
AcDbEntity
  8
3
100
AcDbText
 10
1329.854953013287
 20
238.4547693072633
 30
0.0
 40
60.0
  1
505
 50
90.0
100
AcDbText
  0
POINT
  5
7DFB
330
8131
100
AcDbEntity
  8
DEFPOINTS
  6
ByBlock
 62
     0
100
AcDbPoint
 10
1086.545969497234
 20
568.0976264501205
 30
0.0
  0
POINT
  5
7DFC
330
8131
100
AcDbEntity
  8
DEFPOINTS
  6
ByBlock
 62
     0
100
AcDbPoint
 10
979.6529963942385
 20
63.0976264501205
 30
0.0
  0
POINT
  5
7DFD
330
8131
100
AcDbEntity
  8
DEFPOINTS
  6
ByBlock
 62
     0
100
AcDbPoint
 10
1339.854953013287
 20
63.0976264501205
 30
0.0
  0
ENDBLK
  5
7DFE
330
8131
100
AcDbEntity
  8
0
100
AcDbBlockEnd
  0
BLOCK
  5
8134
330
8133
100
AcDbEntity
  8
0
100
AcDbBlockBegin
  2
*D10
 70
     1
 10
0.0
 20
0.0
 30
0.0
  3
*D10
  1

  0
LINE
  5
7E00
330
8133
100
AcDbEntity
  8
0
  6
ByBlock
100
AcDbLine
 10
2992.796193483283
 20
903.0976264501203
 30
0.0
 11
3240.833227053947
 21
903.0976264501203
 31
0.0
  0
LINE
  5
7E01
330
8133
100
AcDbEntity
  8
0
  6
ByBlock
100
AcDbLine
 10
2992.796193483283
 20
233.0976264501205
 30
0.0
 11
3240.833227053947
 21
233.0976264501205
 31
0.0
  0
LINE
  5
7E02
330
8133
100
AcDbEntity
  8
0
  6
ByBlock
100
AcDbLine
 10
3220.833227053946
 20
863.0976264501205
 30
0.0
 11
3220.833227053946
 21
273.0976264501205
 31
0.0
  0
INSERT
  5
7E03
330
8133
100
AcDbEntity
  8
0
  6
ByBlock
100
AcDbBlockReference
  2
_OPEN
 10
3220.833227053946
 20
903.0976264501203
 30
0.0
 41
40.0
 42
40.0
 43
40.0
 50
90.0
  0
INSERT
  5
7E04
330
8133
100
AcDbEntity
  8
0
  6
ByBlock
100
AcDbBlockReference
  2
_OPEN
 10
3220.833227053946
 20
233.0976264501205
 30
0.0
 41
40.0
 42
40.0
 43
40.0
 50
270.0
  0
TEXT
  5
7E05
330
8133
100
AcDbEntity
  8
3
100
AcDbText
 10
3210.833227053947
 20
460.9547693072634
 30
0.0
 40
60.0
  1
\U+03C6670
 50
90.0
100
AcDbText
  0
POINT
  5
7E06
330
8133
100
AcDbEntity
  8
DEFPOINTS
  6
ByBlock
 62
     0
100
AcDbPoint
 10
2972.796193483283
 20
903.0976264501203
 30
0.0
  0
POINT
  5
7E07
330
8133
100
AcDbEntity
  8
DEFPOINTS
  6
ByBlock
 62
     0
100
AcDbPoint
 10
2972.796193483283
 20
233.0976264501205
 30
0.0
  0
POINT
  5
7E08
330
8133
100
AcDbEntity
  8
DEFPOINTS
  6
ByBlock
 62
     0
100
AcDbPoint
 10
3220.833227053946
 20
233.0976264501205
 30
0.0
  0
ENDBLK
  5
7E09
330
8133
100
AcDbEntity
  8
0
100
AcDbBlockEnd
  0
BLOCK
  5
8136
330
8135
100
AcDbEntity
  8
0
100
AcDbBlockBegin
  2
*D11
 70
     1
 10
0.0
 20
0.0
 30
0.0
  3
*D11
  1

  0
LINE
  5
7F09
330
8135
100
AcDbEntity
  8
0
  6
ByBlock
100
AcDbLine
 10
3000.832563439682
 20
2797.086641991409
 30
0.0
 11
3000.832563439682
 21
2934.169340590402
 31
0.0
  0
LINE
  5
7F0A
330
8135
100
AcDbEntity
  8
0
  6
ByBlock
100
AcDbLine
 10
3800.832563439683
 20
2797.086641991409
 30
0.0
 11
3800.832563439683
 21
2934.169340590402
 31
0.0
  0
LINE
  5
7F0B
330
8135
100
AcDbEntity
  8
0
  6
ByBlock
100
AcDbLine
 10
3040.832563439682
 20
2914.169340590402
 30
0.0
 11
3760.832563439683
 21
2914.169340590402
 31
0.0
  0
INSERT
  5
7F0C
330
8135
100
AcDbEntity
  8
0
  6
ByBlock
100
AcDbBlockReference
  2
_OPEN
 10
3000.832563439682
 20
2914.169340590402
 30
0.0
 41
40.0
 42
40.0
 43
40.0
 50
180.0
  0
INSERT
  5
7F0D
330
8135
100
AcDbEntity
  8
0
  6
ByBlock
100
AcDbBlockReference
  2
_OPEN
 10
3800.832563439683
 20
2914.169340590402
 30
0.0
 41
40.0
 42
40.0
 43
40.0
  0
TEXT
  5
7F0E
330
8135
100
AcDbEntity
  8
3
100
AcDbText
 10
3323.689706296825
 20
2924.169340590403
 30
0.0
 40
60.0
  1
800
100
AcDbText
  0
POINT
  5
7F0F
330
8135
100
AcDbEntity
  8
DEFPOINTS
  6
ByBlock
 62
     0
100
AcDbPoint
 10
3000.832563439682
 20
2777.086641991409
 30
0.0
  0
POINT
  5
7F10
330
8135
100
AcDbEntity
  8
DEFPOINTS
  6
ByBlock
 62
     0
100
AcDbPoint
 10
3800.832563439683
 20
2777.086641991409
 30
0.0
  0
POINT
  5
7F11
330
8135
100
AcDbEntity
  8
DEFPOINTS
  6
ByBlock
 62
     0
100
AcDbPoint
 10
3800.832563439683
 20
2914.169340590402
 30
0.0
  0
ENDBLK
  5
7F12
330
8135
100
AcDbEntity
  8
0
100
AcDbBlockEnd
  0
BLOCK
  5
8138
330
8137
100
AcDbEntity
  8
0
100
AcDbBlockBegin
  2
*D12
 70
     1
 10
0.0
 20
0.0
 30
0.0
  3
*D12
  1

  0
LINE
  5
7E37
330
8137
100
AcDbEntity
  8
0
  6
ByBlock
100
AcDbLine
 10
-470.3470036057614
 20
2138.414968530632
 30
0.0
 11
-470.3470036057614
 21
1863.01337041143
 31
0.0
  0
LINE
  5
7E38
330
8137
100
AcDbEntity
  8
0
  6
ByBlock
100
AcDbLine
 10
979.6529963942385
 20
2138.414968530633
 30
0.0
 11
979.6529963942385
 21
1863.01337041143
 31
0.0
  0
LINE
  5
7E39
330
8137
100
AcDbEntity
  8
0
  6
ByBlock
100
AcDbLine
 10
-430.3470036057614
 20
1883.01337041143
 30
0.0
 11
939.6529963942384
 21
1883.01337041143
 31
0.0
  0
INSERT
  5
7E3A
330
8137
100
AcDbEntity
  8
0
  6
ByBlock
100
AcDbBlockReference
  2
_OPEN
 10
-470.3470036057614
 20
1883.01337041143
 30
0.0
 41
40.0
 42
40.0
 43
40.0
 50
180.0
  0
INSERT
  5
7E3B
330
8137
100
AcDbEntity
  8
0
  6
ByBlock
100
AcDbBlockReference
  2
_OPEN
 10
979.6529963942385
 20
1883.01337041143
 30
0.0
 41
40.0
 42
40.0
 43
40.0
  0
TEXT
  5
7E3C
330
8137
100
AcDbEntity
  8
3
100
AcDbText
 10
154.6529963942385
 20
1893.01337041143
 30
0.0
 40
60.0
  1
1450
100
AcDbText
  0
POINT
  5
7E3D
330
8137
100
AcDbEntity
  8
DEFPOINTS
  6
ByBlock
 62
     0
100
AcDbPoint
 10
-470.3470036057614
 20
2158.414968530632
 30
0.0
  0
POINT
  5
7E3E
330
8137
100
AcDbEntity
  8
DEFPOINTS
  6
ByBlock
 62
     0
100
AcDbPoint
 10
979.6529963942385
 20
2158.414968530633
 30
0.0
  0
POINT
  5
7E3F
330
8137
100
AcDbEntity
  8
DEFPOINTS
  6
ByBlock
 62
     0
100
AcDbPoint
 10
979.6529963942385
 20
1883.01337041143
 30
0.0
  0
ENDBLK
  5
7E40
330
8137
100
AcDbEntity
  8
0
100
AcDbBlockEnd
  0
BLOCK
  5
813A
330
8139
100
AcDbEntity
  8
0
100
AcDbBlockBegin
  2
*D13
 70
     1
 10
0.0
 20
0.0
 30
0.0
  3
*D13
  1

  0
LINE
  5
7E42
330
8139
100
AcDbEntity
  8
0
  6
ByBlock
100
AcDbLine
 10
999.6529963942384
 20
2158.414968530633
 30
0.0
 11
1208.444967392846
 21
2158.414968530633
 31
0.0
  0
LINE
  5
7E43
330
8139
100
AcDbEntity
  8
0
  6
ByBlock
100
AcDbLine
 10
999.6529963942387
 20
3164.414968530635
 30
0.0
 11
1208.444967392846
 21
3164.414968530635
 31
0.0
  0
LINE
  5
7E44
330
8139
100
AcDbEntity
  8
0
  6
ByBlock
100
AcDbLine
 10
1188.444967392846
 20
2198.414968530633
 30
0.0
 11
1188.444967392846
 21
3124.414968530635
 31
0.0
  0
INSERT
  5
7E45
330
8139
100
AcDbEntity
  8
0
  6
ByBlock
100
AcDbBlockReference
  2
_OPEN
 10
1188.444967392846
 20
2158.414968530633
 30
0.0
 41
40.0
 42
40.0
 43
40.0
 50
270.0
  0
INSERT
  5
7E46
330
8139
100
AcDbEntity
  8
0
  6
ByBlock
100
AcDbBlockReference
  2
_OPEN
 10
1188.444967392846
 20
3164.414968530635
 30
0.0
 41
40.0
 42
40.0
 43
40.0
 50
90.0
  0
TEXT
  5
7E47
330
8139
100
AcDbEntity
  8
3
100
AcDbText
 10
1178.444967392846
 20
2562.843539959205
 30
0.0
 40
60.0
  1
1006
 50
90.0
100
AcDbText
  0
POINT
  5
7E48
330
8139
100
AcDbEntity
  8
DEFPOINTS
  6
ByBlock
 62
     0
100
AcDbPoint
 10
979.6529963942385
 20
2158.414968530633
 30
0.0
  0
POINT
  5
7E49
330
8139
100
AcDbEntity
  8
DEFPOINTS
  6
ByBlock
 62
     0
100
AcDbPoint
 10
979.6529963942386
 20
3164.414968530635
 30
0.0
  0
POINT
  5
7E4A
330
8139
100
AcDbEntity
  8
DEFPOINTS
  6
ByBlock
 62
     0
100
AcDbPoint
 10
1188.444967392846
 20
3164.414968530635
 30
0.0
  0
ENDBLK
  5
7E4B
330
8139
100
AcDbEntity
  8
0
100
AcDbBlockEnd
  0
BLOCK
  5
813C
330
813B
100
AcDbEntity
  8
0
100
AcDbBlockBegin
  2
*D14
 70
     1
 10
0.0
 20
0.0
 30
0.0
  3
*D14
  1

  0
LINE
  5
7E4D
330
813B
100
AcDbEntity
  8
0
  6
ByBlock
100
AcDbLine
 10
179.6529963942384
 20
3184.414968530634
 30
0.0
 11
179.6529963942384
 21
3333.020259029039
 31
0.0
  0
LINE
  5
7E4E
330
813B
100
AcDbEntity
  8
0
  6
ByBlock
100
AcDbLine
 10
979.6529963942386
 20
3184.414968530635
 30
0.0
 11
979.6529963942386
 21
3333.020259029039
 31
0.0
  0
LINE
  5
7E4F
330
813B
100
AcDbEntity
  8
0
  6
ByBlock
100
AcDbLine
 10
219.6529963942384
 20
3313.020259029039
 30
0.0
 11
939.652996394239
 21
3313.020259029039
 31
0.0
  0
INSERT
  5
7E50
330
813B
100
AcDbEntity
  8
0
  6
ByBlock
100
AcDbBlockReference
  2
_OPEN
 10
179.6529963942384
 20
3313.020259029039
 30
0.0
 41
40.0
 42
40.0
 43
40.0
 50
180.0
  0
INSERT
  5
7E51
330
813B
100
AcDbEntity
  8
0
  6
ByBlock
100
AcDbBlockReference
  2
_OPEN
 10
979.6529963942386
 20
3313.020259029039
 30
0.0
 41
40.0
 42
40.0
 43
40.0
  0
TEXT
  5
7E52
330
813B
100
AcDbEntity
  8
3
100
AcDbText
 10
502.5101392513816
 20
3323.020259029039
 30
0.0
 40
60.0
  1
800
100
AcDbText
  0
POINT
  5
7E53
330
813B
100
AcDbEntity
  8
DEFPOINTS
  6
ByBlock
 62
     0
100
AcDbPoint
 10
179.6529963942384
 20
3164.414968530634
 30
0.0
  0
POINT
  5
7E54
330
813B
100
AcDbEntity
  8
DEFPOINTS
  6
ByBlock
 62
     0
100
AcDbPoint
 10
979.6529963942386
 20
3164.414968530635
 30
0.0
  0
POINT
  5
7E55
330
813B
100
AcDbEntity
  8
DEFPOINTS
  6
ByBlock
 62
     0
100
AcDbPoint
 10
979.6529963942386
 20
3313.020259029039
 30
0.0
  0
ENDBLK
  5
7E56
330
813B
100
AcDbEntity
  8
0
100
AcDbBlockEnd
  0
BLOCK
  5
813E
330
813D
100
AcDbEntity
  8
0
100
AcDbBlockBegin
  2
*D15
 70
     1
 10
0.0
 20
0.0
 30
0.0
  3
*D15
  1

  0
LINE
  5
7F6B
330
813D
100
AcDbEntity
  8
0
  6
ByBlock
100
AcDbLine
 10
343.1893663506389
 20
4078.312742094976
 30
0.0
 11
245.5661481776878
 21
4078.312742094976
 31
0.0
  0
LINE
  5
7F6C
330
813D
100
AcDbEntity
  8
0
  6
ByBlock
100
AcDbLine
 10
343.1893663506389
 20
3478.312742094976
 30
0.0
 11
245.5661481776878
 21
3478.312742094976
 31
0.0
  0
LINE
  5
7F6D
330
813D
100
AcDbEntity
  8
0
  6
ByBlock
100
AcDbLine
 10
265.5661481776878
 20
4038.312742094976
 30
0.0
 11
265.5661481776878
 21
3518.312742094977
 31
0.0
  0
INSERT
  5
7F6E
330
813D
100
AcDbEntity
  8
0
  6
ByBlock
100
AcDbBlockReference
  2
_OPEN
 10
265.5661481776878
 20
4078.312742094976
 30
0.0
 41
40.0
 42
40.0
 43
40.0
 50
90.0
  0
INSERT
  5
7F6F
330
813D
100
AcDbEntity
  8
0
  6
ByBlock
100
AcDbBlockReference
  2
_OPEN
 10
265.5661481776878
 20
3478.312742094976
 30
0.0
 41
40.0
 42
40.0
 43
40.0
 50
270.0
  0
TEXT
  5
7F70
330
813D
100
AcDbEntity
  8
3
100
AcDbText
 10
255.5661481776878
 20
3701.169884952119
 30
0.0
 40
60.0
  1
600
 50
90.0
100
AcDbText
  0
POINT
  5
7F71
330
813D
100
AcDbEntity
  8
DEFPOINTS
  6
ByBlock
 62
     0
100
AcDbPoint
 10
363.1893663506389
 20
4078.312742094976
 30
0.0
  0
POINT
  5
7F72
330
813D
100
AcDbEntity
  8
DEFPOINTS
  6
ByBlock
 62
     0
100
AcDbPoint
 10
363.1893663506389
 20
3478.312742094976
 30
0.0
  0
POINT
  5
7F73
330
813D
100
AcDbEntity
  8
DEFPOINTS
  6
ByBlock
 62
     0
100
AcDbPoint
 10
265.5661481776878
 20
3478.312742094976
 30
0.0
  0
ENDBLK
  5
7F74
330
813D
100
AcDbEntity
  8
0
100
AcDbBlockEnd
  0
BLOCK
  5
8140
330
813F
100
AcDbEntity
  8
0
100
AcDbBlockBegin
  2
*D16
 70
     1
 10
0.0
 20
0.0
 30
0.0
  3
*D16
  1

  0
LINE
  5
7EE9
330
813F
100
AcDbEntity
  8
0
  6
ByBlock
100
AcDbLine
 10
363.1893663506389
 20
1754.086641991409
 30
0.0
 11
363.1893663506389
 21
3068.589207099473
 31
0.0
  0
LINE
  5
7EEA
330
813F
100
AcDbEntity
  8
0
  6
ByBlock
100
AcDbLine
 10
1873.189366350638
 20
2839.086641991409
 30
0.0
 11
1873.189366350638
 21
3068.589207099473
 31
0.0
  0
LINE
  5
7EEB
330
813F
100
AcDbEntity
  8
0
  6
ByBlock
100
AcDbLine
 10
403.1893663506388
 20
3048.589207099473
 30
0.0
 11
1833.189366350638
 21
3048.589207099473
 31
0.0
  0
INSERT
  5
7EEC
330
813F
100
AcDbEntity
  8
0
  6
ByBlock
100
AcDbBlockReference
  2
_OPEN
 10
363.1893663506389
 20
3048.589207099473
 30
0.0
 41
40.0
 42
40.0
 43
40.0
 50
180.0
  0
INSERT
  5
7EED
330
813F
100
AcDbEntity
  8
0
  6
ByBlock
100
AcDbBlockReference
  2
_OPEN
 10
1873.189366350638
 20
3048.589207099473
 30
0.0
 41
40.0
 42
40.0
 43
40.0
  0
TEXT
  5
7EEE
330
813F
100
AcDbEntity
  8
3
100
AcDbText
 10
1023.903652064924
 20
3058.589207099473
 30
0.0
 40
60.0
  1
1510
100
AcDbText
  0
POINT
  5
7EEF
330
813F
100
AcDbEntity
  8
DEFPOINTS
  6
ByBlock
 62
     0
100
AcDbPoint
 10
363.1893663506389
 20
1734.086641991408
 30
0.0
  0
POINT
  5
7EF0
330
813F
100
AcDbEntity
  8
DEFPOINTS
  6
ByBlock
 62
     0
100
AcDbPoint
 10
1873.189366350638
 20
2819.086641991409
 30
0.0
  0
POINT
  5
7EF1
330
813F
100
AcDbEntity
  8
DEFPOINTS
  6
ByBlock
 62
     0
100
AcDbPoint
 10
1873.189366350638
 20
3048.589207099473
 30
0.0
  0
ENDBLK
  5
7EF2
330
813F
100
AcDbEntity
  8
0
100
AcDbBlockEnd
  0
BLOCK
  5
8142
330
8141
100
AcDbEntity
  8
0
100
AcDbBlockBegin
  2
*D17
 70
     1
 10
0.0
 20
0.0
 30
0.0
  3
*D17
  1

  0
LINE
  5
7E86
330
8141
100
AcDbEntity
  8
0
  6
ByBlock
100
AcDbLine
 10
999.6529963942384
 20
18.09762645012051
 30
0.0
 11
1359.854953013287
 21
18.09762645012051
 31
0.0
  0
LINE
  5
7E87
330
8141
100
AcDbEntity
  8
0
  6
ByBlock
100
AcDbLine
 10
999.6529963942384
 20
-81.90237354987948
 30
0.0
 11
1359.854953013287
 21
-81.90237354987948
 31
0.0
  0
LINE
  5
7E88
330
8141
100
AcDbEntity
  8
0
  6
ByBlock
100
AcDbLine
 10
1339.854953013287
 20
58.0976264501205
 30
0.0
 11
1339.854953013287
 21
98.0976264501205
 31
0.0
  0
LINE
  5
7E89
330
8141
100
AcDbEntity
  8
0
  6
ByBlock
100
AcDbLine
 10
1339.854953013287
 20
-121.9023735498794
 30
0.0
 11
1339.854953013287
 21
-324.7595164070223
 31
0.0
  0
LINE
  5
7E8A
330
8141
100
AcDbEntity
  8
0
  6
ByBlock
100
AcDbLine
 10
1339.854953013287
 20
18.09762645012051
 30
0.0
 11
1339.854953013287
 21
-81.90237354987948
 31
0.0
  0
INSERT
  5
7E8B
330
8141
100
AcDbEntity
  8
0
  6
ByBlock
100
AcDbBlockReference
  2
_DOT
 10
1339.854953013287
 20
18.09762645012051
 30
0.0
 41
40.0
 42
40.0
 43
40.0
 50
270.0
  0
INSERT
  5
7E8C
330
8141
100
AcDbEntity
  8
0
  6
ByBlock
100
AcDbBlockReference
  2
_OPEN
 10
1339.854953013287
 20
-81.90237354987948
 30
0.0
 41
40.0
 42
40.0
 43
40.0
 50
90.0
  0
TEXT
  5
7E8D
330
8141
100
AcDbEntity
  8
3
100
AcDbText
 10
1329.854953013287
 20
-314.7595164070223
 30
0.0
 40
60.0
  1
100
 50
90.0
100
AcDbText
  0
POINT
  5
7E8E
330
8141
100
AcDbEntity
  8
DEFPOINTS
  6
ByBlock
 62
     0
100
AcDbPoint
 10
979.6529963942385
 20
18.09762645012051
 30
0.0
  0
POINT
  5
7E8F
330
8141
100
AcDbEntity
  8
DEFPOINTS
  6
ByBlock
 62
     0
100
AcDbPoint
 10
979.6529963942385
 20
-81.90237354987948
 30
0.0
  0
POINT
  5
7E90
330
8141
100
AcDbEntity
  8
DEFPOINTS
  6
ByBlock
 62
     0
100
AcDbPoint
 10
1339.854953013287
 20
-81.90237354987948
 30
0.0
  0
ENDBLK
  5
7E91
330
8141
100
AcDbEntity
  8
0
100
AcDbBlockEnd
  0
BLOCK
  5
8144
330
8143
100
AcDbEntity
  8
0
100
AcDbBlockBegin
  2
*D18
 70
     1
 10
0.0
 20
0.0
 30
0.0
  3
*D18
  1

  0
LINE
  5
7F9B
330
8143
100
AcDbEntity
  8
0
  6
ByBlock
100
AcDbLine
 10
3900.832563439683
 20
2089.086641991408
 30
0.0
 11
3900.832563439683
 21
3075.428827042698
 31
0.0
  0
LINE
  5
7F9C
330
8143
100
AcDbEntity
  8
0
  6
ByBlock
100
AcDbLine
 10
3400.832563439682
 20
3020.448304975327
 30
0.0
 11
3400.832563439682
 21
3075.428827042698
 31
0.0
  0
LINE
  5
7F9D
330
8143
100
AcDbEntity
  8
0
  6
ByBlock
100
AcDbLine
 10
3860.832563439683
 20
3055.428827042698
 30
0.0
 11
3440.832563439683
 21
3055.428827042698
 31
0.0
  0
INSERT
  5
7F9E
330
8143
100
AcDbEntity
  8
0
  6
ByBlock
100
AcDbBlockReference
  2
_OPEN
 10
3900.832563439683
 20
3055.428827042698
 30
0.0
 41
40.0
 42
40.0
 43
40.0
  0
INSERT
  5
7F9F
330
8143
100
AcDbEntity
  8
0
  6
ByBlock
100
AcDbBlockReference
  2
_OPEN
 10
3400.832563439682
 20
3055.428827042698
 30
0.0
 41
40.0
 42
40.0
 43
40.0
 50
180.0
  0
TEXT
  5
7FA0
330
8143
100
AcDbEntity
  8
3
100
AcDbText
 10
3540.832563439683
 20
3091.143112756985
 30
0.0
 40
60.0
  1
(510)
100
AcDbText
  0
POINT
  5
7FA1
330
8143
100
AcDbEntity
  8
DEFPOINTS
  6
ByBlock
 62
     0
100
AcDbPoint
 10
3900.832563439683
 20
2069.086641991408
 30
0.0
  0
POINT
  5
7FA2
330
8143
100
AcDbEntity
  8
DEFPOINTS
  6
ByBlock
 62
     0
100
AcDbPoint
 10
3400.832563439682
 20
3000.448304975327
 30
0.0
  0
POINT
  5
7FA3
330
8143
100
AcDbEntity
  8
DEFPOINTS
  6
ByBlock
 62
     0
100
AcDbPoint
 10
3400.832563439682
 20
3055.428827042698
 30
0.0
  0
ENDBLK
  5
7FA4
330
8143
100
AcDbEntity
  8
0
100
AcDbBlockEnd
  0
BLOCK
  5
8146
330
8145
100
AcDbEntity
  8
0
100
AcDbBlockBegin
  2
*D19
 70
     1
 10
0.0
 20
0.0
 30
0.0
  3
*D19
  1

  0
LINE
  5
808B
330
8145
100
AcDbEntity
  8
3
100
AcDbLine
 10
2720.832563439683
 20
2269.086641991409
 30
0.0
 11
2720.832563439683
 21
3075.428827042698
 31
0.0
  0
LINE
  5
808C
330
8145
100
AcDbEntity
  8
3
100
AcDbLine
 10
3360.832563439682
 20
3055.428827042698
 30
0.0
 11
2760.832563439683
 21
3055.428827042698
 31
0.0
  0
INSERT
  5
808D
330
8145
100
AcDbEntity
  8
3
100
AcDbBlockReference
  2
_OPEN
 10
3400.832563439682
 20
3055.428827042698
 30
0.0
 41
40.0
 42
40.0
 43
40.0
  0
INSERT
  5
808E
330
8145
100
AcDbEntity
  8
3
100
AcDbBlockReference
  2
_OPEN
 10
2720.832563439683
 20
3055.428827042698
 30
0.0
 41
40.0
 42
40.0
 43
40.0
 50
180.0
  0
TEXT
  5
809E
330
8145
100
AcDbEntity
  8
3
100
AcDbText
 10
2940.83
 20
3039.23
 30
0.0
 40
60.0
  1
MAX
100
AcDbText
  0
TEXT
  5
809F
330
8145
100
AcDbEntity
  8
3
100
AcDbText
 10
2940.83
 20
2961.23
 30
0.0
 40
60.0
  1
710
100
AcDbText
  0
POINT
  5
8090
330
8145
100
AcDbEntity
  8
DEFPOINTS
 62
     0
100
AcDbPoint
 10
3400.832563439682
 20
3000.448304975327
 30
0.0
  0
POINT
  5
8091
330
8145
100
AcDbEntity
  8
DEFPOINTS
 62
     0
100
AcDbPoint
 10
2720.832563439683
 20
2249.086641991409
 30
0.0
  0
POINT
  5
8092
330
8145
100
AcDbEntity
  8
DEFPOINTS
 62
     0
100
AcDbPoint
 10
2720.832563439683
 20
3055.428827042698
 30
0.0
  0
ENDBLK
  5
7F8E
330
8145
100
AcDbEntity
  8
0
100
AcDbBlockEnd
  0
BLOCK
  5
8148
330
8147
100
AcDbEntity
  8
0
100
AcDbBlockBegin
  2
*D20
 70
     1
 10
0.0
 20
0.0
 30
0.0
  3
*D20
  1

  0
LINE
  5
8093
330
8147
100
AcDbEntity
  8
3
100
AcDbLine
 10
584.9677229305496
 20
4098.312742094974
 30
0.0
 11
584.9677229305496
 21
4652.918032593382
 31
0.0
  0
LINE
  5
8094
330
8147
100
AcDbEntity
  8
3
100
AcDbLine
 10
1194.967722930549
 20
4632.918032593383
 30
0.0
 11
624.9677229305498
 21
4632.918032593383
 31
0.0
  0
INSERT
  5
8095
330
8147
100
AcDbEntity
  8
3
100
AcDbBlockReference
  2
_OPEN
 10
1234.96772293055
 20
4632.918032593383
 30
0.0
 41
40.0
 42
40.0
 43
40.0
  0
INSERT
  5
8096
330
8147
100
AcDbEntity
  8
3
100
AcDbBlockReference
  2
_OPEN
 10
584.9677229305496
 20
4632.918032593383
 30
0.0
 41
40.0
 42
40.0
 43
40.0
 50
180.0
  0
TEXT
  5
80A0
330
8147
100
AcDbEntity
  8
3
100
AcDbText
 10
789.968
 20
4566.72
 30
0.0
 40
60.0
  1
650
100
AcDbText
  0
POINT
  5
8098
330
8147
100
AcDbEntity
  8
DEFPOINTS
 62
     0
100
AcDbPoint
 10
1234.96772293055
 20
4484.312742094977
 30
0.0
  0
POINT
  5
8099
330
8147
100
AcDbEntity
  8
DEFPOINTS
 62
     0
100
AcDbPoint
 10
584.9677229305496
 20
4078.312742094976
 30
0.0
  0
POINT
  5
809A
330
8147
100
AcDbEntity
  8
DEFPOINTS
 62
     0
100
AcDbPoint
 10
584.9677229305496
 20
4632.918032593383
 30
0.0
  0
ENDBLK
  5
7EC6
330
8147
100
AcDbEntity
  8
0
100
AcDbBlockEnd
  0
BLOCK
  5
814A
330
8149
100
AcDbEntity
  8
0
100
AcDbBlockBegin
  2
*D21
 70
     1
 10
0.0
 20
0.0
 30
0.0
  3
*D21
  1

  0
LINE
  5
7FC9
330
8149
100
AcDbEntity
  8
0
  6
ByBlock
 62
     0
100
AcDbLine
 10
584.9677229305496
 20
1447.086641991409
 30
0.0
 11
584.9677229305496
 21
1306.064579236374
 31
0.0
  0
LINE
  5
7FCA
330
8149
100
AcDbEntity
  8
0
  6
ByBlock
 62
     0
100
AcDbLine
 10
1634.96772293055
 20
1447.086641991409
 30
0.0
 11
1634.96772293055
 21
1306.064579236374
 31
0.0
  0
LINE
  5
7FCB
330
8149
100
AcDbEntity
  8
0
  6
ByBlock
 62
     0
100
AcDbLine
 10
624.9677229305498
 20
1326.064579236374
 30
0.0
 11
1594.96772293055
 21
1326.064579236374
 31
0.0
  0
INSERT
  5
7FCC
330
8149
100
AcDbEntity
  8
0
  6
ByBlock
 62
     0
100
AcDbBlockReference
  2
_OPEN
 10
584.9677229305496
 20
1326.064579236374
 30
0.0
 41
40.0
 42
40.0
 43
40.0
 50
180.0
  0
INSERT
  5
7FCD
330
8149
100
AcDbEntity
  8
0
  6
ByBlock
 62
     0
100
AcDbBlockReference
  2
_OPEN
 10
1634.96772293055
 20
1326.064579236374
 30
0.0
 41
40.0
 42
40.0
 43
40.0
  0
TEXT
  5
7FCE
330
8149
100
AcDbEntity
  8
3
 62
     0
100
AcDbText
 10
1009.967722930549
 20
1346.064579236373
 30
0.0
 40
60.0
  1
1050
100
AcDbText
  0
POINT
  5
7FCF
330
8149
100
AcDbEntity
  8
DEFPOINTS
  6
ByBlock
 62
     0
100
AcDbPoint
 10
584.9677229305496
 20
1467.086641991409
 30
0.0
  0
POINT
  5
7FD0
330
8149
100
AcDbEntity
  8
DEFPOINTS
  6
ByBlock
 62
     0
100
AcDbPoint
 10
1634.96772293055
 20
1467.086641991409
 30
0.0
  0
POINT
  5
7FD1
330
8149
100
AcDbEntity
  8
DEFPOINTS
  6
ByBlock
 62
     0
100
AcDbPoint
 10
1634.96772293055
 20
1326.064579236374
 30
0.0
  0
ENDBLK
  5
7FD2
330
8149
100
AcDbEntity
  8
0
100
AcDbBlockEnd
  0
BLOCK
  5
814C
330
814B
100
AcDbEntity
  8
0
100
AcDbBlockBegin
  2
*D22
 70
     1
 10
0.0
 20
0.0
 30
0.0
  3
*D22
  1

  0
LINE
  5
7FD6
330
814B
100
AcDbEntity
  8
0
  6
ByBlock
 62
     0
100
AcDbLine
 10
1634.96772293055
 20
1447.086641991409
 30
0.0
 11
1634.96772293055
 21
1306.064579236374
 31
0.0
  0
LINE
  5
7FD7
330
814B
100
AcDbEntity
  8
0
  6
ByBlock
 62
     0
100
AcDbLine
 10
2034.96772293055
 20
1447.086641991409
 30
0.0
 11
2034.96772293055
 21
1306.064579236374
 31
0.0
  0
LINE
  5
7FD8
330
814B
100
AcDbEntity
  8
0
  6
ByBlock
 62
     0
100
AcDbLine
 10
1674.967722930549
 20
1326.064579236374
 30
0.0
 11
1994.96772293055
 21
1326.064579236374
 31
0.0
  0
INSERT
  5
7FD9
330
814B
100
AcDbEntity
  8
0
  6
ByBlock
 62
     0
100
AcDbBlockReference
  2
_OPEN
 10
1634.96772293055
 20
1326.064579236374
 30
0.0
 41
40.0
 42
40.0
 43
40.0
 50
180.0
  0
INSERT
  5
7FDA
330
814B
100
AcDbEntity
  8
0
  6
ByBlock
 62
     0
100
AcDbBlockReference
  2
_OPEN
 10
2034.96772293055
 20
1326.064579236374
 30
0.0
 41
40.0
 42
40.0
 43
40.0
  0
TEXT
  5
7FDB
330
814B
100
AcDbEntity
  8
3
 62
     0
100
AcDbText
 10
1757.824865787692
 20
1346.064579236373
 30
0.0
 40
60.0
  1
400
100
AcDbText
  0
POINT
  5
7FDC
330
814B
100
AcDbEntity
  8
DEFPOINTS
  6
ByBlock
 62
     0
100
AcDbPoint
 10
1634.96772293055
 20
1467.086641991409
 30
0.0
  0
POINT
  5
7FDD
330
814B
100
AcDbEntity
  8
DEFPOINTS
  6
ByBlock
 62
     0
100
AcDbPoint
 10
2034.96772293055
 20
1467.086641991409
 30
0.0
  0
POINT
  5
7FDE
330
814B
100
AcDbEntity
  8
DEFPOINTS
  6
ByBlock
 62
     0
100
AcDbPoint
 10
2034.96772293055
 20
1326.064579236374
 30
0.0
  0
ENDBLK
  5
7FDF
330
814B
100
AcDbEntity
  8
0
100
AcDbBlockEnd
  0
BLOCK
  5
814E
330
814D
100
AcDbEntity
  8
0
100
AcDbBlockBegin
  2
*D23
 70
     1
 10
0.0
 20
0.0
 30
0.0
  3
*D23
  1

  0
LINE
  5
7FE3
330
814D
100
AcDbEntity
  8
0
  6
ByBlock
 62
     0
100
AcDbLine
 10
2847.832563439684
 20
1447.086641991409
 30
0.0
 11
2847.832563439684
 21
1306.064579236374
 31
0.0
  0
LINE
  5
7FE4
330
814D
100
AcDbEntity
  8
0
  6
ByBlock
 62
     0
100
AcDbLine
 10
3400.832563439684
 20
1447.086641991409
 30
0.0
 11
3400.832563439684
 21
1306.064579236374
 31
0.0
  0
LINE
  5
7FE5
330
814D
100
AcDbEntity
  8
0
  6
ByBlock
 62
     0
100
AcDbLine
 10
2887.832563439684
 20
1326.064579236374
 30
0.0
 11
3360.832563439684
 21
1326.064579236374
 31
0.0
  0
INSERT
  5
7FE6
330
814D
100
AcDbEntity
  8
0
  6
ByBlock
 62
     0
100
AcDbBlockReference
  2
_OPEN
 10
2847.832563439684
 20
1326.064579236374
 30
0.0
 41
40.0
 42
40.0
 43
40.0
 50
180.0
  0
INSERT
  5
7FE7
330
814D
100
AcDbEntity
  8
0
  6
ByBlock
 62
     0
100
AcDbBlockReference
  2
_OPEN
 10
3400.832563439684
 20
1326.064579236374
 30
0.0
 41
40.0
 42
40.0
 43
40.0
  0
TEXT
  5
7FE8
330
814D
100
AcDbEntity
  8
3
 62
     0
100
AcDbText
 10
3047.189706296826
 20
1346.064579236373
 30
0.0
 40
60.0
  1
553
100
AcDbText
  0
POINT
  5
7FE9
330
814D
100
AcDbEntity
  8
DEFPOINTS
  6
ByBlock
 62
     0
100
AcDbPoint
 10
2847.832563439684
 20
1467.086641991409
 30
0.0
  0
POINT
  5
7FEA
330
814D
100
AcDbEntity
  8
DEFPOINTS
  6
ByBlock
 62
     0
100
AcDbPoint
 10
3400.832563439684
 20
1467.086641991409
 30
0.0
  0
POINT
  5
7FEB
330
814D
100
AcDbEntity
  8
DEFPOINTS
  6
ByBlock
 62
     0
100
AcDbPoint
 10
3400.832563439684
 20
1326.064579236374
 30
0.0
  0
ENDBLK
  5
7FEC
330
814D
100
AcDbEntity
  8
0
100
AcDbBlockEnd
  0
BLOCK
  5
8150
330
814F
100
AcDbEntity
  8
0
100
AcDbBlockBegin
  2
*D24
 70
     1
 10
0.0
 20
0.0
 30
0.0
  3
*D24
  1

  0
LINE
  5
7FF0
330
814F
100
AcDbEntity
  8
0
  6
ByBlock
 62
     0
100
AcDbLine
 10
3400.832563439684
 20
1447.086641991409
 30
0.0
 11
3400.832563439684
 21
1306.064579236374
 31
0.0
  0
LINE
  5
7FF1
330
814F
100
AcDbEntity
  8
0
  6
ByBlock
 62
     0
100
AcDbLine
 10
3853.832563439683
 20
1447.086641991409
 30
0.0
 11
3853.832563439683
 21
1306.064579236374
 31
0.0
  0
LINE
  5
7FF2
330
814F
100
AcDbEntity
  8
0
  6
ByBlock
 62
     0
100
AcDbLine
 10
3440.832563439683
 20
1326.064579236374
 30
0.0
 11
3813.832563439683
 21
1326.064579236374
 31
0.0
  0
INSERT
  5
7FF3
330
814F
100
AcDbEntity
  8
0
  6
ByBlock
 62
     0
100
AcDbBlockReference
  2
_OPEN
 10
3400.832563439684
 20
1326.064579236374
 30
0.0
 41
40.0
 42
40.0
 43
40.0
 50
180.0
  0
INSERT
  5
7FF4
330
814F
100
AcDbEntity
  8
0
  6
ByBlock
 62
     0
100
AcDbBlockReference
  2
_OPEN
 10
3853.832563439683
 20
1326.064579236374
 30
0.0
 41
40.0
 42
40.0
 43
40.0
  0
TEXT
  5
7FF5
330
814F
100
AcDbEntity
  8
3
 62
     0
100
AcDbText
 10
3550.189706296826
 20
1346.064579236373
 30
0.0
 40
60.0
  1
453
100
AcDbText
  0
POINT
  5
7FF6
330
814F
100
AcDbEntity
  8
DEFPOINTS
  6
ByBlock
 62
     0
100
AcDbPoint
 10
3400.832563439684
 20
1467.086641991409
 30
0.0
  0
POINT
  5
7FF7
330
814F
100
AcDbEntity
  8
DEFPOINTS
  6
ByBlock
 62
     0
100
AcDbPoint
 10
3853.832563439683
 20
1467.086641991409
 30
0.0
  0
POINT
  5
7FF8
330
814F
100
AcDbEntity
  8
DEFPOINTS
  6
ByBlock
 62
     0
100
AcDbPoint
 10
3853.832563439683
 20
1326.064579236374
 30
0.0
  0
ENDBLK
  5
7FF9
330
814F
100
AcDbEntity
  8
0
100
AcDbBlockEnd
  0
BLOCK
  5
8152
330
8151
100
AcDbEntity
  8
0
100
AcDbBlockBegin
  2
_NONE
 70
     0
 10
0.0
 20
0.0
 30
0.0
  3
_NONE
  1

  0
CIRCLE
  5
7FFD
330
8151
100
AcDbEntity
  8
0
  6
ByBlock
 62
     0
100
AcDbCircle
 10
0.0
 20
0.0
 30
0.0
 40
0.25
  0
ENDBLK
  5
7FFE
330
8151
100
AcDbEntity
  8
0
100
AcDbBlockEnd
  0
BLOCK
  5
8154
330
8153
100
AcDbEntity
  8
0
100
AcDbBlockBegin
  2
*D26
 70
     1
 10
0.0
 20
0.0
 30
0.0
  3
*D26
  1

  0
LINE
  5
801B
330
8153
100
AcDbEntity
  8
0
  6
ByBlock
 62
     0
100
AcDbLine
 10
2396.809159267883
 20
1499.086641991408
 30
0.0
 11
2396.809159267883
 21
1594.086641991409
 31
0.0
  0
TEXT
  5
801C
330
8153
100
AcDbEntity
  8
3
 62
     0
100
AcDbText
 10
2512.523444982168
 20
1459.443784848552
 30
0.0
 40
60.0
  1
(95)
 50
90.0
100
AcDbText
  0
POINT
  5
801D
330
8153
100
AcDbEntity
  8
DEFPOINTS
  6
ByBlock
 62
     0
100
AcDbPoint
 10
2034.96772293055
 20
1499.086641991408
 30
0.0
  0
POINT
  5
801E
330
8153
100
AcDbEntity
  8
DEFPOINTS
  6
ByBlock
 62
     0
100
AcDbPoint
 10
2034.96772293055
 20
1594.086641991409
 30
0.0
  0
POINT
  5
801F
330
8153
100
AcDbEntity
  8
DEFPOINTS
  6
ByBlock
 62
     0
100
AcDbPoint
 10
2396.809159267883
 20
1594.086641991409
 30
0.0
  0
ENDBLK
  5
8020
330
8153
100
AcDbEntity
  8
0
100
AcDbBlockEnd
  0
BLOCK
  5
8156
330
8155
100
AcDbEntity
  8
0
100
AcDbBlockBegin
  2
*D27
 70
     1
 10
0.0
 20
0.0
 30
0.0
  3
*D27
  1

  0
LINE
  5
8024
330
8155
100
AcDbEntity
  8
0
  6
ByBlock
 62
     0
100
AcDbLine
 10
2114.96772293055
 20
2777.086641991409
 30
0.0
 11
2573.064894494229
 21
2777.086641991409
 31
0.0
  0
LINE
  5
8025
330
8155
100
AcDbEntity
  8
0
  6
ByBlock
 62
     0
100
AcDbLine
 10
2054.96772293055
 20
1399.086641991408
 30
0.0
 11
2573.064894494229
 21
1399.086641991408
 31
0.0
  0
LINE
  5
8026
330
8155
100
AcDbEntity
  8
0
  6
ByBlock
 62
     0
100
AcDbLine
 10
2553.064894494229
 20
2737.086641991409
 30
0.0
 11
2553.064894494229
 21
1439.086641991409
 31
0.0
  0
INSERT
  5
8027
330
8155
100
AcDbEntity
  8
0
  6
ByBlock
 62
     0
100
AcDbBlockReference
  2
_OPEN
 10
2553.064894494229
 20
2777.086641991409
 30
0.0
 41
40.0
 42
40.0
 43
40.0
 50
90.0
  0
INSERT
  5
8028
330
8155
100
AcDbEntity
  8
0
  6
ByBlock
 62
     0
100
AcDbBlockReference
  2
_OPEN
 10
2553.064894494229
 20
1399.086641991408
 30
0.0
 41
40.0
 42
40.0
 43
40.0
 50
270.0
  0
TEXT
  5
8029
330
8155
100
AcDbEntity
  8
3
 62
     0
100
AcDbText
 10
2507.350608779943
 20
1949.51521341998
 30
0.0
 40
60.0
  1
(1378)
 50
90.0
100
AcDbText
  0
POINT
  5
802A
330
8155
100
AcDbEntity
  8
DEFPOINTS
  6
ByBlock
 62
     0
100
AcDbPoint
 10
2094.96772293055
 20
2777.086641991409
 30
0.0
  0
POINT
  5
802B
330
8155
100
AcDbEntity
  8
DEFPOINTS
  6
ByBlock
 62
     0
100
AcDbPoint
 10
2034.96772293055
 20
1399.086641991408
 30
0.0
  0
POINT
  5
802C
330
8155
100
AcDbEntity
  8
DEFPOINTS
  6
ByBlock
 62
     0
100
AcDbPoint
 10
2553.064894494229
 20
1399.086641991408
 30
0.0
  0
ENDBLK
  5
802D
330
8155
100
AcDbEntity
  8
0
100
AcDbBlockEnd
  0
BLOCK
  5
815D
330
815C
100
AcDbEntity
  8
0
100
AcDbBlockBegin
  2
*D28
 70
     1
 10
0.0
 20
0.0
 30
0.0
  3
*D28
  1

  0
LINE
  5
81B7
330
815C
100
AcDbEntity
  8
3
 62
     0
370
    -2
100
AcDbLine
 10
2620.832563439683
 20
2269.086641991409
 30
0.0
 11
2620.832563439683
 21
3069.685144437137
 31
0.0
  0
LINE
  5
81B8
330
815C
100
AcDbEntity
  8
3
 62
     0
370
    -2
100
AcDbLine
 10
3400.832563439682
 20
3004.169340590403
 30
0.0
 11
3400.832563439682
 21
3069.685144437137
 31
0.0
  0
LINE
  5
81B9
330
815C
100
AcDbEntity
  8
3
 62
     0
370
    -2
100
AcDbLine
 10
2660.832563439683
 20
3049.685144437137
 30
0.0
 11
3360.832563439682
 21
3049.685144437137
 31
0.0
  0
INSERT
  5
81BA
330
815C
100
AcDbEntity
  8
3
 62
     0
370
    -2
100
AcDbBlockReference
  2
_OPEN
 10
2620.832563439683
 20
3049.685144437137
 30
0.0
 41
40.0
 42
40.0
 43
40.0
 50
180.0
  0
INSERT
  5
81BB
330
815C
100
AcDbEntity
  8
3
 62
     0
370
    -2
100
AcDbBlockReference
  2
_OPEN
 10
3400.832563439682
 20
3049.685144437137
 30
0.0
 41
40.0
 42
40.0
 43
40.0
  0
MTEXT
  5
81BC
330
815C
100
AcDbEntity
  8
3
 62
     0
100
AcDbMText
 10
3010.832563439683
 20
3115.399430151423
 30
0.0
 40
60.0
 41
0.0
 71
     5
 72
     1
  1
\A1;(780)
 73
     1
 44
1.0
1001
ACAD
1000
MTEXTBEGIN
1070
    73
1070
     1
1070
    44
1040
1.0
1070
    74
1070
     0
1000
MTEXTEND
  0
POINT
  5
81BD
330
815C
100
AcDbEntity
  8
DEFPOINTS
 62
     0
100
AcDbPoint
 10
2620.832563439683
 20
2249.086641991409
 30
0.0
  0
POINT
  5
81BE
330
815C
100
AcDbEntity
  8
DEFPOINTS
 62
     0
100
AcDbPoint
 10
3400.832563439682
 20
2984.169340590403
 30
0.0
  0
POINT
  5
81BF
330
815C
100
AcDbEntity
  8
DEFPOINTS
 62
     0
100
AcDbPoint
 10
3400.832563439682
 20
3049.685144437137
 30
0.0
  0
ENDBLK
  5
815E
330
815C
100
AcDbEntity
  8
0
100
AcDbBlockEnd
  0
BLOCK
  5
816A
330
8169
100
AcDbEntity
  8
0
100
AcDbBlockBegin
  2
*D29
 70
     1
 10
0.0
 20
0.0
 30
0.0
  3
*D29
  1

  0
LINE
  5
81AE
330
8169
100
AcDbEntity
  8
3
 62
     0
370
    -2
100
AcDbLine
 10
3400.832563439682
 20
3004.169340590403
 30
0.0
 11
3400.832563439682
 21
3069.685144437137
 31
0.0
  0
LINE
  5
81AF
330
8169
100
AcDbEntity
  8
3
 62
     0
370
    -2
100
AcDbLine
 10
3910.832563439683
 20
2089.086641991408
 30
0.0
 11
3910.832563439683
 21
3069.685144437137
 31
0.0
  0
LINE
  5
81B0
330
8169
100
AcDbEntity
  8
3
 62
     0
370
    -2
100
AcDbLine
 10
3440.832563439682
 20
3049.685144437137
 30
0.0
 11
3870.832563439682
 21
3049.685144437137
 31
0.0
  0
INSERT
  5
81B1
330
8169
100
AcDbEntity
  8
3
 62
     0
370
    -2
100
AcDbBlockReference
  2
_OPEN
 10
3400.832563439682
 20
3049.685144437137
 30
0.0
 41
40.0
 42
40.0
 43
40.0
 50
180.0
  0
INSERT
  5
81B2
330
8169
100
AcDbEntity
  8
3
 62
     0
370
    -2
100
AcDbBlockReference
  2
_OPEN
 10
3910.832563439683
 20
3049.685144437137
 30
0.0
 41
40.0
 42
40.0
 43
40.0
  0
MTEXT
  5
81B3
330
8169
100
AcDbEntity
  8
3
 62
     0
100
AcDbMText
 10
3655.832563439683
 20
3115.399430151423
 30
0.0
 40
60.0
 41
0.0
 71
     5
 72
     1
  1
\A1;(510)
 73
     1
 44
1.0
1001
ACAD
1000
MTEXTBEGIN
1070
    73
1070
     1
1070
    44
1040
1.0
1070
    74
1070
     0
1000
MTEXTEND
  0
POINT
  5
81B4
330
8169
100
AcDbEntity
  8
DEFPOINTS
 62
     0
100
AcDbPoint
 10
3400.832563439682
 20
2984.169340590403
 30
0.0
  0
POINT
  5
81B5
330
8169
100
AcDbEntity
  8
DEFPOINTS
 62
     0
100
AcDbPoint
 10
3910.832563439683
 20
2069.086641991408
 30
0.0
  0
POINT
  5
81B6
330
8169
100
AcDbEntity
  8
DEFPOINTS
 62
     0
100
AcDbPoint
 10
3910.832563439683
 20
3049.685144437137
 30
0.0
  0
ENDBLK
  5
816B
330
8169
100
AcDbEntity
  8
0
100
AcDbBlockEnd
  0
BLOCK
  5
81C1
330
81C0
100
AcDbEntity
  8
0
100
AcDbBlockBegin
  2
*D30
 70
     1
 10
0.0
 20
0.0
 30
0.0
  3
*D30
  1

  0
LINE
  5
81C3
330
81C0
100
AcDbEntity
  8
3
 62
     0
370
    -2
100
AcDbLine
 10
3400.832563439684
 20
1394.086641991409
 30
0.0
 11
3400.832563439684
 21
1269.464579236374
 31
0.0
  0
LINE
  5
81C4
330
81C0
100
AcDbEntity
  8
3
 62
     0
370
    -2
100
AcDbLine
 10
3853.832563439683
 20
1394.086641991409
 30
0.0
 11
3853.832563439683
 21
1269.464579236374
 31
0.0
  0
LINE
  5
81C5
330
81C0
100
AcDbEntity
  8
3
 62
     0
370
    -2
100
AcDbLine
 10
3404.432563439684
 20
1273.064579236374
 30
0.0
 11
3620.903992011112
 21
1273.064579236374
 31
0.0
  0
LINE
  5
81C6
330
81C0
100
AcDbEntity
  8
3
 62
     0
370
    -2
100
AcDbLine
 10
3850.232563439682
 20
1273.064579236374
 30
0.0
 11
3633.761134868255
 21
1273.064579236374
 31
0.0
  0
SOLID
  5
81C7
330
81C0
100
AcDbEntity
  8
3
 62
     0
100
AcDbTrace
 10
3404.432563439684
 20
1273.664579236374
 30
0.0
 11
3404.432563439684
 21
1272.464579236374
 31
0.0
 12
3400.832563439684
 22
1273.064579236374
 32
0.0
 13
3400.832563439684
 23
1273.064579236374
 33
0.0
  0
SOLID
  5
81C8
330
81C0
100
AcDbEntity
  8
3
 62
     0
100
AcDbTrace
 10
3850.232563439682
 20
1273.664579236374
 30
0.0
 11
3850.232563439682
 21
1272.464579236374
 31
0.0
 12
3853.832563439683
 22
1273.064579236374
 32
0.0
 13
3853.832563439683
 23
1273.064579236374
 33
0.0
  0
MTEXT
  5
81C9
330
81C0
100
AcDbEntity
  8
3
 62
     0
100
AcDbMText
 10
3627.332563439683
 20
1273.064579236374
 30
0.0
 40
3.599999999999999
 41
0.0
 71
     5
 72
     1
  1
\A1;453
 73
     1
 44
1.0
1001
ACAD
1000
MTEXTBEGIN
1070
    73
1070
     1
1070
    44
1040
1.0
1070
    74
1070
     0
1000
MTEXTEND
  0
POINT
  5
81CA
330
81C0
100
AcDbEntity
  8
DEFPOINTS
 62
     0
100
AcDbPoint
 10
3400.832563439684
 20
1414.086641991408
 30
0.0
  0
POINT
  5
81CB
330
81C0
100
AcDbEntity
  8
DEFPOINTS
 62
     0
100
AcDbPoint
 10
3853.832563439683
 20
1414.086641991408
 30
0.0
  0
POINT
  5
81CC
330
81C0
100
AcDbEntity
  8
DEFPOINTS
 62
     0
100
AcDbPoint
 10
3853.832563439683
 20
1273.064579236374
 30
0.0
  0
ENDBLK
  5
81C2
330
81C0
100
AcDbEntity
  8
0
100
AcDbBlockEnd
  0
BLOCK
  5
81CE
330
81CD
100
AcDbEntity
  8
0
100
AcDbBlockBegin
  2
*D31
 70
     1
 10
0.0
 20
0.0
 30
0.0
  3
*D31
  1

  0
LINE
  5
81D0
330
81CD
100
AcDbEntity
  8
3
 62
     0
370
    -2
100
AcDbLine
 10
2396.809159267883
 20
1517.686641991408
 30
0.0
 11
2396.809159267883
 21
1549.543784848551
 31
0.0
  0
LINE
  5
81D1
330
81CD
100
AcDbEntity
  8
3
 62
     0
370
    -2
100
AcDbLine
 10
2396.809159267883
 20
1590.486641991408
 30
0.0
 11
2396.809159267883
 21
1558.629499134266
 31
0.0
  0
SOLID
  5
81D2
330
81CD
100
AcDbEntity
  8
3
 62
     0
100
AcDbTrace
 10
2396.209159267883
 20
1517.686641991408
 30
0.0
 11
2397.409159267883
 21
1517.686641991408
 31
0.0
 12
2396.809159267883
 22
1514.086641991409
 32
0.0
 13
2396.809159267883
 23
1514.086641991409
 33
0.0
  0
SOLID
  5
81D3
330
81CD
100
AcDbEntity
  8
3
 62
     0
100
AcDbTrace
 10
2396.209159267883
 20
1590.486641991408
 30
0.0
 11
2397.409159267883
 21
1590.486641991408
 31
0.0
 12
2396.809159267883
 22
1594.086641991409
 32
0.0
 13
2396.809159267883
 23
1594.086641991409
 33
0.0
  0
MTEXT
  5
81D4
330
81CD
100
AcDbEntity
  8
3
 62
     0
100
AcDbMText
 10
2396.809159267883
 20
1554.086641991409
 30
0.0
 40
3.599999999999999
 41
0.0
 71
     5
 72
     1
  1
\A1;(80)
 73
     1
 44
1.0
1001
ACAD
1000
MTEXTBEGIN
1070
    73
1070
     1
1070
    44
1040
1.0
1070
    74
1070
     0
1000
MTEXTEND
  0
POINT
  5
81D5
330
81CD
100
AcDbEntity
  8
DEFPOINTS
 62
     0
100
AcDbPoint
 10
2034.96772293055
 20
1514.086641991409
 30
0.0
  0
POINT
  5
81D6
330
81CD
100
AcDbEntity
  8
DEFPOINTS
 62
     0
100
AcDbPoint
 10
2034.96772293055
 20
1594.086641991409
 30
0.0
  0
POINT
  5
81D7
330
81CD
100
AcDbEntity
  8
DEFPOINTS
 62
     0
100
AcDbPoint
 10
2396.809159267883
 20
1594.086641991409
 30
0.0
  0
ENDBLK
  5
81CF
330
81CD
100
AcDbEntity
  8
0
100
AcDbBlockEnd
  0
BLOCK
  5
81D9
330
81D8
100
AcDbEntity
  8
0
100
AcDbBlockBegin
  2
*D32
 70
     1
 10
0.0
 20
0.0
 30
0.0
  3
*D32
  1

  0
LINE
  5
81DB
330
81D8
100
AcDbEntity
  8
3
 62
     0
370
    -2
100
AcDbLine
 10
2114.96772293055
 20
2777.086641991409
 30
0.0
 11
2556.664894494229
 21
2777.086641991409
 31
0.0
  0
LINE
  5
81DC
330
81D8
100
AcDbEntity
  8
3
 62
     0
370
    -2
100
AcDbLine
 10
2054.96772293055
 20
1414.086641991408
 30
0.0
 11
2556.664894494229
 21
1414.086641991408
 31
0.0
  0
LINE
  5
81DD
330
81D8
100
AcDbEntity
  8
3
 62
     0
370
    -2
100
AcDbLine
 10
2553.064894494229
 20
2773.486641991409
 30
0.0
 11
2553.064894494229
 21
2100.129499134266
 31
0.0
  0
LINE
  5
81DE
330
81D8
100
AcDbEntity
  8
3
 62
     0
370
    -2
100
AcDbLine
 10
2553.064894494229
 20
1417.686641991408
 30
0.0
 11
2553.064894494229
 21
2091.043784848552
 31
0.0
  0
SOLID
  5
81DF
330
81D8
100
AcDbEntity
  8
3
 62
     0
100
AcDbTrace
 10
2552.464894494229
 20
2773.486641991409
 30
0.0
 11
2553.664894494229
 21
2773.486641991409
 31
0.0
 12
2553.064894494229
 22
2777.086641991409
 32
0.0
 13
2553.064894494229
 23
2777.086641991409
 33
0.0
  0
SOLID
  5
81E0
330
81D8
100
AcDbEntity
  8
3
 62
     0
100
AcDbTrace
 10
2552.464894494229
 20
1417.686641991408
 30
0.0
 11
2553.664894494229
 21
1417.686641991408
 31
0.0
 12
2553.064894494229
 22
1414.086641991408
 32
0.0
 13
2553.064894494229
 23
1414.086641991408
 33
0.0
  0
MTEXT
  5
81E1
330
81D8
100
AcDbEntity
  8
3
 62
     0
100
AcDbMText
 10
2553.064894494229
 20
2095.586641991409
 30
0.0
 40
3.599999999999999
 41
0.0
 71
     5
 72
     1
  1
\A1;(1363)
 73
     1
 44
1.0
1001
ACAD
1000
MTEXTBEGIN
1070
    73
1070
     1
1070
    44
1040
1.0
1070
    74
1070
     0
1000
MTEXTEND
  0
POINT
  5
81E2
330
81D8
100
AcDbEntity
  8
DEFPOINTS
 62
     0
100
AcDbPoint
 10
2094.96772293055
 20
2777.086641991409
 30
0.0
  0
POINT
  5
81E3
330
81D8
100
AcDbEntity
  8
DEFPOINTS
 62
     0
100
AcDbPoint
 10
2034.96772293055
 20
1414.086641991408
 30
0.0
  0
POINT
  5
81E4
330
81D8
100
AcDbEntity
  8
DEFPOINTS
 62
     0
100
AcDbPoint
 10
2553.064894494229
 20
1414.086641991408
 30
0.0
  0
ENDBLK
  5
81DA
330
81D8
100
AcDbEntity
  8
0
100
AcDbBlockEnd
  0
BLOCK
  5
81E6
330
81E5
100
AcDbEntity
  8
0
100
AcDbBlockBegin
  2
*D33
 70
     1
 10
0.0
 20
0.0
 30
0.0
  3
*D33
  1

  0
LINE
  5
81E8
330
81E5
100
AcDbEntity
  8
3
 62
     0
370
    -2
100
AcDbLine
 10
584.9677229305496
 20
1394.086641991409
 30
0.0
 11
584.9677229305496
 21
1269.464579236374
 31
0.0
  0
LINE
  5
81E9
330
81E5
100
AcDbEntity
  8
3
 62
     0
370
    -2
100
AcDbLine
 10
1634.96772293055
 20
1394.086641991409
 30
0.0
 11
1634.96772293055
 21
1269.464579236374
 31
0.0
  0
LINE
  5
81EA
330
81E5
100
AcDbEntity
  8
3
 62
     0
370
    -2
100
AcDbLine
 10
588.5677229305496
 20
1273.064579236374
 30
0.0
 11
1102.16772293055
 21
1273.064579236374
 31
0.0
  0
LINE
  5
81EB
330
81E5
100
AcDbEntity
  8
3
 62
     0
370
    -2
100
AcDbLine
 10
1631.36772293055
 20
1273.064579236374
 30
0.0
 11
1117.76772293055
 21
1273.064579236374
 31
0.0
  0
SOLID
  5
81EC
330
81E5
100
AcDbEntity
  8
3
 62
     0
100
AcDbTrace
 10
588.5677229305496
 20
1273.664579236374
 30
0.0
 11
588.5677229305496
 21
1272.464579236374
 31
0.0
 12
584.9677229305496
 22
1273.064579236374
 32
0.0
 13
584.9677229305496
 23
1273.064579236374
 33
0.0
  0
SOLID
  5
81ED
330
81E5
100
AcDbEntity
  8
3
 62
     0
100
AcDbTrace
 10
1631.36772293055
 20
1273.664579236374
 30
0.0
 11
1631.36772293055
 21
1272.464579236374
 31
0.0
 12
1634.96772293055
 22
1273.064579236374
 32
0.0
 13
1634.96772293055
 23
1273.064579236374
 33
0.0
  0
MTEXT
  5
81EE
330
81E5
100
AcDbEntity
  8
3
 62
     0
100
AcDbMText
 10
1109.96772293055
 20
1273.064579236374
 30
0.0
 40
3.599999999999999
 41
0.0
 71
     5
 72
     1
  1
\A1;1050
 73
     1
 44
1.0
1001
ACAD
1000
MTEXTBEGIN
1070
    73
1070
     1
1070
    44
1040
1.0
1070
    74
1070
     0
1000
MTEXTEND
  0
POINT
  5
81EF
330
81E5
100
AcDbEntity
  8
DEFPOINTS
 62
     0
100
AcDbPoint
 10
584.9677229305496
 20
1414.086641991408
 30
0.0
  0
POINT
  5
81F0
330
81E5
100
AcDbEntity
  8
DEFPOINTS
 62
     0
100
AcDbPoint
 10
1634.96772293055
 20
1414.086641991408
 30
0.0
  0
POINT
  5
81F1
330
81E5
100
AcDbEntity
  8
DEFPOINTS
 62
     0
100
AcDbPoint
 10
1634.96772293055
 20
1273.064579236374
 30
0.0
  0
ENDBLK
  5
81E7
330
81E5
100
AcDbEntity
  8
0
100
AcDbBlockEnd
  0
BLOCK
  5
81F3
330
81F2
100
AcDbEntity
  8
0
100
AcDbBlockBegin
  2
*D34
 70
     1
 10
0.0
 20
0.0
 30
0.0
  3
*D34
  1

  0
LINE
  5
81F5
330
81F2
100
AcDbEntity
  8
3
 62
     0
370
    -2
100
AcDbLine
 10
1634.96772293055
 20
1394.086641991409
 30
0.0
 11
1634.96772293055
 21
1269.464579236374
 31
0.0
  0
LINE
  5
81F6
330
81F2
100
AcDbEntity
  8
3
 62
     0
370
    -2
100
AcDbLine
 10
2034.96772293055
 20
1394.086641991409
 30
0.0
 11
2034.96772293055
 21
1269.464579236374
 31
0.0
  0
LINE
  5
81F7
330
81F2
100
AcDbEntity
  8
3
 62
     0
370
    -2
100
AcDbLine
 10
1638.56772293055
 20
1273.064579236374
 30
0.0
 11
1828.539151501978
 21
1273.064579236374
 31
0.0
  0
LINE
  5
81F8
330
81F2
100
AcDbEntity
  8
3
 62
     0
370
    -2
100
AcDbLine
 10
2031.36772293055
 20
1273.064579236374
 30
0.0
 11
1841.396294359121
 21
1273.064579236374
 31
0.0
  0
SOLID
  5
81F9
330
81F2
100
AcDbEntity
  8
3
 62
     0
100
AcDbTrace
 10
1638.56772293055
 20
1273.664579236374
 30
0.0
 11
1638.56772293055
 21
1272.464579236374
 31
0.0
 12
1634.96772293055
 22
1273.064579236374
 32
0.0
 13
1634.96772293055
 23
1273.064579236374
 33
0.0
  0
SOLID
  5
81FA
330
81F2
100
AcDbEntity
  8
3
 62
     0
100
AcDbTrace
 10
2031.36772293055
 20
1273.664579236374
 30
0.0
 11
2031.36772293055
 21
1272.464579236374
 31
0.0
 12
2034.96772293055
 22
1273.064579236374
 32
0.0
 13
2034.96772293055
 23
1273.064579236374
 33
0.0
  0
MTEXT
  5
81FB
330
81F2
100
AcDbEntity
  8
3
 62
     0
100
AcDbMText
 10
1834.96772293055
 20
1273.064579236374
 30
0.0
 40
3.599999999999999
 41
0.0
 71
     5
 72
     1
  1
\A1;400
 73
     1
 44
1.0
1001
ACAD
1000
MTEXTBEGIN
1070
    73
1070
     1
1070
    44
1040
1.0
1070
    74
1070
     0
1000
MTEXTEND
  0
POINT
  5
81FC
330
81F2
100
AcDbEntity
  8
DEFPOINTS
 62
     0
100
AcDbPoint
 10
1634.96772293055
 20
1414.086641991408
 30
0.0
  0
POINT
  5
81FD
330
81F2
100
AcDbEntity
  8
DEFPOINTS
 62
     0
100
AcDbPoint
 10
2034.96772293055
 20
1414.086641991408
 30
0.0
  0
POINT
  5
81FE
330
81F2
100
AcDbEntity
  8
DEFPOINTS
 62
     0
100
AcDbPoint
 10
2034.96772293055
 20
1273.064579236374
 30
0.0
  0
ENDBLK
  5
81F4
330
81F2
100
AcDbEntity
  8
0
100
AcDbBlockEnd
  0
BLOCK
  5
8200
330
81FF
100
AcDbEntity
  8
0
100
AcDbBlockBegin
  2
*D35
 70
     1
 10
0.0
 20
0.0
 30
0.0
  3
*D35
  1

  0
LINE
  5
8202
330
81FF
100
AcDbEntity
  8
3
 62
     0
370
    -2
100
AcDbLine
 10
2847.832563439684
 20
1394.086641991409
 30
0.0
 11
2847.832563439684
 21
1269.464579236374
 31
0.0
  0
LINE
  5
8203
330
81FF
100
AcDbEntity
  8
3
 62
     0
370
    -2
100
AcDbLine
 10
3400.832563439684
 20
1394.086641991409
 30
0.0
 11
3400.832563439684
 21
1269.464579236374
 31
0.0
  0
LINE
  5
8204
330
81FF
100
AcDbEntity
  8
3
 62
     0
370
    -2
100
AcDbLine
 10
2851.432563439683
 20
1273.064579236374
 30
0.0
 11
3117.903992011112
 21
1273.064579236374
 31
0.0
  0
LINE
  5
8205
330
81FF
100
AcDbEntity
  8
3
 62
     0
370
    -2
100
AcDbLine
 10
3397.232563439683
 20
1273.064579236374
 30
0.0
 11
3130.761134868255
 21
1273.064579236374
 31
0.0
  0
SOLID
  5
8206
330
81FF
100
AcDbEntity
  8
3
 62
     0
100
AcDbTrace
 10
2851.432563439683
 20
1273.664579236374
 30
0.0
 11
2851.432563439683
 21
1272.464579236374
 31
0.0
 12
2847.832563439684
 22
1273.064579236374
 32
0.0
 13
2847.832563439684
 23
1273.064579236374
 33
0.0
  0
SOLID
  5
8207
330
81FF
100
AcDbEntity
  8
3
 62
     0
100
AcDbTrace
 10
3397.232563439683
 20
1273.664579236374
 30
0.0
 11
3397.232563439683
 21
1272.464579236374
 31
0.0
 12
3400.832563439684
 22
1273.064579236374
 32
0.0
 13
3400.832563439684
 23
1273.064579236374
 33
0.0
  0
MTEXT
  5
8208
330
81FF
100
AcDbEntity
  8
3
 62
     0
100
AcDbMText
 10
3124.332563439683
 20
1273.064579236374
 30
0.0
 40
3.599999999999999
 41
0.0
 71
     5
 72
     1
  1
\A1;553
 73
     1
 44
1.0
1001
ACAD
1000
MTEXTBEGIN
1070
    73
1070
     1
1070
    44
1040
1.0
1070
    74
1070
     0
1000
MTEXTEND
  0
POINT
  5
8209
330
81FF
100
AcDbEntity
  8
DEFPOINTS
 62
     0
100
AcDbPoint
 10
2847.832563439684
 20
1414.086641991408
 30
0.0
  0
POINT
  5
820A
330
81FF
100
AcDbEntity
  8
DEFPOINTS
 62
     0
100
AcDbPoint
 10
3400.832563439684
 20
1414.086641991408
 30
0.0
  0
POINT
  5
820B
330
81FF
100
AcDbEntity
  8
DEFPOINTS
 62
     0
100
AcDbPoint
 10
3400.832563439684
 20
1273.064579236374
 30
0.0
  0
ENDBLK
  5
8201
330
81FF
100
AcDbEntity
  8
0
100
AcDbBlockEnd
  0
BLOCK
  5
820D
330
820C
100
AcDbEntity
  8
0
100
AcDbBlockBegin
  2
*D36
 70
     1
 10
0.0
 20
0.0
 30
0.0
  3
*D36
  1

  0
LINE
  5
820F
330
820C
100
AcDbEntity
  8
3
 62
     0
370
    -2
100
AcDbLine
 10
2036.21772293055
 20
1514.086641991409
 30
0.0
 11
2398.769679549599
 21
1514.086641991409
 31
0.0
  0
LINE
  5
8210
330
820C
100
AcDbEntity
  8
3
 62
     0
370
    -2
100
AcDbLine
 10
2036.21772293055
 20
1414.086641991408
 30
0.0
 11
2398.769679549599
 21
1414.086641991408
 31
0.0
  0
LINE
  5
8211
330
820C
100
AcDbEntity
  8
3
 62
     0
370
    -2
100
AcDbLine
 10
2395.169679549599
 20
1510.486641991409
 30
0.0
 11
2395.169679549599
 21
1467.686641991408
 31
0.0
  0
LINE
  5
8212
330
820C
100
AcDbEntity
  8
3
 62
     0
370
    -2
100
AcDbLine
 10
2395.169679549599
 20
1417.686641991408
 30
0.0
 11
2395.169679549599
 21
1460.486641991409
 31
0.0
  0
SOLID
  5
8213
330
820C
100
AcDbEntity
  8
3
 62
     0
100
AcDbTrace
 10
2394.569679549599
 20
1510.486641991409
 30
0.0
 11
2395.769679549599
 21
1510.486641991409
 31
0.0
 12
2395.169679549599
 22
1514.086641991409
 32
0.0
 13
2395.169679549599
 23
1514.086641991409
 33
0.0
  0
SOLID
  5
8214
330
820C
100
AcDbEntity
  8
3
 62
     0
100
AcDbTrace
 10
2394.569679549599
 20
1417.686641991408
 30
0.0
 11
2395.769679549599
 21
1417.686641991408
 31
0.0
 12
2395.169679549599
 22
1414.086641991408
 32
0.0
 13
2395.169679549599
 23
1414.086641991408
 33
0.0
  0
MTEXT
  5
8215
330
820C
100
AcDbEntity
  8
3
 62
     0
100
AcDbMText
 10
2395.169679549599
 20
1464.086641991409
 30
0.0
 40
3.599999999999999
 41
0.0
 71
     5
 72
     1
  1
\A1;100.0000
 73
     1
 44
1.0
1001
ACAD
1000
MTEXTBEGIN
1070
    73
1070
     1
1070
    44
1040
1.0
1070
    74
1070
     0
1000
MTEXTEND
  0
POINT
  5
8216
330
820C
100
AcDbEntity
  8
DEFPOINTS
 62
     0
100
AcDbPoint
 10
2034.96772293055
 20
1514.086641991409
 30
0.0
  0
POINT
  5
8217
330
820C
100
AcDbEntity
  8
DEFPOINTS
 62
     0
100
AcDbPoint
 10
2034.96772293055
 20
1414.086641991408
 30
0.0
  0
POINT
  5
8218
330
820C
100
AcDbEntity
  8
DEFPOINTS
 62
     0
100
AcDbPoint
 10
2395.169679549599
 20
1414.086641991408
 30
0.0
  0
ENDBLK
  5
820E
330
820C
100
AcDbEntity
  8
0
100
AcDbBlockEnd
  0
BLOCK
  5
821B
330
821A
100
AcDbEntity
  8
0
100
AcDbBlockBegin
  2
*D37
 70
     1
 10
0.0
 20
0.0
 30
0.0
  3
*D37
  1

  0
LINE
  5
821D
330
821A
100
AcDbEntity
  8
3
 62
     0
370
    -2
100
AcDbLine
 10
2847.832563439684
 20
1394.086641991409
 30
0.0
 11
2847.832563439684
 21
1235.619944630109
 31
0.0
  0
LINE
  5
821E
330
821A
100
AcDbEntity
  8
3
 62
     0
370
    -2
100
AcDbLine
 10
3400.832563439682
 20
1394.086641991409
 30
0.0
 11
3400.832563439682
 21
1235.619944630109
 31
0.0
  0
LINE
  5
821F
330
821A
100
AcDbEntity
  8
3
 62
     0
370
    -2
100
AcDbLine
 10
2887.832563439684
 20
1255.619944630109
 30
0.0
 11
3360.832563439682
 21
1255.619944630109
 31
0.0
  0
INSERT
  5
8220
330
821A
100
AcDbEntity
  8
3
 62
     0
370
    -2
100
AcDbBlockReference
  2
_OPEN
 10
2847.832563439684
 20
1255.619944630109
 30
0.0
 41
40.0
 42
40.0
 43
40.0
 50
180.0
  0
INSERT
  5
8221
330
821A
100
AcDbEntity
  8
3
 62
     0
370
    -2
100
AcDbBlockReference
  2
_OPEN
 10
3400.832563439682
 20
1255.619944630109
 30
0.0
 41
40.0
 42
40.0
 43
40.0
  0
MTEXT
  5
8222
330
821A
100
AcDbEntity
  8
3
 62
     0
100
AcDbMText
 10
3124.332563439683
 20
1305.619944630109
 30
0.0
 40
60.0
 41
0.0
 71
     5
 72
     1
  1
\A1;553
 73
     1
 44
1.0
1001
ACAD
1000
MTEXTBEGIN
1070
    73
1070
     1
1070
    44
1040
1.0
1070
    74
1070
     0
1000
MTEXTEND
  0
POINT
  5
8223
330
821A
100
AcDbEntity
  8
DEFPOINTS
 62
     0
100
AcDbPoint
 10
2847.832563439684
 20
1414.086641991408
 30
0.0
  0
POINT
  5
8224
330
821A
100
AcDbEntity
  8
DEFPOINTS
 62
     0
100
AcDbPoint
 10
3400.832563439682
 20
1414.086641991408
 30
0.0
  0
POINT
  5
8225
330
821A
100
AcDbEntity
  8
DEFPOINTS
 62
     0
100
AcDbPoint
 10
3400.832563439682
 20
1255.619944630109
 30
0.0
  0
ENDBLK
  5
821C
330
821A
100
AcDbEntity
  8
0
100
AcDbBlockEnd
  0
BLOCK
  5
8228
330
8227
100
AcDbEntity
  8
0
100
AcDbBlockBegin
  2
*D38
 70
     1
 10
0.0
 20
0.0
 30
0.0
  3
*D38
  1

  0
LINE
  5
822A
330
8227
100
AcDbEntity
  8
3
 62
     0
370
    -2
100
AcDbLine
 10
3400.832563439682
 20
1394.086641991409
 30
0.0
 11
3400.832563439682
 21
1235.619944630109
 31
0.0
  0
LINE
  5
822B
330
8227
100
AcDbEntity
  8
3
 62
     0
370
    -2
100
AcDbLine
 10
3853.832563439683
 20
1394.086641991409
 30
0.0
 11
3853.832563439683
 21
1235.619944630109
 31
0.0
  0
LINE
  5
822C
330
8227
100
AcDbEntity
  8
3
 62
     0
370
    -2
100
AcDbLine
 10
3440.832563439682
 20
1255.619944630109
 30
0.0
 11
3813.832563439683
 21
1255.619944630109
 31
0.0
  0
INSERT
  5
822D
330
8227
100
AcDbEntity
  8
3
 62
     0
370
    -2
100
AcDbBlockReference
  2
_OPEN
 10
3400.832563439682
 20
1255.619944630109
 30
0.0
 41
40.0
 42
40.0
 43
40.0
 50
180.0
  0
INSERT
  5
822E
330
8227
100
AcDbEntity
  8
3
 62
     0
370
    -2
100
AcDbBlockReference
  2
_OPEN
 10
3853.832563439683
 20
1255.619944630109
 30
0.0
 41
40.0
 42
40.0
 43
40.0
  0
MTEXT
  5
822F
330
8227
100
AcDbEntity
  8
3
 62
     0
100
AcDbMText
 10
3627.332563439683
 20
1305.619944630109
 30
0.0
 40
60.0
 41
0.0
 71
     5
 72
     1
  1
\A1;453
 73
     1
 44
1.0
1001
ACAD
1000
MTEXTBEGIN
1070
    73
1070
     1
1070
    44
1040
1.0
1070
    74
1070
     0
1000
MTEXTEND
  0
POINT
  5
8230
330
8227
100
AcDbEntity
  8
DEFPOINTS
 62
     0
100
AcDbPoint
 10
3400.832563439682
 20
1414.086641991408
 30
0.0
  0
POINT
  5
8231
330
8227
100
AcDbEntity
  8
DEFPOINTS
 62
     0
100
AcDbPoint
 10
3853.832563439683
 20
1414.086641991408
 30
0.0
  0
POINT
  5
8232
330
8227
100
AcDbEntity
  8
DEFPOINTS
 62
     0
100
AcDbPoint
 10
3853.832563439683
 20
1255.619944630109
 30
0.0
  0
ENDBLK
  5
8229
330
8227
100
AcDbEntity
  8
0
100
AcDbBlockEnd
  0
BLOCK
  5
8235
330
8234
100
AcDbEntity
  8
0
100
AcDbBlockBegin
  2
*D39
 70
     1
 10
0.0
 20
0.0
 30
0.0
  3
*D39
  1

  0
LINE
  5
8237
330
8234
100
AcDbEntity
  8
3
 62
     0
370
    -2
100
AcDbLine
 10
2034.96772293055
 20
1394.086641991409
 30
0.0
 11
2034.96772293055
 21
1251.454940728943
 31
0.0
  0
LINE
  5
8238
330
8234
100
AcDbEntity
  8
3
 62
     0
370
    -2
100
AcDbLine
 10
1634.967722930548
 20
1394.086641991409
 30
0.0
 11
1634.967722930548
 21
1251.454940728943
 31
0.0
  0
LINE
  5
8239
330
8234
100
AcDbEntity
  8
3
 62
     0
370
    -2
100
AcDbLine
 10
1994.96772293055
 20
1271.454940728943
 30
0.0
 11
1674.967722930549
 21
1271.454940728943
 31
0.0
  0
INSERT
  5
823A
330
8234
100
AcDbEntity
  8
3
 62
     0
370
    -2
100
AcDbBlockReference
  2
_OPEN
 10
2034.96772293055
 20
1271.454940728943
 30
0.0
 41
40.0
 42
40.0
 43
40.0
  0
INSERT
  5
823B
330
8234
100
AcDbEntity
  8
3
 62
     0
370
    -2
100
AcDbBlockReference
  2
_OPEN
 10
1634.967722930548
 20
1271.454940728943
 30
0.0
 41
40.0
 42
40.0
 43
40.0
 50
180.0
  0
MTEXT
  5
823C
330
8234
100
AcDbEntity
  8
3
 62
     0
100
AcDbMText
 10
1834.967722930549
 20
1321.454940728943
 30
0.0
 40
60.0
 41
0.0
 71
     5
 72
     1
  1
\A1;400
 73
     1
 44
1.0
1001
ACAD
1000
MTEXTBEGIN
1070
    73
1070
     1
1070
    44
1040
1.0
1070
    74
1070
     0
1000
MTEXTEND
  0
POINT
  5
823D
330
8234
100
AcDbEntity
  8
DEFPOINTS
 62
     0
100
AcDbPoint
 10
2034.96772293055
 20
1414.086641991408
 30
0.0
  0
POINT
  5
823E
330
8234
100
AcDbEntity
  8
DEFPOINTS
 62
     0
100
AcDbPoint
 10
1634.967722930548
 20
1414.086641991408
 30
0.0
  0
POINT
  5
823F
330
8234
100
AcDbEntity
  8
DEFPOINTS
 62
     0
100
AcDbPoint
 10
1634.967722930548
 20
1271.454940728943
 30
0.0
  0
ENDBLK
  5
8236
330
8234
100
AcDbEntity
  8
0
100
AcDbBlockEnd
  0
BLOCK
  5
8242
330
8241
100
AcDbEntity
  8
0
100
AcDbBlockBegin
  2
*D40
 70
     1
 10
0.0
 20
0.0
 30
0.0
  3
*D40
  1

  0
LINE
  5
8244
330
8241
100
AcDbEntity
  8
3
 62
     0
370
    -2
100
AcDbLine
 10
1634.967722930548
 20
1394.086641991409
 30
0.0
 11
1634.967722930548
 21
1251.454940728943
 31
0.0
  0
LINE
  5
8245
330
8241
100
AcDbEntity
  8
3
 62
     0
370
    -2
100
AcDbLine
 10
584.9677229305496
 20
1394.086641991409
 30
0.0
 11
584.9677229305496
 21
1251.454940728943
 31
0.0
  0
LINE
  5
8246
330
8241
100
AcDbEntity
  8
3
 62
     0
370
    -2
100
AcDbLine
 10
1594.967722930548
 20
1271.454940728943
 30
0.0
 11
624.9677229305496
 21
1271.454940728943
 31
0.0
  0
INSERT
  5
8247
330
8241
100
AcDbEntity
  8
3
 62
     0
370
    -2
100
AcDbBlockReference
  2
_OPEN
 10
1634.967722930548
 20
1271.454940728943
 30
0.0
 41
40.0
 42
40.0
 43
40.0
  0
INSERT
  5
8248
330
8241
100
AcDbEntity
  8
3
 62
     0
370
    -2
100
AcDbBlockReference
  2
_OPEN
 10
584.9677229305496
 20
1271.454940728943
 30
0.0
 41
40.0
 42
40.0
 43
40.0
 50
180.0
  0
MTEXT
  5
8249
330
8241
100
AcDbEntity
  8
3
 62
     0
100
AcDbMText
 10
1109.967722930549
 20
1321.454940728943
 30
0.0
 40
60.0
 41
0.0
 71
     5
 72
     1
  1
\A1;1050
 73
     1
 44
1.0
1001
ACAD
1000
MTEXTBEGIN
1070
    73
1070
     1
1070
    44
1040
1.0
1070
    74
1070
     0
1000
MTEXTEND
  0
POINT
  5
824A
330
8241
100
AcDbEntity
  8
DEFPOINTS
 62
     0
100
AcDbPoint
 10
1634.967722930548
 20
1414.086641991408
 30
0.0
  0
POINT
  5
824B
330
8241
100
AcDbEntity
  8
DEFPOINTS
 62
     0
100
AcDbPoint
 10
584.9677229305496
 20
1414.086641991408
 30
0.0
  0
POINT
  5
824C
330
8241
100
AcDbEntity
  8
DEFPOINTS
 62
     0
100
AcDbPoint
 10
584.9677229305496
 20
1271.454940728943
 30
0.0
  0
ENDBLK
  5
8243
330
8241
100
AcDbEntity
  8
0
100
AcDbBlockEnd
  0
BLOCK
  5
824F
330
824E
100
AcDbEntity
  8
0
100
AcDbBlockBegin
  2
*D41
 70
     1
 10
0.0
 20
0.0
 30
0.0
  3
*D41
  1

  0
LINE
  5
8405
330
824E
100
AcDbEntity
  8
3
 62
     0
370
    -2
100
AcDbLine
 10
2161.860696033545
 20
2099.086641991409
 30
0.0
 11
2414.469389051242
 21
2099.086641991409
 31
0.0
  0
LINE
  5
8406
330
824E
100
AcDbEntity
  8
3
 62
     0
370
    -2
100
AcDbLine
 10
2054.96772293055
 20
1594.086641991409
 30
0.0
 11
2414.469389051242
 21
1594.086641991409
 31
0.0
  0
LINE
  5
8407
330
824E
100
AcDbEntity
  8
3
 62
     0
370
    -2
100
AcDbLine
 10
2394.469389051242
 20
2059.086641991409
 30
0.0
 11
2394.469389051242
 21
1634.086641991408
 31
0.0
  0
INSERT
  5
8408
330
824E
100
AcDbEntity
  8
3
 62
     0
370
    -2
100
AcDbBlockReference
  2
_OPEN
 10
2394.469389051242
 20
2099.086641991409
 30
0.0
 41
40.0
 42
40.0
 43
40.0
 50
90.0
  0
INSERT
  5
8409
330
824E
100
AcDbEntity
  8
3
 62
     0
370
    -2
100
AcDbBlockReference
  2
_OPEN
 10
2394.469389051242
 20
1594.086641991409
 30
0.0
 41
40.0
 42
40.0
 43
40.0
 50
270.0
  0
MTEXT
  5
840A
330
824E
100
AcDbEntity
  8
3
 62
     0
100
AcDbMText
 10
2344.469389051241
 20
1846.586641991409
 30
0.0
 40
60.0
 41
0.0
 71
     5
 72
     1
  1
\A1;505
 11
0.0000000000000001
 21
1.0
 31
0.0
 73
     1
 44
1.0
1001
ACAD
1000
MTEXTBEGIN
1070
    73
1070
     1
1070
    44
1040
1.0
1070
    74
1070
     0
1000
MTEXTEND
  0
POINT
  5
840B
330
824E
100
AcDbEntity
  8
DEFPOINTS
 62
     0
100
AcDbPoint
 10
2141.860696033544
 20
2099.086641991409
 30
0.0
  0
POINT
  5
840C
330
824E
100
AcDbEntity
  8
DEFPOINTS
 62
     0
100
AcDbPoint
 10
2034.96772293055
 20
1594.086641991409
 30
0.0
  0
POINT
  5
840D
330
824E
100
AcDbEntity
  8
DEFPOINTS
 62
     0
100
AcDbPoint
 10
2394.469389051242
 20
1594.086641991409
 30
0.0
  0
ENDBLK
  5
8250
330
824E
100
AcDbEntity
  8
0
100
AcDbBlockEnd
  0
BLOCK
  5
825C
330
825B
100
AcDbEntity
  8
0
100
AcDbBlockBegin
  2
*D42
 70
     1
 10
0.0
 20
0.0
 30
0.0
  3
*D42
  1

  0
LINE
  5
842B
330
825B
100
AcDbEntity
  8
3
 62
     0
370
    -2
100
AcDbLine
 10
2054.96772293055
 20
1594.086641991409
 30
0.0
 11
2414.469389051242
 21
1594.086641991409
 31
0.0
  0
LINE
  5
842C
330
825B
100
AcDbEntity
  8
3
 62
     0
370
    -2
100
AcDbLine
 10
2054.96772293055
 20
1514.086641991409
 30
0.0
 11
2414.469389051242
 21
1514.086641991409
 31
0.0
  0
LINE
  5
842D
330
825B
100
AcDbEntity
  8
3
 62
     0
370
    -2
100
AcDbLine
 10
2394.469389051242
 20
1554.086641991409
 30
0.0
 11
2394.469389051242
 21
1514.086641991409
 31
0.0
  0
LINE
  5
842E
330
825B
100
AcDbEntity
  8
3
 62
     0
370
    -2
100
AcDbLine
 10
2394.469389051242
 20
1554.086641991409
 30
0.0
 11
2536.550322073411
 21
1585.428106900815
 31
0.0
  0
LINE
  5
842F
330
825B
100
AcDbEntity
  8
3
 62
     0
370
    -2
100
AcDbLine
 10
2536.550322073411
 20
1585.428106900815
 30
0.0
 11
2536.550322073411
 21
1799.71382118653
 31
0.0
  0
MTEXT
  5
8430
330
825B
100
AcDbEntity
  8
3
 62
     0
100
AcDbMText
 10
2470.836036359124
 20
1692.570964043673
 30
0.0
 40
60.0
 41
0.0
 71
     5
 72
     1
  1
\A1;(80)
 11
0.0000000000000001
 21
1.0
 31
0.0
 73
     1
 44
1.0
1001
ACAD
1000
MTEXTBEGIN
1070
    73
1070
     1
1070
    44
1040
1.0
1070
    74
1070
     0
1000
MTEXTEND
  0
INSERT
  5
8431
330
825B
100
AcDbEntity
  8
3
 62
     0
370
    -2
100
AcDbBlockReference
  2
_OPEN
 10
2394.469389051242
 20
1594.086641991409
 30
0.0
 41
40.0
 42
40.0
 43
40.0
 50
90.0
  0
INSERT
  5
8432
330
825B
100
AcDbEntity
  8
3
 62
     0
370
    -2
100
AcDbBlockReference
  2
_DotSmall
 10
2394.469389051242
 20
1514.086641991409
 30
0.0
 41
40.0
 42
40.0
 43
40.0
 50
270.0
  0
POINT
  5
8433
330
825B
100
AcDbEntity
  8
DEFPOINTS
 62
     0
100
AcDbPoint
 10
2034.96772293055
 20
1594.086641991409
 30
0.0
  0
POINT
  5
8434
330
825B
100
AcDbEntity
  8
DEFPOINTS
 62
     0
100
AcDbPoint
 10
2034.96772293055
 20
1514.086641991409
 30
0.0
  0
POINT
  5
8435
330
825B
100
AcDbEntity
  8
DEFPOINTS
 62
     0
100
AcDbPoint
 10
2394.469389051242
 20
1514.086641991409
 30
0.0
  0
ENDBLK
  5
825D
330
825B
100
AcDbEntity
  8
0
100
AcDbBlockEnd
  0
BLOCK
  5
826E
330
826D
100
AcDbEntity
  8
0
100
AcDbBlockBegin
  2
*D43
 70
     1
 10
0.0
 20
0.0
 30
0.0
  3
*D43
  1

  0
LINE
  5
8422
330
826D
100
AcDbEntity
  8
3
 62
     0
370
    -2
100
AcDbLine
 10
2054.96772293055
 20
1514.086641991409
 30
0.0
 11
2416.969389051242
 21
1514.086641991409
 31
0.0
  0
LINE
  5
8423
330
826D
100
AcDbEntity
  8
3
 62
     0
370
    -2
100
AcDbLine
 10
2054.96772293055
 20
1414.086641991408
 30
0.0
 11
2416.969389051242
 21
1414.086641991408
 31
0.0
  0
LINE
  5
8424
330
826D
100
AcDbEntity
  8
3
 62
     0
370
    -2
100
AcDbLine
 10
2396.969389051242
 20
1514.086641991409
 30
0.0
 11
2396.969389051242
 21
1454.086641991408
 31
0.0
  0
MTEXT
  5
8425
330
826D
100
AcDbEntity
  8
3
 62
     0
100
AcDbMText
 10
2348.646886974795
 20
1322.226745300175
 30
0.0
 40
60.0
 41
0.0
 71
     5
 72
     1
  1
\A1;100
 11
0.0000000000000001
 21
1.0
 31
0.0
 73
     1
 44
1.0
1001
ACAD
1000
MTEXTBEGIN
1070
    73
1070
     1
1070
    44
1040
1.0
1070
    74
1070
     0
1000
MTEXTEND
  0
INSERT
  5
8426
330
826D
100
AcDbEntity
  8
3
 62
     0
370
    -2
100
AcDbBlockReference
  2
_DotSmall
 10
2396.969389051242
 20
1514.086641991409
 30
0.0
 41
40.0
 42
40.0
 43
40.0
 50
90.0
  0
INSERT
  5
8427
330
826D
100
AcDbEntity
  8
3
 62
     0
370
    -2
100
AcDbBlockReference
  2
_OPEN
 10
2396.969389051242
 20
1414.086641991408
 30
0.0
 41
40.0
 42
40.0
 43
40.0
 50
270.0
  0
POINT
  5
8428
330
826D
100
AcDbEntity
  8
DEFPOINTS
 62
     0
100
AcDbPoint
 10
2034.96772293055
 20
1514.086641991409
 30
0.0
  0
POINT
  5
8429
330
826D
100
AcDbEntity
  8
DEFPOINTS
 62
     0
100
AcDbPoint
 10
2034.96772293055
 20
1414.086641991408
 30
0.0
  0
POINT
  5
842A
330
826D
100
AcDbEntity
  8
DEFPOINTS
 62
     0
100
AcDbPoint
 10
2396.969389051242
 20
1414.086641991408
 30
0.0
  0
ENDBLK
  5
826F
330
826D
100
AcDbEntity
  8
0
100
AcDbBlockEnd
  0
BLOCK
  5
82D4
330
82D3
100
AcDbEntity
  8
0
100
AcDbBlockBegin
  2
*D44
 70
     1
 10
0.0
 20
0.0
 30
0.0
  3
*D44
  1

  0
LINE
  5
8436
330
82D3
100
AcDbEntity
  8
3
 62
     0
370
    -2
100
AcDbLine
 10
2054.96772293055
 20
1414.086641991408
 30
0.0
 11
2576.93632375696
 21
1414.086641991408
 31
0.0
  0
LINE
  5
8437
330
82D3
100
AcDbEntity
  8
3
 62
     0
370
    -2
100
AcDbLine
 10
2114.96772293055
 20
2777.086641991409
 30
0.0
 11
2576.93632375696
 21
2777.086641991409
 31
0.0
  0
LINE
  5
8438
330
82D3
100
AcDbEntity
  8
3
 62
     0
370
    -2
100
AcDbLine
 10
2556.93632375696
 20
1454.086641991408
 30
0.0
 11
2556.93632375696
 21
2737.086641991409
 31
0.0
  0
INSERT
  5
8439
330
82D3
100
AcDbEntity
  8
3
 62
     0
370
    -2
100
AcDbBlockReference
  2
_OPEN
 10
2556.93632375696
 20
1414.086641991408
 30
0.0
 41
40.0
 42
40.0
 43
40.0
 50
270.0
  0
INSERT
  5
843A
330
82D3
100
AcDbEntity
  8
3
 62
     0
370
    -2
100
AcDbBlockReference
  2
_OPEN
 10
2556.93632375696
 20
2777.086641991409
 30
0.0
 41
40.0
 42
40.0
 43
40.0
 50
90.0
  0
MTEXT
  5
843B
330
82D3
100
AcDbEntity
  8
3
 62
     0
100
AcDbMText
 10
2491.222038042673
 20
2095.586641991409
 30
0.0
 40
60.0
 41
0.0
 71
     5
 72
     1
  1
\A1;(1363)
 11
0.0000000000000001
 21
1.0
 31
0.0
 73
     1
 44
1.0
1001
ACAD
1000
MTEXTBEGIN
1070
    73
1070
     1
1070
    44
1040
1.0
1070
    74
1070
     0
1000
MTEXTEND
  0
POINT
  5
843C
330
82D3
100
AcDbEntity
  8
DEFPOINTS
 62
     0
100
AcDbPoint
 10
2034.96772293055
 20
1414.086641991408
 30
0.0
  0
POINT
  5
843D
330
82D3
100
AcDbEntity
  8
DEFPOINTS
 62
     0
100
AcDbPoint
 10
2094.96772293055
 20
2777.086641991409
 30
0.0
  0
POINT
  5
843E
330
82D3
100
AcDbEntity
  8
DEFPOINTS
 62
     0
100
AcDbPoint
 10
2556.93632375696
 20
2777.086641991409
 30
0.0
  0
ENDBLK
  5
82D5
330
82D3
100
AcDbEntity
  8
0
100
AcDbBlockEnd
  0
BLOCK
  5
833F
330
833D
100
AcDbEntity
  8
0
100
AcDbBlockBegin
  2
_DotSmall
 70
     0
 10
0.0
 20
0.0
 30
0.0
  3
_DotSmall
  1

  0
LWPOLYLINE
  5
833E
330
833D
100
AcDbEntity
  8
0
  6
ByBlock
 62
     0
100
AcDbPolyline
 90
        2
 70
     1
 43
0.5
 10
-0.0625
 20
0.0
 42
1.0
 10
0.0625
 20
0.0
 42
1.0
  0
ENDBLK
  5
8340
330
833D
100
AcDbEntity
  8
0
100
AcDbBlockEnd
  0
BLOCK
  5
83CE
330
83CD
100
AcDbEntity
  8
0
100
AcDbBlockBegin
  2
*D46
 70
     1
 10
0.0
 20
0.0
 30
0.0
  3
*D46
  1

  0
LINE
  5
83D9
330
83CD
100
AcDbEntity
  8
3
 62
     0
370
    -2
100
AcDbLine
 10
1634.967722930548
 20
2838.719477643282
 30
0.0
 11
1634.967722930548
 21
2937.308396717435
 31
0.0
  0
LINE
  5
83DA
330
83CD
100
AcDbEntity
  8
3
 62
     0
370
    -2
100
AcDbLine
 10
1086.967722930548
 20
2166.086641991409
 30
0.0
 11
1086.967722930548
 21
2937.308396717435
 31
0.0
  0
LINE
  5
83DB
330
83CD
100
AcDbEntity
  8
3
 62
     0
370
    -2
100
AcDbLine
 10
1594.967722930548
 20
2917.308396717436
 30
0.0
 11
1126.967722930548
 21
2917.308396717436
 31
0.0
  0
INSERT
  5
83DC
330
83CD
100
AcDbEntity
  8
3
 62
     0
370
    -2
100
AcDbBlockReference
  2
_OPEN
 10
1634.967722930548
 20
2917.308396717436
 30
0.0
 41
40.0
 42
40.0
 43
40.0
  0
INSERT
  5
83DD
330
83CD
100
AcDbEntity
  8
3
 62
     0
370
    -2
100
AcDbBlockReference
  2
_OPEN
 10
1086.967722930548
 20
2917.308396717436
 30
0.0
 41
40.0
 42
40.0
 43
40.0
 50
180.0
  0
MTEXT
  5
83DE
330
83CD
100
AcDbEntity
  8
3
 62
     0
100
AcDbMText
 10
1360.967722930549
 20
2967.308396717435
 30
0.0
 40
60.0
 41
0.0
 71
     5
 72
     1
  1
\A1;548
 73
     1
 44
1.0
1001
ACAD
1000
MTEXTBEGIN
1070
    73
1070
     1
1070
    44
1040
1.0
1070
    74
1070
     0
1000
MTEXTEND
  0
POINT
  5
83DF
330
83CD
100
AcDbEntity
  8
DEFPOINTS
 62
     0
100
AcDbPoint
 10
1634.967722930548
 20
2818.719477643282
 30
0.0
  0
POINT
  5
83E0
330
83CD
100
AcDbEntity
  8
DEFPOINTS
 62
     0
100
AcDbPoint
 10
1086.967722930548
 20
2146.086641991409
 30
0.0
  0
POINT
  5
83E1
330
83CD
100
AcDbEntity
  8
DEFPOINTS
 62
     0
100
AcDbPoint
 10
1086.967722930548
 20
2917.308396717436
 30
0.0
  0
ENDBLK
  5
83CF
330
83CD
100
AcDbEntity
  8
0
100
AcDbBlockEnd
  0
BLOCK
  5
83E4
330
83E3
100
AcDbEntity
  8
0
100
AcDbBlockBegin
  2
*D47
 70
     1
 10
0.0
 20
0.0
 30
0.0
  3
*D47
  1

  0
LINE
  5
83E6
330
83E3
100
AcDbEntity
  8
3
 62
     0
370
    -2
100
AcDbLine
 10
584.9677229305496
 20
3458.312742094977
 30
0.0
 11
584.9677229305496
 21
3131.915657917891
 31
0.0
  0
LINE
  5
83E7
330
83E3
100
AcDbEntity
  8
3
 62
     0
370
    -2
100
AcDbLine
 10
2034.96772293055
 20
3458.312742094977
 30
0.0
 11
2034.96772293055
 21
3131.915657917891
 31
0.0
  0
LINE
  5
83E8
330
83E3
100
AcDbEntity
  8
3
 62
     0
370
    -2
100
AcDbLine
 10
624.9677229305496
 20
3151.915657917891
 30
0.0
 11
1994.96772293055
 21
3151.915657917891
 31
0.0
  0
INSERT
  5
83E9
330
83E3
100
AcDbEntity
  8
3
 62
     0
370
    -2
100
AcDbBlockReference
  2
_OPEN
 10
584.9677229305496
 20
3151.915657917891
 30
0.0
 41
40.0
 42
40.0
 43
40.0
 50
180.0
  0
INSERT
  5
83EA
330
83E3
100
AcDbEntity
  8
3
 62
     0
370
    -2
100
AcDbBlockReference
  2
_OPEN
 10
2034.96772293055
 20
3151.915657917891
 30
0.0
 41
40.0
 42
40.0
 43
40.0
  0
MTEXT
  5
83EB
330
83E3
100
AcDbEntity
  8
3
 62
     0
100
AcDbMText
 10
1309.96772293055
 20
3201.91565791789
 30
0.0
 40
60.0
 41
0.0
 71
     5
 72
     1
  1
\A1;1450
 73
     1
 44
1.0
1001
ACAD
1000
MTEXTBEGIN
1070
    73
1070
     1
1070
    44
1040
1.0
1070
    74
1070
     0
1000
MTEXTEND
  0
POINT
  5
83EC
330
83E3
100
AcDbEntity
  8
DEFPOINTS
 62
     0
100
AcDbPoint
 10
584.9677229305496
 20
3478.312742094976
 30
0.0
  0
POINT
  5
83ED
330
83E3
100
AcDbEntity
  8
DEFPOINTS
 62
     0
100
AcDbPoint
 10
2034.96772293055
 20
3478.312742094977
 30
0.0
  0
POINT
  5
83EE
330
83E3
100
AcDbEntity
  8
DEFPOINTS
 62
     0
100
AcDbPoint
 10
2034.96772293055
 20
3151.915657917891
 30
0.0
  0
ENDBLK
  5
83E5
330
83E3
100
AcDbEntity
  8
0
100
AcDbBlockEnd
  0
BLOCK
  5
83F1
330
83F0
100
AcDbEntity
  8
0
100
AcDbBlockBegin
  2
*D48
 70
     1
 10
0.0
 20
0.0
 30
0.0
  3
*D48
  1

  0
LINE
  5
83FC
330
83F0
100
AcDbEntity
  8
3
 62
     0
370
    -2
100
AcDbLine
 10
584.9677229305496
 20
4098.312742094977
 30
0.0
 11
584.9677229305496
 21
4652.918032593382
 31
0.0
  0
LINE
  5
83FD
330
83F0
100
AcDbEntity
  8
3
 62
     0
370
    -2
100
AcDbLine
 10
1234.96772293055
 20
4504.312742094978
 30
0.0
 11
1234.96772293055
 21
4652.918032593382
 31
0.0
  0
LINE
  5
83FE
330
83F0
100
AcDbEntity
  8
3
 62
     0
370
    -2
100
AcDbLine
 10
624.9677229305496
 20
4632.918032593383
 30
0.0
 11
1194.96772293055
 21
4632.918032593383
 31
0.0
  0
INSERT
  5
83FF
330
83F0
100
AcDbEntity
  8
3
 62
     0
370
    -2
100
AcDbBlockReference
  2
_OPEN
 10
584.9677229305496
 20
4632.918032593383
 30
0.0
 41
40.0
 42
40.0
 43
40.0
 50
180.0
  0
INSERT
  5
8400
330
83F0
100
AcDbEntity
  8
3
 62
     0
370
    -2
100
AcDbBlockReference
  2
_OPEN
 10
1234.96772293055
 20
4632.918032593383
 30
0.0
 41
40.0
 42
40.0
 43
40.0
  0
MTEXT
  5
8401
330
83F0
100
AcDbEntity
  8
3
 62
     0
100
AcDbMText
 10
909.9677229305497
 20
4682.918032593383
 30
0.0
 40
60.0
 41
0.0
 71
     5
 72
     1
  1
\A1;650
 73
     1
 44
1.0
1001
ACAD
1000
MTEXTBEGIN
1070
    73
1070
     1
1070
    44
1040
1.0
1070
    74
1070
     0
1000
MTEXTEND
  0
POINT
  5
8402
330
83F0
100
AcDbEntity
  8
DEFPOINTS
 62
     0
100
AcDbPoint
 10
584.9677229305496
 20
4078.312742094976
 30
0.0
  0
POINT
  5
8403
330
83F0
100
AcDbEntity
  8
DEFPOINTS
 62
     0
100
AcDbPoint
 10
1234.96772293055
 20
4484.312742094977
 30
0.0
  0
POINT
  5
8404
330
83F0
100
AcDbEntity
  8
DEFPOINTS
 62
     0
100
AcDbPoint
 10
1234.96772293055
 20
4632.918032593383
 30
0.0
  0
ENDBLK
  5
83F2
330
83F0
100
AcDbEntity
  8
0
100
AcDbBlockEnd
  0
ENDSEC
  0
SECTION
  2
ENTITIES
  0
INSERT
  5
7BED
330
810F
100
AcDbEntity
  8
0
100
AcDbBlockReference
  2
YA_N
 10
6.0
 20
5.0
 30
0.0
  0
LINE
  5
7BEF
330
810F
100
AcDbEntity
  8
2
100
AcDbLine
 10
1023.713980624623
 20
2099.086641991409
 30
0.0
 11
2141.860696033544
 21
2099.086641991409
 31
0.0
  0
LINE
  5
7BF0
330
810F
100
AcDbEntity
  8
2
100
AcDbLine
 10
1634.967722930548
 20
2818.719477643282
 30
0.0
 11
1634.967722930548
 21
1414.086641991408
 31
0.0
  0
ARC
  5
7BF1
330
810F
100
AcDbEntity
  8
1
100
AcDbCircle
 10
1681.967722930548
 20
2146.086641991409
 30
0.0
 40
595.0
100
AcDbArc
 50
94.53060504268261
 51
184.5306050426826
  0
ARC
  5
7BF2
330
810F
100
AcDbEntity
  8
1
100
AcDbCircle
 10
1587.967722930549
 20
2146.086641991409
 30
0.0
 40
501.0
100
AcDbArc
 50
185.3829686498812
 51
244.448188039322
  0
ARC
  5
7BF3
330
810F
100
AcDbEntity
  8
1
100
AcDbCircle
 10
1596.967722930549
 20
2061.086641991408
 30
0.0
 40
416.0
100
AcDbArc
 50
298.0896983689055
 51
5.241055061296706
  0
LINE
  5
7BF4
330
810F
100
AcDbEntity
  8
1
100
AcDbLine
 10
2094.96772293055
 20
2819.086641991409
 30
0.0
 11
2094.96772293055
 21
2085.086641991409
 31
0.0
  0
LINE
  5
7BF5
330
810F
100
AcDbEntity
  8
1
100
AcDbLine
 10
2094.96772293055
 20
2777.086641991409
 30
0.0
 11
1634.967722930548
 21
2739.227434721094
 31
0.0
  0
LINE
  5
7BF6
330
810F
100
AcDbEntity
  8
1
100
AcDbLine
 10
2011.929259429965
 20
2127.086641991409
 30
0.0
 11
2094.96772293055
 21
2127.086641991409
 31
0.0
  0
LINE
  5
7BF7
330
810F
100
AcDbEntity
  8
1
100
AcDbLine
 10
2054.96772293055
 20
2773.794537011382
 30
0.0
 11
2054.96772293055
 21
2127.086641991409
 31
0.0
  0
LINE
  5
7BF8
330
810F
100
AcDbEntity
  8
1
100
AcDbLine
 10
2091.967722930549
 20
2819.086641991409
 30
0.0
 11
2094.96772293055
 21
2819.086641991409
 31
0.0
  0
LINE
  5
7BF9
330
810F
100
AcDbEntity
  8
1
100
AcDbLine
 10
2091.967722930549
 20
2085.086641991409
 30
0.0
 11
2094.96772293055
 21
2085.086641991409
 31
0.0
  0
LINE
  5
7BFA
330
810F
100
AcDbEntity
  8
1
100
AcDbLine
 10
2091.967722930549
 20
2819.086641991409
 30
0.0
 11
2091.967722930549
 21
2085.086641991409
 31
0.0
  0
LINE
  5
7BFB
330
810F
100
AcDbEntity
  8
2
100
AcDbLine
 10
3400.832563439682
 20
2897.69719823233
 30
0.0
 11
3400.832563439682
 21
1414.086641991408
 31
0.0
  0
LINE
  5
7BFC
330
810F
100
AcDbEntity
  8
2
100
AcDbLine
 10
2618.832563439682
 20
2099.086641991409
 30
0.0
 11
3906.504238061832
 21
2099.086641991409
 31
0.0
  0
LINE
  5
7BFD
330
810F
100
AcDbEntity
  8
1
100
AcDbLine
 10
3853.832563439683
 20
1694.086641991409
 30
0.0
 11
3853.832563439683
 21
1688.616510778223
 31
0.0
  0
LINE
  5
7BFE
330
810F
100
AcDbEntity
  8
1
100
AcDbLine
 10
3800.832563439683
 20
2777.086641991409
 30
0.0
 11
3800.832563439683
 21
2127.086641991409
 31
0.0
  0
LINE
  5
7BFF
330
810F
100
AcDbEntity
  8
1
100
AcDbLine
 10
3000.832563439681
 20
2777.086641991409
 30
0.0
 11
3800.832563439683
 21
2777.086641991409
 31
0.0
  0
LINE
  5
7C00
330
810F
100
AcDbEntity
  8
1
100
AcDbLine
 10
3000.832563439682
 20
2127.086641991409
 30
0.0
 11
3800.832563439683
 21
2127.086641991409
 31
0.0
  0
LINE
  5
7C01
330
810F
100
AcDbEntity
  8
1
100
AcDbLine
 10
3800.832563439683
 20
2127.086641991409
 30
0.0
 11
3800.832563439683
 21
1694.086641991409
 31
0.0
  0
LINE
  5
7C02
330
810F
100
AcDbEntity
  8
2
100
AcDbLine
 10
1634.967722930548
 20
4512.1108285998
 30
0.0
 11
1634.967722930548
 21
3227.759458823282
 31
0.0
  0
LINE
  5
7C03
330
810F
100
AcDbEntity
  8
2
100
AcDbLine
 10
1033.119873231731
 20
4031.312742094977
 30
0.0
 11
2144.478257614373
 21
4031.312742094978
 31
0.0
  0
INSERT
  5
7C04
330
810F
100
AcDbEntity
  8
0
100
AcDbBlockReference
  2
YA_N
 10
-1221.011981710642
 20
-542.7332483964637
 30
0.0
 41
15.0
 42
15.0
 43
15.0
  0
LINE
  5
7C06
330
810F
100
AcDbEntity
  8
1
100
AcDbLine
 10
584.9677229305496
 20
1414.086641991408
 30
0.0
 11
2034.96772293055
 21
1414.086641991408
 31
0.0
  0
LINE
  5
7C07
330
810F
100
AcDbEntity
  8
1
100
AcDbLine
 10
584.9677229305496
 20
1514.086641991409
 30
0.0
 11
2034.96772293055
 21
1514.086641991409
 31
0.0
1001
ACAD
1000
ASC_BOUNDS
1002
{
1070
    19
1005
0
1005
0
1002
}
  0
LINE
  5
7C08
330
810F
100
AcDbEntity
  8
1
100
AcDbLine
 10
584.9677229305496
 20
1514.086641991409
 30
0.0
 11
584.9677229305496
 21
1414.086641991408
 31
0.0
  0
LINE
  5
7C09
330
810F
100
AcDbEntity
  8
1
100
AcDbLine
 10
2034.96772293055
 20
1514.086641991409
 30
0.0
 11
2034.96772293055
 21
1414.086641991408
 31
0.0
  0
ARC
  5
7C0A
330
810F
100
AcDbEntity
  8
1
100
AcDbCircle
 10
784.9677229305498
 20
1911.086641991408
 30
0.0
 40
142.5
100
AcDbArc
 50
326.966192328012
 51
0.0
  0
ARC
  5
7C0B
330
810F
100
AcDbEntity
  8
1
100
AcDbCircle
 10
784.9677229305498
 20
1911.086641991408
 30
0.0
 40
142.5
100
AcDbArc
 50
0.0
 51
213.0338683823617
  0
LINE
  5
7C0C
330
810F
100
AcDbEntity
  8
2
100
AcDbLine
 10
784.9677229305498
 20
2072.685383108668
 30
0.0
 11
784.9677229305498
 21
1414.086641991408
 31
0.0
  0
LINE
  5
7C0D
330
810F
100
AcDbEntity
  8
1
100
AcDbLine
 10
665.5030649216269
 20
1833.404948608661
 30
0.0
 11
654.9677229305498
 21
1794.086641991408
 31
0.0
  0
LINE
  5
7C0E
330
810F
100
AcDbEntity
  8
1
100
AcDbLine
 10
654.9677229305498
 20
1793.889241991409
 30
0.0
 11
654.9677229305498
 21
1779.086641991409
 31
0.0
  0
LINE
  5
7C0F
330
810F
100
AcDbEntity
  8
1
100
AcDbLine
 10
904.4324632506103
 20
1833.405075192969
 30
0.0
 11
914.9677229305495
 21
1794.086641991408
 31
0.0
  0
LINE
  5
7C10
330
810F
100
AcDbEntity
  8
1
100
AcDbLine
 10
914.9677229305495
 20
1793.889241991409
 30
0.0
 11
914.9677229305495
 21
1779.086641991409
 31
0.0
  0
LINE
  5
7C11
330
810F
100
AcDbEntity
  8
2
100
AcDbLine
 10
614.4301581149594
 20
1911.086641991408
 30
0.0
 11
953.4684884562102
 21
1911.086641991408
 31
0.0
  0
LINE
  5
7C12
330
810F
100
AcDbEntity
  8
1
100
AcDbLine
 10
984.9677229305498
 20
1734.086641991408
 30
0.0
 11
984.9677229305498
 21
1694.086641991409
 31
0.0
  0
LINE
  5
7C13
330
810F
100
AcDbEntity
  8
1
100
AcDbLine
 10
584.9677229305496
 20
1734.086641991408
 30
0.0
 11
584.9677229305496
 21
1694.086641991409
 31
0.0
  0
LINE
  5
7C14
330
810F
100
AcDbEntity
  8
1
100
AcDbLine
 10
584.9677229305496
 20
1734.086641991408
 30
0.0
 11
984.9677229305498
 21
1734.086641991408
 31
0.0
  0
LINE
  5
7C15
330
810F
100
AcDbEntity
  8
1
100
AcDbLine
 10
621.1320663167551
 20
1779.086641991409
 30
0.0
 11
947.5902343218766
 21
1779.086641991409
 31
0.0
  0
LINE
  5
7C16
330
810F
100
AcDbEntity
  8
1
100
AcDbLine
 10
609.9677229305498
 20
1734.086641991408
 30
0.0
 11
621.1320663167551
 21
1779.086641991409
 31
0.0
  0
LINE
  5
7C17
330
810F
100
AcDbEntity
  8
1
100
AcDbLine
 10
959.9677229305498
 20
1734.086641991408
 30
0.0
 11
947.5902343218766
 21
1779.086641991409
 31
0.0
  0
LINE
  5
7C18
330
810F
100
AcDbEntity
  8
1
100
AcDbLine
 10
2847.832563439684
 20
1514.086641991409
 30
0.0
 11
3853.832563439683
 21
1514.086641991409
 31
0.0
1001
ACAD
1000
ASC_BOUNDS
1002
{
1070
    19
1002
}
  0
LINE
  5
7C19
330
810F
100
AcDbEntity
  8
1
100
AcDbLine
 10
2847.832563439684
 20
1414.086641991408
 30
0.0
 11
3853.832563439683
 21
1414.086641991408
 31
0.0
  0
LINE
  5
7C1A
330
810F
100
AcDbEntity
  8
1
100
AcDbLine
 10
2847.832563439684
 20
1514.086641991409
 30
0.0
 11
2847.832563439684
 21
1414.086641991408
 31
0.0
  0
LINE
  5
7C1B
330
810F
100
AcDbEntity
  8
1
100
AcDbLine
 10
3853.832563439683
 20
1514.086641991409
 30
0.0
 11
3853.832563439683
 21
1414.086641991408
 31
0.0
  0
DIMENSION
  5
7C1D
330
810F
100
AcDbEntity
  8
3
100
AcDbDimension
  2
*D5
 10
2244.925544847559
 20
2127.086641991409
 30
0.0
 11
2204.925544847559
 21
2452.086641991409
 31
0.0
 12
1055.31472653631
 22
1530.989015541288
 32
0.0
 71
     5
 42
-1.0
  3
Standard
100
AcDbAlignedDimension
 13
2094.96772293055
 23
2777.086641991409
 33
0.0
 14
2094.96772293055
 24
2127.086641991409
 34
0.0
 50
90.0
100
AcDbRotatedDimension
1001
ACAD
1000
DSTYLE
1002
{
1070
    40
1040
20.0
1002
}
  0
DIMENSION
  5
7C1E
330
810F
100
AcDbEntity
  8
3
100
AcDbDimension
  2
*D6
 10
2394.469389051242
 20
2099.086641991409
 30
0.0
 11
2354.469389051242
 21
2438.08664199141
 31
0.0
 12
1055.31472653631
 22
1530.989015541288
 32
0.0
 71
     5
 42
-1.0
  3
Standard
100
AcDbAlignedDimension
 13
2094.96772293055
 23
2777.086641991409
 33
0.0
 14
2141.860696033544
 24
2099.086641991409
 34
0.0
 50
90.0
100
AcDbRotatedDimension
1001
ACAD
1000
DSTYLE
1002
{
1070
    40
1040
20.0
1002
}
  0
POINT
  5
7C1F
330
810F
100
AcDbEntity
  8
1
100
AcDbPoint
 10
2034.96772293055
 20
1414.086641991408
 30
0.0
  0
DIMENSION
  5
7C20
330
810F
100
AcDbEntity
  8
3
100
AcDbDimension
  2
*D7
 10
1634.967722930548
 20
2917.308396717436
 30
0.0
 11
1864.96772293055
 21
2957.308396717435
 31
0.0
 12
221.7783565799109
 22
0.0
 32
0.0
 71
     5
 42
-1.0
  3
Standard
100
AcDbAlignedDimension
 13
2094.96772293055
 23
2819.086641991409
 33
0.0
 14
1634.967722930548
 24
2818.719477643282
 34
0.0
100
AcDbRotatedDimension
1001
ACAD
1000
DSTYLE
1002
{
1070
    40
1040
20.0
1002
}
  0
LINE
  5
7C22
330
810F
100
AcDbEntity
  8
2
100
AcDbLine
 10
2618.832563439682
 20
1911.086641991408
 30
0.0
 11
3000.832563439682
 21
1911.086641991408
 31
0.0
  0
LINE
  5
7C24
330
810F
100
AcDbEntity
  8
1
100
AcDbLine
 10
3000.832563439682
 20
2777.086641991409
 30
0.0
 11
3000.832563439682
 21
2127.086641991409
 31
0.0
  0
LINE
  5
7C25
330
810F
100
AcDbEntity
  8
1
100
AcDbLine
 10
3000.832563439682
 20
2127.086641991409
 30
0.0
 11
3000.832563439682
 21
1694.086641991409
 31
0.0
  0
LINE
  5
7C26
330
810F
100
AcDbEntity
  8
1
100
AcDbLine
 10
3910.832563439683
 20
2069.086641991408
 30
0.0
 11
3910.832563439683
 21
1969.086641991408
 31
0.0
  0
ARC
  5
7C27
330
810F
100
AcDbEntity
  8
1
100
AcDbCircle
 10
3900.832563439683
 20
2069.086641991408
 30
0.0
 40
10.0
100
AcDbArc
 50
0.0
 51
90.0
  0
ARC
  5
7C28
330
810F
100
AcDbEntity
  8
1
100
AcDbCircle
 10
3900.832563439683
 20
1969.086641991408
 30
0.0
 40
10.0
100
AcDbArc
 50
270.0
 51
0.0
  0
LINE
  5
7C29
330
810F
100
AcDbEntity
  8
1
100
AcDbLine
 10
3800.832563439683
 20
1959.086641991408
 30
0.0
 11
3900.832563439683
 21
1959.086641991408
 31
0.0
  0
LINE
  5
7C2A
330
810F
100
AcDbEntity
  8
1
100
AcDbLine
 10
3800.832563439683
 20
2079.086641991409
 30
0.0
 11
3900.832563439683
 21
2079.086641991409
 31
0.0
  0
CIRCLE
  5
7C2B
330
810F
100
AcDbEntity
  8
1
100
AcDbCircle
 10
784.9677229305498
 20
1911.086641991408
 30
0.0
 40
79.0
  0
CIRCLE
  5
7C2C
330
810F
100
AcDbEntity
  8
1
100
AcDbCircle
 10
1634.967722930548
 20
2099.086641991409
 30
0.0
 40
88.9
  0
ARC
  5
7C2D
330
810F
100
AcDbEntity
  8
1
100
AcDbCircle
 10
1634.967722930548
 20
2099.086641991409
 30
0.0
 40
150.0
100
AcDbArc
 50
282.4716975566092
 51
102.4716975566092
  0
ARC
  5
7C2E
330
810F
100
AcDbEntity
  8
1
100
AcDbCircle
 10
784.9677229305498
 20
1911.086641991408
 30
0.0
 40
150.0
100
AcDbArc
 50
102.4716975566092
 51
282.4716975566092
  0
LINE
  5
7C2F
330
810F
100
AcDbEntity
  8
1
100
AcDbLine
 10
1602.57412405925
 20
2245.547062420156
 30
0.0
 11
752.5741240592505
 21
2057.547062420156
 31
0.0
  0
LINE
  5
7C30
330
810F
100
AcDbEntity
  8
1
100
AcDbLine
 10
1614.783224263661
 20
2185.66490724064
 30
0.0
 11
767.0309918317398
 21
1988.023458129646
 31
0.0
  0
LINE
  5
7C31
330
810F
100
AcDbEntity
  8
1
100
AcDbLine
 10
1653.177953806178
 20
2012.07171516011
 30
0.0
 11
801.1500428312769
 21
1833.761791376417
 31
0.0
  0
LINE
  5
7C32
330
810F
100
AcDbEntity
  8
1
100
AcDbLine
 10
1667.361321801849
 20
1952.626221562661
 30
0.0
 11
817.3613218018489
 21
1764.626221562662
 31
0.0
  0
LINE
  5
7C33
330
810F
100
AcDbEntity
  8
1
100
AcDbLine
 10
2748.832563439683
 20
2187.986641991409
 30
0.0
 11
2748.832563439682
 21
2010.186641991409
 31
0.0
  0
LINE
  5
7C34
330
810F
100
AcDbEntity
  8
1
100
AcDbLine
 10
2830.832563439683
 20
2187.986641991409
 30
0.0
 11
2830.832563439682
 21
2010.186641991409
 31
0.0
  0
LINE
  5
7C35
330
810F
100
AcDbEntity
  8
1
100
AcDbLine
 10
2748.832563439683
 20
2187.986641991409
 30
0.0
 11
2830.832563439683
 21
2187.986641991409
 31
0.0
  0
LINE
  5
7C36
330
810F
100
AcDbEntity
  8
1
100
AcDbLine
 10
2748.832563439682
 20
2010.186641991409
 30
0.0
 11
2830.832563439682
 21
2010.186641991409
 31
0.0
  0
LINE
  5
7C37
330
810F
100
AcDbEntity
  8
1
100
AcDbLine
 10
2748.832563439682
 20
1990.086641991409
 30
0.0
 11
2830.832563439682
 21
1990.086641991409
 31
0.0
  0
LINE
  5
7C38
330
810F
100
AcDbEntity
  8
1
100
AcDbLine
 10
2748.832563439681
 20
1832.086641991408
 30
0.0
 11
2830.832563439681
 21
1832.086641991408
 31
0.0
  0
LINE
  5
7C39
330
810F
100
AcDbEntity
  8
1
100
AcDbLine
 10
2620.832563439683
 20
2249.086641991409
 30
0.0
 11
2620.832563439681
 21
1761.086641991408
 31
0.0
  0
LINE
  5
7C3A
330
810F
100
AcDbEntity
  8
1
100
AcDbLine
 10
2880.832563439684
 20
2249.086641991409
 30
0.0
 11
2880.832563439684
 21
2229.086641991409
 31
0.0
  0
LINE
  5
7C3B
330
810F
100
AcDbEntity
  8
1
100
AcDbLine
 10
2620.832563439683
 20
2249.086641991409
 30
0.0
 11
2880.832563439684
 21
2249.086641991409
 31
0.0
  0
LINE
  5
7C3C
330
810F
100
AcDbEntity
  8
1
100
AcDbLine
 10
2620.832563439681
 20
1761.086641991408
 30
0.0
 11
2880.83256343968
 21
1761.086641991408
 31
0.0
  0
LINE
  5
7C3D
330
810F
100
AcDbEntity
  8
1
100
AcDbLine
 10
2880.83256343968
 20
1768.586641991409
 30
0.0
 11
2880.83256343968
 21
1761.086641991408
 31
0.0
  0
LINE
  5
7C3E
330
810F
100
AcDbEntity
  8
1
100
AcDbLine
 10
1234.96772293055
 20
4484.312742094977
 30
0.0
 11
2034.96772293055
 21
4484.312742094977
 31
0.0
  0
LINE
  5
7C3F
330
810F
100
AcDbEntity
  8
1
100
AcDbLine
 10
584.9677229305496
 20
3478.312742094976
 30
0.0
 11
2034.96772293055
 21
3478.312742094977
 31
0.0
  0
LINE
  5
7C40
330
810F
100
AcDbEntity
  8
1
100
AcDbLine
 10
2034.96772293055
 20
4484.312742094977
 30
0.0
 11
2034.96772293055
 21
4431.312742094979
 31
0.0
  0
LINE
  5
7C41
330
810F
100
AcDbEntity
  8
1
100
AcDbLine
 10
1234.96772293055
 20
4484.312742094977
 30
0.0
 11
1234.96772293055
 21
4431.312742094976
 31
0.0
  0
LINE
  5
7C42
330
810F
100
AcDbEntity
  8
1
100
AcDbLine
 10
584.9677229305496
 20
4078.312742094976
 30
0.0
 11
584.9677229305496
 21
3478.312742094976
 31
0.0
  0
LINE
  5
7C43
330
810F
100
AcDbEntity
  8
1
100
AcDbLine
 10
584.9677229305496
 20
4078.312742094976
 30
0.0
 11
1086.967722930548
 21
4078.312742094976
 31
0.0
  0
POINT
  5
7C45
330
810F
100
AcDbEntity
  8
1
100
AcDbPoint
 10
2034.96772293055
 20
1514.086641991409
 30
0.0
  0
POINT
  5
7C46
330
810F
100
AcDbEntity
  8
1
100
AcDbPoint
 10
2034.96772293055
 20
1414.086641991408
 30
0.0
  0
POINT
  5
7C47
330
810F
100
AcDbEntity
  8
1
100
AcDbPoint
 10
2034.96772293055
 20
1514.086641991409
 30
0.0
  0
DIMENSION
  5
7C48
330
810F
100
AcDbEntity
  8
3
100
AcDbDimension
  2
*D10
 10
4054.369597010347
 20
1764.086641991409
 30
0.0
 11
4014.369597010347
 21
2099.086641991409
 31
0.0
 12
833.5363699564004
 22
1530.989015541288
 32
0.0
 71
     5
 42
-1.0
  3
Standard
100
AcDbAlignedDimension
 13
3806.332563439683
 23
2434.08664199141
 33
0.0
 14
3806.332563439683
 24
1764.086641991409
 34
0.0
 50
90.0
100
AcDbRotatedDimension
1001
ACAD
1000
DSTYLE
1002
{
1070
    40
1040
20.0
1070
     3
1000
\U+03C6<>
1002
}
  0
DIMENSION
  5
7C4B
330
810F
100
AcDbEntity
  8
3
100
AcDbDimension
  2
*D11
 10
3800.832563439683
 20
2914.169340590402
 30
0.0
 11
3400.832563439682
 21
2954.169340590402
 31
0.0
 71
     5
 42
-1.0
  3
Standard
100
AcDbAlignedDimension
 13
3000.832563439682
 23
2777.086641991409
 33
0.0
 14
3800.832563439683
 24
2777.086641991409
 34
0.0
100
AcDbRotatedDimension
1001
ACAD
1000
DSTYLE
1002
{
1070
    40
1040
20.0
1002
}
  0
ARC
  5
7C4C
330
810F
100
AcDbEntity
  8
1
100
AcDbCircle
 10
2908.332563439682
 20
2065.886641991408
 30
0.0
 40
10.0
100
AcDbArc
 50
90.0
 51
180.0
  0
ARC
  5
7C4D
330
810F
100
AcDbEntity
  8
1
100
AcDbCircle
 10
2908.332563439682
 20
1965.886641991408
 30
0.0
 40
10.0
100
AcDbArc
 50
180.0
 51
270.0
  0
LINE
  5
7C4E
330
810F
100
AcDbEntity
  8
1
100
AcDbLine
 10
3000.832563439682
 20
1955.886641991408
 30
0.0
 11
2908.332563439682
 21
1955.886641991408
 31
0.0
  0
LINE
  5
7C4F
330
810F
100
AcDbEntity
  8
1
100
AcDbLine
 10
3000.832563439682
 20
2075.886641991409
 30
0.0
 11
2908.332563439682
 21
2075.886641991409
 31
0.0
  0
LINE
  5
7C50
330
810F
100
AcDbEntity
  8
1
100
AcDbLine
 10
2898.332563439682
 20
2065.886641991408
 30
0.0
 11
2898.332563439682
 21
1965.886641991408
 31
0.0
  0
LINE
  5
7C51
330
810F
100
AcDbEntity
  8
1
100
AcDbLine
 10
2830.832563439682
 20
2074.086641991409
 30
0.0
 11
2902.732563439682
 21
2074.086641991409
 31
0.0
  0
LINE
  5
7C53
330
810F
100
AcDbEntity
  8
1
100
AcDbLine
 10
2034.96772293055
 20
1694.086641991409
 30
0.0
 11
2034.96772293055
 21
1594.086641991409
 31
0.0
  0
LINE
  5
7C54
330
810F
100
AcDbEntity
  8
1
100
AcDbLine
 10
584.9677229305496
 20
1694.086641991409
 30
0.0
 11
2034.96772293055
 21
1694.086641991409
 31
0.0
1001
ACAD
1000
ASC_BOUNDS
1002
{
1070
    19
1005
0
1005
0
1002
}
  0
LINE
  5
7C55
330
810F
100
AcDbEntity
  8
1
100
AcDbLine
 10
584.9677229305496
 20
1594.086641991409
 30
0.0
 11
2034.96772293055
 21
1594.086641991409
 31
0.0
  0
LINE
  5
7C56
330
810F
100
AcDbEntity
  8
1
100
AcDbLine
 10
584.9677229305496
 20
1694.086641991409
 30
0.0
 11
584.9677229305496
 21
1594.086641991409
 31
0.0
  0
LINE
  5
7C57
330
810F
100
AcDbEntity
  8
1
100
AcDbLine
 10
2847.832563439684
 20
1694.086641991409
 30
0.0
 11
3853.132563439683
 21
1694.086641991409
 31
0.0
1001
ACAD
1000
ASC_BOUNDS
1002
{
1070
    19
1002
}
  0
LINE
  5
7C58
330
810F
100
AcDbEntity
  8
1
100
AcDbLine
 10
2847.832563439684
 20
1694.086641991409
 30
0.0
 11
2847.832563439684
 21
1594.086641991409
 31
0.0
  0
LINE
  5
7C59
330
810F
100
AcDbEntity
  8
1
100
AcDbLine
 10
2847.832563439684
 20
1594.086641991409
 30
0.0
 11
3853.832563439683
 21
1594.086641991409
 31
0.0
  0
LINE
  5
7C5A
330
810F
100
AcDbEntity
  8
1
100
AcDbLine
 10
3853.832563439683
 20
1694.086641991409
 30
0.0
 11
3853.832563439683
 21
1594.086641991409
 31
0.0
  0
ARC
  5
7C5B
330
810F
100
AcDbEntity
  8
1
100
AcDbCircle
 10
1634.967722930548
 20
2099.086641991409
 30
0.0
 40
378.0
100
AcDbArc
 50
0.0
 51
4.248022666728545
  0
LINE
  5
7C5C
330
810F
100
AcDbEntity
  8
1
100
AcDbLine
 10
1086.967722930548
 20
4431.312742094976
 30
0.0
 11
2094.96772293055
 21
4431.312742094979
 31
0.0
  0
LINE
  5
7C5D
330
810F
100
AcDbEntity
  8
1
100
AcDbLine
 10
1086.967722930548
 20
3631.312742094977
 30
0.0
 11
2094.96772293055
 21
3631.312742094977
 31
0.0
  0
LINE
  5
7C5E
330
810F
100
AcDbEntity
  8
1
100
AcDbLine
 10
2094.96772293055
 20
4471.312742094979
 30
0.0
 11
2094.96772293055
 21
3591.312742094977
 31
0.0
  0
LINE
  5
7C5F
330
810F
100
AcDbEntity
  8
1
100
AcDbLine
 10
1086.967722930548
 20
4431.312742094976
 30
0.0
 11
1086.967722930548
 21
3631.312742094977
 31
0.0
  0
LINE
  5
7C60
330
810F
100
AcDbEntity
  8
1
100
AcDbLine
 10
2054.967722930549
 20
4431.312742094979
 30
0.0
 11
2054.96772293055
 21
3631.312742094977
 31
0.0
  0
LINE
  5
7C61
330
810F
100
AcDbEntity
  8
1
100
AcDbLine
 10
2034.96772293055
 20
3631.312742094977
 30
0.0
 11
2034.96772293055
 21
3478.312742094977
 31
0.0
  0
LINE
  5
7C62
330
810F
100
AcDbEntity
  8
1
100
AcDbLine
 10
705.9677229305498
 20
3379.312742094977
 30
0.0
 11
863.9677229305497
 21
3379.312742094977
 31
0.0
  0
LINE
  5
7C63
330
810F
100
AcDbEntity
  8
1
100
AcDbLine
 10
705.9677229305498
 20
3461.312742094978
 30
0.0
 11
863.9677229305497
 21
3461.312742094978
 31
0.0
  0
LINE
  5
7C64
330
810F
100
AcDbEntity
  8
1
100
AcDbLine
 10
1723.867722930549
 20
3461.312742094977
 30
0.0
 11
1723.867722930549
 21
3379.312742094977
 31
0.0
  0
LINE
  5
7C65
330
810F
100
AcDbEntity
  8
1
100
AcDbLine
 10
1546.067722930549
 20
3461.312742094977
 30
0.0
 11
1546.067722930549
 21
3379.312742094977
 31
0.0
  0
LINE
  5
7C66
330
810F
100
AcDbEntity
  8
1
100
AcDbLine
 10
863.9677229305497
 20
3461.312742094977
 30
0.0
 11
863.9677229305497
 21
3379.312742094977
 31
0.0
  0
LINE
  5
7C67
330
810F
100
AcDbEntity
  8
1
100
AcDbLine
 10
705.9677229305498
 20
3461.312742094977
 30
0.0
 11
705.9677229305498
 21
3379.312742094977
 31
0.0
  0
LINE
  5
7C68
330
810F
100
AcDbEntity
  8
1
100
AcDbLine
 10
634.9677229305498
 20
3251.312742094977
 30
0.0
 11
1784.96772293055
 21
3251.312742094977
 31
0.0
  0
LINE
  5
7C69
330
810F
100
AcDbEntity
  8
1
100
AcDbLine
 10
1784.96772293055
 20
3511.312742094977
 30
0.0
 11
1784.96772293055
 21
3251.312742094977
 31
0.0
  0
LINE
  5
7C6A
330
810F
100
AcDbEntity
  8
1
100
AcDbLine
 10
634.9677229305498
 20
3511.312742094977
 30
0.0
 11
634.9677229305498
 21
3251.312742094977
 31
0.0
  0
LINE
  5
7C6B
330
810F
100
AcDbEntity
  8
1
100
AcDbLine
 10
634.9677229305498
 20
3511.312742094977
 30
0.0
 11
1784.96772293055
 21
3511.312742094977
 31
0.0
  0
LINE
  5
7C6C
330
810F
100
AcDbEntity
  8
1
100
AcDbLine
 10
1546.06772293055
 20
3461.312742094977
 30
0.0
 11
1723.867722930549
 21
3461.312742094977
 31
0.0
  0
LINE
  5
7C6D
330
810F
100
AcDbEntity
  8
1
100
AcDbLine
 10
1546.067722930549
 20
3379.312742094977
 30
0.0
 11
1723.867722930549
 21
3379.312742094978
 31
0.0
  0
LINE
  5
7C6E
330
810F
100
AcDbEntity
  8
2
100
AcDbLine
 10
784.9677229305498
 20
3939.903635261599
 30
0.0
 11
784.9677229305498
 21
3227.759458823282
 31
0.0
  0
LINE
  5
7C6F
330
810F
100
AcDbEntity
  8
1
100
AcDbLine
 10
927.4677229305495
 20
3898.312442094976
 30
0.0
 11
642.4677229305498
 21
3898.312442094976
 31
0.0
  0
LINE
  5
7C70
330
810F
100
AcDbEntity
  8
1
100
AcDbLine
 10
927.4677229305495
 20
3508.312742094978
 30
0.0
 11
642.4677229305498
 21
3508.312742094978
 31
0.0
  0
LINE
  5
7C71
330
810F
100
AcDbEntity
  8
1
100
AcDbLine
 10
765.9677229305498
 20
3508.312742094978
 30
0.0
 11
765.9677229305498
 21
3461.312742094978
 31
0.0
  0
LINE
  5
7C72
330
810F
100
AcDbEntity
  8
1
100
AcDbLine
 10
803.9677229305498
 20
3508.312742094978
 30
0.0
 11
803.9677229305498
 21
3461.312742094978
 31
0.0
  0
LINE
  5
7C73
330
810F
100
AcDbEntity
  8
1
100
AcDbLine
 10
642.4677229305498
 20
3898.312442094976
 30
0.0
 11
642.4677229305498
 21
3508.312742094978
 31
0.0
  0
LINE
  5
7C74
330
810F
100
AcDbEntity
  8
1
100
AcDbLine
 10
927.4677229305495
 20
3898.312442094976
 30
0.0
 11
927.4677229305495
 21
3508.312742094978
 31
0.0
  0
LINE
  5
7C75
330
810F
100
AcDbEntity
  8
1
100
AcDbLine
 10
1659.96772293055
 20
3631.312742094977
 30
0.0
 11
1659.96772293055
 21
3461.312742094977
 31
0.0
  0
LINE
  5
7C76
330
810F
100
AcDbEntity
  8
1
100
AcDbLine
 10
1609.96772293055
 20
3631.312742094977
 30
0.0
 11
1609.96772293055
 21
3461.312742094977
 31
0.0
  0
LINE
  5
7C77
330
810F
100
AcDbEntity
  8
1
100
AcDbLine
 10
3800.832563439683
 20
2777.086641991409
 30
0.0
 11
3000.832563439682
 21
2127.086641991409
 31
0.0
  0
LINE
  5
7C78
330
810F
100
AcDbEntity
  8
1
100
AcDbLine
 10
3000.832563439682
 20
2777.086641991409
 30
0.0
 11
3800.832563439683
 21
2127.086641991409
 31
0.0
  0
LINE
  5
7C79
330
810F
100
AcDbEntity
  8
1
100
AcDbLine
 10
2830.832563439683
 20
2124.086641991409
 30
0.0
 11
3000.832563439682
 21
2124.086641991409
 31
0.0
  0
CIRCLE
  5
7C7A
330
810F
100
AcDbEntity
  8
1
100
AcDbCircle
 10
1634.967722930548
 20
2099.086641991409
 30
0.0
 40
335.0
  0
CIRCLE
  5
7C7B
330
810F
100
AcDbEntity
  8
1
100
AcDbCircle
 10
1634.967722930548
 20
2099.086641991409
 30
0.0
 40
375.0
  0
POINT
  5
7C7D
330
810F
100
AcDbEntity
  8
1
100
AcDbPoint
 10
3910.832563439683
 20
2069.086641991408
 30
0.0
  0
POINT
  5
7C7E
330
810F
100
AcDbEntity
  8
1
100
AcDbPoint
 10
2620.832563439683
 20
2249.086641991409
 30
0.0
  0
DIMENSION
  5
7C80
330
810F
100
AcDbEntity
  8
3
100
AcDbDimension
  2
*D13
 10
2243.759693929157
 20
4484.312742094977
 30
0.0
 11
2203.759693929157
 21
3981.312742094977
 31
0.0
 12
1055.31472653631
 22
1319.897773564344
 32
0.0
 71
     5
 42
-1.0
  3
Standard
100
AcDbAlignedDimension
 13
2034.96772293055
 23
3478.312742094977
 33
0.0
 14
2034.96772293055
 24
4484.312742094977
 34
0.0
 50
90.0
100
AcDbRotatedDimension
1001
ACAD
1000
DSTYLE
1002
{
1070
    40
1040
20.0
1002
}
  0
DIMENSION
  5
7C81
330
810F
100
AcDbEntity
  8
3
100
AcDbDimension
  2
*D14
 10
2034.96772293055
 20
4632.918032593383
 30
0.0
 11
1634.967722930548
 21
4672.918032593383
 31
0.0
 12
1055.31472653631
 22
1319.897773564344
 32
0.0
 71
     5
 42
-1.0
  3
Standard
100
AcDbAlignedDimension
 13
1234.96772293055
 23
4484.312742094977
 33
0.0
 14
2034.96772293055
 24
4484.312742094977
 34
0.0
100
AcDbRotatedDimension
1001
ACAD
1000
DSTYLE
1002
{
1070
    40
1040
20.0
1002
}
  0
DIMENSION
  5
7C82
330
810F
100
AcDbEntity
  8
3
100
AcDbDimension
  2
*D15
 10
487.3445047575986
 20
3478.312742094976
 30
0.0
 11
447.3445047575987
 21
3778.312742094977
 31
0.0
 12
221.7783565799109
 22
0.0
 32
0.0
 71
     5
 42
-1.0
  3
Standard
100
AcDbAlignedDimension
 13
584.9677229305496
 23
4078.312742094976
 33
0.0
 14
584.9677229305496
 24
3478.312742094976
 34
0.0
 50
90.0
100
AcDbRotatedDimension
1001
ACAD
1000
DSTYLE
1002
{
1070
    40
1040
20.0
1002
}
  0
DIMENSION
  5
7C88
330
810F
100
AcDbEntity
  8
3
100
AcDbDimension
  2
*D16
 10
2094.96772293055
 20
3048.589207099473
 30
0.0
 11
1339.967722930549
 21
3088.589207099473
 31
0.0
 12
221.7783565799109
 22
0.0
 32
0.0
 71
     5
 42
-1.0
  3
Standard
100
AcDbAlignedDimension
 13
584.9677229305496
 23
1734.086641991408
 33
0.0
 14
2094.96772293055
 24
2819.086641991409
 34
0.0
100
AcDbRotatedDimension
1001
ACAD
1000
DSTYLE
1002
{
1070
    40
1040
20.0
1002
}
  0
LINE
  5
7C89
330
810F
100
AcDbEntity
  8
1
100
AcDbLine
 10
2877.832563439682
 20
1768.586641991409
 30
0.0
 11
2877.832563439682
 21
2053.586641991409
 31
0.0
  0
LINE
  5
7C8A
330
810F
100
AcDbEntity
  8
1
100
AcDbLine
 10
2898.332563439682
 20
2053.586641991409
 30
0.0
 11
2877.832563439683
 21
2053.586641991409
 31
0.0
  0
LINE
  5
7C8B
330
810F
100
AcDbEntity
  8
1
100
AcDbLine
 10
2877.832563439682
 20
1892.086641991409
 30
0.0
 11
2830.832563439683
 21
1892.086641991409
 31
0.0
  0
LINE
  5
7C8C
330
810F
100
AcDbEntity
  8
1
100
AcDbLine
 10
2877.832563439682
 20
1930.086641991408
 30
0.0
 11
2830.832563439683
 21
1930.086641991408
 31
0.0
  0
LINE
  5
7C8D
330
810F
100
AcDbEntity
  8
1
100
AcDbLine
 10
3000.832563439682
 20
1768.586641991409
 30
0.0
 11
2877.832563439682
 21
1768.586641991409
 31
0.0
  0
POINT
  5
7C8E
330
810F
100
AcDbEntity
  8
1
100
AcDbPoint
 10
2034.96772293055
 20
1514.086641991409
 30
0.0
  0
POINT
  5
7C8F
330
810F
100
AcDbEntity
  8
1
100
AcDbPoint
 10
2034.96772293055
 20
1594.086641991409
 30
0.0
  0
LINE
  5
7C91
330
810F
100
AcDbEntity
  8
1
100
AcDbLine
 10
2830.832563439681
 20
1990.086641991409
 30
0.0
 11
2830.832563439681
 21
1832.086641991408
 31
0.0
  0
LINE
  5
7C92
330
810F
100
AcDbEntity
  8
1
100
AcDbLine
 10
2748.832563439682
 20
1990.086641991409
 30
0.0
 11
2748.832563439681
 21
1832.086641991408
 31
0.0
  0
LINE
  5
7F3D
330
810F
100
AcDbEntity
  8
4
100
AcDbLine
 10
3700.0
 20
1000.0
 30
0.0
 11
3700.0
 21
600.0
 31
0.0
  0
LINE
  5
7F3E
330
810F
100
AcDbEntity
  8
4
100
AcDbLine
 10
2300.0
 20
1000.0
 30
0.0
 11
2300.0
 21
600.0
 31
0.0
  0
LINE
  5
7F3F
330
810F
100
AcDbEntity
  8
4
100
AcDbLine
 10
1300.0
 20
1000.0
 30
0.0
 11
1300.0
 21
600.0
 31
0.0
  0
LINE
  5
7F42
330
810F
100
AcDbEntity
  8
4
100
AcDbLine
 10
1300.0
 20
600.0
 30
0.0
 11
3700.0
 21
600.0
 31
0.0
  0
LINE
  5
7F43
330
810F
100
AcDbEntity
  8
4
100
AcDbLine
 10
1300.0
 20
800.0
 30
0.0
 11
3700.0
 21
800.0
 31
0.0
  0
TEXT
  5
7F44
330
810F
100
AcDbEntity
  8
4
100
AcDbText
 10
1377.004161693803
 20
863.0860517332255
 30
0.0
 40
100.0
  1
機器名称
100
AcDbText
  0
TEXT
  5
7F45
330
810F
100
AcDbEntity
  8
4
100
AcDbText
 10
1372.516212049595
 20
643.2903134640219
 30
0.0
 40
100.0
  1
機器型番
100
AcDbText
  0
TEXT
  5
7F46
330
810F
100
AcDbEntity
  8
4
100
AcDbText
 10
2355.357490975329
 20
845.1435379151371
 30
0.0
 40
100.0
  1
ミツヤ多翼送風機
100
AcDbText
  0
TEXT
  5
7F47
330
810F
100
AcDbEntity
  8
4
100
AcDbText
 10
2373.308991170961
 20
634.3191685598867
 30
0.0
 40
100.0
  1
MF#4-5
100
AcDbText
  0
TEXT
  5
7F49
330
810F
100
AcDbEntity
  8
4
100
AcDbText
 10
1651.158422306791
 20
4766.857682665031
 30
0.0
 40
107.9999999999999
  1
床置防振ベット
100
AcDbText
  0
TEXT
  5
7F4A
330
810F
100
AcDbEntity
  8
4
100
AcDbText
 10
632.3351866588928
 20
5067.761952398596
 30
0.0
 40
144.0
  1
遠心式両吸込両持多翼ファン
100
AcDbText
  0
LINE
  5
7F4B
330
810F
100
AcDbEntity
  8
4
100
AcDbLine
 10
500.0
 20
4938.817508529609
 30
0.0
 11
3700.0
 21
4938.817508529609
 31
0.0
  0
LINE
  5
7F4C
330
810F
100
AcDbEntity
  8
4
100
AcDbLine
 10
500.0
 20
5338.81750852961
 30
0.0
 11
3700.0
 21
5338.81750852961
 31
0.0
  0
LINE
  5
7F4D
330
810F
100
AcDbEntity
  8
4
100
AcDbLine
 10
1300.0
 20
1000.0
 30
0.0
 11
3700.0
 21
1000.0
 31
0.0
  0
LINE
  5
7F4E
330
810F
100
AcDbEntity
  8
4
100
AcDbLine
 10
500.0
 20
5338.81750852961
 30
0.0
 11
500.0
 21
4938.817508529609
 31
0.0
  0
TEXT
  5
7F4F
330
810F
100
AcDbEntity
  8
4
100
AcDbText
 10
779.4407578213866
 20
4764.638955092687
 30
0.0
 40
107.9999999999999
  1
右回転右横向
100
AcDbText
  0
TEXT
  5
7F50
330
810F
100
AcDbEntity
  8
4
100
AcDbText
 10
2937.939118498579
 20
5412.122162990619
 30
0.0
 40
112.0
  1
No.
100
AcDbText
  0
TEXT
  5
7F51
330
810F
100
AcDbEntity
  8
4
100
AcDbText
 10
2622.592125200027
 20
4766.857682665031
 30
0.0
 40
107.9999999999999
  1
縮尺：1/20
100
AcDbText
  0
LINE
  5
7F52
330
810F
100
AcDbEntity
  8
4
100
AcDbLine
 10
3700.0
 20
5338.81750852961
 30
0.0
 11
3700.0
 21
4938.817508529609
 31
0.0
  0
LINE
  5
7F53
330
810F
100
AcDbEntity
  8
4
100
AcDbLine
 10
4200.0
 20
5900.0
 30
0.0
 11
4200.0
 21
5900.0
 31
0.0
  0
LINE
  5
7F54
330
810F
100
AcDbEntity
  8
4
100
AcDbLine
 10
2881.234844719729
 20
5362.527166250802
 30
0.0
 11
2881.234844719729
 21
5573.304523099504
 31
0.0
  0
LINE
  5
7F55
330
810F
100
AcDbEntity
  8
4
100
AcDbLine
 10
2881.234844719729
 20
5573.304523099504
 30
0.0
 11
3700.0
 21
5573.304523099504
 31
0.0
  0
LINE
  5
7F56
330
810F
100
AcDbEntity
  8
4
100
AcDbLine
 10
3700.0
 20
5573.304523099504
 30
0.0
 11
3700.0
 21
5362.527166250802
 31
0.0
  0
LINE
  5
7F57
330
810F
100
AcDbEntity
  8
4
100
AcDbLine
 10
3700.0
 20
5362.527166250802
 30
0.0
 11
2881.234844719729
 21
5362.527166250802
 31
0.0
  0
LINE
  5
7F58
330
810F
100
AcDbEntity
  8
4
100
AcDbLine
 10
0.0
 20
0.0
 30
0.0
 11
0.0
 21
5900.0
 31
0.0
  0
LINE
  5
7F59
330
810F
100
AcDbEntity
  8
4
100
AcDbLine
 10
0.0
 20
5900.0
 30
0.0
 11
4200.0
 21
5900.0
 31
0.0
  0
LINE
  5
7F5A
330
810F
100
AcDbEntity
  8
4
100
AcDbLine
 10
4200.0
 20
5900.0
 30
0.0
 11
4200.0
 21
0.0
 31
0.0
  0
LINE
  5
7F5B
330
810F
100
AcDbEntity
  8
4
100
AcDbLine
 10
4200.0
 20
0.0
 30
0.0
 11
0.0
 21
0.0
 31
0.0
  0
DIMENSION
  5
815B
330
810F
100
AcDbEntity
  8
3
100
AcDbDimension
  2
*D28
 10
3400.832563439682
 20
3049.685144437137
 30
0.0
 11
3010.832563439683
 21
3115.399430151423
 31
0.0
 70
    32
  1
(<>)
 71
     5
 42
779.999999999999
  3
IGA
100
AcDbAlignedDimension
 13
2620.832563439683
 23
2249.086641991409
 33
0.0
 14
3400.832563439682
 24
2984.169340590403
 34
0.0
100
AcDbRotatedDimension
1001
ACAD
1000
DSTYLE
1002
{
1070
    40
1040
20.0
1070
    42
1040
1.0
1070
   143
1040
0.039
1070
   172
1070
     1
1070
   271
1070
     4
1070
   272
1070
     4
1070
   279
1070
     0
1070
   284
1070
     0
1070
   285
1070
     0
1070
   286
1070
     0
1070
   341
1005
8123
1070
   343
1005
8123
1070
   344
1005
8123
1002
}
  0
DIMENSION
  5
8168
330
810F
100
AcDbEntity
  8
3
100
AcDbDimension
  2
*D29
 10
3910.832563439683
 20
3049.685144437137
 30
0.0
 11
3655.832563439683
 21
3115.399430151423
 31
0.0
 70
    32
  1
(<>)
 71
     5
 42
510.0000000000004
  3
IGA
100
AcDbAlignedDimension
 13
3400.832563439682
 23
2984.169340590403
 33
0.0
 14
3910.832563439683
 24
2069.086641991408
 34
0.0
100
AcDbRotatedDimension
1001
ACAD
1000
DSTYLE
1002
{
1070
    40
1040
20.0
1070
    42
1040
1.0
1070
   143
1040
0.039
1070
   172
1070
     1
1070
   271
1070
     4
1070
   272
1070
     4
1070
   279
1070
     1
1070
   284
1070
     0
1070
   285
1070
     0
1070
   286
1070
     0
1070
   341
1005
8123
1070
   343
1005
8123
1070
   344
1005
8123
1002
}
  0
DIMENSION
  5
8219
330
810F
100
AcDbEntity
  8
3
100
AcDbDimension
  2
*D37
 10
3400.832563439682
 20
1255.619944630109
 30
0.0
 11
3124.332563439683
 21
1305.619944630109
 31
0.0
 70
    32
 71
     5
 42
552.9999999999986
  3
IGA
100
AcDbAlignedDimension
 13
2847.832563439684
 23
1414.086641991408
 33
0.0
 14
3400.832563439682
 24
1414.086641991408
 34
0.0
100
AcDbRotatedDimension
1001
ACAD
1000
DSTYLE
1002
{
1070
    40
1040
20.0
1070
    42
1040
1.0
1070
   143
1040
0.039
1070
   172
1070
     1
1070
   271
1070
     4
1070
   272
1070
     4
1070
   279
1070
     0
1070
   284
1070
     0
1070
   285
1070
     0
1070
   286
1070
     0
1070
   341
1005
8123
1070
   343
1005
8123
1070
   344
1005
8123
1002
}
  0
DIMENSION
  5
8226
330
810F
100
AcDbEntity
  8
3
100
AcDbDimension
  2
*D38
 10
3853.832563439683
 20
1255.619944630109
 30
0.0
 11
3627.332563439683
 21
1305.619944630109
 31
0.0
 70
    32
 71
     5
 42
453.0000000000004
  3
IGA
100
AcDbAlignedDimension
 13
3400.832563439682
 23
1414.086641991408
 33
0.0
 14
3853.832563439683
 24
1414.086641991408
 34
0.0
100
AcDbRotatedDimension
1001
ACAD
1000
DSTYLE
1002
{
1070
    40
1040
20.0
1070
    42
1040
1.0
1070
   143
1040
0.039
1070
   172
1070
     1
1070
   271
1070
     4
1070
   272
1070
     4
1070
   279
1070
     1
1070
   284
1070
     0
1070
   285
1070
     0
1070
   286
1070
     0
1070
   341
1005
8123
1070
   343
1005
8123
1070
   344
1005
8123
1002
}
  0
DIMENSION
  5
8233
330
810F
100
AcDbEntity
  8
3
100
AcDbDimension
  2
*D39
 10
1634.967722930548
 20
1271.454940728943
 30
0.0
 11
1834.967722930549
 21
1321.454940728943
 31
0.0
 70
    32
 71
     5
 42
400.0000000000011
  3
IGA
100
AcDbAlignedDimension
 13
2034.96772293055
 23
1414.086641991408
 33
0.0
 14
1634.967722930548
 24
1414.086641991408
 34
0.0
100
AcDbRotatedDimension
1001
ACAD
1000
DSTYLE
1002
{
1070
    40
1040
20.0
1070
    42
1040
1.0
1070
   143
1040
0.039
1070
   172
1070
     1
1070
   271
1070
     4
1070
   272
1070
     4
1070
   279
1070
     0
1070
   284
1070
     0
1070
   285
1070
     0
1070
   286
1070
     0
1070
   341
1005
8123
1070
   343
1005
8123
1070
   344
1005
8123
1002
}
  0
DIMENSION
  5
8240
330
810F
100
AcDbEntity
  8
3
100
AcDbDimension
  2
*D40
 10
584.9677229305496
 20
1271.454940728943
 30
0.0
 11
1109.967722930549
 21
1321.454940728943
 31
0.0
 70
    32
 71
     5
 42
1049.999999999999
  3
IGA
100
AcDbAlignedDimension
 13
1634.967722930548
 23
1414.086641991408
 33
0.0
 14
584.9677229305496
 24
1414.086641991408
 34
0.0
100
AcDbRotatedDimension
1001
ACAD
1000
DSTYLE
1002
{
1070
    40
1040
20.0
1070
    42
1040
1.0
1070
   143
1040
0.039
1070
   172
1070
     1
1070
   271
1070
     4
1070
   272
1070
     4
1070
   279
1070
     1
1070
   284
1070
     0
1070
   285
1070
     0
1070
   286
1070
     0
1070
   341
1005
8123
1070
   343
1005
8123
1070
   344
1005
8123
1002
}
  0
DIMENSION
  5
824D
330
810F
100
AcDbEntity
  8
3
100
AcDbDimension
  2
*D41
 10
2394.469389051242
 20
1594.086641991409
 30
0.0
 11
2344.469389051241
 21
1846.586641991409
 31
0.0
 70
    32
 71
     5
 42
505.0
  3
IGA
100
AcDbAlignedDimension
 13
2141.860696033544
 23
2099.086641991409
 33
0.0
 14
2034.96772293055
 24
1594.086641991409
 34
0.0
 50
90.0
100
AcDbRotatedDimension
1001
ACAD
1000
DSTYLE
1002
{
1070
    40
1040
20.0
1070
    42
1040
1.0
1070
   143
1040
0.039
1070
   172
1070
     1
1070
   271
1070
     4
1070
   272
1070
     4
1070
   279
1070
     0
1070
   284
1070
     0
1070
   285
1070
     0
1070
   286
1070
     0
1070
   341
1005
8123
1070
   343
1005
8123
1070
   344
1005
8123
1002
}
  0
DIMENSION
  5
825A
330
810F
100
AcDbEntity
  8
3
100
AcDbDimension
  2
*D42
 10
2394.469389051242
 20
1514.086641991409
 30
0.0
 11
2536.55032207341
 21
1605.428106900816
 31
0.0
 70
   160
  1
(<>)
 71
     5
 42
80.0
  3
IGA
100
AcDbAlignedDimension
 13
2034.96772293055
 23
1594.086641991409
 33
0.0
 14
2034.96772293055
 24
1514.086641991409
 34
0.0
 50
90.0
100
AcDbRotatedDimension
1001
ACAD
1000
DSTYLE
1002
{
1070
    40
1040
20.0
1070
    42
1040
1.0
1070
   143
1040
0.039
1070
   172
1070
     1
1070
   271
1070
     4
1070
   272
1070
     4
1070
   279
1070
     1
1070
   284
1070
     0
1070
   285
1070
     0
1070
   286
1070
     0
1070
   341
1005
8123
1070
   343
1005
8123
1070
   344
1005
833D
1002
}
  0
DIMENSION
  5
826C
330
810F
100
AcDbEntity
  8
3
100
AcDbDimension
  2
*D43
 10
2396.969389051242
 20
1414.086641991408
 30
0.0
 11
2398.646886974795
 21
1322.226745300175
 31
0.0
 70
   160
 71
     5
 42
100.0
  3
IGA
100
AcDbAlignedDimension
 13
2034.96772293055
 23
1514.086641991409
 33
0.0
 14
2034.96772293055
 24
1414.086641991408
 34
0.0
 50
90.0
100
AcDbRotatedDimension
1001
ACAD
1000
DSTYLE
1002
{
1070
    40
1040
20.0
1070
    42
1040
1.0
1070
   143
1040
0.039
1070
   172
1070
     1
1070
   271
1070
     4
1070
   272
1070
     4
1070
   279
1070
     1
1070
   284
1070
     0
1070
   285
1070
     0
1070
   286
1070
     0
1070
   341
1005
8123
1070
   343
1005
833D
1070
   344
1005
8123
1002
}
  0
DIMENSION
  5
82D2
330
810F
100
AcDbEntity
  8
3
100
AcDbDimension
  2
*D44
 10
2556.93632375696
 20
2777.086641991409
 30
0.0
 11
2491.222038042673
 21
2095.586641991409
 31
0.0
 70
    32
  1
(<>)
 71
     5
 42
1363.0
  3
IGA
100
AcDbAlignedDimension
 13
2034.96772293055
 23
1414.086641991408
 33
0.0
 14
2094.96772293055
 24
2777.086641991409
 34
0.0
 50
90.0
100
AcDbRotatedDimension
1001
ACAD
1000
DSTYLE
1002
{
1070
    40
1040
20.0
1070
    42
1040
1.0
1070
   143
1040
0.039
1070
   172
1070
     1
1070
   271
1070
     4
1070
   272
1070
     4
1070
   279
1070
     0
1070
   284
1070
     0
1070
   285
1070
     0
1070
   286
1070
     0
1070
   341
1005
8123
1070
   343
1005
8123
1070
   344
1005
8123
1002
}
  0
DIMENSION
  5
83CC
330
810F
100
AcDbEntity
  8
3
100
AcDbDimension
  2
*D46
 10
1086.967722930548
 20
2917.308396717436
 30
0.0
 11
1360.967722930549
 21
2967.308396717435
 31
0.0
 70
    32
 71
     5
 42
548.0
  3
IGA
100
AcDbAlignedDimension
 13
1634.967722930548
 23
2818.719477643282
 33
0.0
 14
1086.967722930548
 24
2146.086641991409
 34
0.0
100
AcDbRotatedDimension
1001
ACAD
1000
DSTYLE
1002
{
1070
    40
1040
20.0
1070
    42
1040
1.0
1070
   143
1040
0.039
1070
   172
1070
     1
1070
   271
1070
     4
1070
   272
1070
     4
1070
   279
1070
     0
1070
   284
1070
     0
1070
   285
1070
     0
1070
   286
1070
     0
1070
   341
1005
8123
1070
   343
1005
8123
1070
   344
1005
8123
1002
}
  0
DIMENSION
  5
83E2
330
810F
100
AcDbEntity
  8
3
100
AcDbDimension
  2
*D47
 10
2034.96772293055
 20
3151.915657917891
 30
0.0
 11
1309.96772293055
 21
3201.91565791789
 31
0.0
 70
    32
 71
     5
 42
1450.0
  3
IGA
100
AcDbAlignedDimension
 13
584.9677229305496
 23
3478.312742094976
 33
0.0
 14
2034.96772293055
 24
3478.312742094977
 34
0.0
100
AcDbRotatedDimension
1001
ACAD
1000
DSTYLE
1002
{
1070
    40
1040
20.0
1070
    42
1040
1.0
1070
   143
1040
0.039
1070
   172
1070
     1
1070
   271
1070
     4
1070
   272
1070
     4
1070
   279
1070
     0
1070
   284
1070
     0
1070
   285
1070
     0
1070
   286
1070
     0
1070
   341
1005
8123
1070
   343
1005
8123
1070
   344
1005
8123
1002
}
  0
DIMENSION
  5
83EF
330
810F
100
AcDbEntity
  8
3
100
AcDbDimension
  2
*D48
 10
1234.96772293055
 20
4632.918032593383
 30
0.0
 11
909.9677229305497
 21
4682.918032593383
 31
0.0
 70
    32
 71
     5
 42
650.0000000000002
  3
IGA
100
AcDbAlignedDimension
 13
584.9677229305496
 23
4078.312742094976
 33
0.0
 14
1234.96772293055
 24
4484.312742094977
 34
0.0
100
AcDbRotatedDimension
1001
ACAD
1000
DSTYLE
1002
{
1070
    40
1040
20.0
1070
    42
1040
1.0
1070
   143
1040
0.039
1070
   172
1070
     1
1070
   271
1070
     4
1070
   272
1070
     4
1070
   279
1070
     0
1070
   284
1070
     0
1070
   285
1070
     0
1070
   286
1070
     0
1070
   341
1005
8123
1070
   343
1005
8123
1070
   344
1005
8123
1002
}
  0
ENDSEC
  0
SECTION
  2
OBJECTS
  0
DICTIONARY
  5
80AC
330
0
100
AcDbDictionary
281
     1
  3
ACAD_CIP_PREVIOUS_PRODUCT_INFO
350
8157
  3
ACAD_COLOR
350
8102
  3
ACAD_DETAILVIEWSTYLE
350
8109
  3
ACAD_GROUP
350
80AD
  3
ACAD_LAYOUT
350
8101
  3
ACAD_MATERIAL
350
80B0
  3
ACAD_MLEADERSTYLE
350
8105
  3
ACAD_MLINESTYLE
350
80FE
  3
ACAD_PLOTSETTINGS
350
8100
  3
ACAD_PLOTSTYLENAME
350
80AE
  3
ACAD_SCALELIST
350
80E2
  3
ACAD_SECTIONVIEWSTYLE
350
8107
  3
ACAD_TABLESTYLE
350
8103
  3
ACAD_VISUALSTYLE
350
80C9
  3
ACDB_RECOMPOSE_DATA
350
8456
  3
AcDbVariableDictionary
350
8449
  3
DWGPROPS
350
8457
  0
DICTIONARY
  5
843F
330
80F4
100
AcDbDictionary
280
     1
281
     1
  3
ADSK_XREC_LAYER_RECONCILED
360
8440
  0
DICTIONARY
  5
8441
330
8113
100
AcDbDictionary
280
     1
281
     1
  3
ADSK_XREC_LAYER_RECONCILED
360
8442
  0
DICTIONARY
  5
8443
330
8116
100
AcDbDictionary
280
     1
281
     1
  3
ADSK_XREC_LAYER_RECONCILED
360
8444
  0
DICTIONARY
  5
8445
330
8117
100
AcDbDictionary
280
     1
281
     1
  3
ADSK_XREC_LAYER_RECONCILED
360
8446
  0
DICTIONARY
  5
8447
330
8118
100
AcDbDictionary
280
     1
281
     1
  3
ADSK_XREC_LAYER_RECONCILED
360
8448
  0
XRECORD
  5
8157
102
{ACAD_REACTORS
330
80AC
102
}
330
80AC
100
AcDbXrecord
280
     1
300
ACDLT
300
2015
300
INVLTS_F_S
  0
DICTIONARY
  5
8102
102
{ACAD_REACTORS
330
80AC
102
}
330
80AC
100
AcDbDictionary
281
     1
  0
DICTIONARY
  5
8109
102
{ACAD_REACTORS
330
80AC
102
}
330
80AC
100
AcDbDictionary
281
     1
  3
Imperial24
350
810A
  0
DICTIONARY
  5
80AD
102
{ACAD_REACTORS
330
80AC
102
}
330
80AC
100
AcDbDictionary
281
     1
  0
DICTIONARY
  5
8101
102
{ACAD_REACTORS
330
80AC
102
}
330
80AC
100
AcDbDictionary
281
     1
  3
Model
350
8112
  3
レイアウト1
350
810E
  0
DICTIONARY
  5
80B0
102
{ACAD_REACTORS
330
80AC
102
}
330
80AC
100
AcDbDictionary
281
     1
  3
ByBlock
350
80B9
  3
ByLayer
350
80B1
  3
Global
350
80C1
  0
DICTIONARY
  5
8105
102
{ACAD_REACTORS
330
80AC
102
}
330
80AC
100
AcDbDictionary
281
     1
  3
Standard
350
8106
  0
DICTIONARY
  5
80FE
102
{ACAD_REACTORS
330
80AC
102
}
330
80AC
100
AcDbDictionary
281
     1
  3
Standard
350
80FF
  0
DICTIONARY
  5
8100
102
{ACAD_REACTORS
330
80AC
102
}
330
80AC
100
AcDbDictionary
281
     1
  0
ACDBDICTIONARYWDFLT
  5
80AE
102
{ACAD_REACTORS
330
80AC
102
}
330
80AC
100
AcDbDictionary
281
     1
  3
Normal
350
80AF
100
AcDbDictionaryWithDefault
340
80AF
  0
DICTIONARY
  5
80E2
102
{ACAD_REACTORS
330
80AC
102
}
330
80AC
100
AcDbDictionary
281
     1
  3
A0
350
80E3
  3
A1
350
80E4
  3
A2
350
80E5
  3
A3
350
80E6
  3
A4
350
80E7
  3
A5
350
80E8
  3
A6
350
80E9
  3
A7
350
80EA
  3
A8
350
80EB
  3
A9
350
80EC
  3
B0
350
80ED
  3
B1
350
80EE
  3
B2
350
80EF
  3
B3
350
80F0
  3
B4
350
80F1
  3
B5
350
80F2
  3
B6
350
80F3
  0
DICTIONARY
  5
8107
102
{ACAD_REACTORS
330
80AC
102
}
330
80AC
100
AcDbDictionary
281
     1
  3
Imperial24
350
8108
  0
DICTIONARY
  5
8103
102
{ACAD_REACTORS
330
80AC
102
}
330
80AC
100
AcDbDictionary
281
     1
  3
Standard
350
8104
  0
DICTIONARY
  5
80C9
102
{ACAD_REACTORS
330
80AC
102
}
330
80AC
100
AcDbDictionary
281
     1
  3
2dWireframe
350
80CF
  3
Basic
350
80CE
  3
Brighten
350
80D5
  3
ColorChange
350
80D9
  3
Conceptual
350
80D2
  3
Dim
350
80D4
  3
EdgeColorOff
350
80E1
  3
Facepattern
350
80D8
  3
Flat
350
80CA
  3
FlatWithEdges
350
80CB
  3
Gouraud
350
80CC
  3
GouraudWithEdges
350
80CD
  3
Hidden
350
80D1
  3
JitterOff
350
80DF
  3
Linepattern
350
80D7
  3
OverhangOff
350
80E0
  3
Realistic
350
80D3
  3
Shaded
350
80DE
  3
Shaded with edges
350
80DD
  3
Shades of Gray
350
80DA
  3
Sketchy
350
80DB
  3
Thicken
350
80D6
  3
Wireframe
350
80D0
  3
X-Ray
350
80DC
  0
XRECORD
  5
8456
102
{ACAD_REACTORS
330
80AC
102
}
330
80AC
100
AcDbXrecord
280
     1
 90
        1
330
8104
  0
DICTIONARY
  5
8449
102
{ACAD_REACTORS
330
80AC
102
}
330
80AC
100
AcDbDictionary
281
     1
  3
CANNOSCALE
350
844E
  3
CMLEADERSTYLE
350
844B
  3
CTABLESTYLE
350
844A
  3
CVIEWDETAILSTYLE
350
844C
  3
CVIEWSECTIONSTYLE
350
844D
  3
DIMASSOC
350
8451
  3
INDEXCTL
350
8450
  3
SORTENTS
350
844F
  3
XCLIPFRAME
350
8452
  0
XRECORD
  5
8457
102
{ACAD_REACTORS
330
80AC
102
}
330
80AC
100
AcDbXrecord
280
     1
  1
DWGPROPS COOKIE
  2

  3

  4

  6

  7

  8
yasukiyo.ogawa
  9

300
=
301
=
302
=
303
=
304
=
305
=
306
=
307
=
308
=
309
=
 40
0.091152962962963
 41
2451387.398891204
 42
2460262.687163079
  1

 90
        0
  0
XRECORD
  5
8440
102
{ACAD_REACTORS
330
843F
102
}
330
843F
100
AcDbXrecord
280
     1
290
     1
  0
XRECORD
  5
8442
102
{ACAD_REACTORS
330
8441
102
}
330
8441
100
AcDbXrecord
280
     1
290
     1
  0
XRECORD
  5
8444
102
{ACAD_REACTORS
330
8443
102
}
330
8443
100
AcDbXrecord
280
     1
290
     1
  0
XRECORD
  5
8446
102
{ACAD_REACTORS
330
8445
102
}
330
8445
100
AcDbXrecord
280
     1
290
     1
  0
XRECORD
  5
8448
102
{ACAD_REACTORS
330
8447
102
}
330
8447
100
AcDbXrecord
280
     1
290
     1
  0
ACDBDETAILVIEWSTYLE
  5
810A
102
{ACAD_XDICTIONARY
360
848F
102
}
102
{ACAD_REACTORS
330
8109
102
}
330
8109
100
AcDbModelDocViewStyle
 70
     0
  3
Imperial24
290
     0
100
AcDbDetailViewStyle
 70
     0
 71
     0
 90
        3
 71
     1
340
80F5
 40
0.24
340
0
 40
0.24
300

 40
0.36
280
     3
 71
     2
340
80FC
 90
       25
 71
     3
340
80F5
 40
0.24
 90
        1
 40
0.75
 90
        1
300
%<\AcVar ViewType \f "%tc1">% %<\AcVar ViewDetailId>%\PSCALE %<\AcVar ViewScale \f "%sn">%
 71
     4
340
80FC
 90
       25
340
80FC
 90
       25
280
     0
  0
LAYOUT
  5
8112
102
{ACAD_XDICTIONARY
360
8493
102
}
102
{ACAD_REACTORS
330
8101
102
}
330
8101
100
AcDbPlotSettings
  1

  2
RICOH imagio MP W3600 RPCS
  4

  6

 40
0.0
 41
0.0
 42
0.0
 43
0.0
 44
0.0
 45
0.0
 46
0.0
 47
0.0
 48
0.0
 49
0.0
140
0.0
141
0.0
142
1.0
143
1.0
 70
  1712
 72
     0
 73
     0
 74
     0
  7

 75
     0
147
1.0
148
0.0
149
0.0
100
AcDbLayout
  1
Model
 70
     1
 71
     0
 10
0.0
 20
0.0
 11
12.0
 21
9.0
 12
0.0
 22
0.0
 32
0.0
 14
0.0
 24
0.0
 34
0.0
 15
0.0
 25
0.0
 35
0.0
146
0.0
 13
0.0
 23
0.0
 33
0.0
 16
1.0
 26
0.0
 36
0.0
 17
0.0
 27
1.0
 37
0.0
 76
     0
330
810F
331
8114
  0
LAYOUT
  5
810E
102
{ACAD_XDICTIONARY
360
8491
102
}
102
{ACAD_REACTORS
330
8101
102
}
330
8101
100
AcDbPlotSettings
  1

  2
RICOH imagio MP W3600 RPCS
  4

  6

 40
0.0
 41
0.0
 42
0.0
 43
0.0
 44
0.0
 45
0.0
 46
0.0
 47
0.0
 48
0.0
 49
0.0
140
0.0
141
0.0
142
1.0
143
1.0
 70
   688
 72
     0
 73
     0
 74
     5
  7

 75
    16
147
1.0
148
0.0
149
0.0
100
AcDbLayout
  1
レイアウト1
 70
     1
 71
     1
 10
0.0
 20
0.0
 11
12.0
 21
9.0
 12
0.0
 22
0.0
 32
0.0
 14
1.000000000000000E+20
 24
1.000000000000000E+20
 34
1.000000000000000E+20
 15
-1.000000000000000E+20
 25
-1.000000000000000E+20
 35
-1.000000000000000E+20
146
0.0
 13
0.0
 23
0.0
 33
0.0
 16
1.0
 26
0.0
 36
0.0
 17
0.0
 27
1.0
 37
0.0
 76
     0
330
810B
  0
MATERIAL
  5
80B9
102
{ACAD_XDICTIONARY
360
80BA
102
}
102
{ACAD_REACTORS
330
80B0
102
}
330
80B0
100
AcDbMaterial
  1
ByBlock
 72
     0
 43
0.0208333333333333
 43
0.0
 43
0.0
 43
0.0
 43
0.0
 43
0.0208333333333333
 43
0.0
 43
0.0
 43
0.0
 43
0.0
 43
1.0
 43
0.0
 43
0.0
 43
0.0
 43
0.0
 43
1.0
 77
     0
 47
0.0208333333333333
 47
0.0
 47
0.0
 47
0.0
 47
0.0
 47
0.0208333333333333
 47
0.0
 47
0.0
 47
0.0
 47
0.0
 47
1.0
 47
0.0
 47
0.0
 47
0.0
 47
0.0
 47
1.0
171
     0
 49
0.0208333333333333
 49
0.0
 49
0.0
 49
0.0
 49
0.0
 49
0.0208333333333333
 49
0.0
 49
0.0
 49
0.0
 49
0.0
 49
1.0
 49
0.0
 49
0.0
 49
0.0
 49
0.0
 49
1.0
175
     0
142
0.0208333333333333
142
0.0
142
0.0
142
0.0
142
0.0
142
0.0208333333333333
142
0.0
142
0.0
142
0.0
142
0.0
142
1.0
142
0.0
142
0.0
142
0.0
142
0.0
142
1.0
179
     0
144
0.0208333333333333
144
0.0
144
0.0
144
0.0
144
0.0
144
0.0208333333333333
144
0.0
144
0.0
144
0.0
144
0.0
144
1.0
144
0.0
144
0.0
144
0.0
144
0.0
144
1.0
147
0.0208333333333333
147
0.0
147
0.0
147
0.0
147
0.0
147
0.0208333333333333
147
0.0
147
0.0
147
0.0
147
0.0
147
1.0
147
0.0
147
0.0
147
0.0
147
0.0
147
1.0
  0
MATERIAL
  5
80B1
102
{ACAD_XDICTIONARY
360
80B2
102
}
102
{ACAD_REACTORS
330
80B0
102
}
330
80B0
100
AcDbMaterial
  1
ByLayer
 72
     0
 43
0.0208333333333333
 43
0.0
 43
0.0
 43
0.0
 43
0.0
 43
0.0208333333333333
 43
0.0
 43
0.0
 43
0.0
 43
0.0
 43
1.0
 43
0.0
 43
0.0
 43
0.0
 43
0.0
 43
1.0
 77
     0
 47
0.0208333333333333
 47
0.0
 47
0.0
 47
0.0
 47
0.0
 47
0.0208333333333333
 47
0.0
 47
0.0
 47
0.0
 47
0.0
 47
1.0
 47
0.0
 47
0.0
 47
0.0
 47
0.0
 47
1.0
171
     0
 49
0.0208333333333333
 49
0.0
 49
0.0
 49
0.0
 49
0.0
 49
0.0208333333333333
 49
0.0
 49
0.0
 49
0.0
 49
0.0
 49
1.0
 49
0.0
 49
0.0
 49
0.0
 49
0.0
 49
1.0
175
     0
142
0.0208333333333333
142
0.0
142
0.0
142
0.0
142
0.0
142
0.0208333333333333
142
0.0
142
0.0
142
0.0
142
0.0
142
1.0
142
0.0
142
0.0
142
0.0
142
0.0
142
1.0
179
     0
144
0.0208333333333333
144
0.0
144
0.0
144
0.0
144
0.0
144
0.0208333333333333
144
0.0
144
0.0
144
0.0
144
0.0
144
1.0
144
0.0
144
0.0
144
0.0
144
0.0
144
1.0
147
0.0208333333333333
147
0.0
147
0.0
147
0.0
147
0.0
147
0.0208333333333333
147
0.0
147
0.0
147
0.0
147
0.0
147
1.0
147
0.0
147
0.0
147
0.0
147
0.0
147
1.0
  0
MATERIAL
  5
80C1
102
{ACAD_XDICTIONARY
360
80C2
102
}
102
{ACAD_REACTORS
330
80B0
102
}
330
80B0
100
AcDbMaterial
  1
Global
 72
     0
 43
0.0208333333333333
 43
0.0
 43
0.0
 43
0.0
 43
0.0
 43
0.0208333333333333
 43
0.0
 43
0.0
 43
0.0
 43
0.0
 43
1.0
 43
0.0
 43
0.0
 43
0.0
 43
0.0
 43
1.0
 77
     0
 47
0.0208333333333333
 47
0.0
 47
0.0
 47
0.0
 47
0.0
 47
0.0208333333333333
 47
0.0
 47
0.0
 47
0.0
 47
0.0
 47
1.0
 47
0.0
 47
0.0
 47
0.0
 47
0.0
 47
1.0
171
     0
 49
0.0208333333333333
 49
0.0
 49
0.0
 49
0.0
 49
0.0
 49
0.0208333333333333
 49
0.0
 49
0.0
 49
0.0
 49
0.0
 49
1.0
 49
0.0
 49
0.0
 49
0.0
 49
0.0
 49
1.0
175
     0
142
0.0208333333333333
142
0.0
142
0.0
142
0.0
142
0.0
142
0.0208333333333333
142
0.0
142
0.0
142
0.0
142
0.0
142
1.0
142
0.0
142
0.0
142
0.0
142
0.0
142
1.0
179
     0
144
0.0208333333333333
144
0.0
144
0.0
144
0.0
144
0.0
144
0.0208333333333333
144
0.0
144
0.0
144
0.0
144
0.0
144
1.0
144
0.0
144
0.0
144
0.0
144
0.0
144
1.0
147
0.0208333333333333
147
0.0
147
0.0
147
0.0
147
0.0
147
0.0208333333333333
147
0.0
147
0.0
147
0.0
147
0.0
147
1.0
147
0.0
147
0.0
147
0.0
147
0.0
147
1.0
  0
MLEADERSTYLE
  5
8106
102
{ACAD_REACTORS
330
8105
102
}
330
8105
100
AcDbMLeaderStyle
170
     2
171
     1
172
     0
 90
        2
 40
0.0
 41
0.0
173
     1
 91
-1056964608
340
80FA
 92
       -2
290
     1
 42
0.09
291
     1
 43
0.36
  3
Standard
 44
0.18
300

342
80F5
174
     1
178
     6
175
     1
176
     0
 93
-1056964608
 45
0.18
292
     0
297
     0
 46
0.18
 94
-1056964608
 47
1.0
 49
1.0
140
1.0
293
     1
141
0.0
294
     1
177
     0
142
1.0
295
     0
296
     0
143
0.125
1001
ACAD_MLEADERVER
1070
     2
  0
MLINESTYLE
  5
80FF
102
{ACAD_REACTORS
330
80FE
102
}
330
80FE
100
AcDbMlineStyle
  2
STANDARD
 70
     0
  3

 62
   256
 51
90.0
 52
90.0
 71
     2
 49
0.5
 62
   256
  6
BYLAYER
 49
-0.5
 62
   256
  6
BYLAYER
  0
ACDBPLACEHOLDER
  5
80AF
102
{ACAD_REACTORS
330
80AE
102
}
330
80AE
  0
SCALE
  5
80E3
102
{ACAD_REACTORS
330
80E2
102
}
330
80E2
100
AcDbScale
 70
     0
300
1:1
140
1.0
141
1.0
290
     1
  0
SCALE
  5
80E4
102
{ACAD_REACTORS
330
80E2
102
}
330
80E2
100
AcDbScale
 70
     0
300
1/128" = 1'-0"
140
0.0078125
141
12.0
290
     0
  0
SCALE
  5
80E5
102
{ACAD_REACTORS
330
80E2
102
}
330
80E2
100
AcDbScale
 70
     0
300
1/64" = 1'-0"
140
0.015625
141
12.0
290
     0
  0
SCALE
  5
80E6
102
{ACAD_REACTORS
330
80E2
102
}
330
80E2
100
AcDbScale
 70
     0
300
1/32" = 1'-0"
140
0.03125
141
12.0
290
     0
  0
SCALE
  5
80E7
102
{ACAD_REACTORS
330
80E2
102
}
330
80E2
100
AcDbScale
 70
     0
300
1/16" = 1'-0"
140
0.0625
141
12.0
290
     0
  0
SCALE
  5
80E8
102
{ACAD_REACTORS
330
80E2
102
}
330
80E2
100
AcDbScale
 70
     0
300
3/32" = 1'-0"
140
0.09375
141
12.0
290
     0
  0
SCALE
  5
80E9
102
{ACAD_REACTORS
330
80E2
102
}
330
80E2
100
AcDbScale
 70
     0
300
1/8" = 1'-0"
140
0.125
141
12.0
290
     0
  0
SCALE
  5
80EA
102
{ACAD_REACTORS
330
80E2
102
}
330
80E2
100
AcDbScale
 70
     0
300
3/16" = 1'-0"
140
0.1875
141
12.0
290
     0
  0
SCALE
  5
80EB
102
{ACAD_REACTORS
330
80E2
102
}
330
80E2
100
AcDbScale
 70
     0
300
1/4" = 1'-0"
140
0.25
141
12.0
290
     0
  0
SCALE
  5
80EC
102
{ACAD_REACTORS
330
80E2
102
}
330
80E2
100
AcDbScale
 70
     0
300
3/8" = 1'-0"
140
0.375
141
12.0
290
     0
  0
SCALE
  5
80ED
102
{ACAD_REACTORS
330
80E2
102
}
330
80E2
100
AcDbScale
 70
     0
300
1/2" = 1'-0"
140
0.5
141
12.0
290
     0
  0
SCALE
  5
80EE
102
{ACAD_REACTORS
330
80E2
102
}
330
80E2
100
AcDbScale
 70
     0
300
3/4" = 1'-0"
140
0.75
141
12.0
290
     0
  0
SCALE
  5
80EF
102
{ACAD_REACTORS
330
80E2
102
}
330
80E2
100
AcDbScale
 70
     0
300
1" = 1'-0"
140
1.0
141
12.0
290
     0
  0
SCALE
  5
80F0
102
{ACAD_REACTORS
330
80E2
102
}
330
80E2
100
AcDbScale
 70
     0
300
1-1/2" = 1'-0"
140
1.5
141
12.0
290
     0
  0
SCALE
  5
80F1
102
{ACAD_REACTORS
330
80E2
102
}
330
80E2
100
AcDbScale
 70
     0
300
3" = 1'-0"
140
3.0
141
12.0
290
     0
  0
SCALE
  5
80F2
102
{ACAD_REACTORS
330
80E2
102
}
330
80E2
100
AcDbScale
 70
     0
300
6" = 1'-0"
140
6.0
141
12.0
290
     0
  0
SCALE
  5
80F3
102
{ACAD_REACTORS
330
80E2
102
}
330
80E2
100
AcDbScale
 70
     0
300
1'-0" = 1'-0"
140
12.0
141
12.0
290
     0
  0
ACDBSECTIONVIEWSTYLE
  5
8108
102
{ACAD_XDICTIONARY
360
848D
102
}
102
{ACAD_REACTORS
330
8107
102
}
330
8107
100
AcDbModelDocViewStyle
 70
     0
  3
Imperial24
290
     0
100
AcDbSectionViewStyle
 70
     0
 71
     0
 90
       78
 71
     1
340
80F5
 40
0.24
340
0
340
0
 40
0.24
300
I, O, Q, S, X, Z
 40
0.48
 90
        3
 40
0.18
 90
        1
 71
     2
340
80FC
 90
       25
340
80FC
 90
       50
 40
0.24
 40
0.0
 40
0.24
 71
     3
340
80F5
 40
0.24
 90
        1
 40
0.75
 90
        1
300
%<\AcVar ViewType \f "%tc1">% %<\AcVar ViewSectionStartId>%-%<\AcVar ViewSectionEndId>%\PSCALE %<\AcVar ViewScale \f "%sn">%
 71
     4
300
ANSI31
 40
1.0
 90
        0
290
     0
290
     0
 90
        6
 40
0.0
 40
1.570796326794896
 40
0.2617993877991494
 40
1.308996938995747
 40
-0.2617993877991494
 40
1.832595714594046
  0
TABLESTYLE
  5
8104
102
{ACAD_XDICTIONARY
360
8454
102
}
102
{ACAD_REACTORS
330
8103
102
}
330
8103
100
AcDbTableStyle
  3
Standard
 70
     0
 71
     0
 40
0.06
 41
0.06
280
     0
281
     0
  7
STANDARD
140
0.18
170
     2
 62
     0
 63
     7
283
     0
274
    -2
284
     1
 64
     0
275
    -2
285
     1
 65
     0
276
    -2
286
     1
 66
     0
277
    -2
287
     1
 67
     0
278
    -2
288
     1
 68
     0
279
    -2
289
     1
 69
     0
  7
STANDARD
140
0.25
170
     5
 62
     0
 63
     7
283
     0
274
    -2
284
     1
 64
     0
275
    -2
285
     1
 65
     0
276
    -2
286
     1
 66
     0
277
    -2
287
     1
 67
     0
278
    -2
288
     1
 68
     0
279
    -2
289
     1
 69
     0
  7
STANDARD
140
0.18
170
     5
 62
     0
 63
     7
283
     0
274
    -2
284
     1
 64
     0
275
    -2
285
     1
 65
     0
276
    -2
286
     1
 66
     0
277
    -2
287
     1
 67
     0
278
    -2
288
     1
 68
     0
279
    -2
289
     1
 69
     0
  0
VISUALSTYLE
  5
80CF
102
{ACAD_XDICTIONARY
360
8465
102
}
102
{ACAD_REACTORS
330
80C9
102
}
330
80C9
100
AcDbVisualStyle
  2
2dWireframe
 70
     4
 71
     0
 72
     2
 73
     0
 90
        0
 40
-0.6
 41
-30.0
 62
     5
 63
     7
 74
     1
 91
        4
 64
     7
 65
   257
 75
     1
175
     1
 42
1.0
 92
        0
 66
   257
 43
1.0
 76
     1
 77
     6
 78
     2
 67
     7
 79
     5
170
     0
171
     0
290
     0
174
     0
 93
        1
 44
0.0
173
     0
291
     0
 45
0.0
1001
ACAD
1000
AcDbSavedByObjectVersion
1070
     0
  0
VISUALSTYLE
  5
80CE
102
{ACAD_XDICTIONARY
360
8463
102
}
102
{ACAD_REACTORS
330
80C9
102
}
330
80C9
100
AcDbVisualStyle
  2
Basic
 70
     7
 71
     1
 72
     0
 73
     1
 90
        0
 40
-0.6
 41
-30.0
 62
     5
 63
     7
 74
     0
 91
        4
 64
     7
 65
   257
 75
     1
175
     1
 42
1.0
 92
        8
 66
     7
 43
1.0
 76
     1
 77
     6
 78
     2
 67
     7
 79
     5
170
     0
171
     0
290
     0
174
     0
 93
        1
 44
0.0
173
     0
291
     1
 45
0.0
1001
ACAD
1000
AcDbSavedByObjectVersion
1070
     0
  0
VISUALSTYLE
  5
80D5
102
{ACAD_XDICTIONARY
360
8471
102
}
102
{ACAD_REACTORS
330
80C9
102
}
330
80C9
100
AcDbVisualStyle
  2
Brighten
 70
    12
 71
     2
 72
     2
 73
     0
 90
        0
 40
-0.6
 41
-30.0
 62
     5
 63
     7
 74
     1
 91
        4
 64
     7
 65
   257
 75
     1
175
     1
 42
1.0
 92
        8
 66
     7
 43
1.0
 76
     1
 77
     6
 78
     2
 67
     7
 79
     5
170
     0
171
     0
290
     0
174
     0
 93
        1
 44
50.0
173
     0
291
     1
 45
0.0
1001
ACAD
1000
AcDbSavedByObjectVersion
1070
     0
  0
VISUALSTYLE
  5
80D9
102
{ACAD_XDICTIONARY
360
8479
102
}
102
{ACAD_REACTORS
330
80C9
102
}
330
80C9
100
AcDbVisualStyle
  2
ColorChange
 70
    16
 71
     2
 72
     2
 73
     3
 90
        0
 40
-0.6
 41
-30.0
 62
     5
 63
     8
 74
     1
 91
        4
 64
     7
 65
   257
 75
     1
175
     1
 42
1.0
 92
        8
 66
     8
 43
1.0
 76
     1
 77
     6
 78
     2
 67
     7
 79
     5
170
     0
171
     0
290
     0
174
     0
 93
        1
 44
0.0
173
     0
291
     1
 45
0.0
1001
ACAD
1000
AcDbSavedByObjectVersion
1070
     0
  0
VISUALSTYLE
  5
80D2
102
{ACAD_XDICTIONARY
360
846B
102
}
102
{ACAD_REACTORS
330
80C9
102
}
330
80C9
100
AcDbVisualStyle
  2
Conceptual
 70
     9
 71
     3
 72
     2
 73
     0
 90
        0
 40
-0.6
 41
-30.0
 62
     5
 63
     7
 74
     2
 91
        2
 64
     7
 65
   257
 75
     1
175
     1
 42
179.0
 92
        8
 66
     7
 43
1.0
 76
     1
 77
     6
 78
     2
 67
     7
 79
     3
170
     0
171
     0
290
     0
174
     0
 93
        1
 44
0.0
173
     0
291
     0
 45
0.0
1001
ACAD
1000
AcDbSavedByObjectVersion
1070
     0
  0
VISUALSTYLE
  5
80D4
102
{ACAD_XDICTIONARY
360
846F
102
}
102
{ACAD_REACTORS
330
80C9
102
}
330
80C9
100
AcDbVisualStyle
  2
Dim
 70
    11
 71
     2
 72
     2
 73
     0
 90
        0
 40
-0.6
 41
-30.0
 62
     5
 63
     7
 74
     1
 91
        4
 64
     7
 65
   257
 75
     1
175
     1
 42
1.0
 92
        8
 66
     7
 43
1.0
 76
     1
 77
     6
 78
     2
 67
     7
 79
     5
170
     0
171
     0
290
     0
174
     0
 93
        1
 44
-50.0
173
     0
291
     1
 45
0.0
1001
ACAD
1000
AcDbSavedByObjectVersion
1070
     0
  0
VISUALSTYLE
  5
80E1
102
{ACAD_XDICTIONARY
360
8489
102
}
102
{ACAD_REACTORS
330
80C9
102
}
330
80C9
100
AcDbVisualStyle
  2
EdgeColorOff
 70
    22
 71
     2
 72
     2
 73
     0
 90
        0
 40
-0.6
 41
-30.0
 62
     5
 63
     7
 74
     1
 91
        4
 64
     7
 65
   257
 75
     1
175
     1
 42
1.0
 92
        8
 66
     7
 43
1.0
 76
     1
 77
     6
 78
     2
 67
     7
 79
     5
170
     0
171
     0
290
     0
174
     0
 93
        1
 44
0.0
173
     0
291
     1
 45
0.0
1001
ACAD
1000
AcDbSavedByObjectVersion
1070
     0
  0
VISUALSTYLE
  5
80D8
102
{ACAD_XDICTIONARY
360
8477
102
}
102
{ACAD_REACTORS
330
80C9
102
}
330
80C9
100
AcDbVisualStyle
  2
Facepattern
 70
    15
 71
     2
 72
     2
 73
     0
 90
        0
 40
-0.6
 41
-30.0
 62
     5
 63
     7
 74
     1
 91
        4
 64
     7
 65
   257
 75
     1
175
     1
 42
1.0
 92
        8
 66
     7
 43
1.0
 76
     1
 77
     6
 78
     2
 67
     7
 79
     5
170
     0
171
     0
290
     0
174
     0
 93
        1
 44
0.0
173
     0
291
     1
 45
0.0
1001
ACAD
1000
AcDbSavedByObjectVersion
1070
     0
  0
VISUALSTYLE
  5
80CA
102
{ACAD_XDICTIONARY
360
845B
102
}
102
{ACAD_REACTORS
330
80C9
102
}
330
80C9
100
AcDbVisualStyle
  2
Flat
 70
     0
 71
     2
 72
     1
 73
     1
 90
        2
 40
-0.6
 41
30.0
 62
     5
 63
     7
 74
     0
 91
        0
 64
     7
 65
   257
 75
     1
175
     1
 42
1.0
 92
        8
 66
     7
 43
1.0
 76
     1
 77
     6
 78
     2
 67
     7
 79
     5
170
     0
171
     0
290
     0
174
     0
 93
       13
 44
0.0
173
     0
291
     1
 45
0.0
1001
ACAD
1000
AcDbSavedByObjectVersion
1070
     0
  0
VISUALSTYLE
  5
80CB
102
{ACAD_XDICTIONARY
360
845D
102
}
102
{ACAD_REACTORS
330
80C9
102
}
330
80C9
100
AcDbVisualStyle
  2
FlatWithEdges
 70
     1
 71
     2
 72
     1
 73
     1
 90
        2
 40
-0.6
 41
30.0
 62
     5
 63
     7
 74
     1
 91
        0
 64
     7
 65
   257
 75
     1
175
     1
 42
1.0
 92
        0
 66
   257
 43
1.0
 76
     1
 77
     6
 78
     2
 67
     7
 79
     5
170
     0
171
     0
290
     0
174
     0
 93
       13
 44
0.0
173
     0
291
     1
 45
0.0
1001
ACAD
1000
AcDbSavedByObjectVersion
1070
     0
  0
VISUALSTYLE
  5
80CC
102
{ACAD_XDICTIONARY
360
845F
102
}
102
{ACAD_REACTORS
330
80C9
102
}
330
80C9
100
AcDbVisualStyle
  2
Gouraud
 70
     2
 71
     2
 72
     2
 73
     1
 90
        2
 40
-0.6
 41
30.0
 62
     5
 63
     7
 74
     0
 91
        0
 64
     7
 65
   257
 75
     1
175
     1
 42
1.0
 92
        0
 66
     7
 43
1.0
 76
     1
 77
     6
 78
     2
 67
     7
 79
     5
170
     0
171
     0
290
     0
174
     0
 93
       13
 44
0.0
173
     0
291
     1
 45
0.0
1001
ACAD
1000
AcDbSavedByObjectVersion
1070
     0
  0
VISUALSTYLE
  5
80CD
102
{ACAD_XDICTIONARY
360
8461
102
}
102
{ACAD_REACTORS
330
80C9
102
}
330
80C9
100
AcDbVisualStyle
  2
GouraudWithEdges
 70
     3
 71
     2
 72
     2
 73
     1
 90
        2
 40
-0.6
 41
30.0
 62
     5
 63
     7
 74
     1
 91
        0
 64
     7
 65
   257
 75
     1
175
     1
 42
1.0
 92
        0
 66
   257
 43
1.0
 76
     1
 77
     6
 78
     2
 67
     7
 79
     5
170
     0
171
     0
290
     0
174
     0
 93
       13
 44
0.0
173
     0
291
     1
 45
0.0
1001
ACAD
1000
AcDbSavedByObjectVersion
1070
     0
  0
VISUALSTYLE
  5
80D1
102
{ACAD_XDICTIONARY
360
8469
102
}
102
{ACAD_REACTORS
330
80C9
102
}
330
80C9
100
AcDbVisualStyle
  2
Hidden
 70
     6
 71
     1
 72
     2
 73
     2
 90
        0
 40
-0.6
 41
-30.0
 62
     5
 63
     7
 74
     2
 91
        2
 64
     7
 65
   257
 75
     2
175
     1
 42
40.0
 92
        0
 66
   257
 43
1.0
 76
     1
 77
     6
 78
     2
 67
     7
 79
     3
170
     0
171
     0
290
     0
174
     0
 93
        1
 44
0.0
173
     0
291
     0
 45
0.0
1001
ACAD
1000
AcDbSavedByObjectVersion
1070
     0
  0
VISUALSTYLE
  5
80DF
102
{ACAD_XDICTIONARY
360
8485
102
}
102
{ACAD_REACTORS
330
80C9
102
}
330
80C9
100
AcDbVisualStyle
  2
JitterOff
 70
    20
 71
     2
 72
     2
 73
     0
 90
        0
 40
-0.6
 41
-30.0
 62
     5
 63
     7
 74
     1
 91
        4
 64
     7
 65
   257
 75
     1
175
     1
 42
1.0
 92
       10
 66
     7
 43
1.0
 76
     1
 77
     6
 78
     2
 67
     7
 79
     5
170
     0
171
     0
290
     0
174
     0
 93
        1
 44
0.0
173
     0
291
     1
 45
0.0
1001
ACAD
1000
AcDbSavedByObjectVersion
1070
     0
  0
VISUALSTYLE
  5
80D7
102
{ACAD_XDICTIONARY
360
8475
102
}
102
{ACAD_REACTORS
330
80C9
102
}
330
80C9
100
AcDbVisualStyle
  2
Linepattern
 70
    14
 71
     2
 72
     2
 73
     0
 90
        0
 40
-0.6
 41
-30.0
 62
     5
 63
     7
 74
     1
 91
        4
 64
     7
 65
   257
 75
     7
175
     7
 42
1.0
 92
        8
 66
     7
 43
1.0
 76
     1
 77
     6
 78
     2
 67
     7
 79
     5
170
     0
171
     0
290
     0
174
     0
 93
        1
 44
0.0
173
     0
291
     1
 45
0.0
1001
ACAD
1000
AcDbSavedByObjectVersion
1070
     0
  0
VISUALSTYLE
  5
80E0
102
{ACAD_XDICTIONARY
360
8487
102
}
102
{ACAD_REACTORS
330
80C9
102
}
330
80C9
100
AcDbVisualStyle
  2
OverhangOff
 70
    21
 71
     2
 72
     2
 73
     0
 90
        0
 40
-0.6
 41
-30.0
 62
     5
 63
     7
 74
     1
 91
        4
 64
     7
 65
   257
 75
     1
175
     1
 42
1.0
 92
        9
 66
     7
 43
1.0
 76
     1
 77
     6
 78
     2
 67
     7
 79
     5
170
     0
171
     0
290
     0
174
     0
 93
        1
 44
0.0
173
     0
291
     1
 45
0.0
1001
ACAD
1000
AcDbSavedByObjectVersion
1070
     0
  0
VISUALSTYLE
  5
80D3
102
{ACAD_XDICTIONARY
360
846D
102
}
102
{ACAD_REACTORS
330
80C9
102
}
330
80C9
100
AcDbVisualStyle
  2
Realistic
 70
     8
 71
     2
 72
     3
 73
     0
 90
        2
 40
-0.6
 41
30.0
 62
     5
 63
     7
 74
     0
 91
        0
 64
     7
 65
   257
 75
     1
175
     1
 42
1.0
 92
        8
 66
   257
 43
1.0
 76
     1
 77
     6
 78
     2
 67
     7
 79
     3
170
     0
171
     0
290
     0
174
     0
 93
       13
 44
0.0
173
     0
291
     0
 45
0.0
1001
ACAD
1000
AcDbSavedByObjectVersion
1070
     0
  0
VISUALSTYLE
  5
80DE
102
{ACAD_XDICTIONARY
360
8483
102
}
102
{ACAD_REACTORS
330
80C9
102
}
330
80C9
100
AcDbVisualStyle
  2
Shaded
 70
    27
 71
     2
 72
     2
 73
     1
 90
        2
 40
-0.6
 41
30.0
 62
     5
 63
     7
 74
     0
 91
        4
 64
     7
 65
   257
 75
     1
175
     1
 42
1.0
 92
        8
 66
   257
 43
1.0
 76
     1
 77
     6
 78
     2
 67
     8
 79
     3
170
     0
171
     0
290
     0
174
     0
 93
        5
 44
0.0
173
     0
291
     0
 45
0.0
1001
ACAD
1000
AcDbSavedByObjectVersion
1070
     0
  0
VISUALSTYLE
  5
80DD
102
{ACAD_XDICTIONARY
360
8481
102
}
102
{ACAD_REACTORS
330
80C9
102
}
330
80C9
100
AcDbVisualStyle
  2
Shaded with edges
 70
    26
 71
     2
 72
     2
 73
     1
 90
        2
 40
-0.6
 41
30.0
 62
     5
 63
     7
 74
     1
 91
       10
 64
     7
 65
   257
 75
     2
175
     1
 42
1.0
 92
        8
 66
   257
 43
1.0
 76
     1
 77
     6
 78
     2
 67
     7
 79
     3
170
     0
171
     0
290
     0
174
     0
 93
        5
 44
0.0
173
     0
291
     0
 45
0.0
1001
ACAD
1000
AcDbSavedByObjectVersion
1070
     0
  0
VISUALSTYLE
  5
80DA
102
{ACAD_XDICTIONARY
360
847B
102
}
102
{ACAD_REACTORS
330
80C9
102
}
330
80C9
100
AcDbVisualStyle
  2
Shades of Gray
 70
    23
 71
     2
 72
     2
 73
     3
 90
        0
 40
-0.6
 41
-30.0
 62
     5
 63
     7
 74
     2
 91
        2
 64
     7
 65
     7
 75
     1
175
     1
 42
40.0
 92
        8
 66
     7
 43
1.0
 76
     1
 77
     6
 78
     2
 67
     7
 79
     3
170
     0
171
     0
290
     0
174
     0
 93
        1
 44
0.0
173
     0
291
     0
 45
0.0
1001
ACAD
1000
AcDbSavedByObjectVersion
1070
     0
  0
VISUALSTYLE
  5
80DB
102
{ACAD_XDICTIONARY
360
847D
102
}
102
{ACAD_REACTORS
330
80C9
102
}
330
80C9
100
AcDbVisualStyle
  2
Sketchy
 70
    24
 71
     1
 72
     2
 73
     2
 90
        0
 40
-0.6
 41
-30.0
 62
     5
 63
     7
 74
     2
 91
        2
 64
     7
 65
     7
 75
     1
175
     1
 42
40.0
 92
       11
 66
     7
 43
1.0
 76
     1
 77
     6
 78
     2
 67
     7
 79
     6
170
     0
171
     0
290
     0
174
     0
 93
        1
 44
0.0
173
     0
291
     0
 45
0.0
1001
ACAD
1000
AcDbSavedByObjectVersion
1070
     0
  0
VISUALSTYLE
  5
80D6
102
{ACAD_XDICTIONARY
360
8473
102
}
102
{ACAD_REACTORS
330
80C9
102
}
330
80C9
100
AcDbVisualStyle
  2
Thicken
 70
    13
 71
     2
 72
     2
 73
     0
 90
        0
 40
-0.6
 41
-30.0
 62
     5
 63
     7
 74
     1
 91
        4
 64
     7
 65
   257
 75
     1
175
     1
 42
1.0
 92
       12
 66
     7
 43
1.0
 76
     1
 77
     6
 78
     2
 67
     7
 79
     5
170
     0
171
     0
290
     0
174
     0
 93
        1
 44
0.0
173
     0
291
     1
 45
0.0
1001
ACAD
1000
AcDbSavedByObjectVersion
1070
     0
  0
VISUALSTYLE
  5
80D0
102
{ACAD_XDICTIONARY
360
8467
102
}
102
{ACAD_REACTORS
330
80C9
102
}
330
80C9
100
AcDbVisualStyle
  2
Wireframe
 70
     5
 71
     0
 72
     2
 73
     0
 90
        0
 40
-0.6
 41
-30.0
 62
     5
 63
     7
 74
     1
 91
        4
 64
     7
 65
   257
 75
     1
175
     1
 42
1.0
 92
        0
 66
   257
 43
1.0
 76
     1
 77
     6
 78
     2
 67
     7
 79
     3
170
     0
171
     0
290
     0
174
     0
 93
        1
 44
0.0
173
     0
291
     0
 45
0.0
1001
ACAD
1000
AcDbSavedByObjectVersion
1070
     0
  0
VISUALSTYLE
  5
80DC
102
{ACAD_XDICTIONARY
360
847F
102
}
102
{ACAD_REACTORS
330
80C9
102
}
330
80C9
100
AcDbVisualStyle
  2
X-Ray
 70
    25
 71
     2
 72
     2
 73
     1
 90
        1
 40
0.5
 41
-30.0
 62
     5
 63
     7
 74
     1
 91
        0
 64
     7
 65
   257
 75
     1
175
     1
 42
1.0
 92
        8
 66
     7
 43
1.0
 76
     1
 77
     6
 78
     2
 67
     7
 79
     3
170
     0
171
     0
290
     0
174
     0
 93
       13
 44
0.0
173
     0
291
     0
 45
0.0
1001
ACAD
1000
AcDbSavedByObjectVersion
1070
     0
  0
DICTIONARYVAR
  5
844E
102
{ACAD_REACTORS
330
8449
102
}
330
8449
100
DictionaryVariables
280
     0
  1
1:1
  0
DICTIONARYVAR
  5
844B
102
{ACAD_REACTORS
330
8449
102
}
330
8449
100
DictionaryVariables
280
     0
  1
STANDARD
  0
DICTIONARYVAR
  5
844A
102
{ACAD_REACTORS
330
8449
102
}
330
8449
100
DictionaryVariables
280
     0
  1
STANDARD
  0
DICTIONARYVAR
  5
844C
102
{ACAD_REACTORS
330
8449
102
}
330
8449
100
DictionaryVariables
280
     0
  1
Imperial24
  0
DICTIONARYVAR
  5
844D
102
{ACAD_REACTORS
330
8449
102
}
330
8449
100
DictionaryVariables
280
     0
  1
Imperial24
  0
DICTIONARYVAR
  5
8451
102
{ACAD_REACTORS
330
8449
102
}
330
8449
100
DictionaryVariables
280
     0
  1
1
  0
DICTIONARYVAR
  5
8450
102
{ACAD_REACTORS
330
8449
102
}
330
8449
100
DictionaryVariables
280
     0
  1
0
  0
DICTIONARYVAR
  5
844F
102
{ACAD_REACTORS
330
8449
102
}
330
8449
100
DictionaryVariables
280
     0
  1
127
  0
DICTIONARYVAR
  5
8452
102
{ACAD_REACTORS
330
8449
102
}
330
8449
100
DictionaryVariables
280
     0
  1
2
  0
DICTIONARY
  5
848F
330
810A
100
AcDbDictionary
280
     1
281
     1
  3
ACAD_XREC_ROUNDTRIP
360
8490
  0
DICTIONARY
  5
8493
330
8112
100
AcDbDictionary
280
     1
281
     1
  3
ACAD_XREC_ROUNDTRIP
360
8494
  0
DICTIONARY
  5
8491
330
810E
100
AcDbDictionary
280
     1
281
     1
  3
ACAD_XREC_ROUNDTRIP
360
8492
  0
DICTIONARY
  5
80BA
330
80B9
100
AcDbDictionary
280
     1
281
     1
  3
ACAD_XREC_ROUNDTRIP
360
8459
  3
BUMPTILE
360
80BC
  3
DIFFUSETILE
360
80BB
  3
OPACITYTILE
360
80BF
  3
REFLECTIONTILE
360
80BE
  3
REFRACTIONTILE
360
80C0
  3
SPECULARTILE
360
80BD
  0
DICTIONARY
  5
80B2
330
80B1
100
AcDbDictionary
280
     1
281
     1
  3
ACAD_XREC_ROUNDTRIP
360
8458
  3
BUMPTILE
360
80B4
  3
DIFFUSETILE
360
80B3
  3
OPACITYTILE
360
80B7
  3
REFLECTIONTILE
360
80B6
  3
REFRACTIONTILE
360
80B8
  3
SPECULARTILE
360
80B5
  0
DICTIONARY
  5
80C2
330
80C1
100
AcDbDictionary
280
     1
281
     1
  3
ACAD_XREC_ROUNDTRIP
360
845A
  3
BUMPTILE
360
80C4
  3
DIFFUSETILE
360
80C3
  3
FBXASSET
360
8158
  3
OPACITYTILE
360
80C7
  3
REFLECTIONTILE
360
80C6
  3
REFRACTIONTILE
360
80C8
  3
SPECULARTILE
360
80C5
  0
DICTIONARY
  5
848D
330
8108
100
AcDbDictionary
280
     1
281
     1
  3
ACAD_XREC_ROUNDTRIP
360
848E
  0
DICTIONARY
  5
8454
330
8104
100
AcDbDictionary
280
     1
281
     1
  3
ACAD_ROUNDTRIP_2008_TABLESTYLE_CELLSTYLEMAP
360
8455
  3
ACAD_XREC_ROUNDTRIP
360
848B
  0
DICTIONARY
  5
8465
330
80CF
100
AcDbDictionary
280
     1
281
     1
  3
ACAD_XREC_ROUNDTRIP
360
8466
  0
DICTIONARY
  5
8463
330
80CE
100
AcDbDictionary
280
     1
281
     1
  3
ACAD_XREC_ROUNDTRIP
360
8464
  0
DICTIONARY
  5
8471
330
80D5
100
AcDbDictionary
280
     1
281
     1
  3
ACAD_XREC_ROUNDTRIP
360
8472
  0
DICTIONARY
  5
8479
330
80D9
100
AcDbDictionary
280
     1
281
     1
  3
ACAD_XREC_ROUNDTRIP
360
847A
  0
DICTIONARY
  5
846B
330
80D2
100
AcDbDictionary
280
     1
281
     1
  3
ACAD_XREC_ROUNDTRIP
360
846C
  0
DICTIONARY
  5
846F
330
80D4
100
AcDbDictionary
280
     1
281
     1
  3
ACAD_XREC_ROUNDTRIP
360
8470
  0
DICTIONARY
  5
8489
330
80E1
100
AcDbDictionary
280
     1
281
     1
  3
ACAD_XREC_ROUNDTRIP
360
848A
  0
DICTIONARY
  5
8477
330
80D8
100
AcDbDictionary
280
     1
281
     1
  3
ACAD_XREC_ROUNDTRIP
360
8478
  0
DICTIONARY
  5
845B
330
80CA
100
AcDbDictionary
280
     1
281
     1
  3
ACAD_XREC_ROUNDTRIP
360
845C
  0
DICTIONARY
  5
845D
330
80CB
100
AcDbDictionary
280
     1
281
     1
  3
ACAD_XREC_ROUNDTRIP
360
845E
  0
DICTIONARY
  5
845F
330
80CC
100
AcDbDictionary
280
     1
281
     1
  3
ACAD_XREC_ROUNDTRIP
360
8460
  0
DICTIONARY
  5
8461
330
80CD
100
AcDbDictionary
280
     1
281
     1
  3
ACAD_XREC_ROUNDTRIP
360
8462
  0
DICTIONARY
  5
8469
330
80D1
100
AcDbDictionary
280
     1
281
     1
  3
ACAD_XREC_ROUNDTRIP
360
846A
  0
DICTIONARY
  5
8485
330
80DF
100
AcDbDictionary
280
     1
281
     1
  3
ACAD_XREC_ROUNDTRIP
360
8486
  0
DICTIONARY
  5
8475
330
80D7
100
AcDbDictionary
280
     1
281
     1
  3
ACAD_XREC_ROUNDTRIP
360
8476
  0
DICTIONARY
  5
8487
330
80E0
100
AcDbDictionary
280
     1
281
     1
  3
ACAD_XREC_ROUNDTRIP
360
8488
  0
DICTIONARY
  5
846D
330
80D3
100
AcDbDictionary
280
     1
281
     1
  3
ACAD_XREC_ROUNDTRIP
360
846E
  0
DICTIONARY
  5
8483
330
80DE
100
AcDbDictionary
280
     1
281
     1
  3
ACAD_XREC_ROUNDTRIP
360
8484
  0
DICTIONARY
  5
8481
330
80DD
100
AcDbDictionary
280
     1
281
     1
  3
ACAD_XREC_ROUNDTRIP
360
8482
  0
DICTIONARY
  5
847B
330
80DA
100
AcDbDictionary
280
     1
281
     1
  3
ACAD_XREC_ROUNDTRIP
360
847C
  0
DICTIONARY
  5
847D
330
80DB
100
AcDbDictionary
280
     1
281
     1
  3
ACAD_XREC_ROUNDTRIP
360
847E
  0
DICTIONARY
  5
8473
330
80D6
100
AcDbDictionary
280
     1
281
     1
  3
ACAD_XREC_ROUNDTRIP
360
8474
  0
DICTIONARY
  5
8467
330
80D0
100
AcDbDictionary
280
     1
281
     1
  3
ACAD_XREC_ROUNDTRIP
360
8468
  0
DICTIONARY
  5
847F
330
80DC
100
AcDbDictionary
280
     1
281
     1
  3
ACAD_XREC_ROUNDTRIP
360
8480
  0
XRECORD
  5
8490
102
{ACAD_REACTORS
330
848F
102
}
330
848F
100
AcDbXrecord
280
     1
102
DISPLAYNAME
  1
Imperial24
102
FLAGS
 90
        0
  0
XRECORD
  5
8494
102
{ACAD_REACTORS
330
8493
102
}
330
8493
100
AcDbXrecord
280
     1
102
SHADEPLOT
 70
     0
102
SHADEPLOTRESLEVEL
 70
     2
102
SHADEPLOTCUSTOMDPI
 70
   300
  0
XRECORD
  5
8492
102
{ACAD_REACTORS
330
8491
102
}
330
8491
100
AcDbXrecord
280
     1
102
SHADEPLOT
 70
     0
102
SHADEPLOTRESLEVEL
 70
     2
102
SHADEPLOTCUSTOMDPI
 70
   300
  0
XRECORD
  5
8459
102
{ACAD_REACTORS
330
80BA
102
}
330
80BA
100
AcDbXrecord
280
     1
102
MATERIAL
148
0.0
149
0.0
149
0.0
 93
        0
 94
      127
282
     0
 72
     0
 77
     0
171
     0
175
     0
179
     0
273
     0
  0
XRECORD
  5
80BC
102
{ACAD_REACTORS
330
80BA
102
}
330
80BA
100
AcDbXrecord
280
     1
270
     1
271
     1
  0
XRECORD
  5
80BB
102
{ACAD_REACTORS
330
80BA
102
}
330
80BA
100
AcDbXrecord
280
     1
270
     1
271
     1
  0
XRECORD
  5
80BF
102
{ACAD_REACTORS
330
80BA
102
}
330
80BA
100
AcDbXrecord
280
     1
270
     1
271
     1
  0
XRECORD
  5
80BE
102
{ACAD_REACTORS
330
80BA
102
}
330
80BA
100
AcDbXrecord
280
     1
270
     1
271
     1
  0
XRECORD
  5
80C0
102
{ACAD_REACTORS
330
80BA
102
}
330
80BA
100
AcDbXrecord
280
     1
270
     1
271
     1
  0
XRECORD
  5
80BD
102
{ACAD_REACTORS
330
80BA
102
}
330
80BA
100
AcDbXrecord
280
     1
270
     1
271
     1
  0
XRECORD
  5
8458
102
{ACAD_REACTORS
330
80B2
102
}
330
80B2
100
AcDbXrecord
280
     1
102
MATERIAL
148
0.0
149
0.0
149
0.0
 93
        0
 94
      127
282
     0
 72
     0
 77
     0
171
     0
175
     0
179
     0
273
     0
  0
XRECORD
  5
80B4
102
{ACAD_REACTORS
330
80B2
102
}
330
80B2
100
AcDbXrecord
280
     1
270
     1
271
     1
  0
XRECORD
  5
80B3
102
{ACAD_REACTORS
330
80B2
102
}
330
80B2
100
AcDbXrecord
280
     1
270
     1
271
     1
  0
XRECORD
  5
80B7
102
{ACAD_REACTORS
330
80B2
102
}
330
80B2
100
AcDbXrecord
280
     1
270
     1
271
     1
  0
XRECORD
  5
80B6
102
{ACAD_REACTORS
330
80B2
102
}
330
80B2
100
AcDbXrecord
280
     1
270
     1
271
     1
  0
XRECORD
  5
80B8
102
{ACAD_REACTORS
330
80B2
102
}
330
80B2
100
AcDbXrecord
280
     1
270
     1
271
     1
  0
XRECORD
  5
80B5
102
{ACAD_REACTORS
330
80B2
102
}
330
80B2
100
AcDbXrecord
280
     1
270
     1
271
     1
  0
XRECORD
  5
845A
102
{ACAD_REACTORS
330
80C2
102
}
330
80C2
100
AcDbXrecord
280
     1
102
MATERIAL
148
0.0
149
0.0
149
0.0
 93
        0
 94
      127
282
     0
 72
     0
 77
     0
171
     0
175
     0
179
     0
273
     0
  0
XRECORD
  5
80C4
102
{ACAD_REACTORS
330
80C2
102
}
330
80C2
100
AcDbXrecord
280
     1
270
     1
271
     1
  0
XRECORD
  5
80C3
102
{ACAD_REACTORS
330
80C2
102
}
330
80C2
100
AcDbXrecord
280
     1
270
     1
271
     1
  0
XRECORD
  5
8158
102
{ACAD_REACTORS
330
80C2
102
}
330
80C2
100
AcDbXrecord
280
     1
 70
     1
 90
1959938040
 71
     1
  1
6C15856A-339A-4985-9143-F83AA0E5ED8B
311
504B030414000608080004836D57B6F19661C0000000200100004F00000045303038423037382D333337332D343545452D423635452D3645433139324234313941422F4173736574446174612F446566696E6974696F6E4974657261746F7250726F706572746965732E62696EEB606060F80F0540260323103700495E20ED
311
9E9A975A94991C9C9C919A9BC8C00612C9C94F4ACC6147C831019920AE4B6A5A62694E0948976F6671726A4E4E625E6A7E69B12042A9426E6209D0B8C41C3D90264E20860914834C48875806B2DF0F88414E02D189290556F689C5C5A925B6FA694915FA864E9646A66606C6BA46CE6696BA262EC64EBA8E8626AEBACE16AE
311
E6C6CE2E66CEC686A6FA45A9C5F9A545C9A9C5FA46FA06F15093E30BF2D219185EECDBD836076809C80D204C080000504B030414000608080004836D5712F153D6EF000000300200004500000045303038423037382D333337332D343545452D423635452D3645433139324234313941422F4173736574446174612F496E73
311
74616E636550726F706572746965732E62696EEB606060F80F0540260323103700495E20ED9E9A975A94991C9C9C919A9BA8021430733634B5303573D43536B674D435B1B430D5B5343431D675B33076743470357575B170624768046931363471713532B5D43535012A34313332D475727372D13534373670367376B67474
311
B5042A03DBCBA019D37FE8ABC6157B20CD04146B0062181F4C03F940F0C11EA29A8141C08141002C0426541C106CAC2CA046088033B02A030AC2157C6006F21A8018AAF50194E6010A610250382264E08660284CD9E98021862280A91564B406929A0FF62C401E28B6F88038B83CB1243943D7A928312F25350524131B1BFB
311
9F161800504B030414000608080004836D5728BB58AF800100009E0500003D00000045303038423037382D333337332D343545452D423635452D3645433139324234313941422F536368656D61732F436F6D6D6F6E536368656D612E786D6CBD544D4FC23018BEFB2B96DE15493C78601010A34B880709DEDFB52FD0D8B54B
311
D70DF6EFED3AC0B12E6442E2716BFB3CEFF3D18E26FB440405EA8C2B1992E1C323095052C5B8DC842437EBFB673219DF8DA659866649B798C078B48AE6410122242F2A4994AC7F93815DF85C049C8564CA0A901499DD886B2EB9B1E02448F358701A9235880C49A0119892A20C89D1B9FD768815CAD268CB5E0355B40B1E47
311
F3E37A2020464BED06AA57CE8FCC20C3C3446D46761A2632A8C1283D07031EFF2AE7CCB1BFEEE916E406DFAC8E36FFD99A9D60A6944090EEDC3B670C7DC13DE86B6B2C5C240D6E503BB85ACD579D513F1B9F9A69DC9CC22AFA80C426D40AF0B21EA168559156B6276F0F726A6BFF04DCD513A87A62CAD41FB24FCB2858B395
311
2E3D852084DA25B9303C15687973CC8E8AAE11DF2836C38C6A9E765E8C1BA1BFB1DC29CDFE518C8B5A7655A4ED7E77291ABEB80DBD82EC866ADE1B8D05AF9E35CF09D7A061F38A986D9EC412B8F0F65E5D81534D9B231D1E5A8FE577A241F3A5FD01504B030414000608080004836D572CCEBD668A040000E01200003E0000
311
0045303038423037382D333337332D343545452D423635452D3645433139324234313941422F536368656D61732F47656E65726963536368656D612E786D6CD5586D6FDB380CFE7EBF42F0F7A649B70E1B90744856B4970F450FCD7A5F05459613EDE4174872DADCAF3F522F8ED3B88D2F1D06AC4050DBA2493EE4438AF2F8
311
EB73AEC8466823CB62928C06C384888297A92C5693A4B6D9D9E7E4EBD51FE3A931C22EF85AE4EC6AFC38BF261BA626C9AD288496DC3F4FCEAFC63366845F7A10452AF41DB320C0D44EC26EAB20918735565582695670811A6A49643A49A6E9069FA4604A64B29016DC4B48552F95E4932463CA888468C1D2B250DB4962750D
311
F7CE273069CE8363F1FF4EDB00E0A21999574AE4A2B00C353B93F3BD4777B8A61ED8F604ABFEDD79CE56A2B7BDFBDBC50996E0ADDE16FED26223C5D30956C29BDF4A55EA686E5E58B112DA45CE67F76F4FA27EFA3FB672FD7372FC388FAECDCA5209E693CAD167BADCD272F943701B3812F8A3D852008B1D2E32DB927B2F83
311
3C6EA95879925356D254582695095A3CE982924720BE5774A3CB9CDCDB350427D2DF20DA1B5532EBE2D5D6288D75D4F7E4FD9890A0EF8E3D93EBB8F8BA4758158EF6FB90A6F9520281C93DE7AAC6D24607DA296BB96018123F821A7D6A5C5884050C475DA4865442732C8B95684A50165CBB3A32F25F783A4A480ED59AD7F9
311
24B968AEA50131F46303223E6A397B0E52976030DC1DCA81D7E7C1EDEEA42C19FF27635C505E2BD5198A599020DF50A2330FCB3AAF28CB0124108429553EF1B228802E2265D8F7CC2401042B155BCC7070F1E5C55F13B4A9577362CCCE46C32174E010C3C378C44841A4BDA00FE3A12006CE11EE6AEC59894D3526DDE1CD59
311
D503ECC324017F8061B7F162162FA62EDD81AE3308617770796DCBDAD2B2625C5AE8A63DE20B2C8AA5E95E76E5730823955956E33E705425A2187C185D36489A1B44D3DCEC2172F6BA2105C3546287A7194B2331768EBBE64F6E70A9930ABE0ADEA89E9E2C38523B810287AD67A54A039C1606EAFE68F8304610BB9093DBDD
311
ABC0B2AE4E290DCDA15376D7E39F72B556F0B32EAB5D3D498B4C41ABADEC3A1434C422D87E8025A84BDCB2B1417ED750FAE4DA8976863974C577C7F902D3F156AD354DEA3540DE6BEAE2BEA52F7A2EB4CA43802ECE5BF2CE2EDC9347179FFB023CE412E60BE16DA0BE29B374988A553F561DC04615DD35F7D2C8979F60E595
311
5CE93DF29DED8AFA1EE6642D53418086C03C47C377910F75F7E8F5EF665F70B60FFB22AEDF897D119E8423C773E819A3C1E55E550599EE6EDCA34D0C86FD72057DF2CD46F16A470682471C164E4346D5306BF12D7D12D82CFF673D41636C347443FEB51B50D72EA171A8E4A58623A4A16E0FA2B8B10A0D23268D87C33896EE
311
8FB73305A74BF224EDBADFA0BD674AB354D63DB7BD5D83426761C077DE767728235446A552754EB93B755891C3C4CC6CADE37CF0E912A7BB38DBA010F9DE1282EDF470CA69A9CDA482E334C4A6EA4107987980B17E72F31730EBF88BBD39E7C629F56797A3C0009C2C5AE7951D9A05A02773440F02EEB4DE396A3B6A570C72
311
CCFBCD823B0B8ED3F1D5CEDDFED772FA70236C83FB7D86C385D570B87107535572A60A96035F8F7C6A7192F13007246BBE0521855E6AC46F3E27689CEE7D186A6FD679D98CDCAD13333E04EBE7ED6F55FF01504B030414000608080004836D576180134D5F0100006B0300004500000045303038423037382D333337332D34
311
3545452D423635452D3645433139324234313941422F536368656D61732F52656E6465724D6174657269616C536368656D612E786D6CA5934D6FC2300C86EFFB1551EEE343DBA41D1A103009551ADAD40EAE28A4A68D9426284961FCFBE5A340113B2071746D3F765EBF4DC6BFB5407BD0862B49F0B037C0082453059725C1
311
8DDD3EBFE3F1E829991803366715D474942CD30FB4A782E00C64017A412D684E454CE3FE28995203B162A6EA5AC94B66997D225E109CD63B0135484BAD1B3C07E9080CA35DB3119C11BCA5C200461A68A1A438126C75E3E230D40FF81FB3F03C91D1E3A3A0AF79FE28E25BC39EC3E17E4C2A2D94A0833A51AF55BCCA7D8857
311
2FCBAC529C4140B020FC3AAFA886621DCED7EAD7664CC86024E806DC297DA1BB393E4156543457A4537DB8817349A70F8ACBF09B3EEE2CB2F33E91B65D60786E4E3B39B77E3FEEEF5650424525DA657FB8B46BE6BF064646F0A0F7327C0BC1BC1B4CBBC1C419FA3CCB23500007872A2580CAAE5461865565294E4EDB4617B6
311
2FF579DF9A5B2F54E834076A597573A020912FED777F9B3F504B030414000608080004836D5744B31DB351000000570000004700000045303038423037382D333337332D343545452D423635452D3645433139324234313941422F4173736574446174612F41737365745461626C654F66436F6E74656E74732E62696E5361
311
606030733634B5303573D43536B674D435B1B430D5B5343431D675B33076743470357575B1701202AACB4D2C492DCA4CCC492C28484D2C4ACC4B4E050A82012F90744FCD03CA26072767A4E6260200504B030414000608080004836D57F865834058000000680000004500000045303038423037382D333337332D34354545
311
2D423635452D3645433139324234313941422F4173736574446174612F53747265616D56657273696F6E5461626C652E696E66558CBD0A80300C06F73E4B117FB66E451741D041DC5BF98480A492E4FDD18EAEC7DD4555D89EF28DF51A0B1BD8340C4DE7DD848B988C0ACF0649566493F2408C508DDEBB99D5129FF8F1AF8C
311
F5B9503E20FAE5A16B5AF702504B030414000608080004836D572C998E39350100009A0400003600000045303038423037382D333337332D343545452D423635452D3645433139324234313941422F4173736574446174612F636E782E786D6CCD94314FC3301085FF4AE43D76922254558E2B044B2790A818D8AECEA5B5EA
311
D8917D41F0EFB1DB0CA022A60E5DCFEFCECF9FFC4EAE3F075B7C6088C6BB96D5BC62053AED3BE3F62D9BA82F97AC582B19BCA71F32563818B065B9CC94DC073F8D73A9C31E269BABD6B8E35C7C8811690B3B8BCFFDA377848E222BB485185B16F50107E03091EF301E790704BCE601A39F82C63489CC80F3241D10083BA69A
311
AA5994755DD68B6D7DBF6AEE56D5F25D8AAC5472E7BD9DF5265D16FC58E8F3AD4C5552E46325A760664D7E0B537F79E43BE3A4484A252385C464EEA0AF3175C0385AA381123AE13521954984304871162B2932835F249EB037CEE4964D3206E4C34BB287810CDE1C91FFBC5E9FCCC64502A7F176795C3ABC3E85D7D30F7A3B
311
07F294985BCBC9A5436E5C7F859488D31A49A1C95B457D03504B030414000608080004836D574906E874080100004F0300003400000045303038423037382D333337332D343545452D423635452D3645433139324234313941422F536368656D61732F636E782E786D6CCD933F4F432114C5BF0A617F7F6B4CD3F0E8E0E0E4
311
A24E6EC8BB6D4981FB7201A3DF5E7832B4899B0EDDE0F00B39E77011FB4F67D9075030E8273EB43D67E035CEC61F279EE2A1D972B6978210E305C699570E265E642EC591302D559AE1A0922DAA35FE5CC507740EFD8B3E81539C69AB42987858B7AD4A116708E7765651B5434B103091867C43340EEA0D9A404598B91CFB71
311
D30C43336C5E87FBDD78B7EBB76FA22BA414EF88B6F2C647205C98C6BCF0D94E2FBA722C452253999281CB4B6F6D6E437499902244CA1D54327E2D9954CB628D563157D5ADE00F234557A25E057E040F64F46D26BE32F76F919FC1CF404FF995C8287B9BC97FF3F8B702BA75F6F30894AF20BF01504B030414000608080004
311
836D57410A3D5871000000A40000002C00000045303038423037382D333337332D343545452D423635452D3645433139324234313941422F636E782E786D6C55CC4D0E82301086E1AB34B31774E7A22D31F1069E60020334B633A63FC6E34B0909B07DDE2F9FEE7EC1AB2FC5E4840DDC9A2B28E25E06C7938192C7CB1D5467
311
7514C9871928C640062A83D55394F2D968A0118BAFEA1DBF377CA444F98919176EAB9FEAAB9F2960DA5BBB1E2ED3FA6FFF504B030414000608080004836D57C1D081C07E000000A300000007000000636E782E786D6C4D8CDF0AC2201C465F457EF796E6FE385047860F329A1B92D3B0193D7E1ABBE8EA83C3778E183F9B47
311
6F9B5E2E0609F44400D9708FB30BAB84BC2F98031A954831EE7F374061DAAC848A418935C5FC3CD06C9729FB4ABD0B8F031A42B8263DC78CF50C37AD315877ADC19DB9D1E1A21B3A5C7531CE5529F3EB95AD79F505504B030414000608080004836D5716E99B5DA600000035010000130000005B436F6E74656E745F547970
311
65735D2E786D6C9590410E82301045AFD2740F4517C6180A0BF5065E60AC53688469D30E066F6F91AD9AB89CF9FFFD3F99BA9DC7413C3026E749CB4D59498164FCCD51A7E5C4B6D84BD136F5E5193089ECA5A465CF1C0E4A25D3E308A9F401292BD6C711388FB15301CC1D3A54DBAADA29E38991B8E0254336F5092D4C038B
311
F39CD76B6FC6A538AEBEA54A4B08617006389FA516557DE4AE8E7E70DE30729138228C5F021CD93F02D4FB0DCD0B504B030414000608080004836D573DEE336E64000000790000001B0000006175746F6465736B2D64657369676E2D7061636B6167652E786D6C35CBC10E83200C00D05F21DCA56CA76D41FC96062B120735
311
B69A7DBE268BB7777961F8D5AF396893C2ADB70FE7ADA196782C2DF776D7A97B5933C430F15651E5469C55D70F80A4992A3ADC954792C525AE70A1E4D6AD9816CC044FEFDF01FE3FDE907802504B030414000608080004836D5734F9021EF9000000960100003700000045303038423037382D333337332D343545452D4236
311
35452D3645433139324234313941422F4173736574446174612F636F72652E786D6C8550CB6E833010FC15B477836D1090C8386A49FA053DF5661987580936F2A3EAE7D70E546A4F3DED6A76767667D8E96B79149FCA796DCD00A4C4502823EDA4CD3C400C57D44371E2CC591B7ED1A0306251036418389B9D8DEB0E496B82
311
32193576523B28BC57010AF948CD005EDED4224A114362F87BB90A7917B32A49B9F1388B514FFBAA9E929ABE6AE58013DC76AF6387116EFA0B6AFA43830EED78466347E985B46F74C40756E565CE825E7EAE4BA7445013708A698D0841A47E27ED913647DC7FB02A3339F3C125CFFBD1EC0EF84BFEFA2C8260D536FDA31AD7
311
E97FD5A84DA8E9AEBA6DF8E4233DF91C7056E594527946986A4E947F03504B030414000608080004836D57EF18949DF7000000940100003500000045303038423037382D333337332D343545452D423635452D3645433139324234313941422F536368656D61732F636F72652E786D6C8550CB6E833010FC15B477836D1090
311
C8385269FA03EDA937CB38D44AB0911F553FBF3650A93DF5B4ABD9D9D99D6197AFE5517C2AE7B53503901243A18CB49336F30031DC500FC58533676DF84583C288450D9061E06C7636AE0724AD09CA64D4D8491DA0F05E0528E423350378F9A116518A1812C3DFCB55C8BB985549CA9DC7598C7A3A56F594D4F44D2B079CE0
311
B67B1A3B8C70D35F51D39F1A746AC7673476945E49FB42477C62555EE62CE8E5E7BA744A043501A798D6881044EA37D29E6973C6FD3BAB3293331F5CF27C1CCDEE80BF6E7F7A56EDB33F9A719DFED78CDA849A1E9AFB864F2ED28BDB80B32A6794CA1660AA394FFE0D504B030414000608080004836D5790BB6F3201010000
311
D70100002D00000045303038423037382D333337332D343545452D423635452D3645433139324234313941422F636F72652E786D6C9591CB4EC33010457F259ABD133B8F36AD1C5704E50F58B133F134586DECC80FC4E7E3902060072B5BD7E7CEF8CEF0CBFB7CCFDED0796D4D072CA790A119ADD266EA20862B6921BB08EE
311
AC0D3F30C88C9CB1835506C12767E3B24BA33501CDAA1AAB7017A5F718201BEFE9D2811F5F7196B98C2111FE962F72BCC90973966F9CE041CF5FD6D1A10CA84094B4AC086384554FEC702EEB336D9F79B19282476D4255EECD707E4195D925A448201A5E6CAF898A5AED8C56E98FFAAAD18118286D7B7A6C49551D2B5237C3
311
40FA433390C3F0C84E655FB3D3439F8A24B3E03EB83499BDC83A83BFDA37E3AF647151FF4CB6393C08F61DAA58C72C78F1B98374AE2B111F504B030414000608080004836D570F460F5306010000B201000008000000636F72652E786D6C8D504B6EC32014BC0A628F0DD8F227C244AA9B9EA0ABEEA8212E8A0D169FA8BD7D
311
2176A576D7D54333F3DE0CC3CE9FEB02EECA796DCD004981215066B2529B7980315C5107C19933676DF82583C088550D30C390B3D9D9B81DD0644D5026A3C64A7580C27B15209896F418A09F3ED42A0A114352F85BB189E92666559062D77116F4FAB33A3925829290534C2B440822D52B694EB43EE1EE8D9559C9598C5A1E
311
565A26777DD5CA414E70D33E8D2D46B8EE2EA8EEFA1AF5CDF88CC696D20B695EE8887B56E665CE7C70E9CFC7919433002FEED997953BC5D9BBB5CB2148A124B066F9821CB332137F42C74DFE23B436A1A2C7C17DC3A7CC29D08348C6B9C1341EF5A699DBE6DF504B0102140014000608080004836D57B6F19661C000000020
311
0100004F000000000000000000000000000000000045303038423037382D333337332D343545452D423635452D3645433139324234313941422F4173736574446174612F446566696E6974696F6E4974657261746F7250726F706572746965732E62696E504B0102140014000608080004836D5712F153D6EF000000300200
311
0045000000000000000000000000002D01000045303038423037382D333337332D343545452D423635452D3645433139324234313941422F4173736574446174612F496E7374616E636550726F706572746965732E62696E504B0102140014000608080004836D5728BB58AF800100009E0500003D00000000000000000000
311
0000007F02000045303038423037382D333337332D343545452D423635452D3645433139324234313941422F536368656D61732F436F6D6D6F6E536368656D612E786D6C504B0102140014000608080004836D572CCEBD668A040000E01200003E000000000000000000000000005A04000045303038423037382D33333733
311
2D343545452D423635452D3645433139324234313941422F536368656D61732F47656E65726963536368656D612E786D6C504B0102140014000608080004836D576180134D5F0100006B03000045000000000000000000000000004009000045303038423037382D333337332D343545452D423635452D3645433139324234
311
313941422F536368656D61732F52656E6465724D6174657269616C536368656D612E786D6C504B0102140014000608080004836D5744B31DB351000000570000004700000000000000000000000000020B000045303038423037382D333337332D343545452D423635452D3645433139324234313941422F41737365744461
311
74612F41737365745461626C654F66436F6E74656E74732E62696E504B0102140014000608080004836D57F865834058000000680000004500000000000000000000000000B80B000045303038423037382D333337332D343545452D423635452D3645433139324234313941422F4173736574446174612F53747265616D56
311
657273696F6E5461626C652E696E66504B0102140014000608080004836D572C998E39350100009A0400003600000000000000000000000000730C000045303038423037382D333337332D343545452D423635452D3645433139324234313941422F4173736574446174612F636E782E786D6C504B01021400140006080800
311
04836D574906E874080100004F0300003400000000000000000000000000FC0D000045303038423037382D333337332D343545452D423635452D3645433139324234313941422F536368656D61732F636E782E786D6C504B0102140014000608080004836D57410A3D5871000000A40000002C000000000000000000000000
311
00560F000045303038423037382D333337332D343545452D423635452D3645433139324234313941422F636E782E786D6C504B0102140014000608080004836D57C1D081C07E000000A3000000070000000000000000000000000011100000636E782E786D6C504B0102140014000608080004836D5716E99B5DA600000035
311
0100001300000000000000000000000000B41000005B436F6E74656E745F54797065735D2E786D6C504B0102140014000608080004836D573DEE336E64000000790000001B000000000000000000000000008B1100006175746F6465736B2D64657369676E2D7061636B6167652E786D6C504B010214001400060808000483
311
6D5734F9021EF90000009601000037000000000000000000000000002812000045303038423037382D333337332D343545452D423635452D3645433139324234313941422F4173736574446174612F636F72652E786D6C504B0102140014000608080004836D57EF18949DF700000094010000350000000000000000000000
311
00007613000045303038423037382D333337332D343545452D423635452D3645433139324234313941422F536368656D61732F636F72652E786D6C504B0102140014000608080004836D5790BB6F3201010000D70100002D00000000000000000000000000C014000045303038423037382D333337332D343545452D423635
311
452D3645433139324234313941422F636F72652E786D6C504B0102140014000608080004836D570F460F5306010000B201000008000000000000000000000000000C160000636F72652E786D6C504B050600000000110011005A060000381700000000
310
504B030414000608080004836D57000000000000000000000000370000006662782F37303131413433382D383639372D344237362D383336342D4346323646344134433937352F617474726962757465732E62696E504B030414000608080004836D57000000000000000000000000350000006662782F3730313141343338
310
2D383639372D344237362D383336342D4346323646344134433937352F76657274696365732E62696E504B030414000608080004836D57F270F1330600000004000000360000006662782F37303131413433382D383639372D344237362D383336342D4346323646344134433937352F747269616E676C65732E62696E6366
310
60600000504B030414000608080004836D5751464CB48900000043010000360000006662782F37303131413433382D383639372D344237362D383336342D4346323646344134433937352F6469726563746F72792E786D6C9D8F310EC2300C45AF127987122606C71DD918B841D4B851A43646695A717C52A85029031293A5
310
A76FBF6FACEF7DA7264E43906840EF0FA03836E242F406C6DCEE4EA06AC22492573150D1F66C60C640E8938CB705396EEDD86DE9B5042FE27813D640EA63BB001C722AF6E55CB61E4863F58284D5D3F53DD715CE1C3985E63FD7F1B7EBDD617E9F1E504B030414000608080004836D57298395833D070000201C0000340000
310
006662782F37303131413433382D383639372D344237362D383336342D4346323646344134433937352F6F626A656374732E786D6CDD595B6FE23814FE2B56F665F7212421C0C08832A2D05668D499D1A059ED5B6482A1DE3A1739494BF7D7EFB16387380D90CE455A6D2B15EAD8C7E77CE77E32FD7088187A223CA3497C65
310
793DD742240E932D8DF7575691EFECB1853ECCD09427495EDB67A11847E4CA12CBD66CBAE74991AAA52DD9E18235576FAFFF4259486262A190E12CBBB2B2F08144B8878B3CD992ECB1B7C539EEED77879ED72B379A64F71CA70F8DAB52CC499C03ABB01E0315C58167FE0B2239B3A9233618DBFC6EDBFA67B639527093511A
310
67398EC3575C35AEEB9FE0AA719DEF0D9637FDE1C41E0E06BE3D18F53DFBFAF67A697BEF7C77315A2C26F39B898566D34D92B04A012989B7A0C5176BE64D1DF1A4125FA1D0C67798C43109159A6D1BB644D1A5246B626200EB49D16A0A2965AD2DF81D853FB1AD1328064B06DA5A38FD59B7DE64F337809075B1529E1161E5
310
59CE41D70AFBD21FDCA953AE1A7AA1198A704E38C50C31BAE1988382606BA920838CF016410A09CCA41635BD3AAF60D8977DA98DCB5DC198F05F6B263D2D007F24792639A3FF107EE4BE7E1BF004D21634CEC74AD8FC25051293A92317CB677E5F3D2C81443B86F7602D20A6D8E4F71B782D442C582DADD9C7DBCD612DE243
310
FBE5294F52C2736179D29995DF690DD64C0B8CAF032825AEA6EE8EA87C05E83F01F2152F680A9AE3F430380CB4EC1CC7D92EE1116807B9C876E18F8BC4D757DFA64E75788690112B4F610A6EFB933035C430EEAE413A9B3E81D127DC57C2AD43CCC0A6EF692CFC1C0C05B1049620DEEF36076BB682600A8B700A33901E7EA7
310
8EF88AE0A3A403F1A6A1A1B6F0DB4151DA619A7E76D4D51DD80CA761A52A43C653F80E7F0ABEF3E5FAE3BAE03B1C927BE5D84BB2A331CD2199B63364806EB8FCB7D527E991772CD960763C6D6C0AE19A7D22E2468B5AD64A2D48EA05381169B8D48C5CB9A7E0ED8CE1982445A6D6DBE25498B084079B97A074E1D6BBFED436
310
505EA60CA0359641720F394D0526D64C69AB0A84BD9AA06061982B0BDC975A0D36459406384A8A5884DAD7A6D8E403E28CB044A02AA969C3D65EABC96EE96E576410BC5A492E0C20953F6BC2A5850F208EB5F1CBC98E6348A2491C50C8C1E02CAD37181754E09DE739236C1750C68A28D85106792488707A827E4709EA99EB
310
91BC3C277CDB4AD0B42CED93DA8604E00A580D92CE5665CC573AE5E4898A3253E6339D0D8C1DAA0EB5668313E942648A1640B5314A331F2DBCE178389ADBBE3F99DB83C978684F3CA89D6EC7FE7CEEDE0C6F96E3EB269F3A5AD5F31DA852943986FFE50F45B4893165F040888DB7E9FB0F327B5E39101A1DEF7AD21F8E5CDF
310
EE2F46137BB0F4AFEDB937B8B117E39B77FE62395AF8DED0E1244B0A1E92CCE93B6EA04D328DF7A7B8D2DCBD8EA150D65C4E765A5F4D61FEC731B499130C25FE57836815BB5A0AC2AE41541C6D86501C3E8A14158450F5B5BA4F238836F9688B736F8CCB6ECF77E58FE74DFAEEA43F9E8C2A633F1BA8E53D3F1CE7DA2408A1
310
EF2CF220497148F3F684DAC0A5639C7E536EE9414040804EF5B7BAE47C9E51970434C27B12ECB0E8125A02E325095A73D89E2559466392C92EEF55F5D7A0E9F6A09832736E8B11D22C88488EBFC7FE64DBD0B06988CD2C807E341713818B554165D0AA0339455174BF90B8A5FC2F4186A394959DEE250CBCBE8640F7386D16
310
279816573C81BD05380FDC2D91838B4BD42BF6757DD0AAB526F5C977933F018FAE6B7E213CFA8AEEA5536FE84DC4CF1882CA68E8F9EFB4222E61A5AFCA451FC70AE83CC397E099D0FD43A742B39B4E6A255B5954E724823616E705EFE4AFA3A1FBEA2215171A0E51BBE98DC5A1ECDF740707E8C906EE54795BBB06EA501AC3
310
9CAB9320AFA4683561A90B39D313A3AB37F8F55965D7A9FE70BCFCE51573DDF92239FCB98C0354CB650056D1C7A8A95BAB6EA31ECA9E711E42205DCB4FFB1A3C624BB6C7C6CC20D756A2EBFAF452F5BC12013582892D1671F65E7C615F31A81ABAE7CCB92B8B36A75C5F89C4D683E1F4910F836993D6E7BB75830AAC743EFD
310
4560449E1B14D4EA4274C367487D5B1D7BFE060525D1B7D599E3FF898E422BB0364683697096300A4379B2457B9240F686B143876E8347249359198C570529FD46A0C3E9A772A69AE30DD3A7C3070C8369A67AB12284A12864CC2B4BADA3DF600C2A26917238D57B84364CC5300B159C5E5960B139856EABB78171961C1E4A
310
EA8D712538368EF722DF97A7AAFF8FC7043A10958E72557BBAE0A224339C090ADB54BE2780AAAF7C309B7EBFE89A1D8473F8BA29F24A98E3C2511A05827E21500A0753BF4705EF010A8AF372793DB9C780A4D364FEAC1D9454ED1CF3BD1CAFD7F09E2FBF386232BEFA8C5256EC853ACF75BF06255B74DDAC28A75053300C25
310
668A450DB978EF7CE109BC628AD02D052340BF1FC6A33F9C451245495C2E3973F5A20AAD1FE0B5D3D6D1233F68E35DE8EAE514408DF5830DCE480F6FB3475800D5722A66A325C4860154D1B466005A23421770CCD8BF5A22551BD52624F5B02BE091337D048E24DEE508B7A96FA80D20C117802BF9F0F8452F4C1D0E43F0D9
310
BF504B030414000608080004836D57A99D343B3E01000046050000300000006662782F37303131413433382D383639372D344237362D383336342D4346323646344134433937352F636E782E786D6CCD94C14A033110865F65C97D379B56A4946C0A1E7C020FE22D9B9DAEB1D964492662DFDEA4A655918A8742BD85C93FF0
310
7F333FC3376F93A95EC107ED6C4758D3920AAC7283B66347226EEB15A936827BE7F08B8C54564ED0915C26828FDEC5B99406D8CA6872D568BB2B4589E8751F1102A99491217424A86798642323BA01C2AE1924CA86351E828B5E41EA473D41E9571E24C240C4A25D2C6BC66AB67C60B7EBC5CDBA5D3D719A9582F7CE99A2D7
310
16C1BBB9522E3D6C32D3729ABF058F5E174D2620E2D359D36BCB69FA173C24B7762C3ADCCF5937CF462B89694CD42904AC9308E4C4E98758709A79BF51DFDF3D1E1D5483F6A0D0F9FD9506C0CE0DE064AC4949F81BFF41F83BB6EB5F12EEB5B67D16B6D8BA18EA31AD21C5F5E7FE538AA41DCDFF0BFDC9D8E5339F4E096AF5
310
FF908FBE2E444C0F272F2D3D5F40F10E504B030414000608080004836D57A14E75997E000000A30000000B0000006662782F636E782E786D6C4D8CD10A832018465F45FE7BB75CA6066AB4A0F7886521331D2EC71E7F1A5DECEA83C3778EECBE9B431F13DF367805E4520132FE1166EB5705695FB000D4691943D8FF6E80FC
310
B419050583966B0CE975A2D92C5372853AEB9F27E415213DAD0516ACE598DE39C3A266140FE38D8DB4A743CB9B6C5C8B92E7E8E52D79FD03504B030414000608080004836D57A6D797065F0000008200000007000000636E782E786D6C4DCB3B0E80201045D1AD90E9FD7516806B51190811670C8A61F982B1B0BAC9C97B72
310
CA7B1037C6D3332918DA1E04D2CAC69353902EDB8C20262D23F3F59B81A079470595414B17391D1F19B4730A5583A7ED43BBE4025D9592775E5ADFFA01504B030414000608080004836D574FEB6A7CA0000000F4000000130000005B436F6E74656E745F54797065735D2E786D6C7D8F4B0EC2300C44AF1279DFA6B0400835
310
ED02B8011730C16D239A8F121795DB93D02D6269CFBC19BBED573B8B17C564BC53B0AB1B10E4B47F18372A5878A88E20FAAEBDBD032591BD2E299898C349CAA427B2986A1FC86565F0D122E7318E32A07EE24872DF3407A9BD63725C71C980AEBDD080CBCCE2BAE6F5D69B7110E7CD57AA146008B3D1C8F92C5954F993BB1B
310
F787F39A89ABC491D09600F9FDA2FB00504B030414000608080004836D573DEE336E64000000790000001B0000006175746F6465736B2D64657369676E2D7061636B6167652E786D6C35CBC10E83200C00D05F21DCA56CA76D41FC96062B120735B69A7DBE268BB7777961F8D5AF396893C2ADB70FE7ADA196782C2DF776D7
310
A97B5933C430F15651E5469C55D70F80A4992A3ADC954792C525AE70A1E4D6AD9816CC044FEFDF01FE3FDE907802504B030414000608080004836D57701F05AFF8000000960100003B0000006662782F37303131413433382D383639372D344237362D383336342D4346323646344134433937352F7265736F75726365732F
310
636F72652E786D6C8550CB6EC32010FC158B3BB681A44E224C54B7F517F4D41B828D831283C5A3EAE71762576A4F3D2D9A9D9965869FBFE67BF5093E18677B44EA16556095D3C64E3D4AF1820FA83A0BEE9D8BBF68A8B272861E1518093E7997960D52CE46B005B54EC306CA1020A24ADDF3A347415D6196B54C3133C2AD5E
310
A4BAC9096A52AF3CC153327A931A9DDDCCC5804782B0FDE16D64231E5FBA3DDEBD1E093E32D6E1A11BE973DB750319286F8A58F068E69FEBCA838CA091A02D6598104CD83B793AD1DDA93D7CF0A630050FD1E7CCDBD1920E090FC125AF20F066DDFE714D8BFEDF35191B19DD5C5745C839F2271F0BC19BD2521E8F0AF32C8D
310
8A6F504B030414000608080004836D57E46C1216F2000000B1010000310000006662782F37303131413433382D383639372D344237362D383336342D4346323646344134433937352F636F72652E786D6C8D50CB6EC32010FC156BEFD8C6A6B61361A22452BEA0A7DE10100725068B47D4CF2FC4AED4DE725A343BC3CC0E3D
310
7CCF8FE2A99CD7D68C80CB1A0A658495DA4C23C47045031407469DB5E10F0D0AC36735428681D1C9D9B86C90B02628935163A5DA40EEBD0A5088477A8CE0C54DCDBCE4312486BF970B17773EA912972B8FD1A0E75FA9708A0725813575D3228C116E3F71B76FC8BE1EBE6895998CC6A8E566A56572D757AD1CB0BEC6F848DA
310
010DDDAE47E4D47768683B82CE97A6BB902339EFFA0F5A6531A33EB874F3F649BEEE5DF92AFC97392EF28DCCDA84B6D90C57850786539ED782D12A1798C6ABDD3473D9EC07504B030414000608080004836D573DCA44FB54010000DD0200000C0000006662782F636F72652E786D6C8D52CB6E833010FC15E4BB014352D2C8
310
386ADAF2053DF5E68043AD808D8C8DF2F95DF310E5D0B44232D6ECCEECCEC8F4746F9B6010A6975AE58884310A842A7525559D2367AFF8808213A3466BFBA30D058AB722471E468CD646BB6E864AADAC501E55BA1233C8FB5E5814940D5C72D4975FA2E52177163AFA5BD8F1F2C66B119270EA63D43959CD5459819ABC4A61
310
1023E9FEF05EA4052E5EB33DDEBD3D13FC9CA6193E6745F21267D9999C131A7932A356B6CBF4D2086E458558122729260493F4833C1D93DD313E7CD2C87732DA5B039EE7A1DE1D62D7CB9D4613BED1735DF5B79E93CAA6C9AC37317A7000EB8D0546239F0FFCC6F0B619C260C8CFF24BB358B8013488D26AB3834AA5DD5A1A
310
78E30448C7C1F8D168AA82F228F09B4EF240E7B10604C5550DAB710BD78BB37EFA76A74E183CD87BA0B46979B32E37ADB89EEBA08DA5855EEA469BFFB017AB4B98917F98EC1B504B030414000608080004836D57F1301A8507010000B201000008000000636F72652E786D6C8D504B6EC32014BC0A628F6D20A9930813D56D
310
7D82AEBAA386B82836587CA2F6F685984AEDAEAB8766E6BD19869D3F9719DC94F3DA9A0EE2AA814099D14A6DA60EC670410708CE9C396BC32F1904462CAA8319869C4DCEC6B540A33541998C1A2B550185F72A4030CEE9D1413F7EA845542286A4F0D76A15E3554CAAC2D5A6E32CE8E56775744A042521270DA1086384E92B
310
7E3891DDA939BCB13A2B398B51CB62A56572D717AD1CE498EE0F2F031DD0F0D4EED1EEF988D191D216F5ED401E9BB6ED714F589D9739F3C1A53F97232967005EDCB22FAB378AB3776BE72248A124B066FE82BC617526FE848EABFC47686D0225E5E0B6E153E614E84E24E3DC601AF77AD3CC6DF36F504B0102140014000608
310
080004836D570000000000000000000000003700000000000000000000000000000000006662782F37303131413433382D383639372D344237362D383336342D4346323646344134433937352F617474726962757465732E62696E504B0102140014000608080004836D570000000000000000000000003500000000000000
310
000000000000550000006662782F37303131413433382D383639372D344237362D383336342D4346323646344134433937352F76657274696365732E62696E504B0102140014000608080004836D57F270F13306000000040000003600000000000000000000000000A80000006662782F37303131413433382D383639372D
310
344237362D383336342D4346323646344134433937352F747269616E676C65732E62696E504B0102140014000608080004836D5751464CB489000000430100003600000000000000000000000000020100006662782F37303131413433382D383639372D344237362D383336342D4346323646344134433937352F64697265
310
63746F72792E786D6C504B0102140014000608080004836D57298395833D070000201C00003400000000000000000000000000DF0100006662782F37303131413433382D383639372D344237362D383336342D4346323646344134433937352F6F626A656374732E786D6C504B0102140014000608080004836D57A99D343B
310
3E0100004605000030000000000000000000000000006E0900006662782F37303131413433382D383639372D344237362D383336342D4346323646344134433937352F636E782E786D6C504B0102140014000608080004836D57A14E75997E000000A30000000B00000000000000000000000000FA0A00006662782F636E78
310
2E786D6C504B0102140014000608080004836D57A6D797065F000000820000000700000000000000000000000000A10B0000636E782E786D6C504B0102140014000608080004836D574FEB6A7CA0000000F40000001300000000000000000000000000250C00005B436F6E74656E745F54797065735D2E786D6C504B010214
310
0014000608080004836D573DEE336E64000000790000001B00000000000000000000000000F60C00006175746F6465736B2D64657369676E2D7061636B6167652E786D6C504B0102140014000608080004836D57701F05AFF8000000960100003B00000000000000000000000000930D00006662782F37303131413433382D
310
383639372D344237362D383336342D4346323646344134433937352F7265736F75726365732F636F72652E786D6C504B0102140014000608080004836D57E46C1216F2000000B10100003100000000000000000000000000E40E00006662782F37303131413433382D383639372D344237362D383336342D43463236463441
310
34433937352F636F72652E786D6C504B0102140014000608080004836D573DCA44FB54010000DD0200000C00000000000000000000000000251000006662782F636F72652E786D6C504B0102140014000608080004836D57F1301A8507010000B20100000800000000000000000000000000A3110000636F72652E786D6C50
310
4B0506000000000E000E0080040000D01200000000
  0
XRECORD
  5
80C7
102
{ACAD_REACTORS
330
80C2
102
}
330
80C2
100
AcDbXrecord
280
     1
270
     1
271
     1
  0
XRECORD
  5
80C6
102
{ACAD_REACTORS
330
80C2
102
}
330
80C2
100
AcDbXrecord
280
     1
270
     1
271
     1
  0
XRECORD
  5
80C8
102
{ACAD_REACTORS
330
80C2
102
}
330
80C2
100
AcDbXrecord
280
     1
270
     1
271
     1
  0
XRECORD
  5
80C5
102
{ACAD_REACTORS
330
80C2
102
}
330
80C2
100
AcDbXrecord
280
     1
270
     1
271
     1
  0
XRECORD
  5
848E
102
{ACAD_REACTORS
330
848D
102
}
330
848D
100
AcDbXrecord
280
     1
102
DISPLAYNAME
  1
Imperial24
102
FLAGS
 90
        0
  0
CELLSTYLEMAP
  5
8455
102
{ACAD_REACTORS
330
8454
102
}
330
8454
100
AcDbCellStyleMap
 90
        3
300
CELLSTYLE
  1
TABLEFORMAT_BEGIN
 90
        5
170
     1
 91
        0
 92
    32768
 62
   257
 93
        1
300
CONTENTFORMAT
  1
CONTENTFORMAT_BEGIN
 90
        0
 91
        0
 92
      512
 93
        0
300

 40
0.0
140
1.0
 94
        5
 62
     0
340
80F5
144
0.25
309
CONTENTFORMAT_END
171
     0
 94
        0
309
TABLEFORMAT_END
  1
CELLSTYLE_BEGIN
 90
        1
 91
        1
300
_TITLE
309
CELLSTYLE_END
300
CELLSTYLE
  1
TABLEFORMAT_BEGIN
 90
        5
170
     1
 91
        0
 92
        0
 62
   257
 93
        1
300
CONTENTFORMAT
  1
CONTENTFORMAT_BEGIN
 90
        0
 91
        0
 92
      512
 93
        0
300

 40
0.0
140
1.0
 94
        5
 62
     0
340
80F5
144
0.18
309
CONTENTFORMAT_END
171
     0
 94
        0
309
TABLEFORMAT_END
  1
CELLSTYLE_BEGIN
 90
        2
 91
        1
300
_HEADER
309
CELLSTYLE_END
300
CELLSTYLE
  1
TABLEFORMAT_BEGIN
 90
        5
170
     1
 91
        0
 92
        0
 62
   257
 93
        1
300
CONTENTFORMAT
  1
CONTENTFORMAT_BEGIN
 90
        0
 91
        0
 92
      512
 93
        0
300

 40
0.0
140
1.0
 94
        2
 62
     0
340
80F5
144
0.18
309
CONTENTFORMAT_END
171
     0
 94
        0
309
TABLEFORMAT_END
  1
CELLSTYLE_BEGIN
 90
        3
 91
        2
300
_DATA
309
CELLSTYLE_END
  0
XRECORD
  5
848B
102
{ACAD_REACTORS
330
8454
102
}
330
8454
100
AcDbXrecord
280
     1
102
ACAD_ROUNDTRIP_PRE2007_TABLESTYLE
 90
      512
 91
        0
  1

 92
      512
 93
        0
  2

 94
      512
 95
        0
  3

  0
XRECORD
  5
8466
102
{ACAD_REACTORS
330
8465
102
}
330
8465
100
AcDbXrecord
280
     1
102
RTVSPost2010Prop28
280
     1
102
RTVSPost2010PropOp28
 70
     1
102
RTVSPost2010Prop29
280
     1
102
RTVSPost2010PropOp29
 70
     1
102
RTVSPost2010Prop30
280
     0
102
RTVSPost2010PropOp30
 70
     1
102
RTVSPost2010Prop31
280
     0
102
RTVSPost2010PropOp31
 70
     1
102
RTVSPost2010Prop32
280
     0
102
RTVSPost2010PropOp32
 70
     1
102
RTVSPost2010Prop33
280
     0
102
RTVSPost2010PropOp33
 70
     1
102
RTVSPost2010Prop34
280
     0
102
RTVSPost2010PropOp34
 70
     1
102
RTVSPost2010Prop35
280
     0
102
RTVSPost2010PropOp35
 70
     1
102
RTVSPost2010Prop36
280
     0
102
RTVSPost2010PropOp36
 70
     1
102
RTVSPost2010Prop37
 90
       50
102
RTVSPost2010PropOp37
 70
     1
102
RTVSPost2010Prop38
140
0.0
102
RTVSPost2010PropOp38
 70
     1
102
RTVSPost2010Prop39
140
1.0
102
RTVSPost2010PropOp39
 70
     1
102
RTVSPost2010Prop40
 90
        0
102
RTVSPost2010PropOp40
 70
     1
102
RTVSPost2010Prop41ColorIndex
 90
       18
102
RTVSPost2010Prop41ColorRGB
 90
        0
102
RTVSPost2010PropOp41
 70
     1
102
RTVSPost2010Prop42
 90
       50
102
RTVSPost2010PropOp42
 70
     1
102
RTVSPost2010Prop43
 90
        3
102
RTVSPost2010PropOp43
 70
     1
102
RTVSPost2010Prop44ColorIndex
 90
        5
102
RTVSPost2010Prop44ColorRGB
 90
      255
102
RTVSPost2010PropOp44
 70
     1
102
RTVSPost2010Prop45
280
     0
102
RTVSPost2010PropOp45
 70
     1
102
RTVSPost2010Prop46
 90
       50
102
RTVSPost2010PropOp46
 70
     1
102
RTVSPost2010Prop47
 90
       50
102
RTVSPost2010PropOp47
 70
     1
102
RTVSPost2010Prop48
 90
       50
102
RTVSPost2010PropOp48
 70
     1
102
RTVSPost2010Prop49
280
     0
102
RTVSPost2010PropOp49
 70
     1
102
RTVSPost2010Prop50
 90
       50
102
RTVSPost2010PropOp50
 70
     1
102
RTVSPost2010Prop51ColorIndex
 90
      256
102
RTVSPost2010Prop51ColorRGB
 90
-16777216
102
RTVSPost2010PropOp51
 70
     0
102
RTVSPost2010Prop52
140
1.0
102
RTVSPost2010PropOp52
 70
     0
102
RTVSPost2010Prop53
 90
        2
102
RTVSPost2010PropOp53
 70
     1
102
RTVSPost2010Prop54
  1
strokes_ogs.tif
102
RTVSPost2010PropOp54
 70
     1
102
RTVSPost2010Prop55
280
     0
102
RTVSPost2010PropOp55
 70
     1
102
RTVSPost2010Prop56
140
1.0
102
RTVSPost2010PropOp56
 70
     1
102
RTVSPost2010Prop57
140
1.0
102
RTVSPost2010PropOp57
 70
     1
102
RTVSPropertyOp0
 70
     1
102
RTVSPropertyOp1
 70
     1
102
RTVSPropertyOp2
 70
     1
102
RTVSPropertyOp3
 70
     1
102
RTVSPropertyOp4
 70
     1
102
RTVSPropertyOp5
 70
     1
102
RTVSPropertyOp6
 70
     1
102
RTVSPropertyOp7
 70
     1
102
RTVSPropertyOp8
 70
     1
102
RTVSPropertyOp9
 70
     1
102
RTVSPropertyOp10
 70
     1
102
RTVSPropertyOp11
 70
     1
102
RTVSPropertyOp12
 70
     1
102
RTVSPropertyOp13
 70
     1
102
RTVSPropertyOp14
 70
     1
102
RTVSPropertyOp15
 70
     1
102
RTVSPropertyOp16
 70
     1
102
RTVSPropertyOp17
 70
     1
102
RTVSPropertyOp18
 70
     1
102
RTVSPropertyOp19
 70
     1
102
RTVSPropertyOp20
 70
     1
102
RTVSPropertyOp21
 70
     1
102
RTVSPropertyOp22
 70
     1
102
RTVSPropertyOp23
 70
     1
102
RTVSPropertyOp24
 70
     1
102
RTVSPropertyOp25
 70
     1
102
RTVSPropertyOp26
 70
     1
102
RTVSPropertyOp27
 70
     1
102
RTVSPropertyOp28
 70
     1
102
RTVSPropertyOp29
 70
     1
102
RTVSPropertyOp30
 70
     1
102
RTVSPropertyOp31
 70
     1
102
RTVSPropertyOp32
 70
     1
102
RTVSPropertyOp33
 70
     1
102
RTVSPropertyOp34
 70
     1
102
RTVSPropertyOp35
 70
     1
102
RTVSPropertyOp36
 70
     1
102
RTVSPropertyOp37
 70
     1
102
RTVSPropertyOp38
 70
     1
102
RTVSPropertyOp39
 70
     1
102
RTVSPropertyOp40
 70
     1
102
RTVSPropertyOp41
 70
     1
102
RTVSPropertyOp42
 70
     1
102
RTVSPropertyOp43
 70
     1
102
RTVSPropertyOp44
 70
     1
102
RTVSPropertyOp45
 70
     1
102
RTVSPropertyOp46
 70
     1
102
RTVSPropertyOp47
 70
     1
102
RTVSPropertyOp48
 70
     1
102
RTVSPropertyOp49
 70
     1
102
RTVSPropertyOp50
 70
     1
102
RTVSPropertyOp51
 70
     0
102
RTVSPropertyOp52
 70
     0
102
RTVSPropertyOp53
 70
     1
102
RTVSPropertyOp54
 70
     1
102
RTVSPropertyOp55
 70
     1
102
RTVSPropertyOp56
 70
     1
102
RTVSPropertyOp57
 70
     1
102
RTVSPropertyOp58
 70
     1
102
RTVSPropertyOp59
 70
     1
102
RTVSPropertyOp60
 70
     1
102
RTVSPropertyOp61
 70
     1
102
RTVSPropertyOp62
 70
     1
  0
XRECORD
  5
8464
102
{ACAD_REACTORS
330
8463
102
}
330
8463
100
AcDbXrecord
280
     1
102
RTVSPost2010Prop28
280
     0
102
RTVSPost2010PropOp28
 70
     1
102
RTVSPost2010Prop29
280
     1
102
RTVSPost2010PropOp29
 70
     1
102
RTVSPost2010Prop30
280
     1
102
RTVSPost2010PropOp30
 70
     1
102
RTVSPost2010Prop31
280
     0
102
RTVSPost2010PropOp31
 70
     1
102
RTVSPost2010Prop32
280
     0
102
RTVSPost2010PropOp32
 70
     1
102
RTVSPost2010Prop33
280
     0
102
RTVSPost2010PropOp33
 70
     1
102
RTVSPost2010Prop34
280
     0
102
RTVSPost2010PropOp34
 70
     1
102
RTVSPost2010Prop35
280
     0
102
RTVSPost2010PropOp35
 70
     1
102
RTVSPost2010Prop36
280
     0
102
RTVSPost2010PropOp36
 70
     1
102
RTVSPost2010Prop37
 90
       50
102
RTVSPost2010PropOp37
 70
     1
102
RTVSPost2010Prop38
140
0.0
102
RTVSPost2010PropOp38
 70
     1
102
RTVSPost2010Prop39
140
1.0
102
RTVSPost2010PropOp39
 70
     1
102
RTVSPost2010Prop40
 90
        0
102
RTVSPost2010PropOp40
 70
     1
102
RTVSPost2010Prop41ColorIndex
 90
       18
102
RTVSPost2010Prop41ColorRGB
 90
        0
102
RTVSPost2010PropOp41
 70
     1
102
RTVSPost2010Prop42
 90
       50
102
RTVSPost2010PropOp42
 70
     1
102
RTVSPost2010Prop43
 90
        3
102
RTVSPost2010PropOp43
 70
     1
102
RTVSPost2010Prop44ColorIndex
 90
        5
102
RTVSPost2010Prop44ColorRGB
 90
      255
102
RTVSPost2010PropOp44
 70
     1
102
RTVSPost2010Prop45
280
     0
102
RTVSPost2010PropOp45
 70
     1
102
RTVSPost2010Prop46
 90
       50
102
RTVSPost2010PropOp46
 70
     1
102
RTVSPost2010Prop47
 90
       50
102
RTVSPost2010PropOp47
 70
     1
102
RTVSPost2010Prop48
 90
       50
102
RTVSPost2010PropOp48
 70
     1
102
RTVSPost2010Prop49
280
     0
102
RTVSPost2010PropOp49
 70
     1
102
RTVSPost2010Prop50
 90
       50
102
RTVSPost2010PropOp50
 70
     1
102
RTVSPost2010Prop51ColorIndex
 90
      256
102
RTVSPost2010Prop51ColorRGB
 90
-16777216
102
RTVSPost2010PropOp51
 70
     0
102
RTVSPost2010Prop52
140
1.0
102
RTVSPost2010PropOp52
 70
     0
102
RTVSPost2010Prop53
 90
        2
102
RTVSPost2010PropOp53
 70
     1
102
RTVSPost2010Prop54
  1
strokes_ogs.tif
102
RTVSPost2010PropOp54
 70
     1
102
RTVSPost2010Prop55
280
     0
102
RTVSPost2010PropOp55
 70
     1
102
RTVSPost2010Prop56
140
1.0
102
RTVSPost2010PropOp56
 70
     1
102
RTVSPost2010Prop57
140
1.0
102
RTVSPost2010PropOp57
 70
     1
102
RTVSPropertyOp0
 70
     1
102
RTVSPropertyOp1
 70
     1
102
RTVSPropertyOp2
 70
     1
102
RTVSPropertyOp3
 70
     1
102
RTVSPropertyOp4
 70
     1
102
RTVSPropertyOp5
 70
     1
102
RTVSPropertyOp6
 70
     1
102
RTVSPropertyOp7
 70
     1
102
RTVSPropertyOp8
 70
     1
102
RTVSPropertyOp9
 70
     1
102
RTVSPropertyOp10
 70
     1
102
RTVSPropertyOp11
 70
     1
102
RTVSPropertyOp12
 70
     1
102
RTVSPropertyOp13
 70
     1
102
RTVSPropertyOp14
 70
     1
102
RTVSPropertyOp15
 70
     1
102
RTVSPropertyOp16
 70
     1
102
RTVSPropertyOp17
 70
     1
102
RTVSPropertyOp18
 70
     1
102
RTVSPropertyOp19
 70
     1
102
RTVSPropertyOp20
 70
     1
102
RTVSPropertyOp21
 70
     1
102
RTVSPropertyOp22
 70
     1
102
RTVSPropertyOp23
 70
     1
102
RTVSPropertyOp24
 70
     1
102
RTVSPropertyOp25
 70
     1
102
RTVSPropertyOp26
 70
     1
102
RTVSPropertyOp27
 70
     1
102
RTVSPropertyOp28
 70
     1
102
RTVSPropertyOp29
 70
     1
102
RTVSPropertyOp30
 70
     1
102
RTVSPropertyOp31
 70
     1
102
RTVSPropertyOp32
 70
     1
102
RTVSPropertyOp33
 70
     1
102
RTVSPropertyOp34
 70
     1
102
RTVSPropertyOp35
 70
     1
102
RTVSPropertyOp36
 70
     1
102
RTVSPropertyOp37
 70
     1
102
RTVSPropertyOp38
 70
     1
102
RTVSPropertyOp39
 70
     1
102
RTVSPropertyOp40
 70
     1
102
RTVSPropertyOp41
 70
     1
102
RTVSPropertyOp42
 70
     1
102
RTVSPropertyOp43
 70
     1
102
RTVSPropertyOp44
 70
     1
102
RTVSPropertyOp45
 70
     1
102
RTVSPropertyOp46
 70
     1
102
RTVSPropertyOp47
 70
     1
102
RTVSPropertyOp48
 70
     1
102
RTVSPropertyOp49
 70
     1
102
RTVSPropertyOp50
 70
     1
102
RTVSPropertyOp51
 70
     0
102
RTVSPropertyOp52
 70
     0
102
RTVSPropertyOp53
 70
     1
102
RTVSPropertyOp54
 70
     1
102
RTVSPropertyOp55
 70
     1
102
RTVSPropertyOp56
 70
     1
102
RTVSPropertyOp57
 70
     1
102
RTVSPropertyOp58
 70
     1
102
RTVSPropertyOp59
 70
     1
102
RTVSPropertyOp60
 70
     1
102
RTVSPropertyOp61
 70
     1
102
RTVSPropertyOp62
 70
     1
  0
XRECORD
  5
8472
102
{ACAD_REACTORS
330
8471
102
}
330
8471
100
AcDbXrecord
280
     1
102
RTVSPost2010Prop28
280
     0
102
RTVSPost2010PropOp28
 70
     1
102
RTVSPost2010Prop29
280
     1
102
RTVSPost2010PropOp29
 70
     1
102
RTVSPost2010Prop30
280
     1
102
RTVSPost2010PropOp30
 70
     1
102
RTVSPost2010Prop31
280
     0
102
RTVSPost2010PropOp31
 70
     1
102
RTVSPost2010Prop32
280
     0
102
RTVSPost2010PropOp32
 70
     1
102
RTVSPost2010Prop33
280
     0
102
RTVSPost2010PropOp33
 70
     1
102
RTVSPost2010Prop34
280
     0
102
RTVSPost2010PropOp34
 70
     1
102
RTVSPost2010Prop35
280
     0
102
RTVSPost2010PropOp35
 70
     1
102
RTVSPost2010Prop36
280
     0
102
RTVSPost2010PropOp36
 70
     1
102
RTVSPost2010Prop37
 90
       50
102
RTVSPost2010PropOp37
 70
     1
102
RTVSPost2010Prop38
140
0.0
102
RTVSPost2010PropOp38
 70
     1
102
RTVSPost2010Prop39
140
1.0
102
RTVSPost2010PropOp39
 70
     1
102
RTVSPost2010Prop40
 90
        0
102
RTVSPost2010PropOp40
 70
     1
102
RTVSPost2010Prop41ColorIndex
 90
       18
102
RTVSPost2010Prop41ColorRGB
 90
        0
102
RTVSPost2010PropOp41
 70
     1
102
RTVSPost2010Prop42
 90
       50
102
RTVSPost2010PropOp42
 70
     1
102
RTVSPost2010Prop43
 90
        3
102
RTVSPost2010PropOp43
 70
     1
102
RTVSPost2010Prop44ColorIndex
 90
        5
102
RTVSPost2010Prop44ColorRGB
 90
      255
102
RTVSPost2010PropOp44
 70
     1
102
RTVSPost2010Prop45
280
     0
102
RTVSPost2010PropOp45
 70
     1
102
RTVSPost2010Prop46
 90
       50
102
RTVSPost2010PropOp46
 70
     1
102
RTVSPost2010Prop47
 90
       50
102
RTVSPost2010PropOp47
 70
     1
102
RTVSPost2010Prop48
 90
       50
102
RTVSPost2010PropOp48
 70
     1
102
RTVSPost2010Prop49
280
     0
102
RTVSPost2010PropOp49
 70
     1
102
RTVSPost2010Prop50
 90
       50
102
RTVSPost2010PropOp50
 70
     1
102
RTVSPost2010Prop51ColorIndex
 90
      256
102
RTVSPost2010Prop51ColorRGB
 90
-16777216
102
RTVSPost2010PropOp51
 70
     0
102
RTVSPost2010Prop52
140
1.0
102
RTVSPost2010PropOp52
 70
     0
102
RTVSPost2010Prop53
 90
        2
102
RTVSPost2010PropOp53
 70
     1
102
RTVSPost2010Prop54
  1
strokes_ogs.tif
102
RTVSPost2010PropOp54
 70
     1
102
RTVSPost2010Prop55
280
     0
102
RTVSPost2010PropOp55
 70
     1
102
RTVSPost2010Prop56
140
1.0
102
RTVSPost2010PropOp56
 70
     1
102
RTVSPost2010Prop57
140
1.0
102
RTVSPost2010PropOp57
 70
     1
102
RTVSPropertyOp0
 70
     1
102
RTVSPropertyOp1
 70
     1
102
RTVSPropertyOp2
 70
     1
102
RTVSPropertyOp3
 70
     1
102
RTVSPropertyOp4
 70
     1
102
RTVSPropertyOp5
 70
     1
102
RTVSPropertyOp6
 70
     1
102
RTVSPropertyOp7
 70
     1
102
RTVSPropertyOp8
 70
     1
102
RTVSPropertyOp9
 70
     1
102
RTVSPropertyOp10
 70
     1
102
RTVSPropertyOp11
 70
     1
102
RTVSPropertyOp12
 70
     1
102
RTVSPropertyOp13
 70
     1
102
RTVSPropertyOp14
 70
     1
102
RTVSPropertyOp15
 70
     1
102
RTVSPropertyOp16
 70
     1
102
RTVSPropertyOp17
 70
     1
102
RTVSPropertyOp18
 70
     1
102
RTVSPropertyOp19
 70
     1
102
RTVSPropertyOp20
 70
     1
102
RTVSPropertyOp21
 70
     1
102
RTVSPropertyOp22
 70
     1
102
RTVSPropertyOp23
 70
     1
102
RTVSPropertyOp24
 70
     1
102
RTVSPropertyOp25
 70
     1
102
RTVSPropertyOp26
 70
     1
102
RTVSPropertyOp27
 70
     1
102
RTVSPropertyOp28
 70
     1
102
RTVSPropertyOp29
 70
     1
102
RTVSPropertyOp30
 70
     1
102
RTVSPropertyOp31
 70
     1
102
RTVSPropertyOp32
 70
     1
102
RTVSPropertyOp33
 70
     1
102
RTVSPropertyOp34
 70
     1
102
RTVSPropertyOp35
 70
     1
102
RTVSPropertyOp36
 70
     1
102
RTVSPropertyOp37
 70
     1
102
RTVSPropertyOp38
 70
     1
102
RTVSPropertyOp39
 70
     1
102
RTVSPropertyOp40
 70
     1
102
RTVSPropertyOp41
 70
     1
102
RTVSPropertyOp42
 70
     1
102
RTVSPropertyOp43
 70
     1
102
RTVSPropertyOp44
 70
     1
102
RTVSPropertyOp45
 70
     1
102
RTVSPropertyOp46
 70
     1
102
RTVSPropertyOp47
 70
     1
102
RTVSPropertyOp48
 70
     1
102
RTVSPropertyOp49
 70
     1
102
RTVSPropertyOp50
 70
     1
102
RTVSPropertyOp51
 70
     0
102
RTVSPropertyOp52
 70
     0
102
RTVSPropertyOp53
 70
     1
102
RTVSPropertyOp54
 70
     1
102
RTVSPropertyOp55
 70
     1
102
RTVSPropertyOp56
 70
     1
102
RTVSPropertyOp57
 70
     1
102
RTVSPropertyOp58
 70
     1
102
RTVSPropertyOp59
 70
     1
102
RTVSPropertyOp60
 70
     1
102
RTVSPropertyOp61
 70
     1
102
RTVSPropertyOp62
 70
     1
  0
XRECORD
  5
847A
102
{ACAD_REACTORS
330
8479
102
}
330
8479
100
AcDbXrecord
280
     1
102
RTVSPost2010Prop28
280
     0
102
RTVSPost2010PropOp28
 70
     1
102
RTVSPost2010Prop29
280
     1
102
RTVSPost2010PropOp29
 70
     1
102
RTVSPost2010Prop30
280
     1
102
RTVSPost2010PropOp30
 70
     1
102
RTVSPost2010Prop31
280
     0
102
RTVSPost2010PropOp31
 70
     1
102
RTVSPost2010Prop32
280
     0
102
RTVSPost2010PropOp32
 70
     1
102
RTVSPost2010Prop33
280
     0
102
RTVSPost2010PropOp33
 70
     1
102
RTVSPost2010Prop34
280
     0
102
RTVSPost2010PropOp34
 70
     1
102
RTVSPost2010Prop35
280
     0
102
RTVSPost2010PropOp35
 70
     1
102
RTVSPost2010Prop36
280
     0
102
RTVSPost2010PropOp36
 70
     1
102
RTVSPost2010Prop37
 90
       50
102
RTVSPost2010PropOp37
 70
     1
102
RTVSPost2010Prop38
140
0.0
102
RTVSPost2010PropOp38
 70
     1
102
RTVSPost2010Prop39
140
1.0
102
RTVSPost2010PropOp39
 70
     1
102
RTVSPost2010Prop40
 90
        0
102
RTVSPost2010PropOp40
 70
     1
102
RTVSPost2010Prop41ColorIndex
 90
       18
102
RTVSPost2010Prop41ColorRGB
 90
        0
102
RTVSPost2010PropOp41
 70
     1
102
RTVSPost2010Prop42
 90
       50
102
RTVSPost2010PropOp42
 70
     1
102
RTVSPost2010Prop43
 90
        3
102
RTVSPost2010PropOp43
 70
     1
102
RTVSPost2010Prop44ColorIndex
 90
        5
102
RTVSPost2010Prop44ColorRGB
 90
      255
102
RTVSPost2010PropOp44
 70
     1
102
RTVSPost2010Prop45
280
     0
102
RTVSPost2010PropOp45
 70
     1
102
RTVSPost2010Prop46
 90
       50
102
RTVSPost2010PropOp46
 70
     1
102
RTVSPost2010Prop47
 90
       50
102
RTVSPost2010PropOp47
 70
     1
102
RTVSPost2010Prop48
 90
       50
102
RTVSPost2010PropOp48
 70
     1
102
RTVSPost2010Prop49
280
     0
102
RTVSPost2010PropOp49
 70
     1
102
RTVSPost2010Prop50
 90
       50
102
RTVSPost2010PropOp50
 70
     1
102
RTVSPost2010Prop51ColorIndex
 90
      256
102
RTVSPost2010Prop51ColorRGB
 90
-16777216
102
RTVSPost2010PropOp51
 70
     0
102
RTVSPost2010Prop52
140
1.0
102
RTVSPost2010PropOp52
 70
     0
102
RTVSPost2010Prop53
 90
        2
102
RTVSPost2010PropOp53
 70
     1
102
RTVSPost2010Prop54
  1
strokes_ogs.tif
102
RTVSPost2010PropOp54
 70
     1
102
RTVSPost2010Prop55
280
     0
102
RTVSPost2010PropOp55
 70
     1
102
RTVSPost2010Prop56
140
1.0
102
RTVSPost2010PropOp56
 70
     1
102
RTVSPost2010Prop57
140
1.0
102
RTVSPost2010PropOp57
 70
     1
102
RTVSPropertyOp0
 70
     1
102
RTVSPropertyOp1
 70
     1
102
RTVSPropertyOp2
 70
     1
102
RTVSPropertyOp3
 70
     1
102
RTVSPropertyOp4
 70
     1
102
RTVSPropertyOp5
 70
     1
102
RTVSPropertyOp6
 70
     1
102
RTVSPropertyOp7
 70
     1
102
RTVSPropertyOp8
 70
     1
102
RTVSPropertyOp9
 70
     1
102
RTVSPropertyOp10
 70
     1
102
RTVSPropertyOp11
 70
     1
102
RTVSPropertyOp12
 70
     1
102
RTVSPropertyOp13
 70
     1
102
RTVSPropertyOp14
 70
     1
102
RTVSPropertyOp15
 70
     1
102
RTVSPropertyOp16
 70
     1
102
RTVSPropertyOp17
 70
     1
102
RTVSPropertyOp18
 70
     1
102
RTVSPropertyOp19
 70
     1
102
RTVSPropertyOp20
 70
     1
102
RTVSPropertyOp21
 70
     1
102
RTVSPropertyOp22
 70
     1
102
RTVSPropertyOp23
 70
     1
102
RTVSPropertyOp24
 70
     1
102
RTVSPropertyOp25
 70
     1
102
RTVSPropertyOp26
 70
     1
102
RTVSPropertyOp27
 70
     1
102
RTVSPropertyOp28
 70
     1
102
RTVSPropertyOp29
 70
     1
102
RTVSPropertyOp30
 70
     1
102
RTVSPropertyOp31
 70
     1
102
RTVSPropertyOp32
 70
     1
102
RTVSPropertyOp33
 70
     1
102
RTVSPropertyOp34
 70
     1
102
RTVSPropertyOp35
 70
     1
102
RTVSPropertyOp36
 70
     1
102
RTVSPropertyOp37
 70
     1
102
RTVSPropertyOp38
 70
     1
102
RTVSPropertyOp39
 70
     1
102
RTVSPropertyOp40
 70
     1
102
RTVSPropertyOp41
 70
     1
102
RTVSPropertyOp42
 70
     1
102
RTVSPropertyOp43
 70
     1
102
RTVSPropertyOp44
 70
     1
102
RTVSPropertyOp45
 70
     1
102
RTVSPropertyOp46
 70
     1
102
RTVSPropertyOp47
 70
     1
102
RTVSPropertyOp48
 70
     1
102
RTVSPropertyOp49
 70
     1
102
RTVSPropertyOp50
 70
     1
102
RTVSPropertyOp51
 70
     0
102
RTVSPropertyOp52
 70
     0
102
RTVSPropertyOp53
 70
     1
102
RTVSPropertyOp54
 70
     1
102
RTVSPropertyOp55
 70
     1
102
RTVSPropertyOp56
 70
     1
102
RTVSPropertyOp57
 70
     1
102
RTVSPropertyOp58
 70
     1
102
RTVSPropertyOp59
 70
     1
102
RTVSPropertyOp60
 70
     1
102
RTVSPropertyOp61
 70
     1
102
RTVSPropertyOp62
 70
     1
  0
XRECORD
  5
846C
102
{ACAD_REACTORS
330
846B
102
}
330
846B
100
AcDbXrecord
280
     1
102
RTVSPost2010Prop28
280
     0
102
RTVSPost2010PropOp28
 70
     1
102
RTVSPost2010Prop29
280
     1
102
RTVSPost2010PropOp29
 70
     1
102
RTVSPost2010Prop30
280
     1
102
RTVSPost2010PropOp30
 70
     1
102
RTVSPost2010Prop31
280
     0
102
RTVSPost2010PropOp31
 70
     1
102
RTVSPost2010Prop32
280
     0
102
RTVSPost2010PropOp32
 70
     1
102
RTVSPost2010Prop33
280
     0
102
RTVSPost2010PropOp33
 70
     1
102
RTVSPost2010Prop34
280
     0
102
RTVSPost2010PropOp34
 70
     1
102
RTVSPost2010Prop35
280
     0
102
RTVSPost2010PropOp35
 70
     1
102
RTVSPost2010Prop36
280
     0
102
RTVSPost2010PropOp36
 70
     1
102
RTVSPost2010Prop37
 90
       50
102
RTVSPost2010PropOp37
 70
     1
102
RTVSPost2010Prop38
140
0.0
102
RTVSPost2010PropOp38
 70
     1
102
RTVSPost2010Prop39
140
1.0
102
RTVSPost2010PropOp39
 70
     1
102
RTVSPost2010Prop40
 90
        0
102
RTVSPost2010PropOp40
 70
     1
102
RTVSPost2010Prop41ColorIndex
 90
       18
102
RTVSPost2010Prop41ColorRGB
 90
        0
102
RTVSPost2010PropOp41
 70
     1
102
RTVSPost2010Prop42
 90
       50
102
RTVSPost2010PropOp42
 70
     1
102
RTVSPost2010Prop43
 90
        3
102
RTVSPost2010PropOp43
 70
     1
102
RTVSPost2010Prop44ColorIndex
 90
        5
102
RTVSPost2010Prop44ColorRGB
 90
      255
102
RTVSPost2010PropOp44
 70
     1
102
RTVSPost2010Prop45
280
     0
102
RTVSPost2010PropOp45
 70
     1
102
RTVSPost2010Prop46
 90
       50
102
RTVSPost2010PropOp46
 70
     1
102
RTVSPost2010Prop47
 90
       50
102
RTVSPost2010PropOp47
 70
     1
102
RTVSPost2010Prop48
 90
       50
102
RTVSPost2010PropOp48
 70
     1
102
RTVSPost2010Prop49
280
     0
102
RTVSPost2010PropOp49
 70
     1
102
RTVSPost2010Prop50
 90
       50
102
RTVSPost2010PropOp50
 70
     1
102
RTVSPost2010Prop51ColorIndex
 90
      256
102
RTVSPost2010Prop51ColorRGB
 90
-16777216
102
RTVSPost2010PropOp51
 70
     0
102
RTVSPost2010Prop52
140
1.0
102
RTVSPost2010PropOp52
 70
     0
102
RTVSPost2010Prop53
 90
        2
102
RTVSPost2010PropOp53
 70
     1
102
RTVSPost2010Prop54
  1
strokes_ogs.tif
102
RTVSPost2010PropOp54
 70
     1
102
RTVSPost2010Prop55
280
     0
102
RTVSPost2010PropOp55
 70
     1
102
RTVSPost2010Prop56
140
1.0
102
RTVSPost2010PropOp56
 70
     1
102
RTVSPost2010Prop57
140
1.0
102
RTVSPost2010PropOp57
 70
     1
102
RTVSPropertyOp0
 70
     1
102
RTVSPropertyOp1
 70
     1
102
RTVSPropertyOp2
 70
     1
102
RTVSPropertyOp3
 70
     1
102
RTVSPropertyOp4
 70
     1
102
RTVSPropertyOp5
 70
     1
102
RTVSPropertyOp6
 70
     1
102
RTVSPropertyOp7
 70
     1
102
RTVSPropertyOp8
 70
     1
102
RTVSPropertyOp9
 70
     1
102
RTVSPropertyOp10
 70
     1
102
RTVSPropertyOp11
 70
     1
102
RTVSPropertyOp12
 70
     1
102
RTVSPropertyOp13
 70
     1
102
RTVSPropertyOp14
 70
     1
102
RTVSPropertyOp15
 70
     1
102
RTVSPropertyOp16
 70
     1
102
RTVSPropertyOp17
 70
     1
102
RTVSPropertyOp18
 70
     1
102
RTVSPropertyOp19
 70
     1
102
RTVSPropertyOp20
 70
     1
102
RTVSPropertyOp21
 70
     1
102
RTVSPropertyOp22
 70
     1
102
RTVSPropertyOp23
 70
     1
102
RTVSPropertyOp24
 70
     1
102
RTVSPropertyOp25
 70
     1
102
RTVSPropertyOp26
 70
     1
102
RTVSPropertyOp27
 70
     1
102
RTVSPropertyOp28
 70
     1
102
RTVSPropertyOp29
 70
     1
102
RTVSPropertyOp30
 70
     1
102
RTVSPropertyOp31
 70
     1
102
RTVSPropertyOp32
 70
     1
102
RTVSPropertyOp33
 70
     1
102
RTVSPropertyOp34
 70
     1
102
RTVSPropertyOp35
 70
     1
102
RTVSPropertyOp36
 70
     1
102
RTVSPropertyOp37
 70
     1
102
RTVSPropertyOp38
 70
     1
102
RTVSPropertyOp39
 70
     1
102
RTVSPropertyOp40
 70
     1
102
RTVSPropertyOp41
 70
     1
102
RTVSPropertyOp42
 70
     1
102
RTVSPropertyOp43
 70
     1
102
RTVSPropertyOp44
 70
     1
102
RTVSPropertyOp45
 70
     1
102
RTVSPropertyOp46
 70
     1
102
RTVSPropertyOp47
 70
     1
102
RTVSPropertyOp48
 70
     1
102
RTVSPropertyOp49
 70
     1
102
RTVSPropertyOp50
 70
     1
102
RTVSPropertyOp51
 70
     0
102
RTVSPropertyOp52
 70
     0
102
RTVSPropertyOp53
 70
     1
102
RTVSPropertyOp54
 70
     1
102
RTVSPropertyOp55
 70
     1
102
RTVSPropertyOp56
 70
     1
102
RTVSPropertyOp57
 70
     1
102
RTVSPropertyOp58
 70
     1
102
RTVSPropertyOp59
 70
     1
102
RTVSPropertyOp60
 70
     1
102
RTVSPropertyOp61
 70
     1
102
RTVSPropertyOp62
 70
     1
  0
XRECORD
  5
8470
102
{ACAD_REACTORS
330
846F
102
}
330
846F
100
AcDbXrecord
280
     1
102
RTVSPost2010Prop28
280
     0
102
RTVSPost2010PropOp28
 70
     1
102
RTVSPost2010Prop29
280
     1
102
RTVSPost2010PropOp29
 70
     1
102
RTVSPost2010Prop30
280
     1
102
RTVSPost2010PropOp30
 70
     1
102
RTVSPost2010Prop31
280
     0
102
RTVSPost2010PropOp31
 70
     1
102
RTVSPost2010Prop32
280
     0
102
RTVSPost2010PropOp32
 70
     1
102
RTVSPost2010Prop33
280
     0
102
RTVSPost2010PropOp33
 70
     1
102
RTVSPost2010Prop34
280
     0
102
RTVSPost2010PropOp34
 70
     1
102
RTVSPost2010Prop35
280
     0
102
RTVSPost2010PropOp35
 70
     1
102
RTVSPost2010Prop36
280
     0
102
RTVSPost2010PropOp36
 70
     1
102
RTVSPost2010Prop37
 90
       50
102
RTVSPost2010PropOp37
 70
     1
102
RTVSPost2010Prop38
140
0.0
102
RTVSPost2010PropOp38
 70
     1
102
RTVSPost2010Prop39
140
1.0
102
RTVSPost2010PropOp39
 70
     1
102
RTVSPost2010Prop40
 90
        0
102
RTVSPost2010PropOp40
 70
     1
102
RTVSPost2010Prop41ColorIndex
 90
       18
102
RTVSPost2010Prop41ColorRGB
 90
        0
102
RTVSPost2010PropOp41
 70
     1
102
RTVSPost2010Prop42
 90
       50
102
RTVSPost2010PropOp42
 70
     1
102
RTVSPost2010Prop43
 90
        3
102
RTVSPost2010PropOp43
 70
     1
102
RTVSPost2010Prop44ColorIndex
 90
        5
102
RTVSPost2010Prop44ColorRGB
 90
      255
102
RTVSPost2010PropOp44
 70
     1
102
RTVSPost2010Prop45
280
     0
102
RTVSPost2010PropOp45
 70
     1
102
RTVSPost2010Prop46
 90
       50
102
RTVSPost2010PropOp46
 70
     1
102
RTVSPost2010Prop47
 90
       50
102
RTVSPost2010PropOp47
 70
     1
102
RTVSPost2010Prop48
 90
       50
102
RTVSPost2010PropOp48
 70
     1
102
RTVSPost2010Prop49
280
     0
102
RTVSPost2010PropOp49
 70
     1
102
RTVSPost2010Prop50
 90
       50
102
RTVSPost2010PropOp50
 70
     1
102
RTVSPost2010Prop51ColorIndex
 90
      256
102
RTVSPost2010Prop51ColorRGB
 90
-16777216
102
RTVSPost2010PropOp51
 70
     0
102
RTVSPost2010Prop52
140
1.0
102
RTVSPost2010PropOp52
 70
     0
102
RTVSPost2010Prop53
 90
        2
102
RTVSPost2010PropOp53
 70
     1
102
RTVSPost2010Prop54
  1
strokes_ogs.tif
102
RTVSPost2010PropOp54
 70
     1
102
RTVSPost2010Prop55
280
     0
102
RTVSPost2010PropOp55
 70
     1
102
RTVSPost2010Prop56
140
1.0
102
RTVSPost2010PropOp56
 70
     1
102
RTVSPost2010Prop57
140
1.0
102
RTVSPost2010PropOp57
 70
     1
102
RTVSPropertyOp0
 70
     1
102
RTVSPropertyOp1
 70
     1
102
RTVSPropertyOp2
 70
     1
102
RTVSPropertyOp3
 70
     1
102
RTVSPropertyOp4
 70
     1
102
RTVSPropertyOp5
 70
     1
102
RTVSPropertyOp6
 70
     1
102
RTVSPropertyOp7
 70
     1
102
RTVSPropertyOp8
 70
     1
102
RTVSPropertyOp9
 70
     1
102
RTVSPropertyOp10
 70
     1
102
RTVSPropertyOp11
 70
     1
102
RTVSPropertyOp12
 70
     1
102
RTVSPropertyOp13
 70
     1
102
RTVSPropertyOp14
 70
     1
102
RTVSPropertyOp15
 70
     1
102
RTVSPropertyOp16
 70
     1
102
RTVSPropertyOp17
 70
     1
102
RTVSPropertyOp18
 70
     1
102
RTVSPropertyOp19
 70
     1
102
RTVSPropertyOp20
 70
     1
102
RTVSPropertyOp21
 70
     1
102
RTVSPropertyOp22
 70
     1
102
RTVSPropertyOp23
 70
     1
102
RTVSPropertyOp24
 70
     1
102
RTVSPropertyOp25
 70
     1
102
RTVSPropertyOp26
 70
     1
102
RTVSPropertyOp27
 70
     1
102
RTVSPropertyOp28
 70
     1
102
RTVSPropertyOp29
 70
     1
102
RTVSPropertyOp30
 70
     1
102
RTVSPropertyOp31
 70
     1
102
RTVSPropertyOp32
 70
     1
102
RTVSPropertyOp33
 70
     1
102
RTVSPropertyOp34
 70
     1
102
RTVSPropertyOp35
 70
     1
102
RTVSPropertyOp36
 70
     1
102
RTVSPropertyOp37
 70
     1
102
RTVSPropertyOp38
 70
     1
102
RTVSPropertyOp39
 70
     1
102
RTVSPropertyOp40
 70
     1
102
RTVSPropertyOp41
 70
     1
102
RTVSPropertyOp42
 70
     1
102
RTVSPropertyOp43
 70
     1
102
RTVSPropertyOp44
 70
     1
102
RTVSPropertyOp45
 70
     1
102
RTVSPropertyOp46
 70
     1
102
RTVSPropertyOp47
 70
     1
102
RTVSPropertyOp48
 70
     1
102
RTVSPropertyOp49
 70
     1
102
RTVSPropertyOp50
 70
     1
102
RTVSPropertyOp51
 70
     0
102
RTVSPropertyOp52
 70
     0
102
RTVSPropertyOp53
 70
     1
102
RTVSPropertyOp54
 70
     1
102
RTVSPropertyOp55
 70
     1
102
RTVSPropertyOp56
 70
     1
102
RTVSPropertyOp57
 70
     1
102
RTVSPropertyOp58
 70
     1
102
RTVSPropertyOp59
 70
     1
102
RTVSPropertyOp60
 70
     1
102
RTVSPropertyOp61
 70
     1
102
RTVSPropertyOp62
 70
     1
  0
XRECORD
  5
848A
102
{ACAD_REACTORS
330
8489
102
}
330
8489
100
AcDbXrecord
280
     1
102
RTVSPost2010Prop28
280
     0
102
RTVSPost2010PropOp28
 70
     1
102
RTVSPost2010Prop29
280
     1
102
RTVSPost2010PropOp29
 70
     1
102
RTVSPost2010Prop30
280
     1
102
RTVSPost2010PropOp30
 70
     1
102
RTVSPost2010Prop31
280
     0
102
RTVSPost2010PropOp31
 70
     1
102
RTVSPost2010Prop32
280
     0
102
RTVSPost2010PropOp32
 70
     1
102
RTVSPost2010Prop33
280
     0
102
RTVSPost2010PropOp33
 70
     1
102
RTVSPost2010Prop34
280
     0
102
RTVSPost2010PropOp34
 70
     1
102
RTVSPost2010Prop35
280
     0
102
RTVSPost2010PropOp35
 70
     1
102
RTVSPost2010Prop36
280
     0
102
RTVSPost2010PropOp36
 70
     1
102
RTVSPost2010Prop37
 90
       50
102
RTVSPost2010PropOp37
 70
     0
102
RTVSPost2010Prop38
140
0.0
102
RTVSPost2010PropOp38
 70
     0
102
RTVSPost2010Prop39
140
1.0
102
RTVSPost2010PropOp39
 70
     0
102
RTVSPost2010Prop40
 90
        0
102
RTVSPost2010PropOp40
 70
     0
102
RTVSPost2010Prop41ColorIndex
 90
       18
102
RTVSPost2010Prop41ColorRGB
 90
        0
102
RTVSPost2010PropOp41
 70
     0
102
RTVSPost2010Prop42
 90
       50
102
RTVSPost2010PropOp42
 70
     0
102
RTVSPost2010Prop43
 90
        3
102
RTVSPost2010PropOp43
 70
     0
102
RTVSPost2010Prop44ColorIndex
 90
        5
102
RTVSPost2010Prop44ColorRGB
 90
      255
102
RTVSPost2010PropOp44
 70
     0
102
RTVSPost2010Prop45
280
     0
102
RTVSPost2010PropOp45
 70
     1
102
RTVSPost2010Prop46
 90
       50
102
RTVSPost2010PropOp46
 70
     0
102
RTVSPost2010Prop47
 90
       50
102
RTVSPost2010PropOp47
 70
     0
102
RTVSPost2010Prop48
 90
       50
102
RTVSPost2010PropOp48
 70
     0
102
RTVSPost2010Prop49
280
     0
102
RTVSPost2010PropOp49
 70
     1
102
RTVSPost2010Prop50
 90
       50
102
RTVSPost2010PropOp50
 70
     0
102
RTVSPost2010Prop51ColorIndex
 90
      256
102
RTVSPost2010Prop51ColorRGB
 90
-16777216
102
RTVSPost2010PropOp51
 70
     0
102
RTVSPost2010Prop52
140
1.0
102
RTVSPost2010PropOp52
 70
     0
102
RTVSPost2010Prop53
 90
        2
102
RTVSPost2010PropOp53
 70
     0
102
RTVSPost2010Prop54
  1
strokes_ogs.tif
102
RTVSPost2010PropOp54
 70
     0
102
RTVSPost2010Prop55
280
     0
102
RTVSPost2010PropOp55
 70
     1
102
RTVSPost2010Prop56
140
1.0
102
RTVSPost2010PropOp56
 70
     0
102
RTVSPost2010Prop57
140
1.0
102
RTVSPost2010PropOp57
 70
     0
102
RTVSPropertyOp0
 70
     0
102
RTVSPropertyOp1
 70
     0
102
RTVSPropertyOp2
 70
     0
102
RTVSPropertyOp3
 70
     0
102
RTVSPropertyOp4
 70
     0
102
RTVSPropertyOp5
 70
     0
102
RTVSPropertyOp6
 70
     0
102
RTVSPropertyOp7
 70
     0
102
RTVSPropertyOp8
 70
     0
102
RTVSPropertyOp9
 70
     0
102
RTVSPropertyOp10
 70
     0
102
RTVSPropertyOp11
 70
     0
102
RTVSPropertyOp12
 70
     0
102
RTVSPropertyOp13
 70
     0
102
RTVSPropertyOp14
 70
     2
102
RTVSPropertyOp15
 70
     0
102
RTVSPropertyOp16
 70
     0
102
RTVSPropertyOp17
 70
     0
102
RTVSPropertyOp18
 70
     0
102
RTVSPropertyOp19
 70
     0
102
RTVSPropertyOp20
 70
     0
102
RTVSPropertyOp21
 70
     0
102
RTVSPropertyOp22
 70
     0
102
RTVSPropertyOp23
 70
     0
102
RTVSPropertyOp24
 70
     0
102
RTVSPropertyOp25
 70
     0
102
RTVSPropertyOp26
 70
     0
102
RTVSPropertyOp27
 70
     0
102
RTVSPropertyOp28
 70
     1
102
RTVSPropertyOp29
 70
     1
102
RTVSPropertyOp30
 70
     1
102
RTVSPropertyOp31
 70
     1
102
RTVSPropertyOp32
 70
     1
102
RTVSPropertyOp33
 70
     1
102
RTVSPropertyOp34
 70
     1
102
RTVSPropertyOp35
 70
     1
102
RTVSPropertyOp36
 70
     1
102
RTVSPropertyOp37
 70
     0
102
RTVSPropertyOp38
 70
     0
102
RTVSPropertyOp39
 70
     0
102
RTVSPropertyOp40
 70
     0
102
RTVSPropertyOp41
 70
     0
102
RTVSPropertyOp42
 70
     0
102
RTVSPropertyOp43
 70
     0
102
RTVSPropertyOp44
 70
     0
102
RTVSPropertyOp45
 70
     1
102
RTVSPropertyOp46
 70
     0
102
RTVSPropertyOp47
 70
     0
102
RTVSPropertyOp48
 70
     0
102
RTVSPropertyOp49
 70
     1
102
RTVSPropertyOp50
 70
     0
102
RTVSPropertyOp51
 70
     0
102
RTVSPropertyOp52
 70
     0
102
RTVSPropertyOp53
 70
     0
102
RTVSPropertyOp54
 70
     0
102
RTVSPropertyOp55
 70
     1
102
RTVSPropertyOp56
 70
     0
102
RTVSPropertyOp57
 70
     0
102
RTVSPropertyOp58
 70
     0
102
RTVSPropertyOp59
 70
     0
102
RTVSPropertyOp60
 70
     0
102
RTVSPropertyOp61
 70
     0
102
RTVSPropertyOp62
 70
     0
  0
XRECORD
  5
8478
102
{ACAD_REACTORS
330
8477
102
}
330
8477
100
AcDbXrecord
280
     1
102
RTVSPost2010Prop28
280
     0
102
RTVSPost2010PropOp28
 70
     1
102
RTVSPost2010Prop29
280
     1
102
RTVSPost2010PropOp29
 70
     1
102
RTVSPost2010Prop30
280
     1
102
RTVSPost2010PropOp30
 70
     1
102
RTVSPost2010Prop31
280
     0
102
RTVSPost2010PropOp31
 70
     1
102
RTVSPost2010Prop32
280
     0
102
RTVSPost2010PropOp32
 70
     1
102
RTVSPost2010Prop33
280
     0
102
RTVSPost2010PropOp33
 70
     1
102
RTVSPost2010Prop34
280
     0
102
RTVSPost2010PropOp34
 70
     1
102
RTVSPost2010Prop35
280
     0
102
RTVSPost2010PropOp35
 70
     1
102
RTVSPost2010Prop36
280
     0
102
RTVSPost2010PropOp36
 70
     1
102
RTVSPost2010Prop37
 90
       50
102
RTVSPost2010PropOp37
 70
     1
102
RTVSPost2010Prop38
140
0.0
102
RTVSPost2010PropOp38
 70
     1
102
RTVSPost2010Prop39
140
1.0
102
RTVSPost2010PropOp39
 70
     1
102
RTVSPost2010Prop40
 90
        0
102
RTVSPost2010PropOp40
 70
     1
102
RTVSPost2010Prop41ColorIndex
 90
       18
102
RTVSPost2010Prop41ColorRGB
 90
        0
102
RTVSPost2010PropOp41
 70
     1
102
RTVSPost2010Prop42
 90
       50
102
RTVSPost2010PropOp42
 70
     1
102
RTVSPost2010Prop43
 90
        3
102
RTVSPost2010PropOp43
 70
     1
102
RTVSPost2010Prop44ColorIndex
 90
        5
102
RTVSPost2010Prop44ColorRGB
 90
      255
102
RTVSPost2010PropOp44
 70
     1
102
RTVSPost2010Prop45
280
     0
102
RTVSPost2010PropOp45
 70
     1
102
RTVSPost2010Prop46
 90
       50
102
RTVSPost2010PropOp46
 70
     1
102
RTVSPost2010Prop47
 90
       50
102
RTVSPost2010PropOp47
 70
     1
102
RTVSPost2010Prop48
 90
       50
102
RTVSPost2010PropOp48
 70
     1
102
RTVSPost2010Prop49
280
     0
102
RTVSPost2010PropOp49
 70
     1
102
RTVSPost2010Prop50
 90
       50
102
RTVSPost2010PropOp50
 70
     1
102
RTVSPost2010Prop51ColorIndex
 90
      256
102
RTVSPost2010Prop51ColorRGB
 90
-16777216
102
RTVSPost2010PropOp51
 70
     0
102
RTVSPost2010Prop52
140
1.0
102
RTVSPost2010PropOp52
 70
     0
102
RTVSPost2010Prop53
 90
        2
102
RTVSPost2010PropOp53
 70
     1
102
RTVSPost2010Prop54
  1
strokes_ogs.tif
102
RTVSPost2010PropOp54
 70
     1
102
RTVSPost2010Prop55
280
     0
102
RTVSPost2010PropOp55
 70
     1
102
RTVSPost2010Prop56
140
1.0
102
RTVSPost2010PropOp56
 70
     1
102
RTVSPost2010Prop57
140
1.0
102
RTVSPost2010PropOp57
 70
     1
102
RTVSPropertyOp0
 70
     1
102
RTVSPropertyOp1
 70
     1
102
RTVSPropertyOp2
 70
     1
102
RTVSPropertyOp3
 70
     1
102
RTVSPropertyOp4
 70
     1
102
RTVSPropertyOp5
 70
     1
102
RTVSPropertyOp6
 70
     1
102
RTVSPropertyOp7
 70
     1
102
RTVSPropertyOp8
 70
     1
102
RTVSPropertyOp9
 70
     1
102
RTVSPropertyOp10
 70
     1
102
RTVSPropertyOp11
 70
     1
102
RTVSPropertyOp12
 70
     1
102
RTVSPropertyOp13
 70
     1
102
RTVSPropertyOp14
 70
     1
102
RTVSPropertyOp15
 70
     1
102
RTVSPropertyOp16
 70
     1
102
RTVSPropertyOp17
 70
     1
102
RTVSPropertyOp18
 70
     1
102
RTVSPropertyOp19
 70
     1
102
RTVSPropertyOp20
 70
     1
102
RTVSPropertyOp21
 70
     1
102
RTVSPropertyOp22
 70
     1
102
RTVSPropertyOp23
 70
     1
102
RTVSPropertyOp24
 70
     1
102
RTVSPropertyOp25
 70
     1
102
RTVSPropertyOp26
 70
     1
102
RTVSPropertyOp27
 70
     1
102
RTVSPropertyOp28
 70
     1
102
RTVSPropertyOp29
 70
     1
102
RTVSPropertyOp30
 70
     1
102
RTVSPropertyOp31
 70
     1
102
RTVSPropertyOp32
 70
     1
102
RTVSPropertyOp33
 70
     1
102
RTVSPropertyOp34
 70
     1
102
RTVSPropertyOp35
 70
     1
102
RTVSPropertyOp36
 70
     1
102
RTVSPropertyOp37
 70
     1
102
RTVSPropertyOp38
 70
     1
102
RTVSPropertyOp39
 70
     1
102
RTVSPropertyOp40
 70
     1
102
RTVSPropertyOp41
 70
     1
102
RTVSPropertyOp42
 70
     1
102
RTVSPropertyOp43
 70
     1
102
RTVSPropertyOp44
 70
     1
102
RTVSPropertyOp45
 70
     1
102
RTVSPropertyOp46
 70
     1
102
RTVSPropertyOp47
 70
     1
102
RTVSPropertyOp48
 70
     1
102
RTVSPropertyOp49
 70
     1
102
RTVSPropertyOp50
 70
     1
102
RTVSPropertyOp51
 70
     0
102
RTVSPropertyOp52
 70
     0
102
RTVSPropertyOp53
 70
     1
102
RTVSPropertyOp54
 70
     1
102
RTVSPropertyOp55
 70
     1
102
RTVSPropertyOp56
 70
     1
102
RTVSPropertyOp57
 70
     1
102
RTVSPropertyOp58
 70
     1
102
RTVSPropertyOp59
 70
     1
102
RTVSPropertyOp60
 70
     1
102
RTVSPropertyOp61
 70
     1
102
RTVSPropertyOp62
 70
     1
  0
XRECORD
  5
845C
102
{ACAD_REACTORS
330
845B
102
}
330
845B
100
AcDbXrecord
280
     1
102
RTVSPost2010Prop28
280
     0
102
RTVSPost2010PropOp28
 70
     1
102
RTVSPost2010Prop29
280
     1
102
RTVSPost2010PropOp29
 70
     1
102
RTVSPost2010Prop30
280
     1
102
RTVSPost2010PropOp30
 70
     1
102
RTVSPost2010Prop31
280
     0
102
RTVSPost2010PropOp31
 70
     1
102
RTVSPost2010Prop32
280
     0
102
RTVSPost2010PropOp32
 70
     1
102
RTVSPost2010Prop33
280
     0
102
RTVSPost2010PropOp33
 70
     1
102
RTVSPost2010Prop34
280
     0
102
RTVSPost2010PropOp34
 70
     1
102
RTVSPost2010Prop35
280
     0
102
RTVSPost2010PropOp35
 70
     1
102
RTVSPost2010Prop36
280
     0
102
RTVSPost2010PropOp36
 70
     1
102
RTVSPost2010Prop37
 90
       50
102
RTVSPost2010PropOp37
 70
     1
102
RTVSPost2010Prop38
140
0.0
102
RTVSPost2010PropOp38
 70
     1
102
RTVSPost2010Prop39
140
1.0
102
RTVSPost2010PropOp39
 70
     1
102
RTVSPost2010Prop40
 90
        0
102
RTVSPost2010PropOp40
 70
     1
102
RTVSPost2010Prop41ColorIndex
 90
       18
102
RTVSPost2010Prop41ColorRGB
 90
        0
102
RTVSPost2010PropOp41
 70
     1
102
RTVSPost2010Prop42
 90
       50
102
RTVSPost2010PropOp42
 70
     1
102
RTVSPost2010Prop43
 90
        3
102
RTVSPost2010PropOp43
 70
     1
102
RTVSPost2010Prop44ColorIndex
 90
        5
102
RTVSPost2010Prop44ColorRGB
 90
      255
102
RTVSPost2010PropOp44
 70
     1
102
RTVSPost2010Prop45
280
     0
102
RTVSPost2010PropOp45
 70
     1
102
RTVSPost2010Prop46
 90
       50
102
RTVSPost2010PropOp46
 70
     1
102
RTVSPost2010Prop47
 90
       50
102
RTVSPost2010PropOp47
 70
     1
102
RTVSPost2010Prop48
 90
       50
102
RTVSPost2010PropOp48
 70
     1
102
RTVSPost2010Prop49
280
     0
102
RTVSPost2010PropOp49
 70
     1
102
RTVSPost2010Prop50
 90
       50
102
RTVSPost2010PropOp50
 70
     1
102
RTVSPost2010Prop51ColorIndex
 90
      256
102
RTVSPost2010Prop51ColorRGB
 90
-16777216
102
RTVSPost2010PropOp51
 70
     0
102
RTVSPost2010Prop52
140
1.0
102
RTVSPost2010PropOp52
 70
     0
102
RTVSPost2010Prop53
 90
        2
102
RTVSPost2010PropOp53
 70
     1
102
RTVSPost2010Prop54
  1
strokes_ogs.tif
102
RTVSPost2010PropOp54
 70
     1
102
RTVSPost2010Prop55
280
     0
102
RTVSPost2010PropOp55
 70
     1
102
RTVSPost2010Prop56
140
1.0
102
RTVSPost2010PropOp56
 70
     1
102
RTVSPost2010Prop57
140
1.0
102
RTVSPost2010PropOp57
 70
     1
102
RTVSPropertyOp0
 70
     1
102
RTVSPropertyOp1
 70
     1
102
RTVSPropertyOp2
 70
     1
102
RTVSPropertyOp3
 70
     1
102
RTVSPropertyOp4
 70
     1
102
RTVSPropertyOp5
 70
     1
102
RTVSPropertyOp6
 70
     1
102
RTVSPropertyOp7
 70
     1
102
RTVSPropertyOp8
 70
     1
102
RTVSPropertyOp9
 70
     1
102
RTVSPropertyOp10
 70
     1
102
RTVSPropertyOp11
 70
     1
102
RTVSPropertyOp12
 70
     1
102
RTVSPropertyOp13
 70
     1
102
RTVSPropertyOp14
 70
     1
102
RTVSPropertyOp15
 70
     1
102
RTVSPropertyOp16
 70
     1
102
RTVSPropertyOp17
 70
     1
102
RTVSPropertyOp18
 70
     1
102
RTVSPropertyOp19
 70
     1
102
RTVSPropertyOp20
 70
     1
102
RTVSPropertyOp21
 70
     1
102
RTVSPropertyOp22
 70
     1
102
RTVSPropertyOp23
 70
     1
102
RTVSPropertyOp24
 70
     1
102
RTVSPropertyOp25
 70
     1
102
RTVSPropertyOp26
 70
     1
102
RTVSPropertyOp27
 70
     1
102
RTVSPropertyOp28
 70
     1
102
RTVSPropertyOp29
 70
     1
102
RTVSPropertyOp30
 70
     1
102
RTVSPropertyOp31
 70
     1
102
RTVSPropertyOp32
 70
     1
102
RTVSPropertyOp33
 70
     1
102
RTVSPropertyOp34
 70
     1
102
RTVSPropertyOp35
 70
     1
102
RTVSPropertyOp36
 70
     1
102
RTVSPropertyOp37
 70
     1
102
RTVSPropertyOp38
 70
     1
102
RTVSPropertyOp39
 70
     1
102
RTVSPropertyOp40
 70
     1
102
RTVSPropertyOp41
 70
     1
102
RTVSPropertyOp42
 70
     1
102
RTVSPropertyOp43
 70
     1
102
RTVSPropertyOp44
 70
     1
102
RTVSPropertyOp45
 70
     1
102
RTVSPropertyOp46
 70
     1
102
RTVSPropertyOp47
 70
     1
102
RTVSPropertyOp48
 70
     1
102
RTVSPropertyOp49
 70
     1
102
RTVSPropertyOp50
 70
     1
102
RTVSPropertyOp51
 70
     0
102
RTVSPropertyOp52
 70
     0
102
RTVSPropertyOp53
 70
     1
102
RTVSPropertyOp54
 70
     1
102
RTVSPropertyOp55
 70
     1
102
RTVSPropertyOp56
 70
     1
102
RTVSPropertyOp57
 70
     1
102
RTVSPropertyOp58
 70
     1
102
RTVSPropertyOp59
 70
     1
102
RTVSPropertyOp60
 70
     1
102
RTVSPropertyOp61
 70
     1
102
RTVSPropertyOp62
 70
     1
  0
XRECORD
  5
845E
102
{ACAD_REACTORS
330
845D
102
}
330
845D
100
AcDbXrecord
280
     1
102
RTVSPost2010Prop28
280
     0
102
RTVSPost2010PropOp28
 70
     1
102
RTVSPost2010Prop29
280
     1
102
RTVSPost2010PropOp29
 70
     1
102
RTVSPost2010Prop30
280
     1
102
RTVSPost2010PropOp30
 70
     1
102
RTVSPost2010Prop31
280
     0
102
RTVSPost2010PropOp31
 70
     1
102
RTVSPost2010Prop32
280
     0
102
RTVSPost2010PropOp32
 70
     1
102
RTVSPost2010Prop33
280
     0
102
RTVSPost2010PropOp33
 70
     1
102
RTVSPost2010Prop34
280
     0
102
RTVSPost2010PropOp34
 70
     1
102
RTVSPost2010Prop35
280
     0
102
RTVSPost2010PropOp35
 70
     1
102
RTVSPost2010Prop36
280
     0
102
RTVSPost2010PropOp36
 70
     1
102
RTVSPost2010Prop37
 90
       50
102
RTVSPost2010PropOp37
 70
     1
102
RTVSPost2010Prop38
140
0.0
102
RTVSPost2010PropOp38
 70
     1
102
RTVSPost2010Prop39
140
1.0
102
RTVSPost2010PropOp39
 70
     1
102
RTVSPost2010Prop40
 90
        0
102
RTVSPost2010PropOp40
 70
     1
102
RTVSPost2010Prop41ColorIndex
 90
       18
102
RTVSPost2010Prop41ColorRGB
 90
        0
102
RTVSPost2010PropOp41
 70
     1
102
RTVSPost2010Prop42
 90
       50
102
RTVSPost2010PropOp42
 70
     1
102
RTVSPost2010Prop43
 90
        3
102
RTVSPost2010PropOp43
 70
     1
102
RTVSPost2010Prop44ColorIndex
 90
        5
102
RTVSPost2010Prop44ColorRGB
 90
      255
102
RTVSPost2010PropOp44
 70
     1
102
RTVSPost2010Prop45
280
     0
102
RTVSPost2010PropOp45
 70
     1
102
RTVSPost2010Prop46
 90
       50
102
RTVSPost2010PropOp46
 70
     1
102
RTVSPost2010Prop47
 90
       50
102
RTVSPost2010PropOp47
 70
     1
102
RTVSPost2010Prop48
 90
       50
102
RTVSPost2010PropOp48
 70
     1
102
RTVSPost2010Prop49
280
     0
102
RTVSPost2010PropOp49
 70
     1
102
RTVSPost2010Prop50
 90
       50
102
RTVSPost2010PropOp50
 70
     1
102
RTVSPost2010Prop51ColorIndex
 90
      256
102
RTVSPost2010Prop51ColorRGB
 90
-16777216
102
RTVSPost2010PropOp51
 70
     0
102
RTVSPost2010Prop52
140
1.0
102
RTVSPost2010PropOp52
 70
     0
102
RTVSPost2010Prop53
 90
        2
102
RTVSPost2010PropOp53
 70
     1
102
RTVSPost2010Prop54
  1
strokes_ogs.tif
102
RTVSPost2010PropOp54
 70
     1
102
RTVSPost2010Prop55
280
     0
102
RTVSPost2010PropOp55
 70
     1
102
RTVSPost2010Prop56
140
1.0
102
RTVSPost2010PropOp56
 70
     1
102
RTVSPost2010Prop57
140
1.0
102
RTVSPost2010PropOp57
 70
     1
102
RTVSPropertyOp0
 70
     1
102
RTVSPropertyOp1
 70
     1
102
RTVSPropertyOp2
 70
     1
102
RTVSPropertyOp3
 70
     1
102
RTVSPropertyOp4
 70
     1
102
RTVSPropertyOp5
 70
     1
102
RTVSPropertyOp6
 70
     1
102
RTVSPropertyOp7
 70
     1
102
RTVSPropertyOp8
 70
     1
102
RTVSPropertyOp9
 70
     1
102
RTVSPropertyOp10
 70
     1
102
RTVSPropertyOp11
 70
     1
102
RTVSPropertyOp12
 70
     1
102
RTVSPropertyOp13
 70
     1
102
RTVSPropertyOp14
 70
     1
102
RTVSPropertyOp15
 70
     1
102
RTVSPropertyOp16
 70
     1
102
RTVSPropertyOp17
 70
     1
102
RTVSPropertyOp18
 70
     1
102
RTVSPropertyOp19
 70
     1
102
RTVSPropertyOp20
 70
     1
102
RTVSPropertyOp21
 70
     1
102
RTVSPropertyOp22
 70
     1
102
RTVSPropertyOp23
 70
     1
102
RTVSPropertyOp24
 70
     1
102
RTVSPropertyOp25
 70
     1
102
RTVSPropertyOp26
 70
     1
102
RTVSPropertyOp27
 70
     1
102
RTVSPropertyOp28
 70
     1
102
RTVSPropertyOp29
 70
     1
102
RTVSPropertyOp30
 70
     1
102
RTVSPropertyOp31
 70
     1
102
RTVSPropertyOp32
 70
     1
102
RTVSPropertyOp33
 70
     1
102
RTVSPropertyOp34
 70
     1
102
RTVSPropertyOp35
 70
     1
102
RTVSPropertyOp36
 70
     1
102
RTVSPropertyOp37
 70
     1
102
RTVSPropertyOp38
 70
     1
102
RTVSPropertyOp39
 70
     1
102
RTVSPropertyOp40
 70
     1
102
RTVSPropertyOp41
 70
     1
102
RTVSPropertyOp42
 70
     1
102
RTVSPropertyOp43
 70
     1
102
RTVSPropertyOp44
 70
     1
102
RTVSPropertyOp45
 70
     1
102
RTVSPropertyOp46
 70
     1
102
RTVSPropertyOp47
 70
     1
102
RTVSPropertyOp48
 70
     1
102
RTVSPropertyOp49
 70
     1
102
RTVSPropertyOp50
 70
     1
102
RTVSPropertyOp51
 70
     0
102
RTVSPropertyOp52
 70
     0
102
RTVSPropertyOp53
 70
     1
102
RTVSPropertyOp54
 70
     1
102
RTVSPropertyOp55
 70
     1
102
RTVSPropertyOp56
 70
     1
102
RTVSPropertyOp57
 70
     1
102
RTVSPropertyOp58
 70
     1
102
RTVSPropertyOp59
 70
     1
102
RTVSPropertyOp60
 70
     1
102
RTVSPropertyOp61
 70
     1
102
RTVSPropertyOp62
 70
     1
  0
XRECORD
  5
8460
102
{ACAD_REACTORS
330
845F
102
}
330
845F
100
AcDbXrecord
280
     1
102
RTVSPost2010Prop28
280
     0
102
RTVSPost2010PropOp28
 70
     1
102
RTVSPost2010Prop29
280
     1
102
RTVSPost2010PropOp29
 70
     1
102
RTVSPost2010Prop30
280
     1
102
RTVSPost2010PropOp30
 70
     1
102
RTVSPost2010Prop31
280
     0
102
RTVSPost2010PropOp31
 70
     1
102
RTVSPost2010Prop32
280
     0
102
RTVSPost2010PropOp32
 70
     1
102
RTVSPost2010Prop33
280
     0
102
RTVSPost2010PropOp33
 70
     1
102
RTVSPost2010Prop34
280
     0
102
RTVSPost2010PropOp34
 70
     1
102
RTVSPost2010Prop35
280
     0
102
RTVSPost2010PropOp35
 70
     1
102
RTVSPost2010Prop36
280
     0
102
RTVSPost2010PropOp36
 70
     1
102
RTVSPost2010Prop37
 90
       50
102
RTVSPost2010PropOp37
 70
     1
102
RTVSPost2010Prop38
140
0.0
102
RTVSPost2010PropOp38
 70
     1
102
RTVSPost2010Prop39
140
1.0
102
RTVSPost2010PropOp39
 70
     1
102
RTVSPost2010Prop40
 90
        0
102
RTVSPost2010PropOp40
 70
     1
102
RTVSPost2010Prop41ColorIndex
 90
       18
102
RTVSPost2010Prop41ColorRGB
 90
        0
102
RTVSPost2010PropOp41
 70
     1
102
RTVSPost2010Prop42
 90
       50
102
RTVSPost2010PropOp42
 70
     1
102
RTVSPost2010Prop43
 90
        3
102
RTVSPost2010PropOp43
 70
     1
102
RTVSPost2010Prop44ColorIndex
 90
        5
102
RTVSPost2010Prop44ColorRGB
 90
      255
102
RTVSPost2010PropOp44
 70
     1
102
RTVSPost2010Prop45
280
     0
102
RTVSPost2010PropOp45
 70
     1
102
RTVSPost2010Prop46
 90
       50
102
RTVSPost2010PropOp46
 70
     1
102
RTVSPost2010Prop47
 90
       50
102
RTVSPost2010PropOp47
 70
     1
102
RTVSPost2010Prop48
 90
       50
102
RTVSPost2010PropOp48
 70
     1
102
RTVSPost2010Prop49
280
     0
102
RTVSPost2010PropOp49
 70
     1
102
RTVSPost2010Prop50
 90
       50
102
RTVSPost2010PropOp50
 70
     1
102
RTVSPost2010Prop51ColorIndex
 90
      256
102
RTVSPost2010Prop51ColorRGB
 90
-16777216
102
RTVSPost2010PropOp51
 70
     0
102
RTVSPost2010Prop52
140
1.0
102
RTVSPost2010PropOp52
 70
     0
102
RTVSPost2010Prop53
 90
        2
102
RTVSPost2010PropOp53
 70
     1
102
RTVSPost2010Prop54
  1
strokes_ogs.tif
102
RTVSPost2010PropOp54
 70
     1
102
RTVSPost2010Prop55
280
     0
102
RTVSPost2010PropOp55
 70
     1
102
RTVSPost2010Prop56
140
1.0
102
RTVSPost2010PropOp56
 70
     1
102
RTVSPost2010Prop57
140
1.0
102
RTVSPost2010PropOp57
 70
     1
102
RTVSPropertyOp0
 70
     1
102
RTVSPropertyOp1
 70
     1
102
RTVSPropertyOp2
 70
     1
102
RTVSPropertyOp3
 70
     1
102
RTVSPropertyOp4
 70
     1
102
RTVSPropertyOp5
 70
     1
102
RTVSPropertyOp6
 70
     1
102
RTVSPropertyOp7
 70
     1
102
RTVSPropertyOp8
 70
     1
102
RTVSPropertyOp9
 70
     1
102
RTVSPropertyOp10
 70
     1
102
RTVSPropertyOp11
 70
     1
102
RTVSPropertyOp12
 70
     1
102
RTVSPropertyOp13
 70
     1
102
RTVSPropertyOp14
 70
     1
102
RTVSPropertyOp15
 70
     1
102
RTVSPropertyOp16
 70
     1
102
RTVSPropertyOp17
 70
     1
102
RTVSPropertyOp18
 70
     1
102
RTVSPropertyOp19
 70
     1
102
RTVSPropertyOp20
 70
     1
102
RTVSPropertyOp21
 70
     1
102
RTVSPropertyOp22
 70
     1
102
RTVSPropertyOp23
 70
     1
102
RTVSPropertyOp24
 70
     1
102
RTVSPropertyOp25
 70
     1
102
RTVSPropertyOp26
 70
     1
102
RTVSPropertyOp27
 70
     1
102
RTVSPropertyOp28
 70
     1
102
RTVSPropertyOp29
 70
     1
102
RTVSPropertyOp30
 70
     1
102
RTVSPropertyOp31
 70
     1
102
RTVSPropertyOp32
 70
     1
102
RTVSPropertyOp33
 70
     1
102
RTVSPropertyOp34
 70
     1
102
RTVSPropertyOp35
 70
     1
102
RTVSPropertyOp36
 70
     1
102
RTVSPropertyOp37
 70
     1
102
RTVSPropertyOp38
 70
     1
102
RTVSPropertyOp39
 70
     1
102
RTVSPropertyOp40
 70
     1
102
RTVSPropertyOp41
 70
     1
102
RTVSPropertyOp42
 70
     1
102
RTVSPropertyOp43
 70
     1
102
RTVSPropertyOp44
 70
     1
102
RTVSPropertyOp45
 70
     1
102
RTVSPropertyOp46
 70
     1
102
RTVSPropertyOp47
 70
     1
102
RTVSPropertyOp48
 70
     1
102
RTVSPropertyOp49
 70
     1
102
RTVSPropertyOp50
 70
     1
102
RTVSPropertyOp51
 70
     0
102
RTVSPropertyOp52
 70
     0
102
RTVSPropertyOp53
 70
     1
102
RTVSPropertyOp54
 70
     1
102
RTVSPropertyOp55
 70
     1
102
RTVSPropertyOp56
 70
     1
102
RTVSPropertyOp57
 70
     1
102
RTVSPropertyOp58
 70
     1
102
RTVSPropertyOp59
 70
     1
102
RTVSPropertyOp60
 70
     1
102
RTVSPropertyOp61
 70
     1
102
RTVSPropertyOp62
 70
     1
  0
XRECORD
  5
8462
102
{ACAD_REACTORS
330
8461
102
}
330
8461
100
AcDbXrecord
280
     1
102
RTVSPost2010Prop28
280
     0
102
RTVSPost2010PropOp28
 70
     1
102
RTVSPost2010Prop29
280
     1
102
RTVSPost2010PropOp29
 70
     1
102
RTVSPost2010Prop30
280
     1
102
RTVSPost2010PropOp30
 70
     1
102
RTVSPost2010Prop31
280
     0
102
RTVSPost2010PropOp31
 70
     1
102
RTVSPost2010Prop32
280
     0
102
RTVSPost2010PropOp32
 70
     1
102
RTVSPost2010Prop33
280
     0
102
RTVSPost2010PropOp33
 70
     1
102
RTVSPost2010Prop34
280
     0
102
RTVSPost2010PropOp34
 70
     1
102
RTVSPost2010Prop35
280
     0
102
RTVSPost2010PropOp35
 70
     1
102
RTVSPost2010Prop36
280
     0
102
RTVSPost2010PropOp36
 70
     1
102
RTVSPost2010Prop37
 90
       50
102
RTVSPost2010PropOp37
 70
     1
102
RTVSPost2010Prop38
140
0.0
102
RTVSPost2010PropOp38
 70
     1
102
RTVSPost2010Prop39
140
1.0
102
RTVSPost2010PropOp39
 70
     1
102
RTVSPost2010Prop40
 90
        0
102
RTVSPost2010PropOp40
 70
     1
102
RTVSPost2010Prop41ColorIndex
 90
       18
102
RTVSPost2010Prop41ColorRGB
 90
        0
102
RTVSPost2010PropOp41
 70
     1
102
RTVSPost2010Prop42
 90
       50
102
RTVSPost2010PropOp42
 70
     1
102
RTVSPost2010Prop43
 90
        3
102
RTVSPost2010PropOp43
 70
     1
102
RTVSPost2010Prop44ColorIndex
 90
        5
102
RTVSPost2010Prop44ColorRGB
 90
      255
102
RTVSPost2010PropOp44
 70
     1
102
RTVSPost2010Prop45
280
     0
102
RTVSPost2010PropOp45
 70
     1
102
RTVSPost2010Prop46
 90
       50
102
RTVSPost2010PropOp46
 70
     1
102
RTVSPost2010Prop47
 90
       50
102
RTVSPost2010PropOp47
 70
     1
102
RTVSPost2010Prop48
 90
       50
102
RTVSPost2010PropOp48
 70
     1
102
RTVSPost2010Prop49
280
     0
102
RTVSPost2010PropOp49
 70
     1
102
RTVSPost2010Prop50
 90
       50
102
RTVSPost2010PropOp50
 70
     1
102
RTVSPost2010Prop51ColorIndex
 90
      256
102
RTVSPost2010Prop51ColorRGB
 90
-16777216
102
RTVSPost2010PropOp51
 70
     0
102
RTVSPost2010Prop52
140
1.0
102
RTVSPost2010PropOp52
 70
     0
102
RTVSPost2010Prop53
 90
        2
102
RTVSPost2010PropOp53
 70
     1
102
RTVSPost2010Prop54
  1
strokes_ogs.tif
102
RTVSPost2010PropOp54
 70
     1
102
RTVSPost2010Prop55
280
     0
102
RTVSPost2010PropOp55
 70
     1
102
RTVSPost2010Prop56
140
1.0
102
RTVSPost2010PropOp56
 70
     1
102
RTVSPost2010Prop57
140
1.0
102
RTVSPost2010PropOp57
 70
     1
102
RTVSPropertyOp0
 70
     1
102
RTVSPropertyOp1
 70
     1
102
RTVSPropertyOp2
 70
     1
102
RTVSPropertyOp3
 70
     1
102
RTVSPropertyOp4
 70
     1
102
RTVSPropertyOp5
 70
     1
102
RTVSPropertyOp6
 70
     1
102
RTVSPropertyOp7
 70
     1
102
RTVSPropertyOp8
 70
     1
102
RTVSPropertyOp9
 70
     1
102
RTVSPropertyOp10
 70
     1
102
RTVSPropertyOp11
 70
     1
102
RTVSPropertyOp12
 70
     1
102
RTVSPropertyOp13
 70
     1
102
RTVSPropertyOp14
 70
     1
102
RTVSPropertyOp15
 70
     1
102
RTVSPropertyOp16
 70
     1
102
RTVSPropertyOp17
 70
     1
102
RTVSPropertyOp18
 70
     1
102
RTVSPropertyOp19
 70
     1
102
RTVSPropertyOp20
 70
     1
102
RTVSPropertyOp21
 70
     1
102
RTVSPropertyOp22
 70
     1
102
RTVSPropertyOp23
 70
     1
102
RTVSPropertyOp24
 70
     1
102
RTVSPropertyOp25
 70
     1
102
RTVSPropertyOp26
 70
     1
102
RTVSPropertyOp27
 70
     1
102
RTVSPropertyOp28
 70
     1
102
RTVSPropertyOp29
 70
     1
102
RTVSPropertyOp30
 70
     1
102
RTVSPropertyOp31
 70
     1
102
RTVSPropertyOp32
 70
     1
102
RTVSPropertyOp33
 70
     1
102
RTVSPropertyOp34
 70
     1
102
RTVSPropertyOp35
 70
     1
102
RTVSPropertyOp36
 70
     1
102
RTVSPropertyOp37
 70
     1
102
RTVSPropertyOp38
 70
     1
102
RTVSPropertyOp39
 70
     1
102
RTVSPropertyOp40
 70
     1
102
RTVSPropertyOp41
 70
     1
102
RTVSPropertyOp42
 70
     1
102
RTVSPropertyOp43
 70
     1
102
RTVSPropertyOp44
 70
     1
102
RTVSPropertyOp45
 70
     1
102
RTVSPropertyOp46
 70
     1
102
RTVSPropertyOp47
 70
     1
102
RTVSPropertyOp48
 70
     1
102
RTVSPropertyOp49
 70
     1
102
RTVSPropertyOp50
 70
     1
102
RTVSPropertyOp51
 70
     0
102
RTVSPropertyOp52
 70
     0
102
RTVSPropertyOp53
 70
     1
102
RTVSPropertyOp54
 70
     1
102
RTVSPropertyOp55
 70
     1
102
RTVSPropertyOp56
 70
     1
102
RTVSPropertyOp57
 70
     1
102
RTVSPropertyOp58
 70
     1
102
RTVSPropertyOp59
 70
     1
102
RTVSPropertyOp60
 70
     1
102
RTVSPropertyOp61
 70
     1
102
RTVSPropertyOp62
 70
     1
  0
XRECORD
  5
846A
102
{ACAD_REACTORS
330
8469
102
}
330
8469
100
AcDbXrecord
280
     1
102
RTVSPost2010Prop28
280
     0
102
RTVSPost2010PropOp28
 70
     1
102
RTVSPost2010Prop29
280
     1
102
RTVSPost2010PropOp29
 70
     1
102
RTVSPost2010Prop30
280
     1
102
RTVSPost2010PropOp30
 70
     1
102
RTVSPost2010Prop31
280
     0
102
RTVSPost2010PropOp31
 70
     1
102
RTVSPost2010Prop32
280
     0
102
RTVSPost2010PropOp32
 70
     1
102
RTVSPost2010Prop33
280
     0
102
RTVSPost2010PropOp33
 70
     1
102
RTVSPost2010Prop34
280
     0
102
RTVSPost2010PropOp34
 70
     1
102
RTVSPost2010Prop35
280
     0
102
RTVSPost2010PropOp35
 70
     1
102
RTVSPost2010Prop36
280
     0
102
RTVSPost2010PropOp36
 70
     1
102
RTVSPost2010Prop37
 90
       50
102
RTVSPost2010PropOp37
 70
     1
102
RTVSPost2010Prop38
140
0.0
102
RTVSPost2010PropOp38
 70
     1
102
RTVSPost2010Prop39
140
1.0
102
RTVSPost2010PropOp39
 70
     1
102
RTVSPost2010Prop40
 90
        0
102
RTVSPost2010PropOp40
 70
     1
102
RTVSPost2010Prop41ColorIndex
 90
       18
102
RTVSPost2010Prop41ColorRGB
 90
        0
102
RTVSPost2010PropOp41
 70
     1
102
RTVSPost2010Prop42
 90
       50
102
RTVSPost2010PropOp42
 70
     1
102
RTVSPost2010Prop43
 90
        3
102
RTVSPost2010PropOp43
 70
     1
102
RTVSPost2010Prop44ColorIndex
 90
        5
102
RTVSPost2010Prop44ColorRGB
 90
      255
102
RTVSPost2010PropOp44
 70
     1
102
RTVSPost2010Prop45
280
     0
102
RTVSPost2010PropOp45
 70
     1
102
RTVSPost2010Prop46
 90
       50
102
RTVSPost2010PropOp46
 70
     1
102
RTVSPost2010Prop47
 90
       50
102
RTVSPost2010PropOp47
 70
     1
102
RTVSPost2010Prop48
 90
       50
102
RTVSPost2010PropOp48
 70
     1
102
RTVSPost2010Prop49
280
     0
102
RTVSPost2010PropOp49
 70
     1
102
RTVSPost2010Prop50
 90
       50
102
RTVSPost2010PropOp50
 70
     1
102
RTVSPost2010Prop51ColorIndex
 90
      256
102
RTVSPost2010Prop51ColorRGB
 90
-16777216
102
RTVSPost2010PropOp51
 70
     0
102
RTVSPost2010Prop52
140
1.0
102
RTVSPost2010PropOp52
 70
     0
102
RTVSPost2010Prop53
 90
        2
102
RTVSPost2010PropOp53
 70
     1
102
RTVSPost2010Prop54
  1
strokes_ogs.tif
102
RTVSPost2010PropOp54
 70
     1
102
RTVSPost2010Prop55
280
     0
102
RTVSPost2010PropOp55
 70
     1
102
RTVSPost2010Prop56
140
1.0
102
RTVSPost2010PropOp56
 70
     1
102
RTVSPost2010Prop57
140
1.0
102
RTVSPost2010PropOp57
 70
     1
102
RTVSPropertyOp0
 70
     1
102
RTVSPropertyOp1
 70
     1
102
RTVSPropertyOp2
 70
     1
102
RTVSPropertyOp3
 70
     1
102
RTVSPropertyOp4
 70
     1
102
RTVSPropertyOp5
 70
     1
102
RTVSPropertyOp6
 70
     1
102
RTVSPropertyOp7
 70
     1
102
RTVSPropertyOp8
 70
     1
102
RTVSPropertyOp9
 70
     1
102
RTVSPropertyOp10
 70
     1
102
RTVSPropertyOp11
 70
     1
102
RTVSPropertyOp12
 70
     1
102
RTVSPropertyOp13
 70
     1
102
RTVSPropertyOp14
 70
     1
102
RTVSPropertyOp15
 70
     1
102
RTVSPropertyOp16
 70
     1
102
RTVSPropertyOp17
 70
     1
102
RTVSPropertyOp18
 70
     1
102
RTVSPropertyOp19
 70
     1
102
RTVSPropertyOp20
 70
     1
102
RTVSPropertyOp21
 70
     1
102
RTVSPropertyOp22
 70
     1
102
RTVSPropertyOp23
 70
     1
102
RTVSPropertyOp24
 70
     1
102
RTVSPropertyOp25
 70
     1
102
RTVSPropertyOp26
 70
     1
102
RTVSPropertyOp27
 70
     1
102
RTVSPropertyOp28
 70
     1
102
RTVSPropertyOp29
 70
     1
102
RTVSPropertyOp30
 70
     1
102
RTVSPropertyOp31
 70
     1
102
RTVSPropertyOp32
 70
     1
102
RTVSPropertyOp33
 70
     1
102
RTVSPropertyOp34
 70
     1
102
RTVSPropertyOp35
 70
     1
102
RTVSPropertyOp36
 70
     1
102
RTVSPropertyOp37
 70
     1
102
RTVSPropertyOp38
 70
     1
102
RTVSPropertyOp39
 70
     1
102
RTVSPropertyOp40
 70
     1
102
RTVSPropertyOp41
 70
     1
102
RTVSPropertyOp42
 70
     1
102
RTVSPropertyOp43
 70
     1
102
RTVSPropertyOp44
 70
     1
102
RTVSPropertyOp45
 70
     1
102
RTVSPropertyOp46
 70
     1
102
RTVSPropertyOp47
 70
     1
102
RTVSPropertyOp48
 70
     1
102
RTVSPropertyOp49
 70
     1
102
RTVSPropertyOp50
 70
     1
102
RTVSPropertyOp51
 70
     0
102
RTVSPropertyOp52
 70
     0
102
RTVSPropertyOp53
 70
     1
102
RTVSPropertyOp54
 70
     1
102
RTVSPropertyOp55
 70
     1
102
RTVSPropertyOp56
 70
     1
102
RTVSPropertyOp57
 70
     1
102
RTVSPropertyOp58
 70
     1
102
RTVSPropertyOp59
 70
     1
102
RTVSPropertyOp60
 70
     1
102
RTVSPropertyOp61
 70
     1
102
RTVSPropertyOp62
 70
     1
  0
XRECORD
  5
8486
102
{ACAD_REACTORS
330
8485
102
}
330
8485
100
AcDbXrecord
280
     1
102
RTVSPost2010Prop28
280
     0
102
RTVSPost2010PropOp28
 70
     1
102
RTVSPost2010Prop29
280
     1
102
RTVSPost2010PropOp29
 70
     1
102
RTVSPost2010Prop30
280
     1
102
RTVSPost2010PropOp30
 70
     1
102
RTVSPost2010Prop31
280
     0
102
RTVSPost2010PropOp31
 70
     1
102
RTVSPost2010Prop32
280
     0
102
RTVSPost2010PropOp32
 70
     1
102
RTVSPost2010Prop33
280
     0
102
RTVSPost2010PropOp33
 70
     1
102
RTVSPost2010Prop34
280
     0
102
RTVSPost2010PropOp34
 70
     1
102
RTVSPost2010Prop35
280
     0
102
RTVSPost2010PropOp35
 70
     1
102
RTVSPost2010Prop36
280
     0
102
RTVSPost2010PropOp36
 70
     1
102
RTVSPost2010Prop37
 90
       50
102
RTVSPost2010PropOp37
 70
     0
102
RTVSPost2010Prop38
140
0.0
102
RTVSPost2010PropOp38
 70
     0
102
RTVSPost2010Prop39
140
1.0
102
RTVSPost2010PropOp39
 70
     0
102
RTVSPost2010Prop40
 90
        0
102
RTVSPost2010PropOp40
 70
     0
102
RTVSPost2010Prop41ColorIndex
 90
       18
102
RTVSPost2010Prop41ColorRGB
 90
        0
102
RTVSPost2010PropOp41
 70
     0
102
RTVSPost2010Prop42
 90
       50
102
RTVSPost2010PropOp42
 70
     0
102
RTVSPost2010Prop43
 90
        3
102
RTVSPost2010PropOp43
 70
     0
102
RTVSPost2010Prop44ColorIndex
 90
        5
102
RTVSPost2010Prop44ColorRGB
 90
      255
102
RTVSPost2010PropOp44
 70
     0
102
RTVSPost2010Prop45
280
     0
102
RTVSPost2010PropOp45
 70
     1
102
RTVSPost2010Prop46
 90
       50
102
RTVSPost2010PropOp46
 70
     0
102
RTVSPost2010Prop47
 90
       50
102
RTVSPost2010PropOp47
 70
     0
102
RTVSPost2010Prop48
 90
       50
102
RTVSPost2010PropOp48
 70
     0
102
RTVSPost2010Prop49
280
     0
102
RTVSPost2010PropOp49
 70
     1
102
RTVSPost2010Prop50
 90
       50
102
RTVSPost2010PropOp50
 70
     0
102
RTVSPost2010Prop51ColorIndex
 90
      256
102
RTVSPost2010Prop51ColorRGB
 90
-16777216
102
RTVSPost2010PropOp51
 70
     0
102
RTVSPost2010Prop52
140
1.0
102
RTVSPost2010PropOp52
 70
     0
102
RTVSPost2010Prop53
 90
        2
102
RTVSPost2010PropOp53
 70
     0
102
RTVSPost2010Prop54
  1
strokes_ogs.tif
102
RTVSPost2010PropOp54
 70
     0
102
RTVSPost2010Prop55
280
     0
102
RTVSPost2010PropOp55
 70
     1
102
RTVSPost2010Prop56
140
1.0
102
RTVSPost2010PropOp56
 70
     0
102
RTVSPost2010Prop57
140
1.0
102
RTVSPost2010PropOp57
 70
     0
102
RTVSPropertyOp0
 70
     0
102
RTVSPropertyOp1
 70
     0
102
RTVSPropertyOp2
 70
     0
102
RTVSPropertyOp3
 70
     0
102
RTVSPropertyOp4
 70
     0
102
RTVSPropertyOp5
 70
     0
102
RTVSPropertyOp6
 70
     0
102
RTVSPropertyOp7
 70
     0
102
RTVSPropertyOp8
 70
     0
102
RTVSPropertyOp9
 70
     0
102
RTVSPropertyOp10
 70
     0
102
RTVSPropertyOp11
 70
     0
102
RTVSPropertyOp12
 70
     0
102
RTVSPropertyOp13
 70
     0
102
RTVSPropertyOp14
 70
     2
102
RTVSPropertyOp15
 70
     0
102
RTVSPropertyOp16
 70
     0
102
RTVSPropertyOp17
 70
     0
102
RTVSPropertyOp18
 70
     0
102
RTVSPropertyOp19
 70
     0
102
RTVSPropertyOp20
 70
     0
102
RTVSPropertyOp21
 70
     0
102
RTVSPropertyOp22
 70
     0
102
RTVSPropertyOp23
 70
     0
102
RTVSPropertyOp24
 70
     0
102
RTVSPropertyOp25
 70
     0
102
RTVSPropertyOp26
 70
     0
102
RTVSPropertyOp27
 70
     0
102
RTVSPropertyOp28
 70
     1
102
RTVSPropertyOp29
 70
     1
102
RTVSPropertyOp30
 70
     1
102
RTVSPropertyOp31
 70
     1
102
RTVSPropertyOp32
 70
     1
102
RTVSPropertyOp33
 70
     1
102
RTVSPropertyOp34
 70
     1
102
RTVSPropertyOp35
 70
     1
102
RTVSPropertyOp36
 70
     1
102
RTVSPropertyOp37
 70
     0
102
RTVSPropertyOp38
 70
     0
102
RTVSPropertyOp39
 70
     0
102
RTVSPropertyOp40
 70
     0
102
RTVSPropertyOp41
 70
     0
102
RTVSPropertyOp42
 70
     0
102
RTVSPropertyOp43
 70
     0
102
RTVSPropertyOp44
 70
     0
102
RTVSPropertyOp45
 70
     1
102
RTVSPropertyOp46
 70
     0
102
RTVSPropertyOp47
 70
     0
102
RTVSPropertyOp48
 70
     0
102
RTVSPropertyOp49
 70
     1
102
RTVSPropertyOp50
 70
     0
102
RTVSPropertyOp51
 70
     0
102
RTVSPropertyOp52
 70
     0
102
RTVSPropertyOp53
 70
     0
102
RTVSPropertyOp54
 70
     0
102
RTVSPropertyOp55
 70
     1
102
RTVSPropertyOp56
 70
     0
102
RTVSPropertyOp57
 70
     0
102
RTVSPropertyOp58
 70
     0
102
RTVSPropertyOp59
 70
     0
102
RTVSPropertyOp60
 70
     0
102
RTVSPropertyOp61
 70
     0
102
RTVSPropertyOp62
 70
     0
  0
XRECORD
  5
8476
102
{ACAD_REACTORS
330
8475
102
}
330
8475
100
AcDbXrecord
280
     1
102
RTVSPost2010Prop28
280
     0
102
RTVSPost2010PropOp28
 70
     1
102
RTVSPost2010Prop29
280
     1
102
RTVSPost2010PropOp29
 70
     1
102
RTVSPost2010Prop30
280
     1
102
RTVSPost2010PropOp30
 70
     1
102
RTVSPost2010Prop31
280
     0
102
RTVSPost2010PropOp31
 70
     1
102
RTVSPost2010Prop32
280
     0
102
RTVSPost2010PropOp32
 70
     1
102
RTVSPost2010Prop33
280
     0
102
RTVSPost2010PropOp33
 70
     1
102
RTVSPost2010Prop34
280
     0
102
RTVSPost2010PropOp34
 70
     1
102
RTVSPost2010Prop35
280
     0
102
RTVSPost2010PropOp35
 70
     1
102
RTVSPost2010Prop36
280
     0
102
RTVSPost2010PropOp36
 70
     1
102
RTVSPost2010Prop37
 90
       50
102
RTVSPost2010PropOp37
 70
     1
102
RTVSPost2010Prop38
140
0.0
102
RTVSPost2010PropOp38
 70
     1
102
RTVSPost2010Prop39
140
1.0
102
RTVSPost2010PropOp39
 70
     1
102
RTVSPost2010Prop40
 90
        0
102
RTVSPost2010PropOp40
 70
     1
102
RTVSPost2010Prop41ColorIndex
 90
       18
102
RTVSPost2010Prop41ColorRGB
 90
        0
102
RTVSPost2010PropOp41
 70
     1
102
RTVSPost2010Prop42
 90
       50
102
RTVSPost2010PropOp42
 70
     1
102
RTVSPost2010Prop43
 90
        3
102
RTVSPost2010PropOp43
 70
     1
102
RTVSPost2010Prop44ColorIndex
 90
        5
102
RTVSPost2010Prop44ColorRGB
 90
      255
102
RTVSPost2010PropOp44
 70
     1
102
RTVSPost2010Prop45
280
     0
102
RTVSPost2010PropOp45
 70
     1
102
RTVSPost2010Prop46
 90
       50
102
RTVSPost2010PropOp46
 70
     1
102
RTVSPost2010Prop47
 90
       50
102
RTVSPost2010PropOp47
 70
     1
102
RTVSPost2010Prop48
 90
       50
102
RTVSPost2010PropOp48
 70
     1
102
RTVSPost2010Prop49
280
     0
102
RTVSPost2010PropOp49
 70
     1
102
RTVSPost2010Prop50
 90
       50
102
RTVSPost2010PropOp50
 70
     1
102
RTVSPost2010Prop51ColorIndex
 90
      256
102
RTVSPost2010Prop51ColorRGB
 90
-16777216
102
RTVSPost2010PropOp51
 70
     0
102
RTVSPost2010Prop52
140
1.0
102
RTVSPost2010PropOp52
 70
     0
102
RTVSPost2010Prop53
 90
        2
102
RTVSPost2010PropOp53
 70
     1
102
RTVSPost2010Prop54
  1
strokes_ogs.tif
102
RTVSPost2010PropOp54
 70
     1
102
RTVSPost2010Prop55
280
     0
102
RTVSPost2010PropOp55
 70
     1
102
RTVSPost2010Prop56
140
1.0
102
RTVSPost2010PropOp56
 70
     1
102
RTVSPost2010Prop57
140
1.0
102
RTVSPost2010PropOp57
 70
     1
102
RTVSPropertyOp0
 70
     1
102
RTVSPropertyOp1
 70
     1
102
RTVSPropertyOp2
 70
     1
102
RTVSPropertyOp3
 70
     1
102
RTVSPropertyOp4
 70
     1
102
RTVSPropertyOp5
 70
     1
102
RTVSPropertyOp6
 70
     1
102
RTVSPropertyOp7
 70
     1
102
RTVSPropertyOp8
 70
     1
102
RTVSPropertyOp9
 70
     1
102
RTVSPropertyOp10
 70
     1
102
RTVSPropertyOp11
 70
     1
102
RTVSPropertyOp12
 70
     1
102
RTVSPropertyOp13
 70
     1
102
RTVSPropertyOp14
 70
     1
102
RTVSPropertyOp15
 70
     1
102
RTVSPropertyOp16
 70
     1
102
RTVSPropertyOp17
 70
     1
102
RTVSPropertyOp18
 70
     1
102
RTVSPropertyOp19
 70
     1
102
RTVSPropertyOp20
 70
     1
102
RTVSPropertyOp21
 70
     1
102
RTVSPropertyOp22
 70
     1
102
RTVSPropertyOp23
 70
     1
102
RTVSPropertyOp24
 70
     1
102
RTVSPropertyOp25
 70
     1
102
RTVSPropertyOp26
 70
     1
102
RTVSPropertyOp27
 70
     1
102
RTVSPropertyOp28
 70
     1
102
RTVSPropertyOp29
 70
     1
102
RTVSPropertyOp30
 70
     1
102
RTVSPropertyOp31
 70
     1
102
RTVSPropertyOp32
 70
     1
102
RTVSPropertyOp33
 70
     1
102
RTVSPropertyOp34
 70
     1
102
RTVSPropertyOp35
 70
     1
102
RTVSPropertyOp36
 70
     1
102
RTVSPropertyOp37
 70
     1
102
RTVSPropertyOp38
 70
     1
102
RTVSPropertyOp39
 70
     1
102
RTVSPropertyOp40
 70
     1
102
RTVSPropertyOp41
 70
     1
102
RTVSPropertyOp42
 70
     1
102
RTVSPropertyOp43
 70
     1
102
RTVSPropertyOp44
 70
     1
102
RTVSPropertyOp45
 70
     1
102
RTVSPropertyOp46
 70
     1
102
RTVSPropertyOp47
 70
     1
102
RTVSPropertyOp48
 70
     1
102
RTVSPropertyOp49
 70
     1
102
RTVSPropertyOp50
 70
     1
102
RTVSPropertyOp51
 70
     0
102
RTVSPropertyOp52
 70
     0
102
RTVSPropertyOp53
 70
     1
102
RTVSPropertyOp54
 70
     1
102
RTVSPropertyOp55
 70
     1
102
RTVSPropertyOp56
 70
     1
102
RTVSPropertyOp57
 70
     1
102
RTVSPropertyOp58
 70
     1
102
RTVSPropertyOp59
 70
     1
102
RTVSPropertyOp60
 70
     1
102
RTVSPropertyOp61
 70
     1
102
RTVSPropertyOp62
 70
     1
  0
XRECORD
  5
8488
102
{ACAD_REACTORS
330
8487
102
}
330
8487
100
AcDbXrecord
280
     1
102
RTVSPost2010Prop28
280
     0
102
RTVSPost2010PropOp28
 70
     1
102
RTVSPost2010Prop29
280
     1
102
RTVSPost2010PropOp29
 70
     1
102
RTVSPost2010Prop30
280
     1
102
RTVSPost2010PropOp30
 70
     1
102
RTVSPost2010Prop31
280
     0
102
RTVSPost2010PropOp31
 70
     1
102
RTVSPost2010Prop32
280
     0
102
RTVSPost2010PropOp32
 70
     1
102
RTVSPost2010Prop33
280
     0
102
RTVSPost2010PropOp33
 70
     1
102
RTVSPost2010Prop34
280
     0
102
RTVSPost2010PropOp34
 70
     1
102
RTVSPost2010Prop35
280
     0
102
RTVSPost2010PropOp35
 70
     1
102
RTVSPost2010Prop36
280
     0
102
RTVSPost2010PropOp36
 70
     1
102
RTVSPost2010Prop37
 90
       50
102
RTVSPost2010PropOp37
 70
     0
102
RTVSPost2010Prop38
140
0.0
102
RTVSPost2010PropOp38
 70
     0
102
RTVSPost2010Prop39
140
1.0
102
RTVSPost2010PropOp39
 70
     0
102
RTVSPost2010Prop40
 90
        0
102
RTVSPost2010PropOp40
 70
     0
102
RTVSPost2010Prop41ColorIndex
 90
       18
102
RTVSPost2010Prop41ColorRGB
 90
        0
102
RTVSPost2010PropOp41
 70
     0
102
RTVSPost2010Prop42
 90
       50
102
RTVSPost2010PropOp42
 70
     0
102
RTVSPost2010Prop43
 90
        3
102
RTVSPost2010PropOp43
 70
     0
102
RTVSPost2010Prop44ColorIndex
 90
        5
102
RTVSPost2010Prop44ColorRGB
 90
      255
102
RTVSPost2010PropOp44
 70
     0
102
RTVSPost2010Prop45
280
     0
102
RTVSPost2010PropOp45
 70
     1
102
RTVSPost2010Prop46
 90
       50
102
RTVSPost2010PropOp46
 70
     0
102
RTVSPost2010Prop47
 90
       50
102
RTVSPost2010PropOp47
 70
     0
102
RTVSPost2010Prop48
 90
       50
102
RTVSPost2010PropOp48
 70
     0
102
RTVSPost2010Prop49
280
     0
102
RTVSPost2010PropOp49
 70
     1
102
RTVSPost2010Prop50
 90
       50
102
RTVSPost2010PropOp50
 70
     0
102
RTVSPost2010Prop51ColorIndex
 90
      256
102
RTVSPost2010Prop51ColorRGB
 90
-16777216
102
RTVSPost2010PropOp51
 70
     0
102
RTVSPost2010Prop52
140
1.0
102
RTVSPost2010PropOp52
 70
     0
102
RTVSPost2010Prop53
 90
        2
102
RTVSPost2010PropOp53
 70
     0
102
RTVSPost2010Prop54
  1
strokes_ogs.tif
102
RTVSPost2010PropOp54
 70
     0
102
RTVSPost2010Prop55
280
     0
102
RTVSPost2010PropOp55
 70
     1
102
RTVSPost2010Prop56
140
1.0
102
RTVSPost2010PropOp56
 70
     0
102
RTVSPost2010Prop57
140
1.0
102
RTVSPost2010PropOp57
 70
     0
102
RTVSPropertyOp0
 70
     0
102
RTVSPropertyOp1
 70
     0
102
RTVSPropertyOp2
 70
     0
102
RTVSPropertyOp3
 70
     0
102
RTVSPropertyOp4
 70
     0
102
RTVSPropertyOp5
 70
     0
102
RTVSPropertyOp6
 70
     0
102
RTVSPropertyOp7
 70
     0
102
RTVSPropertyOp8
 70
     0
102
RTVSPropertyOp9
 70
     0
102
RTVSPropertyOp10
 70
     0
102
RTVSPropertyOp11
 70
     0
102
RTVSPropertyOp12
 70
     0
102
RTVSPropertyOp13
 70
     0
102
RTVSPropertyOp14
 70
     2
102
RTVSPropertyOp15
 70
     0
102
RTVSPropertyOp16
 70
     0
102
RTVSPropertyOp17
 70
     0
102
RTVSPropertyOp18
 70
     0
102
RTVSPropertyOp19
 70
     0
102
RTVSPropertyOp20
 70
     0
102
RTVSPropertyOp21
 70
     0
102
RTVSPropertyOp22
 70
     0
102
RTVSPropertyOp23
 70
     0
102
RTVSPropertyOp24
 70
     0
102
RTVSPropertyOp25
 70
     0
102
RTVSPropertyOp26
 70
     0
102
RTVSPropertyOp27
 70
     0
102
RTVSPropertyOp28
 70
     1
102
RTVSPropertyOp29
 70
     1
102
RTVSPropertyOp30
 70
     1
102
RTVSPropertyOp31
 70
     1
102
RTVSPropertyOp32
 70
     1
102
RTVSPropertyOp33
 70
     1
102
RTVSPropertyOp34
 70
     1
102
RTVSPropertyOp35
 70
     1
102
RTVSPropertyOp36
 70
     1
102
RTVSPropertyOp37
 70
     0
102
RTVSPropertyOp38
 70
     0
102
RTVSPropertyOp39
 70
     0
102
RTVSPropertyOp40
 70
     0
102
RTVSPropertyOp41
 70
     0
102
RTVSPropertyOp42
 70
     0
102
RTVSPropertyOp43
 70
     0
102
RTVSPropertyOp44
 70
     0
102
RTVSPropertyOp45
 70
     1
102
RTVSPropertyOp46
 70
     0
102
RTVSPropertyOp47
 70
     0
102
RTVSPropertyOp48
 70
     0
102
RTVSPropertyOp49
 70
     1
102
RTVSPropertyOp50
 70
     0
102
RTVSPropertyOp51
 70
     0
102
RTVSPropertyOp52
 70
     0
102
RTVSPropertyOp53
 70
     0
102
RTVSPropertyOp54
 70
     0
102
RTVSPropertyOp55
 70
     1
102
RTVSPropertyOp56
 70
     0
102
RTVSPropertyOp57
 70
     0
102
RTVSPropertyOp58
 70
     0
102
RTVSPropertyOp59
 70
     0
102
RTVSPropertyOp60
 70
     0
102
RTVSPropertyOp61
 70
     0
102
RTVSPropertyOp62
 70
     0
  0
XRECORD
  5
846E
102
{ACAD_REACTORS
330
846D
102
}
330
846D
100
AcDbXrecord
280
     1
102
RTVSPost2010Prop28
280
     0
102
RTVSPost2010PropOp28
 70
     1
102
RTVSPost2010Prop29
280
     1
102
RTVSPost2010PropOp29
 70
     1
102
RTVSPost2010Prop30
280
     1
102
RTVSPost2010PropOp30
 70
     1
102
RTVSPost2010Prop31
280
     0
102
RTVSPost2010PropOp31
 70
     1
102
RTVSPost2010Prop32
280
     0
102
RTVSPost2010PropOp32
 70
     1
102
RTVSPost2010Prop33
280
     0
102
RTVSPost2010PropOp33
 70
     1
102
RTVSPost2010Prop34
280
     0
102
RTVSPost2010PropOp34
 70
     1
102
RTVSPost2010Prop35
280
     0
102
RTVSPost2010PropOp35
 70
     1
102
RTVSPost2010Prop36
280
     0
102
RTVSPost2010PropOp36
 70
     1
102
RTVSPost2010Prop37
 90
       50
102
RTVSPost2010PropOp37
 70
     1
102
RTVSPost2010Prop38
140
0.0
102
RTVSPost2010PropOp38
 70
     1
102
RTVSPost2010Prop39
140
1.0
102
RTVSPost2010PropOp39
 70
     1
102
RTVSPost2010Prop40
 90
        0
102
RTVSPost2010PropOp40
 70
     1
102
RTVSPost2010Prop41ColorIndex
 90
       18
102
RTVSPost2010Prop41ColorRGB
 90
        0
102
RTVSPost2010PropOp41
 70
     1
102
RTVSPost2010Prop42
 90
       50
102
RTVSPost2010PropOp42
 70
     1
102
RTVSPost2010Prop43
 90
        3
102
RTVSPost2010PropOp43
 70
     1
102
RTVSPost2010Prop44ColorIndex
 90
        5
102
RTVSPost2010Prop44ColorRGB
 90
      255
102
RTVSPost2010PropOp44
 70
     1
102
RTVSPost2010Prop45
280
     0
102
RTVSPost2010PropOp45
 70
     1
102
RTVSPost2010Prop46
 90
       50
102
RTVSPost2010PropOp46
 70
     1
102
RTVSPost2010Prop47
 90
       50
102
RTVSPost2010PropOp47
 70
     1
102
RTVSPost2010Prop48
 90
       50
102
RTVSPost2010PropOp48
 70
     1
102
RTVSPost2010Prop49
280
     0
102
RTVSPost2010PropOp49
 70
     1
102
RTVSPost2010Prop50
 90
       50
102
RTVSPost2010PropOp50
 70
     1
102
RTVSPost2010Prop51ColorIndex
 90
      256
102
RTVSPost2010Prop51ColorRGB
 90
-16777216
102
RTVSPost2010PropOp51
 70
     0
102
RTVSPost2010Prop52
140
1.0
102
RTVSPost2010PropOp52
 70
     0
102
RTVSPost2010Prop53
 90
        2
102
RTVSPost2010PropOp53
 70
     1
102
RTVSPost2010Prop54
  1
strokes_ogs.tif
102
RTVSPost2010PropOp54
 70
     1
102
RTVSPost2010Prop55
280
     0
102
RTVSPost2010PropOp55
 70
     1
102
RTVSPost2010Prop56
140
1.0
102
RTVSPost2010PropOp56
 70
     1
102
RTVSPost2010Prop57
140
1.0
102
RTVSPost2010PropOp57
 70
     1
102
RTVSPropertyOp0
 70
     1
102
RTVSPropertyOp1
 70
     1
102
RTVSPropertyOp2
 70
     1
102
RTVSPropertyOp3
 70
     1
102
RTVSPropertyOp4
 70
     1
102
RTVSPropertyOp5
 70
     1
102
RTVSPropertyOp6
 70
     1
102
RTVSPropertyOp7
 70
     1
102
RTVSPropertyOp8
 70
     1
102
RTVSPropertyOp9
 70
     1
102
RTVSPropertyOp10
 70
     1
102
RTVSPropertyOp11
 70
     1
102
RTVSPropertyOp12
 70
     1
102
RTVSPropertyOp13
 70
     1
102
RTVSPropertyOp14
 70
     1
102
RTVSPropertyOp15
 70
     1
102
RTVSPropertyOp16
 70
     1
102
RTVSPropertyOp17
 70
     1
102
RTVSPropertyOp18
 70
     1
102
RTVSPropertyOp19
 70
     1
102
RTVSPropertyOp20
 70
     1
102
RTVSPropertyOp21
 70
     1
102
RTVSPropertyOp22
 70
     1
102
RTVSPropertyOp23
 70
     1
102
RTVSPropertyOp24
 70
     1
102
RTVSPropertyOp25
 70
     1
102
RTVSPropertyOp26
 70
     1
102
RTVSPropertyOp27
 70
     1
102
RTVSPropertyOp28
 70
     1
102
RTVSPropertyOp29
 70
     1
102
RTVSPropertyOp30
 70
     1
102
RTVSPropertyOp31
 70
     1
102
RTVSPropertyOp32
 70
     1
102
RTVSPropertyOp33
 70
     1
102
RTVSPropertyOp34
 70
     1
102
RTVSPropertyOp35
 70
     1
102
RTVSPropertyOp36
 70
     1
102
RTVSPropertyOp37
 70
     1
102
RTVSPropertyOp38
 70
     1
102
RTVSPropertyOp39
 70
     1
102
RTVSPropertyOp40
 70
     1
102
RTVSPropertyOp41
 70
     1
102
RTVSPropertyOp42
 70
     1
102
RTVSPropertyOp43
 70
     1
102
RTVSPropertyOp44
 70
     1
102
RTVSPropertyOp45
 70
     1
102
RTVSPropertyOp46
 70
     1
102
RTVSPropertyOp47
 70
     1
102
RTVSPropertyOp48
 70
     1
102
RTVSPropertyOp49
 70
     1
102
RTVSPropertyOp50
 70
     1
102
RTVSPropertyOp51
 70
     0
102
RTVSPropertyOp52
 70
     0
102
RTVSPropertyOp53
 70
     1
102
RTVSPropertyOp54
 70
     1
102
RTVSPropertyOp55
 70
     1
102
RTVSPropertyOp56
 70
     1
102
RTVSPropertyOp57
 70
     1
102
RTVSPropertyOp58
 70
     1
102
RTVSPropertyOp59
 70
     1
102
RTVSPropertyOp60
 70
     1
102
RTVSPropertyOp61
 70
     1
102
RTVSPropertyOp62
 70
     1
  0
XRECORD
  5
8484
102
{ACAD_REACTORS
330
8483
102
}
330
8483
100
AcDbXrecord
280
     1
102
RTVSPost2010Prop28
280
     0
102
RTVSPost2010PropOp28
 70
     1
102
RTVSPost2010Prop29
280
     1
102
RTVSPost2010PropOp29
 70
     1
102
RTVSPost2010Prop30
280
     1
102
RTVSPost2010PropOp30
 70
     1
102
RTVSPost2010Prop31
280
     0
102
RTVSPost2010PropOp31
 70
     1
102
RTVSPost2010Prop32
280
     0
102
RTVSPost2010PropOp32
 70
     1
102
RTVSPost2010Prop33
280
     0
102
RTVSPost2010PropOp33
 70
     1
102
RTVSPost2010Prop34
280
     0
102
RTVSPost2010PropOp34
 70
     1
102
RTVSPost2010Prop35
280
     0
102
RTVSPost2010PropOp35
 70
     1
102
RTVSPost2010Prop36
280
     0
102
RTVSPost2010PropOp36
 70
     1
102
RTVSPost2010Prop37
 90
       50
102
RTVSPost2010PropOp37
 70
     1
102
RTVSPost2010Prop38
140
0.0
102
RTVSPost2010PropOp38
 70
     1
102
RTVSPost2010Prop39
140
1.0
102
RTVSPost2010PropOp39
 70
     1
102
RTVSPost2010Prop40
 90
        0
102
RTVSPost2010PropOp40
 70
     1
102
RTVSPost2010Prop41ColorIndex
 90
       18
102
RTVSPost2010Prop41ColorRGB
 90
        0
102
RTVSPost2010PropOp41
 70
     1
102
RTVSPost2010Prop42
 90
       50
102
RTVSPost2010PropOp42
 70
     1
102
RTVSPost2010Prop43
 90
        3
102
RTVSPost2010PropOp43
 70
     1
102
RTVSPost2010Prop44ColorIndex
 90
        5
102
RTVSPost2010Prop44ColorRGB
 90
      255
102
RTVSPost2010PropOp44
 70
     1
102
RTVSPost2010Prop45
280
     0
102
RTVSPost2010PropOp45
 70
     1
102
RTVSPost2010Prop46
 90
       50
102
RTVSPost2010PropOp46
 70
     1
102
RTVSPost2010Prop47
 90
       50
102
RTVSPost2010PropOp47
 70
     1
102
RTVSPost2010Prop48
 90
       50
102
RTVSPost2010PropOp48
 70
     1
102
RTVSPost2010Prop49
280
     0
102
RTVSPost2010PropOp49
 70
     1
102
RTVSPost2010Prop50
 90
       50
102
RTVSPost2010PropOp50
 70
     1
102
RTVSPost2010Prop51ColorIndex
 90
      256
102
RTVSPost2010Prop51ColorRGB
 90
-16777216
102
RTVSPost2010PropOp51
 70
     0
102
RTVSPost2010Prop52
140
1.0
102
RTVSPost2010PropOp52
 70
     0
102
RTVSPost2010Prop53
 90
        2
102
RTVSPost2010PropOp53
 70
     1
102
RTVSPost2010Prop54
  1
strokes_ogs.tif
102
RTVSPost2010PropOp54
 70
     1
102
RTVSPost2010Prop55
280
     0
102
RTVSPost2010PropOp55
 70
     1
102
RTVSPost2010Prop56
140
1.0
102
RTVSPost2010PropOp56
 70
     1
102
RTVSPost2010Prop57
140
1.0
102
RTVSPost2010PropOp57
 70
     1
102
RTVSPropertyOp0
 70
     1
102
RTVSPropertyOp1
 70
     1
102
RTVSPropertyOp2
 70
     1
102
RTVSPropertyOp3
 70
     1
102
RTVSPropertyOp4
 70
     1
102
RTVSPropertyOp5
 70
     1
102
RTVSPropertyOp6
 70
     1
102
RTVSPropertyOp7
 70
     1
102
RTVSPropertyOp8
 70
     1
102
RTVSPropertyOp9
 70
     1
102
RTVSPropertyOp10
 70
     1
102
RTVSPropertyOp11
 70
     1
102
RTVSPropertyOp12
 70
     1
102
RTVSPropertyOp13
 70
     1
102
RTVSPropertyOp14
 70
     1
102
RTVSPropertyOp15
 70
     1
102
RTVSPropertyOp16
 70
     1
102
RTVSPropertyOp17
 70
     1
102
RTVSPropertyOp18
 70
     1
102
RTVSPropertyOp19
 70
     1
102
RTVSPropertyOp20
 70
     1
102
RTVSPropertyOp21
 70
     1
102
RTVSPropertyOp22
 70
     1
102
RTVSPropertyOp23
 70
     1
102
RTVSPropertyOp24
 70
     1
102
RTVSPropertyOp25
 70
     1
102
RTVSPropertyOp26
 70
     1
102
RTVSPropertyOp27
 70
     1
102
RTVSPropertyOp28
 70
     1
102
RTVSPropertyOp29
 70
     1
102
RTVSPropertyOp30
 70
     1
102
RTVSPropertyOp31
 70
     1
102
RTVSPropertyOp32
 70
     1
102
RTVSPropertyOp33
 70
     1
102
RTVSPropertyOp34
 70
     1
102
RTVSPropertyOp35
 70
     1
102
RTVSPropertyOp36
 70
     1
102
RTVSPropertyOp37
 70
     1
102
RTVSPropertyOp38
 70
     1
102
RTVSPropertyOp39
 70
     1
102
RTVSPropertyOp40
 70
     1
102
RTVSPropertyOp41
 70
     1
102
RTVSPropertyOp42
 70
     1
102
RTVSPropertyOp43
 70
     1
102
RTVSPropertyOp44
 70
     1
102
RTVSPropertyOp45
 70
     1
102
RTVSPropertyOp46
 70
     1
102
RTVSPropertyOp47
 70
     1
102
RTVSPropertyOp48
 70
     1
102
RTVSPropertyOp49
 70
     1
102
RTVSPropertyOp50
 70
     1
102
RTVSPropertyOp51
 70
     0
102
RTVSPropertyOp52
 70
     0
102
RTVSPropertyOp53
 70
     1
102
RTVSPropertyOp54
 70
     1
102
RTVSPropertyOp55
 70
     1
102
RTVSPropertyOp56
 70
     1
102
RTVSPropertyOp57
 70
     1
102
RTVSPropertyOp58
 70
     1
102
RTVSPropertyOp59
 70
     1
102
RTVSPropertyOp60
 70
     1
102
RTVSPropertyOp61
 70
     1
102
RTVSPropertyOp62
 70
     1
  0
XRECORD
  5
8482
102
{ACAD_REACTORS
330
8481
102
}
330
8481
100
AcDbXrecord
280
     1
102
RTVSPost2010Prop28
280
     0
102
RTVSPost2010PropOp28
 70
     1
102
RTVSPost2010Prop29
280
     1
102
RTVSPost2010PropOp29
 70
     1
102
RTVSPost2010Prop30
280
     1
102
RTVSPost2010PropOp30
 70
     1
102
RTVSPost2010Prop31
280
     0
102
RTVSPost2010PropOp31
 70
     1
102
RTVSPost2010Prop32
280
     0
102
RTVSPost2010PropOp32
 70
     1
102
RTVSPost2010Prop33
280
     0
102
RTVSPost2010PropOp33
 70
     1
102
RTVSPost2010Prop34
280
     0
102
RTVSPost2010PropOp34
 70
     1
102
RTVSPost2010Prop35
280
     0
102
RTVSPost2010PropOp35
 70
     1
102
RTVSPost2010Prop36
280
     0
102
RTVSPost2010PropOp36
 70
     1
102
RTVSPost2010Prop37
 90
       50
102
RTVSPost2010PropOp37
 70
     1
102
RTVSPost2010Prop38
140
0.0
102
RTVSPost2010PropOp38
 70
     1
102
RTVSPost2010Prop39
140
1.0
102
RTVSPost2010PropOp39
 70
     1
102
RTVSPost2010Prop40
 90
        0
102
RTVSPost2010PropOp40
 70
     1
102
RTVSPost2010Prop41ColorIndex
 90
       18
102
RTVSPost2010Prop41ColorRGB
 90
        0
102
RTVSPost2010PropOp41
 70
     1
102
RTVSPost2010Prop42
 90
       50
102
RTVSPost2010PropOp42
 70
     1
102
RTVSPost2010Prop43
 90
        3
102
RTVSPost2010PropOp43
 70
     1
102
RTVSPost2010Prop44ColorIndex
 90
        5
102
RTVSPost2010Prop44ColorRGB
 90
      255
102
RTVSPost2010PropOp44
 70
     1
102
RTVSPost2010Prop45
280
     0
102
RTVSPost2010PropOp45
 70
     1
102
RTVSPost2010Prop46
 90
       50
102
RTVSPost2010PropOp46
 70
     1
102
RTVSPost2010Prop47
 90
       50
102
RTVSPost2010PropOp47
 70
     1
102
RTVSPost2010Prop48
 90
       50
102
RTVSPost2010PropOp48
 70
     1
102
RTVSPost2010Prop49
280
     0
102
RTVSPost2010PropOp49
 70
     1
102
RTVSPost2010Prop50
 90
       50
102
RTVSPost2010PropOp50
 70
     1
102
RTVSPost2010Prop51ColorIndex
 90
      256
102
RTVSPost2010Prop51ColorRGB
 90
-16777216
102
RTVSPost2010PropOp51
 70
     0
102
RTVSPost2010Prop52
140
1.0
102
RTVSPost2010PropOp52
 70
     0
102
RTVSPost2010Prop53
 90
        2
102
RTVSPost2010PropOp53
 70
     1
102
RTVSPost2010Prop54
  1
strokes_ogs.tif
102
RTVSPost2010PropOp54
 70
     1
102
RTVSPost2010Prop55
280
     0
102
RTVSPost2010PropOp55
 70
     1
102
RTVSPost2010Prop56
140
1.0
102
RTVSPost2010PropOp56
 70
     1
102
RTVSPost2010Prop57
140
1.0
102
RTVSPost2010PropOp57
 70
     1
102
RTVSPropertyOp0
 70
     1
102
RTVSPropertyOp1
 70
     1
102
RTVSPropertyOp2
 70
     1
102
RTVSPropertyOp3
 70
     1
102
RTVSPropertyOp4
 70
     1
102
RTVSPropertyOp5
 70
     1
102
RTVSPropertyOp6
 70
     1
102
RTVSPropertyOp7
 70
     1
102
RTVSPropertyOp8
 70
     1
102
RTVSPropertyOp9
 70
     1
102
RTVSPropertyOp10
 70
     1
102
RTVSPropertyOp11
 70
     1
102
RTVSPropertyOp12
 70
     1
102
RTVSPropertyOp13
 70
     1
102
RTVSPropertyOp14
 70
     1
102
RTVSPropertyOp15
 70
     1
102
RTVSPropertyOp16
 70
     1
102
RTVSPropertyOp17
 70
     1
102
RTVSPropertyOp18
 70
     1
102
RTVSPropertyOp19
 70
     1
102
RTVSPropertyOp20
 70
     1
102
RTVSPropertyOp21
 70
     1
102
RTVSPropertyOp22
 70
     1
102
RTVSPropertyOp23
 70
     1
102
RTVSPropertyOp24
 70
     1
102
RTVSPropertyOp25
 70
     1
102
RTVSPropertyOp26
 70
     1
102
RTVSPropertyOp27
 70
     1
102
RTVSPropertyOp28
 70
     1
102
RTVSPropertyOp29
 70
     1
102
RTVSPropertyOp30
 70
     1
102
RTVSPropertyOp31
 70
     1
102
RTVSPropertyOp32
 70
     1
102
RTVSPropertyOp33
 70
     1
102
RTVSPropertyOp34
 70
     1
102
RTVSPropertyOp35
 70
     1
102
RTVSPropertyOp36
 70
     1
102
RTVSPropertyOp37
 70
     1
102
RTVSPropertyOp38
 70
     1
102
RTVSPropertyOp39
 70
     1
102
RTVSPropertyOp40
 70
     1
102
RTVSPropertyOp41
 70
     1
102
RTVSPropertyOp42
 70
     1
102
RTVSPropertyOp43
 70
     1
102
RTVSPropertyOp44
 70
     1
102
RTVSPropertyOp45
 70
     1
102
RTVSPropertyOp46
 70
     1
102
RTVSPropertyOp47
 70
     1
102
RTVSPropertyOp48
 70
     1
102
RTVSPropertyOp49
 70
     1
102
RTVSPropertyOp50
 70
     1
102
RTVSPropertyOp51
 70
     0
102
RTVSPropertyOp52
 70
     0
102
RTVSPropertyOp53
 70
     1
102
RTVSPropertyOp54
 70
     1
102
RTVSPropertyOp55
 70
     1
102
RTVSPropertyOp56
 70
     1
102
RTVSPropertyOp57
 70
     1
102
RTVSPropertyOp58
 70
     1
102
RTVSPropertyOp59
 70
     1
102
RTVSPropertyOp60
 70
     1
102
RTVSPropertyOp61
 70
     1
102
RTVSPropertyOp62
 70
     1
  0
XRECORD
  5
847C
102
{ACAD_REACTORS
330
847B
102
}
330
847B
100
AcDbXrecord
280
     1
102
RTVSPost2010Prop28
280
     0
102
RTVSPost2010PropOp28
 70
     1
102
RTVSPost2010Prop29
280
     1
102
RTVSPost2010PropOp29
 70
     1
102
RTVSPost2010Prop30
280
     1
102
RTVSPost2010PropOp30
 70
     1
102
RTVSPost2010Prop31
280
     0
102
RTVSPost2010PropOp31
 70
     1
102
RTVSPost2010Prop32
280
     0
102
RTVSPost2010PropOp32
 70
     1
102
RTVSPost2010Prop33
280
     0
102
RTVSPost2010PropOp33
 70
     1
102
RTVSPost2010Prop34
280
     0
102
RTVSPost2010PropOp34
 70
     1
102
RTVSPost2010Prop35
280
     0
102
RTVSPost2010PropOp35
 70
     1
102
RTVSPost2010Prop36
280
     0
102
RTVSPost2010PropOp36
 70
     1
102
RTVSPost2010Prop37
 90
       50
102
RTVSPost2010PropOp37
 70
     1
102
RTVSPost2010Prop38
140
0.0
102
RTVSPost2010PropOp38
 70
     1
102
RTVSPost2010Prop39
140
1.0
102
RTVSPost2010PropOp39
 70
     1
102
RTVSPost2010Prop40
 90
        0
102
RTVSPost2010PropOp40
 70
     1
102
RTVSPost2010Prop41ColorIndex
 90
       18
102
RTVSPost2010Prop41ColorRGB
 90
        0
102
RTVSPost2010PropOp41
 70
     1
102
RTVSPost2010Prop42
 90
       50
102
RTVSPost2010PropOp42
 70
     1
102
RTVSPost2010Prop43
 90
        3
102
RTVSPost2010PropOp43
 70
     1
102
RTVSPost2010Prop44ColorIndex
 90
        5
102
RTVSPost2010Prop44ColorRGB
 90
      255
102
RTVSPost2010PropOp44
 70
     1
102
RTVSPost2010Prop45
280
     0
102
RTVSPost2010PropOp45
 70
     1
102
RTVSPost2010Prop46
 90
       50
102
RTVSPost2010PropOp46
 70
     1
102
RTVSPost2010Prop47
 90
       50
102
RTVSPost2010PropOp47
 70
     1
102
RTVSPost2010Prop48
 90
       50
102
RTVSPost2010PropOp48
 70
     1
102
RTVSPost2010Prop49
280
     0
102
RTVSPost2010PropOp49
 70
     1
102
RTVSPost2010Prop50
 90
       50
102
RTVSPost2010PropOp50
 70
     1
102
RTVSPost2010Prop51ColorIndex
 90
      256
102
RTVSPost2010Prop51ColorRGB
 90
-16777216
102
RTVSPost2010PropOp51
 70
     0
102
RTVSPost2010Prop52
140
1.0
102
RTVSPost2010PropOp52
 70
     0
102
RTVSPost2010Prop53
 90
        2
102
RTVSPost2010PropOp53
 70
     1
102
RTVSPost2010Prop54
  1
strokes_ogs.tif
102
RTVSPost2010PropOp54
 70
     1
102
RTVSPost2010Prop55
280
     0
102
RTVSPost2010PropOp55
 70
     1
102
RTVSPost2010Prop56
140
1.0
102
RTVSPost2010PropOp56
 70
     1
102
RTVSPost2010Prop57
140
1.0
102
RTVSPost2010PropOp57
 70
     1
102
RTVSPropertyOp0
 70
     1
102
RTVSPropertyOp1
 70
     1
102
RTVSPropertyOp2
 70
     1
102
RTVSPropertyOp3
 70
     1
102
RTVSPropertyOp4
 70
     1
102
RTVSPropertyOp5
 70
     1
102
RTVSPropertyOp6
 70
     1
102
RTVSPropertyOp7
 70
     1
102
RTVSPropertyOp8
 70
     1
102
RTVSPropertyOp9
 70
     1
102
RTVSPropertyOp10
 70
     1
102
RTVSPropertyOp11
 70
     1
102
RTVSPropertyOp12
 70
     1
102
RTVSPropertyOp13
 70
     1
102
RTVSPropertyOp14
 70
     1
102
RTVSPropertyOp15
 70
     1
102
RTVSPropertyOp16
 70
     1
102
RTVSPropertyOp17
 70
     1
102
RTVSPropertyOp18
 70
     1
102
RTVSPropertyOp19
 70
     1
102
RTVSPropertyOp20
 70
     1
102
RTVSPropertyOp21
 70
     1
102
RTVSPropertyOp22
 70
     1
102
RTVSPropertyOp23
 70
     1
102
RTVSPropertyOp24
 70
     1
102
RTVSPropertyOp25
 70
     1
102
RTVSPropertyOp26
 70
     1
102
RTVSPropertyOp27
 70
     1
102
RTVSPropertyOp28
 70
     1
102
RTVSPropertyOp29
 70
     1
102
RTVSPropertyOp30
 70
     1
102
RTVSPropertyOp31
 70
     1
102
RTVSPropertyOp32
 70
     1
102
RTVSPropertyOp33
 70
     1
102
RTVSPropertyOp34
 70
     1
102
RTVSPropertyOp35
 70
     1
102
RTVSPropertyOp36
 70
     1
102
RTVSPropertyOp37
 70
     1
102
RTVSPropertyOp38
 70
     1
102
RTVSPropertyOp39
 70
     1
102
RTVSPropertyOp40
 70
     1
102
RTVSPropertyOp41
 70
     1
102
RTVSPropertyOp42
 70
     1
102
RTVSPropertyOp43
 70
     1
102
RTVSPropertyOp44
 70
     1
102
RTVSPropertyOp45
 70
     1
102
RTVSPropertyOp46
 70
     1
102
RTVSPropertyOp47
 70
     1
102
RTVSPropertyOp48
 70
     1
102
RTVSPropertyOp49
 70
     1
102
RTVSPropertyOp50
 70
     1
102
RTVSPropertyOp51
 70
     0
102
RTVSPropertyOp52
 70
     0
102
RTVSPropertyOp53
 70
     1
102
RTVSPropertyOp54
 70
     1
102
RTVSPropertyOp55
 70
     1
102
RTVSPropertyOp56
 70
     1
102
RTVSPropertyOp57
 70
     1
102
RTVSPropertyOp58
 70
     1
102
RTVSPropertyOp59
 70
     1
102
RTVSPropertyOp60
 70
     1
102
RTVSPropertyOp61
 70
     1
102
RTVSPropertyOp62
 70
     1
  0
XRECORD
  5
847E
102
{ACAD_REACTORS
330
847D
102
}
330
847D
100
AcDbXrecord
280
     1
102
RTVSPost2010Prop28
280
     0
102
RTVSPost2010PropOp28
 70
     1
102
RTVSPost2010Prop29
280
     1
102
RTVSPost2010PropOp29
 70
     1
102
RTVSPost2010Prop30
280
     1
102
RTVSPost2010PropOp30
 70
     1
102
RTVSPost2010Prop31
280
     0
102
RTVSPost2010PropOp31
 70
     1
102
RTVSPost2010Prop32
280
     0
102
RTVSPost2010PropOp32
 70
     1
102
RTVSPost2010Prop33
280
     0
102
RTVSPost2010PropOp33
 70
     1
102
RTVSPost2010Prop34
280
     0
102
RTVSPost2010PropOp34
 70
     1
102
RTVSPost2010Prop35
280
     0
102
RTVSPost2010PropOp35
 70
     1
102
RTVSPost2010Prop36
280
     0
102
RTVSPost2010PropOp36
 70
     1
102
RTVSPost2010Prop37
 90
       50
102
RTVSPost2010PropOp37
 70
     1
102
RTVSPost2010Prop38
140
0.0
102
RTVSPost2010PropOp38
 70
     1
102
RTVSPost2010Prop39
140
1.0
102
RTVSPost2010PropOp39
 70
     1
102
RTVSPost2010Prop40
 90
        0
102
RTVSPost2010PropOp40
 70
     1
102
RTVSPost2010Prop41ColorIndex
 90
       18
102
RTVSPost2010Prop41ColorRGB
 90
        0
102
RTVSPost2010PropOp41
 70
     1
102
RTVSPost2010Prop42
 90
       50
102
RTVSPost2010PropOp42
 70
     1
102
RTVSPost2010Prop43
 90
        3
102
RTVSPost2010PropOp43
 70
     1
102
RTVSPost2010Prop44ColorIndex
 90
        5
102
RTVSPost2010Prop44ColorRGB
 90
      255
102
RTVSPost2010PropOp44
 70
     1
102
RTVSPost2010Prop45
280
     0
102
RTVSPost2010PropOp45
 70
     1
102
RTVSPost2010Prop46
 90
       50
102
RTVSPost2010PropOp46
 70
     1
102
RTVSPost2010Prop47
 90
       50
102
RTVSPost2010PropOp47
 70
     1
102
RTVSPost2010Prop48
 90
       50
102
RTVSPost2010PropOp48
 70
     1
102
RTVSPost2010Prop49
280
     0
102
RTVSPost2010PropOp49
 70
     1
102
RTVSPost2010Prop50
 90
       50
102
RTVSPost2010PropOp50
 70
     1
102
RTVSPost2010Prop51ColorIndex
 90
      256
102
RTVSPost2010Prop51ColorRGB
 90
-16777216
102
RTVSPost2010PropOp51
 70
     0
102
RTVSPost2010Prop52
140
1.0
102
RTVSPost2010PropOp52
 70
     0
102
RTVSPost2010Prop53
 90
        2
102
RTVSPost2010PropOp53
 70
     1
102
RTVSPost2010Prop54
  1
strokes_ogs.tif
102
RTVSPost2010PropOp54
 70
     1
102
RTVSPost2010Prop55
280
     0
102
RTVSPost2010PropOp55
 70
     1
102
RTVSPost2010Prop56
140
1.0
102
RTVSPost2010PropOp56
 70
     1
102
RTVSPost2010Prop57
140
1.0
102
RTVSPost2010PropOp57
 70
     1
102
RTVSPropertyOp0
 70
     1
102
RTVSPropertyOp1
 70
     1
102
RTVSPropertyOp2
 70
     1
102
RTVSPropertyOp3
 70
     1
102
RTVSPropertyOp4
 70
     1
102
RTVSPropertyOp5
 70
     1
102
RTVSPropertyOp6
 70
     1
102
RTVSPropertyOp7
 70
     1
102
RTVSPropertyOp8
 70
     1
102
RTVSPropertyOp9
 70
     1
102
RTVSPropertyOp10
 70
     1
102
RTVSPropertyOp11
 70
     1
102
RTVSPropertyOp12
 70
     1
102
RTVSPropertyOp13
 70
     1
102
RTVSPropertyOp14
 70
     1
102
RTVSPropertyOp15
 70
     1
102
RTVSPropertyOp16
 70
     1
102
RTVSPropertyOp17
 70
     1
102
RTVSPropertyOp18
 70
     1
102
RTVSPropertyOp19
 70
     1
102
RTVSPropertyOp20
 70
     1
102
RTVSPropertyOp21
 70
     1
102
RTVSPropertyOp22
 70
     1
102
RTVSPropertyOp23
 70
     1
102
RTVSPropertyOp24
 70
     1
102
RTVSPropertyOp25
 70
     1
102
RTVSPropertyOp26
 70
     1
102
RTVSPropertyOp27
 70
     1
102
RTVSPropertyOp28
 70
     1
102
RTVSPropertyOp29
 70
     1
102
RTVSPropertyOp30
 70
     1
102
RTVSPropertyOp31
 70
     1
102
RTVSPropertyOp32
 70
     1
102
RTVSPropertyOp33
 70
     1
102
RTVSPropertyOp34
 70
     1
102
RTVSPropertyOp35
 70
     1
102
RTVSPropertyOp36
 70
     1
102
RTVSPropertyOp37
 70
     1
102
RTVSPropertyOp38
 70
     1
102
RTVSPropertyOp39
 70
     1
102
RTVSPropertyOp40
 70
     1
102
RTVSPropertyOp41
 70
     1
102
RTVSPropertyOp42
 70
     1
102
RTVSPropertyOp43
 70
     1
102
RTVSPropertyOp44
 70
     1
102
RTVSPropertyOp45
 70
     1
102
RTVSPropertyOp46
 70
     1
102
RTVSPropertyOp47
 70
     1
102
RTVSPropertyOp48
 70
     1
102
RTVSPropertyOp49
 70
     1
102
RTVSPropertyOp50
 70
     1
102
RTVSPropertyOp51
 70
     0
102
RTVSPropertyOp52
 70
     0
102
RTVSPropertyOp53
 70
     1
102
RTVSPropertyOp54
 70
     1
102
RTVSPropertyOp55
 70
     1
102
RTVSPropertyOp56
 70
     1
102
RTVSPropertyOp57
 70
     1
102
RTVSPropertyOp58
 70
     1
102
RTVSPropertyOp59
 70
     1
102
RTVSPropertyOp60
 70
     1
102
RTVSPropertyOp61
 70
     1
102
RTVSPropertyOp62
 70
     1
  0
XRECORD
  5
8474
102
{ACAD_REACTORS
330
8473
102
}
330
8473
100
AcDbXrecord
280
     1
102
RTVSPost2010Prop28
280
     0
102
RTVSPost2010PropOp28
 70
     1
102
RTVSPost2010Prop29
280
     1
102
RTVSPost2010PropOp29
 70
     1
102
RTVSPost2010Prop30
280
     1
102
RTVSPost2010PropOp30
 70
     1
102
RTVSPost2010Prop31
280
     0
102
RTVSPost2010PropOp31
 70
     1
102
RTVSPost2010Prop32
280
     0
102
RTVSPost2010PropOp32
 70
     1
102
RTVSPost2010Prop33
280
     0
102
RTVSPost2010PropOp33
 70
     1
102
RTVSPost2010Prop34
280
     0
102
RTVSPost2010PropOp34
 70
     1
102
RTVSPost2010Prop35
280
     0
102
RTVSPost2010PropOp35
 70
     1
102
RTVSPost2010Prop36
280
     0
102
RTVSPost2010PropOp36
 70
     1
102
RTVSPost2010Prop37
 90
       50
102
RTVSPost2010PropOp37
 70
     1
102
RTVSPost2010Prop38
140
0.0
102
RTVSPost2010PropOp38
 70
     1
102
RTVSPost2010Prop39
140
1.0
102
RTVSPost2010PropOp39
 70
     1
102
RTVSPost2010Prop40
 90
        0
102
RTVSPost2010PropOp40
 70
     1
102
RTVSPost2010Prop41ColorIndex
 90
       18
102
RTVSPost2010Prop41ColorRGB
 90
        0
102
RTVSPost2010PropOp41
 70
     1
102
RTVSPost2010Prop42
 90
       50
102
RTVSPost2010PropOp42
 70
     1
102
RTVSPost2010Prop43
 90
        3
102
RTVSPost2010PropOp43
 70
     1
102
RTVSPost2010Prop44ColorIndex
 90
        5
102
RTVSPost2010Prop44ColorRGB
 90
      255
102
RTVSPost2010PropOp44
 70
     1
102
RTVSPost2010Prop45
280
     0
102
RTVSPost2010PropOp45
 70
     1
102
RTVSPost2010Prop46
 90
       50
102
RTVSPost2010PropOp46
 70
     1
102
RTVSPost2010Prop47
 90
       50
102
RTVSPost2010PropOp47
 70
     1
102
RTVSPost2010Prop48
 90
       50
102
RTVSPost2010PropOp48
 70
     1
102
RTVSPost2010Prop49
280
     0
102
RTVSPost2010PropOp49
 70
     1
102
RTVSPost2010Prop50
 90
       50
102
RTVSPost2010PropOp50
 70
     1
102
RTVSPost2010Prop51ColorIndex
 90
      256
102
RTVSPost2010Prop51ColorRGB
 90
-16777216
102
RTVSPost2010PropOp51
 70
     0
102
RTVSPost2010Prop52
140
1.0
102
RTVSPost2010PropOp52
 70
     0
102
RTVSPost2010Prop53
 90
        2
102
RTVSPost2010PropOp53
 70
     1
102
RTVSPost2010Prop54
  1
strokes_ogs.tif
102
RTVSPost2010PropOp54
 70
     1
102
RTVSPost2010Prop55
280
     0
102
RTVSPost2010PropOp55
 70
     1
102
RTVSPost2010Prop56
140
1.0
102
RTVSPost2010PropOp56
 70
     1
102
RTVSPost2010Prop57
140
1.0
102
RTVSPost2010PropOp57
 70
     1
102
RTVSPropertyOp0
 70
     1
102
RTVSPropertyOp1
 70
     1
102
RTVSPropertyOp2
 70
     1
102
RTVSPropertyOp3
 70
     1
102
RTVSPropertyOp4
 70
     1
102
RTVSPropertyOp5
 70
     1
102
RTVSPropertyOp6
 70
     1
102
RTVSPropertyOp7
 70
     1
102
RTVSPropertyOp8
 70
     1
102
RTVSPropertyOp9
 70
     1
102
RTVSPropertyOp10
 70
     1
102
RTVSPropertyOp11
 70
     1
102
RTVSPropertyOp12
 70
     1
102
RTVSPropertyOp13
 70
     1
102
RTVSPropertyOp14
 70
     1
102
RTVSPropertyOp15
 70
     1
102
RTVSPropertyOp16
 70
     1
102
RTVSPropertyOp17
 70
     1
102
RTVSPropertyOp18
 70
     1
102
RTVSPropertyOp19
 70
     1
102
RTVSPropertyOp20
 70
     1
102
RTVSPropertyOp21
 70
     1
102
RTVSPropertyOp22
 70
     1
102
RTVSPropertyOp23
 70
     1
102
RTVSPropertyOp24
 70
     1
102
RTVSPropertyOp25
 70
     1
102
RTVSPropertyOp26
 70
     1
102
RTVSPropertyOp27
 70
     1
102
RTVSPropertyOp28
 70
     1
102
RTVSPropertyOp29
 70
     1
102
RTVSPropertyOp30
 70
     1
102
RTVSPropertyOp31
 70
     1
102
RTVSPropertyOp32
 70
     1
102
RTVSPropertyOp33
 70
     1
102
RTVSPropertyOp34
 70
     1
102
RTVSPropertyOp35
 70
     1
102
RTVSPropertyOp36
 70
     1
102
RTVSPropertyOp37
 70
     1
102
RTVSPropertyOp38
 70
     1
102
RTVSPropertyOp39
 70
     1
102
RTVSPropertyOp40
 70
     1
102
RTVSPropertyOp41
 70
     1
102
RTVSPropertyOp42
 70
     1
102
RTVSPropertyOp43
 70
     1
102
RTVSPropertyOp44
 70
     1
102
RTVSPropertyOp45
 70
     1
102
RTVSPropertyOp46
 70
     1
102
RTVSPropertyOp47
 70
     1
102
RTVSPropertyOp48
 70
     1
102
RTVSPropertyOp49
 70
     1
102
RTVSPropertyOp50
 70
     1
102
RTVSPropertyOp51
 70
     0
102
RTVSPropertyOp52
 70
     0
102
RTVSPropertyOp53
 70
     1
102
RTVSPropertyOp54
 70
     1
102
RTVSPropertyOp55
 70
     1
102
RTVSPropertyOp56
 70
     1
102
RTVSPropertyOp57
 70
     1
102
RTVSPropertyOp58
 70
     1
102
RTVSPropertyOp59
 70
     1
102
RTVSPropertyOp60
 70
     1
102
RTVSPropertyOp61
 70
     1
102
RTVSPropertyOp62
 70
     1
  0
XRECORD
  5
8468
102
{ACAD_REACTORS
330
8467
102
}
330
8467
100
AcDbXrecord
280
     1
102
RTVSPost2010Prop28
280
     0
102
RTVSPost2010PropOp28
 70
     1
102
RTVSPost2010Prop29
280
     1
102
RTVSPost2010PropOp29
 70
     1
102
RTVSPost2010Prop30
280
     1
102
RTVSPost2010PropOp30
 70
     1
102
RTVSPost2010Prop31
280
     0
102
RTVSPost2010PropOp31
 70
     1
102
RTVSPost2010Prop32
280
     0
102
RTVSPost2010PropOp32
 70
     1
102
RTVSPost2010Prop33
280
     0
102
RTVSPost2010PropOp33
 70
     1
102
RTVSPost2010Prop34
280
     0
102
RTVSPost2010PropOp34
 70
     1
102
RTVSPost2010Prop35
280
     0
102
RTVSPost2010PropOp35
 70
     1
102
RTVSPost2010Prop36
280
     0
102
RTVSPost2010PropOp36
 70
     1
102
RTVSPost2010Prop37
 90
       50
102
RTVSPost2010PropOp37
 70
     1
102
RTVSPost2010Prop38
140
0.0
102
RTVSPost2010PropOp38
 70
     1
102
RTVSPost2010Prop39
140
1.0
102
RTVSPost2010PropOp39
 70
     1
102
RTVSPost2010Prop40
 90
        0
102
RTVSPost2010PropOp40
 70
     1
102
RTVSPost2010Prop41ColorIndex
 90
       18
102
RTVSPost2010Prop41ColorRGB
 90
        0
102
RTVSPost2010PropOp41
 70
     1
102
RTVSPost2010Prop42
 90
       50
102
RTVSPost2010PropOp42
 70
     1
102
RTVSPost2010Prop43
 90
        3
102
RTVSPost2010PropOp43
 70
     1
102
RTVSPost2010Prop44ColorIndex
 90
        5
102
RTVSPost2010Prop44ColorRGB
 90
      255
102
RTVSPost2010PropOp44
 70
     1
102
RTVSPost2010Prop45
280
     0
102
RTVSPost2010PropOp45
 70
     1
102
RTVSPost2010Prop46
 90
       50
102
RTVSPost2010PropOp46
 70
     1
102
RTVSPost2010Prop47
 90
       50
102
RTVSPost2010PropOp47
 70
     1
102
RTVSPost2010Prop48
 90
       50
102
RTVSPost2010PropOp48
 70
     1
102
RTVSPost2010Prop49
280
     0
102
RTVSPost2010PropOp49
 70
     1
102
RTVSPost2010Prop50
 90
       50
102
RTVSPost2010PropOp50
 70
     1
102
RTVSPost2010Prop51ColorIndex
 90
      256
102
RTVSPost2010Prop51ColorRGB
 90
-16777216
102
RTVSPost2010PropOp51
 70
     0
102
RTVSPost2010Prop52
140
1.0
102
RTVSPost2010PropOp52
 70
     0
102
RTVSPost2010Prop53
 90
        2
102
RTVSPost2010PropOp53
 70
     1
102
RTVSPost2010Prop54
  1
strokes_ogs.tif
102
RTVSPost2010PropOp54
 70
     1
102
RTVSPost2010Prop55
280
     0
102
RTVSPost2010PropOp55
 70
     1
102
RTVSPost2010Prop56
140
1.0
102
RTVSPost2010PropOp56
 70
     1
102
RTVSPost2010Prop57
140
1.0
102
RTVSPost2010PropOp57
 70
     1
102
RTVSPropertyOp0
 70
     1
102
RTVSPropertyOp1
 70
     1
102
RTVSPropertyOp2
 70
     1
102
RTVSPropertyOp3
 70
     1
102
RTVSPropertyOp4
 70
     1
102
RTVSPropertyOp5
 70
     1
102
RTVSPropertyOp6
 70
     1
102
RTVSPropertyOp7
 70
     1
102
RTVSPropertyOp8
 70
     1
102
RTVSPropertyOp9
 70
     1
102
RTVSPropertyOp10
 70
     1
102
RTVSPropertyOp11
 70
     1
102
RTVSPropertyOp12
 70
     1
102
RTVSPropertyOp13
 70
     1
102
RTVSPropertyOp14
 70
     1
102
RTVSPropertyOp15
 70
     1
102
RTVSPropertyOp16
 70
     1
102
RTVSPropertyOp17
 70
     1
102
RTVSPropertyOp18
 70
     1
102
RTVSPropertyOp19
 70
     1
102
RTVSPropertyOp20
 70
     1
102
RTVSPropertyOp21
 70
     1
102
RTVSPropertyOp22
 70
     1
102
RTVSPropertyOp23
 70
     1
102
RTVSPropertyOp24
 70
     1
102
RTVSPropertyOp25
 70
     1
102
RTVSPropertyOp26
 70
     1
102
RTVSPropertyOp27
 70
     1
102
RTVSPropertyOp28
 70
     1
102
RTVSPropertyOp29
 70
     1
102
RTVSPropertyOp30
 70
     1
102
RTVSPropertyOp31
 70
     1
102
RTVSPropertyOp32
 70
     1
102
RTVSPropertyOp33
 70
     1
102
RTVSPropertyOp34
 70
     1
102
RTVSPropertyOp35
 70
     1
102
RTVSPropertyOp36
 70
     1
102
RTVSPropertyOp37
 70
     1
102
RTVSPropertyOp38
 70
     1
102
RTVSPropertyOp39
 70
     1
102
RTVSPropertyOp40
 70
     1
102
RTVSPropertyOp41
 70
     1
102
RTVSPropertyOp42
 70
     1
102
RTVSPropertyOp43
 70
     1
102
RTVSPropertyOp44
 70
     1
102
RTVSPropertyOp45
 70
     1
102
RTVSPropertyOp46
 70
     1
102
RTVSPropertyOp47
 70
     1
102
RTVSPropertyOp48
 70
     1
102
RTVSPropertyOp49
 70
     1
102
RTVSPropertyOp50
 70
     1
102
RTVSPropertyOp51
 70
     0
102
RTVSPropertyOp52
 70
     0
102
RTVSPropertyOp53
 70
     1
102
RTVSPropertyOp54
 70
     1
102
RTVSPropertyOp55
 70
     1
102
RTVSPropertyOp56
 70
     1
102
RTVSPropertyOp57
 70
     1
102
RTVSPropertyOp58
 70
     1
102
RTVSPropertyOp59
 70
     1
102
RTVSPropertyOp60
 70
     1
102
RTVSPropertyOp61
 70
     1
102
RTVSPropertyOp62
 70
     1
  0
XRECORD
  5
8480
102
{ACAD_REACTORS
330
847F
102
}
330
847F
100
AcDbXrecord
280
     1
102
RTVSPost2010Prop28
280
     0
102
RTVSPost2010PropOp28
 70
     1
102
RTVSPost2010Prop29
280
     1
102
RTVSPost2010PropOp29
 70
     1
102
RTVSPost2010Prop30
280
     1
102
RTVSPost2010PropOp30
 70
     1
102
RTVSPost2010Prop31
280
     0
102
RTVSPost2010PropOp31
 70
     1
102
RTVSPost2010Prop32
280
     0
102
RTVSPost2010PropOp32
 70
     1
102
RTVSPost2010Prop33
280
     0
102
RTVSPost2010PropOp33
 70
     1
102
RTVSPost2010Prop34
280
     0
102
RTVSPost2010PropOp34
 70
     1
102
RTVSPost2010Prop35
280
     0
102
RTVSPost2010PropOp35
 70
     1
102
RTVSPost2010Prop36
280
     0
102
RTVSPost2010PropOp36
 70
     1
102
RTVSPost2010Prop37
 90
       50
102
RTVSPost2010PropOp37
 70
     1
102
RTVSPost2010Prop38
140
0.0
102
RTVSPost2010PropOp38
 70
     1
102
RTVSPost2010Prop39
140
1.0
102
RTVSPost2010PropOp39
 70
     1
102
RTVSPost2010Prop40
 90
        0
102
RTVSPost2010PropOp40
 70
     1
102
RTVSPost2010Prop41ColorIndex
 90
       18
102
RTVSPost2010Prop41ColorRGB
 90
        0
102
RTVSPost2010PropOp41
 70
     1
102
RTVSPost2010Prop42
 90
       50
102
RTVSPost2010PropOp42
 70
     1
102
RTVSPost2010Prop43
 90
        3
102
RTVSPost2010PropOp43
 70
     1
102
RTVSPost2010Prop44ColorIndex
 90
        5
102
RTVSPost2010Prop44ColorRGB
 90
      255
102
RTVSPost2010PropOp44
 70
     1
102
RTVSPost2010Prop45
280
     0
102
RTVSPost2010PropOp45
 70
     1
102
RTVSPost2010Prop46
 90
       50
102
RTVSPost2010PropOp46
 70
     1
102
RTVSPost2010Prop47
 90
       50
102
RTVSPost2010PropOp47
 70
     1
102
RTVSPost2010Prop48
 90
       50
102
RTVSPost2010PropOp48
 70
     1
102
RTVSPost2010Prop49
280
     0
102
RTVSPost2010PropOp49
 70
     1
102
RTVSPost2010Prop50
 90
       50
102
RTVSPost2010PropOp50
 70
     1
102
RTVSPost2010Prop51ColorIndex
 90
      256
102
RTVSPost2010Prop51ColorRGB
 90
-16777216
102
RTVSPost2010PropOp51
 70
     0
102
RTVSPost2010Prop52
140
1.0
102
RTVSPost2010PropOp52
 70
     0
102
RTVSPost2010Prop53
 90
        2
102
RTVSPost2010PropOp53
 70
     1
102
RTVSPost2010Prop54
  1
strokes_ogs.tif
102
RTVSPost2010PropOp54
 70
     1
102
RTVSPost2010Prop55
280
     0
102
RTVSPost2010PropOp55
 70
     1
102
RTVSPost2010Prop56
140
1.0
102
RTVSPost2010PropOp56
 70
     1
102
RTVSPost2010Prop57
140
1.0
102
RTVSPost2010PropOp57
 70
     1
102
RTVSPropertyOp0
 70
     1
102
RTVSPropertyOp1
 70
     1
102
RTVSPropertyOp2
 70
     1
102
RTVSPropertyOp3
 70
     1
102
RTVSPropertyOp4
 70
     1
102
RTVSPropertyOp5
 70
     1
102
RTVSPropertyOp6
 70
     1
102
RTVSPropertyOp7
 70
     1
102
RTVSPropertyOp8
 70
     1
102
RTVSPropertyOp9
 70
     1
102
RTVSPropertyOp10
 70
     1
102
RTVSPropertyOp11
 70
     1
102
RTVSPropertyOp12
 70
     1
102
RTVSPropertyOp13
 70
     1
102
RTVSPropertyOp14
 70
     1
102
RTVSPropertyOp15
 70
     1
102
RTVSPropertyOp16
 70
     1
102
RTVSPropertyOp17
 70
     1
102
RTVSPropertyOp18
 70
     1
102
RTVSPropertyOp19
 70
     1
102
RTVSPropertyOp20
 70
     1
102
RTVSPropertyOp21
 70
     1
102
RTVSPropertyOp22
 70
     1
102
RTVSPropertyOp23
 70
     1
102
RTVSPropertyOp24
 70
     1
102
RTVSPropertyOp25
 70
     1
102
RTVSPropertyOp26
 70
     1
102
RTVSPropertyOp27
 70
     1
102
RTVSPropertyOp28
 70
     1
102
RTVSPropertyOp29
 70
     1
102
RTVSPropertyOp30
 70
     1
102
RTVSPropertyOp31
 70
     1
102
RTVSPropertyOp32
 70
     1
102
RTVSPropertyOp33
 70
     1
102
RTVSPropertyOp34
 70
     1
102
RTVSPropertyOp35
 70
     1
102
RTVSPropertyOp36
 70
     1
102
RTVSPropertyOp37
 70
     1
102
RTVSPropertyOp38
 70
     1
102
RTVSPropertyOp39
 70
     1
102
RTVSPropertyOp40
 70
     1
102
RTVSPropertyOp41
 70
     1
102
RTVSPropertyOp42
 70
     1
102
RTVSPropertyOp43
 70
     1
102
RTVSPropertyOp44
 70
     1
102
RTVSPropertyOp45
 70
     1
102
RTVSPropertyOp46
 70
     1
102
RTVSPropertyOp47
 70
     1
102
RTVSPropertyOp48
 70
     1
102
RTVSPropertyOp49
 70
     1
102
RTVSPropertyOp50
 70
     1
102
RTVSPropertyOp51
 70
     0
102
RTVSPropertyOp52
 70
     0
102
RTVSPropertyOp53
 70
     1
102
RTVSPropertyOp54
 70
     1
102
RTVSPropertyOp55
 70
     1
102
RTVSPropertyOp56
 70
     1
102
RTVSPropertyOp57
 70
     1
102
RTVSPropertyOp58
 70
     1
102
RTVSPropertyOp59
 70
     1
102
RTVSPropertyOp60
 70
     1
102
RTVSPropertyOp61
 70
     1
102
RTVSPropertyOp62
 70
     1
  0
ENDSEC
  0
EOF
