  0
SECTION
  2
HEADER
  9
$ACADVER
  1
AC1015
  9
$ACADMAINTVER
 70
    20
  9
$DWGCODEPAGE
  3
ANSI_932
  9
$INSBASE
 10
0.0
 20
0.0
 30
0.0
  9
$EXTMIN
 10
-0.1281640493871237
 20
-0.1800399741405272
 30
-0.0015258207003583
  9
$EXTMAX
 10
4200.128183607161
 20
5900.180067448153
 30
0.0000000349246037
  9
$LIMMIN
 10
0.0
 20
0.0
  9
$LIMMAX
 10
297.0
 20
210.0
  9
$ORTHOMODE
 70
     1
  9
$REGENMODE
 70
     1
  9
$FILLMODE
 70
     0
  9
$QTEXTMODE
 70
     0
  9
$MIRRTEXT
 70
     1
  9
$LTSCALE
 40
100.0
  9
$ATTMODE
 70
     1
  9
$TEXTSIZE
 40
180.0
  9
$TRACEWID
 40
0.05
  9
$TEXTSTYLE
  7
STANDARD
  9
$CLAYER
  8
3
  9
$CELTYPE
  6
ByLayer
  9
$CECOLOR
 62
   256
  9
$CELTSCALE
 40
1.0
  9
$DISPSILH
 70
     0
  9
$DIMSCALE
 40
20.0
  9
$DIMASZ
 40
2.0
  9
$DIMEXO
 40
1.0
  9
$DIMDLI
 40
10.0
  9
$DIMRND
 40
0.0
  9
$DIMDLE
 40
0.0
  9
$DIMEXE
 40
1.0
  9
$DIMTP
 40
1.0
  9
$DIMTM
 40
1.0
  9
$DIMTXT
 40
3.0
  9
$DIMCEN
 40
0.0
  9
$DIMTSZ
 40
0.0
  9
$DIMTOL
 70
     0
  9
$DIMLIM
 70
     0
  9
$DIMTIH
 70
     0
  9
$DIMTOH
 70
     0
  9
$DIMSE1
 70
     0
  9
$DIMSE2
 70
     0
  9
$DIMTAD
 70
     1
  9
$DIMZIN
 70
     8
  9
$DIMBLK
  1

  9
$DIMASO
 70
     1
  9
$DIMSHO
 70
     1
  9
$DIMPOST
  1

  9
$DIMAPOST
  1

  9
$DIMALT
 70
     0
  9
$DIMALTD
 70
     2
  9
$DIMALTF
 40
0.039
  9
$DIMLFAC
 40
1.0
  9
$DIMTOFL
 70
     1
  9
$DIMTVP
 40
0.0
  9
$DIMTIX
 70
     0
  9
$DIMSOXD
 70
     0
  9
$DIMSAH
 70
     1
  9
$DIMBLK1
  1
OPEN
  9
$DIMBLK2
  1
OPEN
  9
$DIMSTYLE
  2
IGA
  9
$DIMCLRD
 70
     0
  9
$DIMCLRE
 70
     0
  9
$DIMCLRT
 70
     0
  9
$DIMTFAC
 40
10.0
  9
$DIMGAP
 40
1.0
  9
$DIMJUST
 70
     0
  9
$DIMSD1
 70
     0
  9
$DIMSD2
 70
     0
  9
$DIMTOLJ
 70
     1
  9
$DIMTZIN
 70
     0
  9
$DIMALTZ
 70
     0
  9
$DIMALTTZ
 70
     0
  9
$DIMUPT
 70
     0
  9
$DIMDEC
 70
     4
  9
$DIMTDEC
 70
     4
  9
$DIMALTU
 70
     2
  9
$DIMALTTD
 70
     2
  9
$DIMTXSTY
  7
STANDARD
  9
$DIMAUNIT
 70
     0
  9
$DIMADEC
 70
     0
  9
$DIMALTRND
 40
0.0
  9
$DIMAZIN
 70
     0
  9
$DIMDSEP
 70
    46
  9
$DIMATFIT
 70
     3
  9
$DIMFRAC
 70
     0
  9
$DIMLDRBLK
  1
OPEN
  9
$DIMLUNIT
 70
     2
  9
$DIMLWD
 70
    -2
  9
$DIMLWE
 70
    -2
  9
$DIMTMOVE
 70
     0
  9
$LUNITS
 70
     2
  9
$LUPREC
 70
     3
  9
$SKETCHINC
 40
0.1
  9
$FILLETRAD
 40
50.0
  9
$AUNITS
 70
     0
  9
$AUPREC
 70
     0
  9
$MENU
  1
acad
  9
$ELEVATION
 40
0.0
  9
$PELEVATION
 40
0.0
  9
$THICKNESS
 40
0.0
  9
$LIMCHECK
 70
     0
  9
$CHAMFERA
 40
0.5
  9
$CHAMFERB
 40
0.5
  9
$CHAMFERC
 40
0.0
  9
$CHAMFERD
 40
0.0
  9
$SKPOLY
 70
     0
  9
$TDCREATE
 40
2451387.576625463
  9
$TDUCREATE
 40
2451387.201625463
  9
$TDUPDATE
 40
2460262.682949097
  9
$TDUUPDATE
 40
2460262.307949097
  9
$TDINDWG
 40
0.0217446991
  9
$TDUSRTIMER
 40
0.0217444676
  9
$USRTIMER
 70
     1
  9
$ANGBASE
 50
0.0
  9
$ANGDIR
 70
     0
  9
$PDMODE
 70
     0
  9
$PDSIZE
 40
0.0
  9
$PLINEWID
 40
0.0
  9
$SPLFRAME
 70
     0
  9
$SPLINETYPE
 70
     6
  9
$SPLINESEGS
 70
     8
  9
$HANDSEED
  5
849A
  9
$SURFTAB1
 70
     6
  9
$SURFTAB2
 70
     6
  9
$SURFTYPE
 70
     6
  9
$SURFU
 70
     6
  9
$SURFV
 70
     6
  9
$UCSBASE
  2

  9
$UCSNAME
  2

  9
$UCSORG
 10
0.0
 20
0.0
 30
0.0
  9
$UCSXDIR
 10
1.0
 20
0.0
 30
0.0
  9
$UCSYDIR
 10
0.0
 20
1.0
 30
0.0
  9
$UCSORTHOREF
  2

  9
$UCSORTHOVIEW
 70
     0
  9
$UCSORGTOP
 10
0.0
 20
0.0
 30
0.0
  9
$UCSORGBOTTOM
 10
0.0
 20
0.0
 30
0.0
  9
$UCSORGLEFT
 10
0.0
 20
0.0
 30
0.0
  9
$UCSORGRIGHT
 10
0.0
 20
0.0
 30
0.0
  9
$UCSORGFRONT
 10
0.0
 20
0.0
 30
0.0
  9
$UCSORGBACK
 10
0.0
 20
0.0
 30
0.0
  9
$PUCSBASE
  2

  9
$PUCSNAME
  2

  9
$PUCSORG
 10
0.0
 20
0.0
 30
0.0
  9
$PUCSXDIR
 10
1.0
 20
0.0
 30
0.0
  9
$PUCSYDIR
 10
0.0
 20
1.0
 30
0.0
  9
$PUCSORTHOREF
  2

  9
$PUCSORTHOVIEW
 70
     0
  9
$PUCSORGTOP
 10
0.0
 20
0.0
 30
0.0
  9
$PUCSORGBOTTOM
 10
0.0
 20
0.0
 30
0.0
  9
$PUCSORGLEFT
 10
0.0
 20
0.0
 30
0.0
  9
$PUCSORGRIGHT
 10
0.0
 20
0.0
 30
0.0
  9
$PUCSORGFRONT
 10
0.0
 20
0.0
 30
0.0
  9
$PUCSORGBACK
 10
0.0
 20
0.0
 30
0.0
  9
$USERI1
 70
     0
  9
$USERI2
 70
     0
  9
$USERI3
 70
     0
  9
$USERI4
 70
     0
  9
$USERI5
 70
     0
  9
$USERR1
 40
0.0
  9
$USERR2
 40
0.0
  9
$USERR3
 40
0.0
  9
$USERR4
 40
0.0
  9
$USERR5
 40
0.0
  9
$WORLDVIEW
 70
     1
  9
$SHADEDGE
 70
     3
  9
$SHADEDIF
 70
    70
  9
$TILEMODE
 70
     1
  9
$MAXACTVP
 70
    16
  9
$PINSBASE
 10
0.0
 20
0.0
 30
0.0
  9
$PLIMCHECK
 70
     0
  9
$PEXTMIN
 10
1.000000000000000E+20
 20
1.000000000000000E+20
 30
1.000000000000000E+20
  9
$PEXTMAX
 10
-1.000000000000000E+20
 20
-1.000000000000000E+20
 30
-1.000000000000000E+20
  9
$PLIMMIN
 10
0.0
 20
0.0
  9
$PLIMMAX
 10
12.0
 20
9.0
  9
$UNITMODE
 70
     0
  9
$VISRETAIN
 70
     0
  9
$PLINEGEN
 70
     0
  9
$PSLTSCALE
 70
     1
  9
$TREEDEPTH
 70
  3020
  9
$CMLSTYLE
  2
Standard
  9
$CMLJUST
 70
     0
  9
$CMLSCALE
 40
1.0
  9
$PROXYGRAPHICS
 70
     1
  9
$MEASUREMENT
 70
     0
  9
$CELWEIGHT
370
    -1
  9
$ENDCAPS
280
     0
  9
$JOINSTYLE
280
     0
  9
$LWDISPLAY
290
     0
  9
$INSUNITS
 70
     0
  9
$HYPERLINKBASE
  1

  9
$STYLESHEET
  1

  9
$XEDIT
290
     1
  9
$CEPSNTYPE
380
     0
  9
$PSTYLEMODE
290
     1
  9
$FINGERPRINTGUID
  2
{AD2AF23E-BF59-4610-AD4D-0B4AFEDABE89}
  9
$VERSIONGUID
  2
{B342F12C-D08C-4C57-837B-BB4DE30D6A33}
  9
$EXTNAMES
290
     1
  9
$PSVPSCALE
 40
0.0
  9
$OLESTARTUP
290
     0
  0
ENDSEC
  0
SECTION
  2
CLASSES
  0
CLASS
  1
ACDBDICTIONARYWDFLT
  2
AcDbDictionaryWithDefault
  3
ObjectDBX Classes
 90
        0
280
     0
281
     0
  0
CLASS
  1
MATERIAL
  2
AcDbMaterial
  3
ObjectDBX Classes
 90
     1153
280
     0
281
     0
  0
CLASS
  1
VISUALSTYLE
  2
AcDbVisualStyle
  3
ObjectDBX Classes
 90
     4095
280
     0
281
     0
  0
CLASS
  1
SCALE
  2
AcDbScale
  3
ObjectDBX Classes
 90
     1153
280
     0
281
     0
  0
CLASS
  1
TABLESTYLE
  2
AcDbTableStyle
  3
ObjectDBX Classes
 90
     4095
280
     0
281
     0
  0
CLASS
  1
MLEADERSTYLE
  2
AcDbMLeaderStyle
  3
ACDB_MLEADERSTYLE_CLASS
 90
     4095
280
     0
281
     0
  0
CLASS
  1
ACDBSECTIONVIEWSTYLE
  2
AcDbSectionViewStyle
  3
ObjectDBX Classes
 90
     1025
280
     0
281
     0
  0
CLASS
  1
ACDBDETAILVIEWSTYLE
  2
AcDbDetailViewStyle
  3
ObjectDBX Classes
 90
     1025
280
     0
281
     0
  0
CLASS
  1
DICTIONARYVAR
  2
AcDbDictionaryVar
  3
ObjectDBX Classes
 90
        0
280
     0
281
     0
  0
CLASS
  1
CELLSTYLEMAP
  2
AcDbCellStyleMap
  3
ObjectDBX Classes
 90
     1152
280
     0
281
     0
  0
CLASS
  1
ACDBPLACEHOLDER
  2
AcDbPlaceHolder
  3
ObjectDBX Classes
 90
        0
280
     0
281
     0
  0
CLASS
  1
LAYOUT
  2
AcDbLayout
  3
ObjectDBX Classes
 90
        0
280
     0
281
     0
  0
ENDSEC
  0
SECTION
  2
TABLES
  0
TABLE
  2
VPORT
  5
80E1
330
0
100
AcDbSymbolTable
 70
     1
  0
VPORT
  5
814D
330
80E1
100
AcDbSymbolTableRecord
100
AcDbViewportTableRecord
  2
*ACTIVE
 70
     0
 10
0.0
 20
0.0
 11
1.0
 21
1.0
 12
2100.000009778887
 22
2950.000013737006
 13
0.0
 23
0.0
 14
10.0
 24
10.0
 15
10.0
 25
10.0
 16
0.0
 26
0.0
 36
1.0
 17
0.0
 27
0.0
 37
0.0
 40
5938.142562752639
 41
2.050213675213675
 42
50.0
 43
0.0
 44
0.0
 50
0.0
 51
0.0
 71
     0
 72
   100
 73
     1
 74
     0
 75
     0
 76
     0
 77
     0
 78
     0
281
     0
 65
     1
110
0.0
120
0.0
130
0.0
111
1.0
121
0.0
131
0.0
112
0.0
122
1.0
132
0.0
 79
     0
146
0.0
1001
ACAD_NAV_VCDISPLAY
1070
     3
  0
ENDTAB
  0
TABLE
  2
LTYPE
  5
80DE
330
0
100
AcDbSymbolTable
 70
     3
  0
LTYPE
  5
8133
330
80DE
100
AcDbSymbolTableRecord
100
AcDbLinetypeTableRecord
  2
ByBlock
 70
     0
  3

 72
    65
 73
     0
 40
0.0
  0
LTYPE
  5
8134
330
80DE
100
AcDbSymbolTableRecord
100
AcDbLinetypeTableRecord
  2
ByLayer
 70
     0
  3

 72
    65
 73
     0
 40
0.0
  0
LTYPE
  5
8135
330
80DE
100
AcDbSymbolTableRecord
100
AcDbLinetypeTableRecord
  2
CONTINUOUS
 70
     0
  3
Solid line
 72
    65
 73
     0
 40
0.0
  0
LTYPE
  5
814E
330
80DE
100
AcDbSymbolTableRecord
100
AcDbLinetypeTableRecord
  2
CENTER
 70
     0
  3
____ _ ____ _ ____ _ ____ _ ____ _ ____ _ ____ 
 72
    65
 73
     4
 40
2.0
 49
1.25
 74
     0
 49
-0.25
 74
     0
 49
0.25
 74
     0
 49
-0.25
 74
     0
  0
ENDTAB
  0
TABLE
  2
LAYER
  5
80DB
330
0
100
AcDbSymbolTable
 70
     6
  0
LAYER
  5
812D
102
{ACAD_XDICTIONARY
360
8445
102
}
330
80DB
100
AcDbSymbolTableRecord
100
AcDbLayerTableRecord
  2
0
 70
     0
 62
     7
  6
CONTINUOUS
370
    -3
390
80E8
  0
LAYER
  5
814C
102
{ACAD_XDICTIONARY
360
8447
102
}
330
80DB
100
AcDbSymbolTableRecord
100
AcDbLayerTableRecord
  2
3
 70
     0
 62
     2
  6
CONTINUOUS
370
    -3
390
80E8
  0
LAYER
  5
814F
102
{ACAD_XDICTIONARY
360
8449
102
}
330
80DB
100
AcDbSymbolTableRecord
100
AcDbLayerTableRecord
  2
2
 70
     0
 62
     3
  6
CENTER
370
    -3
390
80E8
  0
LAYER
  5
8150
102
{ACAD_XDICTIONARY
360
844B
102
}
330
80DB
100
AcDbSymbolTableRecord
100
AcDbLayerTableRecord
  2
1
 70
     0
 62
     4
  6
CONTINUOUS
370
    -3
390
80E8
  0
LAYER
  5
8151
102
{ACAD_XDICTIONARY
360
844D
102
}
330
80DB
100
AcDbSymbolTableRecord
100
AcDbLayerTableRecord
  2
4
 70
     0
 62
     7
  6
CONTINUOUS
370
    -3
390
80E8
  0
LAYER
  5
8152
330
80DB
100
AcDbSymbolTableRecord
100
AcDbLayerTableRecord
  2
DEFPOINTS
 70
     0
 62
     7
  6
CONTINUOUS
290
     0
370
    -3
390
80E8
  0
ENDTAB
  0
TABLE
  2
STYLE
  5
80DC
330
0
100
AcDbSymbolTable
 70
     2
  0
STYLE
  5
812E
330
80DC
100
AcDbSymbolTableRecord
100
AcDbTextStyleTableRecord
  2
STANDARD
 70
     0
 40
0.0
 41
1.0
 50
0.0
 71
     0
 42
180.0
  3
simplex.shx
  4
extfont.shx
  0
STYLE
  5
8132
330
80DC
100
AcDbSymbolTableRecord
100
AcDbTextStyleTableRecord
  2
Annotative
 70
     0
 40
0.0
 41
1.0
 50
0.0
 71
     0
 42
0.2
  3
txt
  4

1001
AcadAnnotative
1000
AnnotativeData
1002
{
1070
     1
1070
     1
1002
}
  0
ENDTAB
  0
TABLE
  2
VIEW
  5
80DF
330
0
100
AcDbSymbolTable
 70
     0
  0
ENDTAB
  0
TABLE
  2
UCS
  5
80E0
330
0
100
AcDbSymbolTable
 70
     0
  0
ENDTAB
  0
TABLE
  2
APPID
  5
80E2
330
0
100
AcDbSymbolTable
 70
     8
  0
APPID
  5
812F
330
80E2
100
AcDbSymbolTableRecord
100
AcDbRegAppTableRecord
  2
ACAD
 70
     0
  0
APPID
  5
8136
330
80E2
100
AcDbSymbolTableRecord
100
AcDbRegAppTableRecord
  2
AcadAnnotative
 70
     0
  0
APPID
  5
8194
330
80E2
100
AcDbSymbolTableRecord
100
AcDbRegAppTableRecord
  2
ACAD_DSTYLE_DIMJAG
 70
     0
  0
APPID
  5
8195
330
80E2
100
AcDbSymbolTableRecord
100
AcDbRegAppTableRecord
  2
ACAD_DSTYLE_DIMTALN
 70
     0
  0
APPID
  5
839E
330
80E2
100
AcDbSymbolTableRecord
100
AcDbRegAppTableRecord
  2
AcadAnnoMonitorAlertIconDisabled
 70
     0
  0
APPID
  5
839F
330
80E2
100
AcDbSymbolTableRecord
100
AcDbRegAppTableRecord
  2
ACAD_EXEMPT_FROM_CAD_STANDARDS
 70
     0
  0
APPID
  5
8412
330
80E2
100
AcDbSymbolTableRecord
100
AcDbRegAppTableRecord
  2
ACAD_NAV_VCDISPLAY
 70
     0
  0
APPID
  5
8491
330
80E2
100
AcDbSymbolTableRecord
100
AcDbRegAppTableRecord
  2
ACAD_MLEADERVER
 70
     0
  0
ENDTAB
  0
TABLE
  2
DIMSTYLE
  5
80E3
330
0
100
AcDbSymbolTable
 70
     4
100
AcDbDimStyleTable
 71
     1
340
8153
  0
DIMSTYLE
105
8130
102
{ACAD_REACTORS
330
7C26
330
7C27
330
7C4E
330
7C51
330
7C84
330
7C85
330
7C86
330
7C8C
330
7C9C
102
}
330
80E3
100
AcDbSymbolTableRecord
100
AcDbDimStyleTableRecord
  2
Standard
 70
     0
340
812E
  0
DIMSTYLE
105
8131
330
80E3
100
AcDbSymbolTableRecord
100
AcDbDimStyleTableRecord
  2
Annotative
 70
     0
340
812E
1001
AcadAnnotative
1000
AnnotativeData
1002
{
1070
     1
1070
     1
1002
}
  0
DIMSTYLE
105
8153
102
{ACAD_REACTORS
330
8196
330
81A3
330
81D4
330
81E1
330
8259
330
8266
330
8273
330
8280
330
828D
330
829A
330
82AC
330
83B7
330
8405
330
842F
102
}
330
80E3
100
AcDbSymbolTableRecord
100
AcDbDimStyleTableRecord
  2
IGA
 70
     0
 40
2.0
 41
2.0
 42
0.5
 43
10.0
 44
1.0
 47
1.0
 48
1.0
 73
     0
 74
     0
 77
     1
 78
     8
140
3.0
141
0.0
143
0.03937
146
10.0
147
1.0
173
     1
271
     3
272
     3
279
     2
284
     8
285
     8
286
     8
340
812E
  0
DIMSTYLE
105
8154
330
80E3
100
AcDbSymbolTableRecord
100
AcDbDimStyleTableRecord
  2
MATSU
 70
     0
 41
2.0
 42
1.0
 43
10.0
 44
1.0
 73
     0
 74
     0
 77
     1
 78
     8
140
3.0
141
0.0
143
0.03937
147
0.5
172
     1
173
     1
176
   256
177
   256
178
   256
271
     3
272
     3
279
     2
284
     8
285
     8
286
     8
340
812E
  0
ENDTAB
  0
TABLE
  2
BLOCK_RECORD
  5
80DA
330
0
100
AcDbSymbolTable
 70
    52
  0
BLOCK_RECORD
  5
8148
330
80DA
100
AcDbSymbolTableRecord
100
AcDbBlockTableRecord
  2
*Model_Space
340
814B
  0
BLOCK_RECORD
  5
8144
330
80DA
100
AcDbSymbolTableRecord
100
AcDbBlockTableRecord
  2
*Paper_Space
340
8147
  0
BLOCK_RECORD
  5
8158
330
80DA
100
AcDbSymbolTableRecord
100
AcDbBlockTableRecord
  2
$MODEL_SPACE
340
0
  0
BLOCK_RECORD
  5
815A
330
80DA
100
AcDbSymbolTableRecord
100
AcDbBlockTableRecord
  2
$PAPER_SPACE
340
0
  0
BLOCK_RECORD
  5
815C
330
80DA
100
AcDbSymbolTableRecord
100
AcDbBlockTableRecord
  2
_OPEN
340
0
102
{BLKREFS
331
7EB0
331
7EB1
331
80C0
331
80C1
331
80CC
331
7FCB
331
7FCC
331
7FD8
331
7FD9
331
7FE5
331
7FE6
331
81FA
331
81FB
331
7DE2
331
7DE3
331
7DED
331
7DEE
331
7DF8
331
7DF9
331
7E19
331
7E1A
331
7E2F
331
7E30
331
7E3A
331
7E3B
331
7E45
331
7E46
331
7F9E
331
7F9F
331
7EF4
331
7EF5
331
7EFF
331
7FB7
331
7FB8
331
80A8
331
80A9
331
80B0
331
80B1
331
7F00
331
80B8
331
80B9
331
7FF2
331
7FF3
331
8026
331
8027
331
81DB
331
81DC
331
8260
331
8261
331
826D
331
826E
331
827A
331
827B
331
8287
331
8288
331
8294
331
8295
331
83C7
331
83C8
331
83D9
331
83DA
331
83EB
331
83EC
331
83F6
331
8400
331
840C
331
840D
331
843F
331
8440
102
}
  0
BLOCK_RECORD
  5
815E
330
80DA
100
AcDbSymbolTableRecord
100
AcDbBlockTableRecord
  2
YA_N
340
0
102
{BLKREFS
331
7BF8
331
7C0D
102
}
  0
BLOCK_RECORD
  5
8160
330
80DA
100
AcDbSymbolTableRecord
100
AcDbBlockTableRecord
  2
*D4
340
0
  0
BLOCK_RECORD
  5
8162
330
80DA
100
AcDbSymbolTableRecord
100
AcDbBlockTableRecord
  2
*D5
340
0
  0
BLOCK_RECORD
  5
8164
330
80DA
100
AcDbSymbolTableRecord
100
AcDbBlockTableRecord
  2
*D6
340
0
  0
BLOCK_RECORD
  5
8166
330
80DA
100
AcDbSymbolTableRecord
100
AcDbBlockTableRecord
  2
*D7
340
0
  0
BLOCK_RECORD
  5
8168
330
80DA
100
AcDbSymbolTableRecord
100
AcDbBlockTableRecord
  2
*D8
340
0
  0
BLOCK_RECORD
  5
816A
330
80DA
100
AcDbSymbolTableRecord
100
AcDbBlockTableRecord
  2
*D9
340
0
  0
BLOCK_RECORD
  5
816C
330
80DA
100
AcDbSymbolTableRecord
100
AcDbBlockTableRecord
  2
*D10
340
0
  0
BLOCK_RECORD
  5
816E
330
80DA
100
AcDbSymbolTableRecord
100
AcDbBlockTableRecord
  2
*D11
340
0
  0
BLOCK_RECORD
  5
8170
330
80DA
100
AcDbSymbolTableRecord
100
AcDbBlockTableRecord
  2
*D12
340
0
  0
BLOCK_RECORD
  5
8172
330
80DA
100
AcDbSymbolTableRecord
100
AcDbBlockTableRecord
  2
*D13
340
0
  0
BLOCK_RECORD
  5
8174
330
80DA
100
AcDbSymbolTableRecord
100
AcDbBlockTableRecord
  2
*D14
340
0
  0
BLOCK_RECORD
  5
8176
330
80DA
100
AcDbSymbolTableRecord
100
AcDbBlockTableRecord
  2
*D15
340
0
  0
BLOCK_RECORD
  5
8178
330
80DA
100
AcDbSymbolTableRecord
100
AcDbBlockTableRecord
  2
*D16
340
0
  0
BLOCK_RECORD
  5
817A
330
80DA
100
AcDbSymbolTableRecord
100
AcDbBlockTableRecord
  2
*D17
340
0
  0
BLOCK_RECORD
  5
817C
330
80DA
100
AcDbSymbolTableRecord
100
AcDbBlockTableRecord
  2
*D18
340
0
  0
BLOCK_RECORD
  5
817E
330
80DA
100
AcDbSymbolTableRecord
100
AcDbBlockTableRecord
  2
*D19
340
0
  0
BLOCK_RECORD
  5
8180
330
80DA
100
AcDbSymbolTableRecord
100
AcDbBlockTableRecord
  2
*D20
340
0
  0
BLOCK_RECORD
  5
8182
330
80DA
100
AcDbSymbolTableRecord
100
AcDbBlockTableRecord
  2
_DOT
340
0
102
{BLKREFS
331
80CB
102
}
  0
BLOCK_RECORD
  5
8184
330
80DA
100
AcDbSymbolTableRecord
100
AcDbBlockTableRecord
  2
*D22
340
0
  0
BLOCK_RECORD
  5
8186
330
80DA
100
AcDbSymbolTableRecord
100
AcDbBlockTableRecord
  2
*D23
340
0
  0
BLOCK_RECORD
  5
8188
330
80DA
100
AcDbSymbolTableRecord
100
AcDbBlockTableRecord
  2
*D24
340
0
  0
BLOCK_RECORD
  5
818A
330
80DA
100
AcDbSymbolTableRecord
100
AcDbBlockTableRecord
  2
*D25
340
0
  0
BLOCK_RECORD
  5
818C
330
80DA
100
AcDbSymbolTableRecord
100
AcDbBlockTableRecord
  2
_NONE
340
0
  0
BLOCK_RECORD
  5
818E
330
80DA
100
AcDbSymbolTableRecord
100
AcDbBlockTableRecord
  2
*D27
340
0
  0
BLOCK_RECORD
  5
8190
330
80DA
100
AcDbSymbolTableRecord
100
AcDbBlockTableRecord
  2
*D28
340
0
  0
BLOCK_RECORD
  5
8197
330
80DA
100
AcDbSymbolTableRecord
100
AcDbBlockTableRecord
  2
*D29
340
0
  0
BLOCK_RECORD
  5
81A4
330
80DA
100
AcDbSymbolTableRecord
100
AcDbBlockTableRecord
  2
*D30
340
0
  0
BLOCK_RECORD
  5
81D5
330
80DA
100
AcDbSymbolTableRecord
100
AcDbBlockTableRecord
  2
*D31
340
0
  0
BLOCK_RECORD
  5
81E2
330
80DA
100
AcDbSymbolTableRecord
100
AcDbBlockTableRecord
  2
*D32
340
0
  0
BLOCK_RECORD
  5
8200
330
80DA
100
AcDbSymbolTableRecord
100
AcDbBlockTableRecord
  2
*D33
340
0
  0
BLOCK_RECORD
  5
820D
330
80DA
100
AcDbSymbolTableRecord
100
AcDbBlockTableRecord
  2
*D34
340
0
  0
BLOCK_RECORD
  5
821A
330
80DA
100
AcDbSymbolTableRecord
100
AcDbBlockTableRecord
  2
*D35
340
0
  0
BLOCK_RECORD
  5
8227
330
80DA
100
AcDbSymbolTableRecord
100
AcDbBlockTableRecord
  2
*D36
340
0
  0
BLOCK_RECORD
  5
8234
330
80DA
100
AcDbSymbolTableRecord
100
AcDbBlockTableRecord
  2
*D37
340
0
  0
BLOCK_RECORD
  5
823F
330
80DA
100
AcDbSymbolTableRecord
100
AcDbBlockTableRecord
  2
*D38
340
0
  0
BLOCK_RECORD
  5
824C
330
80DA
100
AcDbSymbolTableRecord
100
AcDbBlockTableRecord
  2
*D39
340
0
  0
BLOCK_RECORD
  5
825A
330
80DA
100
AcDbSymbolTableRecord
100
AcDbBlockTableRecord
  2
*D40
340
0
  0
BLOCK_RECORD
  5
8267
330
80DA
100
AcDbSymbolTableRecord
100
AcDbBlockTableRecord
  2
*D41
340
0
  0
BLOCK_RECORD
  5
8274
330
80DA
100
AcDbSymbolTableRecord
100
AcDbBlockTableRecord
  2
*D42
340
0
  0
BLOCK_RECORD
  5
8281
330
80DA
100
AcDbSymbolTableRecord
100
AcDbBlockTableRecord
  2
*D43
340
0
  0
BLOCK_RECORD
  5
828E
330
80DA
100
AcDbSymbolTableRecord
100
AcDbBlockTableRecord
  2
*D44
340
0
  0
BLOCK_RECORD
  5
829B
330
80DA
100
AcDbSymbolTableRecord
100
AcDbBlockTableRecord
  2
*D45
340
0
  0
BLOCK_RECORD
  5
82AD
330
80DA
100
AcDbSymbolTableRecord
100
AcDbBlockTableRecord
  2
*D46
340
0
  0
BLOCK_RECORD
  5
832A
330
80DA
100
AcDbSymbolTableRecord
100
AcDbBlockTableRecord
  2
_DotSmall
340
0
102
{BLKREFS
331
83F5
331
8401
102
}
  0
BLOCK_RECORD
  5
83B8
330
80DA
100
AcDbSymbolTableRecord
100
AcDbBlockTableRecord
  2
*D48
340
0
  0
BLOCK_RECORD
  5
8406
330
80DA
100
AcDbSymbolTableRecord
100
AcDbBlockTableRecord
  2
*D49
340
0
  0
BLOCK_RECORD
  5
8422
330
80DA
100
AcDbSymbolTableRecord
100
AcDbBlockTableRecord
  2
*D50
340
0
  0
BLOCK_RECORD
  5
8430
330
80DA
100
AcDbSymbolTableRecord
100
AcDbBlockTableRecord
  2
*D51
340
0
  0
ENDTAB
  0
ENDSEC
  0
SECTION
  2
BLOCKS
  0
BLOCK
  5
8149
330
8148
100
AcDbEntity
  8
0
100
AcDbBlockBegin
  2
*Model_Space
 70
     0
 10
0.0
 20
0.0
 30
0.0
  3
*Model_Space
  1

  0
ENDBLK
  5
814A
330
8148
100
AcDbEntity
  8
0
100
AcDbBlockEnd
  0
BLOCK
  5
8145
330
8144
100
AcDbEntity
 67
     1
  8
0
100
AcDbBlockBegin
  2
*Paper_Space
 70
     0
 10
0.0
 20
0.0
 30
0.0
  3
*Paper_Space
  1

  0
ENDBLK
  5
8146
330
8144
100
AcDbEntity
 67
     1
  8
0
100
AcDbBlockEnd
  0
BLOCK
  5
8159
330
8158
100
AcDbEntity
  8
0
100
AcDbBlockBegin
  2
$MODEL_SPACE
 70
     0
 10
0.0
 20
0.0
 30
0.0
  3
$MODEL_SPACE
  1

  0
ENDBLK
  5
1B
330
8158
100
AcDbEntity
  8
0
100
AcDbBlockEnd
  0
BLOCK
  5
815B
330
815A
100
AcDbEntity
  8
0
100
AcDbBlockBegin
  2
$PAPER_SPACE
 70
     0
 10
0.0
 20
0.0
 30
0.0
  3
$PAPER_SPACE
  1

  0
ENDBLK
  5
18
330
815A
100
AcDbEntity
  8
0
100
AcDbBlockEnd
  0
BLOCK
  5
815D
330
815C
100
AcDbEntity
  8
0
100
AcDbBlockBegin
  2
_OPEN
 70
     0
 10
0.0
 20
0.0
 30
0.0
  3
_OPEN
  1

  0
LINE
  5
79FD
330
815C
100
AcDbEntity
  8
0
  6
ByBlock
 62
     0
100
AcDbLine
 10
-1.0
 20
0.1666666666666666
 30
0.0
 11
0.0
 21
0.0
 31
0.0
  0
LINE
  5
79FE
330
815C
100
AcDbEntity
  8
0
  6
ByBlock
 62
     0
100
AcDbLine
 10
0.0
 20
0.0
 30
0.0
 11
-1.0
 21
-0.1666666666666666
 31
0.0
  0
LINE
  5
79FF
330
815C
100
AcDbEntity
  8
0
  6
ByBlock
 62
     0
100
AcDbLine
 10
0.0
 20
0.0
 30
0.0
 11
-1.0
 21
0.0
 31
0.0
  0
ENDBLK
  5
7A01
330
815C
100
AcDbEntity
  8
0
100
AcDbBlockEnd
  0
BLOCK
  5
815F
330
815E
100
AcDbEntity
  8
0
100
AcDbBlockBegin
  2
YA_N
 70
     0
 10
0.0
 20
0.0
 30
0.0
  3
YA_N
  1

  0
ENDBLK
  5
7A0C
330
815E
100
AcDbEntity
  8
0
100
AcDbBlockEnd
  0
BLOCK
  5
8161
330
8160
100
AcDbEntity
  8
0
100
AcDbBlockBegin
  2
*D4
 70
     1
 10
0.0
 20
0.0
 30
0.0
  3
*D4
  1

  0
LINE
  5
7DDF
330
8160
100
AcDbEntity
  8
0
  6
ByBlock
100
AcDbLine
 10
1059.652996394238
 20
-109.9023735498794
 30
0.0
 11
1188.214531100795
 21
-109.9023735498794
 31
0.0
  0
LINE
  5
7DE0
330
8160
100
AcDbEntity
  8
0
  6
ByBlock
100
AcDbLine
 10
1059.652996394238
 20
540.0976264501204
 30
0.0
 11
1188.214531100795
 21
540.0976264501204
 31
0.0
  0
LINE
  5
7DE1
330
8160
100
AcDbEntity
  8
0
  6
ByBlock
100
AcDbLine
 10
1168.214531100795
 20
-69.9023735498795
 30
0.0
 11
1168.214531100795
 21
500.0976264501204
 31
0.0
  0
INSERT
  5
7DE2
330
8160
100
AcDbEntity
  8
0
  6
ByBlock
100
AcDbBlockReference
  2
_OPEN
 10
1168.214531100795
 20
-109.9023735498794
 30
0.0
 41
40.0
 42
40.0
 43
40.0
 50
270.0
  0
INSERT
  5
7DE3
330
8160
100
AcDbEntity
  8
0
  6
ByBlock
100
AcDbBlockReference
  2
_OPEN
 10
1168.214531100795
 20
540.0976264501204
 30
0.0
 41
40.0
 42
40.0
 43
40.0
 50
90.0
  0
TEXT
  5
7DE4
330
8160
100
AcDbEntity
  8
3
100
AcDbText
 10
1158.214531100795
 20
137.9547693072633
 30
0.0
 40
60.0
  1
650
 50
90.0
100
AcDbText
  0
POINT
  5
7DE5
330
8160
100
AcDbEntity
  8
DEFPOINTS
  6
ByBlock
 62
     0
100
AcDbPoint
 10
1039.652996394238
 20
-109.9023735498794
 30
0.0
  0
POINT
  5
7DE6
330
8160
100
AcDbEntity
  8
DEFPOINTS
  6
ByBlock
 62
     0
100
AcDbPoint
 10
1039.652996394238
 20
540.0976264501204
 30
0.0
  0
POINT
  5
7DE7
330
8160
100
AcDbEntity
  8
DEFPOINTS
  6
ByBlock
 62
     0
100
AcDbPoint
 10
1168.214531100795
 20
540.0976264501204
 30
0.0
  0
ENDBLK
  5
7DE8
330
8160
100
AcDbEntity
  8
0
100
AcDbBlockEnd
  0
BLOCK
  5
8163
330
8162
100
AcDbEntity
  8
0
100
AcDbBlockBegin
  2
*D5
 70
     1
 10
0.0
 20
0.0
 30
0.0
  3
*D5
  1

  0
LINE
  5
7DEA
330
8162
100
AcDbEntity
  8
0
  6
ByBlock
100
AcDbLine
 10
1059.652996394238
 20
-109.9023735498794
 30
0.0
 11
1307.803589676992
 21
-109.9023735498794
 31
0.0
  0
LINE
  5
7DEB
330
8162
100
AcDbEntity
  8
0
  6
ByBlock
100
AcDbLine
 10
1106.545969497234
 20
568.0976264501205
 30
0.0
 11
1307.803589676992
 21
568.0976264501205
 31
0.0
  0
LINE
  5
7DEC
330
8162
100
AcDbEntity
  8
0
  6
ByBlock
100
AcDbLine
 10
1287.803589676992
 20
-69.9023735498795
 30
0.0
 11
1287.803589676992
 21
528.0976264501203
 31
0.0
  0
INSERT
  5
7DED
330
8162
100
AcDbEntity
  8
0
  6
ByBlock
100
AcDbBlockReference
  2
_OPEN
 10
1287.803589676992
 20
-109.9023735498794
 30
0.0
 41
40.0
 42
40.0
 43
40.0
 50
270.0
  0
INSERT
  5
7DEE
330
8162
100
AcDbEntity
  8
0
  6
ByBlock
100
AcDbBlockReference
  2
_OPEN
 10
1287.803589676992
 20
568.0976264501205
 30
0.0
 41
40.0
 42
40.0
 43
40.0
 50
90.0
  0
TEXT
  5
7DEF
330
8162
100
AcDbEntity
  8
3
100
AcDbText
 10
1277.803589676992
 20
151.9547693072633
 30
0.0
 40
60.0
  1
678
 50
90.0
100
AcDbText
  0
POINT
  5
7DF0
330
8162
100
AcDbEntity
  8
DEFPOINTS
  6
ByBlock
 62
     0
100
AcDbPoint
 10
1039.652996394238
 20
-109.9023735498794
 30
0.0
  0
POINT
  5
7DF1
330
8162
100
AcDbEntity
  8
DEFPOINTS
  6
ByBlock
 62
     0
100
AcDbPoint
 10
1086.545969497234
 20
568.0976264501205
 30
0.0
  0
POINT
  5
7DF2
330
8162
100
AcDbEntity
  8
DEFPOINTS
  6
ByBlock
 62
     0
100
AcDbPoint
 10
1287.803589676992
 20
568.0976264501205
 30
0.0
  0
ENDBLK
  5
7DF3
330
8162
100
AcDbEntity
  8
0
100
AcDbBlockEnd
  0
BLOCK
  5
8165
330
8164
100
AcDbEntity
  8
0
100
AcDbBlockBegin
  2
*D6
 70
     1
 10
0.0
 20
0.0
 30
0.0
  3
*D6
  1

  0
LINE
  5
7DF5
330
8164
100
AcDbEntity
  8
0
  6
ByBlock
100
AcDbLine
 10
2992.796193483283
 20
903.0976264501203
 30
0.0
 11
3240.833227053947
 21
903.0976264501203
 31
0.0
  0
LINE
  5
7DF6
330
8164
100
AcDbEntity
  8
0
  6
ByBlock
100
AcDbLine
 10
2992.796193483283
 20
233.0976264501205
 30
0.0
 11
3240.833227053947
 21
233.0976264501205
 31
0.0
  0
LINE
  5
7DF7
330
8164
100
AcDbEntity
  8
0
  6
ByBlock
100
AcDbLine
 10
3220.833227053946
 20
863.0976264501205
 30
0.0
 11
3220.833227053946
 21
273.0976264501205
 31
0.0
  0
INSERT
  5
7DF8
330
8164
100
AcDbEntity
  8
0
  6
ByBlock
100
AcDbBlockReference
  2
_OPEN
 10
3220.833227053946
 20
903.0976264501203
 30
0.0
 41
40.0
 42
40.0
 43
40.0
 50
90.0
  0
INSERT
  5
7DF9
330
8164
100
AcDbEntity
  8
0
  6
ByBlock
100
AcDbBlockReference
  2
_OPEN
 10
3220.833227053946
 20
233.0976264501205
 30
0.0
 41
40.0
 42
40.0
 43
40.0
 50
270.0
  0
TEXT
  5
7DFA
330
8164
100
AcDbEntity
  8
3
100
AcDbText
 10
3210.833227053947
 20
460.9547693072634
 30
0.0
 40
60.0
  1
\U+03C6670
 50
90.0
100
AcDbText
  0
POINT
  5
7DFB
330
8164
100
AcDbEntity
  8
DEFPOINTS
  6
ByBlock
 62
     0
100
AcDbPoint
 10
2972.796193483283
 20
903.0976264501203
 30
0.0
  0
POINT
  5
7DFC
330
8164
100
AcDbEntity
  8
DEFPOINTS
  6
ByBlock
 62
     0
100
AcDbPoint
 10
2972.796193483283
 20
233.0976264501205
 30
0.0
  0
POINT
  5
7DFD
330
8164
100
AcDbEntity
  8
DEFPOINTS
  6
ByBlock
 62
     0
100
AcDbPoint
 10
3220.833227053946
 20
233.0976264501205
 30
0.0
  0
ENDBLK
  5
7DFE
330
8164
100
AcDbEntity
  8
0
100
AcDbBlockEnd
  0
BLOCK
  5
8167
330
8166
100
AcDbEntity
  8
0
100
AcDbBlockBegin
  2
*D7
 70
     1
 10
0.0
 20
0.0
 30
0.0
  3
*D7
  1

  0
LINE
  5
7E16
330
8166
100
AcDbEntity
  8
0
  6
ByBlock
100
AcDbLine
 10
2167.296193483282
 20
1018.497617330824
 30
0.0
 11
2167.296193483282
 21
1113.682524828345
 31
0.0
  0
LINE
  5
7E17
330
8166
100
AcDbEntity
  8
0
  6
ByBlock
100
AcDbLine
 10
2967.296193483282
 20
1018.497617330824
 30
0.0
 11
2967.296193483282
 21
1113.682524828345
 31
0.0
  0
LINE
  5
7E18
330
8166
100
AcDbEntity
  8
0
  6
ByBlock
100
AcDbLine
 10
2207.296193483281
 20
1093.682524828345
 30
0.0
 11
2927.296193483282
 21
1093.682524828345
 31
0.0
  0
INSERT
  5
7E19
330
8166
100
AcDbEntity
  8
0
  6
ByBlock
100
AcDbBlockReference
  2
_OPEN
 10
2167.296193483282
 20
1093.682524828345
 30
0.0
 41
40.0
 42
40.0
 43
40.0
 50
180.0
  0
INSERT
  5
7E1A
330
8166
100
AcDbEntity
  8
0
  6
ByBlock
100
AcDbBlockReference
  2
_OPEN
 10
2967.296193483282
 20
1093.682524828345
 30
0.0
 41
40.0
 42
40.0
 43
40.0
  0
TEXT
  5
7E1B
330
8166
100
AcDbEntity
  8
3
100
AcDbText
 10
2490.153336340425
 20
1103.682524828345
 30
0.0
 40
60.0
  1
800
100
AcDbText
  0
POINT
  5
7E1C
330
8166
100
AcDbEntity
  8
DEFPOINTS
  6
ByBlock
 62
     0
100
AcDbPoint
 10
2167.296193483282
 20
998.4976173308242
 30
0.0
  0
POINT
  5
7E1D
330
8166
100
AcDbEntity
  8
DEFPOINTS
  6
ByBlock
 62
     0
100
AcDbPoint
 10
2967.296193483282
 20
998.4976173308238
 30
0.0
  0
POINT
  5
7E1E
330
8166
100
AcDbEntity
  8
DEFPOINTS
  6
ByBlock
 62
     0
100
AcDbPoint
 10
2967.296193483282
 20
1093.682524828345
 30
0.0
  0
ENDBLK
  5
7E1F
330
8166
100
AcDbEntity
  8
0
100
AcDbBlockEnd
  0
BLOCK
  5
8169
330
8168
100
AcDbEntity
  8
0
100
AcDbBlockBegin
  2
*D8
 70
     1
 10
0.0
 20
0.0
 30
0.0
  3
*D8
  1

  0
LINE
  5
7E2C
330
8168
100
AcDbEntity
  8
0
  6
ByBlock
100
AcDbLine
 10
-470.3470036057614
 20
2138.414968530632
 30
0.0
 11
-470.3470036057614
 21
1863.01337041143
 31
0.0
  0
LINE
  5
7E2D
330
8168
100
AcDbEntity
  8
0
  6
ByBlock
100
AcDbLine
 10
979.6529963942385
 20
2138.414968530633
 30
0.0
 11
979.6529963942385
 21
1863.01337041143
 31
0.0
  0
LINE
  5
7E2E
330
8168
100
AcDbEntity
  8
0
  6
ByBlock
100
AcDbLine
 10
-430.3470036057614
 20
1883.01337041143
 30
0.0
 11
939.6529963942384
 21
1883.01337041143
 31
0.0
  0
INSERT
  5
7E2F
330
8168
100
AcDbEntity
  8
0
  6
ByBlock
100
AcDbBlockReference
  2
_OPEN
 10
-470.3470036057614
 20
1883.01337041143
 30
0.0
 41
40.0
 42
40.0
 43
40.0
 50
180.0
  0
INSERT
  5
7E30
330
8168
100
AcDbEntity
  8
0
  6
ByBlock
100
AcDbBlockReference
  2
_OPEN
 10
979.6529963942385
 20
1883.01337041143
 30
0.0
 41
40.0
 42
40.0
 43
40.0
  0
TEXT
  5
7E31
330
8168
100
AcDbEntity
  8
3
100
AcDbText
 10
154.6529963942385
 20
1893.01337041143
 30
0.0
 40
60.0
  1
1450
100
AcDbText
  0
POINT
  5
7E32
330
8168
100
AcDbEntity
  8
DEFPOINTS
  6
ByBlock
 62
     0
100
AcDbPoint
 10
-470.3470036057614
 20
2158.414968530632
 30
0.0
  0
POINT
  5
7E33
330
8168
100
AcDbEntity
  8
DEFPOINTS
  6
ByBlock
 62
     0
100
AcDbPoint
 10
979.6529963942385
 20
2158.414968530633
 30
0.0
  0
POINT
  5
7E34
330
8168
100
AcDbEntity
  8
DEFPOINTS
  6
ByBlock
 62
     0
100
AcDbPoint
 10
979.6529963942385
 20
1883.01337041143
 30
0.0
  0
ENDBLK
  5
7E35
330
8168
100
AcDbEntity
  8
0
100
AcDbBlockEnd
  0
BLOCK
  5
816B
330
816A
100
AcDbEntity
  8
0
100
AcDbBlockBegin
  2
*D9
 70
     1
 10
0.0
 20
0.0
 30
0.0
  3
*D9
  1

  0
LINE
  5
7E37
330
816A
100
AcDbEntity
  8
0
  6
ByBlock
100
AcDbLine
 10
999.6529963942384
 20
2158.414968530633
 30
0.0
 11
1208.444967392846
 21
2158.414968530633
 31
0.0
  0
LINE
  5
7E38
330
816A
100
AcDbEntity
  8
0
  6
ByBlock
100
AcDbLine
 10
999.6529963942387
 20
3164.414968530635
 30
0.0
 11
1208.444967392846
 21
3164.414968530635
 31
0.0
  0
LINE
  5
7E39
330
816A
100
AcDbEntity
  8
0
  6
ByBlock
100
AcDbLine
 10
1188.444967392846
 20
2198.414968530633
 30
0.0
 11
1188.444967392846
 21
3124.414968530635
 31
0.0
  0
INSERT
  5
7E3A
330
816A
100
AcDbEntity
  8
0
  6
ByBlock
100
AcDbBlockReference
  2
_OPEN
 10
1188.444967392846
 20
2158.414968530633
 30
0.0
 41
40.0
 42
40.0
 43
40.0
 50
270.0
  0
INSERT
  5
7E3B
330
816A
100
AcDbEntity
  8
0
  6
ByBlock
100
AcDbBlockReference
  2
_OPEN
 10
1188.444967392846
 20
3164.414968530635
 30
0.0
 41
40.0
 42
40.0
 43
40.0
 50
90.0
  0
TEXT
  5
7E3C
330
816A
100
AcDbEntity
  8
3
100
AcDbText
 10
1178.444967392846
 20
2562.843539959205
 30
0.0
 40
60.0
  1
1006
 50
90.0
100
AcDbText
  0
POINT
  5
7E3D
330
816A
100
AcDbEntity
  8
DEFPOINTS
  6
ByBlock
 62
     0
100
AcDbPoint
 10
979.6529963942385
 20
2158.414968530633
 30
0.0
  0
POINT
  5
7E3E
330
816A
100
AcDbEntity
  8
DEFPOINTS
  6
ByBlock
 62
     0
100
AcDbPoint
 10
979.6529963942386
 20
3164.414968530635
 30
0.0
  0
POINT
  5
7E3F
330
816A
100
AcDbEntity
  8
DEFPOINTS
  6
ByBlock
 62
     0
100
AcDbPoint
 10
1188.444967392846
 20
3164.414968530635
 30
0.0
  0
ENDBLK
  5
7E40
330
816A
100
AcDbEntity
  8
0
100
AcDbBlockEnd
  0
BLOCK
  5
816D
330
816C
100
AcDbEntity
  8
0
100
AcDbBlockBegin
  2
*D10
 70
     1
 10
0.0
 20
0.0
 30
0.0
  3
*D10
  1

  0
LINE
  5
7E42
330
816C
100
AcDbEntity
  8
0
  6
ByBlock
100
AcDbLine
 10
179.6529963942384
 20
3184.414968530634
 30
0.0
 11
179.6529963942384
 21
3333.020259029039
 31
0.0
  0
LINE
  5
7E43
330
816C
100
AcDbEntity
  8
0
  6
ByBlock
100
AcDbLine
 10
979.6529963942386
 20
3184.414968530635
 30
0.0
 11
979.6529963942386
 21
3333.020259029039
 31
0.0
  0
LINE
  5
7E44
330
816C
100
AcDbEntity
  8
0
  6
ByBlock
100
AcDbLine
 10
219.6529963942384
 20
3313.020259029039
 30
0.0
 11
939.652996394239
 21
3313.020259029039
 31
0.0
  0
INSERT
  5
7E45
330
816C
100
AcDbEntity
  8
0
  6
ByBlock
100
AcDbBlockReference
  2
_OPEN
 10
179.6529963942384
 20
3313.020259029039
 30
0.0
 41
40.0
 42
40.0
 43
40.0
 50
180.0
  0
INSERT
  5
7E46
330
816C
100
AcDbEntity
  8
0
  6
ByBlock
100
AcDbBlockReference
  2
_OPEN
 10
979.6529963942386
 20
3313.020259029039
 30
0.0
 41
40.0
 42
40.0
 43
40.0
  0
TEXT
  5
7E47
330
816C
100
AcDbEntity
  8
3
100
AcDbText
 10
502.5101392513816
 20
3323.020259029039
 30
0.0
 40
60.0
  1
800
100
AcDbText
  0
POINT
  5
7E48
330
816C
100
AcDbEntity
  8
DEFPOINTS
  6
ByBlock
 62
     0
100
AcDbPoint
 10
179.6529963942384
 20
3164.414968530634
 30
0.0
  0
POINT
  5
7E49
330
816C
100
AcDbEntity
  8
DEFPOINTS
  6
ByBlock
 62
     0
100
AcDbPoint
 10
979.6529963942386
 20
3164.414968530635
 30
0.0
  0
POINT
  5
7E4A
330
816C
100
AcDbEntity
  8
DEFPOINTS
  6
ByBlock
 62
     0
100
AcDbPoint
 10
979.6529963942386
 20
3313.020259029039
 30
0.0
  0
ENDBLK
  5
7E4B
330
816C
100
AcDbEntity
  8
0
100
AcDbBlockEnd
  0
BLOCK
  5
816F
330
816E
100
AcDbEntity
  8
0
100
AcDbBlockBegin
  2
*D11
 70
     1
 10
0.0
 20
0.0
 30
0.0
  3
*D11
  1

  0
LINE
  5
7F9B
330
816E
100
AcDbEntity
  8
0
  6
ByBlock
100
AcDbLine
 10
335.0964112281989
 20
4072.318859462983
 30
0.0
 11
216.3514467743152
 21
4072.318859462983
 31
0.0
  0
LINE
  5
7F9C
330
816E
100
AcDbEntity
  8
0
  6
ByBlock
100
AcDbLine
 10
335.0964112281989
 20
3472.318859462983
 30
0.0
 11
216.3514467743152
 21
3472.318859462983
 31
0.0
  0
LINE
  5
7F9D
330
816E
100
AcDbEntity
  8
0
  6
ByBlock
100
AcDbLine
 10
236.3514467743152
 20
4032.318859462981
 30
0.0
 11
236.3514467743152
 21
3512.318859462983
 31
0.0
  0
INSERT
  5
7F9E
330
816E
100
AcDbEntity
  8
0
  6
ByBlock
100
AcDbBlockReference
  2
_OPEN
 10
236.3514467743152
 20
4072.318859462983
 30
0.0
 41
40.0
 42
40.0
 43
40.0
 50
90.0
  0
INSERT
  5
7F9F
330
816E
100
AcDbEntity
  8
0
  6
ByBlock
100
AcDbBlockReference
  2
_OPEN
 10
236.3514467743152
 20
3472.318859462983
 30
0.0
 41
40.0
 42
40.0
 43
40.0
 50
270.0
  0
TEXT
  5
7FA0
330
816E
100
AcDbEntity
  8
3
100
AcDbText
 10
226.3514467743152
 20
3695.176002320125
 30
0.0
 40
60.0
  1
600
 50
90.0
100
AcDbText
  0
POINT
  5
7FA1
330
816E
100
AcDbEntity
  8
DEFPOINTS
  6
ByBlock
 62
     0
100
AcDbPoint
 10
355.0964112281989
 20
4072.318859462983
 30
0.0
  0
POINT
  5
7FA2
330
816E
100
AcDbEntity
  8
DEFPOINTS
  6
ByBlock
 62
     0
100
AcDbPoint
 10
355.0964112281989
 20
3472.318859462983
 30
0.0
  0
POINT
  5
7FA3
330
816E
100
AcDbEntity
  8
DEFPOINTS
  6
ByBlock
 62
     0
100
AcDbPoint
 10
236.3514467743152
 20
3472.318859462983
 30
0.0
  0
ENDBLK
  5
7FA4
330
816E
100
AcDbEntity
  8
0
100
AcDbBlockEnd
  0
BLOCK
  5
8171
330
8170
100
AcDbEntity
  8
0
100
AcDbBlockBegin
  2
*D12
 70
     1
 10
0.0
 20
0.0
 30
0.0
  3
*D12
  1

  0
LINE
  5
7EF1
330
8170
100
AcDbEntity
  8
0
  6
ByBlock
100
AcDbLine
 10
355.0964112281989
 20
1695.847673143363
 30
0.0
 11
355.0964112281989
 21
3065.340322853661
 31
0.0
  0
LINE
  5
7EF2
330
8170
100
AcDbEntity
  8
0
  6
ByBlock
100
AcDbLine
 10
1865.096411228199
 20
2336.0123657914
 30
0.0
 11
1865.096411228199
 21
3065.340322853661
 31
0.0
  0
LINE
  5
7EF3
330
8170
100
AcDbEntity
  8
0
  6
ByBlock
100
AcDbLine
 10
395.0964112281989
 20
3045.340322853661
 30
0.0
 11
1825.096411228199
 21
3045.340322853661
 31
0.0
  0
INSERT
  5
7EF4
330
8170
100
AcDbEntity
  8
0
  6
ByBlock
100
AcDbBlockReference
  2
_OPEN
 10
355.0964112281989
 20
3045.340322853661
 30
0.0
 41
40.0
 42
40.0
 43
40.0
 50
180.0
  0
INSERT
  5
7EF5
330
8170
100
AcDbEntity
  8
0
  6
ByBlock
100
AcDbBlockReference
  2
_OPEN
 10
1865.096411228199
 20
3045.340322853661
 30
0.0
 41
40.0
 42
40.0
 43
40.0
  0
TEXT
  5
7EF6
330
8170
100
AcDbEntity
  8
3
100
AcDbText
 10
1015.810696942484
 20
3055.340322853661
 30
0.0
 40
60.0
  1
1510
100
AcDbText
  0
POINT
  5
7EF7
330
8170
100
AcDbEntity
  8
DEFPOINTS
  6
ByBlock
 62
     0
100
AcDbPoint
 10
355.0964112281989
 20
1675.847673143364
 30
0.0
  0
POINT
  5
7EF8
330
8170
100
AcDbEntity
  8
DEFPOINTS
  6
ByBlock
 62
     0
100
AcDbPoint
 10
1865.096411228199
 20
2316.0123657914
 30
0.0
  0
POINT
  5
7EF9
330
8170
100
AcDbEntity
  8
DEFPOINTS
  6
ByBlock
 62
     0
100
AcDbPoint
 10
1865.096411228199
 20
3045.340322853661
 30
0.0
  0
ENDBLK
  5
7EFA
330
8170
100
AcDbEntity
  8
0
100
AcDbBlockEnd
  0
BLOCK
  5
8173
330
8172
100
AcDbEntity
  8
0
100
AcDbBlockBegin
  2
*D13
 70
     1
 10
0.0
 20
0.0
 30
0.0
  3
*D13
  1

  0
LINE
  5
7FB4
330
8172
100
AcDbEntity
  8
0
  6
ByBlock
100
AcDbLine
 10
3892.739608317243
 20
2325.847673143363
 30
0.0
 11
3892.739608317243
 21
3027.283743687152
 31
0.0
  0
LINE
  5
7FB5
330
8172
100
AcDbEntity
  8
0
  6
ByBlock
100
AcDbLine
 10
3392.739608317243
 20
2974.862072621314
 30
0.0
 11
3392.739608317243
 21
3027.283743687152
 31
0.0
  0
LINE
  5
7FB6
330
8172
100
AcDbEntity
  8
0
  6
ByBlock
100
AcDbLine
 10
3852.739608317243
 20
3007.283743687152
 30
0.0
 11
3432.739608317243
 21
3007.283743687152
 31
0.0
  0
INSERT
  5
7FB7
330
8172
100
AcDbEntity
  8
0
  6
ByBlock
100
AcDbBlockReference
  2
_OPEN
 10
3892.739608317243
 20
3007.283743687152
 30
0.0
 41
40.0
 42
40.0
 43
40.0
  0
INSERT
  5
7FB8
330
8172
100
AcDbEntity
  8
0
  6
ByBlock
100
AcDbBlockReference
  2
_OPEN
 10
3392.739608317243
 20
3007.283743687152
 30
0.0
 41
40.0
 42
40.0
 43
40.0
 50
180.0
  0
TEXT
  5
7FB9
330
8172
100
AcDbEntity
  8
3
100
AcDbText
 10
3532.739608317243
 20
3042.998029401438
 30
0.0
 40
60.0
  1
(510)
100
AcDbText
  0
POINT
  5
7FBA
330
8172
100
AcDbEntity
  8
DEFPOINTS
  6
ByBlock
 62
     0
100
AcDbPoint
 10
3892.739608317243
 20
2305.847673143363
 30
0.0
  0
POINT
  5
7FBB
330
8172
100
AcDbEntity
  8
DEFPOINTS
  6
ByBlock
 62
     0
100
AcDbPoint
 10
3392.739608317243
 20
2954.862072621314
 30
0.0
  0
POINT
  5
7FBC
330
8172
100
AcDbEntity
  8
DEFPOINTS
  6
ByBlock
 62
     0
100
AcDbPoint
 10
3392.739608317243
 20
3007.283743687152
 30
0.0
  0
ENDBLK
  5
7FBD
330
8172
100
AcDbEntity
  8
0
100
AcDbBlockEnd
  0
BLOCK
  5
8175
330
8174
100
AcDbEntity
  8
0
100
AcDbBlockBegin
  2
*D14
 70
     1
 10
0.0
 20
0.0
 30
0.0
  3
*D14
  1

  0
LINE
  5
80A6
330
8174
100
AcDbEntity
  8
3
100
AcDbLine
 10
2712.739608317243
 20
2505.847673143364
 30
0.0
 11
2712.739608317243
 21
3027.283743687152
 31
0.0
  0
LINE
  5
80A7
330
8174
100
AcDbEntity
  8
3
100
AcDbLine
 10
3352.739608317243
 20
3007.283743687152
 30
0.0
 11
2752.739608317243
 21
3007.283743687152
 31
0.0
  0
INSERT
  5
80A8
330
8174
100
AcDbEntity
  8
3
100
AcDbBlockReference
  2
_OPEN
 10
3392.739608317243
 20
3007.283743687152
 30
0.0
 41
40.0
 42
40.0
 43
40.0
  0
INSERT
  5
80A9
330
8174
100
AcDbEntity
  8
3
100
AcDbBlockReference
  2
_OPEN
 10
2712.739608317243
 20
3007.283743687152
 30
0.0
 41
40.0
 42
40.0
 43
40.0
 50
180.0
  0
TEXT
  5
80D4
330
8174
100
AcDbEntity
  8
3
100
AcDbText
 10
2932.74
 20
2991.08
 30
0.0
 40
60.0
  1
MAX
100
AcDbText
  0
TEXT
  5
80D5
330
8174
100
AcDbEntity
  8
3
100
AcDbText
 10
2932.74
 20
2913.08
 30
0.0
 40
60.0
  1
710
100
AcDbText
  0
POINT
  5
80AB
330
8174
100
AcDbEntity
  8
DEFPOINTS
 62
     0
100
AcDbPoint
 10
3392.739608317243
 20
2954.862072621314
 30
0.0
  0
POINT
  5
80AC
330
8174
100
AcDbEntity
  8
DEFPOINTS
 62
     0
100
AcDbPoint
 10
2712.739608317243
 20
2485.847673143364
 30
0.0
  0
POINT
  5
80AD
330
8174
100
AcDbEntity
  8
DEFPOINTS
 62
     0
100
AcDbPoint
 10
2712.739608317243
 20
3007.283743687152
 30
0.0
  0
ENDBLK
  5
7FB2
330
8174
100
AcDbEntity
  8
0
100
AcDbBlockEnd
  0
BLOCK
  5
8177
330
8176
100
AcDbEntity
  8
0
100
AcDbBlockBegin
  2
*D15
 70
     1
 10
0.0
 20
0.0
 30
0.0
  3
*D15
  1

  0
LINE
  5
80AE
330
8176
100
AcDbEntity
  8
3
100
AcDbLine
 10
460.7051632629889
 20
4092.318859462981
 30
0.0
 11
460.705163262989
 21
4646.924149961389
 31
0.0
  0
LINE
  5
80AF
330
8176
100
AcDbEntity
  8
3
100
AcDbLine
 10
1070.705163262988
 20
4626.924149961388
 30
0.0
 11
500.7051632629892
 21
4626.924149961388
 31
0.0
  0
INSERT
  5
80B0
330
8176
100
AcDbEntity
  8
3
100
AcDbBlockReference
  2
_OPEN
 10
1110.705163262988
 20
4626.924149961388
 30
0.0
 41
40.0
 42
40.0
 43
40.0
  0
INSERT
  5
80B1
330
8176
100
AcDbEntity
  8
3
100
AcDbBlockReference
  2
_OPEN
 10
460.705163262989
 20
4626.924149961388
 30
0.0
 41
40.0
 42
40.0
 43
40.0
 50
180.0
  0
TEXT
  5
80D6
330
8176
100
AcDbEntity
  8
3
100
AcDbText
 10
665.705
 20
4560.72
 30
0.0
 40
60.0
  1
650
100
AcDbText
  0
POINT
  5
80B3
330
8176
100
AcDbEntity
  8
DEFPOINTS
 62
     0
100
AcDbPoint
 10
1110.705163262988
 20
4478.318859462985
 30
0.0
  0
POINT
  5
80B4
330
8176
100
AcDbEntity
  8
DEFPOINTS
 62
     0
100
AcDbPoint
 10
460.7051632629889
 20
4072.31885946298
 30
0.0
  0
POINT
  5
80B5
330
8176
100
AcDbEntity
  8
DEFPOINTS
 62
     0
100
AcDbPoint
 10
460.705163262989
 20
4626.924149961388
 30
0.0
  0
ENDBLK
  5
7E96
330
8176
100
AcDbEntity
  8
0
100
AcDbBlockEnd
  0
BLOCK
  5
8179
330
8178
100
AcDbEntity
  8
0
100
AcDbBlockBegin
  2
*D16
 70
     1
 10
0.0
 20
0.0
 30
0.0
  3
*D16
  1

  0
LINE
  5
7EFC
330
8178
100
AcDbEntity
  8
0
  6
ByBlock
100
AcDbLine
 10
1865.096411228199
 20
2355.847673143363
 30
0.0
 11
1865.096411228199
 21
2945.066613388714
 31
0.0
  0
LINE
  5
7EFD
330
8178
100
AcDbEntity
  8
0
  6
ByBlock
100
AcDbLine
 10
1405.096411228199
 20
2885.447817660772
 30
0.0
 11
1405.096411228199
 21
2945.066613388714
 31
0.0
  0
LINE
  5
7EFE
330
8178
100
AcDbEntity
  8
0
  6
ByBlock
100
AcDbLine
 10
1825.096411228199
 20
2925.066613388714
 30
0.0
 11
1445.096411228199
 21
2925.066613388714
 31
0.0
  0
INSERT
  5
7EFF
330
8178
100
AcDbEntity
  8
0
  6
ByBlock
100
AcDbBlockReference
  2
_OPEN
 10
1865.096411228199
 20
2925.066613388714
 30
0.0
 41
40.0
 42
40.0
 43
40.0
  0
INSERT
  5
7F00
330
8178
100
AcDbEntity
  8
0
  6
ByBlock
100
AcDbBlockReference
  2
_OPEN
 10
1405.096411228199
 20
2925.066613388714
 30
0.0
 41
40.0
 42
40.0
 43
40.0
 50
180.0
  0
TEXT
  5
7F01
330
8178
100
AcDbEntity
  8
3
100
AcDbText
 10
1557.953554085341
 20
2935.066613388713
 30
0.0
 40
60.0
  1
460
100
AcDbText
  0
POINT
  5
7F02
330
8178
100
AcDbEntity
  8
DEFPOINTS
  6
ByBlock
 62
     0
100
AcDbPoint
 10
1865.096411228199
 20
2335.847673143363
 30
0.0
  0
POINT
  5
7F03
330
8178
100
AcDbEntity
  8
DEFPOINTS
  6
ByBlock
 62
     0
100
AcDbPoint
 10
1405.096411228199
 20
2865.447817660772
 30
0.0
  0
POINT
  5
7F04
330
8178
100
AcDbEntity
  8
DEFPOINTS
  6
ByBlock
 62
     0
100
AcDbPoint
 10
1405.096411228199
 20
2925.066613388714
 30
0.0
  0
ENDBLK
  5
7F05
330
8178
100
AcDbEntity
  8
0
100
AcDbBlockEnd
  0
BLOCK
  5
817B
330
817A
100
AcDbEntity
  8
0
100
AcDbBlockBegin
  2
*D17
 70
     1
 10
0.0
 20
0.0
 30
0.0
  3
*D17
  1

  0
LINE
  5
80B6
330
817A
100
AcDbEntity
  8
3
100
AcDbLine
 10
962.7051632629893
 20
2308.847673143364
 30
0.0
 11
962.7051632629893
 21
2945.066613388714
 31
0.0
  0
LINE
  5
80B7
330
817A
100
AcDbEntity
  8
3
100
AcDbLine
 10
1470.705163262989
 20
2925.066613388714
 30
0.0
 11
1002.705163262989
 21
2925.066613388714
 31
0.0
  0
INSERT
  5
80B8
330
817A
100
AcDbEntity
  8
3
100
AcDbBlockReference
  2
_OPEN
 10
1510.705163262989
 20
2925.066613388714
 30
0.0
 41
40.0
 42
40.0
 43
40.0
  0
INSERT
  5
80B9
330
817A
100
AcDbEntity
  8
3
100
AcDbBlockReference
  2
_OPEN
 10
962.7051632629893
 20
2925.066613388714
 30
0.0
 41
40.0
 42
40.0
 43
40.0
 50
180.0
  0
TEXT
  5
80D7
330
817A
100
AcDbEntity
  8
3
100
AcDbText
 10
1116.71
 20
2858.87
 30
0.0
 40
60.0
  1
548
100
AcDbText
  0
POINT
  5
80BB
330
817A
100
AcDbEntity
  8
DEFPOINTS
 62
     0
100
AcDbPoint
 10
1510.705163262989
 20
2865.447817660772
 30
0.0
  0
POINT
  5
80BC
330
817A
100
AcDbEntity
  8
DEFPOINTS
 62
     0
100
AcDbPoint
 10
962.7051632629893
 20
2288.847673143363
 30
0.0
  0
POINT
  5
80BD
330
817A
100
AcDbEntity
  8
DEFPOINTS
 62
     0
100
AcDbPoint
 10
962.7051632629893
 20
2925.066613388714
 30
0.0
  0
ENDBLK
  5
7F0F
330
817A
100
AcDbEntity
  8
0
100
AcDbBlockEnd
  0
BLOCK
  5
817D
330
817C
100
AcDbEntity
  8
0
100
AcDbBlockBegin
  2
*D18
 70
     1
 10
0.0
 20
0.0
 30
0.0
  3
*D18
  1

  0
LINE
  5
7EAD
330
817C
100
AcDbEntity
  8
0
  6
ByBlock
100
AcDbLine
 10
552.6529963942383
 20
1022.09762645012
 30
0.0
 11
1415.23174880838
 21
1022.09762645012
 31
0.0
  0
LINE
  5
7EAE
330
817C
100
AcDbEntity
  8
0
  6
ByBlock
100
AcDbLine
 10
1126.545969497234
 20
568.0976264501205
 30
0.0
 11
1415.23174880838
 21
568.0976264501205
 31
0.0
  0
LINE
  5
7EAF
330
817C
100
AcDbEntity
  8
0
  6
ByBlock
100
AcDbLine
 10
1395.23174880838
 20
982.0976264501204
 30
0.0
 11
1395.23174880838
 21
608.0976264501205
 31
0.0
  0
INSERT
  5
7EB0
330
817C
100
AcDbEntity
  8
0
  6
ByBlock
100
AcDbBlockReference
  2
_OPEN
 10
1395.23174880838
 20
1022.09762645012
 30
0.0
 41
40.0
 42
40.0
 43
40.0
 50
90.0
  0
INSERT
  5
7EB1
330
817C
100
AcDbEntity
  8
0
  6
ByBlock
100
AcDbBlockReference
  2
_OPEN
 10
1395.23174880838
 20
568.0976264501205
 30
0.0
 41
40.0
 42
40.0
 43
40.0
 50
270.0
  0
TEXT
  5
7EB2
330
817C
100
AcDbEntity
  8
3
100
AcDbText
 10
1385.23174880838
 20
716.526197878692
 30
0.0
 40
60.0
  1
454
 50
90.0
100
AcDbText
  0
POINT
  5
7EB3
330
817C
100
AcDbEntity
  8
DEFPOINTS
  6
ByBlock
 62
     0
100
AcDbPoint
 10
532.6529963942383
 20
1022.09762645012
 30
0.0
  0
POINT
  5
7EB4
330
817C
100
AcDbEntity
  8
DEFPOINTS
  6
ByBlock
 62
     0
100
AcDbPoint
 10
1106.545969497234
 20
568.0976264501205
 30
0.0
  0
POINT
  5
7EB5
330
817C
100
AcDbEntity
  8
DEFPOINTS
  6
ByBlock
 62
     0
100
AcDbPoint
 10
1395.23174880838
 20
568.0976264501205
 30
0.0
  0
ENDBLK
  5
7EB6
330
817C
100
AcDbEntity
  8
0
100
AcDbBlockEnd
  0
BLOCK
  5
817F
330
817E
100
AcDbEntity
  8
0
100
AcDbBlockBegin
  2
*D19
 70
     1
 10
0.0
 20
0.0
 30
0.0
  3
*D19
  1

  0
LINE
  5
80BE
330
817E
100
AcDbEntity
  8
3
100
AcDbLine
 10
1930.705163262989
 20
1535.847673143363
 30
0.0
 11
2346.283915677131
 21
1535.847673143363
 31
0.0
  0
LINE
  5
80BF
330
817E
100
AcDbEntity
  8
3
100
AcDbLine
 10
2326.283915677131
 20
2295.847673143363
 30
0.0
 11
2326.283915677131
 21
1575.847673143363
 31
0.0
  0
INSERT
  5
80C0
330
817E
100
AcDbEntity
  8
3
100
AcDbBlockReference
  2
_OPEN
 10
2326.283915677131
 20
2335.847673143363
 30
0.0
 41
40.0
 42
40.0
 43
40.0
 50
90.0
  0
INSERT
  5
80C1
330
817E
100
AcDbEntity
  8
3
100
AcDbBlockReference
  2
_OPEN
 10
2326.283915677131
 20
1535.847673143363
 30
0.0
 41
40.0
 42
40.0
 43
40.0
 50
270.0
  0
TEXT
  5
80D8
330
817E
100
AcDbEntity
  8
3
100
AcDbText
 10
2166.28
 20
1829.65
 30
0.0
 40
60.0
  1
800
100
AcDbText
  0
POINT
  5
80C3
330
817E
100
AcDbEntity
  8
DEFPOINTS
 62
     0
100
AcDbPoint
 10
2037.598136365985
 20
2335.847673143363
 30
0.0
  0
POINT
  5
80C4
330
817E
100
AcDbEntity
  8
DEFPOINTS
 62
     0
100
AcDbPoint
 10
1910.705163262989
 20
1535.847673143363
 30
0.0
  0
POINT
  5
80C5
330
817E
100
AcDbEntity
  8
DEFPOINTS
 62
     0
100
AcDbPoint
 10
2326.283915677131
 20
1535.847673143363
 30
0.0
  0
ENDBLK
  5
7EC0
330
817E
100
AcDbEntity
  8
0
100
AcDbBlockEnd
  0
BLOCK
  5
8181
330
8180
100
AcDbEntity
  8
0
100
AcDbBlockBegin
  2
*D20
 70
     1
 10
0.0
 20
0.0
 30
0.0
  3
*D20
  1

  0
LINE
  5
80C6
330
8180
100
AcDbEntity
  8
3
 62
     0
100
AcDbLine
 10
1920.705163262988
 20
1440.847673143363
 30
0.0
 11
2346.283915677131
 21
1440.847673143363
 31
0.0
  0
LINE
  5
80C7
330
8180
100
AcDbEntity
  8
3
 62
     0
100
AcDbLine
 10
1920.705163262988
 20
1340.847673143364
 30
0.0
 11
2346.283915677131
 21
1340.847673143364
 31
0.0
  0
LINE
  5
80C8
330
8180
100
AcDbEntity
  8
3
 62
     0
100
AcDbLine
 10
2326.283915677131
 20
1480.847673143363
 30
0.0
 11
2326.283915677131
 21
1520.847673143363
 31
0.0
  0
LINE
  5
80C9
330
8180
100
AcDbEntity
  8
3
 62
     0
100
AcDbLine
 10
2326.283915677131
 20
1300.847673143364
 30
0.0
 11
2326.283915677131
 21
1077.99053028622
 31
0.0
  0
LINE
  5
80CA
330
8180
100
AcDbEntity
  8
3
 62
     0
100
AcDbLine
 10
2326.283915677131
 20
1440.847673143363
 30
0.0
 11
2326.283915677131
 21
1340.847673143364
 31
0.0
  0
INSERT
  5
80CB
330
8180
100
AcDbEntity
  8
3
 62
     0
100
AcDbBlockReference
  2
_DOT
 10
2326.283915677131
 20
1440.847673143363
 30
0.0
 41
40.0
 42
40.0
 43
40.0
 50
270.0
  0
INSERT
  5
80CC
330
8180
100
AcDbEntity
  8
3
 62
     0
100
AcDbBlockReference
  2
_OPEN
 10
2326.283915677131
 20
1340.847673143364
 30
0.0
 41
40.0
 42
40.0
 43
40.0
 50
90.0
  0
TEXT
  5
80D9
330
8180
100
AcDbEntity
  8
3
 62
     0
100
AcDbText
 10
2156.28
 20
1063.22
 30
0.0
 40
60.0
  1
100
100
AcDbText
  0
POINT
  5
80CE
330
8180
100
AcDbEntity
  8
DEFPOINTS
 62
     0
100
AcDbPoint
 10
1910.705163262989
 20
1440.847673143363
 30
0.0
  0
POINT
  5
80CF
330
8180
100
AcDbEntity
  8
DEFPOINTS
 62
     0
100
AcDbPoint
 10
1910.705163262989
 20
1340.847673143364
 30
0.0
  0
POINT
  5
80D0
330
8180
100
AcDbEntity
  8
DEFPOINTS
 62
     0
100
AcDbPoint
 10
2326.283915677131
 20
1340.847673143364
 30
0.0
  0
ENDBLK
  5
7F8C
330
8180
100
AcDbEntity
  8
0
100
AcDbBlockEnd
  0
BLOCK
  5
8183
330
8182
100
AcDbEntity
  8
0
100
AcDbBlockBegin
  2
_DOT
 70
     0
 10
0.0
 20
0.0
 30
0.0
  3
_DOT
  1

  0
LWPOLYLINE
  5
7F8F
330
8182
100
AcDbEntity
  8
0
  6
ByBlock
 62
     0
100
AcDbPolyline
 90
        2
 70
     1
 43
0.25
 10
-0.125
 20
0.0
 42
1.0
 10
0.125
 20
0.0
 42
1.0
  0
LINE
  5
7F93
330
8182
100
AcDbEntity
  8
0
  6
ByBlock
 62
     0
100
AcDbLine
 10
-0.25
 20
0.0
 30
0.0
 11
-1.0
 21
0.0
 31
0.0
  0
ENDBLK
  5
7F72
330
8182
100
AcDbEntity
  8
0
100
AcDbBlockEnd
  0
BLOCK
  5
8185
330
8184
100
AcDbEntity
  8
0
100
AcDbBlockBegin
  2
*D22
 70
     1
 10
0.0
 20
0.0
 30
0.0
  3
*D22
  1

  0
LINE
  5
7FC8
330
8184
100
AcDbEntity
  8
0
  6
ByBlock
 62
     0
100
AcDbLine
 10
460.7051632629889
 20
1388.847673143364
 30
0.0
 11
460.7051632629889
 21
1234.019137452367
 31
0.0
  0
LINE
  5
7FC9
330
8184
100
AcDbEntity
  8
0
  6
ByBlock
 62
     0
100
AcDbLine
 10
1510.705163262989
 20
1388.847673143364
 30
0.0
 11
1510.705163262989
 21
1234.019137452367
 31
0.0
  0
LINE
  5
7FCA
330
8184
100
AcDbEntity
  8
0
  6
ByBlock
 62
     0
100
AcDbLine
 10
500.7051632629891
 20
1254.019137452367
 30
0.0
 11
1470.705163262989
 21
1254.019137452367
 31
0.0
  0
INSERT
  5
7FCB
330
8184
100
AcDbEntity
  8
0
  6
ByBlock
 62
     0
100
AcDbBlockReference
  2
_OPEN
 10
460.7051632629889
 20
1254.019137452367
 30
0.0
 41
40.0
 42
40.0
 43
40.0
 50
180.0
  0
INSERT
  5
7FCC
330
8184
100
AcDbEntity
  8
0
  6
ByBlock
 62
     0
100
AcDbBlockReference
  2
_OPEN
 10
1510.705163262989
 20
1254.019137452367
 30
0.0
 41
40.0
 42
40.0
 43
40.0
  0
TEXT
  5
7FCD
330
8184
100
AcDbEntity
  8
3
 62
     0
100
AcDbText
 10
885.705163262989
 20
1274.019137452367
 30
0.0
 40
60.0
  1
1050
100
AcDbText
  0
POINT
  5
7FCE
330
8184
100
AcDbEntity
  8
DEFPOINTS
  6
ByBlock
 62
     0
100
AcDbPoint
 10
460.7051632629889
 20
1408.847673143363
 30
0.0
  0
POINT
  5
7FCF
330
8184
100
AcDbEntity
  8
DEFPOINTS
  6
ByBlock
 62
     0
100
AcDbPoint
 10
1510.705163262989
 20
1408.847673143363
 30
0.0
  0
POINT
  5
7FD0
330
8184
100
AcDbEntity
  8
DEFPOINTS
  6
ByBlock
 62
     0
100
AcDbPoint
 10
1510.705163262989
 20
1254.019137452367
 30
0.0
  0
ENDBLK
  5
7FD1
330
8184
100
AcDbEntity
  8
0
100
AcDbBlockEnd
  0
BLOCK
  5
8187
330
8186
100
AcDbEntity
  8
0
100
AcDbBlockBegin
  2
*D23
 70
     1
 10
0.0
 20
0.0
 30
0.0
  3
*D23
  1

  0
LINE
  5
7FD5
330
8186
100
AcDbEntity
  8
0
  6
ByBlock
 62
     0
100
AcDbLine
 10
1510.705163262989
 20
1388.847673143364
 30
0.0
 11
1510.705163262989
 21
1234.019137452367
 31
0.0
  0
LINE
  5
7FD6
330
8186
100
AcDbEntity
  8
0
  6
ByBlock
 62
     0
100
AcDbLine
 10
1910.705163262989
 20
1388.847673143364
 30
0.0
 11
1910.705163262989
 21
1234.019137452367
 31
0.0
  0
LINE
  5
7FD7
330
8186
100
AcDbEntity
  8
0
  6
ByBlock
 62
     0
100
AcDbLine
 10
1550.705163262988
 20
1254.019137452367
 30
0.0
 11
1870.705163262989
 21
1254.019137452367
 31
0.0
  0
INSERT
  5
7FD8
330
8186
100
AcDbEntity
  8
0
  6
ByBlock
 62
     0
100
AcDbBlockReference
  2
_OPEN
 10
1510.705163262989
 20
1254.019137452367
 30
0.0
 41
40.0
 42
40.0
 43
40.0
 50
180.0
  0
INSERT
  5
7FD9
330
8186
100
AcDbEntity
  8
0
  6
ByBlock
 62
     0
100
AcDbBlockReference
  2
_OPEN
 10
1910.705163262989
 20
1254.019137452367
 30
0.0
 41
40.0
 42
40.0
 43
40.0
  0
TEXT
  5
7FDA
330
8186
100
AcDbEntity
  8
3
 62
     0
100
AcDbText
 10
1633.562306120132
 20
1274.019137452367
 30
0.0
 40
60.0
  1
400
100
AcDbText
  0
POINT
  5
7FDB
330
8186
100
AcDbEntity
  8
DEFPOINTS
  6
ByBlock
 62
     0
100
AcDbPoint
 10
1510.705163262989
 20
1408.847673143363
 30
0.0
  0
POINT
  5
7FDC
330
8186
100
AcDbEntity
  8
DEFPOINTS
  6
ByBlock
 62
     0
100
AcDbPoint
 10
1910.705163262989
 20
1408.847673143363
 30
0.0
  0
POINT
  5
7FDD
330
8186
100
AcDbEntity
  8
DEFPOINTS
  6
ByBlock
 62
     0
100
AcDbPoint
 10
1910.705163262989
 20
1254.019137452367
 30
0.0
  0
ENDBLK
  5
7FDE
330
8186
100
AcDbEntity
  8
0
100
AcDbBlockEnd
  0
BLOCK
  5
8189
330
8188
100
AcDbEntity
  8
0
100
AcDbBlockBegin
  2
*D24
 70
     1
 10
0.0
 20
0.0
 30
0.0
  3
*D24
  1

  0
LINE
  5
7FE2
330
8188
100
AcDbEntity
  8
0
  6
ByBlock
 62
     0
100
AcDbLine
 10
2839.739608317243
 20
1388.847673143364
 30
0.0
 11
2839.739608317243
 21
1234.019137452367
 31
0.0
  0
LINE
  5
7FE3
330
8188
100
AcDbEntity
  8
0
  6
ByBlock
 62
     0
100
AcDbLine
 10
3392.739608317243
 20
1388.847673143364
 30
0.0
 11
3392.739608317243
 21
1234.019137452367
 31
0.0
  0
LINE
  5
7FE4
330
8188
100
AcDbEntity
  8
0
  6
ByBlock
 62
     0
100
AcDbLine
 10
2879.739608317243
 20
1254.019137452367
 30
0.0
 11
3352.739608317243
 21
1254.019137452367
 31
0.0
  0
INSERT
  5
7FE5
330
8188
100
AcDbEntity
  8
0
  6
ByBlock
 62
     0
100
AcDbBlockReference
  2
_OPEN
 10
2839.739608317243
 20
1254.019137452367
 30
0.0
 41
40.0
 42
40.0
 43
40.0
 50
180.0
  0
INSERT
  5
7FE6
330
8188
100
AcDbEntity
  8
0
  6
ByBlock
 62
     0
100
AcDbBlockReference
  2
_OPEN
 10
3392.739608317243
 20
1254.019137452367
 30
0.0
 41
40.0
 42
40.0
 43
40.0
  0
TEXT
  5
7FE7
330
8188
100
AcDbEntity
  8
3
 62
     0
100
AcDbText
 10
3039.096751174386
 20
1274.019137452367
 30
0.0
 40
60.0
  1
553
100
AcDbText
  0
POINT
  5
7FE8
330
8188
100
AcDbEntity
  8
DEFPOINTS
  6
ByBlock
 62
     0
100
AcDbPoint
 10
2839.739608317243
 20
1408.847673143363
 30
0.0
  0
POINT
  5
7FE9
330
8188
100
AcDbEntity
  8
DEFPOINTS
  6
ByBlock
 62
     0
100
AcDbPoint
 10
3392.739608317243
 20
1408.847673143363
 30
0.0
  0
POINT
  5
7FEA
330
8188
100
AcDbEntity
  8
DEFPOINTS
  6
ByBlock
 62
     0
100
AcDbPoint
 10
3392.739608317243
 20
1254.019137452367
 30
0.0
  0
ENDBLK
  5
7FEB
330
8188
100
AcDbEntity
  8
0
100
AcDbBlockEnd
  0
BLOCK
  5
818B
330
818A
100
AcDbEntity
  8
0
100
AcDbBlockBegin
  2
*D25
 70
     1
 10
0.0
 20
0.0
 30
0.0
  3
*D25
  1

  0
LINE
  5
7FEF
330
818A
100
AcDbEntity
  8
0
  6
ByBlock
 62
     0
100
AcDbLine
 10
3392.739608317243
 20
1388.847673143364
 30
0.0
 11
3392.739608317243
 21
1234.019137452367
 31
0.0
  0
LINE
  5
7FF0
330
818A
100
AcDbEntity
  8
0
  6
ByBlock
 62
     0
100
AcDbLine
 10
3845.739608317244
 20
1388.847673143364
 30
0.0
 11
3845.739608317244
 21
1234.019137452367
 31
0.0
  0
LINE
  5
7FF1
330
818A
100
AcDbEntity
  8
0
  6
ByBlock
 62
     0
100
AcDbLine
 10
3432.739608317243
 20
1254.019137452367
 30
0.0
 11
3805.739608317243
 21
1254.019137452367
 31
0.0
  0
INSERT
  5
7FF2
330
818A
100
AcDbEntity
  8
0
  6
ByBlock
 62
     0
100
AcDbBlockReference
  2
_OPEN
 10
3392.739608317243
 20
1254.019137452367
 30
0.0
 41
40.0
 42
40.0
 43
40.0
 50
180.0
  0
INSERT
  5
7FF3
330
818A
100
AcDbEntity
  8
0
  6
ByBlock
 62
     0
100
AcDbBlockReference
  2
_OPEN
 10
3845.739608317244
 20
1254.019137452367
 30
0.0
 41
40.0
 42
40.0
 43
40.0
  0
TEXT
  5
7FF4
330
818A
100
AcDbEntity
  8
3
 62
     0
100
AcDbText
 10
3542.096751174386
 20
1274.019137452367
 30
0.0
 40
60.0
  1
453
100
AcDbText
  0
POINT
  5
7FF5
330
818A
100
AcDbEntity
  8
DEFPOINTS
  6
ByBlock
 62
     0
100
AcDbPoint
 10
3392.739608317243
 20
1408.847673143363
 30
0.0
  0
POINT
  5
7FF6
330
818A
100
AcDbEntity
  8
DEFPOINTS
  6
ByBlock
 62
     0
100
AcDbPoint
 10
3845.739608317244
 20
1408.847673143363
 30
0.0
  0
POINT
  5
7FF7
330
818A
100
AcDbEntity
  8
DEFPOINTS
  6
ByBlock
 62
     0
100
AcDbPoint
 10
3845.739608317244
 20
1254.019137452367
 30
0.0
  0
ENDBLK
  5
7FF8
330
818A
100
AcDbEntity
  8
0
100
AcDbBlockEnd
  0
BLOCK
  5
818D
330
818C
100
AcDbEntity
  8
0
100
AcDbBlockBegin
  2
_NONE
 70
     0
 10
0.0
 20
0.0
 30
0.0
  3
_NONE
  1

  0
CIRCLE
  5
7FFC
330
818C
100
AcDbEntity
  8
0
  6
ByBlock
 62
     0
100
AcDbCircle
 10
0.0
 20
0.0
 30
0.0
 40
0.25
  0
ENDBLK
  5
7FFD
330
818C
100
AcDbEntity
  8
0
100
AcDbBlockEnd
  0
BLOCK
  5
818F
330
818E
100
AcDbEntity
  8
0
100
AcDbBlockBegin
  2
*D27
 70
     1
 10
0.0
 20
0.0
 30
0.0
  3
*D27
  1

  0
LINE
  5
801A
330
818E
100
AcDbEntity
  8
0
  6
ByBlock
 62
     0
100
AcDbLine
 10
2326.3209150078
 20
1440.847673143363
 30
0.0
 11
2326.3209150078
 21
1535.847673143363
 31
0.0
  0
TEXT
  5
801B
330
818E
100
AcDbEntity
  8
3
 62
     0
100
AcDbText
 10
2442.035200722086
 20
1401.204816000506
 30
0.0
 40
60.0
  1
(95)
 50
90.0
100
AcDbText
  0
POINT
  5
801C
330
818E
100
AcDbEntity
  8
DEFPOINTS
  6
ByBlock
 62
     0
100
AcDbPoint
 10
1910.705163262989
 20
1440.847673143363
 30
0.0
  0
POINT
  5
801D
330
818E
100
AcDbEntity
  8
DEFPOINTS
  6
ByBlock
 62
     0
100
AcDbPoint
 10
1910.705163262989
 20
1535.847673143363
 30
0.0
  0
POINT
  5
801E
330
818E
100
AcDbEntity
  8
DEFPOINTS
  6
ByBlock
 62
     0
100
AcDbPoint
 10
2326.3209150078
 20
1535.847673143363
 30
0.0
  0
ENDBLK
  5
801F
330
818E
100
AcDbEntity
  8
0
100
AcDbBlockEnd
  0
BLOCK
  5
8191
330
8190
100
AcDbEntity
  8
0
100
AcDbBlockBegin
  2
*D28
 70
     1
 10
0.0
 20
0.0
 30
0.0
  3
*D28
  1

  0
LINE
  5
8023
330
8190
100
AcDbEntity
  8
0
  6
ByBlock
 62
     0
100
AcDbLine
 10
1930.705163262989
 20
1340.847673143364
 30
0.0
 11
2500.779089015155
 21
1340.847673143364
 31
0.0
  0
LINE
  5
8024
330
8190
100
AcDbEntity
  8
0
  6
ByBlock
 62
     0
100
AcDbLine
 10
1503.705163262989
 20
2789.847673143365
 30
0.0
 11
2500.779089015155
 21
2789.847673143365
 31
0.0
  0
LINE
  5
8025
330
8190
100
AcDbEntity
  8
0
  6
ByBlock
 62
     0
100
AcDbLine
 10
2480.779089015155
 20
1380.847673143364
 30
0.0
 11
2480.779089015155
 21
2749.847673143364
 31
0.0
  0
INSERT
  5
8026
330
8190
100
AcDbEntity
  8
0
  6
ByBlock
 62
     0
100
AcDbBlockReference
  2
_OPEN
 10
2480.779089015155
 20
1340.847673143364
 30
0.0
 41
40.0
 42
40.0
 43
40.0
 50
270.0
  0
INSERT
  5
8027
330
8190
100
AcDbEntity
  8
0
  6
ByBlock
 62
     0
100
AcDbBlockReference
  2
_OPEN
 10
2480.779089015155
 20
2789.847673143365
 30
0.0
 41
40.0
 42
40.0
 43
40.0
 50
90.0
  0
TEXT
  5
8028
330
8190
100
AcDbEntity
  8
3
 62
     0
100
AcDbText
 10
2435.064803300869
 20
1926.776244571935
 30
0.0
 40
60.0
  1
(1449)
 50
90.0
100
AcDbText
  0
POINT
  5
8029
330
8190
100
AcDbEntity
  8
DEFPOINTS
  6
ByBlock
 62
     0
100
AcDbPoint
 10
1910.705163262989
 20
1340.847673143364
 30
0.0
  0
POINT
  5
802A
330
8190
100
AcDbEntity
  8
DEFPOINTS
  6
ByBlock
 62
     0
100
AcDbPoint
 10
1483.705163262989
 20
2789.847673143365
 30
0.0
  0
POINT
  5
802B
330
8190
100
AcDbEntity
  8
DEFPOINTS
  6
ByBlock
 62
     0
100
AcDbPoint
 10
2480.779089015155
 20
2789.847673143365
 30
0.0
  0
ENDBLK
  5
802C
330
8190
100
AcDbEntity
  8
0
100
AcDbBlockEnd
  0
BLOCK
  5
8198
330
8197
100
AcDbEntity
  8
0
100
AcDbBlockBegin
  2
*D29
 70
     1
 10
0.0
 20
0.0
 30
0.0
  3
*D29
  1

  0
LINE
  5
83D6
330
8197
100
AcDbEntity
  8
3
 62
     0
370
    -2
100
AcDbLine
 10
2612.739608317243
 20
2505.847673143364
 30
0.0
 11
2612.739608317243
 21
3038.814889721371
 31
0.0
  0
LINE
  5
83D7
330
8197
100
AcDbEntity
  8
3
 62
     0
370
    -2
100
AcDbLine
 10
3392.739608317243
 20
2962.042161577987
 30
0.0
 11
3392.739608317243
 21
3038.814889721371
 31
0.0
  0
LINE
  5
83D8
330
8197
100
AcDbEntity
  8
3
 62
     0
370
    -2
100
AcDbLine
 10
2652.739608317243
 20
3018.814889721371
 30
0.0
 11
3352.739608317243
 21
3018.814889721371
 31
0.0
  0
INSERT
  5
83D9
330
8197
100
AcDbEntity
  8
3
 62
     0
370
    -2
100
AcDbBlockReference
  2
_OPEN
 10
2612.739608317243
 20
3018.814889721371
 30
0.0
 41
40.0
 42
40.0
 43
40.0
 50
180.0
  0
INSERT
  5
83DA
330
8197
100
AcDbEntity
  8
3
 62
     0
370
    -2
100
AcDbBlockReference
  2
_OPEN
 10
3392.739608317243
 20
3018.814889721371
 30
0.0
 41
40.0
 42
40.0
 43
40.0
  0
MTEXT
  5
83DB
330
8197
100
AcDbEntity
  8
3
 62
     0
100
AcDbMText
 10
3002.739608317243
 20
3084.529175435656
 30
0.0
 40
60.0
 41
0.0
 71
     5
 72
     1
  1
\A1;(780)
 73
     1
 44
1.0
1001
ACAD
1000
MTEXTBEGIN
1070
    73
1070
     1
1070
    44
1040
1.0
1070
    74
1070
     0
1000
MTEXTEND
  0
POINT
  5
83DC
330
8197
100
AcDbEntity
  8
DEFPOINTS
 62
     0
100
AcDbPoint
 10
2612.739608317243
 20
2485.847673143364
 30
0.0
  0
POINT
  5
83DD
330
8197
100
AcDbEntity
  8
DEFPOINTS
 62
     0
100
AcDbPoint
 10
3392.739608317243
 20
2942.042161577987
 30
0.0
  0
POINT
  5
83DE
330
8197
100
AcDbEntity
  8
DEFPOINTS
 62
     0
100
AcDbPoint
 10
3392.739608317243
 20
3018.814889721371
 30
0.0
  0
ENDBLK
  5
8199
330
8197
100
AcDbEntity
  8
0
100
AcDbBlockEnd
  0
BLOCK
  5
81A5
330
81A4
100
AcDbEntity
  8
0
100
AcDbBlockBegin
  2
*D30
 70
     1
 10
0.0
 20
0.0
 30
0.0
  3
*D30
  1

  0
LINE
  5
83E8
330
81A4
100
AcDbEntity
  8
3
 62
     0
370
    -2
100
AcDbLine
 10
3392.739608317243
 20
2962.042161577987
 30
0.0
 11
3392.739608317243
 21
3038.814889721371
 31
0.0
  0
LINE
  5
83E9
330
81A4
100
AcDbEntity
  8
3
 62
     0
370
    -2
100
AcDbLine
 10
3902.739608317244
 20
2325.847673143363
 30
0.0
 11
3902.739608317244
 21
3038.814889721371
 31
0.0
  0
LINE
  5
83EA
330
81A4
100
AcDbEntity
  8
3
 62
     0
370
    -2
100
AcDbLine
 10
3432.739608317243
 20
3018.814889721371
 30
0.0
 11
3862.739608317244
 21
3018.814889721371
 31
0.0
  0
INSERT
  5
83EB
330
81A4
100
AcDbEntity
  8
3
 62
     0
370
    -2
100
AcDbBlockReference
  2
_OPEN
 10
3392.739608317243
 20
3018.814889721371
 30
0.0
 41
40.0
 42
40.0
 43
40.0
 50
180.0
  0
INSERT
  5
83EC
330
81A4
100
AcDbEntity
  8
3
 62
     0
370
    -2
100
AcDbBlockReference
  2
_OPEN
 10
3902.739608317244
 20
3018.814889721371
 30
0.0
 41
40.0
 42
40.0
 43
40.0
  0
MTEXT
  5
83ED
330
81A4
100
AcDbEntity
  8
3
 62
     0
100
AcDbMText
 10
3647.739608317244
 20
3084.529175435656
 30
0.0
 40
60.0
 41
0.0
 71
     5
 72
     1
  1
\A1;(510)
 73
     1
 44
1.0
1001
ACAD
1000
MTEXTBEGIN
1070
    73
1070
     1
1070
    44
1040
1.0
1070
    74
1070
     0
1000
MTEXTEND
  0
POINT
  5
83EE
330
81A4
100
AcDbEntity
  8
DEFPOINTS
 62
     0
100
AcDbPoint
 10
3392.739608317243
 20
2942.042161577987
 30
0.0
  0
POINT
  5
83EF
330
81A4
100
AcDbEntity
  8
DEFPOINTS
 62
     0
100
AcDbPoint
 10
3902.739608317244
 20
2305.847673143363
 30
0.0
  0
POINT
  5
83F0
330
81A4
100
AcDbEntity
  8
DEFPOINTS
 62
     0
100
AcDbPoint
 10
3902.739608317244
 20
3018.814889721371
 30
0.0
  0
ENDBLK
  5
81A6
330
81A4
100
AcDbEntity
  8
0
100
AcDbBlockEnd
  0
BLOCK
  5
81D6
330
81D5
100
AcDbEntity
  8
0
100
AcDbBlockBegin
  2
*D31
 70
     1
 10
0.0
 20
0.0
 30
0.0
  3
*D31
  1

  0
LINE
  5
81D8
330
81D5
100
AcDbEntity
  8
3
 62
     0
370
    -2
100
AcDbLine
 10
460.7051632629889
 20
3452.318859462983
 30
0.0
 11
460.7051632629889
 21
3110.484068333541
 31
0.0
  0
LINE
  5
81D9
330
81D5
100
AcDbEntity
  8
3
 62
     0
370
    -2
100
AcDbLine
 10
1910.705163262989
 20
3452.318859462983
 30
0.0
 11
1910.705163262989
 21
3110.484068333541
 31
0.0
  0
LINE
  5
81DA
330
81D5
100
AcDbEntity
  8
3
 62
     0
370
    -2
100
AcDbLine
 10
500.7051632629889
 20
3130.484068333541
 30
0.0
 11
1870.705163262989
 21
3130.484068333541
 31
0.0
  0
INSERT
  5
81DB
330
81D5
100
AcDbEntity
  8
3
 62
     0
370
    -2
100
AcDbBlockReference
  2
_OPEN
 10
460.7051632629889
 20
3130.484068333541
 30
0.0
 41
40.0
 42
40.0
 43
40.0
 50
180.0
  0
INSERT
  5
81DC
330
81D5
100
AcDbEntity
  8
3
 62
     0
370
    -2
100
AcDbBlockReference
  2
_OPEN
 10
1910.705163262989
 20
3130.484068333541
 30
0.0
 41
40.0
 42
40.0
 43
40.0
  0
MTEXT
  5
81DD
330
81D5
100
AcDbEntity
  8
3
 62
     0
100
AcDbMText
 10
1185.705163262989
 20
3180.484068333541
 30
0.0
 40
60.0
 41
0.0
 71
     5
 72
     1
  1
\A1;1450
 73
     1
 44
1.0
1001
ACAD
1000
MTEXTBEGIN
1070
    73
1070
     1
1070
    44
1040
1.0
1070
    74
1070
     0
1000
MTEXTEND
  0
POINT
  5
81DE
330
81D5
100
AcDbEntity
  8
DEFPOINTS
 62
     0
100
AcDbPoint
 10
460.7051632629889
 20
3472.318859462983
 30
0.0
  0
POINT
  5
81DF
330
81D5
100
AcDbEntity
  8
DEFPOINTS
 62
     0
100
AcDbPoint
 10
1910.705163262989
 20
3472.318859462983
 30
0.0
  0
POINT
  5
81E0
330
81D5
100
AcDbEntity
  8
DEFPOINTS
 62
     0
100
AcDbPoint
 10
1910.705163262989
 20
3130.484068333541
 30
0.0
  0
ENDBLK
  5
81D7
330
81D5
100
AcDbEntity
  8
0
100
AcDbBlockEnd
  0
BLOCK
  5
81E3
330
81E2
100
AcDbEntity
  8
0
100
AcDbBlockBegin
  2
*D32
 70
     1
 10
0.0
 20
0.0
 30
0.0
  3
*D32
  1

  0
LINE
  5
81F7
330
81E2
100
AcDbEntity
  8
3
 62
     0
370
    -2
100
AcDbLine
 10
1110.705163262988
 20
4498.318859462986
 30
0.0
 11
1110.705163262988
 21
4646.924149961387
 31
0.0
  0
LINE
  5
81F8
330
81E2
100
AcDbEntity
  8
3
 62
     0
370
    -2
100
AcDbLine
 10
460.7051632629889
 20
4092.318859462983
 30
0.0
 11
460.705163262989
 21
4646.924149961387
 31
0.0
  0
LINE
  5
81F9
330
81E2
100
AcDbEntity
  8
3
 62
     0
370
    -2
100
AcDbLine
 10
1070.705163262988
 20
4626.924149961388
 30
0.0
 11
500.705163262989
 21
4626.924149961388
 31
0.0
  0
INSERT
  5
81FA
330
81E2
100
AcDbEntity
  8
3
 62
     0
370
    -2
100
AcDbBlockReference
  2
_OPEN
 10
1110.705163262988
 20
4626.924149961388
 30
0.0
 41
40.0
 42
40.0
 43
40.0
  0
INSERT
  5
81FB
330
81E2
100
AcDbEntity
  8
3
 62
     0
370
    -2
100
AcDbBlockReference
  2
_OPEN
 10
460.705163262989
 20
4626.924149961388
 30
0.0
 41
40.0
 42
40.0
 43
40.0
 50
180.0
  0
MTEXT
  5
81FC
330
81E2
100
AcDbEntity
  8
3
 62
     0
100
AcDbMText
 10
785.7051632629889
 20
4676.924149961387
 30
0.0
 40
60.0
 41
0.0
 71
     5
 72
     1
  1
\A1;650
 73
     1
 44
1.0
1001
ACAD
1000
MTEXTBEGIN
1070
    73
1070
     1
1070
    44
1040
1.0
1070
    74
1070
     0
1000
MTEXTEND
  0
POINT
  5
81FD
330
81E2
100
AcDbEntity
  8
DEFPOINTS
 62
     0
100
AcDbPoint
 10
1110.705163262988
 20
4478.318859462985
 30
0.0
  0
POINT
  5
81FE
330
81E2
100
AcDbEntity
  8
DEFPOINTS
 62
     0
100
AcDbPoint
 10
460.7051632629889
 20
4072.318859462983
 30
0.0
  0
POINT
  5
81FF
330
81E2
100
AcDbEntity
  8
DEFPOINTS
 62
     0
100
AcDbPoint
 10
460.705163262989
 20
4626.924149961388
 30
0.0
  0
ENDBLK
  5
81E4
330
81E2
100
AcDbEntity
  8
0
100
AcDbBlockEnd
  0
BLOCK
  5
8201
330
8200
100
AcDbEntity
  8
0
100
AcDbBlockBegin
  2
*D33
 70
     1
 10
0.0
 20
0.0
 30
0.0
  3
*D33
  1

  0
LINE
  5
8203
330
8200
100
AcDbEntity
  8
3
 62
     0
370
    -2
100
AcDbLine
 10
460.7051632629889
 20
1335.847673143364
 30
0.0
 11
460.7051632629889
 21
1197.419137452367
 31
0.0
  0
LINE
  5
8204
330
8200
100
AcDbEntity
  8
3
 62
     0
370
    -2
100
AcDbLine
 10
1510.705163262989
 20
1335.847673143364
 30
0.0
 11
1510.705163262989
 21
1197.419137452367
 31
0.0
  0
LINE
  5
8205
330
8200
100
AcDbEntity
  8
3
 62
     0
370
    -2
100
AcDbLine
 10
464.3051632629889
 20
1201.019137452367
 30
0.0
 11
977.905163262989
 21
1201.019137452367
 31
0.0
  0
LINE
  5
8206
330
8200
100
AcDbEntity
  8
3
 62
     0
370
    -2
100
AcDbLine
 10
1507.105163262989
 20
1201.019137452367
 30
0.0
 11
993.5051632629889
 21
1201.019137452367
 31
0.0
  0
SOLID
  5
8207
330
8200
100
AcDbEntity
  8
3
 62
     0
100
AcDbTrace
 10
464.3051632629889
 20
1201.619137452367
 30
0.0
 11
464.3051632629889
 21
1200.419137452367
 31
0.0
 12
460.7051632629889
 22
1201.019137452367
 32
0.0
 13
460.7051632629889
 23
1201.019137452367
 33
0.0
  0
SOLID
  5
8208
330
8200
100
AcDbEntity
  8
3
 62
     0
100
AcDbTrace
 10
1507.105163262989
 20
1201.619137452367
 30
0.0
 11
1507.105163262989
 21
1200.419137452367
 31
0.0
 12
1510.705163262989
 22
1201.019137452367
 32
0.0
 13
1510.705163262989
 23
1201.019137452367
 33
0.0
  0
MTEXT
  5
8209
330
8200
100
AcDbEntity
  8
3
 62
     0
100
AcDbMText
 10
985.705163262989
 20
1201.019137452367
 30
0.0
 40
3.599999999999999
 41
0.0
 71
     5
 72
     1
  1
\A1;1050
 73
     1
 44
1.0
1001
ACAD
1000
MTEXTBEGIN
1070
    73
1070
     1
1070
    44
1040
1.0
1070
    74
1070
     0
1000
MTEXTEND
  0
POINT
  5
820A
330
8200
100
AcDbEntity
  8
DEFPOINTS
 62
     0
100
AcDbPoint
 10
460.7051632629889
 20
1355.847673143364
 30
0.0
  0
POINT
  5
820B
330
8200
100
AcDbEntity
  8
DEFPOINTS
 62
     0
100
AcDbPoint
 10
1510.705163262989
 20
1355.847673143364
 30
0.0
  0
POINT
  5
820C
330
8200
100
AcDbEntity
  8
DEFPOINTS
 62
     0
100
AcDbPoint
 10
1510.705163262989
 20
1201.019137452367
 30
0.0
  0
ENDBLK
  5
8202
330
8200
100
AcDbEntity
  8
0
100
AcDbBlockEnd
  0
BLOCK
  5
820E
330
820D
100
AcDbEntity
  8
0
100
AcDbBlockBegin
  2
*D34
 70
     1
 10
0.0
 20
0.0
 30
0.0
  3
*D34
  1

  0
LINE
  5
8210
330
820D
100
AcDbEntity
  8
3
 62
     0
370
    -2
100
AcDbLine
 10
1510.705163262989
 20
1335.847673143364
 30
0.0
 11
1510.705163262989
 21
1197.419137452367
 31
0.0
  0
LINE
  5
8211
330
820D
100
AcDbEntity
  8
3
 62
     0
370
    -2
100
AcDbLine
 10
1910.705163262989
 20
1335.847673143364
 30
0.0
 11
1910.705163262989
 21
1197.419137452367
 31
0.0
  0
LINE
  5
8212
330
820D
100
AcDbEntity
  8
3
 62
     0
370
    -2
100
AcDbLine
 10
1514.305163262989
 20
1201.019137452367
 30
0.0
 11
1704.276591834418
 21
1201.019137452367
 31
0.0
  0
LINE
  5
8213
330
820D
100
AcDbEntity
  8
3
 62
     0
370
    -2
100
AcDbLine
 10
1907.105163262989
 20
1201.019137452367
 30
0.0
 11
1717.13373469156
 21
1201.019137452367
 31
0.0
  0
SOLID
  5
8214
330
820D
100
AcDbEntity
  8
3
 62
     0
100
AcDbTrace
 10
1514.305163262989
 20
1201.619137452367
 30
0.0
 11
1514.305163262989
 21
1200.419137452367
 31
0.0
 12
1510.705163262989
 22
1201.019137452367
 32
0.0
 13
1510.705163262989
 23
1201.019137452367
 33
0.0
  0
SOLID
  5
8215
330
820D
100
AcDbEntity
  8
3
 62
     0
100
AcDbTrace
 10
1907.105163262989
 20
1201.619137452367
 30
0.0
 11
1907.105163262989
 21
1200.419137452367
 31
0.0
 12
1910.705163262989
 22
1201.019137452367
 32
0.0
 13
1910.705163262989
 23
1201.019137452367
 33
0.0
  0
MTEXT
  5
8216
330
820D
100
AcDbEntity
  8
3
 62
     0
100
AcDbMText
 10
1710.705163262989
 20
1201.019137452367
 30
0.0
 40
3.599999999999999
 41
0.0
 71
     5
 72
     1
  1
\A1;400
 73
     1
 44
1.0
1001
ACAD
1000
MTEXTBEGIN
1070
    73
1070
     1
1070
    44
1040
1.0
1070
    74
1070
     0
1000
MTEXTEND
  0
POINT
  5
8217
330
820D
100
AcDbEntity
  8
DEFPOINTS
 62
     0
100
AcDbPoint
 10
1510.705163262989
 20
1355.847673143364
 30
0.0
  0
POINT
  5
8218
330
820D
100
AcDbEntity
  8
DEFPOINTS
 62
     0
100
AcDbPoint
 10
1910.705163262989
 20
1355.847673143364
 30
0.0
  0
POINT
  5
8219
330
820D
100
AcDbEntity
  8
DEFPOINTS
 62
     0
100
AcDbPoint
 10
1910.705163262989
 20
1201.019137452367
 30
0.0
  0
ENDBLK
  5
820F
330
820D
100
AcDbEntity
  8
0
100
AcDbBlockEnd
  0
BLOCK
  5
821B
330
821A
100
AcDbEntity
  8
0
100
AcDbBlockBegin
  2
*D35
 70
     1
 10
0.0
 20
0.0
 30
0.0
  3
*D35
  1

  0
LINE
  5
821D
330
821A
100
AcDbEntity
  8
3
 62
     0
370
    -2
100
AcDbLine
 10
2839.739608317243
 20
1335.847673143364
 30
0.0
 11
2839.739608317243
 21
1197.419137452367
 31
0.0
  0
LINE
  5
821E
330
821A
100
AcDbEntity
  8
3
 62
     0
370
    -2
100
AcDbLine
 10
3392.739608317243
 20
1335.847673143364
 30
0.0
 11
3392.739608317243
 21
1197.419137452367
 31
0.0
  0
LINE
  5
821F
330
821A
100
AcDbEntity
  8
3
 62
     0
370
    -2
100
AcDbLine
 10
2843.339608317243
 20
1201.019137452367
 30
0.0
 11
3109.811036888672
 21
1201.019137452367
 31
0.0
  0
LINE
  5
8220
330
821A
100
AcDbEntity
  8
3
 62
     0
370
    -2
100
AcDbLine
 10
3389.139608317243
 20
1201.019137452367
 30
0.0
 11
3122.668179745815
 21
1201.019137452367
 31
0.0
  0
SOLID
  5
8221
330
821A
100
AcDbEntity
  8
3
 62
     0
100
AcDbTrace
 10
2843.339608317243
 20
1201.619137452367
 30
0.0
 11
2843.339608317243
 21
1200.419137452367
 31
0.0
 12
2839.739608317243
 22
1201.019137452367
 32
0.0
 13
2839.739608317243
 23
1201.019137452367
 33
0.0
  0
SOLID
  5
8222
330
821A
100
AcDbEntity
  8
3
 62
     0
100
AcDbTrace
 10
3389.139608317243
 20
1201.619137452367
 30
0.0
 11
3389.139608317243
 21
1200.419137452367
 31
0.0
 12
3392.739608317243
 22
1201.019137452367
 32
0.0
 13
3392.739608317243
 23
1201.019137452367
 33
0.0
  0
MTEXT
  5
8223
330
821A
100
AcDbEntity
  8
3
 62
     0
100
AcDbMText
 10
3116.239608317243
 20
1201.019137452367
 30
0.0
 40
3.599999999999999
 41
0.0
 71
     5
 72
     1
  1
\A1;553
 73
     1
 44
1.0
1001
ACAD
1000
MTEXTBEGIN
1070
    73
1070
     1
1070
    44
1040
1.0
1070
    74
1070
     0
1000
MTEXTEND
  0
POINT
  5
8224
330
821A
100
AcDbEntity
  8
DEFPOINTS
 62
     0
100
AcDbPoint
 10
2839.739608317243
 20
1355.847673143364
 30
0.0
  0
POINT
  5
8225
330
821A
100
AcDbEntity
  8
DEFPOINTS
 62
     0
100
AcDbPoint
 10
3392.739608317243
 20
1355.847673143364
 30
0.0
  0
POINT
  5
8226
330
821A
100
AcDbEntity
  8
DEFPOINTS
 62
     0
100
AcDbPoint
 10
3392.739608317243
 20
1201.019137452367
 30
0.0
  0
ENDBLK
  5
821C
330
821A
100
AcDbEntity
  8
0
100
AcDbBlockEnd
  0
BLOCK
  5
8228
330
8227
100
AcDbEntity
  8
0
100
AcDbBlockBegin
  2
*D36
 70
     1
 10
0.0
 20
0.0
 30
0.0
  3
*D36
  1

  0
LINE
  5
822A
330
8227
100
AcDbEntity
  8
3
 62
     0
370
    -2
100
AcDbLine
 10
3392.739608317243
 20
1335.847673143364
 30
0.0
 11
3392.739608317243
 21
1197.419137452367
 31
0.0
  0
LINE
  5
822B
330
8227
100
AcDbEntity
  8
3
 62
     0
370
    -2
100
AcDbLine
 10
3845.739608317244
 20
1335.847673143364
 30
0.0
 11
3845.739608317244
 21
1197.419137452367
 31
0.0
  0
LINE
  5
822C
330
8227
100
AcDbEntity
  8
3
 62
     0
370
    -2
100
AcDbLine
 10
3396.339608317243
 20
1201.019137452367
 30
0.0
 11
3612.811036888672
 21
1201.019137452367
 31
0.0
  0
LINE
  5
822D
330
8227
100
AcDbEntity
  8
3
 62
     0
370
    -2
100
AcDbLine
 10
3842.139608317243
 20
1201.019137452367
 30
0.0
 11
3625.668179745815
 21
1201.019137452367
 31
0.0
  0
SOLID
  5
822E
330
8227
100
AcDbEntity
  8
3
 62
     0
100
AcDbTrace
 10
3396.339608317243
 20
1201.619137452367
 30
0.0
 11
3396.339608317243
 21
1200.419137452367
 31
0.0
 12
3392.739608317243
 22
1201.019137452367
 32
0.0
 13
3392.739608317243
 23
1201.019137452367
 33
0.0
  0
SOLID
  5
822F
330
8227
100
AcDbEntity
  8
3
 62
     0
100
AcDbTrace
 10
3842.139608317243
 20
1201.619137452367
 30
0.0
 11
3842.139608317243
 21
1200.419137452367
 31
0.0
 12
3845.739608317244
 22
1201.019137452367
 32
0.0
 13
3845.739608317244
 23
1201.019137452367
 33
0.0
  0
MTEXT
  5
8230
330
8227
100
AcDbEntity
  8
3
 62
     0
100
AcDbMText
 10
3619.239608317244
 20
1201.019137452367
 30
0.0
 40
3.599999999999999
 41
0.0
 71
     5
 72
     1
  1
\A1;453
 73
     1
 44
1.0
1001
ACAD
1000
MTEXTBEGIN
1070
    73
1070
     1
1070
    44
1040
1.0
1070
    74
1070
     0
1000
MTEXTEND
  0
POINT
  5
8231
330
8227
100
AcDbEntity
  8
DEFPOINTS
 62
     0
100
AcDbPoint
 10
3392.739608317243
 20
1355.847673143364
 30
0.0
  0
POINT
  5
8232
330
8227
100
AcDbEntity
  8
DEFPOINTS
 62
     0
100
AcDbPoint
 10
3845.739608317244
 20
1355.847673143364
 30
0.0
  0
POINT
  5
8233
330
8227
100
AcDbEntity
  8
DEFPOINTS
 62
     0
100
AcDbPoint
 10
3845.739608317244
 20
1201.019137452367
 30
0.0
  0
ENDBLK
  5
8229
330
8227
100
AcDbEntity
  8
0
100
AcDbBlockEnd
  0
BLOCK
  5
8235
330
8234
100
AcDbEntity
  8
0
100
AcDbBlockBegin
  2
*D37
 70
     1
 10
0.0
 20
0.0
 30
0.0
  3
*D37
  1

  0
LINE
  5
8237
330
8234
100
AcDbEntity
  8
3
 62
     0
370
    -2
100
AcDbLine
 10
2326.3209150078
 20
1459.447673143363
 30
0.0
 11
2326.3209150078
 21
1491.304816000505
 31
0.0
  0
LINE
  5
8238
330
8234
100
AcDbEntity
  8
3
 62
     0
370
    -2
100
AcDbLine
 10
2326.3209150078
 20
1532.247673143363
 30
0.0
 11
2326.3209150078
 21
1500.39053028622
 31
0.0
  0
SOLID
  5
8239
330
8234
100
AcDbEntity
  8
3
 62
     0
100
AcDbTrace
 10
2325.7209150078
 20
1459.447673143363
 30
0.0
 11
2326.9209150078
 21
1459.447673143363
 31
0.0
 12
2326.3209150078
 22
1455.847673143363
 32
0.0
 13
2326.3209150078
 23
1455.847673143363
 33
0.0
  0
SOLID
  5
823A
330
8234
100
AcDbEntity
  8
3
 62
     0
100
AcDbTrace
 10
2325.7209150078
 20
1532.247673143363
 30
0.0
 11
2326.9209150078
 21
1532.247673143363
 31
0.0
 12
2326.3209150078
 22
1535.847673143363
 32
0.0
 13
2326.3209150078
 23
1535.847673143363
 33
0.0
  0
MTEXT
  5
823B
330
8234
100
AcDbEntity
  8
3
 62
     0
100
AcDbMText
 10
2326.3209150078
 20
1495.847673143363
 30
0.0
 40
3.599999999999999
 41
0.0
 71
     5
 72
     1
  1
\A1;(80)
 73
     1
 44
1.0
1001
ACAD
1000
MTEXTBEGIN
1070
    73
1070
     1
1070
    44
1040
1.0
1070
    74
1070
     0
1000
MTEXTEND
  0
POINT
  5
823C
330
8234
100
AcDbEntity
  8
DEFPOINTS
 62
     0
100
AcDbPoint
 10
1910.705163262989
 20
1455.847673143363
 30
0.0
  0
POINT
  5
823D
330
8234
100
AcDbEntity
  8
DEFPOINTS
 62
     0
100
AcDbPoint
 10
1910.705163262989
 20
1535.847673143363
 30
0.0
  0
POINT
  5
823E
330
8234
100
AcDbEntity
  8
DEFPOINTS
 62
     0
100
AcDbPoint
 10
2326.3209150078
 20
1535.847673143363
 30
0.0
  0
ENDBLK
  5
8236
330
8234
100
AcDbEntity
  8
0
100
AcDbBlockEnd
  0
BLOCK
  5
8240
330
823F
100
AcDbEntity
  8
0
100
AcDbBlockBegin
  2
*D38
 70
     1
 10
0.0
 20
0.0
 30
0.0
  3
*D38
  1

  0
LINE
  5
8242
330
823F
100
AcDbEntity
  8
3
 62
     0
370
    -2
100
AcDbLine
 10
1930.705163262989
 20
1355.847673143364
 30
0.0
 11
2484.379089015155
 21
1355.847673143364
 31
0.0
  0
LINE
  5
8243
330
823F
100
AcDbEntity
  8
3
 62
     0
370
    -2
100
AcDbLine
 10
1503.705163262989
 20
2789.847673143365
 30
0.0
 11
2484.379089015155
 21
2789.847673143365
 31
0.0
  0
LINE
  5
8244
330
823F
100
AcDbEntity
  8
3
 62
     0
370
    -2
100
AcDbLine
 10
2480.779089015155
 20
1359.447673143364
 30
0.0
 11
2480.779089015155
 21
2068.304816000507
 31
0.0
  0
LINE
  5
8245
330
823F
100
AcDbEntity
  8
3
 62
     0
370
    -2
100
AcDbLine
 10
2480.779089015155
 20
2786.247673143364
 30
0.0
 11
2480.779089015155
 21
2077.390530286221
 31
0.0
  0
SOLID
  5
8246
330
823F
100
AcDbEntity
  8
3
 62
     0
100
AcDbTrace
 10
2480.179089015155
 20
1359.447673143364
 30
0.0
 11
2481.379089015155
 21
1359.447673143364
 31
0.0
 12
2480.779089015155
 22
1355.847673143364
 32
0.0
 13
2480.779089015155
 23
1355.847673143364
 33
0.0
  0
SOLID
  5
8247
330
823F
100
AcDbEntity
  8
3
 62
     0
100
AcDbTrace
 10
2480.179089015155
 20
2786.247673143364
 30
0.0
 11
2481.379089015155
 21
2786.247673143364
 31
0.0
 12
2480.779089015155
 22
2789.847673143365
 32
0.0
 13
2480.779089015155
 23
2789.847673143365
 33
0.0
  0
MTEXT
  5
8248
330
823F
100
AcDbEntity
  8
3
 62
     0
100
AcDbMText
 10
2480.779089015155
 20
2072.847673143365
 30
0.0
 40
3.599999999999999
 41
0.0
 71
     5
 72
     1
  1
\A1;(1434)
 73
     1
 44
1.0
1001
ACAD
1000
MTEXTBEGIN
1070
    73
1070
     1
1070
    44
1040
1.0
1070
    74
1070
     0
1000
MTEXTEND
  0
POINT
  5
8249
330
823F
100
AcDbEntity
  8
DEFPOINTS
 62
     0
100
AcDbPoint
 10
1910.705163262989
 20
1355.847673143364
 30
0.0
  0
POINT
  5
824A
330
823F
100
AcDbEntity
  8
DEFPOINTS
 62
     0
100
AcDbPoint
 10
1483.705163262989
 20
2789.847673143365
 30
0.0
  0
POINT
  5
824B
330
823F
100
AcDbEntity
  8
DEFPOINTS
 62
     0
100
AcDbPoint
 10
2480.779089015155
 20
2789.847673143365
 30
0.0
  0
ENDBLK
  5
8241
330
823F
100
AcDbEntity
  8
0
100
AcDbBlockEnd
  0
BLOCK
  5
824D
330
824C
100
AcDbEntity
  8
0
100
AcDbBlockBegin
  2
*D39
 70
     1
 10
0.0
 20
0.0
 30
0.0
  3
*D39
  1

  0
LINE
  5
824F
330
824C
100
AcDbEntity
  8
3
 62
     0
370
    -2
100
AcDbLine
 10
1911.955163262989
 20
1455.847673143363
 30
0.0
 11
2329.883915677131
 21
1455.847673143363
 31
0.0
  0
LINE
  5
8250
330
824C
100
AcDbEntity
  8
3
 62
     0
370
    -2
100
AcDbLine
 10
1911.955163262989
 20
1355.847673143364
 30
0.0
 11
2329.883915677131
 21
1355.847673143364
 31
0.0
  0
LINE
  5
8251
330
824C
100
AcDbEntity
  8
3
 62
     0
370
    -2
100
AcDbLine
 10
2326.283915677131
 20
1452.247673143363
 30
0.0
 11
2326.283915677131
 21
1409.447673143363
 31
0.0
  0
LINE
  5
8252
330
824C
100
AcDbEntity
  8
3
 62
     0
370
    -2
100
AcDbLine
 10
2326.283915677131
 20
1359.447673143364
 30
0.0
 11
2326.283915677131
 21
1402.247673143363
 31
0.0
  0
SOLID
  5
8253
330
824C
100
AcDbEntity
  8
3
 62
     0
100
AcDbTrace
 10
2325.683915677132
 20
1452.247673143363
 30
0.0
 11
2326.883915677131
 21
1452.247673143363
 31
0.0
 12
2326.283915677131
 22
1455.847673143363
 32
0.0
 13
2326.283915677131
 23
1455.847673143363
 33
0.0
  0
SOLID
  5
8254
330
824C
100
AcDbEntity
  8
3
 62
     0
100
AcDbTrace
 10
2325.683915677132
 20
1359.447673143364
 30
0.0
 11
2326.883915677131
 21
1359.447673143364
 31
0.0
 12
2326.283915677131
 22
1355.847673143364
 32
0.0
 13
2326.283915677131
 23
1355.847673143364
 33
0.0
  0
MTEXT
  5
8255
330
824C
100
AcDbEntity
  8
3
 62
     0
100
AcDbMText
 10
2326.283915677131
 20
1405.847673143363
 30
0.0
 40
3.599999999999999
 41
0.0
 71
     5
 72
     1
  1
\A1;100
 73
     1
 44
1.0
1001
ACAD
1000
MTEXTBEGIN
1070
    73
1070
     1
1070
    44
1040
1.0
1070
    74
1070
     0
1000
MTEXTEND
  0
POINT
  5
8256
330
824C
100
AcDbEntity
  8
DEFPOINTS
 62
     0
100
AcDbPoint
 10
1910.705163262989
 20
1455.847673143363
 30
0.0
  0
POINT
  5
8257
330
824C
100
AcDbEntity
  8
DEFPOINTS
 62
     0
100
AcDbPoint
 10
1910.705163262989
 20
1355.847673143364
 30
0.0
  0
POINT
  5
8258
330
824C
100
AcDbEntity
  8
DEFPOINTS
 62
     0
100
AcDbPoint
 10
2326.283915677131
 20
1355.847673143364
 30
0.0
  0
ENDBLK
  5
824E
330
824C
100
AcDbEntity
  8
0
100
AcDbBlockEnd
  0
BLOCK
  5
825B
330
825A
100
AcDbEntity
  8
0
100
AcDbBlockBegin
  2
*D40
 70
     1
 10
0.0
 20
0.0
 30
0.0
  3
*D40
  1

  0
LINE
  5
825D
330
825A
100
AcDbEntity
  8
3
 62
     0
370
    -2
100
AcDbLine
 10
2839.739608317243
 20
1335.847673143364
 30
0.0
 11
2839.739608317243
 21
1200.428250374282
 31
0.0
  0
LINE
  5
825E
330
825A
100
AcDbEntity
  8
3
 62
     0
370
    -2
100
AcDbLine
 10
3392.739608317243
 20
1335.847673143364
 30
0.0
 11
3392.739608317243
 21
1200.428250374282
 31
0.0
  0
LINE
  5
825F
330
825A
100
AcDbEntity
  8
3
 62
     0
370
    -2
100
AcDbLine
 10
2879.739608317243
 20
1220.428250374281
 30
0.0
 11
3352.739608317243
 21
1220.428250374281
 31
0.0
  0
INSERT
  5
8260
330
825A
100
AcDbEntity
  8
3
 62
     0
370
    -2
100
AcDbBlockReference
  2
_OPEN
 10
2839.739608317243
 20
1220.428250374281
 30
0.0
 41
40.0
 42
40.0
 43
40.0
 50
180.0
  0
INSERT
  5
8261
330
825A
100
AcDbEntity
  8
3
 62
     0
370
    -2
100
AcDbBlockReference
  2
_OPEN
 10
3392.739608317243
 20
1220.428250374281
 30
0.0
 41
40.0
 42
40.0
 43
40.0
  0
MTEXT
  5
8262
330
825A
100
AcDbEntity
  8
3
 62
     0
100
AcDbMText
 10
3116.239608317243
 20
1270.428250374281
 30
0.0
 40
60.0
 41
0.0
 71
     5
 72
     1
  1
\A1;553
 73
     1
 44
1.0
1001
ACAD
1000
MTEXTBEGIN
1070
    73
1070
     1
1070
    44
1040
1.0
1070
    74
1070
     0
1000
MTEXTEND
  0
POINT
  5
8263
330
825A
100
AcDbEntity
  8
DEFPOINTS
 62
     0
100
AcDbPoint
 10
2839.739608317243
 20
1355.847673143364
 30
0.0
  0
POINT
  5
8264
330
825A
100
AcDbEntity
  8
DEFPOINTS
 62
     0
100
AcDbPoint
 10
3392.739608317243
 20
1355.847673143364
 30
0.0
  0
POINT
  5
8265
330
825A
100
AcDbEntity
  8
DEFPOINTS
 62
     0
100
AcDbPoint
 10
3392.739608317243
 20
1220.428250374281
 30
0.0
  0
ENDBLK
  5
825C
330
825A
100
AcDbEntity
  8
0
100
AcDbBlockEnd
  0
BLOCK
  5
8268
330
8267
100
AcDbEntity
  8
0
100
AcDbBlockBegin
  2
*D41
 70
     1
 10
0.0
 20
0.0
 30
0.0
  3
*D41
  1

  0
LINE
  5
826A
330
8267
100
AcDbEntity
  8
3
 62
     0
370
    -2
100
AcDbLine
 10
3392.739608317243
 20
1335.847673143364
 30
0.0
 11
3392.739608317243
 21
1200.428250374282
 31
0.0
  0
LINE
  5
826B
330
8267
100
AcDbEntity
  8
3
 62
     0
370
    -2
100
AcDbLine
 10
3845.739608317244
 20
1335.847673143364
 30
0.0
 11
3845.739608317244
 21
1200.428250374282
 31
0.0
  0
LINE
  5
826C
330
8267
100
AcDbEntity
  8
3
 62
     0
370
    -2
100
AcDbLine
 10
3432.739608317243
 20
1220.428250374281
 30
0.0
 11
3805.739608317243
 21
1220.428250374281
 31
0.0
  0
INSERT
  5
826D
330
8267
100
AcDbEntity
  8
3
 62
     0
370
    -2
100
AcDbBlockReference
  2
_OPEN
 10
3392.739608317243
 20
1220.428250374281
 30
0.0
 41
40.0
 42
40.0
 43
40.0
 50
180.0
  0
INSERT
  5
826E
330
8267
100
AcDbEntity
  8
3
 62
     0
370
    -2
100
AcDbBlockReference
  2
_OPEN
 10
3845.739608317244
 20
1220.428250374281
 30
0.0
 41
40.0
 42
40.0
 43
40.0
  0
MTEXT
  5
826F
330
8267
100
AcDbEntity
  8
3
 62
     0
100
AcDbMText
 10
3619.239608317244
 20
1270.428250374281
 30
0.0
 40
60.0
 41
0.0
 71
     5
 72
     1
  1
\A1;453
 73
     1
 44
1.0
1001
ACAD
1000
MTEXTBEGIN
1070
    73
1070
     1
1070
    44
1040
1.0
1070
    74
1070
     0
1000
MTEXTEND
  0
POINT
  5
8270
330
8267
100
AcDbEntity
  8
DEFPOINTS
 62
     0
100
AcDbPoint
 10
3392.739608317243
 20
1355.847673143364
 30
0.0
  0
POINT
  5
8271
330
8267
100
AcDbEntity
  8
DEFPOINTS
 62
     0
100
AcDbPoint
 10
3845.739608317244
 20
1355.847673143364
 30
0.0
  0
POINT
  5
8272
330
8267
100
AcDbEntity
  8
DEFPOINTS
 62
     0
100
AcDbPoint
 10
3845.739608317244
 20
1220.428250374281
 30
0.0
  0
ENDBLK
  5
8269
330
8267
100
AcDbEntity
  8
0
100
AcDbBlockEnd
  0
BLOCK
  5
8275
330
8274
100
AcDbEntity
  8
0
100
AcDbBlockBegin
  2
*D42
 70
     1
 10
0.0
 20
0.0
 30
0.0
  3
*D42
  1

  0
LINE
  5
8277
330
8274
100
AcDbEntity
  8
3
 62
     0
370
    -2
100
AcDbLine
 10
460.7051632629889
 20
1335.847673143364
 30
0.0
 11
460.7051632629889
 21
1180.095183195555
 31
0.0
  0
LINE
  5
8278
330
8274
100
AcDbEntity
  8
3
 62
     0
370
    -2
100
AcDbLine
 10
1510.705163262989
 20
1335.847673143364
 30
0.0
 11
1510.705163262989
 21
1180.095183195555
 31
0.0
  0
LINE
  5
8279
330
8274
100
AcDbEntity
  8
3
 62
     0
370
    -2
100
AcDbLine
 10
500.7051632629889
 20
1200.095183195555
 30
0.0
 11
1470.705163262989
 21
1200.095183195555
 31
0.0
  0
INSERT
  5
827A
330
8274
100
AcDbEntity
  8
3
 62
     0
370
    -2
100
AcDbBlockReference
  2
_OPEN
 10
460.7051632629889
 20
1200.095183195555
 30
0.0
 41
40.0
 42
40.0
 43
40.0
 50
180.0
  0
INSERT
  5
827B
330
8274
100
AcDbEntity
  8
3
 62
     0
370
    -2
100
AcDbBlockReference
  2
_OPEN
 10
1510.705163262989
 20
1200.095183195555
 30
0.0
 41
40.0
 42
40.0
 43
40.0
  0
MTEXT
  5
827C
330
8274
100
AcDbEntity
  8
3
 62
     0
100
AcDbMText
 10
985.7051632629888
 20
1250.095183195555
 30
0.0
 40
60.0
 41
0.0
 71
     5
 72
     1
  1
\A1;1050
 73
     1
 44
1.0
1001
ACAD
1000
MTEXTBEGIN
1070
    73
1070
     1
1070
    44
1040
1.0
1070
    74
1070
     0
1000
MTEXTEND
  0
POINT
  5
827D
330
8274
100
AcDbEntity
  8
DEFPOINTS
 62
     0
100
AcDbPoint
 10
460.7051632629889
 20
1355.847673143364
 30
0.0
  0
POINT
  5
827E
330
8274
100
AcDbEntity
  8
DEFPOINTS
 62
     0
100
AcDbPoint
 10
1510.705163262989
 20
1355.847673143364
 30
0.0
  0
POINT
  5
827F
330
8274
100
AcDbEntity
  8
DEFPOINTS
 62
     0
100
AcDbPoint
 10
1510.705163262989
 20
1200.095183195555
 30
0.0
  0
ENDBLK
  5
8276
330
8274
100
AcDbEntity
  8
0
100
AcDbBlockEnd
  0
BLOCK
  5
8282
330
8281
100
AcDbEntity
  8
0
100
AcDbBlockBegin
  2
*D43
 70
     1
 10
0.0
 20
0.0
 30
0.0
  3
*D43
  1

  0
LINE
  5
8284
330
8281
100
AcDbEntity
  8
3
 62
     0
370
    -2
100
AcDbLine
 10
1510.705163262989
 20
1335.847673143364
 30
0.0
 11
1510.705163262989
 21
1180.095183195555
 31
0.0
  0
LINE
  5
8285
330
8281
100
AcDbEntity
  8
3
 62
     0
370
    -2
100
AcDbLine
 10
1910.705163262989
 20
1335.847673143364
 30
0.0
 11
1910.705163262989
 21
1180.095183195555
 31
0.0
  0
LINE
  5
8286
330
8281
100
AcDbEntity
  8
3
 62
     0
370
    -2
100
AcDbLine
 10
1550.705163262989
 20
1200.095183195555
 30
0.0
 11
1870.705163262989
 21
1200.095183195555
 31
0.0
  0
INSERT
  5
8287
330
8281
100
AcDbEntity
  8
3
 62
     0
370
    -2
100
AcDbBlockReference
  2
_OPEN
 10
1510.705163262989
 20
1200.095183195555
 30
0.0
 41
40.0
 42
40.0
 43
40.0
 50
180.0
  0
INSERT
  5
8288
330
8281
100
AcDbEntity
  8
3
 62
     0
370
    -2
100
AcDbBlockReference
  2
_OPEN
 10
1910.705163262989
 20
1200.095183195555
 30
0.0
 41
40.0
 42
40.0
 43
40.0
  0
MTEXT
  5
8289
330
8281
100
AcDbEntity
  8
3
 62
     0
100
AcDbMText
 10
1710.705163262989
 20
1250.095183195555
 30
0.0
 40
60.0
 41
0.0
 71
     5
 72
     1
  1
\A1;400
 73
     1
 44
1.0
1001
ACAD
1000
MTEXTBEGIN
1070
    73
1070
     1
1070
    44
1040
1.0
1070
    74
1070
     0
1000
MTEXTEND
  0
POINT
  5
828A
330
8281
100
AcDbEntity
  8
DEFPOINTS
 62
     0
100
AcDbPoint
 10
1510.705163262989
 20
1355.847673143364
 30
0.0
  0
POINT
  5
828B
330
8281
100
AcDbEntity
  8
DEFPOINTS
 62
     0
100
AcDbPoint
 10
1910.705163262989
 20
1355.847673143364
 30
0.0
  0
POINT
  5
828C
330
8281
100
AcDbEntity
  8
DEFPOINTS
 62
     0
100
AcDbPoint
 10
1910.705163262989
 20
1200.095183195555
 30
0.0
  0
ENDBLK
  5
8283
330
8281
100
AcDbEntity
  8
0
100
AcDbBlockEnd
  0
BLOCK
  5
828F
330
828E
100
AcDbEntity
  8
0
100
AcDbBlockBegin
  2
*D44
 70
     1
 10
0.0
 20
0.0
 30
0.0
  3
*D44
  1

  0
LINE
  5
8291
330
828E
100
AcDbEntity
  8
3
 62
     0
370
    -2
100
AcDbLine
 10
2037.598136365984
 20
2335.847673143363
 30
0.0
 11
2398.01976856024
 21
2335.847673143363
 31
0.0
  0
LINE
  5
8292
330
828E
100
AcDbEntity
  8
3
 62
     0
370
    -2
100
AcDbLine
 10
1930.705163262989
 20
1535.847673143363
 30
0.0
 11
2398.01976856024
 21
1535.847673143363
 31
0.0
  0
LINE
  5
8293
330
828E
100
AcDbEntity
  8
3
 62
     0
370
    -2
100
AcDbLine
 10
2378.01976856024
 20
2295.847673143363
 30
0.0
 11
2378.01976856024
 21
1575.847673143363
 31
0.0
  0
INSERT
  5
8294
330
828E
100
AcDbEntity
  8
3
 62
     0
370
    -2
100
AcDbBlockReference
  2
_OPEN
 10
2378.01976856024
 20
2335.847673143363
 30
0.0
 41
40.0
 42
40.0
 43
40.0
 50
90.0
  0
INSERT
  5
8295
330
828E
100
AcDbEntity
  8
3
 62
     0
370
    -2
100
AcDbBlockReference
  2
_OPEN
 10
2378.01976856024
 20
1535.847673143363
 30
0.0
 41
40.0
 42
40.0
 43
40.0
 50
270.0
  0
MTEXT
  5
8296
330
828E
100
AcDbEntity
  8
3
 62
     0
100
AcDbMText
 10
2328.019768560239
 20
1935.847673143363
 30
0.0
 40
60.0
 41
0.0
 71
     5
 72
     1
  1
\A1;800
 11
0.0000000000000001
 21
1.0
 31
0.0
 73
     1
 44
1.0
1001
ACAD
1000
MTEXTBEGIN
1070
    73
1070
     1
1070
    44
1040
1.0
1070
    74
1070
     0
1000
MTEXTEND
  0
POINT
  5
8297
330
828E
100
AcDbEntity
  8
DEFPOINTS
 62
     0
100
AcDbPoint
 10
2017.598136365984
 20
2335.847673143363
 30
0.0
  0
POINT
  5
8298
330
828E
100
AcDbEntity
  8
DEFPOINTS
 62
     0
100
AcDbPoint
 10
1910.705163262989
 20
1535.847673143363
 30
0.0
  0
POINT
  5
8299
330
828E
100
AcDbEntity
  8
DEFPOINTS
 62
     0
100
AcDbPoint
 10
2378.01976856024
 20
1535.847673143363
 30
0.0
  0
ENDBLK
  5
8290
330
828E
100
AcDbEntity
  8
0
100
AcDbBlockEnd
  0
BLOCK
  5
829C
330
829B
100
AcDbEntity
  8
0
100
AcDbBlockBegin
  2
*D45
 70
     1
 10
0.0
 20
0.0
 30
0.0
  3
*D45
  1

  0
LINE
  5
83FA
330
829B
100
AcDbEntity
  8
3
 62
     0
370
    -2
100
AcDbLine
 10
1930.705163262989
 20
1535.847673143363
 30
0.0
 11
2398.01976856024
 21
1535.847673143363
 31
0.0
  0
LINE
  5
83FB
330
829B
100
AcDbEntity
  8
3
 62
     0
370
    -2
100
AcDbLine
 10
1930.705163262989
 20
1455.847673143363
 30
0.0
 11
2398.01976856024
 21
1455.847673143363
 31
0.0
  0
LINE
  5
83FC
330
829B
100
AcDbEntity
  8
3
 62
     0
370
    -2
100
AcDbLine
 10
2378.01976856024
 20
1495.847673143363
 30
0.0
 11
2378.01976856024
 21
1455.847673143363
 31
0.0
  0
LINE
  5
83FD
330
829B
100
AcDbEntity
  8
3
 62
     0
370
    -2
100
AcDbLine
 10
2378.01976856024
 20
1495.847673143363
 30
0.0
 11
2514.715457294272
 21
1551.99053028622
 31
0.0
  0
LINE
  5
83FE
330
829B
100
AcDbEntity
  8
3
 62
     0
370
    -2
100
AcDbLine
 10
2514.715457294272
 20
1551.99053028622
 30
0.0
 11
2514.715457294272
 21
1766.276244571934
 31
0.0
  0
MTEXT
  5
83FF
330
829B
100
AcDbEntity
  8
3
 62
     0
100
AcDbMText
 10
2449.001171579985
 20
1659.133387429077
 30
0.0
 40
60.0
 41
0.0
 71
     5
 72
     1
  1
\A1;(80)
 11
0.0000000000000001
 21
1.0
 31
0.0
 73
     1
 44
1.0
1001
ACAD
1000
MTEXTBEGIN
1070
    73
1070
     1
1070
    44
1040
1.0
1070
    74
1070
     0
1000
MTEXTEND
  0
INSERT
  5
8400
330
829B
100
AcDbEntity
  8
3
 62
     0
370
    -2
100
AcDbBlockReference
  2
_OPEN
 10
2378.01976856024
 20
1535.847673143363
 30
0.0
 41
40.0
 42
40.0
 43
40.0
 50
90.0
  0
INSERT
  5
8401
330
829B
100
AcDbEntity
  8
3
 62
     0
370
    -2
100
AcDbBlockReference
  2
_DotSmall
 10
2378.01976856024
 20
1455.847673143363
 30
0.0
 41
40.0
 42
40.0
 43
40.0
 50
270.0
  0
POINT
  5
8402
330
829B
100
AcDbEntity
  8
DEFPOINTS
 62
     0
100
AcDbPoint
 10
1910.705163262989
 20
1535.847673143363
 30
0.0
  0
POINT
  5
8403
330
829B
100
AcDbEntity
  8
DEFPOINTS
 62
     0
100
AcDbPoint
 10
1910.705163262989
 20
1455.847673143363
 30
0.0
  0
POINT
  5
8404
330
829B
100
AcDbEntity
  8
DEFPOINTS
 62
     0
100
AcDbPoint
 10
2378.01976856024
 20
1455.847673143363
 30
0.0
  0
ENDBLK
  5
829D
330
829B
100
AcDbEntity
  8
0
100
AcDbBlockEnd
  0
BLOCK
  5
82AE
330
82AD
100
AcDbEntity
  8
0
100
AcDbBlockBegin
  2
*D46
 70
     1
 10
0.0
 20
0.0
 30
0.0
  3
*D46
  1

  0
LINE
  5
83F1
330
82AD
100
AcDbEntity
  8
3
 62
     0
370
    -2
100
AcDbLine
 10
1930.705163262989
 20
1455.847673143363
 30
0.0
 11
2398.01976856024
 21
1455.847673143363
 31
0.0
  0
LINE
  5
83F2
330
82AD
100
AcDbEntity
  8
3
 62
     0
370
    -2
100
AcDbLine
 10
1930.705163262989
 20
1355.847673143364
 30
0.0
 11
2398.01976856024
 21
1355.847673143364
 31
0.0
  0
LINE
  5
83F3
330
82AD
100
AcDbEntity
  8
3
 62
     0
370
    -2
100
AcDbLine
 10
2378.01976856024
 20
1455.847673143363
 30
0.0
 11
2378.01976856024
 21
1395.847673143364
 31
0.0
  0
MTEXT
  5
83F4
330
82AD
100
AcDbEntity
  8
3
 62
     0
100
AcDbMText
 10
2332.402621311463
 20
1281.973888835515
 30
0.0
 40
60.0
 41
0.0
 71
     5
 72
     1
  1
\A1;100
 11
0.0000000000000001
 21
1.0
 31
0.0
 73
     1
 44
1.0
1001
ACAD
1000
MTEXTBEGIN
1070
    73
1070
     1
1070
    44
1040
1.0
1070
    74
1070
     0
1000
MTEXTEND
  0
INSERT
  5
83F5
330
82AD
100
AcDbEntity
  8
3
 62
     0
370
    -2
100
AcDbBlockReference
  2
_DotSmall
 10
2378.01976856024
 20
1455.847673143363
 30
0.0
 41
40.0
 42
40.0
 43
40.0
 50
90.0
  0
INSERT
  5
83F6
330
82AD
100
AcDbEntity
  8
3
 62
     0
370
    -2
100
AcDbBlockReference
  2
_OPEN
 10
2378.01976856024
 20
1355.847673143364
 30
0.0
 41
40.0
 42
40.0
 43
40.0
 50
270.0
  0
POINT
  5
83F7
330
82AD
100
AcDbEntity
  8
DEFPOINTS
 62
     0
100
AcDbPoint
 10
1910.705163262989
 20
1455.847673143363
 30
0.0
  0
POINT
  5
83F8
330
82AD
100
AcDbEntity
  8
DEFPOINTS
 62
     0
100
AcDbPoint
 10
1910.705163262989
 20
1355.847673143364
 30
0.0
  0
POINT
  5
83F9
330
82AD
100
AcDbEntity
  8
DEFPOINTS
 62
     0
100
AcDbPoint
 10
2378.01976856024
 20
1355.847673143364
 30
0.0
  0
ENDBLK
  5
82AF
330
82AD
100
AcDbEntity
  8
0
100
AcDbBlockEnd
  0
BLOCK
  5
832C
330
832A
100
AcDbEntity
  8
0
100
AcDbBlockBegin
  2
_DotSmall
 70
     0
 10
0.0
 20
0.0
 30
0.0
  3
_DotSmall
  1

  0
LWPOLYLINE
  5
832B
330
832A
100
AcDbEntity
  8
0
  6
ByBlock
 62
     0
100
AcDbPolyline
 90
        2
 70
     1
 43
0.5
 10
-0.0625
 20
0.0
 42
1.0
 10
0.0625
 20
0.0
 42
1.0
  0
ENDBLK
  5
832D
330
832A
100
AcDbEntity
  8
0
100
AcDbBlockEnd
  0
BLOCK
  5
83B9
330
83B8
100
AcDbEntity
  8
0
100
AcDbBlockBegin
  2
*D48
 70
     1
 10
0.0
 20
0.0
 30
0.0
  3
*D48
  1

  0
LINE
  5
83C4
330
83B8
100
AcDbEntity
  8
3
 62
     0
370
    -2
100
AcDbLine
 10
1510.705163262989
 20
2885.447817660772
 30
0.0
 11
1510.705163262989
 21
2945.066613388714
 31
0.0
  0
LINE
  5
83C5
330
83B8
100
AcDbEntity
  8
3
 62
     0
370
    -2
100
AcDbLine
 10
962.7051632629889
 20
2308.847673143363
 30
0.0
 11
962.7051632629889
 21
2945.066613388714
 31
0.0
  0
LINE
  5
83C6
330
83B8
100
AcDbEntity
  8
3
 62
     0
370
    -2
100
AcDbLine
 10
1470.705163262989
 20
2925.066613388714
 30
0.0
 11
1002.705163262989
 21
2925.066613388714
 31
0.0
  0
INSERT
  5
83C7
330
83B8
100
AcDbEntity
  8
3
 62
     0
370
    -2
100
AcDbBlockReference
  2
_OPEN
 10
1510.705163262989
 20
2925.066613388714
 30
0.0
 41
40.0
 42
40.0
 43
40.0
  0
INSERT
  5
83C8
330
83B8
100
AcDbEntity
  8
3
 62
     0
370
    -2
100
AcDbBlockReference
  2
_OPEN
 10
962.7051632629889
 20
2925.066613388714
 30
0.0
 41
40.0
 42
40.0
 43
40.0
 50
180.0
  0
MTEXT
  5
83C9
330
83B8
100
AcDbEntity
  8
3
 62
     0
100
AcDbMText
 10
1236.705163262989
 20
2975.066613388714
 30
0.0
 40
60.0
 41
0.0
 71
     5
 72
     1
  1
\A1;548
 73
     1
 44
1.0
1001
ACAD
1000
MTEXTBEGIN
1070
    73
1070
     1
1070
    44
1040
1.0
1070
    74
1070
     0
1000
MTEXTEND
  0
POINT
  5
83CA
330
83B8
100
AcDbEntity
  8
DEFPOINTS
 62
     0
100
AcDbPoint
 10
1510.705163262989
 20
2865.447817660772
 30
0.0
  0
POINT
  5
83CB
330
83B8
100
AcDbEntity
  8
DEFPOINTS
 62
     0
100
AcDbPoint
 10
962.7051632629889
 20
2288.847673143363
 30
0.0
  0
POINT
  5
83CC
330
83B8
100
AcDbEntity
  8
DEFPOINTS
 62
     0
100
AcDbPoint
 10
962.7051632629889
 20
2925.066613388714
 30
0.0
  0
ENDBLK
  5
83BA
330
83B8
100
AcDbEntity
  8
0
100
AcDbBlockEnd
  0
BLOCK
  5
8407
330
8406
100
AcDbEntity
  8
0
100
AcDbBlockBegin
  2
*D49
 70
     1
 10
0.0
 20
0.0
 30
0.0
  3
*D49
  1

  0
LINE
  5
8409
330
8406
100
AcDbEntity
  8
3
 62
     0
370
    -2
100
AcDbLine
 10
1930.705163262989
 20
1355.847673143364
 30
0.0
 11
2574.895851844245
 21
1355.847673143363
 31
0.0
  0
LINE
  5
840A
330
8406
100
AcDbEntity
  8
3
 62
     0
370
    -2
100
AcDbLine
 10
1483.705163262989
 20
2789.847673143363
 30
0.0
 11
2574.895851844245
 21
2789.847673143363
 31
0.0
  0
LINE
  5
840B
330
8406
100
AcDbEntity
  8
3
 62
     0
370
    -2
100
AcDbLine
 10
2554.895851844245
 20
1395.847673143364
 30
0.0
 11
2554.895851844245
 21
2749.847673143363
 31
0.0
  0
INSERT
  5
840C
330
8406
100
AcDbEntity
  8
3
 62
     0
370
    -2
100
AcDbBlockReference
  2
_OPEN
 10
2554.895851844245
 20
1355.847673143364
 30
0.0
 41
40.0
 42
40.0
 43
40.0
 50
270.0
  0
INSERT
  5
840D
330
8406
100
AcDbEntity
  8
3
 62
     0
370
    -2
100
AcDbBlockReference
  2
_OPEN
 10
2554.895851844245
 20
2789.847673143363
 30
0.0
 41
40.0
 42
40.0
 43
40.0
 50
90.0
  0
MTEXT
  5
840E
330
8406
100
AcDbEntity
  8
3
 62
     0
100
AcDbMText
 10
2504.895851844245
 20
2072.847673143364
 30
0.0
 40
60.0
 41
0.0
 71
     5
 72
     1
  1
\A1;1434
 11
0.0000000000000001
 21
1.0
 31
0.0
 73
     1
 44
1.0
1001
ACAD
1000
MTEXTBEGIN
1070
    73
1070
     1
1070
    44
1040
1.0
1070
    74
1070
     0
1000
MTEXTEND
  0
POINT
  5
840F
330
8406
100
AcDbEntity
  8
DEFPOINTS
 62
     0
100
AcDbPoint
 10
1910.705163262989
 20
1355.847673143364
 30
0.0
  0
POINT
  5
8410
330
8406
100
AcDbEntity
  8
DEFPOINTS
 62
     0
100
AcDbPoint
 10
1463.705163262989
 20
2789.847673143363
 30
0.0
  0
POINT
  5
8411
330
8406
100
AcDbEntity
  8
DEFPOINTS
 62
     0
100
AcDbPoint
 10
2554.895851844245
 20
2789.847673143363
 30
0.0
  0
ENDBLK
  5
8408
330
8406
100
AcDbEntity
  8
0
100
AcDbBlockEnd
  0
BLOCK
  5
8423
330
8422
100
AcDbEntity
  8
0
100
AcDbBlockBegin
  2
*D50
 70
     1
 10
0.0
 20
0.0
 30
0.0
  3
*D50
  1

  0
LINE
  5
8425
330
8422
100
AcDbEntity
  8
3
 62
     0
370
    -2
100
AcDbLine
 10
1464.955163262989
 20
2789.847673143365
 30
0.0
 11
2381.61976856024
 21
2789.847673143365
 31
0.0
  0
LINE
  5
8426
330
8422
100
AcDbEntity
  8
3
 62
     0
370
    -2
100
AcDbLine
 10
2038.848136365985
 20
2335.847673143363
 30
0.0
 11
2381.61976856024
 21
2335.847673143363
 31
0.0
  0
LINE
  5
8427
330
8422
100
AcDbEntity
  8
3
 62
     0
370
    -2
100
AcDbLine
 10
2378.01976856024
 20
2786.247673143364
 30
0.0
 11
2378.01976856024
 21
2566.447673143363
 31
0.0
  0
LINE
  5
8428
330
8422
100
AcDbEntity
  8
3
 62
     0
370
    -2
100
AcDbLine
 10
2378.01976856024
 20
2339.447673143363
 30
0.0
 11
2378.01976856024
 21
2559.247673143364
 31
0.0
  0
SOLID
  5
8429
330
8422
100
AcDbEntity
  8
3
 62
     0
100
AcDbTrace
 10
2377.41976856024
 20
2786.247673143364
 30
0.0
 11
2378.619768560239
 21
2786.247673143364
 31
0.0
 12
2378.01976856024
 22
2789.847673143365
 32
0.0
 13
2378.01976856024
 23
2789.847673143365
 33
0.0
  0
SOLID
  5
842A
330
8422
100
AcDbEntity
  8
3
 62
     0
100
AcDbTrace
 10
2377.41976856024
 20
2339.447673143363
 30
0.0
 11
2378.619768560239
 21
2339.447673143363
 31
0.0
 12
2378.01976856024
 22
2335.847673143363
 32
0.0
 13
2378.01976856024
 23
2335.847673143363
 33
0.0
  0
MTEXT
  5
842B
330
8422
100
AcDbEntity
  8
3
 62
     0
100
AcDbMText
 10
2378.019768560239
 20
2562.847673143364
 30
0.0
 40
3.599999999999999
 41
0.0
 71
     5
 72
     1
  1
\A1;454.0000
 73
     1
 44
1.0
1001
ACAD
1000
MTEXTBEGIN
1070
    73
1070
     1
1070
    44
1040
1.0
1070
    74
1070
     0
1000
MTEXTEND
  0
POINT
  5
842C
330
8422
100
AcDbEntity
  8
DEFPOINTS
 62
     0
100
AcDbPoint
 10
1463.705163262989
 20
2789.847673143365
 30
0.0
  0
POINT
  5
842D
330
8422
100
AcDbEntity
  8
DEFPOINTS
 62
     0
100
AcDbPoint
 10
2037.598136365985
 20
2335.847673143363
 30
0.0
  0
POINT
  5
842E
330
8422
100
AcDbEntity
  8
DEFPOINTS
 62
     0
100
AcDbPoint
 10
2378.01976856024
 20
2335.847673143363
 30
0.0
  0
ENDBLK
  5
8424
330
8422
100
AcDbEntity
  8
0
100
AcDbBlockEnd
  0
BLOCK
  5
8431
330
8430
100
AcDbEntity
  8
0
100
AcDbBlockBegin
  2
*D51
 70
     1
 10
0.0
 20
0.0
 30
0.0
  3
*D51
  1

  0
LINE
  5
843C
330
8430
100
AcDbEntity
  8
3
 62
     0
370
    -2
100
AcDbLine
 10
1483.705163262989
 20
2789.847673143363
 30
0.0
 11
2398.01976856024
 21
2789.847673143363
 31
0.0
  0
LINE
  5
843D
330
8430
100
AcDbEntity
  8
3
 62
     0
370
    -2
100
AcDbLine
 10
2037.598136365984
 20
2335.847673143363
 30
0.0
 11
2398.01976856024
 21
2335.847673143363
 31
0.0
  0
LINE
  5
843E
330
8430
100
AcDbEntity
  8
3
 62
     0
370
    -2
100
AcDbLine
 10
2378.01976856024
 20
2749.847673143363
 30
0.0
 11
2378.01976856024
 21
2375.847673143363
 31
0.0
  0
INSERT
  5
843F
330
8430
100
AcDbEntity
  8
3
 62
     0
370
    -2
100
AcDbBlockReference
  2
_OPEN
 10
2378.01976856024
 20
2789.847673143363
 30
0.0
 41
40.0
 42
40.0
 43
40.0
 50
90.0
  0
INSERT
  5
8440
330
8430
100
AcDbEntity
  8
3
 62
     0
370
    -2
100
AcDbBlockReference
  2
_OPEN
 10
2378.01976856024
 20
2335.847673143363
 30
0.0
 41
40.0
 42
40.0
 43
40.0
 50
270.0
  0
MTEXT
  5
8441
330
8430
100
AcDbEntity
  8
3
 62
     0
100
AcDbMText
 10
2328.019768560239
 20
2562.847673143364
 30
0.0
 40
60.0
 41
0.0
 71
     5
 72
     1
  1
\A1;454
 11
0.0000000000000001
 21
1.0
 31
0.0
 73
     1
 44
1.0
1001
ACAD
1000
MTEXTBEGIN
1070
    73
1070
     1
1070
    44
1040
1.0
1070
    74
1070
     0
1000
MTEXTEND
  0
POINT
  5
8442
330
8430
100
AcDbEntity
  8
DEFPOINTS
 62
     0
100
AcDbPoint
 10
1463.705163262989
 20
2789.847673143363
 30
0.0
  0
POINT
  5
8443
330
8430
100
AcDbEntity
  8
DEFPOINTS
 62
     0
100
AcDbPoint
 10
2017.598136365984
 20
2335.847673143363
 30
0.0
  0
POINT
  5
8444
330
8430
100
AcDbEntity
  8
DEFPOINTS
 62
     0
100
AcDbPoint
 10
2378.01976856024
 20
2335.847673143363
 30
0.0
  0
ENDBLK
  5
8432
330
8430
100
AcDbEntity
  8
0
100
AcDbBlockEnd
  0
ENDSEC
  0
SECTION
  2
ENTITIES
  0
INSERT
  5
7BF8
330
8148
100
AcDbEntity
  8
0
100
AcDbBlockReference
  2
YA_N
 10
6.0
 20
5.0
 30
0.0
  0
LINE
  5
7BFA
330
8148
100
AcDbEntity
  8
2
100
AcDbLine
 10
899.4514209570624
 20
2335.847673143363
 30
0.0
 11
2017.598136365984
 21
2335.847673143363
 31
0.0
  0
LINE
  5
7BFB
330
8148
100
AcDbEntity
  8
2
100
AcDbLine
 10
1510.705163262989
 20
2865.447817660772
 30
0.0
 11
1510.705163262989
 21
1355.847673143364
 31
0.0
  0
ARC
  5
7BFC
330
8148
100
AcDbEntity
  8
1
100
AcDbCircle
 10
1557.705163262989
 20
2288.847673143363
 30
0.0
 40
595.0
100
AcDbArc
 50
175.4693949573172
 51
265.4693949573172
  0
ARC
  5
7BFD
330
8148
100
AcDbEntity
  8
1
100
AcDbCircle
 10
1463.705163262989
 20
2288.847673143363
 30
0.0
 40
501.0
100
AcDbArc
 50
84.61703135011868
 51
174.6170313501186
  0
ARC
  5
7BFE
330
8148
100
AcDbEntity
  8
1
100
AcDbCircle
 10
1472.705163262989
 20
2373.847673143364
 30
0.0
 40
416.0
100
AcDbArc
 50
354.7589449387032
 51
84.75894493870329
  0
LINE
  5
7BFF
330
8148
100
AcDbEntity
  8
1
100
AcDbLine
 10
1970.705163262989
 20
1615.847673143363
 30
0.0
 11
1970.705163262989
 21
2349.847673143363
 31
0.0
  0
LINE
  5
7C00
330
8148
100
AcDbEntity
  8
1
100
AcDbLine
 10
1970.705163262989
 20
1657.847673143364
 30
0.0
 11
1510.705163262989
 21
1695.706880413678
 31
0.0
  0
LINE
  5
7C01
330
8148
100
AcDbEntity
  8
1
100
AcDbLine
 10
1887.666699762404
 20
2307.847673143363
 30
0.0
 11
1970.705163262989
 21
2307.847673143363
 31
0.0
  0
LINE
  5
7C02
330
8148
100
AcDbEntity
  8
1
100
AcDbLine
 10
1930.705163262989
 20
1661.13977812339
 30
0.0
 11
1930.705163262989
 21
2307.847673143363
 31
0.0
  0
LINE
  5
7C03
330
8148
100
AcDbEntity
  8
1
100
AcDbLine
 10
1967.705163262989
 20
1615.847673143363
 30
0.0
 11
1970.705163262989
 21
1615.847673143363
 31
0.0
  0
LINE
  5
7C04
330
8148
100
AcDbEntity
  8
1
100
AcDbLine
 10
1967.705163262989
 20
2349.847673143363
 30
0.0
 11
1970.705163262989
 21
2349.847673143363
 31
0.0
  0
LINE
  5
7C05
330
8148
100
AcDbEntity
  8
1
100
AcDbLine
 10
1967.705163262989
 20
1615.847673143363
 30
0.0
 11
1967.705163262989
 21
2349.847673143363
 31
0.0
  0
LINE
  5
7C06
330
8148
100
AcDbEntity
  8
2
100
AcDbLine
 10
3392.739608317243
 20
2844.960429163517
 30
0.0
 11
3392.739608317243
 21
1355.847673143364
 31
0.0
  0
LINE
  5
7C07
330
8148
100
AcDbEntity
  8
2
100
AcDbLine
 10
2610.739608317242
 20
2335.847673143363
 30
0.0
 11
3898.411282939392
 21
2335.847673143363
 31
0.0
  0
LINE
  5
7C08
330
8148
100
AcDbEntity
  8
1
100
AcDbLine
 10
3845.739608317244
 20
1635.847673143364
 30
0.0
 11
3845.739608317244
 21
1630.377541930178
 31
0.0
  0
LINE
  5
7C09
330
8148
100
AcDbEntity
  8
1
100
AcDbLine
 10
3792.739608317243
 20
2789.847673143365
 30
0.0
 11
3792.739608317243
 21
2363.847673143363
 31
0.0
  0
LINE
  5
7C0A
330
8148
100
AcDbEntity
  8
1
100
AcDbLine
 10
3792.739608317243
 20
2363.847673143363
 30
0.0
 11
3792.739608317245
 21
1657.847673143364
 31
0.0
  0
LINE
  5
7C0B
330
8148
100
AcDbEntity
  8
2
100
AcDbLine
 10
1510.705163262989
 20
4506.116945967806
 30
0.0
 11
1510.705163262989
 21
3221.765576191286
 31
0.0
  0
LINE
  5
7C0C
330
8148
100
AcDbEntity
  8
2
100
AcDbLine
 10
908.8573135641707
 20
4025.318859462981
 30
0.0
 11
2020.215697946813
 21
4025.318859462982
 31
0.0
  0
INSERT
  5
7C0D
330
8148
100
AcDbEntity
  8
0
100
AcDbBlockReference
  2
YA_N
 10
-1221.011981710642
 20
-542.7332483964637
 30
0.0
 41
15.0
 42
15.0
 43
15.0
  0
LINE
  5
7C0F
330
8148
100
AcDbEntity
  8
1
100
AcDbLine
 10
460.7051632629889
 20
1355.847673143364
 30
0.0
 11
1910.705163262989
 21
1355.847673143364
 31
0.0
  0
LINE
  5
7C10
330
8148
100
AcDbEntity
  8
1
100
AcDbLine
 10
460.7051632629889
 20
1455.847673143363
 30
0.0
 11
1910.705163262989
 21
1455.847673143363
 31
0.0
1001
ACAD
1000
ASC_BOUNDS
1002
{
1070
    19
1005
0
1005
0
1002
}
  0
LINE
  5
7C11
330
8148
100
AcDbEntity
  8
1
100
AcDbLine
 10
460.7051632629889
 20
1455.847673143363
 30
0.0
 11
460.7051632629889
 21
1355.847673143364
 31
0.0
  0
LINE
  5
7C12
330
8148
100
AcDbEntity
  8
1
100
AcDbLine
 10
1910.705163262989
 20
1455.847673143363
 30
0.0
 11
1910.705163262989
 21
1355.847673143364
 31
0.0
  0
ARC
  5
7C13
330
8148
100
AcDbEntity
  8
1
100
AcDbCircle
 10
660.705163262989
 20
1852.847673143363
 30
0.0
 40
142.5
100
AcDbArc
 50
326.966192328012
 51
0.0
  0
ARC
  5
7C14
330
8148
100
AcDbEntity
  8
1
100
AcDbCircle
 10
660.705163262989
 20
1852.847673143363
 30
0.0
 40
142.5
100
AcDbArc
 50
0.0
 51
213.0338683823617
  0
LINE
  5
7C15
330
8148
100
AcDbEntity
  8
2
100
AcDbLine
 10
660.705163262989
 20
2014.446414260623
 30
0.0
 11
660.705163262989
 21
1355.847673143364
 31
0.0
  0
LINE
  5
7C16
330
8148
100
AcDbEntity
  8
1
100
AcDbLine
 10
541.2405052540663
 20
1775.165979760616
 30
0.0
 11
530.7051632629891
 21
1735.847673143364
 31
0.0
  0
LINE
  5
7C17
330
8148
100
AcDbEntity
  8
1
100
AcDbLine
 10
530.7051632629891
 20
1735.650273143364
 30
0.0
 11
530.7051632629891
 21
1720.847673143363
 31
0.0
  0
LINE
  5
7C18
330
8148
100
AcDbEntity
  8
1
100
AcDbLine
 10
780.1699035830497
 20
1775.166106344923
 30
0.0
 11
790.7051632629892
 21
1735.847673143364
 31
0.0
  0
LINE
  5
7C19
330
8148
100
AcDbEntity
  8
1
100
AcDbLine
 10
790.7051632629892
 20
1735.650273143364
 30
0.0
 11
790.7051632629892
 21
1720.847673143363
 31
0.0
  0
LINE
  5
7C1A
330
8148
100
AcDbEntity
  8
2
100
AcDbLine
 10
490.1675984473985
 20
1852.847673143363
 30
0.0
 11
829.2059287886495
 21
1852.847673143363
 31
0.0
  0
LINE
  5
7C1B
330
8148
100
AcDbEntity
  8
1
100
AcDbLine
 10
860.7051632629891
 20
1675.847673143364
 30
0.0
 11
860.7051632629891
 21
1635.847673143364
 31
0.0
  0
LINE
  5
7C1C
330
8148
100
AcDbEntity
  8
1
100
AcDbLine
 10
460.7051632629889
 20
1675.847673143364
 30
0.0
 11
460.7051632629889
 21
1635.847673143364
 31
0.0
  0
LINE
  5
7C1D
330
8148
100
AcDbEntity
  8
1
100
AcDbLine
 10
460.7051632629889
 20
1675.847673143364
 30
0.0
 11
485.7051632629889
 21
1675.847673143364
 31
0.0
  0
LINE
  5
7C1E
330
8148
100
AcDbEntity
  8
1
100
AcDbLine
 10
496.8695066491944
 20
1720.847673143363
 30
0.0
 11
823.3276746543159
 21
1720.847673143363
 31
0.0
  0
LINE
  5
7C1F
330
8148
100
AcDbEntity
  8
1
100
AcDbLine
 10
485.7051632629889
 20
1675.847673143364
 30
0.0
 11
496.8695066491944
 21
1720.847673143363
 31
0.0
  0
LINE
  5
7C20
330
8148
100
AcDbEntity
  8
1
100
AcDbLine
 10
835.7051632629891
 20
1675.847673143364
 30
0.0
 11
823.3276746543159
 21
1720.847673143363
 31
0.0
  0
LINE
  5
7C21
330
8148
100
AcDbEntity
  8
1
100
AcDbLine
 10
2839.739608317243
 20
1455.847673143363
 30
0.0
 11
3845.739608317244
 21
1455.847673143363
 31
0.0
1001
ACAD
1000
ASC_BOUNDS
1002
{
1070
    19
1002
}
  0
LINE
  5
7C22
330
8148
100
AcDbEntity
  8
1
100
AcDbLine
 10
2839.739608317243
 20
1355.847673143364
 30
0.0
 11
3845.739608317244
 21
1355.847673143364
 31
0.0
  0
LINE
  5
7C23
330
8148
100
AcDbEntity
  8
1
100
AcDbLine
 10
2839.739608317243
 20
1455.847673143363
 30
0.0
 11
2839.739608317243
 21
1355.847673143364
 31
0.0
  0
LINE
  5
7C24
330
8148
100
AcDbEntity
  8
1
100
AcDbLine
 10
3845.739608317244
 20
1455.847673143363
 30
0.0
 11
3845.739608317244
 21
1355.847673143364
 31
0.0
  0
DIMENSION
  5
7C26
330
8148
100
AcDbEntity
  8
3
100
AcDbDimension
  2
*D4
 10
2099.266697969545
 20
2307.847673143363
 30
0.0
 11
2059.266697969545
 21
1982.847673143363
 31
0.0
 12
931.0521668687504
 22
1767.750046693243
 32
0.0
 71
     5
 42
-1.0
  3
Standard
100
AcDbAlignedDimension
 13
1970.705163262989
 23
1657.847673143364
 33
0.0
 14
1970.705163262989
 24
2307.847673143363
 34
0.0
 50
90.0
100
AcDbRotatedDimension
1001
ACAD
1000
DSTYLE
1002
{
1070
    40
1040
20.0
1002
}
  0
DIMENSION
  5
7C27
330
8148
100
AcDbEntity
  8
3
100
AcDbDimension
  2
*D5
 10
2218.855756545743
 20
2335.847673143363
 30
0.0
 11
2178.855756545743
 21
1996.847673143363
 31
0.0
 12
931.0521668687504
 22
1767.750046693243
 32
0.0
 71
     5
 42
-1.0
  3
Standard
100
AcDbAlignedDimension
 13
1970.705163262989
 23
1657.847673143364
 33
0.0
 14
2017.598136365984
 24
2335.847673143363
 34
0.0
 50
90.0
100
AcDbRotatedDimension
1001
ACAD
1000
DSTYLE
1002
{
1070
    40
1040
20.0
1002
}
  0
POINT
  5
7C28
330
8148
100
AcDbEntity
  8
1
100
AcDbPoint
 10
1910.705163262989
 20
1355.847673143364
 30
0.0
  0
LINE
  5
7C29
330
8148
100
AcDbEntity
  8
2
100
AcDbLine
 10
2610.739608317242
 20
1852.847673143363
 30
0.0
 11
2992.739608317242
 21
1852.847673143363
 31
0.0
  0
LINE
  5
7C2B
330
8148
100
AcDbEntity
  8
1
100
AcDbLine
 10
2992.739608317242
 20
2789.847673143365
 30
0.0
 11
2992.739608317242
 21
2363.847673143363
 31
0.0
  0
LINE
  5
7C2C
330
8148
100
AcDbEntity
  8
1
100
AcDbLine
 10
2992.739608317242
 20
2363.847673143363
 30
0.0
 11
2992.739608317242
 21
1657.847673143364
 31
0.0
  0
LINE
  5
7C2D
330
8148
100
AcDbEntity
  8
1
100
AcDbLine
 10
3902.739608317244
 20
2305.847673143363
 30
0.0
 11
3902.739608317244
 21
2205.847673143363
 31
0.0
  0
ARC
  5
7C2E
330
8148
100
AcDbEntity
  8
1
100
AcDbCircle
 10
3892.739608317245
 20
2305.847673143363
 30
0.0
 40
10.0
100
AcDbArc
 50
0.0
 51
90.0
  0
ARC
  5
7C2F
330
8148
100
AcDbEntity
  8
1
100
AcDbCircle
 10
3892.739608317245
 20
2205.847673143363
 30
0.0
 40
10.0
100
AcDbArc
 50
270.0
 51
0.0
  0
LINE
  5
7C30
330
8148
100
AcDbEntity
  8
1
100
AcDbLine
 10
3792.739608317243
 20
2195.847673143363
 30
0.0
 11
3892.739608317245
 21
2195.847673143363
 31
0.0
  0
LINE
  5
7C31
330
8148
100
AcDbEntity
  8
1
100
AcDbLine
 10
3792.739608317243
 20
2315.847673143363
 30
0.0
 11
3892.739608317245
 21
2315.847673143363
 31
0.0
  0
CIRCLE
  5
7C32
330
8148
100
AcDbEntity
  8
1
100
AcDbCircle
 10
660.705163262989
 20
1852.847673143363
 30
0.0
 40
79.0
  0
CIRCLE
  5
7C33
330
8148
100
AcDbEntity
  8
1
100
AcDbCircle
 10
1510.705163262989
 20
2335.847673143363
 30
0.0
 40
88.9
  0
ARC
  5
7C34
330
8148
100
AcDbEntity
  8
1
100
AcDbCircle
 10
1510.705163262989
 20
2335.847673143363
 30
0.0
 40
150.0
100
AcDbArc
 50
282.4716975566092
 51
102.4716975566092
  0
ARC
  5
7C35
330
8148
100
AcDbEntity
  8
1
100
AcDbCircle
 10
660.705163262989
 20
1852.847673143363
 30
0.0
 40
150.0
100
AcDbArc
 50
102.4716975566092
 51
282.4716975566092
  0
LINE
  5
7C36
330
8148
100
AcDbEntity
  8
1
100
AcDbLine
 10
1478.311564391689
 20
2482.308093572111
 30
0.0
 11
628.3115643916898
 21
1999.308093572111
 31
0.0
  0
LINE
  5
7C37
330
8148
100
AcDbEntity
  8
1
100
AcDbLine
 10
1490.5206645961
 20
2422.425938392595
 30
0.0
 11
642.7684321641791
 21
1929.7844892816
 31
0.0
  0
LINE
  5
7C38
330
8148
100
AcDbEntity
  8
1
100
AcDbLine
 10
1528.915394138617
 20
2248.832746312065
 30
0.0
 11
676.8874831637161
 21
1775.522822528373
 31
0.0
  0
LINE
  5
7C39
330
8148
100
AcDbEntity
  8
1
100
AcDbLine
 10
1543.098762134288
 20
2189.387252714616
 30
0.0
 11
693.0987621342883
 21
1706.387252714616
 31
0.0
  0
LINE
  5
7C3A
330
8148
100
AcDbEntity
  8
1
100
AcDbLine
 10
2740.739608317243
 20
2424.747673143364
 30
0.0
 11
2740.739608317242
 21
2246.947673143363
 31
0.0
  0
LINE
  5
7C3B
330
8148
100
AcDbEntity
  8
1
100
AcDbLine
 10
2822.739608317244
 20
2424.747673143364
 30
0.0
 11
2822.739608317242
 21
2246.947673143364
 31
0.0
  0
LINE
  5
7C3C
330
8148
100
AcDbEntity
  8
1
100
AcDbLine
 10
2740.739608317243
 20
2424.747673143364
 30
0.0
 11
2822.739608317244
 21
2424.747673143364
 31
0.0
  0
LINE
  5
7C3D
330
8148
100
AcDbEntity
  8
1
100
AcDbLine
 10
2740.739608317242
 20
2246.947673143363
 30
0.0
 11
2822.739608317242
 21
2246.947673143364
 31
0.0
  0
LINE
  5
7C3E
330
8148
100
AcDbEntity
  8
1
100
AcDbLine
 10
2740.739608317242
 20
1931.847673143363
 30
0.0
 11
2822.739608317242
 21
1931.847673143363
 31
0.0
  0
LINE
  5
7C3F
330
8148
100
AcDbEntity
  8
1
100
AcDbLine
 10
2740.739608317241
 20
1773.847673143364
 30
0.0
 11
2822.739608317241
 21
1773.847673143364
 31
0.0
  0
LINE
  5
7C40
330
8148
100
AcDbEntity
  8
1
100
AcDbLine
 10
2612.739608317243
 20
2485.847673143364
 30
0.0
 11
2612.739608317241
 21
1702.847673143363
 31
0.0
  0
LINE
  5
7C41
330
8148
100
AcDbEntity
  8
1
100
AcDbLine
 10
2872.739608317243
 20
2485.847673143364
 30
0.0
 11
2872.739608317245
 21
2465.847673143363
 31
0.0
  0
LINE
  5
7C42
330
8148
100
AcDbEntity
  8
1
100
AcDbLine
 10
2612.739608317244
 20
2485.847673143364
 30
0.0
 11
2872.739608317243
 21
2485.847673143364
 31
0.0
  0
LINE
  5
7C43
330
8148
100
AcDbEntity
  8
1
100
AcDbLine
 10
2612.739608317241
 20
1702.847673143363
 30
0.0
 11
2872.739608317241
 21
1702.847673143363
 31
0.0
  0
LINE
  5
7C44
330
8148
100
AcDbEntity
  8
1
100
AcDbLine
 10
2872.739608317241
 20
1710.347673143363
 30
0.0
 11
2872.739608317241
 21
1702.847673143363
 31
0.0
  0
LINE
  5
7C45
330
8148
100
AcDbEntity
  8
1
100
AcDbLine
 10
1110.705163262988
 20
4478.318859462985
 30
0.0
 11
1910.705163262989
 21
4478.318859462985
 31
0.0
  0
LINE
  5
7C46
330
8148
100
AcDbEntity
  8
1
100
AcDbLine
 10
460.7051632629889
 20
3472.318859462983
 30
0.0
 11
1910.705163262989
 21
3472.318859462983
 31
0.0
  0
LINE
  5
7C47
330
8148
100
AcDbEntity
  8
1
100
AcDbLine
 10
1910.705163262989
 20
4478.318859462985
 30
0.0
 11
1910.705163262989
 21
4425.318859462985
 31
0.0
  0
LINE
  5
7C48
330
8148
100
AcDbEntity
  8
1
100
AcDbLine
 10
1110.705163262988
 20
4478.318859462985
 30
0.0
 11
1110.705163262988
 21
4425.318859462982
 31
0.0
  0
LINE
  5
7C49
330
8148
100
AcDbEntity
  8
1
100
AcDbLine
 10
460.7051632629889
 20
4072.318859462983
 30
0.0
 11
460.7051632629889
 21
3472.318859462983
 31
0.0
  0
LINE
  5
7C4A
330
8148
100
AcDbEntity
  8
1
100
AcDbLine
 10
460.7051632629889
 20
4072.31885946298
 30
0.0
 11
962.7051632629893
 21
4072.318859462983
 31
0.0
  0
POINT
  5
7C4B
330
8148
100
AcDbEntity
  8
1
100
AcDbPoint
 10
1910.705163262989
 20
1455.847673143363
 30
0.0
  0
POINT
  5
7C4C
330
8148
100
AcDbEntity
  8
1
100
AcDbPoint
 10
1910.705163262989
 20
1355.847673143363
 30
0.0
  0
POINT
  5
7C4D
330
8148
100
AcDbEntity
  8
1
100
AcDbPoint
 10
1910.705163262989
 20
1455.847673143363
 30
0.0
  0
DIMENSION
  5
7C4E
330
8148
100
AcDbEntity
  8
3
100
AcDbDimension
  2
*D6
 10
4046.276641887906
 20
2000.847673143363
 30
0.0
 11
4006.276641887906
 21
2335.847673143363
 31
0.0
 12
825.4434148339605
 22
1767.750046693243
 32
0.0
 71
     5
 42
-1.0
  3
Standard
100
AcDbAlignedDimension
 13
3798.239608317245
 23
2670.847673143363
 33
0.0
 14
3798.239608317245
 24
2000.847673143363
 34
0.0
 50
90.0
100
AcDbRotatedDimension
1001
ACAD
1000
DSTYLE
1002
{
1070
    40
1040
20.0
1070
     3
1000
\U+03C6<>
1002
}
  0
DIMENSION
  5
7C51
330
8148
100
AcDbEntity
  8
3
100
AcDbDimension
  2
*D7
 10
3792.739608317243
 20
2861.432571521589
 30
0.0
 11
3392.739608317242
 21
2901.432571521589
 31
0.0
 12
825.4434148339605
 22
1767.750046693243
 32
0.0
 71
     5
 42
-1.0
  3
Standard
100
AcDbAlignedDimension
 13
2992.739608317242
 23
2766.247664024067
 33
0.0
 14
3792.739608317243
 24
2766.247664024067
 34
0.0
100
AcDbRotatedDimension
1001
ACAD
1000
DSTYLE
1002
{
1070
    40
1040
20.0
1002
}
  0
ARC
  5
7C52
330
8148
100
AcDbEntity
  8
1
100
AcDbCircle
 10
2900.239608317242
 20
2302.647673143363
 30
0.0
 40
10.0
100
AcDbArc
 50
90.0
 51
180.0
  0
ARC
  5
7C53
330
8148
100
AcDbEntity
  8
1
100
AcDbCircle
 10
2900.239608317242
 20
2202.647673143363
 30
0.0
 40
10.0
100
AcDbArc
 50
180.0
 51
270.0
  0
LINE
  5
7C54
330
8148
100
AcDbEntity
  8
1
100
AcDbLine
 10
2992.739608317242
 20
2192.647673143363
 30
0.0
 11
2900.239608317242
 21
2192.647673143363
 31
0.0
  0
LINE
  5
7C55
330
8148
100
AcDbEntity
  8
1
100
AcDbLine
 10
2992.739608317242
 20
2312.647673143363
 30
0.0
 11
2900.239608317242
 21
2312.647673143363
 31
0.0
  0
LINE
  5
7C56
330
8148
100
AcDbEntity
  8
1
100
AcDbLine
 10
2890.239608317243
 20
2302.647673143363
 30
0.0
 11
2890.239608317243
 21
2202.647673143363
 31
0.0
  0
LINE
  5
7C57
330
8148
100
AcDbEntity
  8
1
100
AcDbLine
 10
2822.739608317242
 20
2310.847673143364
 30
0.0
 11
2894.639608317243
 21
2310.847673143364
 31
0.0
  0
LINE
  5
7C59
330
8148
100
AcDbEntity
  8
1
100
AcDbLine
 10
1910.705163262989
 20
1635.847673143364
 30
0.0
 11
1910.705163262989
 21
1535.847673143363
 31
0.0
  0
LINE
  5
7C5A
330
8148
100
AcDbEntity
  8
1
100
AcDbLine
 10
460.7051632629889
 20
1635.847673143364
 30
0.0
 11
1910.705163262989
 21
1635.847673143364
 31
0.0
1001
ACAD
1000
ASC_BOUNDS
1002
{
1070
    19
1005
0
1005
0
1002
}
  0
LINE
  5
7C5B
330
8148
100
AcDbEntity
  8
1
100
AcDbLine
 10
460.7051632629889
 20
1535.847673143363
 30
0.0
 11
1910.705163262989
 21
1535.847673143363
 31
0.0
  0
LINE
  5
7C5C
330
8148
100
AcDbEntity
  8
1
100
AcDbLine
 10
460.7051632629889
 20
1635.847673143364
 30
0.0
 11
460.7051632629889
 21
1535.847673143363
 31
0.0
  0
LINE
  5
7C5D
330
8148
100
AcDbEntity
  8
1
100
AcDbLine
 10
2839.739608317243
 20
1635.847673143364
 30
0.0
 11
3845.039608317243
 21
1635.847673143364
 31
0.0
1001
ACAD
1000
ASC_BOUNDS
1002
{
1070
    19
1002
}
  0
LINE
  5
7C5E
330
8148
100
AcDbEntity
  8
1
100
AcDbLine
 10
2839.739608317243
 20
1635.847673143364
 30
0.0
 11
2839.739608317243
 21
1535.847673143363
 31
0.0
  0
LINE
  5
7C5F
330
8148
100
AcDbEntity
  8
1
100
AcDbLine
 10
2839.739608317243
 20
1535.847673143363
 30
0.0
 11
3845.739608317241
 21
1535.847673143363
 31
0.0
  0
LINE
  5
7C60
330
8148
100
AcDbEntity
  8
1
100
AcDbLine
 10
3845.739608317244
 20
1635.847673143364
 30
0.0
 11
3845.739608317244
 21
1535.847673143363
 31
0.0
  0
ARC
  5
7C61
330
8148
100
AcDbEntity
  8
1
100
AcDbCircle
 10
1510.705163262989
 20
2335.847673143363
 30
0.0
 40
378.0
100
AcDbArc
 50
355.7519773332714
 51
0.0
  0
LINE
  5
7C62
330
8148
100
AcDbEntity
  8
1
100
AcDbLine
 10
962.7051632629893
 20
4425.318859462982
 30
0.0
 11
1970.705163262989
 21
4425.318859462985
 31
0.0
  0
LINE
  5
7C63
330
8148
100
AcDbEntity
  8
1
100
AcDbLine
 10
962.7051632629893
 20
3625.318859462981
 30
0.0
 11
1970.705163262989
 21
3625.318859462984
 31
0.0
  0
LINE
  5
7C64
330
8148
100
AcDbEntity
  8
1
100
AcDbLine
 10
1970.705163262989
 20
4465.318859462985
 30
0.0
 11
1970.705163262989
 21
3585.318859462983
 31
0.0
  0
LINE
  5
7C65
330
8148
100
AcDbEntity
  8
1
100
AcDbLine
 10
962.7051632629893
 20
4425.318859462982
 30
0.0
 11
962.7051632629893
 21
3625.318859462981
 31
0.0
  0
LINE
  5
7C66
330
8148
100
AcDbEntity
  8
1
100
AcDbLine
 10
1930.705163262988
 20
4425.318859462985
 30
0.0
 11
1930.705163262989
 21
3625.318859462984
 31
0.0
  0
LINE
  5
7C67
330
8148
100
AcDbEntity
  8
1
100
AcDbLine
 10
1910.705163262989
 20
3625.318859462981
 30
0.0
 11
1910.705163262989
 21
3472.318859462983
 31
0.0
  0
LINE
  5
7C68
330
8148
100
AcDbEntity
  8
1
100
AcDbLine
 10
581.705163262989
 20
3373.318859462983
 30
0.0
 11
739.705163262989
 21
3373.318859462983
 31
0.0
  0
LINE
  5
7C69
330
8148
100
AcDbEntity
  8
1
100
AcDbLine
 10
581.705163262989
 20
3455.318859462984
 30
0.0
 11
739.705163262989
 21
3455.318859462984
 31
0.0
  0
LINE
  5
7C6A
330
8148
100
AcDbEntity
  8
1
100
AcDbLine
 10
1599.605163262989
 20
3455.318859462983
 30
0.0
 11
1599.605163262989
 21
3373.318859462983
 31
0.0
  0
LINE
  5
7C6B
330
8148
100
AcDbEntity
  8
1
100
AcDbLine
 10
1421.805163262988
 20
3455.318859462983
 30
0.0
 11
1421.805163262988
 21
3373.318859462983
 31
0.0
  0
LINE
  5
7C6C
330
8148
100
AcDbEntity
  8
1
100
AcDbLine
 10
739.705163262989
 20
3455.318859462983
 30
0.0
 11
739.705163262989
 21
3373.318859462983
 31
0.0
  0
LINE
  5
7C6D
330
8148
100
AcDbEntity
  8
1
100
AcDbLine
 10
581.705163262989
 20
3455.318859462983
 30
0.0
 11
581.705163262989
 21
3373.318859462983
 31
0.0
  0
LINE
  5
7C6E
330
8148
100
AcDbEntity
  8
1
100
AcDbLine
 10
510.7051632629889
 20
3245.318859462983
 30
0.0
 11
1660.705163262989
 21
3245.318859462983
 31
0.0
  0
LINE
  5
7C6F
330
8148
100
AcDbEntity
  8
1
100
AcDbLine
 10
1660.705163262989
 20
3505.318859462983
 30
0.0
 11
1660.705163262989
 21
3245.318859462983
 31
0.0
  0
LINE
  5
7C70
330
8148
100
AcDbEntity
  8
1
100
AcDbLine
 10
510.7051632629889
 20
3505.318859462983
 30
0.0
 11
510.7051632629889
 21
3245.318859462983
 31
0.0
  0
LINE
  5
7C71
330
8148
100
AcDbEntity
  8
1
100
AcDbLine
 10
510.7051632629889
 20
3505.318859462983
 30
0.0
 11
1660.705163262989
 21
3505.318859462983
 31
0.0
  0
LINE
  5
7C72
330
8148
100
AcDbEntity
  8
1
100
AcDbLine
 10
1421.805163262989
 20
3455.318859462983
 30
0.0
 11
1599.605163262989
 21
3455.318859462983
 31
0.0
  0
LINE
  5
7C73
330
8148
100
AcDbEntity
  8
1
100
AcDbLine
 10
1421.805163262988
 20
3373.318859462983
 30
0.0
 11
1599.605163262989
 21
3373.318859462983
 31
0.0
  0
LINE
  5
7C74
330
8148
100
AcDbEntity
  8
2
100
AcDbLine
 10
660.705163262989
 20
3933.909752629606
 30
0.0
 11
660.705163262989
 21
3221.765576191286
 31
0.0
  0
LINE
  5
7C75
330
8148
100
AcDbEntity
  8
1
100
AcDbLine
 10
803.205163262989
 20
3892.318559462983
 30
0.0
 11
518.2051632629891
 21
3892.318559462983
 31
0.0
  0
LINE
  5
7C76
330
8148
100
AcDbEntity
  8
1
100
AcDbLine
 10
803.205163262989
 20
3502.318859462983
 30
0.0
 11
518.2051632629891
 21
3502.318859462983
 31
0.0
  0
LINE
  5
7C77
330
8148
100
AcDbEntity
  8
1
100
AcDbLine
 10
641.7051632629891
 20
3502.318859462983
 30
0.0
 11
641.7051632629891
 21
3455.318859462984
 31
0.0
  0
LINE
  5
7C78
330
8148
100
AcDbEntity
  8
1
100
AcDbLine
 10
679.7051632629891
 20
3502.318859462983
 30
0.0
 11
679.7051632629891
 21
3455.318859462984
 31
0.0
  0
LINE
  5
7C79
330
8148
100
AcDbEntity
  8
1
100
AcDbLine
 10
518.2051632629891
 20
3892.318559462983
 30
0.0
 11
518.2051632629891
 21
3502.318859462983
 31
0.0
  0
LINE
  5
7C7A
330
8148
100
AcDbEntity
  8
1
100
AcDbLine
 10
803.205163262989
 20
3892.318559462983
 30
0.0
 11
803.205163262989
 21
3502.318859462983
 31
0.0
  0
LINE
  5
7C7B
330
8148
100
AcDbEntity
  8
1
100
AcDbLine
 10
1535.705163262989
 20
3625.318859462981
 30
0.0
 11
1535.705163262989
 21
3455.318859462983
 31
0.0
  0
LINE
  5
7C7C
330
8148
100
AcDbEntity
  8
1
100
AcDbLine
 10
1485.705163262989
 20
3625.318859462981
 30
0.0
 11
1485.705163262989
 21
3455.318859462983
 31
0.0
  0
LINE
  5
7C7D
330
8148
100
AcDbEntity
  8
1
100
AcDbLine
 10
2822.739608317243
 20
2360.847673143364
 30
0.0
 11
2992.739608317242
 21
2360.847673143364
 31
0.0
  0
CIRCLE
  5
7C7E
330
8148
100
AcDbEntity
  8
1
100
AcDbCircle
 10
1510.705163262989
 20
2335.847673143363
 30
0.0
 40
335.0
  0
CIRCLE
  5
7C7F
330
8148
100
AcDbEntity
  8
1
100
AcDbCircle
 10
1510.705163262989
 20
2335.847673143363
 30
0.0
 40
375.0
  0
LINE
  5
7C80
330
8148
100
AcDbEntity
  8
1
100
AcDbLine
 10
835.7051632629891
 20
1675.847673143364
 30
0.0
 11
860.7051632629891
 21
1675.847673143364
 31
0.0
  0
POINT
  5
7C81
330
8148
100
AcDbEntity
  8
1
100
AcDbPoint
 10
3902.739608317244
 20
2305.847673143363
 30
0.0
  0
POINT
  5
7C82
330
8148
100
AcDbEntity
  8
1
100
AcDbPoint
 10
2612.739608317243
 20
2485.847673143364
 30
0.0
  0
DIMENSION
  5
7C84
330
8148
100
AcDbEntity
  8
3
100
AcDbDimension
  2
*D9
 10
2119.497134261597
 20
4478.318859462985
 30
0.0
 11
2079.497134261597
 21
3975.318859462984
 31
0.0
 12
931.0521668687504
 22
1313.903890932349
 32
0.0
 71
     5
 42
-1.0
  3
Standard
100
AcDbAlignedDimension
 13
1910.705163262989
 23
3472.318859462983
 33
0.0
 14
1910.705163262989
 24
4478.318859462985
 34
0.0
 50
90.0
100
AcDbRotatedDimension
1001
ACAD
1000
DSTYLE
1002
{
1070
    40
1040
20.0
1002
}
  0
DIMENSION
  5
7C85
330
8148
100
AcDbEntity
  8
3
100
AcDbDimension
  2
*D10
 10
1910.705163262989
 20
4626.924149961388
 30
0.0
 11
1510.705163262989
 21
4666.924149961388
 31
0.0
 12
931.0521668687504
 22
1313.903890932349
 32
0.0
 71
     5
 42
-1.0
  3
Standard
100
AcDbAlignedDimension
 13
1110.705163262988
 23
4478.318859462985
 33
0.0
 14
1910.705163262989
 24
4478.318859462985
 34
0.0
100
AcDbRotatedDimension
1001
ACAD
1000
DSTYLE
1002
{
1070
    40
1040
20.0
1002
}
  0
DIMENSION
  5
7C86
330
8148
100
AcDbEntity
  8
3
100
AcDbDimension
  2
*D11
 10
341.9601988091053
 20
3472.318859462983
 30
0.0
 11
301.9601988091052
 21
3772.318859462983
 31
0.0
 12
105.60875203479
 22
0.0
 32
0.0
 71
     5
 42
-1.0
  3
Standard
100
AcDbAlignedDimension
 13
460.7051632629889
 23
4072.318859462983
 33
0.0
 14
460.7051632629889
 24
3472.318859462983
 34
0.0
 50
90.0
100
AcDbRotatedDimension
1001
ACAD
1000
DSTYLE
1002
{
1070
    40
1040
20.0
1002
}
  0
DIMENSION
  5
7C8C
330
8148
100
AcDbEntity
  8
3
100
AcDbDimension
  2
*D12
 10
1970.705163262989
 20
3045.340322853661
 30
0.0
 11
1215.705163262988
 21
3085.340322853661
 31
0.0
 12
105.60875203479
 22
0.0
 32
0.0
 71
     5
 42
-1.0
  3
Standard
100
AcDbAlignedDimension
 13
460.7051632629889
 23
1675.847673143364
 33
0.0
 14
1970.705163262989
 24
2316.0123657914
 34
0.0
100
AcDbRotatedDimension
1001
ACAD
1000
DSTYLE
1002
{
1070
    40
1040
20.0
1002
}
  0
LINE
  5
7C8D
330
8148
100
AcDbEntity
  8
1
100
AcDbLine
 10
2869.739608317242
 20
1710.347673143363
 30
0.0
 11
2869.739608317242
 21
1995.347673143363
 31
0.0
  0
LINE
  5
7C8E
330
8148
100
AcDbEntity
  8
1
100
AcDbLine
 10
2992.739608317242
 20
1995.347673143363
 30
0.0
 11
2869.739608317243
 21
1995.347673143363
 31
0.0
  0
LINE
  5
7C8F
330
8148
100
AcDbEntity
  8
1
100
AcDbLine
 10
2869.739608317242
 20
1833.847673143364
 30
0.0
 11
2822.739608317243
 21
1833.847673143364
 31
0.0
  0
LINE
  5
7C90
330
8148
100
AcDbEntity
  8
1
100
AcDbLine
 10
2869.739608317242
 20
1871.847673143363
 30
0.0
 11
2822.739608317243
 21
1871.847673143363
 31
0.0
  0
LINE
  5
7C91
330
8148
100
AcDbEntity
  8
1
100
AcDbLine
 10
2992.739608317242
 20
1710.347673143363
 30
0.0
 11
2869.739608317242
 21
1710.347673143363
 31
0.0
  0
POINT
  5
7C92
330
8148
100
AcDbEntity
  8
1
100
AcDbPoint
 10
1910.705163262989
 20
1455.847673143363
 30
0.0
  0
POINT
  5
7C93
330
8148
100
AcDbEntity
  8
1
100
AcDbPoint
 10
1910.705163262989
 20
1535.847673143363
 30
0.0
  0
LINE
  5
7C94
330
8148
100
AcDbEntity
  8
1
100
AcDbLine
 10
2822.73960831724
 20
1931.847673143363
 30
0.0
 11
2822.73960831724
 21
1773.847673143364
 31
0.0
  0
LINE
  5
7C95
330
8148
100
AcDbEntity
  8
1
100
AcDbLine
 10
2740.739608317241
 20
1931.847673143363
 30
0.0
 11
2740.739608317239
 21
1773.847673143364
 31
0.0
  0
DIMENSION
  5
7C9C
330
8148
100
AcDbEntity
  8
3
100
AcDbDimension
  2
*D16
 10
1510.705163262989
 20
2925.066613388714
 30
0.0
 11
1740.705163262989
 21
2965.066613388714
 31
0.0
 12
105.60875203479
 22
0.0
 32
0.0
 71
     5
 42
-1.0
  3
Standard
100
AcDbAlignedDimension
 13
1970.705163262989
 23
2335.847673143363
 33
0.0
 14
1510.705163262989
 24
2865.447817660772
 34
0.0
100
AcDbRotatedDimension
1001
ACAD
1000
DSTYLE
1002
{
1070
    40
1040
20.0
1002
}
  0
LINE
  5
7CA2
330
8148
100
AcDbEntity
  8
1
100
AcDbLine
 10
2992.739608317242
 20
2789.847673143365
 30
0.0
 11
3792.739608317243
 21
2789.847673143365
 31
0.0
  0
LINE
  5
7CA3
330
8148
100
AcDbEntity
  8
1
100
AcDbLine
 10
2992.739608317243
 20
1657.847673143364
 30
0.0
 11
3792.739608317245
 21
1657.847673143364
 31
0.0
  0
LINE
  5
7CA4
330
8148
100
AcDbEntity
  8
1
100
AcDbLine
 10
2992.739608317242
 20
2307.847673143363
 30
0.0
 11
3792.739608317243
 21
2307.847673143363
 31
0.0
  0
LINE
  5
7CA5
330
8148
100
AcDbEntity
  8
1
100
AcDbLine
 10
3792.739608317243
 20
2307.847673143363
 30
0.0
 11
2992.739608317242
 21
1657.847673143364
 31
0.0
  0
LINE
  5
7CA6
330
8148
100
AcDbEntity
  8
1
100
AcDbLine
 10
2992.739608317242
 20
2307.847673143363
 30
0.0
 11
3792.739608317245
 21
1657.847673143364
 31
0.0
  0
LINE
  5
7F25
330
8148
100
AcDbEntity
  8
4
100
AcDbLine
 10
3700.0
 20
1000.0
 30
0.0
 11
3700.0
 21
600.0
 31
0.0
  0
LINE
  5
7F26
330
8148
100
AcDbEntity
  8
4
100
AcDbLine
 10
2300.0
 20
1000.0
 30
0.0
 11
2300.0
 21
600.0
 31
0.0
  0
LINE
  5
7F27
330
8148
100
AcDbEntity
  8
4
100
AcDbLine
 10
1300.0
 20
1000.0
 30
0.0
 11
1300.0
 21
600.0
 31
0.0
  0
LINE
  5
7F2A
330
8148
100
AcDbEntity
  8
4
100
AcDbLine
 10
1300.0
 20
600.0
 30
0.0
 11
3700.0
 21
600.0
 31
0.0
  0
LINE
  5
7F2B
330
8148
100
AcDbEntity
  8
4
100
AcDbLine
 10
1300.0
 20
800.0
 30
0.0
 11
3700.0
 21
800.0
 31
0.0
  0
TEXT
  5
7F2C
330
8148
100
AcDbEntity
  8
4
100
AcDbText
 10
1377.004161693803
 20
863.0860517332255
 30
0.0
 40
100.0
  1
機器名称
100
AcDbText
  0
TEXT
  5
7F2D
330
8148
100
AcDbEntity
  8
4
100
AcDbText
 10
1372.516212049595
 20
643.2903134640219
 30
0.0
 40
100.0
  1
機器型番
100
AcDbText
  0
TEXT
  5
7F2E
330
8148
100
AcDbEntity
  8
4
100
AcDbText
 10
2355.357490975329
 20
845.1435379151371
 30
0.0
 40
100.0
  1
ミツヤ多翼送風機
100
AcDbText
  0
TEXT
  5
7F2F
330
8148
100
AcDbEntity
  8
4
100
AcDbText
 10
2373.308991170961
 20
634.3191685598867
 30
0.0
 40
100.0
  1
MF#4-5
100
AcDbText
  0
TEXT
  5
7F31
330
8148
100
AcDbEntity
  8
4
100
AcDbText
 10
1630.036683960145
 20
4766.857682665031
 30
0.0
 40
107.9999999999999
  1
床置防振ベット
100
AcDbText
  0
TEXT
  5
7F32
330
8148
100
AcDbEntity
  8
4
100
AcDbText
 10
632.3351866588928
 20
5067.761952398596
 30
0.0
 40
144.0
  1
遠心式両吸込両持多翼ファン
100
AcDbText
  0
LINE
  5
7F33
330
8148
100
AcDbEntity
  8
4
100
AcDbLine
 10
500.0
 20
4938.817508529609
 30
0.0
 11
3700.0
 21
4938.817508529609
 31
0.0
  0
LINE
  5
7F34
330
8148
100
AcDbEntity
  8
4
100
AcDbLine
 10
500.0
 20
5338.81750852961
 30
0.0
 11
3700.0
 21
5338.81750852961
 31
0.0
  0
LINE
  5
7F35
330
8148
100
AcDbEntity
  8
4
100
AcDbLine
 10
1300.0
 20
1000.0
 30
0.0
 11
3700.0
 21
1000.0
 31
0.0
  0
LINE
  5
7F36
330
8148
100
AcDbEntity
  8
4
100
AcDbLine
 10
500.0
 20
5338.81750852961
 30
0.0
 11
500.0
 21
4938.817508529609
 31
0.0
  0
TEXT
  5
7F37
330
8148
100
AcDbEntity
  8
4
100
AcDbText
 10
758.3190194747404
 20
4764.638955092687
 30
0.0
 40
107.9999999999999
  1
左回転右横向
100
AcDbText
  0
TEXT
  5
7F38
330
8148
100
AcDbEntity
  8
4
100
AcDbText
 10
2937.939118498579
 20
5412.122162990619
 30
0.0
 40
112.0
  1
No.
100
AcDbText
  0
TEXT
  5
7F39
330
8148
100
AcDbEntity
  8
4
100
AcDbText
 10
2622.592125200027
 20
4766.857682665031
 30
0.0
 40
107.9999999999999
  1
縮尺：1/20
100
AcDbText
  0
LINE
  5
7F3A
330
8148
100
AcDbEntity
  8
4
100
AcDbLine
 10
3700.0
 20
5338.81750852961
 30
0.0
 11
3700.0
 21
4938.817508529609
 31
0.0
  0
LINE
  5
7F3B
330
8148
100
AcDbEntity
  8
4
100
AcDbLine
 10
4200.0
 20
5900.0
 30
0.0
 11
4200.0
 21
5900.0
 31
0.0
  0
LINE
  5
7F3C
330
8148
100
AcDbEntity
  8
4
100
AcDbLine
 10
2881.234844719729
 20
5362.527166250802
 30
0.0
 11
2881.234844719729
 21
5573.304523099504
 31
0.0
  0
LINE
  5
7F3D
330
8148
100
AcDbEntity
  8
4
100
AcDbLine
 10
2881.234844719729
 20
5573.304523099504
 30
0.0
 11
3700.0
 21
5573.304523099504
 31
0.0
  0
LINE
  5
7F3E
330
8148
100
AcDbEntity
  8
4
100
AcDbLine
 10
3700.0
 20
5573.304523099504
 30
0.0
 11
3700.0
 21
5362.527166250802
 31
0.0
  0
LINE
  5
7F3F
330
8148
100
AcDbEntity
  8
4
100
AcDbLine
 10
3700.0
 20
5362.527166250802
 30
0.0
 11
2881.234844719729
 21
5362.527166250802
 31
0.0
  0
LINE
  5
7F40
330
8148
100
AcDbEntity
  8
4
100
AcDbLine
 10
0.0
 20
0.0
 30
0.0
 11
0.0
 21
5900.0
 31
0.0
  0
LINE
  5
7F41
330
8148
100
AcDbEntity
  8
4
100
AcDbLine
 10
0.0
 20
5900.0
 30
0.0
 11
4200.0
 21
5900.0
 31
0.0
  0
LINE
  5
7F42
330
8148
100
AcDbEntity
  8
4
100
AcDbLine
 10
4200.0
 20
5900.0
 30
0.0
 11
4200.0
 21
0.0
 31
0.0
  0
LINE
  5
7F43
330
8148
100
AcDbEntity
  8
4
100
AcDbLine
 10
4200.0
 20
0.0
 30
0.0
 11
0.0
 21
0.0
 31
0.0
  0
DIMENSION
  5
8196
330
8148
100
AcDbEntity
  8
3
100
AcDbDimension
  2
*D29
 10
3392.739608317243
 20
3018.814889721371
 30
0.0
 11
3002.739608317243
 21
3084.529175435656
 31
0.0
 70
    32
  1
(<>)
 71
     5
 42
780.0
  3
IGA
100
AcDbAlignedDimension
 13
2612.739608317243
 23
2485.847673143364
 33
0.0
 14
3392.739608317243
 24
2942.042161577987
 34
0.0
100
AcDbRotatedDimension
1001
ACAD
1000
DSTYLE
1002
{
1070
    40
1040
20.0
1070
    42
1040
1.0
1070
   143
1040
0.039
1070
   172
1070
     1
1070
   271
1070
     4
1070
   272
1070
     4
1070
   279
1070
     0
1070
   284
1070
     0
1070
   285
1070
     0
1070
   286
1070
     0
1070
   341
1005
815C
1070
   343
1005
815C
1070
   344
1005
815C
1002
}
  0
DIMENSION
  5
81A3
330
8148
100
AcDbEntity
  8
3
100
AcDbDimension
  2
*D30
 10
3902.739608317244
 20
3018.814889721371
 30
0.0
 11
3647.739608317244
 21
3084.529175435656
 31
0.0
 70
    32
  1
(<>)
 71
     5
 42
510.0000000000013
  3
IGA
100
AcDbAlignedDimension
 13
3392.739608317243
 23
2942.042161577987
 33
0.0
 14
3902.739608317244
 24
2305.847673143363
 34
0.0
100
AcDbRotatedDimension
1001
ACAD
1000
DSTYLE
1002
{
1070
    40
1040
20.0
1070
    42
1040
1.0
1070
   143
1040
0.039
1070
   172
1070
     1
1070
   271
1070
     4
1070
   272
1070
     4
1070
   279
1070
     1
1070
   284
1070
     0
1070
   285
1070
     0
1070
   286
1070
     0
1070
   341
1005
815C
1070
   343
1005
815C
1070
   344
1005
815C
1002
}
  0
DIMENSION
  5
81D4
330
8148
100
AcDbEntity
  8
3
100
AcDbDimension
  2
*D31
 10
1910.705163262989
 20
3130.484068333541
 30
0.0
 11
1185.705163262989
 21
3180.484068333541
 31
0.0
 70
    32
 71
     5
 42
1450.0
  3
IGA
100
AcDbAlignedDimension
 13
460.7051632629889
 23
3472.318859462983
 33
0.0
 14
1910.705163262989
 24
3472.318859462983
 34
0.0
100
AcDbRotatedDimension
1001
ACAD
1000
DSTYLE
1002
{
1070
    40
1040
20.0
1070
    42
1040
1.0
1070
   143
1040
0.039
1070
   172
1070
     1
1070
   271
1070
     4
1070
   272
1070
     4
1070
   279
1070
     0
1070
   284
1070
     0
1070
   285
1070
     0
1070
   286
1070
     0
1070
   341
1005
815C
1070
   343
1005
815C
1070
   344
1005
815C
1002
}
  0
DIMENSION
  5
81E1
330
8148
100
AcDbEntity
  8
3
100
AcDbDimension
  2
*D32
 10
460.705163262989
 20
4626.924149961388
 30
0.0
 11
785.7051632629889
 21
4676.924149961387
 31
0.0
 70
    32
 71
     5
 42
649.9999999999998
  3
IGA
100
AcDbAlignedDimension
 13
1110.705163262988
 23
4478.318859462985
 33
0.0
 14
460.7051632629889
 24
4072.318859462983
 34
0.0
100
AcDbRotatedDimension
1001
ACAD
1000
DSTYLE
1002
{
1070
    40
1040
20.0
1070
    42
1040
1.0
1070
   143
1040
0.039
1070
   172
1070
     1
1070
   271
1070
     4
1070
   272
1070
     4
1070
   279
1070
     0
1070
   284
1070
     0
1070
   285
1070
     0
1070
   286
1070
     0
1070
   341
1005
815C
1070
   343
1005
815C
1070
   344
1005
815C
1002
}
  0
DIMENSION
  5
8259
330
8148
100
AcDbEntity
  8
3
100
AcDbDimension
  2
*D40
 10
3392.739608317243
 20
1220.428250374281
 30
0.0
 11
3116.239608317243
 21
1270.428250374281
 31
0.0
 70
    32
 71
     5
 42
553.0
  3
IGA
100
AcDbAlignedDimension
 13
2839.739608317243
 23
1355.847673143364
 33
0.0
 14
3392.739608317243
 24
1355.847673143364
 34
0.0
100
AcDbRotatedDimension
1001
ACAD
1000
DSTYLE
1002
{
1070
    40
1040
20.0
1070
    42
1040
1.0
1070
   143
1040
0.039
1070
   172
1070
     1
1070
   271
1070
     4
1070
   272
1070
     4
1070
   279
1070
     0
1070
   284
1070
     0
1070
   285
1070
     0
1070
   286
1070
     0
1070
   341
1005
815C
1070
   343
1005
815C
1070
   344
1005
815C
1002
}
  0
DIMENSION
  5
8266
330
8148
100
AcDbEntity
  8
3
100
AcDbDimension
  2
*D41
 10
3845.739608317244
 20
1220.428250374281
 30
0.0
 11
3619.239608317244
 21
1270.428250374281
 31
0.0
 70
    32
 71
     5
 42
453.0
  3
IGA
100
AcDbAlignedDimension
 13
3392.739608317243
 23
1355.847673143364
 33
0.0
 14
3845.739608317244
 24
1355.847673143364
 34
0.0
100
AcDbRotatedDimension
1001
ACAD
1000
DSTYLE
1002
{
1070
    40
1040
20.0
1070
    42
1040
1.0
1070
   143
1040
0.039
1070
   172
1070
     1
1070
   271
1070
     4
1070
   272
1070
     4
1070
   279
1070
     1
1070
   284
1070
     0
1070
   285
1070
     0
1070
   286
1070
     0
1070
   341
1005
815C
1070
   343
1005
815C
1070
   344
1005
815C
1002
}
  0
DIMENSION
  5
8273
330
8148
100
AcDbEntity
  8
3
100
AcDbDimension
  2
*D42
 10
1510.705163262989
 20
1200.095183195555
 30
0.0
 11
985.7051632629888
 21
1250.095183195555
 31
0.0
 70
    32
 71
     5
 42
1050.0
  3
IGA
100
AcDbAlignedDimension
 13
460.7051632629889
 23
1355.847673143364
 33
0.0
 14
1510.705163262989
 24
1355.847673143364
 34
0.0
100
AcDbRotatedDimension
1001
ACAD
1000
DSTYLE
1002
{
1070
    40
1040
20.0
1070
    42
1040
1.0
1070
   143
1040
0.039
1070
   172
1070
     1
1070
   271
1070
     4
1070
   272
1070
     4
1070
   279
1070
     0
1070
   284
1070
     0
1070
   285
1070
     0
1070
   286
1070
     0
1070
   341
1005
815C
1070
   343
1005
815C
1070
   344
1005
815C
1002
}
  0
DIMENSION
  5
8280
330
8148
100
AcDbEntity
  8
3
100
AcDbDimension
  2
*D43
 10
1910.705163262989
 20
1200.095183195555
 30
0.0
 11
1710.705163262989
 21
1250.095183195555
 31
0.0
 70
    32
 71
     5
 42
400.0
  3
IGA
100
AcDbAlignedDimension
 13
1510.705163262989
 23
1355.847673143364
 33
0.0
 14
1910.705163262989
 24
1355.847673143364
 34
0.0
100
AcDbRotatedDimension
1001
ACAD
1000
DSTYLE
1002
{
1070
    40
1040
20.0
1070
    42
1040
1.0
1070
   143
1040
0.039
1070
   172
1070
     1
1070
   271
1070
     4
1070
   272
1070
     4
1070
   279
1070
     1
1070
   284
1070
     0
1070
   285
1070
     0
1070
   286
1070
     0
1070
   341
1005
815C
1070
   343
1005
815C
1070
   344
1005
815C
1002
}
  0
DIMENSION
  5
828D
330
8148
100
AcDbEntity
  8
3
100
AcDbDimension
  2
*D44
 10
2378.01976856024
 20
1535.847673143363
 30
0.0
 11
2328.019768560239
 21
1935.847673143363
 31
0.0
 70
    32
 71
     5
 42
800.0
  3
IGA
100
AcDbAlignedDimension
 13
2017.598136365984
 23
2335.847673143363
 33
0.0
 14
1910.705163262989
 24
1535.847673143363
 34
0.0
 50
90.0
100
AcDbRotatedDimension
1001
ACAD
1000
DSTYLE
1002
{
1070
    40
1040
20.0
1070
    42
1040
1.0
1070
   143
1040
0.039
1070
   172
1070
     1
1070
   271
1070
     4
1070
   272
1070
     4
1070
   279
1070
     0
1070
   284
1070
     0
1070
   285
1070
     0
1070
   286
1070
     0
1070
   341
1005
815C
1070
   343
1005
815C
1070
   344
1005
815C
1002
}
  0
DIMENSION
  5
829A
330
8148
100
AcDbEntity
  8
3
100
AcDbDimension
  2
*D45
 10
2378.01976856024
 20
1455.847673143363
 30
0.0
 11
2514.715457294271
 21
1571.99053028622
 31
0.0
 70
   160
  1
(<>)
 71
     5
 42
80.0
  3
IGA
100
AcDbAlignedDimension
 13
1910.705163262989
 23
1535.847673143363
 33
0.0
 14
1910.705163262989
 24
1455.847673143363
 34
0.0
 50
90.0
100
AcDbRotatedDimension
1001
ACAD
1000
DSTYLE
1002
{
1070
    40
1040
20.0
1070
    42
1040
1.0
1070
   143
1040
0.039
1070
   172
1070
     1
1070
   271
1070
     4
1070
   272
1070
     4
1070
   279
1070
     1
1070
   284
1070
     0
1070
   285
1070
     0
1070
   286
1070
     0
1070
   341
1005
815C
1070
   343
1005
815C
1070
   344
1005
832A
1002
}
  0
DIMENSION
  5
82AC
330
8148
100
AcDbEntity
  8
3
100
AcDbDimension
  2
*D46
 10
2378.01976856024
 20
1355.847673143364
 30
0.0
 11
2382.402621311463
 21
1281.973888835515
 31
0.0
 70
   160
 71
     5
 42
99.99999999999909
  3
IGA
100
AcDbAlignedDimension
 13
1910.705163262989
 23
1455.847673143363
 33
0.0
 14
1910.705163262989
 24
1355.847673143364
 34
0.0
 50
90.0
100
AcDbRotatedDimension
1001
ACAD
1000
DSTYLE
1002
{
1070
    40
1040
20.0
1070
    42
1040
1.0
1070
   143
1040
0.039
1070
   172
1070
     1
1070
   271
1070
     4
1070
   272
1070
     4
1070
   279
1070
     1
1070
   284
1070
     0
1070
   285
1070
     0
1070
   286
1070
     0
1070
   341
1005
815C
1070
   343
1005
832A
1070
   344
1005
815C
1002
}
  0
DIMENSION
  5
83B7
330
8148
100
AcDbEntity
  8
3
100
AcDbDimension
  2
*D48
 10
962.7051632629889
 20
2925.066613388714
 30
0.0
 11
1236.705163262989
 21
2975.066613388714
 31
0.0
 70
    32
 71
     5
 42
548.0
  3
IGA
100
AcDbAlignedDimension
 13
1510.705163262989
 23
2865.447817660772
 33
0.0
 14
962.7051632629889
 24
2288.847673143363
 34
0.0
100
AcDbRotatedDimension
1001
ACAD
1000
DSTYLE
1002
{
1070
    40
1040
20.0
1070
    42
1040
1.0
1070
   143
1040
0.039
1070
   172
1070
     1
1070
   271
1070
     4
1070
   272
1070
     4
1070
   279
1070
     0
1070
   284
1070
     0
1070
   285
1070
     0
1070
   286
1070
     0
1070
   341
1005
815C
1070
   343
1005
815C
1070
   344
1005
815C
1002
}
  0
DIMENSION
  5
8405
330
8148
100
AcDbEntity
  8
3
100
AcDbDimension
  2
*D49
 10
2554.895851844245
 20
2789.847673143363
 30
0.0
 11
2504.895851844245
 21
2072.847673143364
 31
0.0
 70
    32
 71
     5
 42
1433.999999999999
  3
IGA
100
AcDbAlignedDimension
 13
1910.705163262989
 23
1355.847673143364
 33
0.0
 14
1463.705163262989
 24
2789.847673143363
 34
0.0
 50
90.0
100
AcDbRotatedDimension
1001
ACAD
1000
DSTYLE
1002
{
1070
    40
1040
20.0
1070
    42
1040
1.0
1070
   143
1040
0.039
1070
   172
1070
     1
1070
   271
1070
     4
1070
   272
1070
     4
1070
   279
1070
     0
1070
   284
1070
     0
1070
   285
1070
     0
1070
   286
1070
     0
1070
   341
1005
815C
1070
   343
1005
815C
1070
   344
1005
815C
1002
}
  0
DIMENSION
  5
842F
330
8148
100
AcDbEntity
  8
3
100
AcDbDimension
  2
*D51
 10
2378.01976856024
 20
2335.847673143363
 30
0.0
 11
2328.019768560239
 21
2562.847673143364
 31
0.0
 70
    32
 71
     5
 42
454.0
  3
IGA
100
AcDbAlignedDimension
 13
1463.705163262989
 23
2789.847673143363
 33
0.0
 14
2017.598136365984
 24
2335.847673143363
 34
0.0
 50
90.0
100
AcDbRotatedDimension
1001
ACAD
1000
DSTYLE
1002
{
1070
    40
1040
20.0
1070
    42
1040
1.0
1070
   143
1040
0.039
1070
   172
1070
     1
1070
   271
1070
     4
1070
   272
1070
     4
1070
   279
1070
     0
1070
   284
1070
     0
1070
   285
1070
     0
1070
   286
1070
     0
1070
   341
1005
815C
1070
   343
1005
815C
1070
   344
1005
815C
1002
}
  0
ENDSEC
  0
SECTION
  2
OBJECTS
  0
DICTIONARY
  5
80E5
330
0
100
AcDbDictionary
281
     1
  3
ACAD_CIP_PREVIOUS_PRODUCT_INFO
350
8192
  3
ACAD_COLOR
350
813B
  3
ACAD_DETAILVIEWSTYLE
350
8142
  3
ACAD_GROUP
350
80E6
  3
ACAD_LAYOUT
350
813A
  3
ACAD_MATERIAL
350
80E9
  3
ACAD_MLEADERSTYLE
350
813E
  3
ACAD_MLINESTYLE
350
8137
  3
ACAD_PLOTSETTINGS
350
8139
  3
ACAD_PLOTSTYLENAME
350
80E7
  3
ACAD_SCALELIST
350
811B
  3
ACAD_SECTIONVIEWSTYLE
350
8140
  3
ACAD_TABLESTYLE
350
813C
  3
ACAD_VISUALSTYLE
350
8102
  3
ACDB_RECOMPOSE_DATA
350
845B
  3
AcDbVariableDictionary
350
844F
  3
DWGPROPS
350
845C
  0
DICTIONARY
  5
8445
330
812D
100
AcDbDictionary
280
     1
281
     1
  3
ADSK_XREC_LAYER_RECONCILED
360
8446
  0
DICTIONARY
  5
8447
330
814C
100
AcDbDictionary
280
     1
281
     1
  3
ADSK_XREC_LAYER_RECONCILED
360
8448
  0
DICTIONARY
  5
8449
330
814F
100
AcDbDictionary
280
     1
281
     1
  3
ADSK_XREC_LAYER_RECONCILED
360
844A
  0
DICTIONARY
  5
844B
330
8150
100
AcDbDictionary
280
     1
281
     1
  3
ADSK_XREC_LAYER_RECONCILED
360
844C
  0
DICTIONARY
  5
844D
330
8151
100
AcDbDictionary
280
     1
281
     1
  3
ADSK_XREC_LAYER_RECONCILED
360
844E
  0
XRECORD
  5
8192
102
{ACAD_REACTORS
330
80E5
102
}
330
80E5
100
AcDbXrecord
280
     1
300
ACDLT
300
2015
300
INVLTS_F_S
  0
DICTIONARY
  5
813B
102
{ACAD_REACTORS
330
80E5
102
}
330
80E5
100
AcDbDictionary
281
     1
  0
DICTIONARY
  5
8142
102
{ACAD_REACTORS
330
80E5
102
}
330
80E5
100
AcDbDictionary
281
     1
  3
Imperial24
350
8143
  0
DICTIONARY
  5
80E6
102
{ACAD_REACTORS
330
80E5
102
}
330
80E5
100
AcDbDictionary
281
     1
  0
DICTIONARY
  5
813A
102
{ACAD_REACTORS
330
80E5
102
}
330
80E5
100
AcDbDictionary
281
     1
  3
Model
350
814B
  3
レイアウト1
350
8147
  0
DICTIONARY
  5
80E9
102
{ACAD_REACTORS
330
80E5
102
}
330
80E5
100
AcDbDictionary
281
     1
  3
ByBlock
350
80F2
  3
ByLayer
350
80EA
  3
Global
350
80FA
  0
DICTIONARY
  5
813E
102
{ACAD_REACTORS
330
80E5
102
}
330
80E5
100
AcDbDictionary
281
     1
  3
Standard
350
813F
  0
DICTIONARY
  5
8137
102
{ACAD_REACTORS
330
80E5
102
}
330
80E5
100
AcDbDictionary
281
     1
  3
Standard
350
8138
  0
DICTIONARY
  5
8139
102
{ACAD_REACTORS
330
80E5
102
}
330
80E5
100
AcDbDictionary
281
     1
  0
ACDBDICTIONARYWDFLT
  5
80E7
102
{ACAD_REACTORS
330
80E5
102
}
330
80E5
100
AcDbDictionary
281
     1
  3
Normal
350
80E8
100
AcDbDictionaryWithDefault
340
80E8
  0
DICTIONARY
  5
811B
102
{ACAD_REACTORS
330
80E5
102
}
330
80E5
100
AcDbDictionary
281
     1
  3
A0
350
811C
  3
A1
350
811D
  3
A2
350
811E
  3
A3
350
811F
  3
A4
350
8120
  3
A5
350
8121
  3
A6
350
8122
  3
A7
350
8123
  3
A8
350
8124
  3
A9
350
8125
  3
B0
350
8126
  3
B1
350
8127
  3
B2
350
8128
  3
B3
350
8129
  3
B4
350
812A
  3
B5
350
812B
  3
B6
350
812C
  0
DICTIONARY
  5
8140
102
{ACAD_REACTORS
330
80E5
102
}
330
80E5
100
AcDbDictionary
281
     1
  3
Imperial24
350
8141
  0
DICTIONARY
  5
813C
102
{ACAD_REACTORS
330
80E5
102
}
330
80E5
100
AcDbDictionary
281
     1
  3
Standard
350
813D
  0
DICTIONARY
  5
8102
102
{ACAD_REACTORS
330
80E5
102
}
330
80E5
100
AcDbDictionary
281
     1
  3
2dWireframe
350
8108
  3
Basic
350
8107
  3
Brighten
350
810E
  3
ColorChange
350
8112
  3
Conceptual
350
810B
  3
Dim
350
810D
  3
EdgeColorOff
350
811A
  3
Facepattern
350
8111
  3
Flat
350
8103
  3
FlatWithEdges
350
8104
  3
Gouraud
350
8105
  3
GouraudWithEdges
350
8106
  3
Hidden
350
810A
  3
JitterOff
350
8118
  3
Linepattern
350
8110
  3
OverhangOff
350
8119
  3
Realistic
350
810C
  3
Shaded
350
8117
  3
Shaded with edges
350
8116
  3
Shades of Gray
350
8113
  3
Sketchy
350
8114
  3
Thicken
350
810F
  3
Wireframe
350
8109
  3
X-Ray
350
8115
  0
XRECORD
  5
845B
102
{ACAD_REACTORS
330
80E5
102
}
330
80E5
100
AcDbXrecord
280
     1
 90
        1
330
813D
  0
DICTIONARY
  5
844F
102
{ACAD_REACTORS
330
80E5
102
}
330
80E5
100
AcDbDictionary
281
     1
  3
CANNOSCALE
350
8454
  3
CMLEADERSTYLE
350
8451
  3
CTABLESTYLE
350
8450
  3
CVIEWDETAILSTYLE
350
8452
  3
CVIEWSECTIONSTYLE
350
8453
  3
DIMASSOC
350
8457
  3
INDEXCTL
350
8456
  3
SORTENTS
350
8455
  3
XCLIPFRAME
350
8458
  0
XRECORD
  5
845C
102
{ACAD_REACTORS
330
80E5
102
}
330
80E5
100
AcDbXrecord
280
     1
  1
DWGPROPS COOKIE
  2

  3

  4

  6

  7

  8
yasukiyo.ogawa
  9

300
=
301
=
302
=
303
=
304
=
305
=
306
=
307
=
308
=
309
=
 40
0.0217438078703704
 41
2451387.576625463
 42
2460262.682949097
  1

 90
        0
  0
XRECORD
  5
8446
102
{ACAD_REACTORS
330
8445
102
}
330
8445
100
AcDbXrecord
280
     1
290
     1
  0
XRECORD
  5
8448
102
{ACAD_REACTORS
330
8447
102
}
330
8447
100
AcDbXrecord
280
     1
290
     1
  0
XRECORD
  5
844A
102
{ACAD_REACTORS
330
8449
102
}
330
8449
100
AcDbXrecord
280
     1
290
     1
  0
XRECORD
  5
844C
102
{ACAD_REACTORS
330
844B
102
}
330
844B
100
AcDbXrecord
280
     1
290
     1
  0
XRECORD
  5
844E
102
{ACAD_REACTORS
330
844D
102
}
330
844D
100
AcDbXrecord
280
     1
290
     1
  0
ACDBDETAILVIEWSTYLE
  5
8143
102
{ACAD_XDICTIONARY
360
8494
102
}
102
{ACAD_REACTORS
330
8142
102
}
330
8142
100
AcDbModelDocViewStyle
 70
     0
  3
Imperial24
290
     0
100
AcDbDetailViewStyle
 70
     0
 71
     0
 90
        3
 71
     1
340
812E
 40
0.24
340
0
 40
0.24
300

 40
0.36
280
     3
 71
     2
340
8135
 90
       25
 71
     3
340
812E
 40
0.24
 90
        1
 40
0.75
 90
        1
300
%<\AcVar ViewType \f "%tc1">% %<\AcVar ViewDetailId>%\PSCALE %<\AcVar ViewScale \f "%sn">%
 71
     4
340
8135
 90
       25
340
8135
 90
       25
280
     0
  0
LAYOUT
  5
814B
102
{ACAD_XDICTIONARY
360
8498
102
}
102
{ACAD_REACTORS
330
813A
102
}
330
813A
100
AcDbPlotSettings
  1

  2
RICOH imagio MP W3600 RPCS
  4

  6

 40
0.0
 41
0.0
 42
0.0
 43
0.0
 44
0.0
 45
0.0
 46
0.0
 47
0.0
 48
0.0
 49
0.0
140
0.0
141
0.0
142
1.0
143
1.0
 70
  1712
 72
     0
 73
     0
 74
     0
  7

 75
     0
147
1.0
148
0.0
149
0.0
100
AcDbLayout
  1
Model
 70
     1
 71
     0
 10
0.0
 20
0.0
 11
12.0
 21
9.0
 12
0.0
 22
0.0
 32
0.0
 14
0.0
 24
0.0
 34
0.0
 15
0.0
 25
0.0
 35
0.0
146
0.0
 13
0.0
 23
0.0
 33
0.0
 16
1.0
 26
0.0
 36
0.0
 17
0.0
 27
1.0
 37
0.0
 76
     0
330
8148
331
814D
  0
LAYOUT
  5
8147
102
{ACAD_XDICTIONARY
360
8496
102
}
102
{ACAD_REACTORS
330
813A
102
}
330
813A
100
AcDbPlotSettings
  1

  2
RICOH imagio MP W3600 RPCS
  4

  6

 40
0.0
 41
0.0
 42
0.0
 43
0.0
 44
0.0
 45
0.0
 46
0.0
 47
0.0
 48
0.0
 49
0.0
140
0.0
141
0.0
142
1.0
143
1.0
 70
   688
 72
     0
 73
     0
 74
     5
  7

 75
    16
147
1.0
148
0.0
149
0.0
100
AcDbLayout
  1
レイアウト1
 70
     1
 71
     1
 10
0.0
 20
0.0
 11
12.0
 21
9.0
 12
0.0
 22
0.0
 32
0.0
 14
1.000000000000000E+20
 24
1.000000000000000E+20
 34
1.000000000000000E+20
 15
-1.000000000000000E+20
 25
-1.000000000000000E+20
 35
-1.000000000000000E+20
146
0.0
 13
0.0
 23
0.0
 33
0.0
 16
1.0
 26
0.0
 36
0.0
 17
0.0
 27
1.0
 37
0.0
 76
     0
330
8144
  0
MATERIAL
  5
80F2
102
{ACAD_XDICTIONARY
360
80F3
102
}
102
{ACAD_REACTORS
330
80E9
102
}
330
80E9
100
AcDbMaterial
  1
ByBlock
 72
     0
 43
0.0208333333333333
 43
0.0
 43
0.0
 43
0.0
 43
0.0
 43
0.0208333333333333
 43
0.0
 43
0.0
 43
0.0
 43
0.0
 43
1.0
 43
0.0
 43
0.0
 43
0.0
 43
0.0
 43
1.0
 77
     0
 47
0.0208333333333333
 47
0.0
 47
0.0
 47
0.0
 47
0.0
 47
0.0208333333333333
 47
0.0
 47
0.0
 47
0.0
 47
0.0
 47
1.0
 47
0.0
 47
0.0
 47
0.0
 47
0.0
 47
1.0
171
     0
 49
0.0208333333333333
 49
0.0
 49
0.0
 49
0.0
 49
0.0
 49
0.0208333333333333
 49
0.0
 49
0.0
 49
0.0
 49
0.0
 49
1.0
 49
0.0
 49
0.0
 49
0.0
 49
0.0
 49
1.0
175
     0
142
0.0208333333333333
142
0.0
142
0.0
142
0.0
142
0.0
142
0.0208333333333333
142
0.0
142
0.0
142
0.0
142
0.0
142
1.0
142
0.0
142
0.0
142
0.0
142
0.0
142
1.0
179
     0
144
0.0208333333333333
144
0.0
144
0.0
144
0.0
144
0.0
144
0.0208333333333333
144
0.0
144
0.0
144
0.0
144
0.0
144
1.0
144
0.0
144
0.0
144
0.0
144
0.0
144
1.0
147
0.0208333333333333
147
0.0
147
0.0
147
0.0
147
0.0
147
0.0208333333333333
147
0.0
147
0.0
147
0.0
147
0.0
147
1.0
147
0.0
147
0.0
147
0.0
147
0.0
147
1.0
  0
MATERIAL
  5
80EA
102
{ACAD_XDICTIONARY
360
80EB
102
}
102
{ACAD_REACTORS
330
80E9
102
}
330
80E9
100
AcDbMaterial
  1
ByLayer
 72
     0
 43
0.0208333333333333
 43
0.0
 43
0.0
 43
0.0
 43
0.0
 43
0.0208333333333333
 43
0.0
 43
0.0
 43
0.0
 43
0.0
 43
1.0
 43
0.0
 43
0.0
 43
0.0
 43
0.0
 43
1.0
 77
     0
 47
0.0208333333333333
 47
0.0
 47
0.0
 47
0.0
 47
0.0
 47
0.0208333333333333
 47
0.0
 47
0.0
 47
0.0
 47
0.0
 47
1.0
 47
0.0
 47
0.0
 47
0.0
 47
0.0
 47
1.0
171
     0
 49
0.0208333333333333
 49
0.0
 49
0.0
 49
0.0
 49
0.0
 49
0.0208333333333333
 49
0.0
 49
0.0
 49
0.0
 49
0.0
 49
1.0
 49
0.0
 49
0.0
 49
0.0
 49
0.0
 49
1.0
175
     0
142
0.0208333333333333
142
0.0
142
0.0
142
0.0
142
0.0
142
0.0208333333333333
142
0.0
142
0.0
142
0.0
142
0.0
142
1.0
142
0.0
142
0.0
142
0.0
142
0.0
142
1.0
179
     0
144
0.0208333333333333
144
0.0
144
0.0
144
0.0
144
0.0
144
0.0208333333333333
144
0.0
144
0.0
144
0.0
144
0.0
144
1.0
144
0.0
144
0.0
144
0.0
144
0.0
144
1.0
147
0.0208333333333333
147
0.0
147
0.0
147
0.0
147
0.0
147
0.0208333333333333
147
0.0
147
0.0
147
0.0
147
0.0
147
1.0
147
0.0
147
0.0
147
0.0
147
0.0
147
1.0
  0
MATERIAL
  5
80FA
102
{ACAD_XDICTIONARY
360
80FB
102
}
102
{ACAD_REACTORS
330
80E9
102
}
330
80E9
100
AcDbMaterial
  1
Global
 72
     0
 43
0.0208333333333333
 43
0.0
 43
0.0
 43
0.0
 43
0.0
 43
0.0208333333333333
 43
0.0
 43
0.0
 43
0.0
 43
0.0
 43
1.0
 43
0.0
 43
0.0
 43
0.0
 43
0.0
 43
1.0
 77
     0
 47
0.0208333333333333
 47
0.0
 47
0.0
 47
0.0
 47
0.0
 47
0.0208333333333333
 47
0.0
 47
0.0
 47
0.0
 47
0.0
 47
1.0
 47
0.0
 47
0.0
 47
0.0
 47
0.0
 47
1.0
171
     0
 49
0.0208333333333333
 49
0.0
 49
0.0
 49
0.0
 49
0.0
 49
0.0208333333333333
 49
0.0
 49
0.0
 49
0.0
 49
0.0
 49
1.0
 49
0.0
 49
0.0
 49
0.0
 49
0.0
 49
1.0
175
     0
142
0.0208333333333333
142
0.0
142
0.0
142
0.0
142
0.0
142
0.0208333333333333
142
0.0
142
0.0
142
0.0
142
0.0
142
1.0
142
0.0
142
0.0
142
0.0
142
0.0
142
1.0
179
     0
144
0.0208333333333333
144
0.0
144
0.0
144
0.0
144
0.0
144
0.0208333333333333
144
0.0
144
0.0
144
0.0
144
0.0
144
1.0
144
0.0
144
0.0
144
0.0
144
0.0
144
1.0
147
0.0208333333333333
147
0.0
147
0.0
147
0.0
147
0.0
147
0.0208333333333333
147
0.0
147
0.0
147
0.0
147
0.0
147
1.0
147
0.0
147
0.0
147
0.0
147
0.0
147
1.0
  0
MLEADERSTYLE
  5
813F
102
{ACAD_REACTORS
330
813E
102
}
330
813E
100
AcDbMLeaderStyle
170
     2
171
     1
172
     0
 90
        2
 40
0.0
 41
0.0
173
     1
 91
-1056964608
340
8133
 92
       -2
290
     1
 42
0.09
291
     1
 43
0.36
  3
Standard
 44
0.18
300

342
812E
174
     1
178
     6
175
     1
176
     0
 93
-1056964608
 45
0.18
292
     0
297
     0
 46
0.18
 94
-1056964608
 47
1.0
 49
1.0
140
1.0
293
     1
141
0.0
294
     1
177
     0
142
1.0
295
     0
296
     0
143
0.125
1001
ACAD_MLEADERVER
1070
     2
  0
MLINESTYLE
  5
8138
102
{ACAD_REACTORS
330
8137
102
}
330
8137
100
AcDbMlineStyle
  2
STANDARD
 70
     0
  3

 62
   256
 51
90.0
 52
90.0
 71
     2
 49
0.5
 62
   256
  6
BYLAYER
 49
-0.5
 62
   256
  6
BYLAYER
  0
ACDBPLACEHOLDER
  5
80E8
102
{ACAD_REACTORS
330
80E7
102
}
330
80E7
  0
SCALE
  5
811C
102
{ACAD_REACTORS
330
811B
102
}
330
811B
100
AcDbScale
 70
     0
300
1:1
140
1.0
141
1.0
290
     1
  0
SCALE
  5
811D
102
{ACAD_REACTORS
330
811B
102
}
330
811B
100
AcDbScale
 70
     0
300
1/128" = 1'-0"
140
0.0078125
141
12.0
290
     0
  0
SCALE
  5
811E
102
{ACAD_REACTORS
330
811B
102
}
330
811B
100
AcDbScale
 70
     0
300
1/64" = 1'-0"
140
0.015625
141
12.0
290
     0
  0
SCALE
  5
811F
102
{ACAD_REACTORS
330
811B
102
}
330
811B
100
AcDbScale
 70
     0
300
1/32" = 1'-0"
140
0.03125
141
12.0
290
     0
  0
SCALE
  5
8120
102
{ACAD_REACTORS
330
811B
102
}
330
811B
100
AcDbScale
 70
     0
300
1/16" = 1'-0"
140
0.0625
141
12.0
290
     0
  0
SCALE
  5
8121
102
{ACAD_REACTORS
330
811B
102
}
330
811B
100
AcDbScale
 70
     0
300
3/32" = 1'-0"
140
0.09375
141
12.0
290
     0
  0
SCALE
  5
8122
102
{ACAD_REACTORS
330
811B
102
}
330
811B
100
AcDbScale
 70
     0
300
1/8" = 1'-0"
140
0.125
141
12.0
290
     0
  0
SCALE
  5
8123
102
{ACAD_REACTORS
330
811B
102
}
330
811B
100
AcDbScale
 70
     0
300
3/16" = 1'-0"
140
0.1875
141
12.0
290
     0
  0
SCALE
  5
8124
102
{ACAD_REACTORS
330
811B
102
}
330
811B
100
AcDbScale
 70
     0
300
1/4" = 1'-0"
140
0.25
141
12.0
290
     0
  0
SCALE
  5
8125
102
{ACAD_REACTORS
330
811B
102
}
330
811B
100
AcDbScale
 70
     0
300
3/8" = 1'-0"
140
0.375
141
12.0
290
     0
  0
SCALE
  5
8126
102
{ACAD_REACTORS
330
811B
102
}
330
811B
100
AcDbScale
 70
     0
300
1/2" = 1'-0"
140
0.5
141
12.0
290
     0
  0
SCALE
  5
8127
102
{ACAD_REACTORS
330
811B
102
}
330
811B
100
AcDbScale
 70
     0
300
3/4" = 1'-0"
140
0.75
141
12.0
290
     0
  0
SCALE
  5
8128
102
{ACAD_REACTORS
330
811B
102
}
330
811B
100
AcDbScale
 70
     0
300
1" = 1'-0"
140
1.0
141
12.0
290
     0
  0
SCALE
  5
8129
102
{ACAD_REACTORS
330
811B
102
}
330
811B
100
AcDbScale
 70
     0
300
1-1/2" = 1'-0"
140
1.5
141
12.0
290
     0
  0
SCALE
  5
812A
102
{ACAD_REACTORS
330
811B
102
}
330
811B
100
AcDbScale
 70
     0
300
3" = 1'-0"
140
3.0
141
12.0
290
     0
  0
SCALE
  5
812B
102
{ACAD_REACTORS
330
811B
102
}
330
811B
100
AcDbScale
 70
     0
300
6" = 1'-0"
140
6.0
141
12.0
290
     0
  0
SCALE
  5
812C
102
{ACAD_REACTORS
330
811B
102
}
330
811B
100
AcDbScale
 70
     0
300
1'-0" = 1'-0"
140
12.0
141
12.0
290
     0
  0
ACDBSECTIONVIEWSTYLE
  5
8141
102
{ACAD_XDICTIONARY
360
8492
102
}
102
{ACAD_REACTORS
330
8140
102
}
330
8140
100
AcDbModelDocViewStyle
 70
     0
  3
Imperial24
290
     0
100
AcDbSectionViewStyle
 70
     0
 71
     0
 90
       78
 71
     1
340
812E
 40
0.24
340
0
340
0
 40
0.24
300
I, O, Q, S, X, Z
 40
0.48
 90
        3
 40
0.18
 90
        1
 71
     2
340
8135
 90
       25
340
8135
 90
       50
 40
0.24
 40
0.0
 40
0.24
 71
     3
340
812E
 40
0.24
 90
        1
 40
0.75
 90
        1
300
%<\AcVar ViewType \f "%tc1">% %<\AcVar ViewSectionStartId>%-%<\AcVar ViewSectionEndId>%\PSCALE %<\AcVar ViewScale \f "%sn">%
 71
     4
300
ANSI31
 40
1.0
 90
        0
290
     0
290
     0
 90
        6
 40
0.0
 40
1.570796326794896
 40
0.2617993877991494
 40
1.308996938995747
 40
-0.2617993877991494
 40
1.832595714594046
  0
TABLESTYLE
  5
813D
102
{ACAD_XDICTIONARY
360
8459
102
}
102
{ACAD_REACTORS
330
813C
102
}
330
813C
100
AcDbTableStyle
  3
Standard
 70
     0
 71
     0
 40
0.06
 41
0.06
280
     0
281
     0
  7
STANDARD
140
0.18
170
     2
 62
     0
 63
     7
283
     0
274
    -2
284
     1
 64
     0
275
    -2
285
     1
 65
     0
276
    -2
286
     1
 66
     0
277
    -2
287
     1
 67
     0
278
    -2
288
     1
 68
     0
279
    -2
289
     1
 69
     0
  7
STANDARD
140
0.25
170
     5
 62
     0
 63
     7
283
     0
274
    -2
284
     1
 64
     0
275
    -2
285
     1
 65
     0
276
    -2
286
     1
 66
     0
277
    -2
287
     1
 67
     0
278
    -2
288
     1
 68
     0
279
    -2
289
     1
 69
     0
  7
STANDARD
140
0.18
170
     5
 62
     0
 63
     7
283
     0
274
    -2
284
     1
 64
     0
275
    -2
285
     1
 65
     0
276
    -2
286
     1
 66
     0
277
    -2
287
     1
 67
     0
278
    -2
288
     1
 68
     0
279
    -2
289
     1
 69
     0
  0
VISUALSTYLE
  5
8108
102
{ACAD_XDICTIONARY
360
846A
102
}
102
{ACAD_REACTORS
330
8102
102
}
330
8102
100
AcDbVisualStyle
  2
2dWireframe
 70
     4
 71
     0
 72
     2
 73
     0
 90
        0
 40
-0.6
 41
-30.0
 62
     5
 63
     7
 74
     1
 91
        4
 64
     7
 65
   257
 75
     1
175
     1
 42
1.0
 92
        0
 66
   257
 43
1.0
 76
     1
 77
     6
 78
     2
 67
     7
 79
     5
170
     0
171
     0
290
     0
174
     0
 93
        1
 44
0.0
173
     0
291
     0
 45
0.0
1001
ACAD
1000
AcDbSavedByObjectVersion
1070
     0
  0
VISUALSTYLE
  5
8107
102
{ACAD_XDICTIONARY
360
8468
102
}
102
{ACAD_REACTORS
330
8102
102
}
330
8102
100
AcDbVisualStyle
  2
Basic
 70
     7
 71
     1
 72
     0
 73
     1
 90
        0
 40
-0.6
 41
-30.0
 62
     5
 63
     7
 74
     0
 91
        4
 64
     7
 65
   257
 75
     1
175
     1
 42
1.0
 92
        8
 66
     7
 43
1.0
 76
     1
 77
     6
 78
     2
 67
     7
 79
     5
170
     0
171
     0
290
     0
174
     0
 93
        1
 44
0.0
173
     0
291
     1
 45
0.0
1001
ACAD
1000
AcDbSavedByObjectVersion
1070
     0
  0
VISUALSTYLE
  5
810E
102
{ACAD_XDICTIONARY
360
8476
102
}
102
{ACAD_REACTORS
330
8102
102
}
330
8102
100
AcDbVisualStyle
  2
Brighten
 70
    12
 71
     2
 72
     2
 73
     0
 90
        0
 40
-0.6
 41
-30.0
 62
     5
 63
     7
 74
     1
 91
        4
 64
     7
 65
   257
 75
     1
175
     1
 42
1.0
 92
        8
 66
     7
 43
1.0
 76
     1
 77
     6
 78
     2
 67
     7
 79
     5
170
     0
171
     0
290
     0
174
     0
 93
        1
 44
50.0
173
     0
291
     1
 45
0.0
1001
ACAD
1000
AcDbSavedByObjectVersion
1070
     0
  0
VISUALSTYLE
  5
8112
102
{ACAD_XDICTIONARY
360
847E
102
}
102
{ACAD_REACTORS
330
8102
102
}
330
8102
100
AcDbVisualStyle
  2
ColorChange
 70
    16
 71
     2
 72
     2
 73
     3
 90
        0
 40
-0.6
 41
-30.0
 62
     5
 63
     8
 74
     1
 91
        4
 64
     7
 65
   257
 75
     1
175
     1
 42
1.0
 92
        8
 66
     8
 43
1.0
 76
     1
 77
     6
 78
     2
 67
     7
 79
     5
170
     0
171
     0
290
     0
174
     0
 93
        1
 44
0.0
173
     0
291
     1
 45
0.0
1001
ACAD
1000
AcDbSavedByObjectVersion
1070
     0
  0
VISUALSTYLE
  5
810B
102
{ACAD_XDICTIONARY
360
8470
102
}
102
{ACAD_REACTORS
330
8102
102
}
330
8102
100
AcDbVisualStyle
  2
Conceptual
 70
     9
 71
     3
 72
     2
 73
     0
 90
        0
 40
-0.6
 41
-30.0
 62
     5
 63
     7
 74
     2
 91
        2
 64
     7
 65
   257
 75
     1
175
     1
 42
179.0
 92
        8
 66
     7
 43
1.0
 76
     1
 77
     6
 78
     2
 67
     7
 79
     3
170
     0
171
     0
290
     0
174
     0
 93
        1
 44
0.0
173
     0
291
     0
 45
0.0
1001
ACAD
1000
AcDbSavedByObjectVersion
1070
     0
  0
VISUALSTYLE
  5
810D
102
{ACAD_XDICTIONARY
360
8474
102
}
102
{ACAD_REACTORS
330
8102
102
}
330
8102
100
AcDbVisualStyle
  2
Dim
 70
    11
 71
     2
 72
     2
 73
     0
 90
        0
 40
-0.6
 41
-30.0
 62
     5
 63
     7
 74
     1
 91
        4
 64
     7
 65
   257
 75
     1
175
     1
 42
1.0
 92
        8
 66
     7
 43
1.0
 76
     1
 77
     6
 78
     2
 67
     7
 79
     5
170
     0
171
     0
290
     0
174
     0
 93
        1
 44
-50.0
173
     0
291
     1
 45
0.0
1001
ACAD
1000
AcDbSavedByObjectVersion
1070
     0
  0
VISUALSTYLE
  5
811A
102
{ACAD_XDICTIONARY
360
848E
102
}
102
{ACAD_REACTORS
330
8102
102
}
330
8102
100
AcDbVisualStyle
  2
EdgeColorOff
 70
    22
 71
     2
 72
     2
 73
     0
 90
        0
 40
-0.6
 41
-30.0
 62
     5
 63
     7
 74
     1
 91
        4
 64
     7
 65
   257
 75
     1
175
     1
 42
1.0
 92
        8
 66
     7
 43
1.0
 76
     1
 77
     6
 78
     2
 67
     7
 79
     5
170
     0
171
     0
290
     0
174
     0
 93
        1
 44
0.0
173
     0
291
     1
 45
0.0
1001
ACAD
1000
AcDbSavedByObjectVersion
1070
     0
  0
VISUALSTYLE
  5
8111
102
{ACAD_XDICTIONARY
360
847C
102
}
102
{ACAD_REACTORS
330
8102
102
}
330
8102
100
AcDbVisualStyle
  2
Facepattern
 70
    15
 71
     2
 72
     2
 73
     0
 90
        0
 40
-0.6
 41
-30.0
 62
     5
 63
     7
 74
     1
 91
        4
 64
     7
 65
   257
 75
     1
175
     1
 42
1.0
 92
        8
 66
     7
 43
1.0
 76
     1
 77
     6
 78
     2
 67
     7
 79
     5
170
     0
171
     0
290
     0
174
     0
 93
        1
 44
0.0
173
     0
291
     1
 45
0.0
1001
ACAD
1000
AcDbSavedByObjectVersion
1070
     0
  0
VISUALSTYLE
  5
8103
102
{ACAD_XDICTIONARY
360
8460
102
}
102
{ACAD_REACTORS
330
8102
102
}
330
8102
100
AcDbVisualStyle
  2
Flat
 70
     0
 71
     2
 72
     1
 73
     1
 90
        2
 40
-0.6
 41
30.0
 62
     5
 63
     7
 74
     0
 91
        0
 64
     7
 65
   257
 75
     1
175
     1
 42
1.0
 92
        8
 66
     7
 43
1.0
 76
     1
 77
     6
 78
     2
 67
     7
 79
     5
170
     0
171
     0
290
     0
174
     0
 93
       13
 44
0.0
173
     0
291
     1
 45
0.0
1001
ACAD
1000
AcDbSavedByObjectVersion
1070
     0
  0
VISUALSTYLE
  5
8104
102
{ACAD_XDICTIONARY
360
8462
102
}
102
{ACAD_REACTORS
330
8102
102
}
330
8102
100
AcDbVisualStyle
  2
FlatWithEdges
 70
     1
 71
     2
 72
     1
 73
     1
 90
        2
 40
-0.6
 41
30.0
 62
     5
 63
     7
 74
     1
 91
        0
 64
     7
 65
   257
 75
     1
175
     1
 42
1.0
 92
        0
 66
   257
 43
1.0
 76
     1
 77
     6
 78
     2
 67
     7
 79
     5
170
     0
171
     0
290
     0
174
     0
 93
       13
 44
0.0
173
     0
291
     1
 45
0.0
1001
ACAD
1000
AcDbSavedByObjectVersion
1070
     0
  0
VISUALSTYLE
  5
8105
102
{ACAD_XDICTIONARY
360
8464
102
}
102
{ACAD_REACTORS
330
8102
102
}
330
8102
100
AcDbVisualStyle
  2
Gouraud
 70
     2
 71
     2
 72
     2
 73
     1
 90
        2
 40
-0.6
 41
30.0
 62
     5
 63
     7
 74
     0
 91
        0
 64
     7
 65
   257
 75
     1
175
     1
 42
1.0
 92
        0
 66
     7
 43
1.0
 76
     1
 77
     6
 78
     2
 67
     7
 79
     5
170
     0
171
     0
290
     0
174
     0
 93
       13
 44
0.0
173
     0
291
     1
 45
0.0
1001
ACAD
1000
AcDbSavedByObjectVersion
1070
     0
  0
VISUALSTYLE
  5
8106
102
{ACAD_XDICTIONARY
360
8466
102
}
102
{ACAD_REACTORS
330
8102
102
}
330
8102
100
AcDbVisualStyle
  2
GouraudWithEdges
 70
     3
 71
     2
 72
     2
 73
     1
 90
        2
 40
-0.6
 41
30.0
 62
     5
 63
     7
 74
     1
 91
        0
 64
     7
 65
   257
 75
     1
175
     1
 42
1.0
 92
        0
 66
   257
 43
1.0
 76
     1
 77
     6
 78
     2
 67
     7
 79
     5
170
     0
171
     0
290
     0
174
     0
 93
       13
 44
0.0
173
     0
291
     1
 45
0.0
1001
ACAD
1000
AcDbSavedByObjectVersion
1070
     0
  0
VISUALSTYLE
  5
810A
102
{ACAD_XDICTIONARY
360
846E
102
}
102
{ACAD_REACTORS
330
8102
102
}
330
8102
100
AcDbVisualStyle
  2
Hidden
 70
     6
 71
     1
 72
     2
 73
     2
 90
        0
 40
-0.6
 41
-30.0
 62
     5
 63
     7
 74
     2
 91
        2
 64
     7
 65
   257
 75
     2
175
     1
 42
40.0
 92
        0
 66
   257
 43
1.0
 76
     1
 77
     6
 78
     2
 67
     7
 79
     3
170
     0
171
     0
290
     0
174
     0
 93
        1
 44
0.0
173
     0
291
     0
 45
0.0
1001
ACAD
1000
AcDbSavedByObjectVersion
1070
     0
  0
VISUALSTYLE
  5
8118
102
{ACAD_XDICTIONARY
360
848A
102
}
102
{ACAD_REACTORS
330
8102
102
}
330
8102
100
AcDbVisualStyle
  2
JitterOff
 70
    20
 71
     2
 72
     2
 73
     0
 90
        0
 40
-0.6
 41
-30.0
 62
     5
 63
     7
 74
     1
 91
        4
 64
     7
 65
   257
 75
     1
175
     1
 42
1.0
 92
       10
 66
     7
 43
1.0
 76
     1
 77
     6
 78
     2
 67
     7
 79
     5
170
     0
171
     0
290
     0
174
     0
 93
        1
 44
0.0
173
     0
291
     1
 45
0.0
1001
ACAD
1000
AcDbSavedByObjectVersion
1070
     0
  0
VISUALSTYLE
  5
8110
102
{ACAD_XDICTIONARY
360
847A
102
}
102
{ACAD_REACTORS
330
8102
102
}
330
8102
100
AcDbVisualStyle
  2
Linepattern
 70
    14
 71
     2
 72
     2
 73
     0
 90
        0
 40
-0.6
 41
-30.0
 62
     5
 63
     7
 74
     1
 91
        4
 64
     7
 65
   257
 75
     7
175
     7
 42
1.0
 92
        8
 66
     7
 43
1.0
 76
     1
 77
     6
 78
     2
 67
     7
 79
     5
170
     0
171
     0
290
     0
174
     0
 93
        1
 44
0.0
173
     0
291
     1
 45
0.0
1001
ACAD
1000
AcDbSavedByObjectVersion
1070
     0
  0
VISUALSTYLE
  5
8119
102
{ACAD_XDICTIONARY
360
848C
102
}
102
{ACAD_REACTORS
330
8102
102
}
330
8102
100
AcDbVisualStyle
  2
OverhangOff
 70
    21
 71
     2
 72
     2
 73
     0
 90
        0
 40
-0.6
 41
-30.0
 62
     5
 63
     7
 74
     1
 91
        4
 64
     7
 65
   257
 75
     1
175
     1
 42
1.0
 92
        9
 66
     7
 43
1.0
 76
     1
 77
     6
 78
     2
 67
     7
 79
     5
170
     0
171
     0
290
     0
174
     0
 93
        1
 44
0.0
173
     0
291
     1
 45
0.0
1001
ACAD
1000
AcDbSavedByObjectVersion
1070
     0
  0
VISUALSTYLE
  5
810C
102
{ACAD_XDICTIONARY
360
8472
102
}
102
{ACAD_REACTORS
330
8102
102
}
330
8102
100
AcDbVisualStyle
  2
Realistic
 70
     8
 71
     2
 72
     3
 73
     0
 90
        2
 40
-0.6
 41
30.0
 62
     5
 63
     7
 74
     0
 91
        0
 64
     7
 65
   257
 75
     1
175
     1
 42
1.0
 92
        8
 66
   257
 43
1.0
 76
     1
 77
     6
 78
     2
 67
     7
 79
     3
170
     0
171
     0
290
     0
174
     0
 93
       13
 44
0.0
173
     0
291
     0
 45
0.0
1001
ACAD
1000
AcDbSavedByObjectVersion
1070
     0
  0
VISUALSTYLE
  5
8117
102
{ACAD_XDICTIONARY
360
8488
102
}
102
{ACAD_REACTORS
330
8102
102
}
330
8102
100
AcDbVisualStyle
  2
Shaded
 70
    27
 71
     2
 72
     2
 73
     1
 90
        2
 40
-0.6
 41
30.0
 62
     5
 63
     7
 74
     0
 91
        4
 64
     7
 65
   257
 75
     1
175
     1
 42
1.0
 92
        8
 66
   257
 43
1.0
 76
     1
 77
     6
 78
     2
 67
     8
 79
     3
170
     0
171
     0
290
     0
174
     0
 93
        5
 44
0.0
173
     0
291
     0
 45
0.0
1001
ACAD
1000
AcDbSavedByObjectVersion
1070
     0
  0
VISUALSTYLE
  5
8116
102
{ACAD_XDICTIONARY
360
8486
102
}
102
{ACAD_REACTORS
330
8102
102
}
330
8102
100
AcDbVisualStyle
  2
Shaded with edges
 70
    26
 71
     2
 72
     2
 73
     1
 90
        2
 40
-0.6
 41
30.0
 62
     5
 63
     7
 74
     1
 91
       10
 64
     7
 65
   257
 75
     2
175
     1
 42
1.0
 92
        8
 66
   257
 43
1.0
 76
     1
 77
     6
 78
     2
 67
     7
 79
     3
170
     0
171
     0
290
     0
174
     0
 93
        5
 44
0.0
173
     0
291
     0
 45
0.0
1001
ACAD
1000
AcDbSavedByObjectVersion
1070
     0
  0
VISUALSTYLE
  5
8113
102
{ACAD_XDICTIONARY
360
8480
102
}
102
{ACAD_REACTORS
330
8102
102
}
330
8102
100
AcDbVisualStyle
  2
Shades of Gray
 70
    23
 71
     2
 72
     2
 73
     3
 90
        0
 40
-0.6
 41
-30.0
 62
     5
 63
     7
 74
     2
 91
        2
 64
     7
 65
     7
 75
     1
175
     1
 42
40.0
 92
        8
 66
     7
 43
1.0
 76
     1
 77
     6
 78
     2
 67
     7
 79
     3
170
     0
171
     0
290
     0
174
     0
 93
        1
 44
0.0
173
     0
291
     0
 45
0.0
1001
ACAD
1000
AcDbSavedByObjectVersion
1070
     0
  0
VISUALSTYLE
  5
8114
102
{ACAD_XDICTIONARY
360
8482
102
}
102
{ACAD_REACTORS
330
8102
102
}
330
8102
100
AcDbVisualStyle
  2
Sketchy
 70
    24
 71
     1
 72
     2
 73
     2
 90
        0
 40
-0.6
 41
-30.0
 62
     5
 63
     7
 74
     2
 91
        2
 64
     7
 65
     7
 75
     1
175
     1
 42
40.0
 92
       11
 66
     7
 43
1.0
 76
     1
 77
     6
 78
     2
 67
     7
 79
     6
170
     0
171
     0
290
     0
174
     0
 93
        1
 44
0.0
173
     0
291
     0
 45
0.0
1001
ACAD
1000
AcDbSavedByObjectVersion
1070
     0
  0
VISUALSTYLE
  5
810F
102
{ACAD_XDICTIONARY
360
8478
102
}
102
{ACAD_REACTORS
330
8102
102
}
330
8102
100
AcDbVisualStyle
  2
Thicken
 70
    13
 71
     2
 72
     2
 73
     0
 90
        0
 40
-0.6
 41
-30.0
 62
     5
 63
     7
 74
     1
 91
        4
 64
     7
 65
   257
 75
     1
175
     1
 42
1.0
 92
       12
 66
     7
 43
1.0
 76
     1
 77
     6
 78
     2
 67
     7
 79
     5
170
     0
171
     0
290
     0
174
     0
 93
        1
 44
0.0
173
     0
291
     1
 45
0.0
1001
ACAD
1000
AcDbSavedByObjectVersion
1070
     0
  0
VISUALSTYLE
  5
8109
102
{ACAD_XDICTIONARY
360
846C
102
}
102
{ACAD_REACTORS
330
8102
102
}
330
8102
100
AcDbVisualStyle
  2
Wireframe
 70
     5
 71
     0
 72
     2
 73
     0
 90
        0
 40
-0.6
 41
-30.0
 62
     5
 63
     7
 74
     1
 91
        4
 64
     7
 65
   257
 75
     1
175
     1
 42
1.0
 92
        0
 66
   257
 43
1.0
 76
     1
 77
     6
 78
     2
 67
     7
 79
     3
170
     0
171
     0
290
     0
174
     0
 93
        1
 44
0.0
173
     0
291
     0
 45
0.0
1001
ACAD
1000
AcDbSavedByObjectVersion
1070
     0
  0
VISUALSTYLE
  5
8115
102
{ACAD_XDICTIONARY
360
8484
102
}
102
{ACAD_REACTORS
330
8102
102
}
330
8102
100
AcDbVisualStyle
  2
X-Ray
 70
    25
 71
     2
 72
     2
 73
     1
 90
        1
 40
0.5
 41
-30.0
 62
     5
 63
     7
 74
     1
 91
        0
 64
     7
 65
   257
 75
     1
175
     1
 42
1.0
 92
        8
 66
     7
 43
1.0
 76
     1
 77
     6
 78
     2
 67
     7
 79
     3
170
     0
171
     0
290
     0
174
     0
 93
       13
 44
0.0
173
     0
291
     0
 45
0.0
1001
ACAD
1000
AcDbSavedByObjectVersion
1070
     0
  0
DICTIONARYVAR
  5
8454
102
{ACAD_REACTORS
330
844F
102
}
330
844F
100
DictionaryVariables
280
     0
  1
1:1
  0
DICTIONARYVAR
  5
8451
102
{ACAD_REACTORS
330
844F
102
}
330
844F
100
DictionaryVariables
280
     0
  1
STANDARD
  0
DICTIONARYVAR
  5
8450
102
{ACAD_REACTORS
330
844F
102
}
330
844F
100
DictionaryVariables
280
     0
  1
STANDARD
  0
DICTIONARYVAR
  5
8452
102
{ACAD_REACTORS
330
844F
102
}
330
844F
100
DictionaryVariables
280
     0
  1
Imperial24
  0
DICTIONARYVAR
  5
8453
102
{ACAD_REACTORS
330
844F
102
}
330
844F
100
DictionaryVariables
280
     0
  1
Imperial24
  0
DICTIONARYVAR
  5
8457
102
{ACAD_REACTORS
330
844F
102
}
330
844F
100
DictionaryVariables
280
     0
  1
1
  0
DICTIONARYVAR
  5
8456
102
{ACAD_REACTORS
330
844F
102
}
330
844F
100
DictionaryVariables
280
     0
  1
0
  0
DICTIONARYVAR
  5
8455
102
{ACAD_REACTORS
330
844F
102
}
330
844F
100
DictionaryVariables
280
     0
  1
127
  0
DICTIONARYVAR
  5
8458
102
{ACAD_REACTORS
330
844F
102
}
330
844F
100
DictionaryVariables
280
     0
  1
2
  0
DICTIONARY
  5
8494
330
8143
100
AcDbDictionary
280
     1
281
     1
  3
ACAD_XREC_ROUNDTRIP
360
8495
  0
DICTIONARY
  5
8498
330
814B
100
AcDbDictionary
280
     1
281
     1
  3
ACAD_XREC_ROUNDTRIP
360
8499
  0
DICTIONARY
  5
8496
330
8147
100
AcDbDictionary
280
     1
281
     1
  3
ACAD_XREC_ROUNDTRIP
360
8497
  0
DICTIONARY
  5
80F3
330
80F2
100
AcDbDictionary
280
     1
281
     1
  3
ACAD_XREC_ROUNDTRIP
360
845E
  3
BUMPTILE
360
80F5
  3
DIFFUSETILE
360
80F4
  3
OPACITYTILE
360
80F8
  3
REFLECTIONTILE
360
80F7
  3
REFRACTIONTILE
360
80F9
  3
SPECULARTILE
360
80F6
  0
DICTIONARY
  5
80EB
330
80EA
100
AcDbDictionary
280
     1
281
     1
  3
ACAD_XREC_ROUNDTRIP
360
845D
  3
BUMPTILE
360
80ED
  3
DIFFUSETILE
360
80EC
  3
OPACITYTILE
360
80F0
  3
REFLECTIONTILE
360
80EF
  3
REFRACTIONTILE
360
80F1
  3
SPECULARTILE
360
80EE
  0
DICTIONARY
  5
80FB
330
80FA
100
AcDbDictionary
280
     1
281
     1
  3
ACAD_XREC_ROUNDTRIP
360
845F
  3
BUMPTILE
360
80FD
  3
DIFFUSETILE
360
80FC
  3
FBXASSET
360
8193
  3
OPACITYTILE
360
8100
  3
REFLECTIONTILE
360
80FF
  3
REFRACTIONTILE
360
8101
  3
SPECULARTILE
360
80FE
  0
DICTIONARY
  5
8492
330
8141
100
AcDbDictionary
280
     1
281
     1
  3
ACAD_XREC_ROUNDTRIP
360
8493
  0
DICTIONARY
  5
8459
330
813D
100
AcDbDictionary
280
     1
281
     1
  3
ACAD_ROUNDTRIP_2008_TABLESTYLE_CELLSTYLEMAP
360
845A
  3
ACAD_XREC_ROUNDTRIP
360
8490
  0
DICTIONARY
  5
846A
330
8108
100
AcDbDictionary
280
     1
281
     1
  3
ACAD_XREC_ROUNDTRIP
360
846B
  0
DICTIONARY
  5
8468
330
8107
100
AcDbDictionary
280
     1
281
     1
  3
ACAD_XREC_ROUNDTRIP
360
8469
  0
DICTIONARY
  5
8476
330
810E
100
AcDbDictionary
280
     1
281
     1
  3
ACAD_XREC_ROUNDTRIP
360
8477
  0
DICTIONARY
  5
847E
330
8112
100
AcDbDictionary
280
     1
281
     1
  3
ACAD_XREC_ROUNDTRIP
360
847F
  0
DICTIONARY
  5
8470
330
810B
100
AcDbDictionary
280
     1
281
     1
  3
ACAD_XREC_ROUNDTRIP
360
8471
  0
DICTIONARY
  5
8474
330
810D
100
AcDbDictionary
280
     1
281
     1
  3
ACAD_XREC_ROUNDTRIP
360
8475
  0
DICTIONARY
  5
848E
330
811A
100
AcDbDictionary
280
     1
281
     1
  3
ACAD_XREC_ROUNDTRIP
360
848F
  0
DICTIONARY
  5
847C
330
8111
100
AcDbDictionary
280
     1
281
     1
  3
ACAD_XREC_ROUNDTRIP
360
847D
  0
DICTIONARY
  5
8460
330
8103
100
AcDbDictionary
280
     1
281
     1
  3
ACAD_XREC_ROUNDTRIP
360
8461
  0
DICTIONARY
  5
8462
330
8104
100
AcDbDictionary
280
     1
281
     1
  3
ACAD_XREC_ROUNDTRIP
360
8463
  0
DICTIONARY
  5
8464
330
8105
100
AcDbDictionary
280
     1
281
     1
  3
ACAD_XREC_ROUNDTRIP
360
8465
  0
DICTIONARY
  5
8466
330
8106
100
AcDbDictionary
280
     1
281
     1
  3
ACAD_XREC_ROUNDTRIP
360
8467
  0
DICTIONARY
  5
846E
330
810A
100
AcDbDictionary
280
     1
281
     1
  3
ACAD_XREC_ROUNDTRIP
360
846F
  0
DICTIONARY
  5
848A
330
8118
100
AcDbDictionary
280
     1
281
     1
  3
ACAD_XREC_ROUNDTRIP
360
848B
  0
DICTIONARY
  5
847A
330
8110
100
AcDbDictionary
280
     1
281
     1
  3
ACAD_XREC_ROUNDTRIP
360
847B
  0
DICTIONARY
  5
848C
330
8119
100
AcDbDictionary
280
     1
281
     1
  3
ACAD_XREC_ROUNDTRIP
360
848D
  0
DICTIONARY
  5
8472
330
810C
100
AcDbDictionary
280
     1
281
     1
  3
ACAD_XREC_ROUNDTRIP
360
8473
  0
DICTIONARY
  5
8488
330
8117
100
AcDbDictionary
280
     1
281
     1
  3
ACAD_XREC_ROUNDTRIP
360
8489
  0
DICTIONARY
  5
8486
330
8116
100
AcDbDictionary
280
     1
281
     1
  3
ACAD_XREC_ROUNDTRIP
360
8487
  0
DICTIONARY
  5
8480
330
8113
100
AcDbDictionary
280
     1
281
     1
  3
ACAD_XREC_ROUNDTRIP
360
8481
  0
DICTIONARY
  5
8482
330
8114
100
AcDbDictionary
280
     1
281
     1
  3
ACAD_XREC_ROUNDTRIP
360
8483
  0
DICTIONARY
  5
8478
330
810F
100
AcDbDictionary
280
     1
281
     1
  3
ACAD_XREC_ROUNDTRIP
360
8479
  0
DICTIONARY
  5
846C
330
8109
100
AcDbDictionary
280
     1
281
     1
  3
ACAD_XREC_ROUNDTRIP
360
846D
  0
DICTIONARY
  5
8484
330
8115
100
AcDbDictionary
280
     1
281
     1
  3
ACAD_XREC_ROUNDTRIP
360
8485
  0
XRECORD
  5
8495
102
{ACAD_REACTORS
330
8494
102
}
330
8494
100
AcDbXrecord
280
     1
102
DISPLAYNAME
  1
Imperial24
102
FLAGS
 90
        0
  0
XRECORD
  5
8499
102
{ACAD_REACTORS
330
8498
102
}
330
8498
100
AcDbXrecord
280
     1
102
SHADEPLOT
 70
     0
102
SHADEPLOTRESLEVEL
 70
     2
102
SHADEPLOTCUSTOMDPI
 70
   300
  0
XRECORD
  5
8497
102
{ACAD_REACTORS
330
8496
102
}
330
8496
100
AcDbXrecord
280
     1
102
SHADEPLOT
 70
     0
102
SHADEPLOTRESLEVEL
 70
     2
102
SHADEPLOTCUSTOMDPI
 70
   300
  0
XRECORD
  5
845E
102
{ACAD_REACTORS
330
80F3
102
}
330
80F3
100
AcDbXrecord
280
     1
102
MATERIAL
148
0.0
149
0.0
149
0.0
 93
        0
 94
      127
282
     0
 72
     0
 77
     0
171
     0
175
     0
179
     0
273
     0
  0
XRECORD
  5
80F5
102
{ACAD_REACTORS
330
80F3
102
}
330
80F3
100
AcDbXrecord
280
     1
270
     1
271
     1
  0
XRECORD
  5
80F4
102
{ACAD_REACTORS
330
80F3
102
}
330
80F3
100
AcDbXrecord
280
     1
270
     1
271
     1
  0
XRECORD
  5
80F8
102
{ACAD_REACTORS
330
80F3
102
}
330
80F3
100
AcDbXrecord
280
     1
270
     1
271
     1
  0
XRECORD
  5
80F7
102
{ACAD_REACTORS
330
80F3
102
}
330
80F3
100
AcDbXrecord
280
     1
270
     1
271
     1
  0
XRECORD
  5
80F9
102
{ACAD_REACTORS
330
80F3
102
}
330
80F3
100
AcDbXrecord
280
     1
270
     1
271
     1
  0
XRECORD
  5
80F6
102
{ACAD_REACTORS
330
80F3
102
}
330
80F3
100
AcDbXrecord
280
     1
270
     1
271
     1
  0
XRECORD
  5
845D
102
{ACAD_REACTORS
330
80EB
102
}
330
80EB
100
AcDbXrecord
280
     1
102
MATERIAL
148
0.0
149
0.0
149
0.0
 93
        0
 94
      127
282
     0
 72
     0
 77
     0
171
     0
175
     0
179
     0
273
     0
  0
XRECORD
  5
80ED
102
{ACAD_REACTORS
330
80EB
102
}
330
80EB
100
AcDbXrecord
280
     1
270
     1
271
     1
  0
XRECORD
  5
80EC
102
{ACAD_REACTORS
330
80EB
102
}
330
80EB
100
AcDbXrecord
280
     1
270
     1
271
     1
  0
XRECORD
  5
80F0
102
{ACAD_REACTORS
330
80EB
102
}
330
80EB
100
AcDbXrecord
280
     1
270
     1
271
     1
  0
XRECORD
  5
80EF
102
{ACAD_REACTORS
330
80EB
102
}
330
80EB
100
AcDbXrecord
280
     1
270
     1
271
     1
  0
XRECORD
  5
80F1
102
{ACAD_REACTORS
330
80EB
102
}
330
80EB
100
AcDbXrecord
280
     1
270
     1
271
     1
  0
XRECORD
  5
80EE
102
{ACAD_REACTORS
330
80EB
102
}
330
80EB
100
AcDbXrecord
280
     1
270
     1
271
     1
  0
XRECORD
  5
845F
102
{ACAD_REACTORS
330
80FB
102
}
330
80FB
100
AcDbXrecord
280
     1
102
MATERIAL
148
0.0
149
0.0
149
0.0
 93
        0
 94
      127
282
     0
 72
     0
 77
     0
171
     0
175
     0
179
     0
273
     0
  0
XRECORD
  5
80FD
102
{ACAD_REACTORS
330
80FB
102
}
330
80FB
100
AcDbXrecord
280
     1
270
     1
271
     1
  0
XRECORD
  5
80FC
102
{ACAD_REACTORS
330
80FB
102
}
330
80FB
100
AcDbXrecord
280
     1
270
     1
271
     1
  0
XRECORD
  5
8193
102
{ACAD_REACTORS
330
80FB
102
}
330
80FB
100
AcDbXrecord
280
     1
 70
     1
 90
1959938040
 71
     1
  1
54D3804A-CA64-4F9C-AC82-C96BDAF94C13
311
504B0304140006080800C8806D57E09FAEB7D9000000200100004F00000033413936393637412D414331462D343443332D414144392D3437463035453145384536412F4173736574446174612F446566696E6974696F6E4974657261746F7250726F706572746965732E62696E454E4D4FC240105D3D483C78F01F10EEEB76
311
7761850630D2124F7AD19317326C076CB26D49B74D3C7AF45FCB4C8430C99B379F6FE65708F177320AC515E187FC1DF10BD6D896FEDD7F6105E2862BA1D942185C7AD714729AE30EFAD0F1D66B193D860035367DBCBF8C0E2BE8480EC2032FDD12CE85C80AFBFF637CFF8DC02F314371489F2046EC166AB7FD567A35331397
311
5869323793E3DCAEE4B31EAF65365D3FDA2C7799D513D5626CFAD6635446259B93F2E650EFCB6239EFCA0A873554B818F916E9A762B43489B1526BA9ED877669E252ED3EE78A278F504B0304140006080800C8806D570BAA121513010000300200004500000033413936393637412D414331462D343443332D414144392D34
311
37463035453145384536412F4173736574446174612F496E7374616E636550726F706572746965732E62696EEB606060F80F0540260323103700495E20ED9E9A975A94991C9C9C919A9BA8021430357131B6303071D475763433D13571B374D67574B630D275B63473727174B334713634664768046931363471713532B5D4
311
35353131D635313332D475727372D13534373670367376B67474B5042A03DBCBA019D37FE8ABC6157B20CD04146B0062181F4C03F940F0C11EA29A8141C08141002C0426541C106CAC2CA046088033B02A030AC2157C6006F21A8018AAF50194E6010A610250382264E08660284CD9E98021862280A91564B406929A0FF62C
311
401E28B6F88038B83CB1243943D7A928312F2535052473A0E1C6AC392069DD6DEBA645763870949770FFAD07F2D1C00C0991077F80E227A0B40394465306E70200504B0304140006080800C8806D5728BB58AF800100009E0500003D00000033413936393637412D414331462D343443332D414144392D3437463035453145
311
384536412F536368656D61732F436F6D6D6F6E536368656D612E786D6CBD544D4FC23018BEFB2B96DE15493C78601010A34B880709DEDFB52FD0D8B54BD70DF6EFED3AC0B12E6442E2716BFB3CEFF3D18E26FB440405EA8C2B1992E1C323095052C5B8DC842437EBFB673219DF8DA659866649B798C078B48AE6410122242F
311
2A4994AC7F93815DF85C049C8564CA0A901499DD886B2EB9B1E02448F358701A9235880C49A0119892A20C89D1B9FD768815CAD268CB5E0355B40B1E47F3E37A2020464BED06AA57CE8FCC20C3C3446D46761A2632A8C1283D07031EFF2AE7CCB1BFEEE916E406DFAC8E36FFD99A9D60A6944090EEDC3B670C7DC13DE86B6B
311
2C5C240D6E503BB85ACD579D513F1B9F9A69DC9CC22AFA80C426D40AF0B21EA168559156B6276F0F726A6BFF04DCD513A87A62CAD41FB24FCB2858B3952E3D852084DA25B9303C15687973CC8E8AAE11DF2836C38C6A9E765E8C1BA1BFB1DC29CDFE518C8B5A7655A4ED7E77291ABEB80DBD82EC866ADE1B8D05AF9E35CF09
311
D7A061F38A986D9EC412B8F0F65E5D81534D9B231D1E5A8FE577A241F3A5FD01504B0304140006080800C8806D572CCEBD668A040000E01200003E00000033413936393637412D414331462D343443332D414144392D3437463035453145384536412F536368656D61732F47656E65726963536368656D612E786D6CD5586D
311
6FDB380CFE7EBF42F0F7A649B70E1B90744856B4970F450FCD7A5F05459613EDE4174872DADCAF3F522F8ED3B88D2F1D06AC4050DBA2493EE4438AF2F8EB73AEC8466823CB62928C06C384888297A92C5693A4B6D9D9E7E4EBD51FE3A931C22EF85AE4EC6AFC38BF261BA626C9AD288496DC3F4FCEAFC63366845F7A10452A
311
F41DB320C0D44EC26EAB20918735565582695670811A6A49643A49A6E9069FA4604A64B29016DC4B48552F95E4932463CA888468C1D2B250DB4962750DF7CE273069CE8363F1FF4EDB00E0A21999574AE4A2B00C353B93F3BD4777B8A61ED8F604ABFEDD79CE56A2B7BDFBDBC50996E0ADDE16FED26223C5D30956C29BDF4A
311
55EA686E5E58B112DA45CE67F76F4FA27EFA3FB672FD7372FC388FAECDCA5209E693CAD167BADCD272F943701B3812F8A3D852008B1D2E32DB927B2F833C6EA95879925356D254582695095A3CE982924720BE5774A3CB9CDCDB350427D2DF20DA1B5532EBE2D5D6288D75D4F7E4FD9890A0EF8E3D93EBB8F8BA4758158EF6
311
FB90A6F9520281C93DE7AAC6D24607DA296BB96018123F821A7D6A5C5884050C475DA4865442732C8B95684A50165CBB3A32F25F783A4A480ED59AD7F924B968AEA50131F46303223E6A397B0E52976030DC1DCA81D7E7C1EDEEA42C19FF27635C505E2BD5198A599020DF50A2330FCB3AAF28CB0124108429553EF1B22880
311
2E2265D8F7CC2401042B155BCC7070F1E5C55F13B4A9577362CCCE46C32174E010C3C378C44841A4BDA00FE3A12006CE11EE6AEC59894D3526DDE1CD59D503ECC324017F8061B7F162162FA62EDD81AE3308617770796DCBDAD2B2625C5AE8A63DE20B2C8AA5E95E76E5730823955956E33E705425A2187C185D36489A1B44
311
D3DCEC2172F6BA2105C3546287A7194B2331768EBBE64F6E70A9930ABE0ADEA89E9E2C38523B810287AD67A54A039C1606EAFE68F8304610BB9093DBDDABC0B2AE4E290DCDA15376D7E39F72B556F0B32EAB5D3D498B4C41ABADEC3A1434C422D87E8025A84BDCB2B1417ED750FAE4DA8976863974C577C7F902D3F156AD35
311
4DEA3540DE6BEAE2BEA52F7A2EB4CA43802ECE5BF2CE2EDC9347179FFB023CE412E60BE16DA0BE29B374988A553F561DC04615DD35F7D2C8979F60E5955CE93DF29DED8AFA1EE6642D53418086C03C47C377910F75F7E8F5EF665F70B60FFB22AEDF897D119E8423C773E819A3C1E55E550599EE6EDCA34D0C86FD72057DF2
311
CD46F16A470682471C164E4346D5306BF12D7D12D82CFF673D41636C347443FEB51B50D72EA171A8E4A58623A4A16E0FA2B8B10A0D23268D87C33896EE8FB73305A74BF224EDBADFA0BD674AB354D63DB7BD5D83426761C077DE767728235446A552754EB93B755891C3C4CC6CADE37CF0E912A7BB38DBA010F9DE1282EDF4
311
70CA69A9CDA482E334C4A6EA4107987980B17E72F31730EBF88BBD39E7C629F56797A3C0009C2C5AE7951D9A05A02773440F02EEB4DE396A3B6A570C72CCFBCD823B0B8ED3F1D5CEDDFED772FA70236C83FB7D86C385D570B87107535572A60A96035F8F7C6A7192F13007246BBE0521855E6AC46F3E27689CEE7D186A6FD6
311
79D98CDCAD13333E04EBE7ED6F55FF01504B0304140006080800C8806D576180134D5F0100006B0300004500000033413936393637412D414331462D343443332D414144392D3437463035453145384536412F536368656D61732F52656E6465724D6174657269616C536368656D612E786D6CA5934D6FC2300C86EFFB1551
311
EEE343DBA41D1A103009551ADAD40EAE28A4A68D9426284961FCFBE5A340113B2071746D3F765EBF4DC6BFB5407BD0862B49F0B037C0082453059725C18DDD3EBFE3F1E829991803366715D474942CD30FB4A782E00C64017A412D684E454CE3FE28995203B162A6EA5AC94B66997D225E109CD63B0135484BAD1B3C07E908
311
0CA35DB3119C11BCA5C200461A68A1A438126C75E3E230D40FF81FB3F03C91D1E3A3A0AF79FE28E25BC39EC3E17E4C2A2D94A0833A51AF55BCCA7D88572FCBAC529C4140B020FC3AAFA886621DCED7EAD7664CC86024E806DC297DA1BB393E4156543457A4537DB8817349A70F8ACBF09B3EEE2CB2F33E91B65D60786E4E3B
311
39B77E3FEEEF5650424525DA657FB8B46BE6BF064646F0A0F7327C0BC1BC1B4CBBC1C419FA3CCB23500007872A2580CAAE5461865565294E4EDB4617B62FF579DF9A5B2F54E834076A597573A020912FED777F9B3F504B0304140006080800C8806D57B1021A0151000000570000004700000033413936393637412D414331
311
462D343443332D414144392D3437463035453145384536412F4173736574446174612F41737365745461626C654F66436F6E74656E74732E62696E5361606030357131B6303071D475763433D13571B374D67574B630D275B63473727174B3347136341602AACB4D2C492DCA4CCC492C28484D2C4ACC4B4E050A82012F9074
311
4FCD03CA26072767A4E6260200504B0304140006080800C8806D57F865834058000000680000004500000033413936393637412D414331462D343443332D414144392D3437463035453145384536412F4173736574446174612F53747265616D56657273696F6E5461626C652E696E66558CBD0A80300C06F73E4B117FB66E
311
451741D041DC5BF98480A492E4FDD18EAEC7DD4555D89EF28DF51A0B1BD8340C4DE7DD848B988C0ACF0649566493F2408C508DDEBB99D5129FF8F1AF8CF5B9503E20FAE5A16B5AF702504B0304140006080800C8806D57C5DEFD35340100009A0400003600000033413936393637412D414331462D343443332D414144392D
311
3437463035453145384536412F4173736574446174612F636E782E786D6CCD94316FC3201085FF8AC56E308914551126AADA25532B35EAD0ED82CF290A060BCE55FBEF0B898756A93A65C87ABC3B1E9F78A7369F83AB3E30261B7CCB246F5885DE84CEFA43CB26EAEB3B566DB48A21D00F19AB3C0CD8B252665A1D6298C6B9
311
D4610F932B5567FD712EDEA784B483BDC3A7FE2178424F8955C6414A2D4BE61D07E03051E8301D7907045CF288294CD1609E4476C079928908841DD38B66B1ACA5ACE5722757EB66B596AB37258A52AB7D086ED6DB7C590C6365CEB732DD28518EB59AA29D35E52D4CFFE591EFAD57222BB54A143393B983BEC6DC01E3E8AC
311
01CAE8443084546711C2A0C459AC95280C7E9178C4DE7A5B5AB6D9185088CFD91E46B2787344FEF37A7D325B9F08BCC1DBE571E9F0FA145E4E3FE8F51CC853626E2D27970EB9F5FD1552224E6B2487A66C15FD0D504B0304140006080800C8806D578E30602C080100004F0300003400000033413936393637412D41433146
311
2D343443332D414144392D3437463035453145384536412F536368656D61732F636E782E786D6CCD933F4F432114C5BFCA0B7BE1D1262FA6E1D1C1C1C9459DDC106E2B29705FF863F4DB0B4F863671D3A11B1C7E21E71C2EE2F0E9DDF00131590C33E1742403048DC686D34C4A3E6EEEC870902222E60B8C0C417998499389
311
14A78865E99281A32AAEA9CE867317EFD17B0CCFFA1DBC2283762AA599A4754B55C968209DA95159514E23242C5143BD215B0FFD061D416530446EC7ED6EC3F986EF5EF8B41FA73D9F5E056BA4146F88AEF3366488B80C1AEB22543BA360ED588A126D675A06222FBDD1DA8660959022E5583BE864FE5A2AA996C559AD72AD
311
8AADE00F23056B51AF023F408068F56D26BE32F76F919F2018888FF595A255EE3693FFE6F16F05B075F6EB08B4AF20BF01504B0304140006080800C8806D57410A3D5871000000A40000002C00000033413936393637412D414331462D343443332D414144392D3437463035453145384536412F636E782E786D6C55CC4D0E
311
82301086E1AB34B31774E7A22D31F1069E60020334B633A63FC6E34B0909B07DDE2F9FEE7EC1AB2FC5E4840DDC9A2B28E25E06C7938192C7CB1D54677514C9871928C640062A83D55394F2D968A0118BAFEA1DBF377CA444F98919176EAB9FEAAB9F2960DA5BBB1E2ED3FA6FFF504B0304140006080800C8806D57EE6C91A6
311
7E000000A300000007000000636E782E786D6C4D8CD10A832018465F45FE7BB72467096A48B3F78865212B0D97638F3F1D5DECEA83C3778EE83EDB8ADE36BE5CF012C8A50264FD234CCE2F12D231E31650A7440CE1F8BB01F2E36625140C4A2C31A4FD44939DC7B416BA3AFF3C61AD39E3ACD158F764C094F635D6FACE316D
311
86EA6688690DD3D9B81625CFAF97B7E4D517504B0304140006080800C8806D5716E99B5DA600000035010000130000005B436F6E74656E745F54797065735D2E786D6C9590410E82301045AFD2740F4517C6180A0BF5065E60AC53688469D30E066F6F91AD9AB89CF9FFFD3F99BA9DC7413C3026E749CB4D59498164FCCD51
311
A7E5C4B6D84BD136F5E5193089ECA5A465CF1C0E4A25D3E308A9F401292BD6C711388FB15301CC1D3A54DBAADA29E38991B8E0254336F5092D4C038BF39CD76B6FC6A538AEBEA54A4B08617006389FA516557DE4AE8E7E70DE30729138228C5F021CD93F02D4FB0DCD0B504B0304140006080800C8806D573DEE336E640000
311
00790000001B0000006175746F6465736B2D64657369676E2D7061636B6167652E786D6C35CBC10E83200C00D05F21DCA56CA76D41FC96062B120735B69A7DBE268BB7777961F8D5AF396893C2ADB70FE7ADA196782C2DF776D7A97B5933C430F15651E5469C55D70F80A4992A3ADC954792C525AE70A1E4D6AD9816CC044F
311
EFDF01FE3FDE907802504B0304140006080800C8806D5768204138F7000000960100003700000033413936393637412D414331462D343443332D414144392D3437463035453145384536412F4173736574446174612F636F72652E786D6C8550CB6EC32010FC156BEFD8C624168D30911BAB5FD0536F0888831283C5A3EAE7
311
1762576A4F3DED6A76667677D8F96B79549FDA07E3EC00B86EA1D2563A65EC3C408A5744A13A73E69D8BBF685059B1E8010A0C9CCDDEA57587A4B351DB825AA7F40E8A1074844A3E7233409037BD885AA49819E15EAF42DEC5AC6B5C6F3CCE52326A971A95DDCCD5680FBCA71DC1AF4782C8D85174A0F882E8CB34A2E938BE
311
518A0F13B9B4AC2962CEA2597EB64BAF45D40A78D77604618C3079C7FDA9ED4FB8FF604D617216A2CF3FEF4BCB77C0C772F524A260CD36FDE39A56F5BF6B3236926E77DD140138CE473E079C3525A55C9E11E65A12E5DF504B0304140006080800C8806D57656490DDF6000000940100003500000033413936393637412D41
311
4331462D343443332D414144392D3437463035453145384536412F536368656D61732F636F72652E786D6C8550CB6EC32010FC156BEFD8C624168D30911BAB3FD09E7A43405C94182C1E553FBFE0B8527BEA6957B333B3BBC3CE5FCBBDFAD43E186707C0750B95B6D22963E70152BC220AD59933EF5CFC4583CA8A450F5060
311
E06CF62EAD3B249D8DDA16D43AA5775084A02354F29E9B0182FCD08BA8458A99116EF52AE44DCCBAC6F583C7594A46ED52A3B29BB91AED81F7B423F8F94810193B8A0E145F107D9A46341DC7174AF1612297963545CC5934CBCF76E9B5885A01EFDA8E208C11266FB83FB5FD09F7EFAC294CCE42F4F9E77D69F90EF8EB7667
311
60CD63F6C733ADEA7FCF646C24DDEEF95004E0389FB80D386B4A46B96C01E65AF2E4DF504B0304140006080800C8806D577D48439802010000D70100002D00000033413936393637412D414331462D343443332D414144392D3437463035453145384536412F636F72652E786D6C9591C172832010865FC5D93B2A6A4CCC20
311
1927354FD0536F543686490407B0D3C72F543B6D6FED09E6E7FB77F977D9E97D7A246F689D32BA059AE690A01E8C547A6C61F1577280E4C49935C6FFC020D162C216A20C9C8DD62CF3260D467BD451D546E2260AE7D043323CC2A50537DC7012A9587C20DC3D9DC5701723A6345D39CEBC9ABEAC8345E151022FF2A2249412
311
5A3ED3FA98D7475ABFB02C929C2D4AFBB2D89AE1F48A3231B30F9180EF58B6BE066A517263940C7F5457851678D9357553EF3BD29DE98554D5B9245DF7D4906A7FC9773DED0F7DDD8522C1CC99F3364C662B1267F057FB6AFC956C99E53F93AD0E079C7E87CAE29839CB3E7710CEB812FE01504B0304140006080800C8806D
311
570C7C0BA705010000B201000008000000636F72652E786D6C8D50CD6E8420107E1532775464D7D00DB2B16BFA043DF54685B564150CE0A67DFBC26A93F6D6D3906FBE3F869F3FE709DDB50FC6D916485101D27670CAD8B185355E31037416DC3B177FD1005939EB16320C828FDEADCB0E0DCE466D336A9DD23B2843D011D0
311
30A5470B61F8D0B32CE41A1323DC8A450E3739EA82141B4FF068E61FE9E0B58C5A81A8AB9A624230A1AFA43955CD89346FBCCC4CC1D7D5A83DCAA8946EAE467B100DAB29793E524CBB9AE1032317CC9EFA0EF7C7EE853172E8E9A5E265160B1EA24F7FDE4D52CF8882BCE75C5E6E2BC1DF9D9B76422AA590B3D31788E49017
311
7F4AAF8BFA47696323AD77C34D11409054E8B148C1F982693CCE9B66BEB6F806504B01021400140006080800C8806D57E09FAEB7D9000000200100004F000000000000000000000000000000000033413936393637412D414331462D343443332D414144392D3437463035453145384536412F4173736574446174612F4465
311
66696E6974696F6E4974657261746F7250726F706572746965732E62696E504B01021400140006080800C8806D570BAA1215130100003002000045000000000000000000000000004601000033413936393637412D414331462D343443332D414144392D3437463035453145384536412F4173736574446174612F496E7374
311
616E636550726F706572746965732E62696E504B01021400140006080800C8806D5728BB58AF800100009E0500003D00000000000000000000000000BC02000033413936393637412D414331462D343443332D414144392D3437463035453145384536412F536368656D61732F436F6D6D6F6E536368656D612E786D6C504B
311
01021400140006080800C8806D572CCEBD668A040000E01200003E000000000000000000000000009704000033413936393637412D414331462D343443332D414144392D3437463035453145384536412F536368656D61732F47656E65726963536368656D612E786D6C504B01021400140006080800C8806D576180134D5F
311
0100006B03000045000000000000000000000000007D09000033413936393637412D414331462D343443332D414144392D3437463035453145384536412F536368656D61732F52656E6465724D6174657269616C536368656D612E786D6C504B01021400140006080800C8806D57B1021A0151000000570000004700000000
311
0000000000000000003F0B000033413936393637412D414331462D343443332D414144392D3437463035453145384536412F4173736574446174612F41737365745461626C654F66436F6E74656E74732E62696E504B01021400140006080800C8806D57F865834058000000680000004500000000000000000000000000F5
311
0B000033413936393637412D414331462D343443332D414144392D3437463035453145384536412F4173736574446174612F53747265616D56657273696F6E5461626C652E696E66504B01021400140006080800C8806D57C5DEFD35340100009A0400003600000000000000000000000000B00C000033413936393637412D
311
414331462D343443332D414144392D3437463035453145384536412F4173736574446174612F636E782E786D6C504B01021400140006080800C8806D578E30602C080100004F0300003400000000000000000000000000380E000033413936393637412D414331462D343443332D414144392D343746303545314538453641
311
2F536368656D61732F636E782E786D6C504B01021400140006080800C8806D57410A3D5871000000A40000002C00000000000000000000000000920F000033413936393637412D414331462D343443332D414144392D3437463035453145384536412F636E782E786D6C504B01021400140006080800C8806D57EE6C91A67E
311
000000A300000007000000000000000000000000004D100000636E782E786D6C504B01021400140006080800C8806D5716E99B5DA6000000350100001300000000000000000000000000F01000005B436F6E74656E745F54797065735D2E786D6C504B01021400140006080800C8806D573DEE336E64000000790000001B00
311
000000000000000000000000C71100006175746F6465736B2D64657369676E2D7061636B6167652E786D6C504B01021400140006080800C8806D5768204138F70000009601000037000000000000000000000000006412000033413936393637412D414331462D343443332D414144392D3437463035453145384536412F41
311
73736574446174612F636F72652E786D6C504B01021400140006080800C8806D57656490DDF6000000940100003500000000000000000000000000B013000033413936393637412D414331462D343443332D414144392D3437463035453145384536412F536368656D61732F636F72652E786D6C504B010214001400060808
311
00C8806D577D48439802010000D70100002D00000000000000000000000000F914000033413936393637412D414331462D343443332D414144392D3437463035453145384536412F636F72652E786D6C504B01021400140006080800C8806D570C7C0BA705010000B201000008000000000000000000000000004616000063
311
6F72652E786D6C504B050600000000110011005A060000711700000000
310
504B0304140006080800C8806D57000000000000000000000000370000006662782F31413037333637302D363330392D344644342D393734412D3539344145364142413942392F617474726962757465732E62696E504B0304140006080800C8806D57000000000000000000000000350000006662782F3141303733363730
310
2D363330392D344644342D393734412D3539344145364142413942392F76657274696365732E62696E504B0304140006080800C8806D57F270F1330600000004000000360000006662782F31413037333637302D363330392D344644342D393734412D3539344145364142413942392F747269616E676C65732E62696E6366
310
60600000504B0304140006080800C8806D5751464CB48900000043010000360000006662782F31413037333637302D363330392D344644342D393734412D3539344145364142413942392F6469726563746F72792E786D6C9D8F310EC2300C45AF127987122606C71DD918B841D4B851A43646695A717C52A85029031293A5
310
A76FBF6FACEF7DA7264E43906840EF0FA03836E242F406C6DCEE4EA06AC22492573150D1F66C60C640E8938CB705396EEDD86DE9B5042FE27813D640EA63BB001C722AF6E55CB61E4863F58284D5D3F53DD715CE1C3985E63FD7F1B7EBDD617E9F1E504B0304140006080800C8806D5765E71F0437070000201C0000340000
310
006662782F31413037333637302D363330392D344644342D393734412D3539344145364142413942392F6F626A656374732E786D6CDD59DB6EDB3810FD1542FBB2FBA09B6FB50BDB8523278551A42D6A74B16F022DD30E37BA81941267BF7E8714294BB26C2BD9162836011287A186336766CE0C47D30F8728444F84719AC4
310
33C3B51C03913848B634DECF8C3CDB9963037D98A3294B92ACB2CF40318EC8CC10CBC67CBA67499EAAA52DD9E13C6CAEDEDDFC8578406262A020C49CCF0C1E3C90085B38CF922DE18FD61667D8DAEF0E966B151BEB62F70CA70F8DA352CC489C81AAB01E8314A5815BFF134CB2E7535B6CA86DEB75DBD6BFB0CD9686D715A5
310
31CF701C9C68D590D3EBA655DF1D2C6F7BC389391C0CFAE660D473CD9BBB9BA5E9BEEB3BDEC8F3268BDB8981E6D34D9284A50352126FC18B2FC6DC9DDAE23FA5F90A8536BD83248E49A0D06CDBB0254A2E25BC89490D58579A567148616B65A1DFD1F833DB3A815253A986B6364EFFAE466FB2F91B40E05DA2947122A29C67
310
0C7CADB02FF2C199DAC56ACD2F94A3086784511CA2906E1866E020D85A38A82646648B10850466D28B5A5E555708ECEBB9D4A6E52E0F4391BFC65C669A0FF948322E35A3FF1076D4BE7A1AE804D6E634CEC6CAD8EC25051193A92D178BFFF57BEA9F05906817E23D440B982936F57B0DBC3CC105ABA531FF74B739AC053FB4
310
1F9EB224252C1391279359E59DF66025B420F83A8052E05AF7DD11956F00FD6740BED4054DC1738C1E068781B69DE198EF1216817790834C077E38487C3CF934B5CB87E708D5B8F21CA690B63F08D39A19B5B32B90CEA74F10F409EB2BE3D6010E21A6EF692CF21C020585092C01DFEF360763BE02328545780A87603D7C4F
310
6DF111C1AF420EF04DC3436DF4DBC1513A619A7976F4D54788194683D255351BCFE13BFC21F82E96EB4FEB9CED7040EE55622FC98EC6348362DAAE500DF45ACA7F5F7D961979624F6D5700E7EC13411C2D7E592BBF20E9185045D4E1C23572E59E42BA87218E499273B5DE4654411226CCDFBCF8450EB79EF5A70E82E230C8
310
6F1101AD6406D53D603415A01873655EC984D61127C1832A00F78553FD0D0E1E05BC7E008CF5163D206A316B0ACDA3D4C75192C782BE4FC3BB699AD577E497EB4E7ACEA4379E8CB4B15C8AD7D9A3A9A1545E9C13E1F4CC215ECD5B8A35B4E4228F06C0966D1604D033E5999FA438A0597B2C348C50190A605F54794B77BB9C
310
03A9B7C2D2D0D8EABB43E4547E96875CD65E1DE2D308EF89BFC3A2C2B59E5703A814AE2D6845661F269CD39870D9A19C30570315C7022228E2564B6D0942CAFD8864F82DF1274B5E23FC18D9853EF45299E866AF479F565055CF731245E796C4BEB4FFC5E7384AC3A24BBB8681DB6B9CD08AAB505A1CF104F1E6E3CC77B644
310
36DDD7A497BCA0F1ED247DF266F167E061F8A7C3A38FA0D07A438DBCEE59D71ABA13F1350652190DDDFE3BED886B58E9A332D1838439744DC18BFF4CE8FEA11BA1753A879370E7D330CC23BFA8071989A005C359CE3AE5EB68E89C385FF14223212A27ED68080D7267D294BD87EE3EC02AD97C9C23CDCA3160148DE18ED6C9
310
90132B5A4358FA42DE47C5B5EBBAF75F2FF53FF365F59EF2485E9E13B66DD5B4DE46E80E4C370C822E55852BE3484A9E4FABC917C98BCB751C065A88E2B7E296A0228491272A0613F206D47A7FE0CF380B8048D7F2B7790319B125DB634F5113A7C61CC61C0ED5D2749F5ABDE900D989F2516BBC56825023983660C1B3F7E2
310
43F80D83ABA1F3E3B6EA6AEC627D250A9B058395A31E17647DF9B86E488195CE4F7F151891E78604B5EA8946EE82A8EFAB63BFDA90A02CFABEBAF078F690479B185351194558E06DFAFE83BC4BCE6CB828D8EECDA4371C397DB3E78D26E660D9BF3117EEE0D6F4C6B7EFFADE72E441036133C2939C0584DB3DDBF175EF94C6
310
7B1D1805745D6E143055B87EF5D3F1DC74F0FFF84611261B7C2E167FD50B45D9EE8986AC918B5D2F14AD44BD795DF7EF9E10757B117B55E75CCC0A74805F2E5B4046BADE776F2DB468DD49B4EB5CA988AF2CBC676F2B3FBDC6D408BDB53ED476B4517E9D8B61F6D452A5F4ED56F2DA10A86BEC0C16A6B7180DCCC1DDC43317
310
DEB8677A93D1CD72713719786EBF445CD5C2AE75E597E050AD6C658C06D3609E841486F2648BF624811B104C1D3AF02B8B0897371B68005419D76F043A3CFD54CC5433BC09F5D3C10386C174A82A721EC050146E1D3343ADA3DF600C2A26917238653D42E151D16EA09CD19901219051A82FD606C659727828A537C695E036
310
1CEFC59DA978AAFCFBF898400762E56857B9A70B2ECAB25A74C2702095EF0980ED7443F276D3B53A0867F0719367A531C785A3350A04FD42A0300EA67E8F0ADE0310CF65BB5C4BEEA941D269327F310E0AA96686D95E8ED72B782F965F6D31195F7D416998EF853B2FD5FB9A2453F419615E0CA1A61018CACC148B7BB8F7DE
310
FECA1278C514A13B0A41807E3F8C477FD85E1245495C2CD90BF5A20AAD1FE0B5D3D6D6233F685C1CE86364DFA3C6FA30B7E2C4C25BFE080BE05A46C56CB480B81600253D5502407B44F8021EABED5F2D912A029516B6DABA0A78E44C1F4122897739226DAA1B2A0348C805D0AA98D3961FF4C2D46630049FFF0B504B030414
310
0006080800C8806D574A72B4943D01000046050000300000006662782F31413037333637302D363330392D344644342D393734412D3539344145364142413942392F636E782E786D6CCD94C16A032110865F45BCAFAE0984125C033DF4097A28BDB9EE646BB3AB8B8EA579FB6ABA495B4A4A0F81E426E33FF07F333F2337EF
310
E340DE2044EB5D4305AB2901677C675DDFD084DBEA8E928D92C17BFC26A3C4E9111A5ACA54C93EF834CDA50EB63A0DA53A58B79B8B1A31D83621444ACCA0636C68342F306AA613FA0EE28E751A35132C40F42918C8FD684798FB4D008DD051B5A817CB4A884A2C1FC56A5DAFD662F52C79512AD97A3FCC7AEB10829F88F1F9
310
E1B2995AF2F2AD640A76D61402AABE9CB1D63AC9F3BF9231BB75FDACC3FD5474D33458A3318F897B83805516811E25FF142BC90BEF0FEA87FBA7A303D2D900067DD85F6900E2DC004EC6584EC2FFF80FC2BFB17DFB9A71AFB5EDB3B0B3AD8BA11ED31A735C7FEF3FA748BB7EB8BDD09F8C5D3EF3F994A035B7877CF4752162
310
7E387979E9E502AA0F504B0304140006080800C8806D576C4BB2397E000000A30000000B0000006662782F636E782E786D6C4D8CD10AC22018465F45FE7BCB31D3047538AAF718CD0DC969D88C3DFE3476D1D50787EF1CD96D8B475F9B3E2E0605CD8900B2E11947176605799DF01550A7658A71FDBB010AC36215540C5ACE
310
29E6F781463B0DD957EA5D781DB03184B78C13CC5A22307DDC28169C1A7C11D4DC99E98DE84531CE5529F3EB95AD79BD03504B0304140006080800C8806D57A6D797065F0000008200000007000000636E782E786D6C4DCB3B0E80201045D1AD90E9FD7516806B51190811670C8A61F982B1B0BAC9C97B72CA7B1037C6D333
310
2918DA1E04D2CAC69353902EDB8C20262D23F3F59B81A079470595414B17391D1F19B4730A5583A7ED43BBE4025D9592775E5ADFFA01504B0304140006080800C8806D574FEB6A7CA0000000F4000000130000005B436F6E74656E745F54797065735D2E786D6C7D8F4B0EC2300C44AF1279DFA6B0400835ED02B8011730C1
310
6D239A8F121795DB93D02D6269CFBC19BBED573B8B17C564BC53B0AB1B10E4B47F18372A5878A88E20FAAEBDBD032591BD2E299898C349CAA427B2986A1FC86565F0D122E7318E32A07EE24872DF3407A9BD63725C71C980AEBDD080CBCCE2BAE6F5D69B7110E7CD57AA146008B3D1C8F92C5954F993BB1BF787F39A89ABC4
310
91D09600F9FDA2FB00504B0304140006080800C8806D573DEE336E64000000790000001B0000006175746F6465736B2D64657369676E2D7061636B6167652E786D6C35CBC10E83200C00D05F21DCA56CA76D41FC96062B120735B69A7DBE268BB7777961F8D5AF396893C2ADB70FE7ADA196782C2DF776D7A97B5933C430F1
310
5651E5469C55D70F80A4992A3ADC954792C525AE70A1E4D6AD9816CC044FEFDF01FE3FDE907802504B0304140006080800C8806D579EA327C7F8000000960100003B0000006662782F31413037333637302D363330392D344644342D393734412D3539344145364142413942392F7265736F75726365732F636F72652E786D
310
6C8550CB6E833010FC15E4BBC10B2D4D22E34825F0053DF566990DB5126CE447D5CFAF1DA8D49E7A5A6B7666D633FCFCB5DC8B4F745E5BD311281929D0283B69337724862B3D90E22CB8B336FCA291C2C8053B926122F8EC6C5C77485913D064D4D80977507A8F8114EA9E1E1DF1EA031759CA1812C3DFCA55AA9B9CB18472
310
E3091EA39E76A99E929BBE6A7444C0E1F508303ED3977EECE9D330327ABC00A350F7C3D837E3A51D18AFB258F0A0979FEBCAA10C381151B3BAA100149A37684FAC3D41FBCEABCC14DC079732EF47733A221C7A1B9D42CFAB6DFBC735AED3FFAE519BD0D4BBEBA6F02947FAE4632178955B4AE351619AB951F10D504B030414
310
0006080800C8806D57BDA40FCBF2000000B1010000310000006662782F31413037333637302D363330392D344644342D393734412D3539344145364142413942392F636F72652E786D6C8D50CB6EC32010FC156BEFD860BBA48E3091A3B65FD0536F08888B1283C5A3EAE71762576A6F392D9A9D6166879DBE975BF5A57D30
310
CE8E406A0C95B6D22963E71152BCA067A84E9C79E7E21F1A54562C7A84020367B37769DD21E96CD4B6A0D629BD8322041DA192B7FC1821C84FBD885AA49819E15AAF425EC5AC6B526F3CCEA2597EA5D26B11B502DEE2B6438420D2BD137AC4F448E8076B0A93B3948CDAAD8CCAEEE662B4074E267CE8E80123DAE101F56F2F
310
3D1A0EFD849E867E7AA5D3791ACE036B8A98B3107DBE79FFA45CF7A87C13FECB9C56F540666363D7EE869B2264CF9CE7BEE0AC2905E6716F37CF5236FF01504B0304140006080800C8806D5789345AD954010000DD0200000C0000006662782F636F72652E786D6C8D52CB6E833010FC15E43B0F434AD3C8385249F8829E7A
310
738C43AD808D8C8DF2F95DF350CAA1698564ACD99DD99D91C9F1DEB5C128CC20B52A108E121408C5752D55532067AFE11E05474A8CD6F6471B0A14EB44813C8C28698C76FD0271ADAC501E55BA160BC886415814F0162E051AF897E858C49C858EE116F58CDF5823221CCD7D943827EB852A6B509357290CA278FFFE8671F5
310
12BE965519EECE5512BE9D7012E2B43C5765569DF27342624FA6C4CA6E9DCE8D6056D488A6499A85188738FBC0F921C90F38FF24B1EFA464B0063C2F43BD3B44AF973B89677CA3E7FAFA6F3D2795CDD2456F660CE000D69B0A94C43E1FF84DE16D3384C1909F659776B570036814DC6AB3834AADDDA334B2D609904E82E923
310
F15C05E549E0379DF489CE730D088AA906566316AE1767FDF4ED4EBD30E168EF81D2A663ED63B979C5C7F918B4B1B4D2B96EB5F90F7BB5BA8619FB8749BF01504B0304140006080800C8806D578948D07005010000B201000008000000636F72652E786D6C8D504B6EC32010BD0A628F0D76EB261126521DFB045D75478138
310
2836587CA2F6F685844AEDAEAB416FDE8FA1C7CF750137E5BCB6A687A4C2102823ACD466EE610C67B483E0C8A8B336FCA24160F8AA7A9861C8E8EC6CDC0A24AC09CA64D458A90AC8BD570102B1A4470FBDB8A895573C86C4F0D76AE3E2CA675591EAC16334E8F5472A9CE24149C81ADCB4881044DA37D21D707720DD3BAD33
310
93D118B52C515AA6747DD6CA414676AF7B42A667F4324C037A1A278CF62782116986711ADAE9D48D98D659CCA80F2EFDB998A49E01787ECBB9B47EAC18FDB0762984544A026B962FC892435EFC291D37F98FD2DA84B629860F854F9D53A1FB2205E70BA6713F6F9AF9DAEC1B504B01021400140006080800C8806D57000000
310
0000000000000000003700000000000000000000000000000000006662782F31413037333637302D363330392D344644342D393734412D3539344145364142413942392F617474726962757465732E62696E504B01021400140006080800C8806D570000000000000000000000003500000000000000000000000000550000
310
006662782F31413037333637302D363330392D344644342D393734412D3539344145364142413942392F76657274696365732E62696E504B01021400140006080800C8806D57F270F13306000000040000003600000000000000000000000000A80000006662782F31413037333637302D363330392D344644342D39373441
310
2D3539344145364142413942392F747269616E676C65732E62696E504B01021400140006080800C8806D5751464CB489000000430100003600000000000000000000000000020100006662782F31413037333637302D363330392D344644342D393734412D3539344145364142413942392F6469726563746F72792E786D6C
310
504B01021400140006080800C8806D5765E71F0437070000201C00003400000000000000000000000000DF0100006662782F31413037333637302D363330392D344644342D393734412D3539344145364142413942392F6F626A656374732E786D6C504B01021400140006080800C8806D574A72B4943D0100004605000030
310
00000000000000000000000000680900006662782F31413037333637302D363330392D344644342D393734412D3539344145364142413942392F636E782E786D6C504B01021400140006080800C8806D576C4BB2397E000000A30000000B00000000000000000000000000F30A00006662782F636E782E786D6C504B010214
310
00140006080800C8806D57A6D797065F0000008200000007000000000000000000000000009A0B0000636E782E786D6C504B01021400140006080800C8806D574FEB6A7CA0000000F400000013000000000000000000000000001E0C00005B436F6E74656E745F54797065735D2E786D6C504B01021400140006080800C880
310
6D573DEE336E64000000790000001B00000000000000000000000000EF0C00006175746F6465736B2D64657369676E2D7061636B6167652E786D6C504B01021400140006080800C8806D579EA327C7F8000000960100003B000000000000000000000000008C0D00006662782F31413037333637302D363330392D34464434
310
2D393734412D3539344145364142413942392F7265736F75726365732F636F72652E786D6C504B01021400140006080800C8806D57BDA40FCBF2000000B10100003100000000000000000000000000DD0E00006662782F31413037333637302D363330392D344644342D393734412D3539344145364142413942392F636F72
310
652E786D6C504B01021400140006080800C8806D5789345AD954010000DD0200000C000000000000000000000000001E1000006662782F636F72652E786D6C504B01021400140006080800C8806D578948D07005010000B201000008000000000000000000000000009C110000636F72652E786D6C504B0506000000000E00
310
0E0080040000C71200000000
  0
XRECORD
  5
8100
102
{ACAD_REACTORS
330
80FB
102
}
330
80FB
100
AcDbXrecord
280
     1
270
     1
271
     1
  0
XRECORD
  5
80FF
102
{ACAD_REACTORS
330
80FB
102
}
330
80FB
100
AcDbXrecord
280
     1
270
     1
271
     1
  0
XRECORD
  5
8101
102
{ACAD_REACTORS
330
80FB
102
}
330
80FB
100
AcDbXrecord
280
     1
270
     1
271
     1
  0
XRECORD
  5
80FE
102
{ACAD_REACTORS
330
80FB
102
}
330
80FB
100
AcDbXrecord
280
     1
270
     1
271
     1
  0
XRECORD
  5
8493
102
{ACAD_REACTORS
330
8492
102
}
330
8492
100
AcDbXrecord
280
     1
102
DISPLAYNAME
  1
Imperial24
102
FLAGS
 90
        0
  0
CELLSTYLEMAP
  5
845A
102
{ACAD_REACTORS
330
8459
102
}
330
8459
100
AcDbCellStyleMap
 90
        3
300
CELLSTYLE
  1
TABLEFORMAT_BEGIN
 90
        5
170
     1
 91
        0
 92
    32768
 62
   257
 93
        1
300
CONTENTFORMAT
  1
CONTENTFORMAT_BEGIN
 90
        0
 91
        0
 92
      512
 93
        0
300

 40
0.0
140
1.0
 94
        5
 62
     0
340
812E
144
0.25
309
CONTENTFORMAT_END
171
     0
 94
        0
309
TABLEFORMAT_END
  1
CELLSTYLE_BEGIN
 90
        1
 91
        1
300
_TITLE
309
CELLSTYLE_END
300
CELLSTYLE
  1
TABLEFORMAT_BEGIN
 90
        5
170
     1
 91
        0
 92
        0
 62
   257
 93
        1
300
CONTENTFORMAT
  1
CONTENTFORMAT_BEGIN
 90
        0
 91
        0
 92
      512
 93
        0
300

 40
0.0
140
1.0
 94
        5
 62
     0
340
812E
144
0.18
309
CONTENTFORMAT_END
171
     0
 94
        0
309
TABLEFORMAT_END
  1
CELLSTYLE_BEGIN
 90
        2
 91
        1
300
_HEADER
309
CELLSTYLE_END
300
CELLSTYLE
  1
TABLEFORMAT_BEGIN
 90
        5
170
     1
 91
        0
 92
        0
 62
   257
 93
        1
300
CONTENTFORMAT
  1
CONTENTFORMAT_BEGIN
 90
        0
 91
        0
 92
      512
 93
        0
300

 40
0.0
140
1.0
 94
        2
 62
     0
340
812E
144
0.18
309
CONTENTFORMAT_END
171
     0
 94
        0
309
TABLEFORMAT_END
  1
CELLSTYLE_BEGIN
 90
        3
 91
        2
300
_DATA
309
CELLSTYLE_END
  0
XRECORD
  5
8490
102
{ACAD_REACTORS
330
8459
102
}
330
8459
100
AcDbXrecord
280
     1
102
ACAD_ROUNDTRIP_PRE2007_TABLESTYLE
 90
      512
 91
        0
  1

 92
      512
 93
        0
  2

 94
      512
 95
        0
  3

  0
XRECORD
  5
846B
102
{ACAD_REACTORS
330
846A
102
}
330
846A
100
AcDbXrecord
280
     1
102
RTVSPost2010Prop28
280
     1
102
RTVSPost2010PropOp28
 70
     1
102
RTVSPost2010Prop29
280
     1
102
RTVSPost2010PropOp29
 70
     1
102
RTVSPost2010Prop30
280
     0
102
RTVSPost2010PropOp30
 70
     1
102
RTVSPost2010Prop31
280
     0
102
RTVSPost2010PropOp31
 70
     1
102
RTVSPost2010Prop32
280
     0
102
RTVSPost2010PropOp32
 70
     1
102
RTVSPost2010Prop33
280
     0
102
RTVSPost2010PropOp33
 70
     1
102
RTVSPost2010Prop34
280
     0
102
RTVSPost2010PropOp34
 70
     1
102
RTVSPost2010Prop35
280
     0
102
RTVSPost2010PropOp35
 70
     1
102
RTVSPost2010Prop36
280
     0
102
RTVSPost2010PropOp36
 70
     1
102
RTVSPost2010Prop37
 90
       50
102
RTVSPost2010PropOp37
 70
     1
102
RTVSPost2010Prop38
140
0.0
102
RTVSPost2010PropOp38
 70
     1
102
RTVSPost2010Prop39
140
1.0
102
RTVSPost2010PropOp39
 70
     1
102
RTVSPost2010Prop40
 90
        0
102
RTVSPost2010PropOp40
 70
     1
102
RTVSPost2010Prop41ColorIndex
 90
       18
102
RTVSPost2010Prop41ColorRGB
 90
        0
102
RTVSPost2010PropOp41
 70
     1
102
RTVSPost2010Prop42
 90
       50
102
RTVSPost2010PropOp42
 70
     1
102
RTVSPost2010Prop43
 90
        3
102
RTVSPost2010PropOp43
 70
     1
102
RTVSPost2010Prop44ColorIndex
 90
        5
102
RTVSPost2010Prop44ColorRGB
 90
      255
102
RTVSPost2010PropOp44
 70
     1
102
RTVSPost2010Prop45
280
     0
102
RTVSPost2010PropOp45
 70
     1
102
RTVSPost2010Prop46
 90
       50
102
RTVSPost2010PropOp46
 70
     1
102
RTVSPost2010Prop47
 90
       50
102
RTVSPost2010PropOp47
 70
     1
102
RTVSPost2010Prop48
 90
       50
102
RTVSPost2010PropOp48
 70
     1
102
RTVSPost2010Prop49
280
     0
102
RTVSPost2010PropOp49
 70
     1
102
RTVSPost2010Prop50
 90
       50
102
RTVSPost2010PropOp50
 70
     1
102
RTVSPost2010Prop51ColorIndex
 90
      256
102
RTVSPost2010Prop51ColorRGB
 90
-16777216
102
RTVSPost2010PropOp51
 70
     0
102
RTVSPost2010Prop52
140
1.0
102
RTVSPost2010PropOp52
 70
     0
102
RTVSPost2010Prop53
 90
        2
102
RTVSPost2010PropOp53
 70
     1
102
RTVSPost2010Prop54
  1
strokes_ogs.tif
102
RTVSPost2010PropOp54
 70
     1
102
RTVSPost2010Prop55
280
     0
102
RTVSPost2010PropOp55
 70
     1
102
RTVSPost2010Prop56
140
1.0
102
RTVSPost2010PropOp56
 70
     1
102
RTVSPost2010Prop57
140
1.0
102
RTVSPost2010PropOp57
 70
     1
102
RTVSPropertyOp0
 70
     1
102
RTVSPropertyOp1
 70
     1
102
RTVSPropertyOp2
 70
     1
102
RTVSPropertyOp3
 70
     1
102
RTVSPropertyOp4
 70
     1
102
RTVSPropertyOp5
 70
     1
102
RTVSPropertyOp6
 70
     1
102
RTVSPropertyOp7
 70
     1
102
RTVSPropertyOp8
 70
     1
102
RTVSPropertyOp9
 70
     1
102
RTVSPropertyOp10
 70
     1
102
RTVSPropertyOp11
 70
     1
102
RTVSPropertyOp12
 70
     1
102
RTVSPropertyOp13
 70
     1
102
RTVSPropertyOp14
 70
     1
102
RTVSPropertyOp15
 70
     1
102
RTVSPropertyOp16
 70
     1
102
RTVSPropertyOp17
 70
     1
102
RTVSPropertyOp18
 70
     1
102
RTVSPropertyOp19
 70
     1
102
RTVSPropertyOp20
 70
     1
102
RTVSPropertyOp21
 70
     1
102
RTVSPropertyOp22
 70
     1
102
RTVSPropertyOp23
 70
     1
102
RTVSPropertyOp24
 70
     1
102
RTVSPropertyOp25
 70
     1
102
RTVSPropertyOp26
 70
     1
102
RTVSPropertyOp27
 70
     1
102
RTVSPropertyOp28
 70
     1
102
RTVSPropertyOp29
 70
     1
102
RTVSPropertyOp30
 70
     1
102
RTVSPropertyOp31
 70
     1
102
RTVSPropertyOp32
 70
     1
102
RTVSPropertyOp33
 70
     1
102
RTVSPropertyOp34
 70
     1
102
RTVSPropertyOp35
 70
     1
102
RTVSPropertyOp36
 70
     1
102
RTVSPropertyOp37
 70
     1
102
RTVSPropertyOp38
 70
     1
102
RTVSPropertyOp39
 70
     1
102
RTVSPropertyOp40
 70
     1
102
RTVSPropertyOp41
 70
     1
102
RTVSPropertyOp42
 70
     1
102
RTVSPropertyOp43
 70
     1
102
RTVSPropertyOp44
 70
     1
102
RTVSPropertyOp45
 70
     1
102
RTVSPropertyOp46
 70
     1
102
RTVSPropertyOp47
 70
     1
102
RTVSPropertyOp48
 70
     1
102
RTVSPropertyOp49
 70
     1
102
RTVSPropertyOp50
 70
     1
102
RTVSPropertyOp51
 70
     0
102
RTVSPropertyOp52
 70
     0
102
RTVSPropertyOp53
 70
     1
102
RTVSPropertyOp54
 70
     1
102
RTVSPropertyOp55
 70
     1
102
RTVSPropertyOp56
 70
     1
102
RTVSPropertyOp57
 70
     1
102
RTVSPropertyOp58
 70
     1
102
RTVSPropertyOp59
 70
     1
102
RTVSPropertyOp60
 70
     1
102
RTVSPropertyOp61
 70
     1
102
RTVSPropertyOp62
 70
     1
  0
XRECORD
  5
8469
102
{ACAD_REACTORS
330
8468
102
}
330
8468
100
AcDbXrecord
280
     1
102
RTVSPost2010Prop28
280
     0
102
RTVSPost2010PropOp28
 70
     1
102
RTVSPost2010Prop29
280
     1
102
RTVSPost2010PropOp29
 70
     1
102
RTVSPost2010Prop30
280
     1
102
RTVSPost2010PropOp30
 70
     1
102
RTVSPost2010Prop31
280
     0
102
RTVSPost2010PropOp31
 70
     1
102
RTVSPost2010Prop32
280
     0
102
RTVSPost2010PropOp32
 70
     1
102
RTVSPost2010Prop33
280
     0
102
RTVSPost2010PropOp33
 70
     1
102
RTVSPost2010Prop34
280
     0
102
RTVSPost2010PropOp34
 70
     1
102
RTVSPost2010Prop35
280
     0
102
RTVSPost2010PropOp35
 70
     1
102
RTVSPost2010Prop36
280
     0
102
RTVSPost2010PropOp36
 70
     1
102
RTVSPost2010Prop37
 90
       50
102
RTVSPost2010PropOp37
 70
     1
102
RTVSPost2010Prop38
140
0.0
102
RTVSPost2010PropOp38
 70
     1
102
RTVSPost2010Prop39
140
1.0
102
RTVSPost2010PropOp39
 70
     1
102
RTVSPost2010Prop40
 90
        0
102
RTVSPost2010PropOp40
 70
     1
102
RTVSPost2010Prop41ColorIndex
 90
       18
102
RTVSPost2010Prop41ColorRGB
 90
        0
102
RTVSPost2010PropOp41
 70
     1
102
RTVSPost2010Prop42
 90
       50
102
RTVSPost2010PropOp42
 70
     1
102
RTVSPost2010Prop43
 90
        3
102
RTVSPost2010PropOp43
 70
     1
102
RTVSPost2010Prop44ColorIndex
 90
        5
102
RTVSPost2010Prop44ColorRGB
 90
      255
102
RTVSPost2010PropOp44
 70
     1
102
RTVSPost2010Prop45
280
     0
102
RTVSPost2010PropOp45
 70
     1
102
RTVSPost2010Prop46
 90
       50
102
RTVSPost2010PropOp46
 70
     1
102
RTVSPost2010Prop47
 90
       50
102
RTVSPost2010PropOp47
 70
     1
102
RTVSPost2010Prop48
 90
       50
102
RTVSPost2010PropOp48
 70
     1
102
RTVSPost2010Prop49
280
     0
102
RTVSPost2010PropOp49
 70
     1
102
RTVSPost2010Prop50
 90
       50
102
RTVSPost2010PropOp50
 70
     1
102
RTVSPost2010Prop51ColorIndex
 90
      256
102
RTVSPost2010Prop51ColorRGB
 90
-16777216
102
RTVSPost2010PropOp51
 70
     0
102
RTVSPost2010Prop52
140
1.0
102
RTVSPost2010PropOp52
 70
     0
102
RTVSPost2010Prop53
 90
        2
102
RTVSPost2010PropOp53
 70
     1
102
RTVSPost2010Prop54
  1
strokes_ogs.tif
102
RTVSPost2010PropOp54
 70
     1
102
RTVSPost2010Prop55
280
     0
102
RTVSPost2010PropOp55
 70
     1
102
RTVSPost2010Prop56
140
1.0
102
RTVSPost2010PropOp56
 70
     1
102
RTVSPost2010Prop57
140
1.0
102
RTVSPost2010PropOp57
 70
     1
102
RTVSPropertyOp0
 70
     1
102
RTVSPropertyOp1
 70
     1
102
RTVSPropertyOp2
 70
     1
102
RTVSPropertyOp3
 70
     1
102
RTVSPropertyOp4
 70
     1
102
RTVSPropertyOp5
 70
     1
102
RTVSPropertyOp6
 70
     1
102
RTVSPropertyOp7
 70
     1
102
RTVSPropertyOp8
 70
     1
102
RTVSPropertyOp9
 70
     1
102
RTVSPropertyOp10
 70
     1
102
RTVSPropertyOp11
 70
     1
102
RTVSPropertyOp12
 70
     1
102
RTVSPropertyOp13
 70
     1
102
RTVSPropertyOp14
 70
     1
102
RTVSPropertyOp15
 70
     1
102
RTVSPropertyOp16
 70
     1
102
RTVSPropertyOp17
 70
     1
102
RTVSPropertyOp18
 70
     1
102
RTVSPropertyOp19
 70
     1
102
RTVSPropertyOp20
 70
     1
102
RTVSPropertyOp21
 70
     1
102
RTVSPropertyOp22
 70
     1
102
RTVSPropertyOp23
 70
     1
102
RTVSPropertyOp24
 70
     1
102
RTVSPropertyOp25
 70
     1
102
RTVSPropertyOp26
 70
     1
102
RTVSPropertyOp27
 70
     1
102
RTVSPropertyOp28
 70
     1
102
RTVSPropertyOp29
 70
     1
102
RTVSPropertyOp30
 70
     1
102
RTVSPropertyOp31
 70
     1
102
RTVSPropertyOp32
 70
     1
102
RTVSPropertyOp33
 70
     1
102
RTVSPropertyOp34
 70
     1
102
RTVSPropertyOp35
 70
     1
102
RTVSPropertyOp36
 70
     1
102
RTVSPropertyOp37
 70
     1
102
RTVSPropertyOp38
 70
     1
102
RTVSPropertyOp39
 70
     1
102
RTVSPropertyOp40
 70
     1
102
RTVSPropertyOp41
 70
     1
102
RTVSPropertyOp42
 70
     1
102
RTVSPropertyOp43
 70
     1
102
RTVSPropertyOp44
 70
     1
102
RTVSPropertyOp45
 70
     1
102
RTVSPropertyOp46
 70
     1
102
RTVSPropertyOp47
 70
     1
102
RTVSPropertyOp48
 70
     1
102
RTVSPropertyOp49
 70
     1
102
RTVSPropertyOp50
 70
     1
102
RTVSPropertyOp51
 70
     0
102
RTVSPropertyOp52
 70
     0
102
RTVSPropertyOp53
 70
     1
102
RTVSPropertyOp54
 70
     1
102
RTVSPropertyOp55
 70
     1
102
RTVSPropertyOp56
 70
     1
102
RTVSPropertyOp57
 70
     1
102
RTVSPropertyOp58
 70
     1
102
RTVSPropertyOp59
 70
     1
102
RTVSPropertyOp60
 70
     1
102
RTVSPropertyOp61
 70
     1
102
RTVSPropertyOp62
 70
     1
  0
XRECORD
  5
8477
102
{ACAD_REACTORS
330
8476
102
}
330
8476
100
AcDbXrecord
280
     1
102
RTVSPost2010Prop28
280
     0
102
RTVSPost2010PropOp28
 70
     1
102
RTVSPost2010Prop29
280
     1
102
RTVSPost2010PropOp29
 70
     1
102
RTVSPost2010Prop30
280
     1
102
RTVSPost2010PropOp30
 70
     1
102
RTVSPost2010Prop31
280
     0
102
RTVSPost2010PropOp31
 70
     1
102
RTVSPost2010Prop32
280
     0
102
RTVSPost2010PropOp32
 70
     1
102
RTVSPost2010Prop33
280
     0
102
RTVSPost2010PropOp33
 70
     1
102
RTVSPost2010Prop34
280
     0
102
RTVSPost2010PropOp34
 70
     1
102
RTVSPost2010Prop35
280
     0
102
RTVSPost2010PropOp35
 70
     1
102
RTVSPost2010Prop36
280
     0
102
RTVSPost2010PropOp36
 70
     1
102
RTVSPost2010Prop37
 90
       50
102
RTVSPost2010PropOp37
 70
     1
102
RTVSPost2010Prop38
140
0.0
102
RTVSPost2010PropOp38
 70
     1
102
RTVSPost2010Prop39
140
1.0
102
RTVSPost2010PropOp39
 70
     1
102
RTVSPost2010Prop40
 90
        0
102
RTVSPost2010PropOp40
 70
     1
102
RTVSPost2010Prop41ColorIndex
 90
       18
102
RTVSPost2010Prop41ColorRGB
 90
        0
102
RTVSPost2010PropOp41
 70
     1
102
RTVSPost2010Prop42
 90
       50
102
RTVSPost2010PropOp42
 70
     1
102
RTVSPost2010Prop43
 90
        3
102
RTVSPost2010PropOp43
 70
     1
102
RTVSPost2010Prop44ColorIndex
 90
        5
102
RTVSPost2010Prop44ColorRGB
 90
      255
102
RTVSPost2010PropOp44
 70
     1
102
RTVSPost2010Prop45
280
     0
102
RTVSPost2010PropOp45
 70
     1
102
RTVSPost2010Prop46
 90
       50
102
RTVSPost2010PropOp46
 70
     1
102
RTVSPost2010Prop47
 90
       50
102
RTVSPost2010PropOp47
 70
     1
102
RTVSPost2010Prop48
 90
       50
102
RTVSPost2010PropOp48
 70
     1
102
RTVSPost2010Prop49
280
     0
102
RTVSPost2010PropOp49
 70
     1
102
RTVSPost2010Prop50
 90
       50
102
RTVSPost2010PropOp50
 70
     1
102
RTVSPost2010Prop51ColorIndex
 90
      256
102
RTVSPost2010Prop51ColorRGB
 90
-16777216
102
RTVSPost2010PropOp51
 70
     0
102
RTVSPost2010Prop52
140
1.0
102
RTVSPost2010PropOp52
 70
     0
102
RTVSPost2010Prop53
 90
        2
102
RTVSPost2010PropOp53
 70
     1
102
RTVSPost2010Prop54
  1
strokes_ogs.tif
102
RTVSPost2010PropOp54
 70
     1
102
RTVSPost2010Prop55
280
     0
102
RTVSPost2010PropOp55
 70
     1
102
RTVSPost2010Prop56
140
1.0
102
RTVSPost2010PropOp56
 70
     1
102
RTVSPost2010Prop57
140
1.0
102
RTVSPost2010PropOp57
 70
     1
102
RTVSPropertyOp0
 70
     1
102
RTVSPropertyOp1
 70
     1
102
RTVSPropertyOp2
 70
     1
102
RTVSPropertyOp3
 70
     1
102
RTVSPropertyOp4
 70
     1
102
RTVSPropertyOp5
 70
     1
102
RTVSPropertyOp6
 70
     1
102
RTVSPropertyOp7
 70
     1
102
RTVSPropertyOp8
 70
     1
102
RTVSPropertyOp9
 70
     1
102
RTVSPropertyOp10
 70
     1
102
RTVSPropertyOp11
 70
     1
102
RTVSPropertyOp12
 70
     1
102
RTVSPropertyOp13
 70
     1
102
RTVSPropertyOp14
 70
     1
102
RTVSPropertyOp15
 70
     1
102
RTVSPropertyOp16
 70
     1
102
RTVSPropertyOp17
 70
     1
102
RTVSPropertyOp18
 70
     1
102
RTVSPropertyOp19
 70
     1
102
RTVSPropertyOp20
 70
     1
102
RTVSPropertyOp21
 70
     1
102
RTVSPropertyOp22
 70
     1
102
RTVSPropertyOp23
 70
     1
102
RTVSPropertyOp24
 70
     1
102
RTVSPropertyOp25
 70
     1
102
RTVSPropertyOp26
 70
     1
102
RTVSPropertyOp27
 70
     1
102
RTVSPropertyOp28
 70
     1
102
RTVSPropertyOp29
 70
     1
102
RTVSPropertyOp30
 70
     1
102
RTVSPropertyOp31
 70
     1
102
RTVSPropertyOp32
 70
     1
102
RTVSPropertyOp33
 70
     1
102
RTVSPropertyOp34
 70
     1
102
RTVSPropertyOp35
 70
     1
102
RTVSPropertyOp36
 70
     1
102
RTVSPropertyOp37
 70
     1
102
RTVSPropertyOp38
 70
     1
102
RTVSPropertyOp39
 70
     1
102
RTVSPropertyOp40
 70
     1
102
RTVSPropertyOp41
 70
     1
102
RTVSPropertyOp42
 70
     1
102
RTVSPropertyOp43
 70
     1
102
RTVSPropertyOp44
 70
     1
102
RTVSPropertyOp45
 70
     1
102
RTVSPropertyOp46
 70
     1
102
RTVSPropertyOp47
 70
     1
102
RTVSPropertyOp48
 70
     1
102
RTVSPropertyOp49
 70
     1
102
RTVSPropertyOp50
 70
     1
102
RTVSPropertyOp51
 70
     0
102
RTVSPropertyOp52
 70
     0
102
RTVSPropertyOp53
 70
     1
102
RTVSPropertyOp54
 70
     1
102
RTVSPropertyOp55
 70
     1
102
RTVSPropertyOp56
 70
     1
102
RTVSPropertyOp57
 70
     1
102
RTVSPropertyOp58
 70
     1
102
RTVSPropertyOp59
 70
     1
102
RTVSPropertyOp60
 70
     1
102
RTVSPropertyOp61
 70
     1
102
RTVSPropertyOp62
 70
     1
  0
XRECORD
  5
847F
102
{ACAD_REACTORS
330
847E
102
}
330
847E
100
AcDbXrecord
280
     1
102
RTVSPost2010Prop28
280
     0
102
RTVSPost2010PropOp28
 70
     1
102
RTVSPost2010Prop29
280
     1
102
RTVSPost2010PropOp29
 70
     1
102
RTVSPost2010Prop30
280
     1
102
RTVSPost2010PropOp30
 70
     1
102
RTVSPost2010Prop31
280
     0
102
RTVSPost2010PropOp31
 70
     1
102
RTVSPost2010Prop32
280
     0
102
RTVSPost2010PropOp32
 70
     1
102
RTVSPost2010Prop33
280
     0
102
RTVSPost2010PropOp33
 70
     1
102
RTVSPost2010Prop34
280
     0
102
RTVSPost2010PropOp34
 70
     1
102
RTVSPost2010Prop35
280
     0
102
RTVSPost2010PropOp35
 70
     1
102
RTVSPost2010Prop36
280
     0
102
RTVSPost2010PropOp36
 70
     1
102
RTVSPost2010Prop37
 90
       50
102
RTVSPost2010PropOp37
 70
     1
102
RTVSPost2010Prop38
140
0.0
102
RTVSPost2010PropOp38
 70
     1
102
RTVSPost2010Prop39
140
1.0
102
RTVSPost2010PropOp39
 70
     1
102
RTVSPost2010Prop40
 90
        0
102
RTVSPost2010PropOp40
 70
     1
102
RTVSPost2010Prop41ColorIndex
 90
       18
102
RTVSPost2010Prop41ColorRGB
 90
        0
102
RTVSPost2010PropOp41
 70
     1
102
RTVSPost2010Prop42
 90
       50
102
RTVSPost2010PropOp42
 70
     1
102
RTVSPost2010Prop43
 90
        3
102
RTVSPost2010PropOp43
 70
     1
102
RTVSPost2010Prop44ColorIndex
 90
        5
102
RTVSPost2010Prop44ColorRGB
 90
      255
102
RTVSPost2010PropOp44
 70
     1
102
RTVSPost2010Prop45
280
     0
102
RTVSPost2010PropOp45
 70
     1
102
RTVSPost2010Prop46
 90
       50
102
RTVSPost2010PropOp46
 70
     1
102
RTVSPost2010Prop47
 90
       50
102
RTVSPost2010PropOp47
 70
     1
102
RTVSPost2010Prop48
 90
       50
102
RTVSPost2010PropOp48
 70
     1
102
RTVSPost2010Prop49
280
     0
102
RTVSPost2010PropOp49
 70
     1
102
RTVSPost2010Prop50
 90
       50
102
RTVSPost2010PropOp50
 70
     1
102
RTVSPost2010Prop51ColorIndex
 90
      256
102
RTVSPost2010Prop51ColorRGB
 90
-16777216
102
RTVSPost2010PropOp51
 70
     0
102
RTVSPost2010Prop52
140
1.0
102
RTVSPost2010PropOp52
 70
     0
102
RTVSPost2010Prop53
 90
        2
102
RTVSPost2010PropOp53
 70
     1
102
RTVSPost2010Prop54
  1
strokes_ogs.tif
102
RTVSPost2010PropOp54
 70
     1
102
RTVSPost2010Prop55
280
     0
102
RTVSPost2010PropOp55
 70
     1
102
RTVSPost2010Prop56
140
1.0
102
RTVSPost2010PropOp56
 70
     1
102
RTVSPost2010Prop57
140
1.0
102
RTVSPost2010PropOp57
 70
     1
102
RTVSPropertyOp0
 70
     1
102
RTVSPropertyOp1
 70
     1
102
RTVSPropertyOp2
 70
     1
102
RTVSPropertyOp3
 70
     1
102
RTVSPropertyOp4
 70
     1
102
RTVSPropertyOp5
 70
     1
102
RTVSPropertyOp6
 70
     1
102
RTVSPropertyOp7
 70
     1
102
RTVSPropertyOp8
 70
     1
102
RTVSPropertyOp9
 70
     1
102
RTVSPropertyOp10
 70
     1
102
RTVSPropertyOp11
 70
     1
102
RTVSPropertyOp12
 70
     1
102
RTVSPropertyOp13
 70
     1
102
RTVSPropertyOp14
 70
     1
102
RTVSPropertyOp15
 70
     1
102
RTVSPropertyOp16
 70
     1
102
RTVSPropertyOp17
 70
     1
102
RTVSPropertyOp18
 70
     1
102
RTVSPropertyOp19
 70
     1
102
RTVSPropertyOp20
 70
     1
102
RTVSPropertyOp21
 70
     1
102
RTVSPropertyOp22
 70
     1
102
RTVSPropertyOp23
 70
     1
102
RTVSPropertyOp24
 70
     1
102
RTVSPropertyOp25
 70
     1
102
RTVSPropertyOp26
 70
     1
102
RTVSPropertyOp27
 70
     1
102
RTVSPropertyOp28
 70
     1
102
RTVSPropertyOp29
 70
     1
102
RTVSPropertyOp30
 70
     1
102
RTVSPropertyOp31
 70
     1
102
RTVSPropertyOp32
 70
     1
102
RTVSPropertyOp33
 70
     1
102
RTVSPropertyOp34
 70
     1
102
RTVSPropertyOp35
 70
     1
102
RTVSPropertyOp36
 70
     1
102
RTVSPropertyOp37
 70
     1
102
RTVSPropertyOp38
 70
     1
102
RTVSPropertyOp39
 70
     1
102
RTVSPropertyOp40
 70
     1
102
RTVSPropertyOp41
 70
     1
102
RTVSPropertyOp42
 70
     1
102
RTVSPropertyOp43
 70
     1
102
RTVSPropertyOp44
 70
     1
102
RTVSPropertyOp45
 70
     1
102
RTVSPropertyOp46
 70
     1
102
RTVSPropertyOp47
 70
     1
102
RTVSPropertyOp48
 70
     1
102
RTVSPropertyOp49
 70
     1
102
RTVSPropertyOp50
 70
     1
102
RTVSPropertyOp51
 70
     0
102
RTVSPropertyOp52
 70
     0
102
RTVSPropertyOp53
 70
     1
102
RTVSPropertyOp54
 70
     1
102
RTVSPropertyOp55
 70
     1
102
RTVSPropertyOp56
 70
     1
102
RTVSPropertyOp57
 70
     1
102
RTVSPropertyOp58
 70
     1
102
RTVSPropertyOp59
 70
     1
102
RTVSPropertyOp60
 70
     1
102
RTVSPropertyOp61
 70
     1
102
RTVSPropertyOp62
 70
     1
  0
XRECORD
  5
8471
102
{ACAD_REACTORS
330
8470
102
}
330
8470
100
AcDbXrecord
280
     1
102
RTVSPost2010Prop28
280
     0
102
RTVSPost2010PropOp28
 70
     1
102
RTVSPost2010Prop29
280
     1
102
RTVSPost2010PropOp29
 70
     1
102
RTVSPost2010Prop30
280
     1
102
RTVSPost2010PropOp30
 70
     1
102
RTVSPost2010Prop31
280
     0
102
RTVSPost2010PropOp31
 70
     1
102
RTVSPost2010Prop32
280
     0
102
RTVSPost2010PropOp32
 70
     1
102
RTVSPost2010Prop33
280
     0
102
RTVSPost2010PropOp33
 70
     1
102
RTVSPost2010Prop34
280
     0
102
RTVSPost2010PropOp34
 70
     1
102
RTVSPost2010Prop35
280
     0
102
RTVSPost2010PropOp35
 70
     1
102
RTVSPost2010Prop36
280
     0
102
RTVSPost2010PropOp36
 70
     1
102
RTVSPost2010Prop37
 90
       50
102
RTVSPost2010PropOp37
 70
     1
102
RTVSPost2010Prop38
140
0.0
102
RTVSPost2010PropOp38
 70
     1
102
RTVSPost2010Prop39
140
1.0
102
RTVSPost2010PropOp39
 70
     1
102
RTVSPost2010Prop40
 90
        0
102
RTVSPost2010PropOp40
 70
     1
102
RTVSPost2010Prop41ColorIndex
 90
       18
102
RTVSPost2010Prop41ColorRGB
 90
        0
102
RTVSPost2010PropOp41
 70
     1
102
RTVSPost2010Prop42
 90
       50
102
RTVSPost2010PropOp42
 70
     1
102
RTVSPost2010Prop43
 90
        3
102
RTVSPost2010PropOp43
 70
     1
102
RTVSPost2010Prop44ColorIndex
 90
        5
102
RTVSPost2010Prop44ColorRGB
 90
      255
102
RTVSPost2010PropOp44
 70
     1
102
RTVSPost2010Prop45
280
     0
102
RTVSPost2010PropOp45
 70
     1
102
RTVSPost2010Prop46
 90
       50
102
RTVSPost2010PropOp46
 70
     1
102
RTVSPost2010Prop47
 90
       50
102
RTVSPost2010PropOp47
 70
     1
102
RTVSPost2010Prop48
 90
       50
102
RTVSPost2010PropOp48
 70
     1
102
RTVSPost2010Prop49
280
     0
102
RTVSPost2010PropOp49
 70
     1
102
RTVSPost2010Prop50
 90
       50
102
RTVSPost2010PropOp50
 70
     1
102
RTVSPost2010Prop51ColorIndex
 90
      256
102
RTVSPost2010Prop51ColorRGB
 90
-16777216
102
RTVSPost2010PropOp51
 70
     0
102
RTVSPost2010Prop52
140
1.0
102
RTVSPost2010PropOp52
 70
     0
102
RTVSPost2010Prop53
 90
        2
102
RTVSPost2010PropOp53
 70
     1
102
RTVSPost2010Prop54
  1
strokes_ogs.tif
102
RTVSPost2010PropOp54
 70
     1
102
RTVSPost2010Prop55
280
     0
102
RTVSPost2010PropOp55
 70
     1
102
RTVSPost2010Prop56
140
1.0
102
RTVSPost2010PropOp56
 70
     1
102
RTVSPost2010Prop57
140
1.0
102
RTVSPost2010PropOp57
 70
     1
102
RTVSPropertyOp0
 70
     1
102
RTVSPropertyOp1
 70
     1
102
RTVSPropertyOp2
 70
     1
102
RTVSPropertyOp3
 70
     1
102
RTVSPropertyOp4
 70
     1
102
RTVSPropertyOp5
 70
     1
102
RTVSPropertyOp6
 70
     1
102
RTVSPropertyOp7
 70
     1
102
RTVSPropertyOp8
 70
     1
102
RTVSPropertyOp9
 70
     1
102
RTVSPropertyOp10
 70
     1
102
RTVSPropertyOp11
 70
     1
102
RTVSPropertyOp12
 70
     1
102
RTVSPropertyOp13
 70
     1
102
RTVSPropertyOp14
 70
     1
102
RTVSPropertyOp15
 70
     1
102
RTVSPropertyOp16
 70
     1
102
RTVSPropertyOp17
 70
     1
102
RTVSPropertyOp18
 70
     1
102
RTVSPropertyOp19
 70
     1
102
RTVSPropertyOp20
 70
     1
102
RTVSPropertyOp21
 70
     1
102
RTVSPropertyOp22
 70
     1
102
RTVSPropertyOp23
 70
     1
102
RTVSPropertyOp24
 70
     1
102
RTVSPropertyOp25
 70
     1
102
RTVSPropertyOp26
 70
     1
102
RTVSPropertyOp27
 70
     1
102
RTVSPropertyOp28
 70
     1
102
RTVSPropertyOp29
 70
     1
102
RTVSPropertyOp30
 70
     1
102
RTVSPropertyOp31
 70
     1
102
RTVSPropertyOp32
 70
     1
102
RTVSPropertyOp33
 70
     1
102
RTVSPropertyOp34
 70
     1
102
RTVSPropertyOp35
 70
     1
102
RTVSPropertyOp36
 70
     1
102
RTVSPropertyOp37
 70
     1
102
RTVSPropertyOp38
 70
     1
102
RTVSPropertyOp39
 70
     1
102
RTVSPropertyOp40
 70
     1
102
RTVSPropertyOp41
 70
     1
102
RTVSPropertyOp42
 70
     1
102
RTVSPropertyOp43
 70
     1
102
RTVSPropertyOp44
 70
     1
102
RTVSPropertyOp45
 70
     1
102
RTVSPropertyOp46
 70
     1
102
RTVSPropertyOp47
 70
     1
102
RTVSPropertyOp48
 70
     1
102
RTVSPropertyOp49
 70
     1
102
RTVSPropertyOp50
 70
     1
102
RTVSPropertyOp51
 70
     0
102
RTVSPropertyOp52
 70
     0
102
RTVSPropertyOp53
 70
     1
102
RTVSPropertyOp54
 70
     1
102
RTVSPropertyOp55
 70
     1
102
RTVSPropertyOp56
 70
     1
102
RTVSPropertyOp57
 70
     1
102
RTVSPropertyOp58
 70
     1
102
RTVSPropertyOp59
 70
     1
102
RTVSPropertyOp60
 70
     1
102
RTVSPropertyOp61
 70
     1
102
RTVSPropertyOp62
 70
     1
  0
XRECORD
  5
8475
102
{ACAD_REACTORS
330
8474
102
}
330
8474
100
AcDbXrecord
280
     1
102
RTVSPost2010Prop28
280
     0
102
RTVSPost2010PropOp28
 70
     1
102
RTVSPost2010Prop29
280
     1
102
RTVSPost2010PropOp29
 70
     1
102
RTVSPost2010Prop30
280
     1
102
RTVSPost2010PropOp30
 70
     1
102
RTVSPost2010Prop31
280
     0
102
RTVSPost2010PropOp31
 70
     1
102
RTVSPost2010Prop32
280
     0
102
RTVSPost2010PropOp32
 70
     1
102
RTVSPost2010Prop33
280
     0
102
RTVSPost2010PropOp33
 70
     1
102
RTVSPost2010Prop34
280
     0
102
RTVSPost2010PropOp34
 70
     1
102
RTVSPost2010Prop35
280
     0
102
RTVSPost2010PropOp35
 70
     1
102
RTVSPost2010Prop36
280
     0
102
RTVSPost2010PropOp36
 70
     1
102
RTVSPost2010Prop37
 90
       50
102
RTVSPost2010PropOp37
 70
     1
102
RTVSPost2010Prop38
140
0.0
102
RTVSPost2010PropOp38
 70
     1
102
RTVSPost2010Prop39
140
1.0
102
RTVSPost2010PropOp39
 70
     1
102
RTVSPost2010Prop40
 90
        0
102
RTVSPost2010PropOp40
 70
     1
102
RTVSPost2010Prop41ColorIndex
 90
       18
102
RTVSPost2010Prop41ColorRGB
 90
        0
102
RTVSPost2010PropOp41
 70
     1
102
RTVSPost2010Prop42
 90
       50
102
RTVSPost2010PropOp42
 70
     1
102
RTVSPost2010Prop43
 90
        3
102
RTVSPost2010PropOp43
 70
     1
102
RTVSPost2010Prop44ColorIndex
 90
        5
102
RTVSPost2010Prop44ColorRGB
 90
      255
102
RTVSPost2010PropOp44
 70
     1
102
RTVSPost2010Prop45
280
     0
102
RTVSPost2010PropOp45
 70
     1
102
RTVSPost2010Prop46
 90
       50
102
RTVSPost2010PropOp46
 70
     1
102
RTVSPost2010Prop47
 90
       50
102
RTVSPost2010PropOp47
 70
     1
102
RTVSPost2010Prop48
 90
       50
102
RTVSPost2010PropOp48
 70
     1
102
RTVSPost2010Prop49
280
     0
102
RTVSPost2010PropOp49
 70
     1
102
RTVSPost2010Prop50
 90
       50
102
RTVSPost2010PropOp50
 70
     1
102
RTVSPost2010Prop51ColorIndex
 90
      256
102
RTVSPost2010Prop51ColorRGB
 90
-16777216
102
RTVSPost2010PropOp51
 70
     0
102
RTVSPost2010Prop52
140
1.0
102
RTVSPost2010PropOp52
 70
     0
102
RTVSPost2010Prop53
 90
        2
102
RTVSPost2010PropOp53
 70
     1
102
RTVSPost2010Prop54
  1
strokes_ogs.tif
102
RTVSPost2010PropOp54
 70
     1
102
RTVSPost2010Prop55
280
     0
102
RTVSPost2010PropOp55
 70
     1
102
RTVSPost2010Prop56
140
1.0
102
RTVSPost2010PropOp56
 70
     1
102
RTVSPost2010Prop57
140
1.0
102
RTVSPost2010PropOp57
 70
     1
102
RTVSPropertyOp0
 70
     1
102
RTVSPropertyOp1
 70
     1
102
RTVSPropertyOp2
 70
     1
102
RTVSPropertyOp3
 70
     1
102
RTVSPropertyOp4
 70
     1
102
RTVSPropertyOp5
 70
     1
102
RTVSPropertyOp6
 70
     1
102
RTVSPropertyOp7
 70
     1
102
RTVSPropertyOp8
 70
     1
102
RTVSPropertyOp9
 70
     1
102
RTVSPropertyOp10
 70
     1
102
RTVSPropertyOp11
 70
     1
102
RTVSPropertyOp12
 70
     1
102
RTVSPropertyOp13
 70
     1
102
RTVSPropertyOp14
 70
     1
102
RTVSPropertyOp15
 70
     1
102
RTVSPropertyOp16
 70
     1
102
RTVSPropertyOp17
 70
     1
102
RTVSPropertyOp18
 70
     1
102
RTVSPropertyOp19
 70
     1
102
RTVSPropertyOp20
 70
     1
102
RTVSPropertyOp21
 70
     1
102
RTVSPropertyOp22
 70
     1
102
RTVSPropertyOp23
 70
     1
102
RTVSPropertyOp24
 70
     1
102
RTVSPropertyOp25
 70
     1
102
RTVSPropertyOp26
 70
     1
102
RTVSPropertyOp27
 70
     1
102
RTVSPropertyOp28
 70
     1
102
RTVSPropertyOp29
 70
     1
102
RTVSPropertyOp30
 70
     1
102
RTVSPropertyOp31
 70
     1
102
RTVSPropertyOp32
 70
     1
102
RTVSPropertyOp33
 70
     1
102
RTVSPropertyOp34
 70
     1
102
RTVSPropertyOp35
 70
     1
102
RTVSPropertyOp36
 70
     1
102
RTVSPropertyOp37
 70
     1
102
RTVSPropertyOp38
 70
     1
102
RTVSPropertyOp39
 70
     1
102
RTVSPropertyOp40
 70
     1
102
RTVSPropertyOp41
 70
     1
102
RTVSPropertyOp42
 70
     1
102
RTVSPropertyOp43
 70
     1
102
RTVSPropertyOp44
 70
     1
102
RTVSPropertyOp45
 70
     1
102
RTVSPropertyOp46
 70
     1
102
RTVSPropertyOp47
 70
     1
102
RTVSPropertyOp48
 70
     1
102
RTVSPropertyOp49
 70
     1
102
RTVSPropertyOp50
 70
     1
102
RTVSPropertyOp51
 70
     0
102
RTVSPropertyOp52
 70
     0
102
RTVSPropertyOp53
 70
     1
102
RTVSPropertyOp54
 70
     1
102
RTVSPropertyOp55
 70
     1
102
RTVSPropertyOp56
 70
     1
102
RTVSPropertyOp57
 70
     1
102
RTVSPropertyOp58
 70
     1
102
RTVSPropertyOp59
 70
     1
102
RTVSPropertyOp60
 70
     1
102
RTVSPropertyOp61
 70
     1
102
RTVSPropertyOp62
 70
     1
  0
XRECORD
  5
848F
102
{ACAD_REACTORS
330
848E
102
}
330
848E
100
AcDbXrecord
280
     1
102
RTVSPost2010Prop28
280
     0
102
RTVSPost2010PropOp28
 70
     1
102
RTVSPost2010Prop29
280
     1
102
RTVSPost2010PropOp29
 70
     1
102
RTVSPost2010Prop30
280
     1
102
RTVSPost2010PropOp30
 70
     1
102
RTVSPost2010Prop31
280
     0
102
RTVSPost2010PropOp31
 70
     1
102
RTVSPost2010Prop32
280
     0
102
RTVSPost2010PropOp32
 70
     1
102
RTVSPost2010Prop33
280
     0
102
RTVSPost2010PropOp33
 70
     1
102
RTVSPost2010Prop34
280
     0
102
RTVSPost2010PropOp34
 70
     1
102
RTVSPost2010Prop35
280
     0
102
RTVSPost2010PropOp35
 70
     1
102
RTVSPost2010Prop36
280
     0
102
RTVSPost2010PropOp36
 70
     1
102
RTVSPost2010Prop37
 90
       50
102
RTVSPost2010PropOp37
 70
     0
102
RTVSPost2010Prop38
140
0.0
102
RTVSPost2010PropOp38
 70
     0
102
RTVSPost2010Prop39
140
1.0
102
RTVSPost2010PropOp39
 70
     0
102
RTVSPost2010Prop40
 90
        0
102
RTVSPost2010PropOp40
 70
     0
102
RTVSPost2010Prop41ColorIndex
 90
       18
102
RTVSPost2010Prop41ColorRGB
 90
        0
102
RTVSPost2010PropOp41
 70
     0
102
RTVSPost2010Prop42
 90
       50
102
RTVSPost2010PropOp42
 70
     0
102
RTVSPost2010Prop43
 90
        3
102
RTVSPost2010PropOp43
 70
     0
102
RTVSPost2010Prop44ColorIndex
 90
        5
102
RTVSPost2010Prop44ColorRGB
 90
      255
102
RTVSPost2010PropOp44
 70
     0
102
RTVSPost2010Prop45
280
     0
102
RTVSPost2010PropOp45
 70
     1
102
RTVSPost2010Prop46
 90
       50
102
RTVSPost2010PropOp46
 70
     0
102
RTVSPost2010Prop47
 90
       50
102
RTVSPost2010PropOp47
 70
     0
102
RTVSPost2010Prop48
 90
       50
102
RTVSPost2010PropOp48
 70
     0
102
RTVSPost2010Prop49
280
     0
102
RTVSPost2010PropOp49
 70
     1
102
RTVSPost2010Prop50
 90
       50
102
RTVSPost2010PropOp50
 70
     0
102
RTVSPost2010Prop51ColorIndex
 90
      256
102
RTVSPost2010Prop51ColorRGB
 90
-16777216
102
RTVSPost2010PropOp51
 70
     0
102
RTVSPost2010Prop52
140
1.0
102
RTVSPost2010PropOp52
 70
     0
102
RTVSPost2010Prop53
 90
        2
102
RTVSPost2010PropOp53
 70
     0
102
RTVSPost2010Prop54
  1
strokes_ogs.tif
102
RTVSPost2010PropOp54
 70
     0
102
RTVSPost2010Prop55
280
     0
102
RTVSPost2010PropOp55
 70
     1
102
RTVSPost2010Prop56
140
1.0
102
RTVSPost2010PropOp56
 70
     0
102
RTVSPost2010Prop57
140
1.0
102
RTVSPost2010PropOp57
 70
     0
102
RTVSPropertyOp0
 70
     0
102
RTVSPropertyOp1
 70
     0
102
RTVSPropertyOp2
 70
     0
102
RTVSPropertyOp3
 70
     0
102
RTVSPropertyOp4
 70
     0
102
RTVSPropertyOp5
 70
     0
102
RTVSPropertyOp6
 70
     0
102
RTVSPropertyOp7
 70
     0
102
RTVSPropertyOp8
 70
     0
102
RTVSPropertyOp9
 70
     0
102
RTVSPropertyOp10
 70
     0
102
RTVSPropertyOp11
 70
     0
102
RTVSPropertyOp12
 70
     0
102
RTVSPropertyOp13
 70
     0
102
RTVSPropertyOp14
 70
     2
102
RTVSPropertyOp15
 70
     0
102
RTVSPropertyOp16
 70
     0
102
RTVSPropertyOp17
 70
     0
102
RTVSPropertyOp18
 70
     0
102
RTVSPropertyOp19
 70
     0
102
RTVSPropertyOp20
 70
     0
102
RTVSPropertyOp21
 70
     0
102
RTVSPropertyOp22
 70
     0
102
RTVSPropertyOp23
 70
     0
102
RTVSPropertyOp24
 70
     0
102
RTVSPropertyOp25
 70
     0
102
RTVSPropertyOp26
 70
     0
102
RTVSPropertyOp27
 70
     0
102
RTVSPropertyOp28
 70
     1
102
RTVSPropertyOp29
 70
     1
102
RTVSPropertyOp30
 70
     1
102
RTVSPropertyOp31
 70
     1
102
RTVSPropertyOp32
 70
     1
102
RTVSPropertyOp33
 70
     1
102
RTVSPropertyOp34
 70
     1
102
RTVSPropertyOp35
 70
     1
102
RTVSPropertyOp36
 70
     1
102
RTVSPropertyOp37
 70
     0
102
RTVSPropertyOp38
 70
     0
102
RTVSPropertyOp39
 70
     0
102
RTVSPropertyOp40
 70
     0
102
RTVSPropertyOp41
 70
     0
102
RTVSPropertyOp42
 70
     0
102
RTVSPropertyOp43
 70
     0
102
RTVSPropertyOp44
 70
     0
102
RTVSPropertyOp45
 70
     1
102
RTVSPropertyOp46
 70
     0
102
RTVSPropertyOp47
 70
     0
102
RTVSPropertyOp48
 70
     0
102
RTVSPropertyOp49
 70
     1
102
RTVSPropertyOp50
 70
     0
102
RTVSPropertyOp51
 70
     0
102
RTVSPropertyOp52
 70
     0
102
RTVSPropertyOp53
 70
     0
102
RTVSPropertyOp54
 70
     0
102
RTVSPropertyOp55
 70
     1
102
RTVSPropertyOp56
 70
     0
102
RTVSPropertyOp57
 70
     0
102
RTVSPropertyOp58
 70
     0
102
RTVSPropertyOp59
 70
     0
102
RTVSPropertyOp60
 70
     0
102
RTVSPropertyOp61
 70
     0
102
RTVSPropertyOp62
 70
     0
  0
XRECORD
  5
847D
102
{ACAD_REACTORS
330
847C
102
}
330
847C
100
AcDbXrecord
280
     1
102
RTVSPost2010Prop28
280
     0
102
RTVSPost2010PropOp28
 70
     1
102
RTVSPost2010Prop29
280
     1
102
RTVSPost2010PropOp29
 70
     1
102
RTVSPost2010Prop30
280
     1
102
RTVSPost2010PropOp30
 70
     1
102
RTVSPost2010Prop31
280
     0
102
RTVSPost2010PropOp31
 70
     1
102
RTVSPost2010Prop32
280
     0
102
RTVSPost2010PropOp32
 70
     1
102
RTVSPost2010Prop33
280
     0
102
RTVSPost2010PropOp33
 70
     1
102
RTVSPost2010Prop34
280
     0
102
RTVSPost2010PropOp34
 70
     1
102
RTVSPost2010Prop35
280
     0
102
RTVSPost2010PropOp35
 70
     1
102
RTVSPost2010Prop36
280
     0
102
RTVSPost2010PropOp36
 70
     1
102
RTVSPost2010Prop37
 90
       50
102
RTVSPost2010PropOp37
 70
     1
102
RTVSPost2010Prop38
140
0.0
102
RTVSPost2010PropOp38
 70
     1
102
RTVSPost2010Prop39
140
1.0
102
RTVSPost2010PropOp39
 70
     1
102
RTVSPost2010Prop40
 90
        0
102
RTVSPost2010PropOp40
 70
     1
102
RTVSPost2010Prop41ColorIndex
 90
       18
102
RTVSPost2010Prop41ColorRGB
 90
        0
102
RTVSPost2010PropOp41
 70
     1
102
RTVSPost2010Prop42
 90
       50
102
RTVSPost2010PropOp42
 70
     1
102
RTVSPost2010Prop43
 90
        3
102
RTVSPost2010PropOp43
 70
     1
102
RTVSPost2010Prop44ColorIndex
 90
        5
102
RTVSPost2010Prop44ColorRGB
 90
      255
102
RTVSPost2010PropOp44
 70
     1
102
RTVSPost2010Prop45
280
     0
102
RTVSPost2010PropOp45
 70
     1
102
RTVSPost2010Prop46
 90
       50
102
RTVSPost2010PropOp46
 70
     1
102
RTVSPost2010Prop47
 90
       50
102
RTVSPost2010PropOp47
 70
     1
102
RTVSPost2010Prop48
 90
       50
102
RTVSPost2010PropOp48
 70
     1
102
RTVSPost2010Prop49
280
     0
102
RTVSPost2010PropOp49
 70
     1
102
RTVSPost2010Prop50
 90
       50
102
RTVSPost2010PropOp50
 70
     1
102
RTVSPost2010Prop51ColorIndex
 90
      256
102
RTVSPost2010Prop51ColorRGB
 90
-16777216
102
RTVSPost2010PropOp51
 70
     0
102
RTVSPost2010Prop52
140
1.0
102
RTVSPost2010PropOp52
 70
     0
102
RTVSPost2010Prop53
 90
        2
102
RTVSPost2010PropOp53
 70
     1
102
RTVSPost2010Prop54
  1
strokes_ogs.tif
102
RTVSPost2010PropOp54
 70
     1
102
RTVSPost2010Prop55
280
     0
102
RTVSPost2010PropOp55
 70
     1
102
RTVSPost2010Prop56
140
1.0
102
RTVSPost2010PropOp56
 70
     1
102
RTVSPost2010Prop57
140
1.0
102
RTVSPost2010PropOp57
 70
     1
102
RTVSPropertyOp0
 70
     1
102
RTVSPropertyOp1
 70
     1
102
RTVSPropertyOp2
 70
     1
102
RTVSPropertyOp3
 70
     1
102
RTVSPropertyOp4
 70
     1
102
RTVSPropertyOp5
 70
     1
102
RTVSPropertyOp6
 70
     1
102
RTVSPropertyOp7
 70
     1
102
RTVSPropertyOp8
 70
     1
102
RTVSPropertyOp9
 70
     1
102
RTVSPropertyOp10
 70
     1
102
RTVSPropertyOp11
 70
     1
102
RTVSPropertyOp12
 70
     1
102
RTVSPropertyOp13
 70
     1
102
RTVSPropertyOp14
 70
     1
102
RTVSPropertyOp15
 70
     1
102
RTVSPropertyOp16
 70
     1
102
RTVSPropertyOp17
 70
     1
102
RTVSPropertyOp18
 70
     1
102
RTVSPropertyOp19
 70
     1
102
RTVSPropertyOp20
 70
     1
102
RTVSPropertyOp21
 70
     1
102
RTVSPropertyOp22
 70
     1
102
RTVSPropertyOp23
 70
     1
102
RTVSPropertyOp24
 70
     1
102
RTVSPropertyOp25
 70
     1
102
RTVSPropertyOp26
 70
     1
102
RTVSPropertyOp27
 70
     1
102
RTVSPropertyOp28
 70
     1
102
RTVSPropertyOp29
 70
     1
102
RTVSPropertyOp30
 70
     1
102
RTVSPropertyOp31
 70
     1
102
RTVSPropertyOp32
 70
     1
102
RTVSPropertyOp33
 70
     1
102
RTVSPropertyOp34
 70
     1
102
RTVSPropertyOp35
 70
     1
102
RTVSPropertyOp36
 70
     1
102
RTVSPropertyOp37
 70
     1
102
RTVSPropertyOp38
 70
     1
102
RTVSPropertyOp39
 70
     1
102
RTVSPropertyOp40
 70
     1
102
RTVSPropertyOp41
 70
     1
102
RTVSPropertyOp42
 70
     1
102
RTVSPropertyOp43
 70
     1
102
RTVSPropertyOp44
 70
     1
102
RTVSPropertyOp45
 70
     1
102
RTVSPropertyOp46
 70
     1
102
RTVSPropertyOp47
 70
     1
102
RTVSPropertyOp48
 70
     1
102
RTVSPropertyOp49
 70
     1
102
RTVSPropertyOp50
 70
     1
102
RTVSPropertyOp51
 70
     0
102
RTVSPropertyOp52
 70
     0
102
RTVSPropertyOp53
 70
     1
102
RTVSPropertyOp54
 70
     1
102
RTVSPropertyOp55
 70
     1
102
RTVSPropertyOp56
 70
     1
102
RTVSPropertyOp57
 70
     1
102
RTVSPropertyOp58
 70
     1
102
RTVSPropertyOp59
 70
     1
102
RTVSPropertyOp60
 70
     1
102
RTVSPropertyOp61
 70
     1
102
RTVSPropertyOp62
 70
     1
  0
XRECORD
  5
8461
102
{ACAD_REACTORS
330
8460
102
}
330
8460
100
AcDbXrecord
280
     1
102
RTVSPost2010Prop28
280
     0
102
RTVSPost2010PropOp28
 70
     1
102
RTVSPost2010Prop29
280
     1
102
RTVSPost2010PropOp29
 70
     1
102
RTVSPost2010Prop30
280
     1
102
RTVSPost2010PropOp30
 70
     1
102
RTVSPost2010Prop31
280
     0
102
RTVSPost2010PropOp31
 70
     1
102
RTVSPost2010Prop32
280
     0
102
RTVSPost2010PropOp32
 70
     1
102
RTVSPost2010Prop33
280
     0
102
RTVSPost2010PropOp33
 70
     1
102
RTVSPost2010Prop34
280
     0
102
RTVSPost2010PropOp34
 70
     1
102
RTVSPost2010Prop35
280
     0
102
RTVSPost2010PropOp35
 70
     1
102
RTVSPost2010Prop36
280
     0
102
RTVSPost2010PropOp36
 70
     1
102
RTVSPost2010Prop37
 90
       50
102
RTVSPost2010PropOp37
 70
     1
102
RTVSPost2010Prop38
140
0.0
102
RTVSPost2010PropOp38
 70
     1
102
RTVSPost2010Prop39
140
1.0
102
RTVSPost2010PropOp39
 70
     1
102
RTVSPost2010Prop40
 90
        0
102
RTVSPost2010PropOp40
 70
     1
102
RTVSPost2010Prop41ColorIndex
 90
       18
102
RTVSPost2010Prop41ColorRGB
 90
        0
102
RTVSPost2010PropOp41
 70
     1
102
RTVSPost2010Prop42
 90
       50
102
RTVSPost2010PropOp42
 70
     1
102
RTVSPost2010Prop43
 90
        3
102
RTVSPost2010PropOp43
 70
     1
102
RTVSPost2010Prop44ColorIndex
 90
        5
102
RTVSPost2010Prop44ColorRGB
 90
      255
102
RTVSPost2010PropOp44
 70
     1
102
RTVSPost2010Prop45
280
     0
102
RTVSPost2010PropOp45
 70
     1
102
RTVSPost2010Prop46
 90
       50
102
RTVSPost2010PropOp46
 70
     1
102
RTVSPost2010Prop47
 90
       50
102
RTVSPost2010PropOp47
 70
     1
102
RTVSPost2010Prop48
 90
       50
102
RTVSPost2010PropOp48
 70
     1
102
RTVSPost2010Prop49
280
     0
102
RTVSPost2010PropOp49
 70
     1
102
RTVSPost2010Prop50
 90
       50
102
RTVSPost2010PropOp50
 70
     1
102
RTVSPost2010Prop51ColorIndex
 90
      256
102
RTVSPost2010Prop51ColorRGB
 90
-16777216
102
RTVSPost2010PropOp51
 70
     0
102
RTVSPost2010Prop52
140
1.0
102
RTVSPost2010PropOp52
 70
     0
102
RTVSPost2010Prop53
 90
        2
102
RTVSPost2010PropOp53
 70
     1
102
RTVSPost2010Prop54
  1
strokes_ogs.tif
102
RTVSPost2010PropOp54
 70
     1
102
RTVSPost2010Prop55
280
     0
102
RTVSPost2010PropOp55
 70
     1
102
RTVSPost2010Prop56
140
1.0
102
RTVSPost2010PropOp56
 70
     1
102
RTVSPost2010Prop57
140
1.0
102
RTVSPost2010PropOp57
 70
     1
102
RTVSPropertyOp0
 70
     1
102
RTVSPropertyOp1
 70
     1
102
RTVSPropertyOp2
 70
     1
102
RTVSPropertyOp3
 70
     1
102
RTVSPropertyOp4
 70
     1
102
RTVSPropertyOp5
 70
     1
102
RTVSPropertyOp6
 70
     1
102
RTVSPropertyOp7
 70
     1
102
RTVSPropertyOp8
 70
     1
102
RTVSPropertyOp9
 70
     1
102
RTVSPropertyOp10
 70
     1
102
RTVSPropertyOp11
 70
     1
102
RTVSPropertyOp12
 70
     1
102
RTVSPropertyOp13
 70
     1
102
RTVSPropertyOp14
 70
     1
102
RTVSPropertyOp15
 70
     1
102
RTVSPropertyOp16
 70
     1
102
RTVSPropertyOp17
 70
     1
102
RTVSPropertyOp18
 70
     1
102
RTVSPropertyOp19
 70
     1
102
RTVSPropertyOp20
 70
     1
102
RTVSPropertyOp21
 70
     1
102
RTVSPropertyOp22
 70
     1
102
RTVSPropertyOp23
 70
     1
102
RTVSPropertyOp24
 70
     1
102
RTVSPropertyOp25
 70
     1
102
RTVSPropertyOp26
 70
     1
102
RTVSPropertyOp27
 70
     1
102
RTVSPropertyOp28
 70
     1
102
RTVSPropertyOp29
 70
     1
102
RTVSPropertyOp30
 70
     1
102
RTVSPropertyOp31
 70
     1
102
RTVSPropertyOp32
 70
     1
102
RTVSPropertyOp33
 70
     1
102
RTVSPropertyOp34
 70
     1
102
RTVSPropertyOp35
 70
     1
102
RTVSPropertyOp36
 70
     1
102
RTVSPropertyOp37
 70
     1
102
RTVSPropertyOp38
 70
     1
102
RTVSPropertyOp39
 70
     1
102
RTVSPropertyOp40
 70
     1
102
RTVSPropertyOp41
 70
     1
102
RTVSPropertyOp42
 70
     1
102
RTVSPropertyOp43
 70
     1
102
RTVSPropertyOp44
 70
     1
102
RTVSPropertyOp45
 70
     1
102
RTVSPropertyOp46
 70
     1
102
RTVSPropertyOp47
 70
     1
102
RTVSPropertyOp48
 70
     1
102
RTVSPropertyOp49
 70
     1
102
RTVSPropertyOp50
 70
     1
102
RTVSPropertyOp51
 70
     0
102
RTVSPropertyOp52
 70
     0
102
RTVSPropertyOp53
 70
     1
102
RTVSPropertyOp54
 70
     1
102
RTVSPropertyOp55
 70
     1
102
RTVSPropertyOp56
 70
     1
102
RTVSPropertyOp57
 70
     1
102
RTVSPropertyOp58
 70
     1
102
RTVSPropertyOp59
 70
     1
102
RTVSPropertyOp60
 70
     1
102
RTVSPropertyOp61
 70
     1
102
RTVSPropertyOp62
 70
     1
  0
XRECORD
  5
8463
102
{ACAD_REACTORS
330
8462
102
}
330
8462
100
AcDbXrecord
280
     1
102
RTVSPost2010Prop28
280
     0
102
RTVSPost2010PropOp28
 70
     1
102
RTVSPost2010Prop29
280
     1
102
RTVSPost2010PropOp29
 70
     1
102
RTVSPost2010Prop30
280
     1
102
RTVSPost2010PropOp30
 70
     1
102
RTVSPost2010Prop31
280
     0
102
RTVSPost2010PropOp31
 70
     1
102
RTVSPost2010Prop32
280
     0
102
RTVSPost2010PropOp32
 70
     1
102
RTVSPost2010Prop33
280
     0
102
RTVSPost2010PropOp33
 70
     1
102
RTVSPost2010Prop34
280
     0
102
RTVSPost2010PropOp34
 70
     1
102
RTVSPost2010Prop35
280
     0
102
RTVSPost2010PropOp35
 70
     1
102
RTVSPost2010Prop36
280
     0
102
RTVSPost2010PropOp36
 70
     1
102
RTVSPost2010Prop37
 90
       50
102
RTVSPost2010PropOp37
 70
     1
102
RTVSPost2010Prop38
140
0.0
102
RTVSPost2010PropOp38
 70
     1
102
RTVSPost2010Prop39
140
1.0
102
RTVSPost2010PropOp39
 70
     1
102
RTVSPost2010Prop40
 90
        0
102
RTVSPost2010PropOp40
 70
     1
102
RTVSPost2010Prop41ColorIndex
 90
       18
102
RTVSPost2010Prop41ColorRGB
 90
        0
102
RTVSPost2010PropOp41
 70
     1
102
RTVSPost2010Prop42
 90
       50
102
RTVSPost2010PropOp42
 70
     1
102
RTVSPost2010Prop43
 90
        3
102
RTVSPost2010PropOp43
 70
     1
102
RTVSPost2010Prop44ColorIndex
 90
        5
102
RTVSPost2010Prop44ColorRGB
 90
      255
102
RTVSPost2010PropOp44
 70
     1
102
RTVSPost2010Prop45
280
     0
102
RTVSPost2010PropOp45
 70
     1
102
RTVSPost2010Prop46
 90
       50
102
RTVSPost2010PropOp46
 70
     1
102
RTVSPost2010Prop47
 90
       50
102
RTVSPost2010PropOp47
 70
     1
102
RTVSPost2010Prop48
 90
       50
102
RTVSPost2010PropOp48
 70
     1
102
RTVSPost2010Prop49
280
     0
102
RTVSPost2010PropOp49
 70
     1
102
RTVSPost2010Prop50
 90
       50
102
RTVSPost2010PropOp50
 70
     1
102
RTVSPost2010Prop51ColorIndex
 90
      256
102
RTVSPost2010Prop51ColorRGB
 90
-16777216
102
RTVSPost2010PropOp51
 70
     0
102
RTVSPost2010Prop52
140
1.0
102
RTVSPost2010PropOp52
 70
     0
102
RTVSPost2010Prop53
 90
        2
102
RTVSPost2010PropOp53
 70
     1
102
RTVSPost2010Prop54
  1
strokes_ogs.tif
102
RTVSPost2010PropOp54
 70
     1
102
RTVSPost2010Prop55
280
     0
102
RTVSPost2010PropOp55
 70
     1
102
RTVSPost2010Prop56
140
1.0
102
RTVSPost2010PropOp56
 70
     1
102
RTVSPost2010Prop57
140
1.0
102
RTVSPost2010PropOp57
 70
     1
102
RTVSPropertyOp0
 70
     1
102
RTVSPropertyOp1
 70
     1
102
RTVSPropertyOp2
 70
     1
102
RTVSPropertyOp3
 70
     1
102
RTVSPropertyOp4
 70
     1
102
RTVSPropertyOp5
 70
     1
102
RTVSPropertyOp6
 70
     1
102
RTVSPropertyOp7
 70
     1
102
RTVSPropertyOp8
 70
     1
102
RTVSPropertyOp9
 70
     1
102
RTVSPropertyOp10
 70
     1
102
RTVSPropertyOp11
 70
     1
102
RTVSPropertyOp12
 70
     1
102
RTVSPropertyOp13
 70
     1
102
RTVSPropertyOp14
 70
     1
102
RTVSPropertyOp15
 70
     1
102
RTVSPropertyOp16
 70
     1
102
RTVSPropertyOp17
 70
     1
102
RTVSPropertyOp18
 70
     1
102
RTVSPropertyOp19
 70
     1
102
RTVSPropertyOp20
 70
     1
102
RTVSPropertyOp21
 70
     1
102
RTVSPropertyOp22
 70
     1
102
RTVSPropertyOp23
 70
     1
102
RTVSPropertyOp24
 70
     1
102
RTVSPropertyOp25
 70
     1
102
RTVSPropertyOp26
 70
     1
102
RTVSPropertyOp27
 70
     1
102
RTVSPropertyOp28
 70
     1
102
RTVSPropertyOp29
 70
     1
102
RTVSPropertyOp30
 70
     1
102
RTVSPropertyOp31
 70
     1
102
RTVSPropertyOp32
 70
     1
102
RTVSPropertyOp33
 70
     1
102
RTVSPropertyOp34
 70
     1
102
RTVSPropertyOp35
 70
     1
102
RTVSPropertyOp36
 70
     1
102
RTVSPropertyOp37
 70
     1
102
RTVSPropertyOp38
 70
     1
102
RTVSPropertyOp39
 70
     1
102
RTVSPropertyOp40
 70
     1
102
RTVSPropertyOp41
 70
     1
102
RTVSPropertyOp42
 70
     1
102
RTVSPropertyOp43
 70
     1
102
RTVSPropertyOp44
 70
     1
102
RTVSPropertyOp45
 70
     1
102
RTVSPropertyOp46
 70
     1
102
RTVSPropertyOp47
 70
     1
102
RTVSPropertyOp48
 70
     1
102
RTVSPropertyOp49
 70
     1
102
RTVSPropertyOp50
 70
     1
102
RTVSPropertyOp51
 70
     0
102
RTVSPropertyOp52
 70
     0
102
RTVSPropertyOp53
 70
     1
102
RTVSPropertyOp54
 70
     1
102
RTVSPropertyOp55
 70
     1
102
RTVSPropertyOp56
 70
     1
102
RTVSPropertyOp57
 70
     1
102
RTVSPropertyOp58
 70
     1
102
RTVSPropertyOp59
 70
     1
102
RTVSPropertyOp60
 70
     1
102
RTVSPropertyOp61
 70
     1
102
RTVSPropertyOp62
 70
     1
  0
XRECORD
  5
8465
102
{ACAD_REACTORS
330
8464
102
}
330
8464
100
AcDbXrecord
280
     1
102
RTVSPost2010Prop28
280
     0
102
RTVSPost2010PropOp28
 70
     1
102
RTVSPost2010Prop29
280
     1
102
RTVSPost2010PropOp29
 70
     1
102
RTVSPost2010Prop30
280
     1
102
RTVSPost2010PropOp30
 70
     1
102
RTVSPost2010Prop31
280
     0
102
RTVSPost2010PropOp31
 70
     1
102
RTVSPost2010Prop32
280
     0
102
RTVSPost2010PropOp32
 70
     1
102
RTVSPost2010Prop33
280
     0
102
RTVSPost2010PropOp33
 70
     1
102
RTVSPost2010Prop34
280
     0
102
RTVSPost2010PropOp34
 70
     1
102
RTVSPost2010Prop35
280
     0
102
RTVSPost2010PropOp35
 70
     1
102
RTVSPost2010Prop36
280
     0
102
RTVSPost2010PropOp36
 70
     1
102
RTVSPost2010Prop37
 90
       50
102
RTVSPost2010PropOp37
 70
     1
102
RTVSPost2010Prop38
140
0.0
102
RTVSPost2010PropOp38
 70
     1
102
RTVSPost2010Prop39
140
1.0
102
RTVSPost2010PropOp39
 70
     1
102
RTVSPost2010Prop40
 90
        0
102
RTVSPost2010PropOp40
 70
     1
102
RTVSPost2010Prop41ColorIndex
 90
       18
102
RTVSPost2010Prop41ColorRGB
 90
        0
102
RTVSPost2010PropOp41
 70
     1
102
RTVSPost2010Prop42
 90
       50
102
RTVSPost2010PropOp42
 70
     1
102
RTVSPost2010Prop43
 90
        3
102
RTVSPost2010PropOp43
 70
     1
102
RTVSPost2010Prop44ColorIndex
 90
        5
102
RTVSPost2010Prop44ColorRGB
 90
      255
102
RTVSPost2010PropOp44
 70
     1
102
RTVSPost2010Prop45
280
     0
102
RTVSPost2010PropOp45
 70
     1
102
RTVSPost2010Prop46
 90
       50
102
RTVSPost2010PropOp46
 70
     1
102
RTVSPost2010Prop47
 90
       50
102
RTVSPost2010PropOp47
 70
     1
102
RTVSPost2010Prop48
 90
       50
102
RTVSPost2010PropOp48
 70
     1
102
RTVSPost2010Prop49
280
     0
102
RTVSPost2010PropOp49
 70
     1
102
RTVSPost2010Prop50
 90
       50
102
RTVSPost2010PropOp50
 70
     1
102
RTVSPost2010Prop51ColorIndex
 90
      256
102
RTVSPost2010Prop51ColorRGB
 90
-16777216
102
RTVSPost2010PropOp51
 70
     0
102
RTVSPost2010Prop52
140
1.0
102
RTVSPost2010PropOp52
 70
     0
102
RTVSPost2010Prop53
 90
        2
102
RTVSPost2010PropOp53
 70
     1
102
RTVSPost2010Prop54
  1
strokes_ogs.tif
102
RTVSPost2010PropOp54
 70
     1
102
RTVSPost2010Prop55
280
     0
102
RTVSPost2010PropOp55
 70
     1
102
RTVSPost2010Prop56
140
1.0
102
RTVSPost2010PropOp56
 70
     1
102
RTVSPost2010Prop57
140
1.0
102
RTVSPost2010PropOp57
 70
     1
102
RTVSPropertyOp0
 70
     1
102
RTVSPropertyOp1
 70
     1
102
RTVSPropertyOp2
 70
     1
102
RTVSPropertyOp3
 70
     1
102
RTVSPropertyOp4
 70
     1
102
RTVSPropertyOp5
 70
     1
102
RTVSPropertyOp6
 70
     1
102
RTVSPropertyOp7
 70
     1
102
RTVSPropertyOp8
 70
     1
102
RTVSPropertyOp9
 70
     1
102
RTVSPropertyOp10
 70
     1
102
RTVSPropertyOp11
 70
     1
102
RTVSPropertyOp12
 70
     1
102
RTVSPropertyOp13
 70
     1
102
RTVSPropertyOp14
 70
     1
102
RTVSPropertyOp15
 70
     1
102
RTVSPropertyOp16
 70
     1
102
RTVSPropertyOp17
 70
     1
102
RTVSPropertyOp18
 70
     1
102
RTVSPropertyOp19
 70
     1
102
RTVSPropertyOp20
 70
     1
102
RTVSPropertyOp21
 70
     1
102
RTVSPropertyOp22
 70
     1
102
RTVSPropertyOp23
 70
     1
102
RTVSPropertyOp24
 70
     1
102
RTVSPropertyOp25
 70
     1
102
RTVSPropertyOp26
 70
     1
102
RTVSPropertyOp27
 70
     1
102
RTVSPropertyOp28
 70
     1
102
RTVSPropertyOp29
 70
     1
102
RTVSPropertyOp30
 70
     1
102
RTVSPropertyOp31
 70
     1
102
RTVSPropertyOp32
 70
     1
102
RTVSPropertyOp33
 70
     1
102
RTVSPropertyOp34
 70
     1
102
RTVSPropertyOp35
 70
     1
102
RTVSPropertyOp36
 70
     1
102
RTVSPropertyOp37
 70
     1
102
RTVSPropertyOp38
 70
     1
102
RTVSPropertyOp39
 70
     1
102
RTVSPropertyOp40
 70
     1
102
RTVSPropertyOp41
 70
     1
102
RTVSPropertyOp42
 70
     1
102
RTVSPropertyOp43
 70
     1
102
RTVSPropertyOp44
 70
     1
102
RTVSPropertyOp45
 70
     1
102
RTVSPropertyOp46
 70
     1
102
RTVSPropertyOp47
 70
     1
102
RTVSPropertyOp48
 70
     1
102
RTVSPropertyOp49
 70
     1
102
RTVSPropertyOp50
 70
     1
102
RTVSPropertyOp51
 70
     0
102
RTVSPropertyOp52
 70
     0
102
RTVSPropertyOp53
 70
     1
102
RTVSPropertyOp54
 70
     1
102
RTVSPropertyOp55
 70
     1
102
RTVSPropertyOp56
 70
     1
102
RTVSPropertyOp57
 70
     1
102
RTVSPropertyOp58
 70
     1
102
RTVSPropertyOp59
 70
     1
102
RTVSPropertyOp60
 70
     1
102
RTVSPropertyOp61
 70
     1
102
RTVSPropertyOp62
 70
     1
  0
XRECORD
  5
8467
102
{ACAD_REACTORS
330
8466
102
}
330
8466
100
AcDbXrecord
280
     1
102
RTVSPost2010Prop28
280
     0
102
RTVSPost2010PropOp28
 70
     1
102
RTVSPost2010Prop29
280
     1
102
RTVSPost2010PropOp29
 70
     1
102
RTVSPost2010Prop30
280
     1
102
RTVSPost2010PropOp30
 70
     1
102
RTVSPost2010Prop31
280
     0
102
RTVSPost2010PropOp31
 70
     1
102
RTVSPost2010Prop32
280
     0
102
RTVSPost2010PropOp32
 70
     1
102
RTVSPost2010Prop33
280
     0
102
RTVSPost2010PropOp33
 70
     1
102
RTVSPost2010Prop34
280
     0
102
RTVSPost2010PropOp34
 70
     1
102
RTVSPost2010Prop35
280
     0
102
RTVSPost2010PropOp35
 70
     1
102
RTVSPost2010Prop36
280
     0
102
RTVSPost2010PropOp36
 70
     1
102
RTVSPost2010Prop37
 90
       50
102
RTVSPost2010PropOp37
 70
     1
102
RTVSPost2010Prop38
140
0.0
102
RTVSPost2010PropOp38
 70
     1
102
RTVSPost2010Prop39
140
1.0
102
RTVSPost2010PropOp39
 70
     1
102
RTVSPost2010Prop40
 90
        0
102
RTVSPost2010PropOp40
 70
     1
102
RTVSPost2010Prop41ColorIndex
 90
       18
102
RTVSPost2010Prop41ColorRGB
 90
        0
102
RTVSPost2010PropOp41
 70
     1
102
RTVSPost2010Prop42
 90
       50
102
RTVSPost2010PropOp42
 70
     1
102
RTVSPost2010Prop43
 90
        3
102
RTVSPost2010PropOp43
 70
     1
102
RTVSPost2010Prop44ColorIndex
 90
        5
102
RTVSPost2010Prop44ColorRGB
 90
      255
102
RTVSPost2010PropOp44
 70
     1
102
RTVSPost2010Prop45
280
     0
102
RTVSPost2010PropOp45
 70
     1
102
RTVSPost2010Prop46
 90
       50
102
RTVSPost2010PropOp46
 70
     1
102
RTVSPost2010Prop47
 90
       50
102
RTVSPost2010PropOp47
 70
     1
102
RTVSPost2010Prop48
 90
       50
102
RTVSPost2010PropOp48
 70
     1
102
RTVSPost2010Prop49
280
     0
102
RTVSPost2010PropOp49
 70
     1
102
RTVSPost2010Prop50
 90
       50
102
RTVSPost2010PropOp50
 70
     1
102
RTVSPost2010Prop51ColorIndex
 90
      256
102
RTVSPost2010Prop51ColorRGB
 90
-16777216
102
RTVSPost2010PropOp51
 70
     0
102
RTVSPost2010Prop52
140
1.0
102
RTVSPost2010PropOp52
 70
     0
102
RTVSPost2010Prop53
 90
        2
102
RTVSPost2010PropOp53
 70
     1
102
RTVSPost2010Prop54
  1
strokes_ogs.tif
102
RTVSPost2010PropOp54
 70
     1
102
RTVSPost2010Prop55
280
     0
102
RTVSPost2010PropOp55
 70
     1
102
RTVSPost2010Prop56
140
1.0
102
RTVSPost2010PropOp56
 70
     1
102
RTVSPost2010Prop57
140
1.0
102
RTVSPost2010PropOp57
 70
     1
102
RTVSPropertyOp0
 70
     1
102
RTVSPropertyOp1
 70
     1
102
RTVSPropertyOp2
 70
     1
102
RTVSPropertyOp3
 70
     1
102
RTVSPropertyOp4
 70
     1
102
RTVSPropertyOp5
 70
     1
102
RTVSPropertyOp6
 70
     1
102
RTVSPropertyOp7
 70
     1
102
RTVSPropertyOp8
 70
     1
102
RTVSPropertyOp9
 70
     1
102
RTVSPropertyOp10
 70
     1
102
RTVSPropertyOp11
 70
     1
102
RTVSPropertyOp12
 70
     1
102
RTVSPropertyOp13
 70
     1
102
RTVSPropertyOp14
 70
     1
102
RTVSPropertyOp15
 70
     1
102
RTVSPropertyOp16
 70
     1
102
RTVSPropertyOp17
 70
     1
102
RTVSPropertyOp18
 70
     1
102
RTVSPropertyOp19
 70
     1
102
RTVSPropertyOp20
 70
     1
102
RTVSPropertyOp21
 70
     1
102
RTVSPropertyOp22
 70
     1
102
RTVSPropertyOp23
 70
     1
102
RTVSPropertyOp24
 70
     1
102
RTVSPropertyOp25
 70
     1
102
RTVSPropertyOp26
 70
     1
102
RTVSPropertyOp27
 70
     1
102
RTVSPropertyOp28
 70
     1
102
RTVSPropertyOp29
 70
     1
102
RTVSPropertyOp30
 70
     1
102
RTVSPropertyOp31
 70
     1
102
RTVSPropertyOp32
 70
     1
102
RTVSPropertyOp33
 70
     1
102
RTVSPropertyOp34
 70
     1
102
RTVSPropertyOp35
 70
     1
102
RTVSPropertyOp36
 70
     1
102
RTVSPropertyOp37
 70
     1
102
RTVSPropertyOp38
 70
     1
102
RTVSPropertyOp39
 70
     1
102
RTVSPropertyOp40
 70
     1
102
RTVSPropertyOp41
 70
     1
102
RTVSPropertyOp42
 70
     1
102
RTVSPropertyOp43
 70
     1
102
RTVSPropertyOp44
 70
     1
102
RTVSPropertyOp45
 70
     1
102
RTVSPropertyOp46
 70
     1
102
RTVSPropertyOp47
 70
     1
102
RTVSPropertyOp48
 70
     1
102
RTVSPropertyOp49
 70
     1
102
RTVSPropertyOp50
 70
     1
102
RTVSPropertyOp51
 70
     0
102
RTVSPropertyOp52
 70
     0
102
RTVSPropertyOp53
 70
     1
102
RTVSPropertyOp54
 70
     1
102
RTVSPropertyOp55
 70
     1
102
RTVSPropertyOp56
 70
     1
102
RTVSPropertyOp57
 70
     1
102
RTVSPropertyOp58
 70
     1
102
RTVSPropertyOp59
 70
     1
102
RTVSPropertyOp60
 70
     1
102
RTVSPropertyOp61
 70
     1
102
RTVSPropertyOp62
 70
     1
  0
XRECORD
  5
846F
102
{ACAD_REACTORS
330
846E
102
}
330
846E
100
AcDbXrecord
280
     1
102
RTVSPost2010Prop28
280
     0
102
RTVSPost2010PropOp28
 70
     1
102
RTVSPost2010Prop29
280
     1
102
RTVSPost2010PropOp29
 70
     1
102
RTVSPost2010Prop30
280
     1
102
RTVSPost2010PropOp30
 70
     1
102
RTVSPost2010Prop31
280
     0
102
RTVSPost2010PropOp31
 70
     1
102
RTVSPost2010Prop32
280
     0
102
RTVSPost2010PropOp32
 70
     1
102
RTVSPost2010Prop33
280
     0
102
RTVSPost2010PropOp33
 70
     1
102
RTVSPost2010Prop34
280
     0
102
RTVSPost2010PropOp34
 70
     1
102
RTVSPost2010Prop35
280
     0
102
RTVSPost2010PropOp35
 70
     1
102
RTVSPost2010Prop36
280
     0
102
RTVSPost2010PropOp36
 70
     1
102
RTVSPost2010Prop37
 90
       50
102
RTVSPost2010PropOp37
 70
     1
102
RTVSPost2010Prop38
140
0.0
102
RTVSPost2010PropOp38
 70
     1
102
RTVSPost2010Prop39
140
1.0
102
RTVSPost2010PropOp39
 70
     1
102
RTVSPost2010Prop40
 90
        0
102
RTVSPost2010PropOp40
 70
     1
102
RTVSPost2010Prop41ColorIndex
 90
       18
102
RTVSPost2010Prop41ColorRGB
 90
        0
102
RTVSPost2010PropOp41
 70
     1
102
RTVSPost2010Prop42
 90
       50
102
RTVSPost2010PropOp42
 70
     1
102
RTVSPost2010Prop43
 90
        3
102
RTVSPost2010PropOp43
 70
     1
102
RTVSPost2010Prop44ColorIndex
 90
        5
102
RTVSPost2010Prop44ColorRGB
 90
      255
102
RTVSPost2010PropOp44
 70
     1
102
RTVSPost2010Prop45
280
     0
102
RTVSPost2010PropOp45
 70
     1
102
RTVSPost2010Prop46
 90
       50
102
RTVSPost2010PropOp46
 70
     1
102
RTVSPost2010Prop47
 90
       50
102
RTVSPost2010PropOp47
 70
     1
102
RTVSPost2010Prop48
 90
       50
102
RTVSPost2010PropOp48
 70
     1
102
RTVSPost2010Prop49
280
     0
102
RTVSPost2010PropOp49
 70
     1
102
RTVSPost2010Prop50
 90
       50
102
RTVSPost2010PropOp50
 70
     1
102
RTVSPost2010Prop51ColorIndex
 90
      256
102
RTVSPost2010Prop51ColorRGB
 90
-16777216
102
RTVSPost2010PropOp51
 70
     0
102
RTVSPost2010Prop52
140
1.0
102
RTVSPost2010PropOp52
 70
     0
102
RTVSPost2010Prop53
 90
        2
102
RTVSPost2010PropOp53
 70
     1
102
RTVSPost2010Prop54
  1
strokes_ogs.tif
102
RTVSPost2010PropOp54
 70
     1
102
RTVSPost2010Prop55
280
     0
102
RTVSPost2010PropOp55
 70
     1
102
RTVSPost2010Prop56
140
1.0
102
RTVSPost2010PropOp56
 70
     1
102
RTVSPost2010Prop57
140
1.0
102
RTVSPost2010PropOp57
 70
     1
102
RTVSPropertyOp0
 70
     1
102
RTVSPropertyOp1
 70
     1
102
RTVSPropertyOp2
 70
     1
102
RTVSPropertyOp3
 70
     1
102
RTVSPropertyOp4
 70
     1
102
RTVSPropertyOp5
 70
     1
102
RTVSPropertyOp6
 70
     1
102
RTVSPropertyOp7
 70
     1
102
RTVSPropertyOp8
 70
     1
102
RTVSPropertyOp9
 70
     1
102
RTVSPropertyOp10
 70
     1
102
RTVSPropertyOp11
 70
     1
102
RTVSPropertyOp12
 70
     1
102
RTVSPropertyOp13
 70
     1
102
RTVSPropertyOp14
 70
     1
102
RTVSPropertyOp15
 70
     1
102
RTVSPropertyOp16
 70
     1
102
RTVSPropertyOp17
 70
     1
102
RTVSPropertyOp18
 70
     1
102
RTVSPropertyOp19
 70
     1
102
RTVSPropertyOp20
 70
     1
102
RTVSPropertyOp21
 70
     1
102
RTVSPropertyOp22
 70
     1
102
RTVSPropertyOp23
 70
     1
102
RTVSPropertyOp24
 70
     1
102
RTVSPropertyOp25
 70
     1
102
RTVSPropertyOp26
 70
     1
102
RTVSPropertyOp27
 70
     1
102
RTVSPropertyOp28
 70
     1
102
RTVSPropertyOp29
 70
     1
102
RTVSPropertyOp30
 70
     1
102
RTVSPropertyOp31
 70
     1
102
RTVSPropertyOp32
 70
     1
102
RTVSPropertyOp33
 70
     1
102
RTVSPropertyOp34
 70
     1
102
RTVSPropertyOp35
 70
     1
102
RTVSPropertyOp36
 70
     1
102
RTVSPropertyOp37
 70
     1
102
RTVSPropertyOp38
 70
     1
102
RTVSPropertyOp39
 70
     1
102
RTVSPropertyOp40
 70
     1
102
RTVSPropertyOp41
 70
     1
102
RTVSPropertyOp42
 70
     1
102
RTVSPropertyOp43
 70
     1
102
RTVSPropertyOp44
 70
     1
102
RTVSPropertyOp45
 70
     1
102
RTVSPropertyOp46
 70
     1
102
RTVSPropertyOp47
 70
     1
102
RTVSPropertyOp48
 70
     1
102
RTVSPropertyOp49
 70
     1
102
RTVSPropertyOp50
 70
     1
102
RTVSPropertyOp51
 70
     0
102
RTVSPropertyOp52
 70
     0
102
RTVSPropertyOp53
 70
     1
102
RTVSPropertyOp54
 70
     1
102
RTVSPropertyOp55
 70
     1
102
RTVSPropertyOp56
 70
     1
102
RTVSPropertyOp57
 70
     1
102
RTVSPropertyOp58
 70
     1
102
RTVSPropertyOp59
 70
     1
102
RTVSPropertyOp60
 70
     1
102
RTVSPropertyOp61
 70
     1
102
RTVSPropertyOp62
 70
     1
  0
XRECORD
  5
848B
102
{ACAD_REACTORS
330
848A
102
}
330
848A
100
AcDbXrecord
280
     1
102
RTVSPost2010Prop28
280
     0
102
RTVSPost2010PropOp28
 70
     1
102
RTVSPost2010Prop29
280
     1
102
RTVSPost2010PropOp29
 70
     1
102
RTVSPost2010Prop30
280
     1
102
RTVSPost2010PropOp30
 70
     1
102
RTVSPost2010Prop31
280
     0
102
RTVSPost2010PropOp31
 70
     1
102
RTVSPost2010Prop32
280
     0
102
RTVSPost2010PropOp32
 70
     1
102
RTVSPost2010Prop33
280
     0
102
RTVSPost2010PropOp33
 70
     1
102
RTVSPost2010Prop34
280
     0
102
RTVSPost2010PropOp34
 70
     1
102
RTVSPost2010Prop35
280
     0
102
RTVSPost2010PropOp35
 70
     1
102
RTVSPost2010Prop36
280
     0
102
RTVSPost2010PropOp36
 70
     1
102
RTVSPost2010Prop37
 90
       50
102
RTVSPost2010PropOp37
 70
     0
102
RTVSPost2010Prop38
140
0.0
102
RTVSPost2010PropOp38
 70
     0
102
RTVSPost2010Prop39
140
1.0
102
RTVSPost2010PropOp39
 70
     0
102
RTVSPost2010Prop40
 90
        0
102
RTVSPost2010PropOp40
 70
     0
102
RTVSPost2010Prop41ColorIndex
 90
       18
102
RTVSPost2010Prop41ColorRGB
 90
        0
102
RTVSPost2010PropOp41
 70
     0
102
RTVSPost2010Prop42
 90
       50
102
RTVSPost2010PropOp42
 70
     0
102
RTVSPost2010Prop43
 90
        3
102
RTVSPost2010PropOp43
 70
     0
102
RTVSPost2010Prop44ColorIndex
 90
        5
102
RTVSPost2010Prop44ColorRGB
 90
      255
102
RTVSPost2010PropOp44
 70
     0
102
RTVSPost2010Prop45
280
     0
102
RTVSPost2010PropOp45
 70
     1
102
RTVSPost2010Prop46
 90
       50
102
RTVSPost2010PropOp46
 70
     0
102
RTVSPost2010Prop47
 90
       50
102
RTVSPost2010PropOp47
 70
     0
102
RTVSPost2010Prop48
 90
       50
102
RTVSPost2010PropOp48
 70
     0
102
RTVSPost2010Prop49
280
     0
102
RTVSPost2010PropOp49
 70
     1
102
RTVSPost2010Prop50
 90
       50
102
RTVSPost2010PropOp50
 70
     0
102
RTVSPost2010Prop51ColorIndex
 90
      256
102
RTVSPost2010Prop51ColorRGB
 90
-16777216
102
RTVSPost2010PropOp51
 70
     0
102
RTVSPost2010Prop52
140
1.0
102
RTVSPost2010PropOp52
 70
     0
102
RTVSPost2010Prop53
 90
        2
102
RTVSPost2010PropOp53
 70
     0
102
RTVSPost2010Prop54
  1
strokes_ogs.tif
102
RTVSPost2010PropOp54
 70
     0
102
RTVSPost2010Prop55
280
     0
102
RTVSPost2010PropOp55
 70
     1
102
RTVSPost2010Prop56
140
1.0
102
RTVSPost2010PropOp56
 70
     0
102
RTVSPost2010Prop57
140
1.0
102
RTVSPost2010PropOp57
 70
     0
102
RTVSPropertyOp0
 70
     0
102
RTVSPropertyOp1
 70
     0
102
RTVSPropertyOp2
 70
     0
102
RTVSPropertyOp3
 70
     0
102
RTVSPropertyOp4
 70
     0
102
RTVSPropertyOp5
 70
     0
102
RTVSPropertyOp6
 70
     0
102
RTVSPropertyOp7
 70
     0
102
RTVSPropertyOp8
 70
     0
102
RTVSPropertyOp9
 70
     0
102
RTVSPropertyOp10
 70
     0
102
RTVSPropertyOp11
 70
     0
102
RTVSPropertyOp12
 70
     0
102
RTVSPropertyOp13
 70
     0
102
RTVSPropertyOp14
 70
     2
102
RTVSPropertyOp15
 70
     0
102
RTVSPropertyOp16
 70
     0
102
RTVSPropertyOp17
 70
     0
102
RTVSPropertyOp18
 70
     0
102
RTVSPropertyOp19
 70
     0
102
RTVSPropertyOp20
 70
     0
102
RTVSPropertyOp21
 70
     0
102
RTVSPropertyOp22
 70
     0
102
RTVSPropertyOp23
 70
     0
102
RTVSPropertyOp24
 70
     0
102
RTVSPropertyOp25
 70
     0
102
RTVSPropertyOp26
 70
     0
102
RTVSPropertyOp27
 70
     0
102
RTVSPropertyOp28
 70
     1
102
RTVSPropertyOp29
 70
     1
102
RTVSPropertyOp30
 70
     1
102
RTVSPropertyOp31
 70
     1
102
RTVSPropertyOp32
 70
     1
102
RTVSPropertyOp33
 70
     1
102
RTVSPropertyOp34
 70
     1
102
RTVSPropertyOp35
 70
     1
102
RTVSPropertyOp36
 70
     1
102
RTVSPropertyOp37
 70
     0
102
RTVSPropertyOp38
 70
     0
102
RTVSPropertyOp39
 70
     0
102
RTVSPropertyOp40
 70
     0
102
RTVSPropertyOp41
 70
     0
102
RTVSPropertyOp42
 70
     0
102
RTVSPropertyOp43
 70
     0
102
RTVSPropertyOp44
 70
     0
102
RTVSPropertyOp45
 70
     1
102
RTVSPropertyOp46
 70
     0
102
RTVSPropertyOp47
 70
     0
102
RTVSPropertyOp48
 70
     0
102
RTVSPropertyOp49
 70
     1
102
RTVSPropertyOp50
 70
     0
102
RTVSPropertyOp51
 70
     0
102
RTVSPropertyOp52
 70
     0
102
RTVSPropertyOp53
 70
     0
102
RTVSPropertyOp54
 70
     0
102
RTVSPropertyOp55
 70
     1
102
RTVSPropertyOp56
 70
     0
102
RTVSPropertyOp57
 70
     0
102
RTVSPropertyOp58
 70
     0
102
RTVSPropertyOp59
 70
     0
102
RTVSPropertyOp60
 70
     0
102
RTVSPropertyOp61
 70
     0
102
RTVSPropertyOp62
 70
     0
  0
XRECORD
  5
847B
102
{ACAD_REACTORS
330
847A
102
}
330
847A
100
AcDbXrecord
280
     1
102
RTVSPost2010Prop28
280
     0
102
RTVSPost2010PropOp28
 70
     1
102
RTVSPost2010Prop29
280
     1
102
RTVSPost2010PropOp29
 70
     1
102
RTVSPost2010Prop30
280
     1
102
RTVSPost2010PropOp30
 70
     1
102
RTVSPost2010Prop31
280
     0
102
RTVSPost2010PropOp31
 70
     1
102
RTVSPost2010Prop32
280
     0
102
RTVSPost2010PropOp32
 70
     1
102
RTVSPost2010Prop33
280
     0
102
RTVSPost2010PropOp33
 70
     1
102
RTVSPost2010Prop34
280
     0
102
RTVSPost2010PropOp34
 70
     1
102
RTVSPost2010Prop35
280
     0
102
RTVSPost2010PropOp35
 70
     1
102
RTVSPost2010Prop36
280
     0
102
RTVSPost2010PropOp36
 70
     1
102
RTVSPost2010Prop37
 90
       50
102
RTVSPost2010PropOp37
 70
     1
102
RTVSPost2010Prop38
140
0.0
102
RTVSPost2010PropOp38
 70
     1
102
RTVSPost2010Prop39
140
1.0
102
RTVSPost2010PropOp39
 70
     1
102
RTVSPost2010Prop40
 90
        0
102
RTVSPost2010PropOp40
 70
     1
102
RTVSPost2010Prop41ColorIndex
 90
       18
102
RTVSPost2010Prop41ColorRGB
 90
        0
102
RTVSPost2010PropOp41
 70
     1
102
RTVSPost2010Prop42
 90
       50
102
RTVSPost2010PropOp42
 70
     1
102
RTVSPost2010Prop43
 90
        3
102
RTVSPost2010PropOp43
 70
     1
102
RTVSPost2010Prop44ColorIndex
 90
        5
102
RTVSPost2010Prop44ColorRGB
 90
      255
102
RTVSPost2010PropOp44
 70
     1
102
RTVSPost2010Prop45
280
     0
102
RTVSPost2010PropOp45
 70
     1
102
RTVSPost2010Prop46
 90
       50
102
RTVSPost2010PropOp46
 70
     1
102
RTVSPost2010Prop47
 90
       50
102
RTVSPost2010PropOp47
 70
     1
102
RTVSPost2010Prop48
 90
       50
102
RTVSPost2010PropOp48
 70
     1
102
RTVSPost2010Prop49
280
     0
102
RTVSPost2010PropOp49
 70
     1
102
RTVSPost2010Prop50
 90
       50
102
RTVSPost2010PropOp50
 70
     1
102
RTVSPost2010Prop51ColorIndex
 90
      256
102
RTVSPost2010Prop51ColorRGB
 90
-16777216
102
RTVSPost2010PropOp51
 70
     0
102
RTVSPost2010Prop52
140
1.0
102
RTVSPost2010PropOp52
 70
     0
102
RTVSPost2010Prop53
 90
        2
102
RTVSPost2010PropOp53
 70
     1
102
RTVSPost2010Prop54
  1
strokes_ogs.tif
102
RTVSPost2010PropOp54
 70
     1
102
RTVSPost2010Prop55
280
     0
102
RTVSPost2010PropOp55
 70
     1
102
RTVSPost2010Prop56
140
1.0
102
RTVSPost2010PropOp56
 70
     1
102
RTVSPost2010Prop57
140
1.0
102
RTVSPost2010PropOp57
 70
     1
102
RTVSPropertyOp0
 70
     1
102
RTVSPropertyOp1
 70
     1
102
RTVSPropertyOp2
 70
     1
102
RTVSPropertyOp3
 70
     1
102
RTVSPropertyOp4
 70
     1
102
RTVSPropertyOp5
 70
     1
102
RTVSPropertyOp6
 70
     1
102
RTVSPropertyOp7
 70
     1
102
RTVSPropertyOp8
 70
     1
102
RTVSPropertyOp9
 70
     1
102
RTVSPropertyOp10
 70
     1
102
RTVSPropertyOp11
 70
     1
102
RTVSPropertyOp12
 70
     1
102
RTVSPropertyOp13
 70
     1
102
RTVSPropertyOp14
 70
     1
102
RTVSPropertyOp15
 70
     1
102
RTVSPropertyOp16
 70
     1
102
RTVSPropertyOp17
 70
     1
102
RTVSPropertyOp18
 70
     1
102
RTVSPropertyOp19
 70
     1
102
RTVSPropertyOp20
 70
     1
102
RTVSPropertyOp21
 70
     1
102
RTVSPropertyOp22
 70
     1
102
RTVSPropertyOp23
 70
     1
102
RTVSPropertyOp24
 70
     1
102
RTVSPropertyOp25
 70
     1
102
RTVSPropertyOp26
 70
     1
102
RTVSPropertyOp27
 70
     1
102
RTVSPropertyOp28
 70
     1
102
RTVSPropertyOp29
 70
     1
102
RTVSPropertyOp30
 70
     1
102
RTVSPropertyOp31
 70
     1
102
RTVSPropertyOp32
 70
     1
102
RTVSPropertyOp33
 70
     1
102
RTVSPropertyOp34
 70
     1
102
RTVSPropertyOp35
 70
     1
102
RTVSPropertyOp36
 70
     1
102
RTVSPropertyOp37
 70
     1
102
RTVSPropertyOp38
 70
     1
102
RTVSPropertyOp39
 70
     1
102
RTVSPropertyOp40
 70
     1
102
RTVSPropertyOp41
 70
     1
102
RTVSPropertyOp42
 70
     1
102
RTVSPropertyOp43
 70
     1
102
RTVSPropertyOp44
 70
     1
102
RTVSPropertyOp45
 70
     1
102
RTVSPropertyOp46
 70
     1
102
RTVSPropertyOp47
 70
     1
102
RTVSPropertyOp48
 70
     1
102
RTVSPropertyOp49
 70
     1
102
RTVSPropertyOp50
 70
     1
102
RTVSPropertyOp51
 70
     0
102
RTVSPropertyOp52
 70
     0
102
RTVSPropertyOp53
 70
     1
102
RTVSPropertyOp54
 70
     1
102
RTVSPropertyOp55
 70
     1
102
RTVSPropertyOp56
 70
     1
102
RTVSPropertyOp57
 70
     1
102
RTVSPropertyOp58
 70
     1
102
RTVSPropertyOp59
 70
     1
102
RTVSPropertyOp60
 70
     1
102
RTVSPropertyOp61
 70
     1
102
RTVSPropertyOp62
 70
     1
  0
XRECORD
  5
848D
102
{ACAD_REACTORS
330
848C
102
}
330
848C
100
AcDbXrecord
280
     1
102
RTVSPost2010Prop28
280
     0
102
RTVSPost2010PropOp28
 70
     1
102
RTVSPost2010Prop29
280
     1
102
RTVSPost2010PropOp29
 70
     1
102
RTVSPost2010Prop30
280
     1
102
RTVSPost2010PropOp30
 70
     1
102
RTVSPost2010Prop31
280
     0
102
RTVSPost2010PropOp31
 70
     1
102
RTVSPost2010Prop32
280
     0
102
RTVSPost2010PropOp32
 70
     1
102
RTVSPost2010Prop33
280
     0
102
RTVSPost2010PropOp33
 70
     1
102
RTVSPost2010Prop34
280
     0
102
RTVSPost2010PropOp34
 70
     1
102
RTVSPost2010Prop35
280
     0
102
RTVSPost2010PropOp35
 70
     1
102
RTVSPost2010Prop36
280
     0
102
RTVSPost2010PropOp36
 70
     1
102
RTVSPost2010Prop37
 90
       50
102
RTVSPost2010PropOp37
 70
     0
102
RTVSPost2010Prop38
140
0.0
102
RTVSPost2010PropOp38
 70
     0
102
RTVSPost2010Prop39
140
1.0
102
RTVSPost2010PropOp39
 70
     0
102
RTVSPost2010Prop40
 90
        0
102
RTVSPost2010PropOp40
 70
     0
102
RTVSPost2010Prop41ColorIndex
 90
       18
102
RTVSPost2010Prop41ColorRGB
 90
        0
102
RTVSPost2010PropOp41
 70
     0
102
RTVSPost2010Prop42
 90
       50
102
RTVSPost2010PropOp42
 70
     0
102
RTVSPost2010Prop43
 90
        3
102
RTVSPost2010PropOp43
 70
     0
102
RTVSPost2010Prop44ColorIndex
 90
        5
102
RTVSPost2010Prop44ColorRGB
 90
      255
102
RTVSPost2010PropOp44
 70
     0
102
RTVSPost2010Prop45
280
     0
102
RTVSPost2010PropOp45
 70
     1
102
RTVSPost2010Prop46
 90
       50
102
RTVSPost2010PropOp46
 70
     0
102
RTVSPost2010Prop47
 90
       50
102
RTVSPost2010PropOp47
 70
     0
102
RTVSPost2010Prop48
 90
       50
102
RTVSPost2010PropOp48
 70
     0
102
RTVSPost2010Prop49
280
     0
102
RTVSPost2010PropOp49
 70
     1
102
RTVSPost2010Prop50
 90
       50
102
RTVSPost2010PropOp50
 70
     0
102
RTVSPost2010Prop51ColorIndex
 90
      256
102
RTVSPost2010Prop51ColorRGB
 90
-16777216
102
RTVSPost2010PropOp51
 70
     0
102
RTVSPost2010Prop52
140
1.0
102
RTVSPost2010PropOp52
 70
     0
102
RTVSPost2010Prop53
 90
        2
102
RTVSPost2010PropOp53
 70
     0
102
RTVSPost2010Prop54
  1
strokes_ogs.tif
102
RTVSPost2010PropOp54
 70
     0
102
RTVSPost2010Prop55
280
     0
102
RTVSPost2010PropOp55
 70
     1
102
RTVSPost2010Prop56
140
1.0
102
RTVSPost2010PropOp56
 70
     0
102
RTVSPost2010Prop57
140
1.0
102
RTVSPost2010PropOp57
 70
     0
102
RTVSPropertyOp0
 70
     0
102
RTVSPropertyOp1
 70
     0
102
RTVSPropertyOp2
 70
     0
102
RTVSPropertyOp3
 70
     0
102
RTVSPropertyOp4
 70
     0
102
RTVSPropertyOp5
 70
     0
102
RTVSPropertyOp6
 70
     0
102
RTVSPropertyOp7
 70
     0
102
RTVSPropertyOp8
 70
     0
102
RTVSPropertyOp9
 70
     0
102
RTVSPropertyOp10
 70
     0
102
RTVSPropertyOp11
 70
     0
102
RTVSPropertyOp12
 70
     0
102
RTVSPropertyOp13
 70
     0
102
RTVSPropertyOp14
 70
     2
102
RTVSPropertyOp15
 70
     0
102
RTVSPropertyOp16
 70
     0
102
RTVSPropertyOp17
 70
     0
102
RTVSPropertyOp18
 70
     0
102
RTVSPropertyOp19
 70
     0
102
RTVSPropertyOp20
 70
     0
102
RTVSPropertyOp21
 70
     0
102
RTVSPropertyOp22
 70
     0
102
RTVSPropertyOp23
 70
     0
102
RTVSPropertyOp24
 70
     0
102
RTVSPropertyOp25
 70
     0
102
RTVSPropertyOp26
 70
     0
102
RTVSPropertyOp27
 70
     0
102
RTVSPropertyOp28
 70
     1
102
RTVSPropertyOp29
 70
     1
102
RTVSPropertyOp30
 70
     1
102
RTVSPropertyOp31
 70
     1
102
RTVSPropertyOp32
 70
     1
102
RTVSPropertyOp33
 70
     1
102
RTVSPropertyOp34
 70
     1
102
RTVSPropertyOp35
 70
     1
102
RTVSPropertyOp36
 70
     1
102
RTVSPropertyOp37
 70
     0
102
RTVSPropertyOp38
 70
     0
102
RTVSPropertyOp39
 70
     0
102
RTVSPropertyOp40
 70
     0
102
RTVSPropertyOp41
 70
     0
102
RTVSPropertyOp42
 70
     0
102
RTVSPropertyOp43
 70
     0
102
RTVSPropertyOp44
 70
     0
102
RTVSPropertyOp45
 70
     1
102
RTVSPropertyOp46
 70
     0
102
RTVSPropertyOp47
 70
     0
102
RTVSPropertyOp48
 70
     0
102
RTVSPropertyOp49
 70
     1
102
RTVSPropertyOp50
 70
     0
102
RTVSPropertyOp51
 70
     0
102
RTVSPropertyOp52
 70
     0
102
RTVSPropertyOp53
 70
     0
102
RTVSPropertyOp54
 70
     0
102
RTVSPropertyOp55
 70
     1
102
RTVSPropertyOp56
 70
     0
102
RTVSPropertyOp57
 70
     0
102
RTVSPropertyOp58
 70
     0
102
RTVSPropertyOp59
 70
     0
102
RTVSPropertyOp60
 70
     0
102
RTVSPropertyOp61
 70
     0
102
RTVSPropertyOp62
 70
     0
  0
XRECORD
  5
8473
102
{ACAD_REACTORS
330
8472
102
}
330
8472
100
AcDbXrecord
280
     1
102
RTVSPost2010Prop28
280
     0
102
RTVSPost2010PropOp28
 70
     1
102
RTVSPost2010Prop29
280
     1
102
RTVSPost2010PropOp29
 70
     1
102
RTVSPost2010Prop30
280
     1
102
RTVSPost2010PropOp30
 70
     1
102
RTVSPost2010Prop31
280
     0
102
RTVSPost2010PropOp31
 70
     1
102
RTVSPost2010Prop32
280
     0
102
RTVSPost2010PropOp32
 70
     1
102
RTVSPost2010Prop33
280
     0
102
RTVSPost2010PropOp33
 70
     1
102
RTVSPost2010Prop34
280
     0
102
RTVSPost2010PropOp34
 70
     1
102
RTVSPost2010Prop35
280
     0
102
RTVSPost2010PropOp35
 70
     1
102
RTVSPost2010Prop36
280
     0
102
RTVSPost2010PropOp36
 70
     1
102
RTVSPost2010Prop37
 90
       50
102
RTVSPost2010PropOp37
 70
     1
102
RTVSPost2010Prop38
140
0.0
102
RTVSPost2010PropOp38
 70
     1
102
RTVSPost2010Prop39
140
1.0
102
RTVSPost2010PropOp39
 70
     1
102
RTVSPost2010Prop40
 90
        0
102
RTVSPost2010PropOp40
 70
     1
102
RTVSPost2010Prop41ColorIndex
 90
       18
102
RTVSPost2010Prop41ColorRGB
 90
        0
102
RTVSPost2010PropOp41
 70
     1
102
RTVSPost2010Prop42
 90
       50
102
RTVSPost2010PropOp42
 70
     1
102
RTVSPost2010Prop43
 90
        3
102
RTVSPost2010PropOp43
 70
     1
102
RTVSPost2010Prop44ColorIndex
 90
        5
102
RTVSPost2010Prop44ColorRGB
 90
      255
102
RTVSPost2010PropOp44
 70
     1
102
RTVSPost2010Prop45
280
     0
102
RTVSPost2010PropOp45
 70
     1
102
RTVSPost2010Prop46
 90
       50
102
RTVSPost2010PropOp46
 70
     1
102
RTVSPost2010Prop47
 90
       50
102
RTVSPost2010PropOp47
 70
     1
102
RTVSPost2010Prop48
 90
       50
102
RTVSPost2010PropOp48
 70
     1
102
RTVSPost2010Prop49
280
     0
102
RTVSPost2010PropOp49
 70
     1
102
RTVSPost2010Prop50
 90
       50
102
RTVSPost2010PropOp50
 70
     1
102
RTVSPost2010Prop51ColorIndex
 90
      256
102
RTVSPost2010Prop51ColorRGB
 90
-16777216
102
RTVSPost2010PropOp51
 70
     0
102
RTVSPost2010Prop52
140
1.0
102
RTVSPost2010PropOp52
 70
     0
102
RTVSPost2010Prop53
 90
        2
102
RTVSPost2010PropOp53
 70
     1
102
RTVSPost2010Prop54
  1
strokes_ogs.tif
102
RTVSPost2010PropOp54
 70
     1
102
RTVSPost2010Prop55
280
     0
102
RTVSPost2010PropOp55
 70
     1
102
RTVSPost2010Prop56
140
1.0
102
RTVSPost2010PropOp56
 70
     1
102
RTVSPost2010Prop57
140
1.0
102
RTVSPost2010PropOp57
 70
     1
102
RTVSPropertyOp0
 70
     1
102
RTVSPropertyOp1
 70
     1
102
RTVSPropertyOp2
 70
     1
102
RTVSPropertyOp3
 70
     1
102
RTVSPropertyOp4
 70
     1
102
RTVSPropertyOp5
 70
     1
102
RTVSPropertyOp6
 70
     1
102
RTVSPropertyOp7
 70
     1
102
RTVSPropertyOp8
 70
     1
102
RTVSPropertyOp9
 70
     1
102
RTVSPropertyOp10
 70
     1
102
RTVSPropertyOp11
 70
     1
102
RTVSPropertyOp12
 70
     1
102
RTVSPropertyOp13
 70
     1
102
RTVSPropertyOp14
 70
     1
102
RTVSPropertyOp15
 70
     1
102
RTVSPropertyOp16
 70
     1
102
RTVSPropertyOp17
 70
     1
102
RTVSPropertyOp18
 70
     1
102
RTVSPropertyOp19
 70
     1
102
RTVSPropertyOp20
 70
     1
102
RTVSPropertyOp21
 70
     1
102
RTVSPropertyOp22
 70
     1
102
RTVSPropertyOp23
 70
     1
102
RTVSPropertyOp24
 70
     1
102
RTVSPropertyOp25
 70
     1
102
RTVSPropertyOp26
 70
     1
102
RTVSPropertyOp27
 70
     1
102
RTVSPropertyOp28
 70
     1
102
RTVSPropertyOp29
 70
     1
102
RTVSPropertyOp30
 70
     1
102
RTVSPropertyOp31
 70
     1
102
RTVSPropertyOp32
 70
     1
102
RTVSPropertyOp33
 70
     1
102
RTVSPropertyOp34
 70
     1
102
RTVSPropertyOp35
 70
     1
102
RTVSPropertyOp36
 70
     1
102
RTVSPropertyOp37
 70
     1
102
RTVSPropertyOp38
 70
     1
102
RTVSPropertyOp39
 70
     1
102
RTVSPropertyOp40
 70
     1
102
RTVSPropertyOp41
 70
     1
102
RTVSPropertyOp42
 70
     1
102
RTVSPropertyOp43
 70
     1
102
RTVSPropertyOp44
 70
     1
102
RTVSPropertyOp45
 70
     1
102
RTVSPropertyOp46
 70
     1
102
RTVSPropertyOp47
 70
     1
102
RTVSPropertyOp48
 70
     1
102
RTVSPropertyOp49
 70
     1
102
RTVSPropertyOp50
 70
     1
102
RTVSPropertyOp51
 70
     0
102
RTVSPropertyOp52
 70
     0
102
RTVSPropertyOp53
 70
     1
102
RTVSPropertyOp54
 70
     1
102
RTVSPropertyOp55
 70
     1
102
RTVSPropertyOp56
 70
     1
102
RTVSPropertyOp57
 70
     1
102
RTVSPropertyOp58
 70
     1
102
RTVSPropertyOp59
 70
     1
102
RTVSPropertyOp60
 70
     1
102
RTVSPropertyOp61
 70
     1
102
RTVSPropertyOp62
 70
     1
  0
XRECORD
  5
8489
102
{ACAD_REACTORS
330
8488
102
}
330
8488
100
AcDbXrecord
280
     1
102
RTVSPost2010Prop28
280
     0
102
RTVSPost2010PropOp28
 70
     1
102
RTVSPost2010Prop29
280
     1
102
RTVSPost2010PropOp29
 70
     1
102
RTVSPost2010Prop30
280
     1
102
RTVSPost2010PropOp30
 70
     1
102
RTVSPost2010Prop31
280
     0
102
RTVSPost2010PropOp31
 70
     1
102
RTVSPost2010Prop32
280
     0
102
RTVSPost2010PropOp32
 70
     1
102
RTVSPost2010Prop33
280
     0
102
RTVSPost2010PropOp33
 70
     1
102
RTVSPost2010Prop34
280
     0
102
RTVSPost2010PropOp34
 70
     1
102
RTVSPost2010Prop35
280
     0
102
RTVSPost2010PropOp35
 70
     1
102
RTVSPost2010Prop36
280
     0
102
RTVSPost2010PropOp36
 70
     1
102
RTVSPost2010Prop37
 90
       50
102
RTVSPost2010PropOp37
 70
     1
102
RTVSPost2010Prop38
140
0.0
102
RTVSPost2010PropOp38
 70
     1
102
RTVSPost2010Prop39
140
1.0
102
RTVSPost2010PropOp39
 70
     1
102
RTVSPost2010Prop40
 90
        0
102
RTVSPost2010PropOp40
 70
     1
102
RTVSPost2010Prop41ColorIndex
 90
       18
102
RTVSPost2010Prop41ColorRGB
 90
        0
102
RTVSPost2010PropOp41
 70
     1
102
RTVSPost2010Prop42
 90
       50
102
RTVSPost2010PropOp42
 70
     1
102
RTVSPost2010Prop43
 90
        3
102
RTVSPost2010PropOp43
 70
     1
102
RTVSPost2010Prop44ColorIndex
 90
        5
102
RTVSPost2010Prop44ColorRGB
 90
      255
102
RTVSPost2010PropOp44
 70
     1
102
RTVSPost2010Prop45
280
     0
102
RTVSPost2010PropOp45
 70
     1
102
RTVSPost2010Prop46
 90
       50
102
RTVSPost2010PropOp46
 70
     1
102
RTVSPost2010Prop47
 90
       50
102
RTVSPost2010PropOp47
 70
     1
102
RTVSPost2010Prop48
 90
       50
102
RTVSPost2010PropOp48
 70
     1
102
RTVSPost2010Prop49
280
     0
102
RTVSPost2010PropOp49
 70
     1
102
RTVSPost2010Prop50
 90
       50
102
RTVSPost2010PropOp50
 70
     1
102
RTVSPost2010Prop51ColorIndex
 90
      256
102
RTVSPost2010Prop51ColorRGB
 90
-16777216
102
RTVSPost2010PropOp51
 70
     0
102
RTVSPost2010Prop52
140
1.0
102
RTVSPost2010PropOp52
 70
     0
102
RTVSPost2010Prop53
 90
        2
102
RTVSPost2010PropOp53
 70
     1
102
RTVSPost2010Prop54
  1
strokes_ogs.tif
102
RTVSPost2010PropOp54
 70
     1
102
RTVSPost2010Prop55
280
     0
102
RTVSPost2010PropOp55
 70
     1
102
RTVSPost2010Prop56
140
1.0
102
RTVSPost2010PropOp56
 70
     1
102
RTVSPost2010Prop57
140
1.0
102
RTVSPost2010PropOp57
 70
     1
102
RTVSPropertyOp0
 70
     1
102
RTVSPropertyOp1
 70
     1
102
RTVSPropertyOp2
 70
     1
102
RTVSPropertyOp3
 70
     1
102
RTVSPropertyOp4
 70
     1
102
RTVSPropertyOp5
 70
     1
102
RTVSPropertyOp6
 70
     1
102
RTVSPropertyOp7
 70
     1
102
RTVSPropertyOp8
 70
     1
102
RTVSPropertyOp9
 70
     1
102
RTVSPropertyOp10
 70
     1
102
RTVSPropertyOp11
 70
     1
102
RTVSPropertyOp12
 70
     1
102
RTVSPropertyOp13
 70
     1
102
RTVSPropertyOp14
 70
     1
102
RTVSPropertyOp15
 70
     1
102
RTVSPropertyOp16
 70
     1
102
RTVSPropertyOp17
 70
     1
102
RTVSPropertyOp18
 70
     1
102
RTVSPropertyOp19
 70
     1
102
RTVSPropertyOp20
 70
     1
102
RTVSPropertyOp21
 70
     1
102
RTVSPropertyOp22
 70
     1
102
RTVSPropertyOp23
 70
     1
102
RTVSPropertyOp24
 70
     1
102
RTVSPropertyOp25
 70
     1
102
RTVSPropertyOp26
 70
     1
102
RTVSPropertyOp27
 70
     1
102
RTVSPropertyOp28
 70
     1
102
RTVSPropertyOp29
 70
     1
102
RTVSPropertyOp30
 70
     1
102
RTVSPropertyOp31
 70
     1
102
RTVSPropertyOp32
 70
     1
102
RTVSPropertyOp33
 70
     1
102
RTVSPropertyOp34
 70
     1
102
RTVSPropertyOp35
 70
     1
102
RTVSPropertyOp36
 70
     1
102
RTVSPropertyOp37
 70
     1
102
RTVSPropertyOp38
 70
     1
102
RTVSPropertyOp39
 70
     1
102
RTVSPropertyOp40
 70
     1
102
RTVSPropertyOp41
 70
     1
102
RTVSPropertyOp42
 70
     1
102
RTVSPropertyOp43
 70
     1
102
RTVSPropertyOp44
 70
     1
102
RTVSPropertyOp45
 70
     1
102
RTVSPropertyOp46
 70
     1
102
RTVSPropertyOp47
 70
     1
102
RTVSPropertyOp48
 70
     1
102
RTVSPropertyOp49
 70
     1
102
RTVSPropertyOp50
 70
     1
102
RTVSPropertyOp51
 70
     0
102
RTVSPropertyOp52
 70
     0
102
RTVSPropertyOp53
 70
     1
102
RTVSPropertyOp54
 70
     1
102
RTVSPropertyOp55
 70
     1
102
RTVSPropertyOp56
 70
     1
102
RTVSPropertyOp57
 70
     1
102
RTVSPropertyOp58
 70
     1
102
RTVSPropertyOp59
 70
     1
102
RTVSPropertyOp60
 70
     1
102
RTVSPropertyOp61
 70
     1
102
RTVSPropertyOp62
 70
     1
  0
XRECORD
  5
8487
102
{ACAD_REACTORS
330
8486
102
}
330
8486
100
AcDbXrecord
280
     1
102
RTVSPost2010Prop28
280
     0
102
RTVSPost2010PropOp28
 70
     1
102
RTVSPost2010Prop29
280
     1
102
RTVSPost2010PropOp29
 70
     1
102
RTVSPost2010Prop30
280
     1
102
RTVSPost2010PropOp30
 70
     1
102
RTVSPost2010Prop31
280
     0
102
RTVSPost2010PropOp31
 70
     1
102
RTVSPost2010Prop32
280
     0
102
RTVSPost2010PropOp32
 70
     1
102
RTVSPost2010Prop33
280
     0
102
RTVSPost2010PropOp33
 70
     1
102
RTVSPost2010Prop34
280
     0
102
RTVSPost2010PropOp34
 70
     1
102
RTVSPost2010Prop35
280
     0
102
RTVSPost2010PropOp35
 70
     1
102
RTVSPost2010Prop36
280
     0
102
RTVSPost2010PropOp36
 70
     1
102
RTVSPost2010Prop37
 90
       50
102
RTVSPost2010PropOp37
 70
     1
102
RTVSPost2010Prop38
140
0.0
102
RTVSPost2010PropOp38
 70
     1
102
RTVSPost2010Prop39
140
1.0
102
RTVSPost2010PropOp39
 70
     1
102
RTVSPost2010Prop40
 90
        0
102
RTVSPost2010PropOp40
 70
     1
102
RTVSPost2010Prop41ColorIndex
 90
       18
102
RTVSPost2010Prop41ColorRGB
 90
        0
102
RTVSPost2010PropOp41
 70
     1
102
RTVSPost2010Prop42
 90
       50
102
RTVSPost2010PropOp42
 70
     1
102
RTVSPost2010Prop43
 90
        3
102
RTVSPost2010PropOp43
 70
     1
102
RTVSPost2010Prop44ColorIndex
 90
        5
102
RTVSPost2010Prop44ColorRGB
 90
      255
102
RTVSPost2010PropOp44
 70
     1
102
RTVSPost2010Prop45
280
     0
102
RTVSPost2010PropOp45
 70
     1
102
RTVSPost2010Prop46
 90
       50
102
RTVSPost2010PropOp46
 70
     1
102
RTVSPost2010Prop47
 90
       50
102
RTVSPost2010PropOp47
 70
     1
102
RTVSPost2010Prop48
 90
       50
102
RTVSPost2010PropOp48
 70
     1
102
RTVSPost2010Prop49
280
     0
102
RTVSPost2010PropOp49
 70
     1
102
RTVSPost2010Prop50
 90
       50
102
RTVSPost2010PropOp50
 70
     1
102
RTVSPost2010Prop51ColorIndex
 90
      256
102
RTVSPost2010Prop51ColorRGB
 90
-16777216
102
RTVSPost2010PropOp51
 70
     0
102
RTVSPost2010Prop52
140
1.0
102
RTVSPost2010PropOp52
 70
     0
102
RTVSPost2010Prop53
 90
        2
102
RTVSPost2010PropOp53
 70
     1
102
RTVSPost2010Prop54
  1
strokes_ogs.tif
102
RTVSPost2010PropOp54
 70
     1
102
RTVSPost2010Prop55
280
     0
102
RTVSPost2010PropOp55
 70
     1
102
RTVSPost2010Prop56
140
1.0
102
RTVSPost2010PropOp56
 70
     1
102
RTVSPost2010Prop57
140
1.0
102
RTVSPost2010PropOp57
 70
     1
102
RTVSPropertyOp0
 70
     1
102
RTVSPropertyOp1
 70
     1
102
RTVSPropertyOp2
 70
     1
102
RTVSPropertyOp3
 70
     1
102
RTVSPropertyOp4
 70
     1
102
RTVSPropertyOp5
 70
     1
102
RTVSPropertyOp6
 70
     1
102
RTVSPropertyOp7
 70
     1
102
RTVSPropertyOp8
 70
     1
102
RTVSPropertyOp9
 70
     1
102
RTVSPropertyOp10
 70
     1
102
RTVSPropertyOp11
 70
     1
102
RTVSPropertyOp12
 70
     1
102
RTVSPropertyOp13
 70
     1
102
RTVSPropertyOp14
 70
     1
102
RTVSPropertyOp15
 70
     1
102
RTVSPropertyOp16
 70
     1
102
RTVSPropertyOp17
 70
     1
102
RTVSPropertyOp18
 70
     1
102
RTVSPropertyOp19
 70
     1
102
RTVSPropertyOp20
 70
     1
102
RTVSPropertyOp21
 70
     1
102
RTVSPropertyOp22
 70
     1
102
RTVSPropertyOp23
 70
     1
102
RTVSPropertyOp24
 70
     1
102
RTVSPropertyOp25
 70
     1
102
RTVSPropertyOp26
 70
     1
102
RTVSPropertyOp27
 70
     1
102
RTVSPropertyOp28
 70
     1
102
RTVSPropertyOp29
 70
     1
102
RTVSPropertyOp30
 70
     1
102
RTVSPropertyOp31
 70
     1
102
RTVSPropertyOp32
 70
     1
102
RTVSPropertyOp33
 70
     1
102
RTVSPropertyOp34
 70
     1
102
RTVSPropertyOp35
 70
     1
102
RTVSPropertyOp36
 70
     1
102
RTVSPropertyOp37
 70
     1
102
RTVSPropertyOp38
 70
     1
102
RTVSPropertyOp39
 70
     1
102
RTVSPropertyOp40
 70
     1
102
RTVSPropertyOp41
 70
     1
102
RTVSPropertyOp42
 70
     1
102
RTVSPropertyOp43
 70
     1
102
RTVSPropertyOp44
 70
     1
102
RTVSPropertyOp45
 70
     1
102
RTVSPropertyOp46
 70
     1
102
RTVSPropertyOp47
 70
     1
102
RTVSPropertyOp48
 70
     1
102
RTVSPropertyOp49
 70
     1
102
RTVSPropertyOp50
 70
     1
102
RTVSPropertyOp51
 70
     0
102
RTVSPropertyOp52
 70
     0
102
RTVSPropertyOp53
 70
     1
102
RTVSPropertyOp54
 70
     1
102
RTVSPropertyOp55
 70
     1
102
RTVSPropertyOp56
 70
     1
102
RTVSPropertyOp57
 70
     1
102
RTVSPropertyOp58
 70
     1
102
RTVSPropertyOp59
 70
     1
102
RTVSPropertyOp60
 70
     1
102
RTVSPropertyOp61
 70
     1
102
RTVSPropertyOp62
 70
     1
  0
XRECORD
  5
8481
102
{ACAD_REACTORS
330
8480
102
}
330
8480
100
AcDbXrecord
280
     1
102
RTVSPost2010Prop28
280
     0
102
RTVSPost2010PropOp28
 70
     1
102
RTVSPost2010Prop29
280
     1
102
RTVSPost2010PropOp29
 70
     1
102
RTVSPost2010Prop30
280
     1
102
RTVSPost2010PropOp30
 70
     1
102
RTVSPost2010Prop31
280
     0
102
RTVSPost2010PropOp31
 70
     1
102
RTVSPost2010Prop32
280
     0
102
RTVSPost2010PropOp32
 70
     1
102
RTVSPost2010Prop33
280
     0
102
RTVSPost2010PropOp33
 70
     1
102
RTVSPost2010Prop34
280
     0
102
RTVSPost2010PropOp34
 70
     1
102
RTVSPost2010Prop35
280
     0
102
RTVSPost2010PropOp35
 70
     1
102
RTVSPost2010Prop36
280
     0
102
RTVSPost2010PropOp36
 70
     1
102
RTVSPost2010Prop37
 90
       50
102
RTVSPost2010PropOp37
 70
     1
102
RTVSPost2010Prop38
140
0.0
102
RTVSPost2010PropOp38
 70
     1
102
RTVSPost2010Prop39
140
1.0
102
RTVSPost2010PropOp39
 70
     1
102
RTVSPost2010Prop40
 90
        0
102
RTVSPost2010PropOp40
 70
     1
102
RTVSPost2010Prop41ColorIndex
 90
       18
102
RTVSPost2010Prop41ColorRGB
 90
        0
102
RTVSPost2010PropOp41
 70
     1
102
RTVSPost2010Prop42
 90
       50
102
RTVSPost2010PropOp42
 70
     1
102
RTVSPost2010Prop43
 90
        3
102
RTVSPost2010PropOp43
 70
     1
102
RTVSPost2010Prop44ColorIndex
 90
        5
102
RTVSPost2010Prop44ColorRGB
 90
      255
102
RTVSPost2010PropOp44
 70
     1
102
RTVSPost2010Prop45
280
     0
102
RTVSPost2010PropOp45
 70
     1
102
RTVSPost2010Prop46
 90
       50
102
RTVSPost2010PropOp46
 70
     1
102
RTVSPost2010Prop47
 90
       50
102
RTVSPost2010PropOp47
 70
     1
102
RTVSPost2010Prop48
 90
       50
102
RTVSPost2010PropOp48
 70
     1
102
RTVSPost2010Prop49
280
     0
102
RTVSPost2010PropOp49
 70
     1
102
RTVSPost2010Prop50
 90
       50
102
RTVSPost2010PropOp50
 70
     1
102
RTVSPost2010Prop51ColorIndex
 90
      256
102
RTVSPost2010Prop51ColorRGB
 90
-16777216
102
RTVSPost2010PropOp51
 70
     0
102
RTVSPost2010Prop52
140
1.0
102
RTVSPost2010PropOp52
 70
     0
102
RTVSPost2010Prop53
 90
        2
102
RTVSPost2010PropOp53
 70
     1
102
RTVSPost2010Prop54
  1
strokes_ogs.tif
102
RTVSPost2010PropOp54
 70
     1
102
RTVSPost2010Prop55
280
     0
102
RTVSPost2010PropOp55
 70
     1
102
RTVSPost2010Prop56
140
1.0
102
RTVSPost2010PropOp56
 70
     1
102
RTVSPost2010Prop57
140
1.0
102
RTVSPost2010PropOp57
 70
     1
102
RTVSPropertyOp0
 70
     1
102
RTVSPropertyOp1
 70
     1
102
RTVSPropertyOp2
 70
     1
102
RTVSPropertyOp3
 70
     1
102
RTVSPropertyOp4
 70
     1
102
RTVSPropertyOp5
 70
     1
102
RTVSPropertyOp6
 70
     1
102
RTVSPropertyOp7
 70
     1
102
RTVSPropertyOp8
 70
     1
102
RTVSPropertyOp9
 70
     1
102
RTVSPropertyOp10
 70
     1
102
RTVSPropertyOp11
 70
     1
102
RTVSPropertyOp12
 70
     1
102
RTVSPropertyOp13
 70
     1
102
RTVSPropertyOp14
 70
     1
102
RTVSPropertyOp15
 70
     1
102
RTVSPropertyOp16
 70
     1
102
RTVSPropertyOp17
 70
     1
102
RTVSPropertyOp18
 70
     1
102
RTVSPropertyOp19
 70
     1
102
RTVSPropertyOp20
 70
     1
102
RTVSPropertyOp21
 70
     1
102
RTVSPropertyOp22
 70
     1
102
RTVSPropertyOp23
 70
     1
102
RTVSPropertyOp24
 70
     1
102
RTVSPropertyOp25
 70
     1
102
RTVSPropertyOp26
 70
     1
102
RTVSPropertyOp27
 70
     1
102
RTVSPropertyOp28
 70
     1
102
RTVSPropertyOp29
 70
     1
102
RTVSPropertyOp30
 70
     1
102
RTVSPropertyOp31
 70
     1
102
RTVSPropertyOp32
 70
     1
102
RTVSPropertyOp33
 70
     1
102
RTVSPropertyOp34
 70
     1
102
RTVSPropertyOp35
 70
     1
102
RTVSPropertyOp36
 70
     1
102
RTVSPropertyOp37
 70
     1
102
RTVSPropertyOp38
 70
     1
102
RTVSPropertyOp39
 70
     1
102
RTVSPropertyOp40
 70
     1
102
RTVSPropertyOp41
 70
     1
102
RTVSPropertyOp42
 70
     1
102
RTVSPropertyOp43
 70
     1
102
RTVSPropertyOp44
 70
     1
102
RTVSPropertyOp45
 70
     1
102
RTVSPropertyOp46
 70
     1
102
RTVSPropertyOp47
 70
     1
102
RTVSPropertyOp48
 70
     1
102
RTVSPropertyOp49
 70
     1
102
RTVSPropertyOp50
 70
     1
102
RTVSPropertyOp51
 70
     0
102
RTVSPropertyOp52
 70
     0
102
RTVSPropertyOp53
 70
     1
102
RTVSPropertyOp54
 70
     1
102
RTVSPropertyOp55
 70
     1
102
RTVSPropertyOp56
 70
     1
102
RTVSPropertyOp57
 70
     1
102
RTVSPropertyOp58
 70
     1
102
RTVSPropertyOp59
 70
     1
102
RTVSPropertyOp60
 70
     1
102
RTVSPropertyOp61
 70
     1
102
RTVSPropertyOp62
 70
     1
  0
XRECORD
  5
8483
102
{ACAD_REACTORS
330
8482
102
}
330
8482
100
AcDbXrecord
280
     1
102
RTVSPost2010Prop28
280
     0
102
RTVSPost2010PropOp28
 70
     1
102
RTVSPost2010Prop29
280
     1
102
RTVSPost2010PropOp29
 70
     1
102
RTVSPost2010Prop30
280
     1
102
RTVSPost2010PropOp30
 70
     1
102
RTVSPost2010Prop31
280
     0
102
RTVSPost2010PropOp31
 70
     1
102
RTVSPost2010Prop32
280
     0
102
RTVSPost2010PropOp32
 70
     1
102
RTVSPost2010Prop33
280
     0
102
RTVSPost2010PropOp33
 70
     1
102
RTVSPost2010Prop34
280
     0
102
RTVSPost2010PropOp34
 70
     1
102
RTVSPost2010Prop35
280
     0
102
RTVSPost2010PropOp35
 70
     1
102
RTVSPost2010Prop36
280
     0
102
RTVSPost2010PropOp36
 70
     1
102
RTVSPost2010Prop37
 90
       50
102
RTVSPost2010PropOp37
 70
     1
102
RTVSPost2010Prop38
140
0.0
102
RTVSPost2010PropOp38
 70
     1
102
RTVSPost2010Prop39
140
1.0
102
RTVSPost2010PropOp39
 70
     1
102
RTVSPost2010Prop40
 90
        0
102
RTVSPost2010PropOp40
 70
     1
102
RTVSPost2010Prop41ColorIndex
 90
       18
102
RTVSPost2010Prop41ColorRGB
 90
        0
102
RTVSPost2010PropOp41
 70
     1
102
RTVSPost2010Prop42
 90
       50
102
RTVSPost2010PropOp42
 70
     1
102
RTVSPost2010Prop43
 90
        3
102
RTVSPost2010PropOp43
 70
     1
102
RTVSPost2010Prop44ColorIndex
 90
        5
102
RTVSPost2010Prop44ColorRGB
 90
      255
102
RTVSPost2010PropOp44
 70
     1
102
RTVSPost2010Prop45
280
     0
102
RTVSPost2010PropOp45
 70
     1
102
RTVSPost2010Prop46
 90
       50
102
RTVSPost2010PropOp46
 70
     1
102
RTVSPost2010Prop47
 90
       50
102
RTVSPost2010PropOp47
 70
     1
102
RTVSPost2010Prop48
 90
       50
102
RTVSPost2010PropOp48
 70
     1
102
RTVSPost2010Prop49
280
     0
102
RTVSPost2010PropOp49
 70
     1
102
RTVSPost2010Prop50
 90
       50
102
RTVSPost2010PropOp50
 70
     1
102
RTVSPost2010Prop51ColorIndex
 90
      256
102
RTVSPost2010Prop51ColorRGB
 90
-16777216
102
RTVSPost2010PropOp51
 70
     0
102
RTVSPost2010Prop52
140
1.0
102
RTVSPost2010PropOp52
 70
     0
102
RTVSPost2010Prop53
 90
        2
102
RTVSPost2010PropOp53
 70
     1
102
RTVSPost2010Prop54
  1
strokes_ogs.tif
102
RTVSPost2010PropOp54
 70
     1
102
RTVSPost2010Prop55
280
     0
102
RTVSPost2010PropOp55
 70
     1
102
RTVSPost2010Prop56
140
1.0
102
RTVSPost2010PropOp56
 70
     1
102
RTVSPost2010Prop57
140
1.0
102
RTVSPost2010PropOp57
 70
     1
102
RTVSPropertyOp0
 70
     1
102
RTVSPropertyOp1
 70
     1
102
RTVSPropertyOp2
 70
     1
102
RTVSPropertyOp3
 70
     1
102
RTVSPropertyOp4
 70
     1
102
RTVSPropertyOp5
 70
     1
102
RTVSPropertyOp6
 70
     1
102
RTVSPropertyOp7
 70
     1
102
RTVSPropertyOp8
 70
     1
102
RTVSPropertyOp9
 70
     1
102
RTVSPropertyOp10
 70
     1
102
RTVSPropertyOp11
 70
     1
102
RTVSPropertyOp12
 70
     1
102
RTVSPropertyOp13
 70
     1
102
RTVSPropertyOp14
 70
     1
102
RTVSPropertyOp15
 70
     1
102
RTVSPropertyOp16
 70
     1
102
RTVSPropertyOp17
 70
     1
102
RTVSPropertyOp18
 70
     1
102
RTVSPropertyOp19
 70
     1
102
RTVSPropertyOp20
 70
     1
102
RTVSPropertyOp21
 70
     1
102
RTVSPropertyOp22
 70
     1
102
RTVSPropertyOp23
 70
     1
102
RTVSPropertyOp24
 70
     1
102
RTVSPropertyOp25
 70
     1
102
RTVSPropertyOp26
 70
     1
102
RTVSPropertyOp27
 70
     1
102
RTVSPropertyOp28
 70
     1
102
RTVSPropertyOp29
 70
     1
102
RTVSPropertyOp30
 70
     1
102
RTVSPropertyOp31
 70
     1
102
RTVSPropertyOp32
 70
     1
102
RTVSPropertyOp33
 70
     1
102
RTVSPropertyOp34
 70
     1
102
RTVSPropertyOp35
 70
     1
102
RTVSPropertyOp36
 70
     1
102
RTVSPropertyOp37
 70
     1
102
RTVSPropertyOp38
 70
     1
102
RTVSPropertyOp39
 70
     1
102
RTVSPropertyOp40
 70
     1
102
RTVSPropertyOp41
 70
     1
102
RTVSPropertyOp42
 70
     1
102
RTVSPropertyOp43
 70
     1
102
RTVSPropertyOp44
 70
     1
102
RTVSPropertyOp45
 70
     1
102
RTVSPropertyOp46
 70
     1
102
RTVSPropertyOp47
 70
     1
102
RTVSPropertyOp48
 70
     1
102
RTVSPropertyOp49
 70
     1
102
RTVSPropertyOp50
 70
     1
102
RTVSPropertyOp51
 70
     0
102
RTVSPropertyOp52
 70
     0
102
RTVSPropertyOp53
 70
     1
102
RTVSPropertyOp54
 70
     1
102
RTVSPropertyOp55
 70
     1
102
RTVSPropertyOp56
 70
     1
102
RTVSPropertyOp57
 70
     1
102
RTVSPropertyOp58
 70
     1
102
RTVSPropertyOp59
 70
     1
102
RTVSPropertyOp60
 70
     1
102
RTVSPropertyOp61
 70
     1
102
RTVSPropertyOp62
 70
     1
  0
XRECORD
  5
8479
102
{ACAD_REACTORS
330
8478
102
}
330
8478
100
AcDbXrecord
280
     1
102
RTVSPost2010Prop28
280
     0
102
RTVSPost2010PropOp28
 70
     1
102
RTVSPost2010Prop29
280
     1
102
RTVSPost2010PropOp29
 70
     1
102
RTVSPost2010Prop30
280
     1
102
RTVSPost2010PropOp30
 70
     1
102
RTVSPost2010Prop31
280
     0
102
RTVSPost2010PropOp31
 70
     1
102
RTVSPost2010Prop32
280
     0
102
RTVSPost2010PropOp32
 70
     1
102
RTVSPost2010Prop33
280
     0
102
RTVSPost2010PropOp33
 70
     1
102
RTVSPost2010Prop34
280
     0
102
RTVSPost2010PropOp34
 70
     1
102
RTVSPost2010Prop35
280
     0
102
RTVSPost2010PropOp35
 70
     1
102
RTVSPost2010Prop36
280
     0
102
RTVSPost2010PropOp36
 70
     1
102
RTVSPost2010Prop37
 90
       50
102
RTVSPost2010PropOp37
 70
     1
102
RTVSPost2010Prop38
140
0.0
102
RTVSPost2010PropOp38
 70
     1
102
RTVSPost2010Prop39
140
1.0
102
RTVSPost2010PropOp39
 70
     1
102
RTVSPost2010Prop40
 90
        0
102
RTVSPost2010PropOp40
 70
     1
102
RTVSPost2010Prop41ColorIndex
 90
       18
102
RTVSPost2010Prop41ColorRGB
 90
        0
102
RTVSPost2010PropOp41
 70
     1
102
RTVSPost2010Prop42
 90
       50
102
RTVSPost2010PropOp42
 70
     1
102
RTVSPost2010Prop43
 90
        3
102
RTVSPost2010PropOp43
 70
     1
102
RTVSPost2010Prop44ColorIndex
 90
        5
102
RTVSPost2010Prop44ColorRGB
 90
      255
102
RTVSPost2010PropOp44
 70
     1
102
RTVSPost2010Prop45
280
     0
102
RTVSPost2010PropOp45
 70
     1
102
RTVSPost2010Prop46
 90
       50
102
RTVSPost2010PropOp46
 70
     1
102
RTVSPost2010Prop47
 90
       50
102
RTVSPost2010PropOp47
 70
     1
102
RTVSPost2010Prop48
 90
       50
102
RTVSPost2010PropOp48
 70
     1
102
RTVSPost2010Prop49
280
     0
102
RTVSPost2010PropOp49
 70
     1
102
RTVSPost2010Prop50
 90
       50
102
RTVSPost2010PropOp50
 70
     1
102
RTVSPost2010Prop51ColorIndex
 90
      256
102
RTVSPost2010Prop51ColorRGB
 90
-16777216
102
RTVSPost2010PropOp51
 70
     0
102
RTVSPost2010Prop52
140
1.0
102
RTVSPost2010PropOp52
 70
     0
102
RTVSPost2010Prop53
 90
        2
102
RTVSPost2010PropOp53
 70
     1
102
RTVSPost2010Prop54
  1
strokes_ogs.tif
102
RTVSPost2010PropOp54
 70
     1
102
RTVSPost2010Prop55
280
     0
102
RTVSPost2010PropOp55
 70
     1
102
RTVSPost2010Prop56
140
1.0
102
RTVSPost2010PropOp56
 70
     1
102
RTVSPost2010Prop57
140
1.0
102
RTVSPost2010PropOp57
 70
     1
102
RTVSPropertyOp0
 70
     1
102
RTVSPropertyOp1
 70
     1
102
RTVSPropertyOp2
 70
     1
102
RTVSPropertyOp3
 70
     1
102
RTVSPropertyOp4
 70
     1
102
RTVSPropertyOp5
 70
     1
102
RTVSPropertyOp6
 70
     1
102
RTVSPropertyOp7
 70
     1
102
RTVSPropertyOp8
 70
     1
102
RTVSPropertyOp9
 70
     1
102
RTVSPropertyOp10
 70
     1
102
RTVSPropertyOp11
 70
     1
102
RTVSPropertyOp12
 70
     1
102
RTVSPropertyOp13
 70
     1
102
RTVSPropertyOp14
 70
     1
102
RTVSPropertyOp15
 70
     1
102
RTVSPropertyOp16
 70
     1
102
RTVSPropertyOp17
 70
     1
102
RTVSPropertyOp18
 70
     1
102
RTVSPropertyOp19
 70
     1
102
RTVSPropertyOp20
 70
     1
102
RTVSPropertyOp21
 70
     1
102
RTVSPropertyOp22
 70
     1
102
RTVSPropertyOp23
 70
     1
102
RTVSPropertyOp24
 70
     1
102
RTVSPropertyOp25
 70
     1
102
RTVSPropertyOp26
 70
     1
102
RTVSPropertyOp27
 70
     1
102
RTVSPropertyOp28
 70
     1
102
RTVSPropertyOp29
 70
     1
102
RTVSPropertyOp30
 70
     1
102
RTVSPropertyOp31
 70
     1
102
RTVSPropertyOp32
 70
     1
102
RTVSPropertyOp33
 70
     1
102
RTVSPropertyOp34
 70
     1
102
RTVSPropertyOp35
 70
     1
102
RTVSPropertyOp36
 70
     1
102
RTVSPropertyOp37
 70
     1
102
RTVSPropertyOp38
 70
     1
102
RTVSPropertyOp39
 70
     1
102
RTVSPropertyOp40
 70
     1
102
RTVSPropertyOp41
 70
     1
102
RTVSPropertyOp42
 70
     1
102
RTVSPropertyOp43
 70
     1
102
RTVSPropertyOp44
 70
     1
102
RTVSPropertyOp45
 70
     1
102
RTVSPropertyOp46
 70
     1
102
RTVSPropertyOp47
 70
     1
102
RTVSPropertyOp48
 70
     1
102
RTVSPropertyOp49
 70
     1
102
RTVSPropertyOp50
 70
     1
102
RTVSPropertyOp51
 70
     0
102
RTVSPropertyOp52
 70
     0
102
RTVSPropertyOp53
 70
     1
102
RTVSPropertyOp54
 70
     1
102
RTVSPropertyOp55
 70
     1
102
RTVSPropertyOp56
 70
     1
102
RTVSPropertyOp57
 70
     1
102
RTVSPropertyOp58
 70
     1
102
RTVSPropertyOp59
 70
     1
102
RTVSPropertyOp60
 70
     1
102
RTVSPropertyOp61
 70
     1
102
RTVSPropertyOp62
 70
     1
  0
XRECORD
  5
846D
102
{ACAD_REACTORS
330
846C
102
}
330
846C
100
AcDbXrecord
280
     1
102
RTVSPost2010Prop28
280
     0
102
RTVSPost2010PropOp28
 70
     1
102
RTVSPost2010Prop29
280
     1
102
RTVSPost2010PropOp29
 70
     1
102
RTVSPost2010Prop30
280
     1
102
RTVSPost2010PropOp30
 70
     1
102
RTVSPost2010Prop31
280
     0
102
RTVSPost2010PropOp31
 70
     1
102
RTVSPost2010Prop32
280
     0
102
RTVSPost2010PropOp32
 70
     1
102
RTVSPost2010Prop33
280
     0
102
RTVSPost2010PropOp33
 70
     1
102
RTVSPost2010Prop34
280
     0
102
RTVSPost2010PropOp34
 70
     1
102
RTVSPost2010Prop35
280
     0
102
RTVSPost2010PropOp35
 70
     1
102
RTVSPost2010Prop36
280
     0
102
RTVSPost2010PropOp36
 70
     1
102
RTVSPost2010Prop37
 90
       50
102
RTVSPost2010PropOp37
 70
     1
102
RTVSPost2010Prop38
140
0.0
102
RTVSPost2010PropOp38
 70
     1
102
RTVSPost2010Prop39
140
1.0
102
RTVSPost2010PropOp39
 70
     1
102
RTVSPost2010Prop40
 90
        0
102
RTVSPost2010PropOp40
 70
     1
102
RTVSPost2010Prop41ColorIndex
 90
       18
102
RTVSPost2010Prop41ColorRGB
 90
        0
102
RTVSPost2010PropOp41
 70
     1
102
RTVSPost2010Prop42
 90
       50
102
RTVSPost2010PropOp42
 70
     1
102
RTVSPost2010Prop43
 90
        3
102
RTVSPost2010PropOp43
 70
     1
102
RTVSPost2010Prop44ColorIndex
 90
        5
102
RTVSPost2010Prop44ColorRGB
 90
      255
102
RTVSPost2010PropOp44
 70
     1
102
RTVSPost2010Prop45
280
     0
102
RTVSPost2010PropOp45
 70
     1
102
RTVSPost2010Prop46
 90
       50
102
RTVSPost2010PropOp46
 70
     1
102
RTVSPost2010Prop47
 90
       50
102
RTVSPost2010PropOp47
 70
     1
102
RTVSPost2010Prop48
 90
       50
102
RTVSPost2010PropOp48
 70
     1
102
RTVSPost2010Prop49
280
     0
102
RTVSPost2010PropOp49
 70
     1
102
RTVSPost2010Prop50
 90
       50
102
RTVSPost2010PropOp50
 70
     1
102
RTVSPost2010Prop51ColorIndex
 90
      256
102
RTVSPost2010Prop51ColorRGB
 90
-16777216
102
RTVSPost2010PropOp51
 70
     0
102
RTVSPost2010Prop52
140
1.0
102
RTVSPost2010PropOp52
 70
     0
102
RTVSPost2010Prop53
 90
        2
102
RTVSPost2010PropOp53
 70
     1
102
RTVSPost2010Prop54
  1
strokes_ogs.tif
102
RTVSPost2010PropOp54
 70
     1
102
RTVSPost2010Prop55
280
     0
102
RTVSPost2010PropOp55
 70
     1
102
RTVSPost2010Prop56
140
1.0
102
RTVSPost2010PropOp56
 70
     1
102
RTVSPost2010Prop57
140
1.0
102
RTVSPost2010PropOp57
 70
     1
102
RTVSPropertyOp0
 70
     1
102
RTVSPropertyOp1
 70
     1
102
RTVSPropertyOp2
 70
     1
102
RTVSPropertyOp3
 70
     1
102
RTVSPropertyOp4
 70
     1
102
RTVSPropertyOp5
 70
     1
102
RTVSPropertyOp6
 70
     1
102
RTVSPropertyOp7
 70
     1
102
RTVSPropertyOp8
 70
     1
102
RTVSPropertyOp9
 70
     1
102
RTVSPropertyOp10
 70
     1
102
RTVSPropertyOp11
 70
     1
102
RTVSPropertyOp12
 70
     1
102
RTVSPropertyOp13
 70
     1
102
RTVSPropertyOp14
 70
     1
102
RTVSPropertyOp15
 70
     1
102
RTVSPropertyOp16
 70
     1
102
RTVSPropertyOp17
 70
     1
102
RTVSPropertyOp18
 70
     1
102
RTVSPropertyOp19
 70
     1
102
RTVSPropertyOp20
 70
     1
102
RTVSPropertyOp21
 70
     1
102
RTVSPropertyOp22
 70
     1
102
RTVSPropertyOp23
 70
     1
102
RTVSPropertyOp24
 70
     1
102
RTVSPropertyOp25
 70
     1
102
RTVSPropertyOp26
 70
     1
102
RTVSPropertyOp27
 70
     1
102
RTVSPropertyOp28
 70
     1
102
RTVSPropertyOp29
 70
     1
102
RTVSPropertyOp30
 70
     1
102
RTVSPropertyOp31
 70
     1
102
RTVSPropertyOp32
 70
     1
102
RTVSPropertyOp33
 70
     1
102
RTVSPropertyOp34
 70
     1
102
RTVSPropertyOp35
 70
     1
102
RTVSPropertyOp36
 70
     1
102
RTVSPropertyOp37
 70
     1
102
RTVSPropertyOp38
 70
     1
102
RTVSPropertyOp39
 70
     1
102
RTVSPropertyOp40
 70
     1
102
RTVSPropertyOp41
 70
     1
102
RTVSPropertyOp42
 70
     1
102
RTVSPropertyOp43
 70
     1
102
RTVSPropertyOp44
 70
     1
102
RTVSPropertyOp45
 70
     1
102
RTVSPropertyOp46
 70
     1
102
RTVSPropertyOp47
 70
     1
102
RTVSPropertyOp48
 70
     1
102
RTVSPropertyOp49
 70
     1
102
RTVSPropertyOp50
 70
     1
102
RTVSPropertyOp51
 70
     0
102
RTVSPropertyOp52
 70
     0
102
RTVSPropertyOp53
 70
     1
102
RTVSPropertyOp54
 70
     1
102
RTVSPropertyOp55
 70
     1
102
RTVSPropertyOp56
 70
     1
102
RTVSPropertyOp57
 70
     1
102
RTVSPropertyOp58
 70
     1
102
RTVSPropertyOp59
 70
     1
102
RTVSPropertyOp60
 70
     1
102
RTVSPropertyOp61
 70
     1
102
RTVSPropertyOp62
 70
     1
  0
XRECORD
  5
8485
102
{ACAD_REACTORS
330
8484
102
}
330
8484
100
AcDbXrecord
280
     1
102
RTVSPost2010Prop28
280
     0
102
RTVSPost2010PropOp28
 70
     1
102
RTVSPost2010Prop29
280
     1
102
RTVSPost2010PropOp29
 70
     1
102
RTVSPost2010Prop30
280
     1
102
RTVSPost2010PropOp30
 70
     1
102
RTVSPost2010Prop31
280
     0
102
RTVSPost2010PropOp31
 70
     1
102
RTVSPost2010Prop32
280
     0
102
RTVSPost2010PropOp32
 70
     1
102
RTVSPost2010Prop33
280
     0
102
RTVSPost2010PropOp33
 70
     1
102
RTVSPost2010Prop34
280
     0
102
RTVSPost2010PropOp34
 70
     1
102
RTVSPost2010Prop35
280
     0
102
RTVSPost2010PropOp35
 70
     1
102
RTVSPost2010Prop36
280
     0
102
RTVSPost2010PropOp36
 70
     1
102
RTVSPost2010Prop37
 90
       50
102
RTVSPost2010PropOp37
 70
     1
102
RTVSPost2010Prop38
140
0.0
102
RTVSPost2010PropOp38
 70
     1
102
RTVSPost2010Prop39
140
1.0
102
RTVSPost2010PropOp39
 70
     1
102
RTVSPost2010Prop40
 90
        0
102
RTVSPost2010PropOp40
 70
     1
102
RTVSPost2010Prop41ColorIndex
 90
       18
102
RTVSPost2010Prop41ColorRGB
 90
        0
102
RTVSPost2010PropOp41
 70
     1
102
RTVSPost2010Prop42
 90
       50
102
RTVSPost2010PropOp42
 70
     1
102
RTVSPost2010Prop43
 90
        3
102
RTVSPost2010PropOp43
 70
     1
102
RTVSPost2010Prop44ColorIndex
 90
        5
102
RTVSPost2010Prop44ColorRGB
 90
      255
102
RTVSPost2010PropOp44
 70
     1
102
RTVSPost2010Prop45
280
     0
102
RTVSPost2010PropOp45
 70
     1
102
RTVSPost2010Prop46
 90
       50
102
RTVSPost2010PropOp46
 70
     1
102
RTVSPost2010Prop47
 90
       50
102
RTVSPost2010PropOp47
 70
     1
102
RTVSPost2010Prop48
 90
       50
102
RTVSPost2010PropOp48
 70
     1
102
RTVSPost2010Prop49
280
     0
102
RTVSPost2010PropOp49
 70
     1
102
RTVSPost2010Prop50
 90
       50
102
RTVSPost2010PropOp50
 70
     1
102
RTVSPost2010Prop51ColorIndex
 90
      256
102
RTVSPost2010Prop51ColorRGB
 90
-16777216
102
RTVSPost2010PropOp51
 70
     0
102
RTVSPost2010Prop52
140
1.0
102
RTVSPost2010PropOp52
 70
     0
102
RTVSPost2010Prop53
 90
        2
102
RTVSPost2010PropOp53
 70
     1
102
RTVSPost2010Prop54
  1
strokes_ogs.tif
102
RTVSPost2010PropOp54
 70
     1
102
RTVSPost2010Prop55
280
     0
102
RTVSPost2010PropOp55
 70
     1
102
RTVSPost2010Prop56
140
1.0
102
RTVSPost2010PropOp56
 70
     1
102
RTVSPost2010Prop57
140
1.0
102
RTVSPost2010PropOp57
 70
     1
102
RTVSPropertyOp0
 70
     1
102
RTVSPropertyOp1
 70
     1
102
RTVSPropertyOp2
 70
     1
102
RTVSPropertyOp3
 70
     1
102
RTVSPropertyOp4
 70
     1
102
RTVSPropertyOp5
 70
     1
102
RTVSPropertyOp6
 70
     1
102
RTVSPropertyOp7
 70
     1
102
RTVSPropertyOp8
 70
     1
102
RTVSPropertyOp9
 70
     1
102
RTVSPropertyOp10
 70
     1
102
RTVSPropertyOp11
 70
     1
102
RTVSPropertyOp12
 70
     1
102
RTVSPropertyOp13
 70
     1
102
RTVSPropertyOp14
 70
     1
102
RTVSPropertyOp15
 70
     1
102
RTVSPropertyOp16
 70
     1
102
RTVSPropertyOp17
 70
     1
102
RTVSPropertyOp18
 70
     1
102
RTVSPropertyOp19
 70
     1
102
RTVSPropertyOp20
 70
     1
102
RTVSPropertyOp21
 70
     1
102
RTVSPropertyOp22
 70
     1
102
RTVSPropertyOp23
 70
     1
102
RTVSPropertyOp24
 70
     1
102
RTVSPropertyOp25
 70
     1
102
RTVSPropertyOp26
 70
     1
102
RTVSPropertyOp27
 70
     1
102
RTVSPropertyOp28
 70
     1
102
RTVSPropertyOp29
 70
     1
102
RTVSPropertyOp30
 70
     1
102
RTVSPropertyOp31
 70
     1
102
RTVSPropertyOp32
 70
     1
102
RTVSPropertyOp33
 70
     1
102
RTVSPropertyOp34
 70
     1
102
RTVSPropertyOp35
 70
     1
102
RTVSPropertyOp36
 70
     1
102
RTVSPropertyOp37
 70
     1
102
RTVSPropertyOp38
 70
     1
102
RTVSPropertyOp39
 70
     1
102
RTVSPropertyOp40
 70
     1
102
RTVSPropertyOp41
 70
     1
102
RTVSPropertyOp42
 70
     1
102
RTVSPropertyOp43
 70
     1
102
RTVSPropertyOp44
 70
     1
102
RTVSPropertyOp45
 70
     1
102
RTVSPropertyOp46
 70
     1
102
RTVSPropertyOp47
 70
     1
102
RTVSPropertyOp48
 70
     1
102
RTVSPropertyOp49
 70
     1
102
RTVSPropertyOp50
 70
     1
102
RTVSPropertyOp51
 70
     0
102
RTVSPropertyOp52
 70
     0
102
RTVSPropertyOp53
 70
     1
102
RTVSPropertyOp54
 70
     1
102
RTVSPropertyOp55
 70
     1
102
RTVSPropertyOp56
 70
     1
102
RTVSPropertyOp57
 70
     1
102
RTVSPropertyOp58
 70
     1
102
RTVSPropertyOp59
 70
     1
102
RTVSPropertyOp60
 70
     1
102
RTVSPropertyOp61
 70
     1
102
RTVSPropertyOp62
 70
     1
  0
ENDSEC
  0
EOF
