  0
SECTION
  2
HEADER
  9
$ACADVER
  1
AC1015
  9
$ACADMAINTVER
 70
    20
  9
$DWGCODEPAGE
  3
ANSI_932
  9
$INSBASE
 10
0.0
 20
0.0
 30
0.0
  9
$EXTMIN
 10
-0.1281640493871237
 20
-0.1800399741405272
 30
-0.0015258207003583
  9
$EXTMAX
 10
4200.128183607161
 20
5900.180067448153
 30
0.0000000349246037
  9
$LIMMIN
 10
0.0
 20
0.0
  9
$LIMMAX
 10
297.0
 20
210.0
  9
$ORTHOMODE
 70
     1
  9
$REGENMODE
 70
     1
  9
$FILLMODE
 70
     0
  9
$QTEXTMODE
 70
     0
  9
$MIRRTEXT
 70
     1
  9
$LTSCALE
 40
100.0
  9
$ATTMODE
 70
     1
  9
$TEXTSIZE
 40
180.0
  9
$TRACEWID
 40
0.05
  9
$TEXTSTYLE
  7
STANDARD
  9
$CLAYER
  8
3
  9
$CELTYPE
  6
ByLayer
  9
$CECOLOR
 62
   256
  9
$CELTSCALE
 40
1.0
  9
$DISPSILH
 70
     0
  9
$DIMSCALE
 40
20.0
  9
$DIMASZ
 40
2.0
  9
$DIMEXO
 40
1.0
  9
$DIMDLI
 40
10.0
  9
$DIMRND
 40
0.0
  9
$DIMDLE
 40
0.0
  9
$DIMEXE
 40
1.0
  9
$DIMTP
 40
1.0
  9
$DIMTM
 40
1.0
  9
$DIMTXT
 40
3.0
  9
$DIMCEN
 40
0.0
  9
$DIMTSZ
 40
0.0
  9
$DIMTOL
 70
     0
  9
$DIMLIM
 70
     0
  9
$DIMTIH
 70
     0
  9
$DIMTOH
 70
     0
  9
$DIMSE1
 70
     0
  9
$DIMSE2
 70
     0
  9
$DIMTAD
 70
     1
  9
$DIMZIN
 70
     8
  9
$DIMBLK
  1

  9
$DIMASO
 70
     1
  9
$DIMSHO
 70
     1
  9
$DIMPOST
  1

  9
$DIMAPOST
  1

  9
$DIMALT
 70
     0
  9
$DIMALTD
 70
     2
  9
$DIMALTF
 40
0.039
  9
$DIMLFAC
 40
1.0
  9
$DIMTOFL
 70
     1
  9
$DIMTVP
 40
0.0
  9
$DIMTIX
 70
     0
  9
$DIMSOXD
 70
     0
  9
$DIMSAH
 70
     1
  9
$DIMBLK1
  1
OPEN
  9
$DIMBLK2
  1
OPEN
  9
$DIMSTYLE
  2
IGA
  9
$DIMCLRD
 70
     0
  9
$DIMCLRE
 70
     0
  9
$DIMCLRT
 70
     0
  9
$DIMTFAC
 40
10.0
  9
$DIMGAP
 40
1.0
  9
$DIMJUST
 70
     0
  9
$DIMSD1
 70
     0
  9
$DIMSD2
 70
     0
  9
$DIMTOLJ
 70
     1
  9
$DIMTZIN
 70
     0
  9
$DIMALTZ
 70
     0
  9
$DIMALTTZ
 70
     0
  9
$DIMUPT
 70
     0
  9
$DIMDEC
 70
     4
  9
$DIMTDEC
 70
     4
  9
$DIMALTU
 70
     2
  9
$DIMALTTD
 70
     2
  9
$DIMTXSTY
  7
STANDARD
  9
$DIMAUNIT
 70
     0
  9
$DIMADEC
 70
     0
  9
$DIMALTRND
 40
0.0
  9
$DIMAZIN
 70
     0
  9
$DIMDSEP
 70
    46
  9
$DIMATFIT
 70
     3
  9
$DIMFRAC
 70
     0
  9
$DIMLDRBLK
  1
OPEN
  9
$DIMLUNIT
 70
     2
  9
$DIMLWD
 70
    -2
  9
$DIMLWE
 70
    -2
  9
$DIMTMOVE
 70
     0
  9
$LUNITS
 70
     2
  9
$LUPREC
 70
     3
  9
$SKETCHINC
 40
0.1
  9
$FILLETRAD
 40
50.0
  9
$AUNITS
 70
     0
  9
$AUPREC
 70
     0
  9
$MENU
  1
acad
  9
$ELEVATION
 40
0.0
  9
$PELEVATION
 40
0.0
  9
$THICKNESS
 40
0.0
  9
$LIMCHECK
 70
     0
  9
$CHAMFERA
 40
0.5
  9
$CHAMFERB
 40
0.5
  9
$CHAMFERC
 40
0.0
  9
$CHAMFERD
 40
0.0
  9
$SKPOLY
 70
     0
  9
$TDCREATE
 40
2451387.570972685
  9
$TDUCREATE
 40
2451387.195972685
  9
$TDUPDATE
 40
2460262.667442836
  9
$TDUUPDATE
 40
2460262.292442836
  9
$TDINDWG
 40
0.0148966204
  9
$TDUSRTIMER
 40
0.0148964005
  9
$USRTIMER
 70
     1
  9
$ANGBASE
 50
0.0
  9
$ANGDIR
 70
     0
  9
$PDMODE
 70
     0
  9
$PDSIZE
 40
0.0
  9
$PLINEWID
 40
0.0
  9
$SPLFRAME
 70
     0
  9
$SPLINETYPE
 70
     6
  9
$SPLINESEGS
 70
     8
  9
$HANDSEED
  5
8472
  9
$SURFTAB1
 70
     6
  9
$SURFTAB2
 70
     6
  9
$SURFTYPE
 70
     6
  9
$SURFU
 70
     6
  9
$SURFV
 70
     6
  9
$UCSBASE
  2

  9
$UCSNAME
  2

  9
$UCSORG
 10
0.0
 20
0.0
 30
0.0
  9
$UCSXDIR
 10
1.0
 20
0.0
 30
0.0
  9
$UCSYDIR
 10
0.0
 20
1.0
 30
0.0
  9
$UCSORTHOREF
  2

  9
$UCSORTHOVIEW
 70
     0
  9
$UCSORGTOP
 10
0.0
 20
0.0
 30
0.0
  9
$UCSORGBOTTOM
 10
0.0
 20
0.0
 30
0.0
  9
$UCSORGLEFT
 10
0.0
 20
0.0
 30
0.0
  9
$UCSORGRIGHT
 10
0.0
 20
0.0
 30
0.0
  9
$UCSORGFRONT
 10
0.0
 20
0.0
 30
0.0
  9
$UCSORGBACK
 10
0.0
 20
0.0
 30
0.0
  9
$PUCSBASE
  2

  9
$PUCSNAME
  2

  9
$PUCSORG
 10
0.0
 20
0.0
 30
0.0
  9
$PUCSXDIR
 10
1.0
 20
0.0
 30
0.0
  9
$PUCSYDIR
 10
0.0
 20
1.0
 30
0.0
  9
$PUCSORTHOREF
  2

  9
$PUCSORTHOVIEW
 70
     0
  9
$PUCSORGTOP
 10
0.0
 20
0.0
 30
0.0
  9
$PUCSORGBOTTOM
 10
0.0
 20
0.0
 30
0.0
  9
$PUCSORGLEFT
 10
0.0
 20
0.0
 30
0.0
  9
$PUCSORGRIGHT
 10
0.0
 20
0.0
 30
0.0
  9
$PUCSORGFRONT
 10
0.0
 20
0.0
 30
0.0
  9
$PUCSORGBACK
 10
0.0
 20
0.0
 30
0.0
  9
$USERI1
 70
     0
  9
$USERI2
 70
     0
  9
$USERI3
 70
     0
  9
$USERI4
 70
     0
  9
$USERI5
 70
     0
  9
$USERR1
 40
0.0
  9
$USERR2
 40
0.0
  9
$USERR3
 40
0.0
  9
$USERR4
 40
0.0
  9
$USERR5
 40
0.0
  9
$WORLDVIEW
 70
     1
  9
$SHADEDGE
 70
     3
  9
$SHADEDIF
 70
    70
  9
$TILEMODE
 70
     1
  9
$MAXACTVP
 70
    16
  9
$PINSBASE
 10
0.0
 20
0.0
 30
0.0
  9
$PLIMCHECK
 70
     0
  9
$PEXTMIN
 10
1.000000000000000E+20
 20
1.000000000000000E+20
 30
1.000000000000000E+20
  9
$PEXTMAX
 10
-1.000000000000000E+20
 20
-1.000000000000000E+20
 30
-1.000000000000000E+20
  9
$PLIMMIN
 10
0.0
 20
0.0
  9
$PLIMMAX
 10
12.0
 20
9.0
  9
$UNITMODE
 70
     0
  9
$VISRETAIN
 70
     0
  9
$PLINEGEN
 70
     0
  9
$PSLTSCALE
 70
     1
  9
$TREEDEPTH
 70
  3020
  9
$CMLSTYLE
  2
Standard
  9
$CMLJUST
 70
     0
  9
$CMLSCALE
 40
1.0
  9
$PROXYGRAPHICS
 70
     1
  9
$MEASUREMENT
 70
     0
  9
$CELWEIGHT
370
    -1
  9
$ENDCAPS
280
     0
  9
$JOINSTYLE
280
     0
  9
$LWDISPLAY
290
     0
  9
$INSUNITS
 70
     0
  9
$HYPERLINKBASE
  1

  9
$STYLESHEET
  1

  9
$XEDIT
290
     1
  9
$CEPSNTYPE
380
     0
  9
$PSTYLEMODE
290
     1
  9
$FINGERPRINTGUID
  2
{BC7582A8-DF2A-48A7-820B-8AD258ACD213}
  9
$VERSIONGUID
  2
{15153328-7D1C-48B9-8F5F-8D51CEDA5D0D}
  9
$EXTNAMES
290
     1
  9
$PSVPSCALE
 40
0.0
  9
$OLESTARTUP
290
     0
  0
ENDSEC
  0
SECTION
  2
CLASSES
  0
CLASS
  1
ACDBDICTIONARYWDFLT
  2
AcDbDictionaryWithDefault
  3
ObjectDBX Classes
 90
        0
280
     0
281
     0
  0
CLASS
  1
MATERIAL
  2
AcDbMaterial
  3
ObjectDBX Classes
 90
     1153
280
     0
281
     0
  0
CLASS
  1
VISUALSTYLE
  2
AcDbVisualStyle
  3
ObjectDBX Classes
 90
     4095
280
     0
281
     0
  0
CLASS
  1
SCALE
  2
AcDbScale
  3
ObjectDBX Classes
 90
     1153
280
     0
281
     0
  0
CLASS
  1
TABLESTYLE
  2
AcDbTableStyle
  3
ObjectDBX Classes
 90
     4095
280
     0
281
     0
  0
CLASS
  1
MLEADERSTYLE
  2
AcDbMLeaderStyle
  3
ACDB_MLEADERSTYLE_CLASS
 90
     4095
280
     0
281
     0
  0
CLASS
  1
ACDBSECTIONVIEWSTYLE
  2
AcDbSectionViewStyle
  3
ObjectDBX Classes
 90
     1025
280
     0
281
     0
  0
CLASS
  1
ACDBDETAILVIEWSTYLE
  2
AcDbDetailViewStyle
  3
ObjectDBX Classes
 90
     1025
280
     0
281
     0
  0
CLASS
  1
DICTIONARYVAR
  2
AcDbDictionaryVar
  3
ObjectDBX Classes
 90
        0
280
     0
281
     0
  0
CLASS
  1
CELLSTYLEMAP
  2
AcDbCellStyleMap
  3
ObjectDBX Classes
 90
     1152
280
     0
281
     0
  0
CLASS
  1
ACDBPLACEHOLDER
  2
AcDbPlaceHolder
  3
ObjectDBX Classes
 90
        0
280
     0
281
     0
  0
CLASS
  1
LAYOUT
  2
AcDbLayout
  3
ObjectDBX Classes
 90
        0
280
     0
281
     0
  0
ENDSEC
  0
SECTION
  2
TABLES
  0
TABLE
  2
VPORT
  5
80D1
330
0
100
AcDbSymbolTable
 70
     1
  0
VPORT
  5
813D
330
80D1
100
AcDbSymbolTableRecord
100
AcDbViewportTableRecord
  2
*ACTIVE
 70
     0
 10
0.0
 20
0.0
 11
1.0
 21
1.0
 12
2100.000009778887
 22
2950.000013737006
 13
0.0
 23
0.0
 14
10.0
 24
10.0
 15
10.0
 25
10.0
 16
0.0
 26
0.0
 36
1.0
 17
0.0
 27
0.0
 37
0.0
 40
5938.142562752639
 41
2.050213675213675
 42
50.0
 43
0.0
 44
0.0
 50
0.0
 51
0.0
 71
     0
 72
   100
 73
     1
 74
     0
 75
     0
 76
     0
 77
     0
 78
     0
281
     0
 65
     1
110
0.0
120
0.0
130
0.0
111
1.0
121
0.0
131
0.0
112
0.0
122
1.0
132
0.0
 79
     0
146
0.0
1001
ACAD_NAV_VCDISPLAY
1070
     3
  0
ENDTAB
  0
TABLE
  2
LTYPE
  5
80CE
330
0
100
AcDbSymbolTable
 70
     4
  0
LTYPE
  5
8123
330
80CE
100
AcDbSymbolTableRecord
100
AcDbLinetypeTableRecord
  2
ByBlock
 70
     0
  3

 72
    65
 73
     0
 40
0.0
  0
LTYPE
  5
8124
330
80CE
100
AcDbSymbolTableRecord
100
AcDbLinetypeTableRecord
  2
ByLayer
 70
     0
  3

 72
    65
 73
     0
 40
0.0
  0
LTYPE
  5
8125
330
80CE
100
AcDbSymbolTableRecord
100
AcDbLinetypeTableRecord
  2
CONTINUOUS
 70
     0
  3
Solid line
 72
    65
 73
     0
 40
0.0
  0
LTYPE
  5
813E
330
80CE
100
AcDbSymbolTableRecord
100
AcDbLinetypeTableRecord
  2
CENTER
 70
     0
  3
____ _ ____ _ ____ _ ____ _ ____ _ ____ _ ____ 
 72
    65
 73
     4
 40
2.0
 49
1.25
 74
     0
 49
-0.25
 74
     0
 49
0.25
 74
     0
 49
-0.25
 74
     0
  0
ENDTAB
  0
TABLE
  2
LAYER
  5
80CB
330
0
100
AcDbSymbolTable
 70
     6
  0
LAYER
  5
811D
102
{ACAD_XDICTIONARY
360
841C
102
}
330
80CB
100
AcDbSymbolTableRecord
100
AcDbLayerTableRecord
  2
0
 70
     0
 62
     7
  6
CONTINUOUS
370
    -3
390
80D8
  0
LAYER
  5
813C
102
{ACAD_XDICTIONARY
360
841E
102
}
330
80CB
100
AcDbSymbolTableRecord
100
AcDbLayerTableRecord
  2
3
 70
     0
 62
     2
  6
CONTINUOUS
370
    -3
390
80D8
  0
LAYER
  5
813F
102
{ACAD_XDICTIONARY
360
8420
102
}
330
80CB
100
AcDbSymbolTableRecord
100
AcDbLayerTableRecord
  2
2
 70
     0
 62
     3
  6
CENTER
370
    -3
390
80D8
  0
LAYER
  5
8140
102
{ACAD_XDICTIONARY
360
8422
102
}
330
80CB
100
AcDbSymbolTableRecord
100
AcDbLayerTableRecord
  2
1
 70
     0
 62
     4
  6
CONTINUOUS
370
    -3
390
80D8
  0
LAYER
  5
8141
102
{ACAD_XDICTIONARY
360
8424
102
}
330
80CB
100
AcDbSymbolTableRecord
100
AcDbLayerTableRecord
  2
4
 70
     0
 62
     7
  6
CONTINUOUS
370
    -3
390
80D8
  0
LAYER
  5
8142
330
80CB
100
AcDbSymbolTableRecord
100
AcDbLayerTableRecord
  2
DEFPOINTS
 70
     0
 62
     7
  6
CONTINUOUS
290
     0
370
    -3
390
80D8
  0
ENDTAB
  0
TABLE
  2
STYLE
  5
80CC
330
0
100
AcDbSymbolTable
 70
     2
  0
STYLE
  5
811E
330
80CC
100
AcDbSymbolTableRecord
100
AcDbTextStyleTableRecord
  2
STANDARD
 70
     0
 40
0.0
 41
1.0
 50
0.0
 71
     0
 42
180.0
  3
simplex.shx
  4
extfont.shx
  0
STYLE
  5
8122
330
80CC
100
AcDbSymbolTableRecord
100
AcDbTextStyleTableRecord
  2
Annotative
 70
     0
 40
0.0
 41
1.0
 50
0.0
 71
     0
 42
0.2
  3
txt
  4

1001
AcadAnnotative
1000
AnnotativeData
1002
{
1070
     1
1070
     1
1002
}
  0
ENDTAB
  0
TABLE
  2
VIEW
  5
80CF
330
0
100
AcDbSymbolTable
 70
     0
  0
ENDTAB
  0
TABLE
  2
UCS
  5
80D0
330
0
100
AcDbSymbolTable
 70
     0
  0
ENDTAB
  0
TABLE
  2
APPID
  5
80D2
330
0
100
AcDbSymbolTable
 70
     8
  0
APPID
  5
811F
330
80D2
100
AcDbSymbolTableRecord
100
AcDbRegAppTableRecord
  2
ACAD
 70
     0
  0
APPID
  5
8126
330
80D2
100
AcDbSymbolTableRecord
100
AcDbRegAppTableRecord
  2
AcadAnnotative
 70
     0
  0
APPID
  5
8182
330
80D2
100
AcDbSymbolTableRecord
100
AcDbRegAppTableRecord
  2
ACAD_DSTYLE_DIMJAG
 70
     0
  0
APPID
  5
8183
330
80D2
100
AcDbSymbolTableRecord
100
AcDbRegAppTableRecord
  2
ACAD_DSTYLE_DIMTALN
 70
     0
  0
APPID
  5
819E
330
80D2
100
AcDbSymbolTableRecord
100
AcDbRegAppTableRecord
  2
AcadAnnoMonitorAlertIconDisabled
 70
     0
  0
APPID
  5
819F
330
80D2
100
AcDbSymbolTableRecord
100
AcDbRegAppTableRecord
  2
ACAD_EXEMPT_FROM_CAD_STANDARDS
 70
     0
  0
APPID
  5
8430
330
80D2
100
AcDbSymbolTableRecord
100
AcDbRegAppTableRecord
  2
ACAD_NAV_VCDISPLAY
 70
     0
  0
APPID
  5
8469
330
80D2
100
AcDbSymbolTableRecord
100
AcDbRegAppTableRecord
  2
ACAD_MLEADERVER
 70
     0
  0
ENDTAB
  0
TABLE
  2
DIMSTYLE
  5
80D3
330
0
100
AcDbSymbolTable
 70
     5
100
AcDbDimStyleTable
 71
     1
340
8143
  0
DIMSTYLE
105
8120
102
{ACAD_REACTORS
330
7C1D
330
7C1E
330
7C45
330
7C48
330
7C76
330
7C77
330
7C78
330
7C8D
330
7C93
102
}
330
80D3
100
AcDbSymbolTableRecord
100
AcDbDimStyleTableRecord
  2
Standard
 70
     0
340
811E
  0
DIMSTYLE
105
8121
330
80D3
100
AcDbSymbolTableRecord
100
AcDbDimStyleTableRecord
  2
Annotative
 70
     0
340
811E
1001
AcadAnnotative
1000
AnnotativeData
1002
{
1070
     1
1070
     1
1002
}
  0
DIMSTYLE
105
8143
102
{ACAD_REACTORS
330
8184
330
8191
330
8242
330
824F
330
825C
330
8269
330
8276
330
8283
330
8295
330
83BE
330
83E3
330
83F9
330
8406
102
}
330
80D3
100
AcDbSymbolTableRecord
100
AcDbDimStyleTableRecord
  2
IGA
 70
     0
 40
2.0
 41
2.0
 42
0.5
 43
10.0
 44
1.0
 47
1.0
 48
1.0
 73
     0
 74
     0
 77
     1
 78
     8
140
3.0
141
0.0
143
0.03937
146
10.0
147
1.0
173
     1
271
     3
272
     3
279
     2
284
     8
285
     8
286
     8
340
811E
  0
DIMSTYLE
105
8144
330
80D3
100
AcDbSymbolTableRecord
100
AcDbDimStyleTableRecord
  2
MATSU
 70
     0
 41
2.0
 42
1.0
 43
10.0
 44
1.0
 73
     0
 74
     0
 77
     1
 78
     8
140
3.0
141
0.0
143
0.03937
147
0.5
172
     1
173
     1
176
   256
177
   256
178
   256
271
     3
272
     3
279
     2
284
     8
285
     8
286
     8
340
811E
  0
ENDTAB
  0
TABLE
  2
BLOCK_RECORD
  5
80CA
330
0
100
AcDbSymbolTable
 70
    50
  0
BLOCK_RECORD
  5
8138
330
80CA
100
AcDbSymbolTableRecord
100
AcDbBlockTableRecord
  2
*Model_Space
340
813B
  0
BLOCK_RECORD
  5
8134
330
80CA
100
AcDbSymbolTableRecord
100
AcDbBlockTableRecord
  2
*Paper_Space
340
8137
  0
BLOCK_RECORD
  5
8148
330
80CA
100
AcDbSymbolTableRecord
100
AcDbBlockTableRecord
  2
$MODEL_SPACE
340
0
  0
BLOCK_RECORD
  5
814A
330
80CA
100
AcDbSymbolTableRecord
100
AcDbBlockTableRecord
  2
$PAPER_SPACE
340
0
  0
BLOCK_RECORD
  5
814C
330
80CA
100
AcDbSymbolTableRecord
100
AcDbBlockTableRecord
  2
_OPEN
340
0
102
{BLKREFS
331
8249
331
824A
331
8256
331
8257
331
8263
331
8264
331
8270
331
8271
331
7DCE
331
7DCF
331
7DD9
331
7DDA
331
7DE4
331
7DE5
331
7E05
331
7E06
331
7E1B
331
7E1C
331
7E26
331
7E27
331
7E31
331
7E32
331
7E3C
331
7E3D
331
7F4D
331
7F4E
331
8098
331
8099
331
80A0
331
80A1
331
7E7C
331
7E7D
331
80A8
331
80A9
331
81DA
331
81DB
331
81E3
331
81E4
331
80B4
331
80BB
331
80BC
331
7EBF
331
7EC0
331
7FBC
331
7FBD
331
7FC9
331
7FCA
331
7FD6
331
7FD7
331
7FE3
331
7FE4
331
8012
331
8013
331
82D4
331
82D5
331
8364
331
83BA
331
83D7
331
83D8
331
83F3
331
83F4
331
8400
331
8401
331
8416
331
8417
102
}
  0
BLOCK_RECORD
  5
814E
330
80CA
100
AcDbSymbolTableRecord
100
AcDbBlockTableRecord
  2
YA_N
340
0
102
{BLKREFS
331
7BEE
331
7C04
102
}
  0
BLOCK_RECORD
  5
8150
330
80CA
100
AcDbSymbolTableRecord
100
AcDbBlockTableRecord
  2
*D4
340
0
  0
BLOCK_RECORD
  5
8152
330
80CA
100
AcDbSymbolTableRecord
100
AcDbBlockTableRecord
  2
*D5
340
0
  0
BLOCK_RECORD
  5
8154
330
80CA
100
AcDbSymbolTableRecord
100
AcDbBlockTableRecord
  2
*D6
340
0
  0
BLOCK_RECORD
  5
8156
330
80CA
100
AcDbSymbolTableRecord
100
AcDbBlockTableRecord
  2
*D7
340
0
  0
BLOCK_RECORD
  5
8158
330
80CA
100
AcDbSymbolTableRecord
100
AcDbBlockTableRecord
  2
*D8
340
0
  0
BLOCK_RECORD
  5
815A
330
80CA
100
AcDbSymbolTableRecord
100
AcDbBlockTableRecord
  2
*D9
340
0
  0
BLOCK_RECORD
  5
815C
330
80CA
100
AcDbSymbolTableRecord
100
AcDbBlockTableRecord
  2
*D10
340
0
  0
BLOCK_RECORD
  5
815E
330
80CA
100
AcDbSymbolTableRecord
100
AcDbBlockTableRecord
  2
*D11
340
0
  0
BLOCK_RECORD
  5
8160
330
80CA
100
AcDbSymbolTableRecord
100
AcDbBlockTableRecord
  2
*D12
340
0
  0
BLOCK_RECORD
  5
8162
330
80CA
100
AcDbSymbolTableRecord
100
AcDbBlockTableRecord
  2
*D13
340
0
  0
BLOCK_RECORD
  5
8164
330
80CA
100
AcDbSymbolTableRecord
100
AcDbBlockTableRecord
  2
*D14
340
0
  0
BLOCK_RECORD
  5
8166
330
80CA
100
AcDbSymbolTableRecord
100
AcDbBlockTableRecord
  2
*D15
340
0
  0
BLOCK_RECORD
  5
8168
330
80CA
100
AcDbSymbolTableRecord
100
AcDbBlockTableRecord
  2
*D16
340
0
  0
BLOCK_RECORD
  5
816A
330
80CA
100
AcDbSymbolTableRecord
100
AcDbBlockTableRecord
  2
*D17
340
0
  0
BLOCK_RECORD
  5
816C
330
80CA
100
AcDbSymbolTableRecord
100
AcDbBlockTableRecord
  2
_DOT
340
0
102
{BLKREFS
331
80B3
102
}
  0
BLOCK_RECORD
  5
816D
330
80CA
100
AcDbSymbolTableRecord
100
AcDbBlockTableRecord
  2
*D19
340
0
  0
BLOCK_RECORD
  5
816F
330
80CA
100
AcDbSymbolTableRecord
100
AcDbBlockTableRecord
  2
*D20
340
0
  0
BLOCK_RECORD
  5
8172
330
80CA
100
AcDbSymbolTableRecord
100
AcDbBlockTableRecord
  2
_NONE
340
0
  0
BLOCK_RECORD
  5
8174
330
80CA
100
AcDbSymbolTableRecord
100
AcDbBlockTableRecord
  2
*D22
340
0
  0
BLOCK_RECORD
  5
8176
330
80CA
100
AcDbSymbolTableRecord
100
AcDbBlockTableRecord
  2
*D23
340
0
  0
BLOCK_RECORD
  5
8178
330
80CA
100
AcDbSymbolTableRecord
100
AcDbBlockTableRecord
  2
*D24
340
0
  0
BLOCK_RECORD
  5
817A
330
80CA
100
AcDbSymbolTableRecord
100
AcDbBlockTableRecord
  2
*D25
340
0
  0
BLOCK_RECORD
  5
817C
330
80CA
100
AcDbSymbolTableRecord
100
AcDbBlockTableRecord
  2
*D26
340
0
  0
BLOCK_RECORD
  5
817E
330
80CA
100
AcDbSymbolTableRecord
100
AcDbBlockTableRecord
  2
*D27
340
0
  0
BLOCK_RECORD
  5
8185
330
80CA
100
AcDbSymbolTableRecord
100
AcDbBlockTableRecord
  2
*D28
340
0
  0
BLOCK_RECORD
  5
8192
330
80CA
100
AcDbSymbolTableRecord
100
AcDbBlockTableRecord
  2
*D29
340
0
  0
BLOCK_RECORD
  5
81E9
330
80CA
100
AcDbSymbolTableRecord
100
AcDbBlockTableRecord
  2
*D30
340
0
  0
BLOCK_RECORD
  5
81F6
330
80CA
100
AcDbSymbolTableRecord
100
AcDbBlockTableRecord
  2
*D31
340
0
  0
BLOCK_RECORD
  5
8203
330
80CA
100
AcDbSymbolTableRecord
100
AcDbBlockTableRecord
  2
*D32
340
0
  0
BLOCK_RECORD
  5
8210
330
80CA
100
AcDbSymbolTableRecord
100
AcDbBlockTableRecord
  2
*D33
340
0
  0
BLOCK_RECORD
  5
821D
330
80CA
100
AcDbSymbolTableRecord
100
AcDbBlockTableRecord
  2
*D34
340
0
  0
BLOCK_RECORD
  5
8228
330
80CA
100
AcDbSymbolTableRecord
100
AcDbBlockTableRecord
  2
*D35
340
0
  0
BLOCK_RECORD
  5
8235
330
80CA
100
AcDbSymbolTableRecord
100
AcDbBlockTableRecord
  2
*D36
340
0
  0
BLOCK_RECORD
  5
8243
330
80CA
100
AcDbSymbolTableRecord
100
AcDbBlockTableRecord
  2
*D37
340
0
  0
BLOCK_RECORD
  5
8250
330
80CA
100
AcDbSymbolTableRecord
100
AcDbBlockTableRecord
  2
*D38
340
0
  0
BLOCK_RECORD
  5
825D
330
80CA
100
AcDbSymbolTableRecord
100
AcDbBlockTableRecord
  2
*D39
340
0
  0
BLOCK_RECORD
  5
826A
330
80CA
100
AcDbSymbolTableRecord
100
AcDbBlockTableRecord
  2
*D40
340
0
  0
BLOCK_RECORD
  5
8277
330
80CA
100
AcDbSymbolTableRecord
100
AcDbBlockTableRecord
  2
*D41
340
0
  0
BLOCK_RECORD
  5
8284
330
80CA
100
AcDbSymbolTableRecord
100
AcDbBlockTableRecord
  2
*D42
340
0
  0
BLOCK_RECORD
  5
8296
330
80CA
100
AcDbSymbolTableRecord
100
AcDbBlockTableRecord
  2
*D43
340
0
  0
BLOCK_RECORD
  5
835C
330
80CA
100
AcDbSymbolTableRecord
100
AcDbBlockTableRecord
  2
_DotSmall
340
0
102
{BLKREFS
331
8365
331
83B9
102
}
  0
BLOCK_RECORD
  5
83BF
330
80CA
100
AcDbSymbolTableRecord
100
AcDbBlockTableRecord
  2
*D45
340
0
  0
BLOCK_RECORD
  5
83E4
330
80CA
100
AcDbSymbolTableRecord
100
AcDbBlockTableRecord
  2
*D47
340
0
  0
BLOCK_RECORD
  5
83FA
330
80CA
100
AcDbSymbolTableRecord
100
AcDbBlockTableRecord
  2
*D48
340
0
  0
BLOCK_RECORD
  5
8407
330
80CA
100
AcDbSymbolTableRecord
100
AcDbBlockTableRecord
  2
*D49
340
0
  0
ENDTAB
  0
ENDSEC
  0
SECTION
  2
BLOCKS
  0
BLOCK
  5
8139
330
8138
100
AcDbEntity
  8
0
100
AcDbBlockBegin
  2
*Model_Space
 70
     0
 10
0.0
 20
0.0
 30
0.0
  3
*Model_Space
  1

  0
ENDBLK
  5
813A
330
8138
100
AcDbEntity
  8
0
100
AcDbBlockEnd
  0
BLOCK
  5
8135
330
8134
100
AcDbEntity
 67
     1
  8
0
100
AcDbBlockBegin
  2
*Paper_Space
 70
     0
 10
0.0
 20
0.0
 30
0.0
  3
*Paper_Space
  1

  0
ENDBLK
  5
8136
330
8134
100
AcDbEntity
 67
     1
  8
0
100
AcDbBlockEnd
  0
BLOCK
  5
8149
330
8148
100
AcDbEntity
  8
0
100
AcDbBlockBegin
  2
$MODEL_SPACE
 70
     0
 10
0.0
 20
0.0
 30
0.0
  3
$MODEL_SPACE
  1

  0
ENDBLK
  5
1B
330
8148
100
AcDbEntity
  8
0
100
AcDbBlockEnd
  0
BLOCK
  5
814B
330
814A
100
AcDbEntity
  8
0
100
AcDbBlockBegin
  2
$PAPER_SPACE
 70
     0
 10
0.0
 20
0.0
 30
0.0
  3
$PAPER_SPACE
  1

  0
ENDBLK
  5
18
330
814A
100
AcDbEntity
  8
0
100
AcDbBlockEnd
  0
BLOCK
  5
814D
330
814C
100
AcDbEntity
  8
0
100
AcDbBlockBegin
  2
_OPEN
 70
     0
 10
0.0
 20
0.0
 30
0.0
  3
_OPEN
  1

  0
LINE
  5
79FD
330
814C
100
AcDbEntity
  8
0
  6
ByBlock
 62
     0
100
AcDbLine
 10
-1.0
 20
0.1666666666666666
 30
0.0
 11
0.0
 21
0.0
 31
0.0
  0
LINE
  5
79FE
330
814C
100
AcDbEntity
  8
0
  6
ByBlock
 62
     0
100
AcDbLine
 10
0.0
 20
0.0
 30
0.0
 11
-1.0
 21
-0.1666666666666666
 31
0.0
  0
LINE
  5
79FF
330
814C
100
AcDbEntity
  8
0
  6
ByBlock
 62
     0
100
AcDbLine
 10
0.0
 20
0.0
 30
0.0
 11
-1.0
 21
0.0
 31
0.0
  0
ENDBLK
  5
7A01
330
814C
100
AcDbEntity
  8
0
100
AcDbBlockEnd
  0
BLOCK
  5
814F
330
814E
100
AcDbEntity
  8
0
100
AcDbBlockBegin
  2
YA_N
 70
     0
 10
0.0
 20
0.0
 30
0.0
  3
YA_N
  1

  0
ENDBLK
  5
7A0C
330
814E
100
AcDbEntity
  8
0
100
AcDbBlockEnd
  0
BLOCK
  5
8151
330
8150
100
AcDbEntity
  8
0
100
AcDbBlockBegin
  2
*D4
 70
     1
 10
0.0
 20
0.0
 30
0.0
  3
*D4
  1

  0
LINE
  5
7DCB
330
8150
100
AcDbEntity
  8
0
  6
ByBlock
100
AcDbLine
 10
1032.921266531543
 20
1048.09762645012
 30
0.0
 11
1032.921266531543
 21
1198.05544836713
 31
0.0
  0
LINE
  5
7DCC
330
8150
100
AcDbEntity
  8
0
  6
ByBlock
100
AcDbLine
 10
382.9212665315434
 20
1048.09762645012
 30
0.0
 11
382.9212665315434
 21
1198.05544836713
 31
0.0
  0
LINE
  5
7DCD
330
8150
100
AcDbEntity
  8
0
  6
ByBlock
100
AcDbLine
 10
992.9212665315436
 20
1178.05544836713
 30
0.0
 11
422.9212665315434
 21
1178.05544836713
 31
0.0
  0
INSERT
  5
7DCE
330
8150
100
AcDbEntity
  8
0
  6
ByBlock
100
AcDbBlockReference
  2
_OPEN
 10
1032.921266531543
 20
1178.05544836713
 30
0.0
 41
40.0
 42
40.0
 43
40.0
  0
INSERT
  5
7DCF
330
8150
100
AcDbEntity
  8
0
  6
ByBlock
100
AcDbBlockReference
  2
_OPEN
 10
382.9212665315434
 20
1178.05544836713
 30
0.0
 41
40.0
 42
40.0
 43
40.0
 50
180.0
  0
TEXT
  5
7DD0
330
8150
100
AcDbEntity
  8
3
100
AcDbText
 10
630.7784093886863
 20
1188.05544836713
 30
0.0
 40
60.0
  1
650
100
AcDbText
  0
POINT
  5
7DD1
330
8150
100
AcDbEntity
  8
DEFPOINTS
  6
ByBlock
 62
     0
100
AcDbPoint
 10
1032.921266531543
 20
1028.09762645012
 30
0.0
  0
POINT
  5
7DD2
330
8150
100
AcDbEntity
  8
DEFPOINTS
  6
ByBlock
 62
     0
100
AcDbPoint
 10
382.9212665315434
 20
1028.09762645012
 30
0.0
  0
POINT
  5
7DD3
330
8150
100
AcDbEntity
  8
DEFPOINTS
  6
ByBlock
 62
     0
100
AcDbPoint
 10
382.9212665315434
 20
1178.05544836713
 30
0.0
  0
ENDBLK
  5
7DD4
330
8150
100
AcDbEntity
  8
0
100
AcDbBlockEnd
  0
BLOCK
  5
8153
330
8152
100
AcDbEntity
  8
0
100
AcDbBlockBegin
  2
*D5
 70
     1
 10
0.0
 20
0.0
 30
0.0
  3
*D5
  1

  0
LINE
  5
7DD6
330
8152
100
AcDbEntity
  8
0
  6
ByBlock
100
AcDbLine
 10
1032.921266531543
 20
1048.09762645012
 30
0.0
 11
1032.921266531543
 21
1347.599292570813
 31
0.0
  0
LINE
  5
7DD7
330
8152
100
AcDbEntity
  8
0
  6
ByBlock
100
AcDbLine
 10
354.9212665315435
 20
1094.990599553116
 30
0.0
 11
354.9212665315435
 21
1347.599292570813
 31
0.0
  0
LINE
  5
7DD8
330
8152
100
AcDbEntity
  8
0
  6
ByBlock
100
AcDbLine
 10
992.9212665315436
 20
1327.599292570813
 30
0.0
 11
394.9212665315434
 21
1327.599292570813
 31
0.0
  0
INSERT
  5
7DD9
330
8152
100
AcDbEntity
  8
0
  6
ByBlock
100
AcDbBlockReference
  2
_OPEN
 10
1032.921266531543
 20
1327.599292570813
 30
0.0
 41
40.0
 42
40.0
 43
40.0
  0
INSERT
  5
7DDA
330
8152
100
AcDbEntity
  8
0
  6
ByBlock
100
AcDbBlockReference
  2
_OPEN
 10
354.9212665315435
 20
1327.599292570813
 30
0.0
 41
40.0
 42
40.0
 43
40.0
 50
180.0
  0
TEXT
  5
7DDB
330
8152
100
AcDbEntity
  8
3
100
AcDbText
 10
616.7784093886863
 20
1337.599292570813
 30
0.0
 40
60.0
  1
678
100
AcDbText
  0
POINT
  5
7DDC
330
8152
100
AcDbEntity
  8
DEFPOINTS
  6
ByBlock
 62
     0
100
AcDbPoint
 10
1032.921266531543
 20
1028.09762645012
 30
0.0
  0
POINT
  5
7DDD
330
8152
100
AcDbEntity
  8
DEFPOINTS
  6
ByBlock
 62
     0
100
AcDbPoint
 10
354.9212665315435
 20
1074.990599553116
 30
0.0
  0
POINT
  5
7DDE
330
8152
100
AcDbEntity
  8
DEFPOINTS
  6
ByBlock
 62
     0
100
AcDbPoint
 10
354.9212665315435
 20
1327.599292570813
 30
0.0
  0
ENDBLK
  5
7DDF
330
8152
100
AcDbEntity
  8
0
100
AcDbBlockEnd
  0
BLOCK
  5
8155
330
8154
100
AcDbEntity
  8
0
100
AcDbBlockBegin
  2
*D6
 70
     1
 10
0.0
 20
0.0
 30
0.0
  3
*D6
  1

  0
LINE
  5
7DE1
330
8154
100
AcDbEntity
  8
0
  6
ByBlock
100
AcDbLine
 10
2992.796193483283
 20
903.0976264501203
 30
0.0
 11
3240.833227053947
 21
903.0976264501203
 31
0.0
  0
LINE
  5
7DE2
330
8154
100
AcDbEntity
  8
0
  6
ByBlock
100
AcDbLine
 10
2992.796193483283
 20
233.0976264501205
 30
0.0
 11
3240.833227053947
 21
233.0976264501205
 31
0.0
  0
LINE
  5
7DE3
330
8154
100
AcDbEntity
  8
0
  6
ByBlock
100
AcDbLine
 10
3220.833227053946
 20
863.0976264501205
 30
0.0
 11
3220.833227053946
 21
273.0976264501205
 31
0.0
  0
INSERT
  5
7DE4
330
8154
100
AcDbEntity
  8
0
  6
ByBlock
100
AcDbBlockReference
  2
_OPEN
 10
3220.833227053946
 20
903.0976264501203
 30
0.0
 41
40.0
 42
40.0
 43
40.0
 50
90.0
  0
INSERT
  5
7DE5
330
8154
100
AcDbEntity
  8
0
  6
ByBlock
100
AcDbBlockReference
  2
_OPEN
 10
3220.833227053946
 20
233.0976264501205
 30
0.0
 41
40.0
 42
40.0
 43
40.0
 50
270.0
  0
TEXT
  5
7DE6
330
8154
100
AcDbEntity
  8
3
100
AcDbText
 10
3210.833227053947
 20
460.9547693072634
 30
0.0
 40
60.0
  1
\U+03C6670
 50
90.0
100
AcDbText
  0
POINT
  5
7DE7
330
8154
100
AcDbEntity
  8
DEFPOINTS
  6
ByBlock
 62
     0
100
AcDbPoint
 10
2972.796193483283
 20
903.0976264501203
 30
0.0
  0
POINT
  5
7DE8
330
8154
100
AcDbEntity
  8
DEFPOINTS
  6
ByBlock
 62
     0
100
AcDbPoint
 10
2972.796193483283
 20
233.0976264501205
 30
0.0
  0
POINT
  5
7DE9
330
8154
100
AcDbEntity
  8
DEFPOINTS
  6
ByBlock
 62
     0
100
AcDbPoint
 10
3220.833227053946
 20
233.0976264501205
 30
0.0
  0
ENDBLK
  5
7DEA
330
8154
100
AcDbEntity
  8
0
100
AcDbBlockEnd
  0
BLOCK
  5
8157
330
8156
100
AcDbEntity
  8
0
100
AcDbBlockBegin
  2
*D7
 70
     1
 10
0.0
 20
0.0
 30
0.0
  3
*D7
  1

  0
LINE
  5
7E02
330
8156
100
AcDbEntity
  8
0
  6
ByBlock
100
AcDbLine
 10
2167.296193483282
 20
1048.09762645012
 30
0.0
 11
2167.296193483282
 21
1155.287611360303
 31
0.0
  0
LINE
  5
7E03
330
8156
100
AcDbEntity
  8
0
  6
ByBlock
100
AcDbLine
 10
2967.296193483282
 20
1048.09762645012
 30
0.0
 11
2967.296193483282
 21
1155.287611360303
 31
0.0
  0
LINE
  5
7E04
330
8156
100
AcDbEntity
  8
0
  6
ByBlock
100
AcDbLine
 10
2207.296193483281
 20
1135.287611360302
 30
0.0
 11
2927.296193483282
 21
1135.287611360302
 31
0.0
  0
INSERT
  5
7E05
330
8156
100
AcDbEntity
  8
0
  6
ByBlock
100
AcDbBlockReference
  2
_OPEN
 10
2167.296193483282
 20
1135.287611360302
 30
0.0
 41
40.0
 42
40.0
 43
40.0
 50
180.0
  0
INSERT
  5
7E06
330
8156
100
AcDbEntity
  8
0
  6
ByBlock
100
AcDbBlockReference
  2
_OPEN
 10
2967.296193483282
 20
1135.287611360302
 30
0.0
 41
40.0
 42
40.0
 43
40.0
  0
TEXT
  5
7E07
330
8156
100
AcDbEntity
  8
3
100
AcDbText
 10
2490.153336340425
 20
1145.287611360302
 30
0.0
 40
60.0
  1
800
100
AcDbText
  0
POINT
  5
7E08
330
8156
100
AcDbEntity
  8
DEFPOINTS
  6
ByBlock
 62
     0
100
AcDbPoint
 10
2167.296193483282
 20
1028.09762645012
 30
0.0
  0
POINT
  5
7E09
330
8156
100
AcDbEntity
  8
DEFPOINTS
  6
ByBlock
 62
     0
100
AcDbPoint
 10
2967.296193483282
 20
1028.09762645012
 30
0.0
  0
POINT
  5
7E0A
330
8156
100
AcDbEntity
  8
DEFPOINTS
  6
ByBlock
 62
     0
100
AcDbPoint
 10
2967.296193483282
 20
1135.287611360302
 30
0.0
  0
ENDBLK
  5
7E0B
330
8156
100
AcDbEntity
  8
0
100
AcDbBlockEnd
  0
BLOCK
  5
8159
330
8158
100
AcDbEntity
  8
0
100
AcDbBlockBegin
  2
*D8
 70
     1
 10
0.0
 20
0.0
 30
0.0
  3
*D8
  1

  0
LINE
  5
7E18
330
8158
100
AcDbEntity
  8
0
  6
ByBlock
100
AcDbLine
 10
1404.921266531543
 20
2138.414968530632
 30
0.0
 11
1404.921266531543
 21
1863.01337041143
 31
0.0
  0
LINE
  5
7E19
330
8158
100
AcDbEntity
  8
0
  6
ByBlock
100
AcDbLine
 10
-45.07873346845644
 20
2138.414968530633
 30
0.0
 11
-45.07873346845644
 21
1863.01337041143
 31
0.0
  0
LINE
  5
7E1A
330
8158
100
AcDbEntity
  8
0
  6
ByBlock
100
AcDbLine
 10
1364.921266531543
 20
1883.01337041143
 30
0.0
 11
-5.078733468456447
 21
1883.01337041143
 31
0.0
  0
INSERT
  5
7E1B
330
8158
100
AcDbEntity
  8
0
  6
ByBlock
100
AcDbBlockReference
  2
_OPEN
 10
1404.921266531543
 20
1883.01337041143
 30
0.0
 41
40.0
 42
40.0
 43
40.0
  0
INSERT
  5
7E1C
330
8158
100
AcDbEntity
  8
0
  6
ByBlock
100
AcDbBlockReference
  2
_OPEN
 10
-45.07873346845644
 20
1883.01337041143
 30
0.0
 41
40.0
 42
40.0
 43
40.0
 50
180.0
  0
TEXT
  5
7E1D
330
8158
100
AcDbEntity
  8
3
100
AcDbText
 10
579.9212665315436
 20
1893.01337041143
 30
0.0
 40
60.0
  1
1450
100
AcDbText
  0
POINT
  5
7E1E
330
8158
100
AcDbEntity
  8
DEFPOINTS
  6
ByBlock
 62
     0
100
AcDbPoint
 10
1404.921266531543
 20
2158.414968530632
 30
0.0
  0
POINT
  5
7E1F
330
8158
100
AcDbEntity
  8
DEFPOINTS
  6
ByBlock
 62
     0
100
AcDbPoint
 10
-45.07873346845644
 20
2158.414968530633
 30
0.0
  0
POINT
  5
7E20
330
8158
100
AcDbEntity
  8
DEFPOINTS
  6
ByBlock
 62
     0
100
AcDbPoint
 10
-45.07873346845644
 20
1883.01337041143
 30
0.0
  0
ENDBLK
  5
7E21
330
8158
100
AcDbEntity
  8
0
100
AcDbBlockEnd
  0
BLOCK
  5
815B
330
815A
100
AcDbEntity
  8
0
100
AcDbBlockBegin
  2
*D9
 70
     1
 10
0.0
 20
0.0
 30
0.0
  3
*D9
  1

  0
LINE
  5
7E23
330
815A
100
AcDbEntity
  8
0
  6
ByBlock
100
AcDbLine
 10
-65.07873346845645
 20
2158.414968530633
 30
0.0
 11
-273.8707044670645
 21
2158.414968530633
 31
0.0
  0
LINE
  5
7E24
330
815A
100
AcDbEntity
  8
0
  6
ByBlock
100
AcDbLine
 10
-65.0787334684569
 20
3164.414968530635
 30
0.0
 11
-273.8707044670645
 21
3164.414968530635
 31
0.0
  0
LINE
  5
7E25
330
815A
100
AcDbEntity
  8
0
  6
ByBlock
100
AcDbLine
 10
-253.8707044670645
 20
2198.414968530633
 30
0.0
 11
-253.8707044670645
 21
3124.414968530635
 31
0.0
  0
INSERT
  5
7E26
330
815A
100
AcDbEntity
  8
0
  6
ByBlock
100
AcDbBlockReference
  2
_OPEN
 10
-253.8707044670645
 20
2158.414968530633
 30
0.0
 41
40.0
 42
40.0
 43
40.0
 50
270.0
  0
INSERT
  5
7E27
330
815A
100
AcDbEntity
  8
0
  6
ByBlock
100
AcDbBlockReference
  2
_OPEN
 10
-253.8707044670645
 20
3164.414968530635
 30
0.0
 41
40.0
 42
40.0
 43
40.0
 50
90.0
  0
TEXT
  5
7E28
330
815A
100
AcDbEntity
  8
3
100
AcDbText
 10
-263.8707044670645
 20
2562.843539959205
 30
0.0
 40
60.0
  1
1006
 50
90.0
100
AcDbText
  0
POINT
  5
7E29
330
815A
100
AcDbEntity
  8
DEFPOINTS
  6
ByBlock
 62
     0
100
AcDbPoint
 10
-45.07873346845644
 20
2158.414968530633
 30
0.0
  0
POINT
  5
7E2A
330
815A
100
AcDbEntity
  8
DEFPOINTS
  6
ByBlock
 62
     0
100
AcDbPoint
 10
-45.07873346845689
 20
3164.414968530635
 30
0.0
  0
POINT
  5
7E2B
330
815A
100
AcDbEntity
  8
DEFPOINTS
  6
ByBlock
 62
     0
100
AcDbPoint
 10
-253.8707044670645
 20
3164.414968530635
 30
0.0
  0
ENDBLK
  5
7E2C
330
815A
100
AcDbEntity
  8
0
100
AcDbBlockEnd
  0
BLOCK
  5
815D
330
815C
100
AcDbEntity
  8
0
100
AcDbBlockBegin
  2
*D10
 70
     1
 10
0.0
 20
0.0
 30
0.0
  3
*D10
  1

  0
LINE
  5
7E2E
330
815C
100
AcDbEntity
  8
0
  6
ByBlock
100
AcDbLine
 10
754.9212665315434
 20
3184.414968530634
 30
0.0
 11
754.9212665315434
 21
3333.020259029039
 31
0.0
  0
LINE
  5
7E2F
330
815C
100
AcDbEntity
  8
0
  6
ByBlock
100
AcDbLine
 10
-45.07873346845689
 20
3184.414968530635
 30
0.0
 11
-45.07873346845689
 21
3333.020259029039
 31
0.0
  0
LINE
  5
7E30
330
815C
100
AcDbEntity
  8
0
  6
ByBlock
100
AcDbLine
 10
714.9212665315435
 20
3313.020259029039
 30
0.0
 11
-5.078733468456903
 21
3313.020259029039
 31
0.0
  0
INSERT
  5
7E31
330
815C
100
AcDbEntity
  8
0
  6
ByBlock
100
AcDbBlockReference
  2
_OPEN
 10
754.9212665315434
 20
3313.020259029039
 30
0.0
 41
40.0
 42
40.0
 43
40.0
  0
INSERT
  5
7E32
330
815C
100
AcDbEntity
  8
0
  6
ByBlock
100
AcDbBlockReference
  2
_OPEN
 10
-45.07873346845689
 20
3313.020259029039
 30
0.0
 41
40.0
 42
40.0
 43
40.0
 50
180.0
  0
TEXT
  5
7E33
330
815C
100
AcDbEntity
  8
3
100
AcDbText
 10
277.7784093886861
 20
3323.020259029039
 30
0.0
 40
60.0
  1
800
100
AcDbText
  0
POINT
  5
7E34
330
815C
100
AcDbEntity
  8
DEFPOINTS
  6
ByBlock
 62
     0
100
AcDbPoint
 10
754.9212665315434
 20
3164.414968530634
 30
0.0
  0
POINT
  5
7E35
330
815C
100
AcDbEntity
  8
DEFPOINTS
  6
ByBlock
 62
     0
100
AcDbPoint
 10
-45.07873346845689
 20
3164.414968530635
 30
0.0
  0
POINT
  5
7E36
330
815C
100
AcDbEntity
  8
DEFPOINTS
  6
ByBlock
 62
     0
100
AcDbPoint
 10
-45.07873346845689
 20
3313.020259029039
 30
0.0
  0
ENDBLK
  5
7E37
330
815C
100
AcDbEntity
  8
0
100
AcDbBlockEnd
  0
BLOCK
  5
815F
330
815E
100
AcDbEntity
  8
0
100
AcDbBlockBegin
  2
*D11
 70
     1
 10
0.0
 20
0.0
 30
0.0
  3
*D11
  1

  0
LINE
  5
7E39
330
815E
100
AcDbEntity
  8
0
  6
ByBlock
100
AcDbLine
 10
1424.921266531543
 20
2758.414968530632
 30
0.0
 11
1575.348850406824
 21
2758.414968530632
 31
0.0
  0
LINE
  5
7E3A
330
815E
100
AcDbEntity
  8
0
  6
ByBlock
100
AcDbLine
 10
1424.921266531543
 20
2158.414968530632
 30
0.0
 11
1575.348850406824
 21
2158.414968530632
 31
0.0
  0
LINE
  5
7E3B
330
815E
100
AcDbEntity
  8
0
  6
ByBlock
100
AcDbLine
 10
1555.348850406824
 20
2718.414968530632
 30
0.0
 11
1555.348850406824
 21
2198.414968530632
 31
0.0
  0
INSERT
  5
7E3C
330
815E
100
AcDbEntity
  8
0
  6
ByBlock
100
AcDbBlockReference
  2
_OPEN
 10
1555.348850406824
 20
2758.414968530632
 30
0.0
 41
40.0
 42
40.0
 43
40.0
 50
90.0
  0
INSERT
  5
7E3D
330
815E
100
AcDbEntity
  8
0
  6
ByBlock
100
AcDbBlockReference
  2
_OPEN
 10
1555.348850406824
 20
2158.414968530632
 30
0.0
 41
40.0
 42
40.0
 43
40.0
 50
270.0
  0
TEXT
  5
7E3E
330
815E
100
AcDbEntity
  8
3
100
AcDbText
 10
1545.348850406824
 20
2381.272111387775
 30
0.0
 40
60.0
  1
600
 50
90.0
100
AcDbText
  0
POINT
  5
7E3F
330
815E
100
AcDbEntity
  8
DEFPOINTS
  6
ByBlock
 62
     0
100
AcDbPoint
 10
1404.921266531543
 20
2758.414968530632
 30
0.0
  0
POINT
  5
7E40
330
815E
100
AcDbEntity
  8
DEFPOINTS
  6
ByBlock
 62
     0
100
AcDbPoint
 10
1404.921266531543
 20
2158.414968530632
 30
0.0
  0
POINT
  5
7E41
330
815E
100
AcDbEntity
  8
DEFPOINTS
  6
ByBlock
 62
     0
100
AcDbPoint
 10
1555.348850406824
 20
2158.414968530632
 30
0.0
  0
ENDBLK
  5
7E42
330
815E
100
AcDbEntity
  8
0
100
AcDbBlockEnd
  0
BLOCK
  5
8161
330
8160
100
AcDbEntity
  8
0
100
AcDbBlockBegin
  2
*D12
 70
     1
 10
0.0
 20
0.0
 30
0.0
  3
*D12
  1

  0
LINE
  5
7F4A
330
8160
100
AcDbEntity
  8
0
  6
ByBlock
100
AcDbLine
 10
3749.004301064449
 20
2130.116393141435
 30
0.0
 11
3749.004301064449
 21
2904.821239069906
 31
0.0
  0
LINE
  5
7F4B
330
8160
100
AcDbEntity
  8
0
  6
ByBlock
100
AcDbLine
 10
3249.004301064449
 20
2820.735879151343
 30
0.0
 11
3249.004301064449
 21
2904.821239069906
 31
0.0
  0
LINE
  5
7F4C
330
8160
100
AcDbEntity
  8
0
  6
ByBlock
100
AcDbLine
 10
3709.004301064448
 20
2884.821239069906
 30
0.0
 11
3289.004301064448
 21
2884.821239069906
 31
0.0
  0
INSERT
  5
7F4D
330
8160
100
AcDbEntity
  8
0
  6
ByBlock
100
AcDbBlockReference
  2
_OPEN
 10
3749.004301064449
 20
2884.821239069906
 30
0.0
 41
40.0
 42
40.0
 43
40.0
  0
INSERT
  5
7F4E
330
8160
100
AcDbEntity
  8
0
  6
ByBlock
100
AcDbBlockReference
  2
_OPEN
 10
3249.004301064449
 20
2884.821239069906
 30
0.0
 41
40.0
 42
40.0
 43
40.0
 50
180.0
  0
TEXT
  5
7F4F
330
8160
100
AcDbEntity
  8
3
100
AcDbText
 10
3389.004301064448
 20
2920.535524784192
 30
0.0
 40
60.0
  1
(510)
100
AcDbText
  0
POINT
  5
7F50
330
8160
100
AcDbEntity
  8
DEFPOINTS
  6
ByBlock
 62
     0
100
AcDbPoint
 10
3749.004301064449
 20
2110.116393141435
 30
0.0
  0
POINT
  5
7F51
330
8160
100
AcDbEntity
  8
DEFPOINTS
  6
ByBlock
 62
     0
100
AcDbPoint
 10
3249.004301064449
 20
2800.735879151343
 30
0.0
  0
POINT
  5
7F52
330
8160
100
AcDbEntity
  8
DEFPOINTS
  6
ByBlock
 62
     0
100
AcDbPoint
 10
3249.004301064449
 20
2884.821239069906
 30
0.0
  0
ENDBLK
  5
7F53
330
8160
100
AcDbEntity
  8
0
100
AcDbBlockEnd
  0
BLOCK
  5
8163
330
8162
100
AcDbEntity
  8
0
100
AcDbBlockBegin
  2
*D13
 70
     1
 10
0.0
 20
0.0
 30
0.0
  3
*D13
  1

  0
LINE
  5
8096
330
8162
100
AcDbEntity
  8
3
100
AcDbLine
 10
2569.004301064448
 20
2310.116393141436
 30
0.0
 11
2569.004301064448
 21
2904.821239069906
 31
0.0
  0
LINE
  5
8097
330
8162
100
AcDbEntity
  8
3
100
AcDbLine
 10
3209.004301064448
 20
2884.821239069906
 30
0.0
 11
2609.004301064449
 21
2884.821239069906
 31
0.0
  0
INSERT
  5
8098
330
8162
100
AcDbEntity
  8
3
100
AcDbBlockReference
  2
_OPEN
 10
3249.004301064449
 20
2884.821239069906
 30
0.0
 41
40.0
 42
40.0
 43
40.0
  0
INSERT
  5
8099
330
8162
100
AcDbEntity
  8
3
100
AcDbBlockReference
  2
_OPEN
 10
2569.004301064448
 20
2884.821239069906
 30
0.0
 41
40.0
 42
40.0
 43
40.0
 50
180.0
  0
TEXT
  5
80C4
330
8162
100
AcDbEntity
  8
3
100
AcDbText
 10
2789.0
 20
2868.62
 30
0.0
 40
60.0
  1
MAX
100
AcDbText
  0
TEXT
  5
80C5
330
8162
100
AcDbEntity
  8
3
100
AcDbText
 10
2789.0
 20
2790.62
 30
0.0
 40
60.0
  1
710
100
AcDbText
  0
POINT
  5
809B
330
8162
100
AcDbEntity
  8
DEFPOINTS
 62
     0
100
AcDbPoint
 10
3249.004301064449
 20
2800.735879151343
 30
0.0
  0
POINT
  5
809C
330
8162
100
AcDbEntity
  8
DEFPOINTS
 62
     0
100
AcDbPoint
 10
2569.004301064448
 20
2290.116393141436
 30
0.0
  0
POINT
  5
809D
330
8162
100
AcDbEntity
  8
DEFPOINTS
 62
     0
100
AcDbPoint
 10
2569.004301064448
 20
2884.821239069906
 30
0.0
  0
ENDBLK
  5
7F48
330
8162
100
AcDbEntity
  8
0
100
AcDbBlockEnd
  0
BLOCK
  5
8165
330
8164
100
AcDbEntity
  8
0
100
AcDbBlockBegin
  2
*D14
 70
     1
 10
0.0
 20
0.0
 30
0.0
  3
*D14
  1

  0
LINE
  5
809E
330
8164
100
AcDbEntity
  8
3
100
AcDbLine
 10
2350.651254010002
 20
4065.460569308625
 30
0.0
 11
2350.651254010002
 21
4620.065859807033
 31
0.0
  0
LINE
  5
809F
330
8164
100
AcDbEntity
  8
3
100
AcDbLine
 10
1740.651254010002
 20
4600.065859807033
 30
0.0
 11
2310.651254010001
 21
4600.065859807033
 31
0.0
  0
INSERT
  5
80A0
330
8164
100
AcDbEntity
  8
3
100
AcDbBlockReference
  2
_OPEN
 10
1700.651254010002
 20
4600.065859807033
 30
0.0
 41
40.0
 42
40.0
 43
40.0
 50
180.0
  0
INSERT
  5
80A1
330
8164
100
AcDbEntity
  8
3
100
AcDbBlockReference
  2
_OPEN
 10
2350.651254010002
 20
4600.065859807033
 30
0.0
 41
40.0
 42
40.0
 43
40.0
  0
TEXT
  5
80C6
330
8164
100
AcDbEntity
  8
3
100
AcDbText
 10
1905.65
 20
4533.87
 30
0.0
 40
60.0
  1
650
100
AcDbText
  0
POINT
  5
80A3
330
8164
100
AcDbEntity
  8
DEFPOINTS
 62
     0
100
AcDbPoint
 10
1700.651254010002
 20
4451.460569308628
 30
0.0
  0
POINT
  5
80A4
330
8164
100
AcDbEntity
  8
DEFPOINTS
 62
     0
100
AcDbPoint
 10
2350.651254010002
 20
4045.460569308626
 30
0.0
  0
POINT
  5
80A5
330
8164
100
AcDbEntity
  8
DEFPOINTS
 62
     0
100
AcDbPoint
 10
2350.651254010002
 20
4600.065859807033
 30
0.0
  0
ENDBLK
  5
7E77
330
8164
100
AcDbEntity
  8
0
100
AcDbBlockEnd
  0
BLOCK
  5
8167
330
8166
100
AcDbEntity
  8
0
100
AcDbBlockBegin
  2
*D15
 70
     1
 10
0.0
 20
0.0
 30
0.0
  3
*D15
  1

  0
LINE
  5
7E79
330
8166
100
AcDbEntity
  8
0
  6
ByBlock
100
AcDbLine
 10
320.9212665315435
 20
1028.09762645012
 30
0.0
 11
-318.7890274116635
 21
1028.09762645012
 31
0.0
  0
LINE
  5
7E7A
330
8166
100
AcDbEntity
  8
0
  6
ByBlock
100
AcDbLine
 10
-171.9717065714521
 20
568.0976264501205
 30
0.0
 11
-318.7890274116635
 21
568.0976264501205
 31
0.0
  0
LINE
  5
7E7B
330
8166
100
AcDbEntity
  8
0
  6
ByBlock
100
AcDbLine
 10
-298.7890274116634
 20
988.0976264501203
 30
0.0
 11
-298.7890274116634
 21
608.0976264501205
 31
0.0
  0
INSERT
  5
7E7C
330
8166
100
AcDbEntity
  8
0
  6
ByBlock
100
AcDbBlockReference
  2
_OPEN
 10
-298.7890274116634
 20
1028.09762645012
 30
0.0
 41
40.0
 42
40.0
 43
40.0
 50
90.0
  0
INSERT
  5
7E7D
330
8166
100
AcDbEntity
  8
0
  6
ByBlock
100
AcDbBlockReference
  2
_OPEN
 10
-298.7890274116634
 20
568.0976264501205
 30
0.0
 41
40.0
 42
40.0
 43
40.0
 50
270.0
  0
TEXT
  5
7E7E
330
8166
100
AcDbEntity
  8
3
100
AcDbText
 10
-308.7890274116634
 20
720.9547693072632
 30
0.0
 40
60.0
  1
460
 50
90.0
100
AcDbText
  0
POINT
  5
7E7F
330
8166
100
AcDbEntity
  8
DEFPOINTS
  6
ByBlock
 62
     0
100
AcDbPoint
 10
340.9212665315435
 20
1028.09762645012
 30
0.0
  0
POINT
  5
7E80
330
8166
100
AcDbEntity
  8
DEFPOINTS
  6
ByBlock
 62
     0
100
AcDbPoint
 10
-151.9717065714521
 20
568.0976264501205
 30
0.0
  0
POINT
  5
7E81
330
8166
100
AcDbEntity
  8
DEFPOINTS
  6
ByBlock
 62
     0
100
AcDbPoint
 10
-298.7890274116634
 20
568.0976264501205
 30
0.0
  0
ENDBLK
  5
7E82
330
8166
100
AcDbEntity
  8
0
100
AcDbBlockEnd
  0
BLOCK
  5
8169
330
8168
100
AcDbEntity
  8
0
100
AcDbBlockBegin
  2
*D16
 70
     1
 10
0.0
 20
0.0
 30
0.0
  3
*D16
  1

  0
LINE
  5
80A6
330
8168
100
AcDbEntity
  8
3
100
AcDbLine
 10
880.6512540100017
 20
1560.116393141435
 30
0.0
 11
626.940960066795
 21
1560.116393141435
 31
0.0
  0
LINE
  5
80A7
330
8168
100
AcDbEntity
  8
3
100
AcDbLine
 10
646.9409600667951
 20
2100.116393141435
 30
0.0
 11
646.940960066795
 21
1600.116393141435
 31
0.0
  0
INSERT
  5
80A8
330
8168
100
AcDbEntity
  8
3
100
AcDbBlockReference
  2
_OPEN
 10
646.9409600667951
 20
2140.116393141436
 30
0.0
 41
40.0
 42
40.0
 43
40.0
 50
90.0
  0
INSERT
  5
80A9
330
8168
100
AcDbEntity
  8
3
100
AcDbBlockReference
  2
_OPEN
 10
646.940960066795
 20
1560.116393141435
 30
0.0
 41
40.0
 42
40.0
 43
40.0
 50
270.0
  0
TEXT
  5
80C7
330
8168
100
AcDbEntity
  8
3
100
AcDbText
 10
486.941
 20
1743.92
 30
0.0
 40
60.0
  1
580
100
AcDbText
  0
POINT
  5
80AB
330
8168
100
AcDbEntity
  8
DEFPOINTS
 62
     0
100
AcDbPoint
 10
793.7582809070062
 20
2140.116393141436
 30
0.0
  0
POINT
  5
80AC
330
8168
100
AcDbEntity
  8
DEFPOINTS
 62
     0
100
AcDbPoint
 10
900.6512540100018
 20
1560.116393141435
 30
0.0
  0
POINT
  5
80AD
330
8168
100
AcDbEntity
  8
DEFPOINTS
 62
     0
100
AcDbPoint
 10
646.940960066795
 20
1560.116393141435
 30
0.0
  0
ENDBLK
  5
7E8C
330
8168
100
AcDbEntity
  8
0
100
AcDbBlockEnd
  0
BLOCK
  5
816B
330
816A
100
AcDbEntity
  8
0
100
AcDbBlockBegin
  2
*D17
 70
     1
 10
0.0
 20
0.0
 30
0.0
  3
*D17
  1

  0
LINE
  5
80AE
330
816A
100
AcDbEntity
  8
3
 62
     0
100
AcDbLine
 10
890.6512540100019
 20
1465.116393141435
 30
0.0
 11
626.940960066795
 21
1465.116393141435
 31
0.0
  0
LINE
  5
80AF
330
816A
100
AcDbEntity
  8
3
 62
     0
100
AcDbLine
 10
890.6512540100019
 20
1365.116393141435
 30
0.0
 11
626.940960066795
 21
1365.116393141435
 31
0.0
  0
LINE
  5
80B0
330
816A
100
AcDbEntity
  8
3
 62
     0
100
AcDbLine
 10
646.940960066795
 20
1505.116393141435
 30
0.0
 11
646.940960066795
 21
1545.116393141436
 31
0.0
  0
LINE
  5
80B1
330
816A
100
AcDbEntity
  8
3
 62
     0
100
AcDbLine
 10
646.940960066795
 20
1325.116393141435
 30
0.0
 11
646.9409600667948
 21
1102.259250284292
 31
0.0
  0
LINE
  5
80B2
330
816A
100
AcDbEntity
  8
3
 62
     0
100
AcDbLine
 10
646.940960066795
 20
1465.116393141435
 30
0.0
 11
646.940960066795
 21
1365.116393141435
 31
0.0
  0
INSERT
  5
80B3
330
816A
100
AcDbEntity
  8
3
 62
     0
100
AcDbBlockReference
  2
_DOT
 10
646.940960066795
 20
1465.116393141435
 30
0.0
 41
40.0
 42
40.0
 43
40.0
 50
270.0
  0
INSERT
  5
80B4
330
816A
100
AcDbEntity
  8
3
 62
     0
100
AcDbBlockReference
  2
_OPEN
 10
646.940960066795
 20
1365.116393141435
 30
0.0
 41
40.0
 42
40.0
 43
40.0
 50
90.0
  0
TEXT
  5
80C8
330
816A
100
AcDbEntity
  8
3
 62
     0
100
AcDbText
 10
476.9409999999999
 20
1087.49
 30
0.0
 40
60.0
  1
100
100
AcDbText
  0
POINT
  5
80B6
330
816A
100
AcDbEntity
  8
DEFPOINTS
 62
     0
100
AcDbPoint
 10
900.6512540100018
 20
1465.116393141435
 30
0.0
  0
POINT
  5
80B7
330
816A
100
AcDbEntity
  8
DEFPOINTS
 62
     0
100
AcDbPoint
 10
900.6512540100018
 20
1365.116393141435
 30
0.0
  0
POINT
  5
80B8
330
816A
100
AcDbEntity
  8
DEFPOINTS
 62
     0
100
AcDbPoint
 10
646.940960066795
 20
1365.116393141435
 30
0.0
  0
ENDBLK
  5
7F2D
330
816A
100
AcDbEntity
  8
0
100
AcDbBlockEnd
  0
BLOCK
  5
8171
330
816C
100
AcDbEntity
  8
0
100
AcDbBlockBegin
  2
_DOT
 70
     0
 10
0.0
 20
0.0
 30
0.0
  3
_DOT
  1

  0
LWPOLYLINE
  5
7F30
330
816C
100
AcDbEntity
  8
0
  6
ByBlock
 62
     0
100
AcDbPolyline
 90
        2
 70
     1
 43
0.25
 10
-0.125
 20
0.0
 42
1.0
 10
0.125
 20
0.0
 42
1.0
  0
LINE
  5
7F34
330
816C
100
AcDbEntity
  8
0
  6
ByBlock
 62
     0
100
AcDbLine
 10
-0.25
 20
0.0
 30
0.0
 11
-1.0
 21
0.0
 31
0.0
  0
ENDBLK
  5
7F13
330
816C
100
AcDbEntity
  8
0
100
AcDbBlockEnd
  0
BLOCK
  5
816E
330
816D
100
AcDbEntity
  8
0
100
AcDbBlockBegin
  2
*D19
 70
     1
 10
0.0
 20
0.0
 30
0.0
  3
*D19
  1

  0
LINE
  5
80B9
330
816D
100
AcDbEntity
  8
3
100
AcDbLine
 10
846.6512540100017
 20
2113.116393141436
 30
0.0
 11
846.6512540100017
 21
2919.618059262128
 31
0.0
  0
LINE
  5
80BA
330
816D
100
AcDbEntity
  8
3
100
AcDbLine
 10
1260.651254010002
 20
2899.618059262128
 30
0.0
 11
886.6512540100018
 21
2899.618059262128
 31
0.0
  0
INSERT
  5
80BB
330
816D
100
AcDbEntity
  8
3
100
AcDbBlockReference
  2
_OPEN
 10
1300.651254010002
 20
2899.618059262128
 30
0.0
 41
40.0
 42
40.0
 43
40.0
  0
INSERT
  5
80BC
330
816D
100
AcDbEntity
  8
3
100
AcDbBlockReference
  2
_OPEN
 10
846.6512540100017
 20
2899.618059262128
 30
0.0
 41
40.0
 42
40.0
 43
40.0
 50
180.0
  0
TEXT
  5
80C9
330
816D
100
AcDbEntity
  8
3
100
AcDbText
 10
953.6510000000001
 20
2833.42
 30
0.0
 40
60.0
  1
454
100
AcDbText
  0
POINT
  5
80BE
330
816D
100
AcDbEntity
  8
DEFPOINTS
 62
     0
100
AcDbPoint
 10
1300.651254010002
 20
2647.009366244431
 30
0.0
  0
POINT
  5
80BF
330
816D
100
AcDbEntity
  8
DEFPOINTS
 62
     0
100
AcDbPoint
 10
846.6512540100017
 20
2093.116393141435
 30
0.0
  0
POINT
  5
80C0
330
816D
100
AcDbEntity
  8
DEFPOINTS
 62
     0
100
AcDbPoint
 10
846.6512540100017
 20
2899.618059262128
 30
0.0
  0
ENDBLK
  5
7EBA
330
816D
100
AcDbEntity
  8
0
100
AcDbBlockEnd
  0
BLOCK
  5
8170
330
816F
100
AcDbEntity
  8
0
100
AcDbBlockBegin
  2
*D20
 70
     1
 10
0.0
 20
0.0
 30
0.0
  3
*D20
  1

  0
LINE
  5
7EBC
330
816F
100
AcDbEntity
  8
0
  6
ByBlock
100
AcDbLine
 10
-99.07873346845644
 20
541.0976264501205
 30
0.0
 11
-99.07873346845644
 21
1454.501768476792
 31
0.0
  0
LINE
  5
7EBD
330
816F
100
AcDbEntity
  8
0
  6
ByBlock
100
AcDbLine
 10
1404.921266531543
 20
148.0976264501204
 30
0.0
 11
1404.921266531543
 21
1454.501768476792
 31
0.0
  0
LINE
  5
7EBE
330
816F
100
AcDbEntity
  8
0
  6
ByBlock
100
AcDbLine
 10
-59.07873346845645
 20
1434.501768476792
 30
0.0
 11
1364.921266531543
 21
1434.501768476792
 31
0.0
  0
INSERT
  5
7EBF
330
816F
100
AcDbEntity
  8
0
  6
ByBlock
100
AcDbBlockReference
  2
_OPEN
 10
-99.07873346845644
 20
1434.501768476792
 30
0.0
 41
40.0
 42
40.0
 43
40.0
 50
180.0
  0
INSERT
  5
7EC0
330
816F
100
AcDbEntity
  8
0
  6
ByBlock
100
AcDbBlockReference
  2
_OPEN
 10
1404.921266531543
 20
1434.501768476792
 30
0.0
 41
40.0
 42
40.0
 43
40.0
  0
TEXT
  5
7EC1
330
816F
100
AcDbEntity
  8
3
100
AcDbText
 10
551.4926951029719
 20
1444.501768476792
 30
0.0
 40
60.0
  1
1504
100
AcDbText
  0
POINT
  5
7EC2
330
816F
100
AcDbEntity
  8
DEFPOINTS
  6
ByBlock
 62
     0
100
AcDbPoint
 10
-99.07873346845644
 20
521.0976264501205
 30
0.0
  0
POINT
  5
7EC3
330
816F
100
AcDbEntity
  8
DEFPOINTS
  6
ByBlock
 62
     0
100
AcDbPoint
 10
1404.921266531543
 20
128.0976264501205
 30
0.0
  0
POINT
  5
7EC4
330
816F
100
AcDbEntity
  8
DEFPOINTS
  6
ByBlock
 62
     0
100
AcDbPoint
 10
1404.921266531543
 20
1434.501768476792
 30
0.0
  0
ENDBLK
  5
7EC5
330
816F
100
AcDbEntity
  8
0
100
AcDbBlockEnd
  0
BLOCK
  5
8173
330
8172
100
AcDbEntity
  8
0
100
AcDbBlockBegin
  2
_NONE
 70
     0
 10
0.0
 20
0.0
 30
0.0
  3
_NONE
  1

  0
CIRCLE
  5
7F9F
330
8172
100
AcDbEntity
  8
0
  6
ByBlock
 62
     0
100
AcDbCircle
 10
0.0
 20
0.0
 30
0.0
 40
0.25
  0
ENDBLK
  5
7FA0
330
8172
100
AcDbEntity
  8
0
100
AcDbBlockEnd
  0
BLOCK
  5
8175
330
8174
100
AcDbEntity
  8
0
100
AcDbBlockBegin
  2
*D22
 70
     1
 10
0.0
 20
0.0
 30
0.0
  3
*D22
  1

  0
LINE
  5
7FB9
330
8174
100
AcDbEntity
  8
0
  6
ByBlock
 62
     0
100
AcDbLine
 10
900.6512540100018
 20
1413.116393141435
 30
0.0
 11
900.6512540100018
 21
1266.716389713538
 31
0.0
  0
LINE
  5
7FBA
330
8174
100
AcDbEntity
  8
0
  6
ByBlock
 62
     0
100
AcDbLine
 10
1300.651254010001
 20
1413.116393141435
 30
0.0
 11
1300.651254010001
 21
1266.716389713538
 31
0.0
  0
LINE
  5
7FBB
330
8174
100
AcDbEntity
  8
0
  6
ByBlock
 62
     0
100
AcDbLine
 10
940.6512540100019
 20
1286.716389713538
 30
0.0
 11
1260.65125401
 21
1286.716389713538
 31
0.0
  0
INSERT
  5
7FBC
330
8174
100
AcDbEntity
  8
0
  6
ByBlock
 62
     0
100
AcDbBlockReference
  2
_OPEN
 10
900.6512540100018
 20
1286.716389713538
 30
0.0
 41
40.0
 42
40.0
 43
40.0
 50
180.0
  0
INSERT
  5
7FBD
330
8174
100
AcDbEntity
  8
0
  6
ByBlock
 62
     0
100
AcDbBlockReference
  2
_OPEN
 10
1300.651254010001
 20
1286.716389713538
 30
0.0
 41
40.0
 42
40.0
 43
40.0
  0
TEXT
  5
7FBE
330
8174
100
AcDbEntity
  8
3
 62
     0
100
AcDbText
 10
1023.508396867145
 20
1306.716389713537
 30
0.0
 40
60.0
  1
400
100
AcDbText
  0
POINT
  5
7FBF
330
8174
100
AcDbEntity
  8
DEFPOINTS
  6
ByBlock
 62
     0
100
AcDbPoint
 10
900.6512540100018
 20
1433.116393141435
 30
0.0
  0
POINT
  5
7FC0
330
8174
100
AcDbEntity
  8
DEFPOINTS
  6
ByBlock
 62
     0
100
AcDbPoint
 10
1300.651254010001
 20
1433.116393141435
 30
0.0
  0
POINT
  5
7FC1
330
8174
100
AcDbEntity
  8
DEFPOINTS
  6
ByBlock
 62
     0
100
AcDbPoint
 10
1300.651254010001
 20
1286.716389713538
 30
0.0
  0
ENDBLK
  5
7FC2
330
8174
100
AcDbEntity
  8
0
100
AcDbBlockEnd
  0
BLOCK
  5
8177
330
8176
100
AcDbEntity
  8
0
100
AcDbBlockBegin
  2
*D23
 70
     1
 10
0.0
 20
0.0
 30
0.0
  3
*D23
  1

  0
LINE
  5
7FC6
330
8176
100
AcDbEntity
  8
0
  6
ByBlock
 62
     0
100
AcDbLine
 10
1300.651254010001
 20
1413.116393141435
 30
0.0
 11
1300.651254010001
 21
1266.716389713538
 31
0.0
  0
LINE
  5
7FC7
330
8176
100
AcDbEntity
  8
0
  6
ByBlock
 62
     0
100
AcDbLine
 10
2350.651254010002
 20
1413.116393141435
 30
0.0
 11
2350.651254010002
 21
1266.716389713538
 31
0.0
  0
LINE
  5
7FC8
330
8176
100
AcDbEntity
  8
0
  6
ByBlock
 62
     0
100
AcDbLine
 10
1340.651254010001
 20
1286.716389713538
 30
0.0
 11
2310.651254010001
 21
1286.716389713538
 31
0.0
  0
INSERT
  5
7FC9
330
8176
100
AcDbEntity
  8
0
  6
ByBlock
 62
     0
100
AcDbBlockReference
  2
_OPEN
 10
1300.651254010001
 20
1286.716389713538
 30
0.0
 41
40.0
 42
40.0
 43
40.0
 50
180.0
  0
INSERT
  5
7FCA
330
8176
100
AcDbEntity
  8
0
  6
ByBlock
 62
     0
100
AcDbBlockReference
  2
_OPEN
 10
2350.651254010002
 20
1286.716389713538
 30
0.0
 41
40.0
 42
40.0
 43
40.0
  0
TEXT
  5
7FCB
330
8176
100
AcDbEntity
  8
3
 62
     0
100
AcDbText
 10
1725.651254010002
 20
1306.716389713537
 30
0.0
 40
60.0
  1
1050
100
AcDbText
  0
POINT
  5
7FCC
330
8176
100
AcDbEntity
  8
DEFPOINTS
  6
ByBlock
 62
     0
100
AcDbPoint
 10
1300.651254010001
 20
1433.116393141435
 30
0.0
  0
POINT
  5
7FCD
330
8176
100
AcDbEntity
  8
DEFPOINTS
  6
ByBlock
 62
     0
100
AcDbPoint
 10
2350.651254010002
 20
1433.116393141435
 30
0.0
  0
POINT
  5
7FCE
330
8176
100
AcDbEntity
  8
DEFPOINTS
  6
ByBlock
 62
     0
100
AcDbPoint
 10
2350.651254010002
 20
1286.716389713538
 30
0.0
  0
ENDBLK
  5
7FCF
330
8176
100
AcDbEntity
  8
0
100
AcDbBlockEnd
  0
BLOCK
  5
8179
330
8178
100
AcDbEntity
  8
0
100
AcDbBlockBegin
  2
*D24
 70
     1
 10
0.0
 20
0.0
 30
0.0
  3
*D24
  1

  0
LINE
  5
7FD3
330
8178
100
AcDbEntity
  8
0
  6
ByBlock
 62
     0
100
AcDbLine
 10
2696.004301064448
 20
1413.116393141435
 30
0.0
 11
2696.004301064448
 21
1266.716389713538
 31
0.0
  0
LINE
  5
7FD4
330
8178
100
AcDbEntity
  8
0
  6
ByBlock
 62
     0
100
AcDbLine
 10
3249.004301064447
 20
1413.116393141435
 30
0.0
 11
3249.004301064447
 21
1266.716389713538
 31
0.0
  0
LINE
  5
7FD5
330
8178
100
AcDbEntity
  8
0
  6
ByBlock
 62
     0
100
AcDbLine
 10
2736.004301064448
 20
1286.716389713538
 30
0.0
 11
3209.004301064448
 21
1286.716389713538
 31
0.0
  0
INSERT
  5
7FD6
330
8178
100
AcDbEntity
  8
0
  6
ByBlock
 62
     0
100
AcDbBlockReference
  2
_OPEN
 10
2696.004301064448
 20
1286.716389713538
 30
0.0
 41
40.0
 42
40.0
 43
40.0
 50
180.0
  0
INSERT
  5
7FD7
330
8178
100
AcDbEntity
  8
0
  6
ByBlock
 62
     0
100
AcDbBlockReference
  2
_OPEN
 10
3249.004301064447
 20
1286.716389713538
 30
0.0
 41
40.0
 42
40.0
 43
40.0
  0
TEXT
  5
7FD8
330
8178
100
AcDbEntity
  8
3
 62
     0
100
AcDbText
 10
2895.36144392159
 20
1306.716389713537
 30
0.0
 40
60.0
  1
553
100
AcDbText
  0
POINT
  5
7FD9
330
8178
100
AcDbEntity
  8
DEFPOINTS
  6
ByBlock
 62
     0
100
AcDbPoint
 10
2696.004301064448
 20
1433.116393141435
 30
0.0
  0
POINT
  5
7FDA
330
8178
100
AcDbEntity
  8
DEFPOINTS
  6
ByBlock
 62
     0
100
AcDbPoint
 10
3249.004301064447
 20
1433.116393141435
 30
0.0
  0
POINT
  5
7FDB
330
8178
100
AcDbEntity
  8
DEFPOINTS
  6
ByBlock
 62
     0
100
AcDbPoint
 10
3249.004301064447
 20
1286.716389713538
 30
0.0
  0
ENDBLK
  5
7FDC
330
8178
100
AcDbEntity
  8
0
100
AcDbBlockEnd
  0
BLOCK
  5
817B
330
817A
100
AcDbEntity
  8
0
100
AcDbBlockBegin
  2
*D25
 70
     1
 10
0.0
 20
0.0
 30
0.0
  3
*D25
  1

  0
LINE
  5
7FE0
330
817A
100
AcDbEntity
  8
0
  6
ByBlock
 62
     0
100
AcDbLine
 10
3249.004301064447
 20
1413.116393141435
 30
0.0
 11
3249.004301064447
 21
1266.716389713538
 31
0.0
  0
LINE
  5
7FE1
330
817A
100
AcDbEntity
  8
0
  6
ByBlock
 62
     0
100
AcDbLine
 10
3702.004301064448
 20
1413.116393141435
 30
0.0
 11
3702.004301064448
 21
1266.716389713538
 31
0.0
  0
LINE
  5
7FE2
330
817A
100
AcDbEntity
  8
0
  6
ByBlock
 62
     0
100
AcDbLine
 10
3289.004301064448
 20
1286.716389713538
 30
0.0
 11
3662.004301064448
 21
1286.716389713538
 31
0.0
  0
INSERT
  5
7FE3
330
817A
100
AcDbEntity
  8
0
  6
ByBlock
 62
     0
100
AcDbBlockReference
  2
_OPEN
 10
3249.004301064447
 20
1286.716389713538
 30
0.0
 41
40.0
 42
40.0
 43
40.0
 50
180.0
  0
INSERT
  5
7FE4
330
817A
100
AcDbEntity
  8
0
  6
ByBlock
 62
     0
100
AcDbBlockReference
  2
_OPEN
 10
3702.004301064448
 20
1286.716389713538
 30
0.0
 41
40.0
 42
40.0
 43
40.0
  0
TEXT
  5
7FE5
330
817A
100
AcDbEntity
  8
3
 62
     0
100
AcDbText
 10
3398.361443921589
 20
1306.716389713537
 30
0.0
 40
60.0
  1
453
100
AcDbText
  0
POINT
  5
7FE6
330
817A
100
AcDbEntity
  8
DEFPOINTS
  6
ByBlock
 62
     0
100
AcDbPoint
 10
3249.004301064447
 20
1433.116393141435
 30
0.0
  0
POINT
  5
7FE7
330
817A
100
AcDbEntity
  8
DEFPOINTS
  6
ByBlock
 62
     0
100
AcDbPoint
 10
3702.004301064448
 20
1433.116393141435
 30
0.0
  0
POINT
  5
7FE8
330
817A
100
AcDbEntity
  8
DEFPOINTS
  6
ByBlock
 62
     0
100
AcDbPoint
 10
3702.004301064448
 20
1286.716389713538
 30
0.0
  0
ENDBLK
  5
7FE9
330
817A
100
AcDbEntity
  8
0
100
AcDbBlockEnd
  0
BLOCK
  5
817D
330
817C
100
AcDbEntity
  8
0
100
AcDbBlockBegin
  2
*D26
 70
     1
 10
0.0
 20
0.0
 30
0.0
  3
*D26
  1

  0
LINE
  5
8006
330
817C
100
AcDbEntity
  8
0
  6
ByBlock
 62
     0
100
AcDbLine
 10
645.0152587659941
 20
1465.116393141435
 30
0.0
 11
645.0152587659941
 21
1560.116393141435
 31
0.0
  0
TEXT
  5
8007
330
817C
100
AcDbEntity
  8
3
 62
     0
100
AcDbText
 10
569.3009730517084
 20
1425.473535998578
 30
0.0
 40
60.0
  1
(95)
 50
90.0
100
AcDbText
  0
POINT
  5
8008
330
817C
100
AcDbEntity
  8
DEFPOINTS
  6
ByBlock
 62
     0
100
AcDbPoint
 10
900.6512540100018
 20
1465.116393141435
 30
0.0
  0
POINT
  5
8009
330
817C
100
AcDbEntity
  8
DEFPOINTS
  6
ByBlock
 62
     0
100
AcDbPoint
 10
900.6512540100018
 20
1560.116393141435
 30
0.0
  0
POINT
  5
800A
330
817C
100
AcDbEntity
  8
DEFPOINTS
  6
ByBlock
 62
     0
100
AcDbPoint
 10
645.0152587659941
 20
1560.116393141435
 30
0.0
  0
ENDBLK
  5
800B
330
817C
100
AcDbEntity
  8
0
100
AcDbBlockEnd
  0
BLOCK
  5
817F
330
817E
100
AcDbEntity
  8
0
100
AcDbBlockBegin
  2
*D27
 70
     1
 10
0.0
 20
0.0
 30
0.0
  3
*D27
  1

  0
LINE
  5
800F
330
817E
100
AcDbEntity
  8
0
  6
ByBlock
 62
     0
100
AcDbLine
 10
880.6512540100017
 20
1365.116393141435
 30
0.0
 11
442.4099822280186
 21
1365.116393141435
 31
0.0
  0
LINE
  5
8010
330
817E
100
AcDbEntity
  8
0
  6
ByBlock
 62
     0
100
AcDbLine
 10
1266.651254010002
 20
2600.116393141435
 30
0.0
 11
442.4099822280186
 21
2600.116393141435
 31
0.0
  0
LINE
  5
8011
330
817E
100
AcDbEntity
  8
0
  6
ByBlock
 62
     0
100
AcDbLine
 10
462.4099822280185
 20
1405.116393141435
 30
0.0
 11
462.4099822280185
 21
2560.116393141436
 31
0.0
  0
INSERT
  5
8012
330
817E
100
AcDbEntity
  8
0
  6
ByBlock
 62
     0
100
AcDbBlockReference
  2
_OPEN
 10
462.4099822280185
 20
1365.116393141435
 30
0.0
 41
40.0
 42
40.0
 43
40.0
 50
270.0
  0
INSERT
  5
8013
330
817E
100
AcDbEntity
  8
0
  6
ByBlock
 62
     0
100
AcDbBlockReference
  2
_OPEN
 10
462.4099822280185
 20
2600.116393141435
 30
0.0
 41
40.0
 42
40.0
 43
40.0
 50
90.0
  0
TEXT
  5
8014
330
817E
100
AcDbEntity
  8
3
 62
     0
100
AcDbText
 10
416.6956965137329
 20
1844.044964570007
 30
0.0
 40
60.0
  1
(1235)
 50
90.0
100
AcDbText
  0
POINT
  5
8015
330
817E
100
AcDbEntity
  8
DEFPOINTS
  6
ByBlock
 62
     0
100
AcDbPoint
 10
900.6512540100018
 20
1365.116393141435
 30
0.0
  0
POINT
  5
8016
330
817E
100
AcDbEntity
  8
DEFPOINTS
  6
ByBlock
 62
     0
100
AcDbPoint
 10
1286.651254010002
 20
2600.116393141435
 30
0.0
  0
POINT
  5
8017
330
817E
100
AcDbEntity
  8
DEFPOINTS
  6
ByBlock
 62
     0
100
AcDbPoint
 10
462.4099822280185
 20
2600.116393141435
 30
0.0
  0
ENDBLK
  5
8018
330
817E
100
AcDbEntity
  8
0
100
AcDbBlockEnd
  0
BLOCK
  5
8186
330
8185
100
AcDbEntity
  8
0
100
AcDbBlockBegin
  2
*D28
 70
     1
 10
0.0
 20
0.0
 30
0.0
  3
*D28
  1

  0
LINE
  5
81E0
330
8185
100
AcDbEntity
  8
3
 62
     0
370
    -2
100
AcDbLine
 10
2469.004301064448
 20
2310.116393141436
 30
0.0
 11
2469.004301064448
 21
3003.253539278127
 31
0.0
  0
LINE
  5
81E1
330
8185
100
AcDbEntity
  8
3
 62
     0
370
    -2
100
AcDbLine
 10
3249.004301064449
 20
2797.306378051618
 30
0.0
 11
3249.004301064449
 21
3003.253539278127
 31
0.0
  0
LINE
  5
81E2
330
8185
100
AcDbEntity
  8
3
 62
     0
370
    -2
100
AcDbLine
 10
2509.004301064448
 20
2983.253539278127
 30
0.0
 11
3209.004301064448
 21
2983.253539278127
 31
0.0
  0
INSERT
  5
81E3
330
8185
100
AcDbEntity
  8
3
 62
     0
370
    -2
100
AcDbBlockReference
  2
_OPEN
 10
2469.004301064448
 20
2983.253539278127
 30
0.0
 41
40.0
 42
40.0
 43
40.0
 50
180.0
  0
INSERT
  5
81E4
330
8185
100
AcDbEntity
  8
3
 62
     0
370
    -2
100
AcDbBlockReference
  2
_OPEN
 10
3249.004301064449
 20
2983.253539278127
 30
0.0
 41
40.0
 42
40.0
 43
40.0
  0
MTEXT
  5
81E5
330
8185
100
AcDbEntity
  8
3
 62
     0
100
AcDbMText
 10
2859.004301064448
 20
3048.967824992412
 30
0.0
 40
60.0
 41
0.0
 71
     5
 72
     1
  1
\A1;(780)
 73
     1
 44
1.0
1001
ACAD
1000
MTEXTBEGIN
1070
    73
1070
     1
1070
    44
1040
1.0
1070
    74
1070
     0
1000
MTEXTEND
  0
POINT
  5
81E6
330
8185
100
AcDbEntity
  8
DEFPOINTS
 62
     0
100
AcDbPoint
 10
2469.004301064448
 20
2290.116393141436
 30
0.0
  0
POINT
  5
81E7
330
8185
100
AcDbEntity
  8
DEFPOINTS
 62
     0
100
AcDbPoint
 10
3249.004301064449
 20
2777.306378051618
 30
0.0
  0
POINT
  5
81E8
330
8185
100
AcDbEntity
  8
DEFPOINTS
 62
     0
100
AcDbPoint
 10
3249.004301064449
 20
2983.253539278127
 30
0.0
  0
ENDBLK
  5
8187
330
8185
100
AcDbEntity
  8
0
100
AcDbBlockEnd
  0
BLOCK
  5
8193
330
8192
100
AcDbEntity
  8
0
100
AcDbBlockBegin
  2
*D29
 70
     1
 10
0.0
 20
0.0
 30
0.0
  3
*D29
  1

  0
LINE
  5
81D7
330
8192
100
AcDbEntity
  8
3
 62
     0
370
    -2
100
AcDbLine
 10
3249.004301064449
 20
2797.306378051618
 30
0.0
 11
3249.004301064449
 21
3003.253539278127
 31
0.0
  0
LINE
  5
81D8
330
8192
100
AcDbEntity
  8
3
 62
     0
370
    -2
100
AcDbLine
 10
3759.004301064448
 20
2130.116393141435
 30
0.0
 11
3759.004301064448
 21
3003.253539278127
 31
0.0
  0
LINE
  5
81D9
330
8192
100
AcDbEntity
  8
3
 62
     0
370
    -2
100
AcDbLine
 10
3289.004301064448
 20
2983.253539278127
 30
0.0
 11
3719.004301064448
 21
2983.253539278127
 31
0.0
  0
INSERT
  5
81DA
330
8192
100
AcDbEntity
  8
3
 62
     0
370
    -2
100
AcDbBlockReference
  2
_OPEN
 10
3249.004301064449
 20
2983.253539278127
 30
0.0
 41
40.0
 42
40.0
 43
40.0
 50
180.0
  0
INSERT
  5
81DB
330
8192
100
AcDbEntity
  8
3
 62
     0
370
    -2
100
AcDbBlockReference
  2
_OPEN
 10
3759.004301064448
 20
2983.253539278127
 30
0.0
 41
40.0
 42
40.0
 43
40.0
  0
MTEXT
  5
81DC
330
8192
100
AcDbEntity
  8
3
 62
     0
100
AcDbMText
 10
3504.004301064448
 20
3048.967824992412
 30
0.0
 40
60.0
 41
0.0
 71
     5
 72
     1
  1
\A1;(510)
 73
     1
 44
1.0
1001
ACAD
1000
MTEXTBEGIN
1070
    73
1070
     1
1070
    44
1040
1.0
1070
    74
1070
     0
1000
MTEXTEND
  0
POINT
  5
81DD
330
8192
100
AcDbEntity
  8
DEFPOINTS
 62
     0
100
AcDbPoint
 10
3249.004301064449
 20
2777.306378051618
 30
0.0
  0
POINT
  5
81DE
330
8192
100
AcDbEntity
  8
DEFPOINTS
 62
     0
100
AcDbPoint
 10
3759.004301064448
 20
2110.116393141435
 30
0.0
  0
POINT
  5
81DF
330
8192
100
AcDbEntity
  8
DEFPOINTS
 62
     0
100
AcDbPoint
 10
3759.004301064448
 20
2983.253539278127
 30
0.0
  0
ENDBLK
  5
8194
330
8192
100
AcDbEntity
  8
0
100
AcDbBlockEnd
  0
BLOCK
  5
81EA
330
81E9
100
AcDbEntity
  8
0
100
AcDbBlockBegin
  2
*D30
 70
     1
 10
0.0
 20
0.0
 30
0.0
  3
*D30
  1

  0
LINE
  5
81EC
330
81E9
100
AcDbEntity
  8
3
 62
     0
370
    -2
100
AcDbLine
 10
900.6512540100018
 20
1360.116393141435
 30
0.0
 11
900.6512540100018
 21
1230.116389713538
 31
0.0
  0
LINE
  5
81ED
330
81E9
100
AcDbEntity
  8
3
 62
     0
370
    -2
100
AcDbLine
 10
1300.651254010001
 20
1360.116393141435
 30
0.0
 11
1300.651254010001
 21
1230.116389713538
 31
0.0
  0
LINE
  5
81EE
330
81E9
100
AcDbEntity
  8
3
 62
     0
370
    -2
100
AcDbLine
 10
904.2512540100018
 20
1233.716389713538
 30
0.0
 11
1094.22268258143
 21
1233.716389713538
 31
0.0
  0
LINE
  5
81EF
330
81E9
100
AcDbEntity
  8
3
 62
     0
370
    -2
100
AcDbLine
 10
1297.051254010001
 20
1233.716389713538
 30
0.0
 11
1107.079825438572
 21
1233.716389713538
 31
0.0
  0
SOLID
  5
81F0
330
81E9
100
AcDbEntity
  8
3
 62
     0
100
AcDbTrace
 10
904.2512540100018
 20
1234.316389713538
 30
0.0
 11
904.2512540100018
 21
1233.116389713538
 31
0.0
 12
900.6512540100018
 22
1233.716389713538
 32
0.0
 13
900.6512540100018
 23
1233.716389713538
 33
0.0
  0
SOLID
  5
81F1
330
81E9
100
AcDbEntity
  8
3
 62
     0
100
AcDbTrace
 10
1297.051254010001
 20
1234.316389713538
 30
0.0
 11
1297.051254010001
 21
1233.116389713538
 31
0.0
 12
1300.651254010001
 22
1233.716389713538
 32
0.0
 13
1300.651254010001
 23
1233.716389713538
 33
0.0
  0
MTEXT
  5
81F2
330
81E9
100
AcDbEntity
  8
3
 62
     0
100
AcDbMText
 10
1100.651254010001
 20
1233.716389713538
 30
0.0
 40
3.599999999999999
 41
0.0
 71
     5
 72
     1
  1
\A1;400
 73
     1
 44
1.0
1001
ACAD
1000
MTEXTBEGIN
1070
    73
1070
     1
1070
    44
1040
1.0
1070
    74
1070
     0
1000
MTEXTEND
  0
POINT
  5
81F3
330
81E9
100
AcDbEntity
  8
DEFPOINTS
 62
     0
100
AcDbPoint
 10
900.6512540100018
 20
1380.116393141435
 30
0.0
  0
POINT
  5
81F4
330
81E9
100
AcDbEntity
  8
DEFPOINTS
 62
     0
100
AcDbPoint
 10
1300.651254010001
 20
1380.116393141435
 30
0.0
  0
POINT
  5
81F5
330
81E9
100
AcDbEntity
  8
DEFPOINTS
 62
     0
100
AcDbPoint
 10
1300.651254010001
 20
1233.716389713538
 30
0.0
  0
ENDBLK
  5
81EB
330
81E9
100
AcDbEntity
  8
0
100
AcDbBlockEnd
  0
BLOCK
  5
81F7
330
81F6
100
AcDbEntity
  8
0
100
AcDbBlockBegin
  2
*D31
 70
     1
 10
0.0
 20
0.0
 30
0.0
  3
*D31
  1

  0
LINE
  5
81F9
330
81F6
100
AcDbEntity
  8
3
 62
     0
370
    -2
100
AcDbLine
 10
1300.651254010001
 20
1360.116393141435
 30
0.0
 11
1300.651254010001
 21
1230.116389713538
 31
0.0
  0
LINE
  5
81FA
330
81F6
100
AcDbEntity
  8
3
 62
     0
370
    -2
100
AcDbLine
 10
2350.651254010002
 20
1360.116393141435
 30
0.0
 11
2350.651254010002
 21
1230.116389713538
 31
0.0
  0
LINE
  5
81FB
330
81F6
100
AcDbEntity
  8
3
 62
     0
370
    -2
100
AcDbLine
 10
1304.25125401
 20
1233.716389713538
 30
0.0
 11
1817.851254010001
 21
1233.716389713538
 31
0.0
  0
LINE
  5
81FC
330
81F6
100
AcDbEntity
  8
3
 62
     0
370
    -2
100
AcDbLine
 10
2347.051254010002
 20
1233.716389713538
 30
0.0
 11
1833.451254010001
 21
1233.716389713538
 31
0.0
  0
SOLID
  5
81FD
330
81F6
100
AcDbEntity
  8
3
 62
     0
100
AcDbTrace
 10
1304.25125401
 20
1234.316389713538
 30
0.0
 11
1304.25125401
 21
1233.116389713538
 31
0.0
 12
1300.651254010001
 22
1233.716389713538
 32
0.0
 13
1300.651254010001
 23
1233.716389713538
 33
0.0
  0
SOLID
  5
81FE
330
81F6
100
AcDbEntity
  8
3
 62
     0
100
AcDbTrace
 10
2347.051254010002
 20
1234.316389713538
 30
0.0
 11
2347.051254010002
 21
1233.116389713538
 31
0.0
 12
2350.651254010002
 22
1233.716389713538
 32
0.0
 13
2350.651254010002
 23
1233.716389713538
 33
0.0
  0
MTEXT
  5
81FF
330
81F6
100
AcDbEntity
  8
3
 62
     0
100
AcDbMText
 10
1825.651254010001
 20
1233.716389713538
 30
0.0
 40
3.599999999999999
 41
0.0
 71
     5
 72
     1
  1
\A1;1050
 73
     1
 44
1.0
1001
ACAD
1000
MTEXTBEGIN
1070
    73
1070
     1
1070
    44
1040
1.0
1070
    74
1070
     0
1000
MTEXTEND
  0
POINT
  5
8200
330
81F6
100
AcDbEntity
  8
DEFPOINTS
 62
     0
100
AcDbPoint
 10
1300.651254010001
 20
1380.116393141435
 30
0.0
  0
POINT
  5
8201
330
81F6
100
AcDbEntity
  8
DEFPOINTS
 62
     0
100
AcDbPoint
 10
2350.651254010002
 20
1380.116393141435
 30
0.0
  0
POINT
  5
8202
330
81F6
100
AcDbEntity
  8
DEFPOINTS
 62
     0
100
AcDbPoint
 10
2350.651254010002
 20
1233.716389713538
 30
0.0
  0
ENDBLK
  5
81F8
330
81F6
100
AcDbEntity
  8
0
100
AcDbBlockEnd
  0
BLOCK
  5
8204
330
8203
100
AcDbEntity
  8
0
100
AcDbBlockBegin
  2
*D32
 70
     1
 10
0.0
 20
0.0
 30
0.0
  3
*D32
  1

  0
LINE
  5
8206
330
8203
100
AcDbEntity
  8
3
 62
     0
370
    -2
100
AcDbLine
 10
2696.004301064448
 20
1360.116393141435
 30
0.0
 11
2696.004301064448
 21
1230.116389713538
 31
0.0
  0
LINE
  5
8207
330
8203
100
AcDbEntity
  8
3
 62
     0
370
    -2
100
AcDbLine
 10
3249.004301064447
 20
1360.116393141435
 30
0.0
 11
3249.004301064447
 21
1230.116389713538
 31
0.0
  0
LINE
  5
8208
330
8203
100
AcDbEntity
  8
3
 62
     0
370
    -2
100
AcDbLine
 10
2699.604301064448
 20
1233.716389713538
 30
0.0
 11
2966.075729635876
 21
1233.716389713538
 31
0.0
  0
LINE
  5
8209
330
8203
100
AcDbEntity
  8
3
 62
     0
370
    -2
100
AcDbLine
 10
3245.404301064448
 20
1233.716389713538
 30
0.0
 11
2978.93287249302
 21
1233.716389713538
 31
0.0
  0
SOLID
  5
820A
330
8203
100
AcDbEntity
  8
3
 62
     0
100
AcDbTrace
 10
2699.604301064448
 20
1234.316389713538
 30
0.0
 11
2699.604301064448
 21
1233.116389713538
 31
0.0
 12
2696.004301064448
 22
1233.716389713538
 32
0.0
 13
2696.004301064448
 23
1233.716389713538
 33
0.0
  0
SOLID
  5
820B
330
8203
100
AcDbEntity
  8
3
 62
     0
100
AcDbTrace
 10
3245.404301064448
 20
1234.316389713538
 30
0.0
 11
3245.404301064448
 21
1233.116389713538
 31
0.0
 12
3249.004301064447
 22
1233.716389713538
 32
0.0
 13
3249.004301064447
 23
1233.716389713538
 33
0.0
  0
MTEXT
  5
820C
330
8203
100
AcDbEntity
  8
3
 62
     0
100
AcDbMText
 10
2972.504301064448
 20
1233.716389713538
 30
0.0
 40
3.599999999999999
 41
0.0
 71
     5
 72
     1
  1
\A1;553
 73
     1
 44
1.0
1001
ACAD
1000
MTEXTBEGIN
1070
    73
1070
     1
1070
    44
1040
1.0
1070
    74
1070
     0
1000
MTEXTEND
  0
POINT
  5
820D
330
8203
100
AcDbEntity
  8
DEFPOINTS
 62
     0
100
AcDbPoint
 10
2696.004301064448
 20
1380.116393141435
 30
0.0
  0
POINT
  5
820E
330
8203
100
AcDbEntity
  8
DEFPOINTS
 62
     0
100
AcDbPoint
 10
3249.004301064447
 20
1380.116393141435
 30
0.0
  0
POINT
  5
820F
330
8203
100
AcDbEntity
  8
DEFPOINTS
 62
     0
100
AcDbPoint
 10
3249.004301064447
 20
1233.716389713538
 30
0.0
  0
ENDBLK
  5
8205
330
8203
100
AcDbEntity
  8
0
100
AcDbBlockEnd
  0
BLOCK
  5
8211
330
8210
100
AcDbEntity
  8
0
100
AcDbBlockBegin
  2
*D33
 70
     1
 10
0.0
 20
0.0
 30
0.0
  3
*D33
  1

  0
LINE
  5
8213
330
8210
100
AcDbEntity
  8
3
 62
     0
370
    -2
100
AcDbLine
 10
3249.004301064447
 20
1360.116393141435
 30
0.0
 11
3249.004301064447
 21
1230.116389713538
 31
0.0
  0
LINE
  5
8214
330
8210
100
AcDbEntity
  8
3
 62
     0
370
    -2
100
AcDbLine
 10
3702.004301064448
 20
1360.116393141435
 30
0.0
 11
3702.004301064448
 21
1230.116389713538
 31
0.0
  0
LINE
  5
8215
330
8210
100
AcDbEntity
  8
3
 62
     0
370
    -2
100
AcDbLine
 10
3252.604301064447
 20
1233.716389713538
 30
0.0
 11
3469.075729635876
 21
1233.716389713538
 31
0.0
  0
LINE
  5
8216
330
8210
100
AcDbEntity
  8
3
 62
     0
370
    -2
100
AcDbLine
 10
3698.404301064448
 20
1233.716389713538
 30
0.0
 11
3481.93287249302
 21
1233.716389713538
 31
0.0
  0
SOLID
  5
8217
330
8210
100
AcDbEntity
  8
3
 62
     0
100
AcDbTrace
 10
3252.604301064447
 20
1234.316389713538
 30
0.0
 11
3252.604301064447
 21
1233.116389713538
 31
0.0
 12
3249.004301064447
 22
1233.716389713538
 32
0.0
 13
3249.004301064447
 23
1233.716389713538
 33
0.0
  0
SOLID
  5
8218
330
8210
100
AcDbEntity
  8
3
 62
     0
100
AcDbTrace
 10
3698.404301064448
 20
1234.316389713538
 30
0.0
 11
3698.404301064448
 21
1233.116389713538
 31
0.0
 12
3702.004301064448
 22
1233.716389713538
 32
0.0
 13
3702.004301064448
 23
1233.716389713538
 33
0.0
  0
MTEXT
  5
8219
330
8210
100
AcDbEntity
  8
3
 62
     0
100
AcDbMText
 10
3475.504301064448
 20
1233.716389713538
 30
0.0
 40
3.599999999999999
 41
0.0
 71
     5
 72
     1
  1
\A1;453
 73
     1
 44
1.0
1001
ACAD
1000
MTEXTBEGIN
1070
    73
1070
     1
1070
    44
1040
1.0
1070
    74
1070
     0
1000
MTEXTEND
  0
POINT
  5
821A
330
8210
100
AcDbEntity
  8
DEFPOINTS
 62
     0
100
AcDbPoint
 10
3249.004301064447
 20
1380.116393141435
 30
0.0
  0
POINT
  5
821B
330
8210
100
AcDbEntity
  8
DEFPOINTS
 62
     0
100
AcDbPoint
 10
3702.004301064448
 20
1380.116393141435
 30
0.0
  0
POINT
  5
821C
330
8210
100
AcDbEntity
  8
DEFPOINTS
 62
     0
100
AcDbPoint
 10
3702.004301064448
 20
1233.716389713538
 30
0.0
  0
ENDBLK
  5
8212
330
8210
100
AcDbEntity
  8
0
100
AcDbBlockEnd
  0
BLOCK
  5
821E
330
821D
100
AcDbEntity
  8
0
100
AcDbBlockBegin
  2
*D34
 70
     1
 10
0.0
 20
0.0
 30
0.0
  3
*D34
  1

  0
LINE
  5
8220
330
821D
100
AcDbEntity
  8
3
 62
     0
370
    -2
100
AcDbLine
 10
645.0152587659941
 20
1483.716393141435
 30
0.0
 11
645.0152587659941
 21
1515.573535998578
 31
0.0
  0
LINE
  5
8221
330
821D
100
AcDbEntity
  8
3
 62
     0
370
    -2
100
AcDbLine
 10
645.0152587659941
 20
1556.516393141435
 30
0.0
 11
645.0152587659941
 21
1524.659250284292
 31
0.0
  0
SOLID
  5
8222
330
821D
100
AcDbEntity
  8
3
 62
     0
100
AcDbTrace
 10
644.4152587659941
 20
1483.716393141435
 30
0.0
 11
645.6152587659941
 21
1483.716393141435
 31
0.0
 12
645.0152587659941
 22
1480.116393141435
 32
0.0
 13
645.0152587659941
 23
1480.116393141435
 33
0.0
  0
SOLID
  5
8223
330
821D
100
AcDbEntity
  8
3
 62
     0
100
AcDbTrace
 10
644.4152587659941
 20
1556.516393141435
 30
0.0
 11
645.6152587659941
 21
1556.516393141435
 31
0.0
 12
645.0152587659941
 22
1560.116393141435
 32
0.0
 13
645.0152587659941
 23
1560.116393141435
 33
0.0
  0
MTEXT
  5
8224
330
821D
100
AcDbEntity
  8
3
 62
     0
100
AcDbMText
 10
645.0152587659938
 20
1520.116393141435
 30
0.0
 40
3.599999999999999
 41
0.0
 71
     5
 72
     1
  1
\A1;(80)
 73
     1
 44
1.0
1001
ACAD
1000
MTEXTBEGIN
1070
    73
1070
     1
1070
    44
1040
1.0
1070
    74
1070
     0
1000
MTEXTEND
  0
POINT
  5
8225
330
821D
100
AcDbEntity
  8
DEFPOINTS
 62
     0
100
AcDbPoint
 10
900.6512540100018
 20
1480.116393141435
 30
0.0
  0
POINT
  5
8226
330
821D
100
AcDbEntity
  8
DEFPOINTS
 62
     0
100
AcDbPoint
 10
900.6512540100018
 20
1560.116393141435
 30
0.0
  0
POINT
  5
8227
330
821D
100
AcDbEntity
  8
DEFPOINTS
 62
     0
100
AcDbPoint
 10
645.0152587659941
 20
1560.116393141435
 30
0.0
  0
ENDBLK
  5
821F
330
821D
100
AcDbEntity
  8
0
100
AcDbBlockEnd
  0
BLOCK
  5
8229
330
8228
100
AcDbEntity
  8
0
100
AcDbBlockBegin
  2
*D35
 70
     1
 10
0.0
 20
0.0
 30
0.0
  3
*D35
  1

  0
LINE
  5
822B
330
8228
100
AcDbEntity
  8
3
 62
     0
370
    -2
100
AcDbLine
 10
880.6512540100017
 20
1380.116393141435
 30
0.0
 11
458.8099822280183
 21
1380.116393141435
 31
0.0
  0
LINE
  5
822C
330
8228
100
AcDbEntity
  8
3
 62
     0
370
    -2
100
AcDbLine
 10
1266.651254010002
 20
2600.116393141435
 30
0.0
 11
458.8099822280184
 21
2600.116393141436
 31
0.0
  0
LINE
  5
822D
330
8228
100
AcDbEntity
  8
3
 62
     0
370
    -2
100
AcDbLine
 10
462.4099822280182
 20
1383.716393141435
 30
0.0
 11
462.4099822280184
 21
1985.573535998578
 31
0.0
  0
LINE
  5
822E
330
8228
100
AcDbEntity
  8
3
 62
     0
370
    -2
100
AcDbLine
 10
462.4099822280185
 20
2596.516393141436
 30
0.0
 11
462.4099822280184
 21
1994.659250284292
 31
0.0
  0
SOLID
  5
822F
330
8228
100
AcDbEntity
  8
3
 62
     0
100
AcDbTrace
 10
461.8099822280182
 20
1383.716393141435
 30
0.0
 11
463.0099822280183
 21
1383.716393141435
 31
0.0
 12
462.4099822280182
 22
1380.116393141435
 32
0.0
 13
462.4099822280182
 23
1380.116393141435
 33
0.0
  0
SOLID
  5
8230
330
8228
100
AcDbEntity
  8
3
 62
     0
100
AcDbTrace
 10
461.8099822280185
 20
2596.516393141436
 30
0.0
 11
463.0099822280185
 21
2596.516393141436
 31
0.0
 12
462.4099822280185
 22
2600.116393141436
 32
0.0
 13
462.4099822280185
 23
2600.116393141436
 33
0.0
  0
MTEXT
  5
8231
330
8228
100
AcDbEntity
  8
3
 62
     0
100
AcDbMText
 10
462.4099822280181
 20
1990.116393141435
 30
0.0
 40
3.599999999999999
 41
0.0
 71
     5
 72
     1
  1
\A1;(1220)
 73
     1
 44
1.0
1001
ACAD
1000
MTEXTBEGIN
1070
    73
1070
     1
1070
    44
1040
1.0
1070
    74
1070
     0
1000
MTEXTEND
  0
POINT
  5
8232
330
8228
100
AcDbEntity
  8
DEFPOINTS
 62
     0
100
AcDbPoint
 10
900.6512540100018
 20
1380.116393141435
 30
0.0
  0
POINT
  5
8233
330
8228
100
AcDbEntity
  8
DEFPOINTS
 62
     0
100
AcDbPoint
 10
1286.651254010002
 20
2600.116393141435
 30
0.0
  0
POINT
  5
8234
330
8228
100
AcDbEntity
  8
DEFPOINTS
 62
     0
100
AcDbPoint
 10
462.4099822280185
 20
2600.116393141436
 30
0.0
  0
ENDBLK
  5
822A
330
8228
100
AcDbEntity
  8
0
100
AcDbBlockEnd
  0
BLOCK
  5
8236
330
8235
100
AcDbEntity
  8
0
100
AcDbBlockBegin
  2
*D36
 70
     1
 10
0.0
 20
0.0
 30
0.0
  3
*D36
  1

  0
LINE
  5
8238
330
8235
100
AcDbEntity
  8
3
 62
     0
370
    -2
100
AcDbLine
 10
899.4012540100017
 20
1480.116393141435
 30
0.0
 11
643.340960066795
 21
1480.116393141435
 31
0.0
  0
LINE
  5
8239
330
8235
100
AcDbEntity
  8
3
 62
     0
370
    -2
100
AcDbLine
 10
899.4012540100017
 20
1380.116393141435
 30
0.0
 11
643.340960066795
 21
1380.116393141435
 31
0.0
  0
LINE
  5
823A
330
8235
100
AcDbEntity
  8
3
 62
     0
370
    -2
100
AcDbLine
 10
646.940960066795
 20
1476.516393141435
 30
0.0
 11
646.940960066795
 21
1433.716393141435
 31
0.0
  0
LINE
  5
823B
330
8235
100
AcDbEntity
  8
3
 62
     0
370
    -2
100
AcDbLine
 10
646.940960066795
 20
1383.716393141435
 30
0.0
 11
646.940960066795
 21
1426.516393141435
 31
0.0
  0
SOLID
  5
823C
330
8235
100
AcDbEntity
  8
3
 62
     0
100
AcDbTrace
 10
646.340960066795
 20
1476.516393141435
 30
0.0
 11
647.540960066795
 21
1476.516393141435
 31
0.0
 12
646.940960066795
 22
1480.116393141435
 32
0.0
 13
646.940960066795
 23
1480.116393141435
 33
0.0
  0
SOLID
  5
823D
330
8235
100
AcDbEntity
  8
3
 62
     0
100
AcDbTrace
 10
646.340960066795
 20
1383.716393141435
 30
0.0
 11
647.540960066795
 21
1383.716393141435
 31
0.0
 12
646.940960066795
 22
1380.116393141435
 32
0.0
 13
646.940960066795
 23
1380.116393141435
 33
0.0
  0
MTEXT
  5
823E
330
8235
100
AcDbEntity
  8
3
 62
     0
100
AcDbMText
 10
646.9409600667948
 20
1430.116393141435
 30
0.0
 40
3.599999999999999
 41
0.0
 71
     5
 72
     1
  1
\A1;100
 73
     1
 44
1.0
1001
ACAD
1000
MTEXTBEGIN
1070
    73
1070
     1
1070
    44
1040
1.0
1070
    74
1070
     0
1000
MTEXTEND
  0
POINT
  5
823F
330
8235
100
AcDbEntity
  8
DEFPOINTS
 62
     0
100
AcDbPoint
 10
900.6512540100018
 20
1480.116393141435
 30
0.0
  0
POINT
  5
8240
330
8235
100
AcDbEntity
  8
DEFPOINTS
 62
     0
100
AcDbPoint
 10
900.6512540100018
 20
1380.116393141435
 30
0.0
  0
POINT
  5
8241
330
8235
100
AcDbEntity
  8
DEFPOINTS
 62
     0
100
AcDbPoint
 10
646.940960066795
 20
1380.116393141435
 30
0.0
  0
ENDBLK
  5
8237
330
8235
100
AcDbEntity
  8
0
100
AcDbBlockEnd
  0
BLOCK
  5
8244
330
8243
100
AcDbEntity
  8
0
100
AcDbBlockBegin
  2
*D37
 70
     1
 10
0.0
 20
0.0
 30
0.0
  3
*D37
  1

  0
LINE
  5
8246
330
8243
100
AcDbEntity
  8
3
 62
     0
370
    -2
100
AcDbLine
 10
900.6512540100018
 20
1360.116393141435
 30
0.0
 11
900.6512540100018
 21
1230.598580933156
 31
0.0
  0
LINE
  5
8247
330
8243
100
AcDbEntity
  8
3
 62
     0
370
    -2
100
AcDbLine
 10
1300.651254010001
 20
1360.116393141435
 30
0.0
 11
1300.651254010001
 21
1230.598580933156
 31
0.0
  0
LINE
  5
8248
330
8243
100
AcDbEntity
  8
3
 62
     0
370
    -2
100
AcDbLine
 10
940.6512540100019
 20
1250.598580933156
 30
0.0
 11
1260.65125401
 21
1250.598580933156
 31
0.0
  0
INSERT
  5
8249
330
8243
100
AcDbEntity
  8
3
 62
     0
370
    -2
100
AcDbBlockReference
  2
_OPEN
 10
900.6512540100018
 20
1250.598580933156
 30
0.0
 41
40.0
 42
40.0
 43
40.0
 50
180.0
  0
INSERT
  5
824A
330
8243
100
AcDbEntity
  8
3
 62
     0
370
    -2
100
AcDbBlockReference
  2
_OPEN
 10
1300.651254010001
 20
1250.598580933156
 30
0.0
 41
40.0
 42
40.0
 43
40.0
  0
MTEXT
  5
824B
330
8243
100
AcDbEntity
  8
3
 62
     0
100
AcDbMText
 10
1100.651254010001
 20
1300.598580933156
 30
0.0
 40
60.0
 41
0.0
 71
     5
 72
     1
  1
\A1;400
 73
     1
 44
1.0
1001
ACAD
1000
MTEXTBEGIN
1070
    73
1070
     1
1070
    44
1040
1.0
1070
    74
1070
     0
1000
MTEXTEND
  0
POINT
  5
824C
330
8243
100
AcDbEntity
  8
DEFPOINTS
 62
     0
100
AcDbPoint
 10
900.6512540100018
 20
1380.116393141435
 30
0.0
  0
POINT
  5
824D
330
8243
100
AcDbEntity
  8
DEFPOINTS
 62
     0
100
AcDbPoint
 10
1300.651254010001
 20
1380.116393141435
 30
0.0
  0
POINT
  5
824E
330
8243
100
AcDbEntity
  8
DEFPOINTS
 62
     0
100
AcDbPoint
 10
1300.651254010001
 20
1250.598580933156
 30
0.0
  0
ENDBLK
  5
8245
330
8243
100
AcDbEntity
  8
0
100
AcDbBlockEnd
  0
BLOCK
  5
8251
330
8250
100
AcDbEntity
  8
0
100
AcDbBlockBegin
  2
*D38
 70
     1
 10
0.0
 20
0.0
 30
0.0
  3
*D38
  1

  0
LINE
  5
8253
330
8250
100
AcDbEntity
  8
3
 62
     0
370
    -2
100
AcDbLine
 10
1300.651254010001
 20
1360.116393141435
 30
0.0
 11
1300.651254010001
 21
1230.598580933156
 31
0.0
  0
LINE
  5
8254
330
8250
100
AcDbEntity
  8
3
 62
     0
370
    -2
100
AcDbLine
 10
2350.651254010002
 20
1360.116393141435
 30
0.0
 11
2350.651254010002
 21
1230.598580933156
 31
0.0
  0
LINE
  5
8255
330
8250
100
AcDbEntity
  8
3
 62
     0
370
    -2
100
AcDbLine
 10
1340.651254010001
 20
1250.598580933156
 30
0.0
 11
2310.651254010002
 21
1250.598580933156
 31
0.0
  0
INSERT
  5
8256
330
8250
100
AcDbEntity
  8
3
 62
     0
370
    -2
100
AcDbBlockReference
  2
_OPEN
 10
1300.651254010001
 20
1250.598580933156
 30
0.0
 41
40.0
 42
40.0
 43
40.0
 50
180.0
  0
INSERT
  5
8257
330
8250
100
AcDbEntity
  8
3
 62
     0
370
    -2
100
AcDbBlockReference
  2
_OPEN
 10
2350.651254010002
 20
1250.598580933156
 30
0.0
 41
40.0
 42
40.0
 43
40.0
  0
MTEXT
  5
8258
330
8250
100
AcDbEntity
  8
3
 62
     0
100
AcDbMText
 10
1825.651254010001
 20
1300.598580933156
 30
0.0
 40
60.0
 41
0.0
 71
     5
 72
     1
  1
\A1;1050
 73
     1
 44
1.0
1001
ACAD
1000
MTEXTBEGIN
1070
    73
1070
     1
1070
    44
1040
1.0
1070
    74
1070
     0
1000
MTEXTEND
  0
POINT
  5
8259
330
8250
100
AcDbEntity
  8
DEFPOINTS
 62
     0
100
AcDbPoint
 10
1300.651254010001
 20
1380.116393141435
 30
0.0
  0
POINT
  5
825A
330
8250
100
AcDbEntity
  8
DEFPOINTS
 62
     0
100
AcDbPoint
 10
2350.651254010002
 20
1380.116393141435
 30
0.0
  0
POINT
  5
825B
330
8250
100
AcDbEntity
  8
DEFPOINTS
 62
     0
100
AcDbPoint
 10
2350.651254010002
 20
1250.598580933156
 30
0.0
  0
ENDBLK
  5
8252
330
8250
100
AcDbEntity
  8
0
100
AcDbBlockEnd
  0
BLOCK
  5
825E
330
825D
100
AcDbEntity
  8
0
100
AcDbBlockBegin
  2
*D39
 70
     1
 10
0.0
 20
0.0
 30
0.0
  3
*D39
  1

  0
LINE
  5
8260
330
825D
100
AcDbEntity
  8
3
 62
     0
370
    -2
100
AcDbLine
 10
2696.004301064448
 20
1360.116393141435
 30
0.0
 11
2696.004301064448
 21
1230.598580933156
 31
0.0
  0
LINE
  5
8261
330
825D
100
AcDbEntity
  8
3
 62
     0
370
    -2
100
AcDbLine
 10
3249.004301064447
 20
1360.116393141435
 30
0.0
 11
3249.004301064447
 21
1230.598580933156
 31
0.0
  0
LINE
  5
8262
330
825D
100
AcDbEntity
  8
3
 62
     0
370
    -2
100
AcDbLine
 10
2736.004301064448
 20
1250.598580933156
 30
0.0
 11
3209.004301064447
 21
1250.598580933156
 31
0.0
  0
INSERT
  5
8263
330
825D
100
AcDbEntity
  8
3
 62
     0
370
    -2
100
AcDbBlockReference
  2
_OPEN
 10
2696.004301064448
 20
1250.598580933156
 30
0.0
 41
40.0
 42
40.0
 43
40.0
 50
180.0
  0
INSERT
  5
8264
330
825D
100
AcDbEntity
  8
3
 62
     0
370
    -2
100
AcDbBlockReference
  2
_OPEN
 10
3249.004301064447
 20
1250.598580933156
 30
0.0
 41
40.0
 42
40.0
 43
40.0
  0
MTEXT
  5
8265
330
825D
100
AcDbEntity
  8
3
 62
     0
100
AcDbMText
 10
2972.504301064448
 20
1300.598580933156
 30
0.0
 40
60.0
 41
0.0
 71
     5
 72
     1
  1
\A1;553
 73
     1
 44
1.0
1001
ACAD
1000
MTEXTBEGIN
1070
    73
1070
     1
1070
    44
1040
1.0
1070
    74
1070
     0
1000
MTEXTEND
  0
POINT
  5
8266
330
825D
100
AcDbEntity
  8
DEFPOINTS
 62
     0
100
AcDbPoint
 10
2696.004301064448
 20
1380.116393141435
 30
0.0
  0
POINT
  5
8267
330
825D
100
AcDbEntity
  8
DEFPOINTS
 62
     0
100
AcDbPoint
 10
3249.004301064447
 20
1380.116393141435
 30
0.0
  0
POINT
  5
8268
330
825D
100
AcDbEntity
  8
DEFPOINTS
 62
     0
100
AcDbPoint
 10
3249.004301064447
 20
1250.598580933156
 30
0.0
  0
ENDBLK
  5
825F
330
825D
100
AcDbEntity
  8
0
100
AcDbBlockEnd
  0
BLOCK
  5
826B
330
826A
100
AcDbEntity
  8
0
100
AcDbBlockBegin
  2
*D40
 70
     1
 10
0.0
 20
0.0
 30
0.0
  3
*D40
  1

  0
LINE
  5
826D
330
826A
100
AcDbEntity
  8
3
 62
     0
370
    -2
100
AcDbLine
 10
3249.004301064447
 20
1360.116393141435
 30
0.0
 11
3249.004301064447
 21
1230.598580933156
 31
0.0
  0
LINE
  5
826E
330
826A
100
AcDbEntity
  8
3
 62
     0
370
    -2
100
AcDbLine
 10
3702.004301064448
 20
1360.116393141435
 30
0.0
 11
3702.004301064448
 21
1230.598580933156
 31
0.0
  0
LINE
  5
826F
330
826A
100
AcDbEntity
  8
3
 62
     0
370
    -2
100
AcDbLine
 10
3289.004301064448
 20
1250.598580933156
 30
0.0
 11
3662.004301064448
 21
1250.598580933156
 31
0.0
  0
INSERT
  5
8270
330
826A
100
AcDbEntity
  8
3
 62
     0
370
    -2
100
AcDbBlockReference
  2
_OPEN
 10
3249.004301064447
 20
1250.598580933156
 30
0.0
 41
40.0
 42
40.0
 43
40.0
 50
180.0
  0
INSERT
  5
8271
330
826A
100
AcDbEntity
  8
3
 62
     0
370
    -2
100
AcDbBlockReference
  2
_OPEN
 10
3702.004301064448
 20
1250.598580933156
 30
0.0
 41
40.0
 42
40.0
 43
40.0
  0
MTEXT
  5
8272
330
826A
100
AcDbEntity
  8
3
 62
     0
100
AcDbMText
 10
3475.504301064448
 20
1300.598580933156
 30
0.0
 40
60.0
 41
0.0
 71
     5
 72
     1
  1
\A1;453
 73
     1
 44
1.0
1001
ACAD
1000
MTEXTBEGIN
1070
    73
1070
     1
1070
    44
1040
1.0
1070
    74
1070
     0
1000
MTEXTEND
  0
POINT
  5
8273
330
826A
100
AcDbEntity
  8
DEFPOINTS
 62
     0
100
AcDbPoint
 10
3249.004301064447
 20
1380.116393141435
 30
0.0
  0
POINT
  5
8274
330
826A
100
AcDbEntity
  8
DEFPOINTS
 62
     0
100
AcDbPoint
 10
3702.004301064448
 20
1380.116393141435
 30
0.0
  0
POINT
  5
8275
330
826A
100
AcDbEntity
  8
DEFPOINTS
 62
     0
100
AcDbPoint
 10
3702.004301064448
 20
1250.598580933156
 30
0.0
  0
ENDBLK
  5
826C
330
826A
100
AcDbEntity
  8
0
100
AcDbBlockEnd
  0
BLOCK
  5
8278
330
8277
100
AcDbEntity
  8
0
100
AcDbBlockBegin
  2
*D41
 70
     1
 10
0.0
 20
0.0
 30
0.0
  3
*D41
  1

  0
LINE
  5
82D1
330
8277
100
AcDbEntity
  8
3
 62
     0
370
    -2
100
AcDbLine
 10
773.7582809070062
 20
2140.116393141436
 30
0.0
 11
626.9409600667951
 21
2140.116393141436
 31
0.0
  0
LINE
  5
82D2
330
8277
100
AcDbEntity
  8
3
 62
     0
370
    -2
100
AcDbLine
 10
880.6512540100017
 20
1560.116393141435
 30
0.0
 11
626.940960066795
 21
1560.116393141435
 31
0.0
  0
LINE
  5
82D3
330
8277
100
AcDbEntity
  8
3
 62
     0
370
    -2
100
AcDbLine
 10
646.9409600667951
 20
2100.116393141436
 30
0.0
 11
646.940960066795
 21
1600.116393141435
 31
0.0
  0
INSERT
  5
82D4
330
8277
100
AcDbEntity
  8
3
 62
     0
370
    -2
100
AcDbBlockReference
  2
_OPEN
 10
646.9409600667951
 20
2140.116393141436
 30
0.0
 41
40.0
 42
40.0
 43
40.0
 50
90.0
  0
INSERT
  5
82D5
330
8277
100
AcDbEntity
  8
3
 62
     0
370
    -2
100
AcDbBlockReference
  2
_OPEN
 10
646.940960066795
 20
1560.116393141435
 30
0.0
 41
40.0
 42
40.0
 43
40.0
 50
270.0
  0
MTEXT
  5
82D6
330
8277
100
AcDbEntity
  8
3
 62
     0
100
AcDbMText
 10
596.9409600667948
 20
1850.116393141435
 30
0.0
 40
60.0
 41
0.0
 71
     5
 72
     1
  1
\A1;580
 11
0.0000000000000001
 21
1.0
 31
0.0
 73
     1
 44
1.0
1001
ACAD
1000
MTEXTBEGIN
1070
    73
1070
     1
1070
    44
1040
1.0
1070
    74
1070
     0
1000
MTEXTEND
  0
POINT
  5
82D7
330
8277
100
AcDbEntity
  8
DEFPOINTS
 62
     0
100
AcDbPoint
 10
793.7582809070062
 20
2140.116393141436
 30
0.0
  0
POINT
  5
82D8
330
8277
100
AcDbEntity
  8
DEFPOINTS
 62
     0
100
AcDbPoint
 10
900.6512540100018
 20
1560.116393141435
 30
0.0
  0
POINT
  5
82D9
330
8277
100
AcDbEntity
  8
DEFPOINTS
 62
     0
100
AcDbPoint
 10
646.940960066795
 20
1560.116393141435
 30
0.0
  0
ENDBLK
  5
8279
330
8277
100
AcDbEntity
  8
0
100
AcDbBlockEnd
  0
BLOCK
  5
8285
330
8284
100
AcDbEntity
  8
0
100
AcDbBlockBegin
  2
*D42
 70
     1
 10
0.0
 20
0.0
 30
0.0
  3
*D42
  1

  0
LINE
  5
8360
330
8284
100
AcDbEntity
  8
3
 62
     0
370
    -2
100
AcDbLine
 10
880.6512540100017
 20
1560.116393141435
 30
0.0
 11
626.940960066795
 21
1560.116393141435
 31
0.0
  0
LINE
  5
8361
330
8284
100
AcDbEntity
  8
3
 62
     0
370
    -2
100
AcDbLine
 10
880.6512540100017
 20
1480.116393141435
 30
0.0
 11
626.940960066795
 21
1480.116393141435
 31
0.0
  0
LINE
  5
8362
330
8284
100
AcDbEntity
  8
3
 62
     0
370
    -2
100
AcDbLine
 10
646.940960066795
 20
1520.116393141435
 30
0.0
 11
646.940960066795
 21
1480.116393141435
 31
0.0
  0
MTEXT
  5
8363
330
8284
100
AcDbEntity
  8
3
 62
     0
100
AcDbMText
 10
581.2266743525093
 20
1520.116393141435
 30
0.0
 40
60.0
 41
0.0
 71
     5
 72
     1
  1
\A1;(80)
 11
0.0000000000000001
 21
1.0
 31
0.0
 73
     1
 44
1.0
1001
ACAD
1000
MTEXTBEGIN
1070
    73
1070
     1
1070
    44
1040
1.0
1070
    74
1070
     0
1000
MTEXTEND
  0
INSERT
  5
8364
330
8284
100
AcDbEntity
  8
3
 62
     0
370
    -2
100
AcDbBlockReference
  2
_OPEN
 10
646.940960066795
 20
1560.116393141435
 30
0.0
 41
40.0
 42
40.0
 43
40.0
 50
90.0
  0
INSERT
  5
8365
330
8284
100
AcDbEntity
  8
3
 62
     0
370
    -2
100
AcDbBlockReference
  2
_DotSmall
 10
646.940960066795
 20
1480.116393141435
 30
0.0
 41
40.0
 42
40.0
 43
40.0
 50
270.0
  0
POINT
  5
8366
330
8284
100
AcDbEntity
  8
DEFPOINTS
 62
     0
100
AcDbPoint
 10
900.6512540100018
 20
1560.116393141435
 30
0.0
  0
POINT
  5
8367
330
8284
100
AcDbEntity
  8
DEFPOINTS
 62
     0
100
AcDbPoint
 10
900.6512540100018
 20
1480.116393141435
 30
0.0
  0
POINT
  5
8368
330
8284
100
AcDbEntity
  8
DEFPOINTS
 62
     0
100
AcDbPoint
 10
646.940960066795
 20
1480.116393141435
 30
0.0
  0
ENDBLK
  5
8286
330
8284
100
AcDbEntity
  8
0
100
AcDbBlockEnd
  0
BLOCK
  5
8297
330
8296
100
AcDbEntity
  8
0
100
AcDbBlockBegin
  2
*D43
 70
     1
 10
0.0
 20
0.0
 30
0.0
  3
*D43
  1

  0
LINE
  5
83B5
330
8296
100
AcDbEntity
  8
3
 62
     0
370
    -2
100
AcDbLine
 10
880.6512540100017
 20
1480.116393141435
 30
0.0
 11
626.940960066795
 21
1480.116393141435
 31
0.0
  0
LINE
  5
83B6
330
8296
100
AcDbEntity
  8
3
 62
     0
370
    -2
100
AcDbLine
 10
880.6512540100017
 20
1380.116393141435
 30
0.0
 11
626.940960066795
 21
1380.116393141435
 31
0.0
  0
LINE
  5
83B7
330
8296
100
AcDbEntity
  8
3
 62
     0
370
    -2
100
AcDbLine
 10
646.940960066795
 20
1480.116393141435
 30
0.0
 11
646.940960066795
 21
1420.116393141435
 31
0.0
  0
MTEXT
  5
83B8
330
8296
100
AcDbEntity
  8
3
 62
     0
100
AcDbMText
 10
587.9005634515488
 20
1278.698792083154
 30
0.0
 40
60.0
 41
0.0
 71
     5
 72
     1
  1
\A1;100
 11
0.0000000000000001
 21
1.0
 31
0.0
 73
     1
 44
1.0
1001
ACAD
1000
MTEXTBEGIN
1070
    73
1070
     1
1070
    44
1040
1.0
1070
    74
1070
     0
1000
MTEXTEND
  0
INSERT
  5
83B9
330
8296
100
AcDbEntity
  8
3
 62
     0
370
    -2
100
AcDbBlockReference
  2
_DotSmall
 10
646.940960066795
 20
1480.116393141435
 30
0.0
 41
40.0
 42
40.0
 43
40.0
 50
90.0
  0
INSERT
  5
83BA
330
8296
100
AcDbEntity
  8
3
 62
     0
370
    -2
100
AcDbBlockReference
  2
_OPEN
 10
646.940960066795
 20
1380.116393141435
 30
0.0
 41
40.0
 42
40.0
 43
40.0
 50
270.0
  0
POINT
  5
83BB
330
8296
100
AcDbEntity
  8
DEFPOINTS
 62
     0
100
AcDbPoint
 10
900.6512540100018
 20
1480.116393141435
 30
0.0
  0
POINT
  5
83BC
330
8296
100
AcDbEntity
  8
DEFPOINTS
 62
     0
100
AcDbPoint
 10
900.6512540100018
 20
1380.116393141435
 30
0.0
  0
POINT
  5
83BD
330
8296
100
AcDbEntity
  8
DEFPOINTS
 62
     0
100
AcDbPoint
 10
646.940960066795
 20
1380.116393141435
 30
0.0
  0
ENDBLK
  5
8298
330
8296
100
AcDbEntity
  8
0
100
AcDbBlockEnd
  0
BLOCK
  5
835E
330
835C
100
AcDbEntity
  8
0
100
AcDbBlockBegin
  2
_DotSmall
 70
     0
 10
0.0
 20
0.0
 30
0.0
  3
_DotSmall
  1

  0
LWPOLYLINE
  5
835D
330
835C
100
AcDbEntity
  8
0
  6
ByBlock
 62
     0
100
AcDbPolyline
 90
        2
 70
     1
 43
0.5
 10
-0.0625
 20
0.0
 42
1.0
 10
0.0625
 20
0.0
 42
1.0
  0
ENDBLK
  5
835F
330
835C
100
AcDbEntity
  8
0
100
AcDbBlockEnd
  0
BLOCK
  5
83C0
330
83BF
100
AcDbEntity
  8
0
100
AcDbBlockBegin
  2
*D45
 70
     1
 10
0.0
 20
0.0
 30
0.0
  3
*D45
  1

  0
LINE
  5
83D4
330
83BF
100
AcDbEntity
  8
3
 62
     0
370
    -2
100
AcDbLine
 10
880.6512540100017
 20
1380.116393141435
 30
0.0
 11
464.6108100890704
 21
1380.116393141435
 31
0.0
  0
LINE
  5
83D5
330
83BF
100
AcDbEntity
  8
3
 62
     0
370
    -2
100
AcDbLine
 10
1266.651254010002
 20
2600.116393141435
 30
0.0
 11
464.6108100890707
 21
2600.116393141436
 31
0.0
  0
LINE
  5
83D6
330
83BF
100
AcDbEntity
  8
3
 62
     0
370
    -2
100
AcDbLine
 10
484.6108100890704
 20
1420.116393141436
 30
0.0
 11
484.6108100890707
 21
2560.116393141436
 31
0.0
  0
INSERT
  5
83D7
330
83BF
100
AcDbEntity
  8
3
 62
     0
370
    -2
100
AcDbBlockReference
  2
_OPEN
 10
484.6108100890703
 20
1380.116393141435
 30
0.0
 41
40.0
 42
40.0
 43
40.0
 50
270.0
  0
INSERT
  5
83D8
330
83BF
100
AcDbEntity
  8
3
 62
     0
370
    -2
100
AcDbBlockReference
  2
_OPEN
 10
484.6108100890707
 20
2600.116393141436
 30
0.0
 41
40.0
 42
40.0
 43
40.0
 50
90.0
  0
MTEXT
  5
83D9
330
83BF
100
AcDbEntity
  8
3
 62
     0
100
AcDbMText
 10
418.8965243747845
 20
1990.116393141435
 30
0.0
 40
60.0
 41
0.0
 71
     5
 72
     1
  1
\A1;(1220)
 11
0.0000000000000001
 21
1.0
 31
0.0
 73
     1
 44
1.0
1001
ACAD
1000
MTEXTBEGIN
1070
    73
1070
     1
1070
    44
1040
1.0
1070
    74
1070
     0
1000
MTEXTEND
  0
POINT
  5
83DA
330
83BF
100
AcDbEntity
  8
DEFPOINTS
 62
     0
100
AcDbPoint
 10
900.6512540100018
 20
1380.116393141435
 30
0.0
  0
POINT
  5
83DB
330
83BF
100
AcDbEntity
  8
DEFPOINTS
 62
     0
100
AcDbPoint
 10
1286.651254010002
 20
2600.116393141435
 30
0.0
  0
POINT
  5
83DC
330
83BF
100
AcDbEntity
  8
DEFPOINTS
 62
     0
100
AcDbPoint
 10
484.6108100890707
 20
2600.116393141436
 30
0.0
  0
ENDBLK
  5
83C1
330
83BF
100
AcDbEntity
  8
0
100
AcDbBlockEnd
  0
BLOCK
  5
83E5
330
83E4
100
AcDbEntity
  8
0
100
AcDbBlockBegin
  2
*D47
 70
     1
 10
0.0
 20
0.0
 30
0.0
  3
*D47
  1

  0
LINE
  5
83F0
330
83E4
100
AcDbEntity
  8
3
 62
     0
370
    -2
100
AcDbLine
 10
1300.651254010002
 20
2665.040613710919
 30
0.0
 11
1300.651254010002
 21
2919.618059262129
 31
0.0
  0
LINE
  5
83F1
330
83E4
100
AcDbEntity
  8
3
 62
     0
370
    -2
100
AcDbLine
 10
846.6512540100021
 20
2113.116393141435
 30
0.0
 11
846.6512540100021
 21
2919.618059262129
 31
0.0
  0
LINE
  5
83F2
330
83E4
100
AcDbEntity
  8
3
 62
     0
370
    -2
100
AcDbLine
 10
1260.651254010002
 20
2899.618059262129
 30
0.0
 11
886.6512540100019
 21
2899.618059262129
 31
0.0
  0
INSERT
  5
83F3
330
83E4
100
AcDbEntity
  8
3
 62
     0
370
    -2
100
AcDbBlockReference
  2
_OPEN
 10
1300.651254010002
 20
2899.618059262129
 30
0.0
 41
40.0
 42
40.0
 43
40.0
  0
INSERT
  5
83F4
330
83E4
100
AcDbEntity
  8
3
 62
     0
370
    -2
100
AcDbBlockReference
  2
_OPEN
 10
846.6512540100021
 20
2899.618059262129
 30
0.0
 41
40.0
 42
40.0
 43
40.0
 50
180.0
  0
MTEXT
  5
83F5
330
83E4
100
AcDbEntity
  8
3
 62
     0
100
AcDbMText
 10
1073.651254010002
 20
2949.618059262128
 30
0.0
 40
60.0
 41
0.0
 71
     5
 72
     1
  1
\A1;454
 73
     1
 44
1.0
1001
ACAD
1000
MTEXTBEGIN
1070
    73
1070
     1
1070
    44
1040
1.0
1070
    74
1070
     0
1000
MTEXTEND
  0
POINT
  5
83F6
330
83E4
100
AcDbEntity
  8
DEFPOINTS
 62
     0
100
AcDbPoint
 10
1300.651254010002
 20
2645.040613710918
 30
0.0
  0
POINT
  5
83F7
330
83E4
100
AcDbEntity
  8
DEFPOINTS
 62
     0
100
AcDbPoint
 10
846.6512540100021
 20
2093.116393141435
 30
0.0
  0
POINT
  5
83F8
330
83E4
100
AcDbEntity
  8
DEFPOINTS
 62
     0
100
AcDbPoint
 10
846.6512540100021
 20
2899.618059262129
 30
0.0
  0
ENDBLK
  5
83E6
330
83E4
100
AcDbEntity
  8
0
100
AcDbBlockEnd
  0
BLOCK
  5
83FB
330
83FA
100
AcDbEntity
  8
0
100
AcDbBlockBegin
  2
*D48
 70
     1
 10
0.0
 20
0.0
 30
0.0
  3
*D48
  1

  0
LINE
  5
83FD
330
83FA
100
AcDbEntity
  8
3
 62
     0
370
    -2
100
AcDbLine
 10
900.6512540100018
 20
3425.460569308627
 30
0.0
 11
900.6512540100018
 21
3087.157614857106
 31
0.0
  0
LINE
  5
83FE
330
83FA
100
AcDbEntity
  8
3
 62
     0
370
    -2
100
AcDbLine
 10
2350.651254010002
 20
3425.460569308626
 30
0.0
 11
2350.651254010002
 21
3087.157614857106
 31
0.0
  0
LINE
  5
83FF
330
83FA
100
AcDbEntity
  8
3
 62
     0
370
    -2
100
AcDbLine
 10
940.6512540100019
 20
3107.157614857106
 30
0.0
 11
2310.651254010002
 21
3107.157614857106
 31
0.0
  0
INSERT
  5
8400
330
83FA
100
AcDbEntity
  8
3
 62
     0
370
    -2
100
AcDbBlockReference
  2
_OPEN
 10
900.6512540100018
 20
3107.157614857106
 30
0.0
 41
40.0
 42
40.0
 43
40.0
 50
180.0
  0
INSERT
  5
8401
330
83FA
100
AcDbEntity
  8
3
 62
     0
370
    -2
100
AcDbBlockReference
  2
_OPEN
 10
2350.651254010002
 20
3107.157614857106
 30
0.0
 41
40.0
 42
40.0
 43
40.0
  0
MTEXT
  5
8402
330
83FA
100
AcDbEntity
  8
3
 62
     0
100
AcDbMText
 10
1625.651254010002
 20
3157.157614857106
 30
0.0
 40
60.0
 41
0.0
 71
     5
 72
     1
  1
\A1;1450
 73
     1
 44
1.0
1001
ACAD
1000
MTEXTBEGIN
1070
    73
1070
     1
1070
    44
1040
1.0
1070
    74
1070
     0
1000
MTEXTEND
  0
POINT
  5
8403
330
83FA
100
AcDbEntity
  8
DEFPOINTS
 62
     0
100
AcDbPoint
 10
900.6512540100018
 20
3445.460569308627
 30
0.0
  0
POINT
  5
8404
330
83FA
100
AcDbEntity
  8
DEFPOINTS
 62
     0
100
AcDbPoint
 10
2350.651254010002
 20
3445.460569308626
 30
0.0
  0
POINT
  5
8405
330
83FA
100
AcDbEntity
  8
DEFPOINTS
 62
     0
100
AcDbPoint
 10
2350.651254010002
 20
3107.157614857106
 30
0.0
  0
ENDBLK
  5
83FC
330
83FA
100
AcDbEntity
  8
0
100
AcDbBlockEnd
  0
BLOCK
  5
8408
330
8407
100
AcDbEntity
  8
0
100
AcDbBlockBegin
  2
*D49
 70
     1
 10
0.0
 20
0.0
 30
0.0
  3
*D49
  1

  0
LINE
  5
8413
330
8407
100
AcDbEntity
  8
3
 62
     0
370
    -2
100
AcDbLine
 10
1700.651254010002
 20
4471.460569308628
 30
0.0
 11
1700.651254010002
 21
4620.065859807033
 31
0.0
  0
LINE
  5
8414
330
8407
100
AcDbEntity
  8
3
 62
     0
370
    -2
100
AcDbLine
 10
2350.651254010002
 20
4065.460569308626
 30
0.0
 11
2350.651254010002
 21
4620.065859807033
 31
0.0
  0
LINE
  5
8415
330
8407
100
AcDbEntity
  8
3
 62
     0
370
    -2
100
AcDbLine
 10
1740.651254010002
 20
4600.065859807033
 30
0.0
 11
2310.651254010002
 21
4600.065859807033
 31
0.0
  0
INSERT
  5
8416
330
8407
100
AcDbEntity
  8
3
 62
     0
370
    -2
100
AcDbBlockReference
  2
_OPEN
 10
1700.651254010002
 20
4600.065859807033
 30
0.0
 41
40.0
 42
40.0
 43
40.0
 50
180.0
  0
INSERT
  5
8417
330
8407
100
AcDbEntity
  8
3
 62
     0
370
    -2
100
AcDbBlockReference
  2
_OPEN
 10
2350.651254010002
 20
4600.065859807033
 30
0.0
 41
40.0
 42
40.0
 43
40.0
  0
MTEXT
  5
8418
330
8407
100
AcDbEntity
  8
3
 62
     0
100
AcDbMText
 10
2025.651254010002
 20
4650.065859807033
 30
0.0
 40
60.0
 41
0.0
 71
     5
 72
     1
  1
\A1;650
 73
     1
 44
1.0
1001
ACAD
1000
MTEXTBEGIN
1070
    73
1070
     1
1070
    44
1040
1.0
1070
    74
1070
     0
1000
MTEXTEND
  0
POINT
  5
8419
330
8407
100
AcDbEntity
  8
DEFPOINTS
 62
     0
100
AcDbPoint
 10
1700.651254010002
 20
4451.460569308628
 30
0.0
  0
POINT
  5
841A
330
8407
100
AcDbEntity
  8
DEFPOINTS
 62
     0
100
AcDbPoint
 10
2350.651254010002
 20
4045.460569308627
 30
0.0
  0
POINT
  5
841B
330
8407
100
AcDbEntity
  8
DEFPOINTS
 62
     0
100
AcDbPoint
 10
2350.651254010002
 20
4600.065859807033
 30
0.0
  0
ENDBLK
  5
8409
330
8407
100
AcDbEntity
  8
0
100
AcDbBlockEnd
  0
ENDSEC
  0
SECTION
  2
ENTITIES
  0
INSERT
  5
7BEE
330
8138
100
AcDbEntity
  8
0
100
AcDbBlockReference
  2
YA_N
 10
6.0
 20
5.0
 30
0.0
  0
LINE
  5
7BF0
330
8138
100
AcDbEntity
  8
2
100
AcDbLine
 10
2043.916469967937
 20
2140.116393141436
 30
0.0
 11
793.7582809070062
 21
2140.116393141436
 31
0.0
  0
LINE
  5
7BF1
330
8138
100
AcDbEntity
  8
2
100
AcDbLine
 10
1300.651254010002
 20
2645.040613710918
 30
0.0
 11
1300.651254010001
 21
1380.116393141436
 31
0.0
  0
ARC
  5
7BF2
330
8138
100
AcDbEntity
  8
1
100
AcDbCircle
 10
1347.651254010002
 20
2187.116393141435
 30
0.0
 40
595.0
100
AcDbArc
 50
297.6604498993008
 51
355.4693949573174
  0
ARC
  5
7BF3
330
8138
100
AcDbEntity
  8
1
100
AcDbCircle
 10
1347.651254010002
 20
2093.116393141435
 30
0.0
 40
501.0
100
AcDbArc
 50
174.6170313501186
 51
239.7996190097055
  0
ARC
  5
7BF4
330
8138
100
AcDbEntity
  8
1
100
AcDbCircle
 10
1262.651254010002
 20
2102.116393141435
 30
0.0
 40
416.0
100
AcDbArc
 50
84.75894493870328
 51
174.7589449387032
  0
LINE
  5
7BF5
330
8138
100
AcDbEntity
  8
1
100
AcDbLine
 10
2020.651254010002
 20
2600.116393141435
 30
0.0
 11
1286.651254010002
 21
2600.116393141435
 31
0.0
  0
LINE
  5
7BF6
330
8138
100
AcDbEntity
  8
1
100
AcDbLine
 10
1978.65125401
 20
2600.116393141435
 30
0.0
 11
1940.792046739687
 21
2140.116393141436
 31
0.0
  0
LINE
  5
7BF7
330
8138
100
AcDbEntity
  8
1
100
AcDbLine
 10
1328.651254010002
 20
2517.077929640851
 30
0.0
 11
1328.651254010002
 21
2600.116393141435
 31
0.0
  0
LINE
  5
7BF8
330
8138
100
AcDbEntity
  8
1
100
AcDbLine
 10
1975.359149029974
 20
2560.116393141436
 30
0.0
 11
1328.651254010002
 21
2560.116393141436
 31
0.0
  0
LINE
  5
7BF9
330
8138
100
AcDbEntity
  8
1
100
AcDbLine
 10
2020.651254010002
 20
2597.116393141436
 30
0.0
 11
2020.651254010002
 21
2600.116393141435
 31
0.0
  0
LINE
  5
7BFA
330
8138
100
AcDbEntity
  8
1
100
AcDbLine
 10
1286.651254010002
 20
2597.116393141436
 30
0.0
 11
1286.651254010002
 21
2600.116393141435
 31
0.0
  0
LINE
  5
7BFB
330
8138
100
AcDbEntity
  8
1
100
AcDbLine
 10
2020.651254010002
 20
2597.116393141436
 30
0.0
 11
1286.651254010002
 21
2597.116393141436
 31
0.0
  0
LINE
  5
7BFC
330
8138
100
AcDbEntity
  8
2
100
AcDbLine
 10
3249.004301064449
 20
2690.834235693546
 30
0.0
 11
3249.004301064447
 21
1380.116393141435
 31
0.0
  0
LINE
  5
7BFD
330
8138
100
AcDbEntity
  8
2
100
AcDbLine
 10
2467.004301064447
 20
2140.116393141436
 30
0.0
 11
3754.675975686597
 21
2140.116393141436
 31
0.0
  0
LINE
  5
7BFE
330
8138
100
AcDbEntity
  8
1
100
AcDbLine
 10
3702.004301064448
 20
1660.116393141436
 30
0.0
 11
3702.004301064448
 21
1654.64626192825
 31
0.0
  0
LINE
  5
7BFF
330
8138
100
AcDbEntity
  8
1
100
AcDbLine
 10
3649.004301064449
 20
2600.116393141435
 30
0.0
 11
3649.004301064449
 21
2168.116393141435
 31
0.0
  0
LINE
  5
7C00
330
8138
100
AcDbEntity
  8
1
100
AcDbLine
 10
2809.004301064447
 20
2600.116393141435
 30
0.0
 11
3689.004301064449
 21
2600.116393141435
 31
0.0
  0
LINE
  5
7C01
330
8138
100
AcDbEntity
  8
1
100
AcDbLine
 10
3649.004301064449
 20
2168.116393141435
 30
0.0
 11
3649.004301064449
 21
1660.116393141436
 31
0.0
  0
LINE
  5
7C02
330
8138
100
AcDbEntity
  8
2
100
AcDbLine
 10
1300.651254010002
 20
4479.25865581345
 30
0.0
 11
1300.651254010002
 21
3194.90728603693
 31
0.0
  0
LINE
  5
7C03
330
8138
100
AcDbEntity
  8
2
100
AcDbLine
 10
1902.49910370882
 20
3998.460569308628
 30
0.0
 11
791.1407193261784
 21
3998.460569308628
 31
0.0
  0
INSERT
  5
7C04
330
8138
100
AcDbEntity
  8
0
100
AcDbBlockReference
  2
YA_N
 10
-1221.011981710642
 20
-542.7332483964637
 30
0.0
 41
15.0
 42
15.0
 43
15.0
  0
LINE
  5
7C06
330
8138
100
AcDbEntity
  8
1
100
AcDbLine
 10
2350.651254010002
 20
1380.116393141435
 30
0.0
 11
900.6512540100018
 21
1380.116393141435
 31
0.0
  0
LINE
  5
7C07
330
8138
100
AcDbEntity
  8
1
100
AcDbLine
 10
2350.651254010002
 20
1480.116393141435
 30
0.0
 11
900.6512540100018
 21
1480.116393141435
 31
0.0
1001
ACAD
1000
ASC_BOUNDS
1002
{
1070
    19
1005
0
1005
0
1002
}
  0
LINE
  5
7C08
330
8138
100
AcDbEntity
  8
1
100
AcDbLine
 10
2350.651254010002
 20
1480.116393141435
 30
0.0
 11
2350.651254010002
 21
1380.116393141435
 31
0.0
  0
LINE
  5
7C09
330
8138
100
AcDbEntity
  8
1
100
AcDbLine
 10
900.6512540100018
 20
1480.116393141435
 30
0.0
 11
900.6512540100018
 21
1380.116393141435
 31
0.0
  0
ARC
  5
7C0A
330
8138
100
AcDbEntity
  8
1
100
AcDbCircle
 10
2150.651254010002
 20
1877.116393141435
 30
0.0
 40
142.5
100
AcDbArc
 50
180.0
 51
213.0338076719878
  0
ARC
  5
7C0B
330
8138
100
AcDbEntity
  8
1
100
AcDbCircle
 10
2150.651254010002
 20
1877.116393141435
 30
0.0
 40
142.5
100
AcDbArc
 50
326.9661316176382
 51
180.0
  0
LINE
  5
7C0C
330
8138
100
AcDbEntity
  8
2
100
AcDbLine
 10
2150.651254010002
 20
2038.715134258695
 30
0.0
 11
2150.651254010002
 21
1380.116393141435
 31
0.0
  0
LINE
  5
7C0D
330
8138
100
AcDbEntity
  8
1
100
AcDbLine
 10
2270.115912018924
 20
1799.434699758688
 30
0.0
 11
2280.651254010002
 21
1760.116393141435
 31
0.0
  0
LINE
  5
7C0E
330
8138
100
AcDbEntity
  8
1
100
AcDbLine
 10
2280.651254010002
 20
1759.918993141435
 30
0.0
 11
2280.651254010002
 21
1745.116393141435
 31
0.0
  0
LINE
  5
7C0F
330
8138
100
AcDbEntity
  8
1
100
AcDbLine
 10
2031.186513689942
 20
1799.434826342995
 30
0.0
 11
2020.651254010002
 21
1760.116393141435
 31
0.0
  0
LINE
  5
7C10
330
8138
100
AcDbEntity
  8
1
100
AcDbLine
 10
2020.651254010002
 20
1759.918993141435
 30
0.0
 11
2020.651254010002
 21
1745.116393141435
 31
0.0
  0
LINE
  5
7C11
330
8138
100
AcDbEntity
  8
2
100
AcDbLine
 10
2321.188818825592
 20
1877.116393141435
 30
0.0
 11
1982.150488484341
 21
1877.116393141435
 31
0.0
  0
LINE
  5
7C12
330
8138
100
AcDbEntity
  8
1
100
AcDbLine
 10
1950.651254010002
 20
1700.116393141435
 30
0.0
 11
1950.651254010002
 21
1660.116393141436
 31
0.0
  0
LINE
  5
7C13
330
8138
100
AcDbEntity
  8
1
100
AcDbLine
 10
2350.651254010002
 20
1700.116393141435
 30
0.0
 11
2350.651254010002
 21
1660.116393141436
 31
0.0
  0
LINE
  5
7C15
330
8138
100
AcDbEntity
  8
1
100
AcDbLine
 10
2314.486910623796
 20
1745.116393141435
 30
0.0
 11
1988.028742618675
 21
1745.116393141435
 31
0.0
  0
LINE
  5
7C16
330
8138
100
AcDbEntity
  8
1
100
AcDbLine
 10
2325.651254010002
 20
1700.116393141435
 30
0.0
 11
2314.486910623796
 21
1745.116393141435
 31
0.0
  0
LINE
  5
7C17
330
8138
100
AcDbEntity
  8
1
100
AcDbLine
 10
1975.651254010002
 20
1700.116393141435
 30
0.0
 11
1988.028742618675
 21
1745.116393141435
 31
0.0
  0
LINE
  5
7C18
330
8138
100
AcDbEntity
  8
1
100
AcDbLine
 10
2696.004301064448
 20
1480.116393141435
 30
0.0
 11
3702.004301064448
 21
1480.116393141435
 31
0.0
1001
ACAD
1000
ASC_BOUNDS
1002
{
1070
    19
1002
}
  0
LINE
  5
7C19
330
8138
100
AcDbEntity
  8
1
100
AcDbLine
 10
2696.004301064448
 20
1380.116393141435
 30
0.0
 11
3702.004301064448
 21
1380.116393141435
 31
0.0
  0
LINE
  5
7C1A
330
8138
100
AcDbEntity
  8
1
100
AcDbLine
 10
2696.004301064448
 20
1480.116393141435
 30
0.0
 11
2696.004301064448
 21
1380.116393141435
 31
0.0
  0
LINE
  5
7C1B
330
8138
100
AcDbEntity
  8
1
100
AcDbLine
 10
3702.004301064448
 20
1480.116393141435
 30
0.0
 11
3702.004301064448
 21
1380.116393141435
 31
0.0
  0
DIMENSION
  5
7C1D
330
8138
100
AcDbEntity
  8
3
100
AcDbDimension
  2
*D4
 10
1328.651254010002
 20
2750.074215058445
 30
0.0
 11
1653.651254010002
 21
2790.074215058445
 31
0.0
 12
945.7299874784583
 22
1572.018766691315
 32
0.0
 71
     5
 42
-1.0
  3
Standard
100
AcDbAlignedDimension
 13
1978.65125401
 23
2600.116393141435
 33
0.0
 14
1328.651254010002
 24
2600.116393141435
 34
0.0
 50
180.0
100
AcDbRotatedDimension
1001
ACAD
1000
DSTYLE
1002
{
1070
    40
1040
20.0
1002
}
  0
DIMENSION
  5
7C1E
330
8138
100
AcDbEntity
  8
3
100
AcDbDimension
  2
*D5
 10
1300.651254010002
 20
2899.618059262128
 30
0.0
 11
1639.651254010002
 21
2939.618059262128
 31
0.0
 12
945.7299874784583
 22
1572.018766691315
 32
0.0
 71
     5
 42
-1.0
  3
Standard
100
AcDbAlignedDimension
 13
1978.65125401
 23
2600.116393141435
 33
0.0
 14
1300.651254010002
 24
2647.009366244431
 34
0.0
 50
180.0
100
AcDbRotatedDimension
1001
ACAD
1000
DSTYLE
1002
{
1070
    40
1040
20.0
1002
}
  0
POINT
  5
7C1F
330
8138
100
AcDbEntity
  8
1
100
AcDbPoint
 10
900.6512540100018
 20
1455.116393141435
 30
0.0
  0
LINE
  5
7C20
330
8138
100
AcDbEntity
  8
2
100
AcDbLine
 10
2467.004301064447
 20
1877.116393141435
 30
0.0
 11
3171.268439876075
 21
1877.116393141435
 31
0.0
  0
LINE
  5
7C22
330
8138
100
AcDbEntity
  8
1
100
AcDbLine
 10
2849.004301064447
 20
2600.116393141435
 30
0.0
 11
2849.004301064447
 21
2168.116393141435
 31
0.0
  0
LINE
  5
7C23
330
8138
100
AcDbEntity
  8
1
100
AcDbLine
 10
2849.004301064447
 20
2168.116393141435
 30
0.0
 11
2849.004301064447
 21
2019.616393141435
 31
0.0
  0
LINE
  5
7C24
330
8138
100
AcDbEntity
  8
1
100
AcDbLine
 10
3759.004301064448
 20
2110.116393141435
 30
0.0
 11
3759.004301064448
 21
2010.116393141435
 31
0.0
  0
ARC
  5
7C25
330
8138
100
AcDbEntity
  8
1
100
AcDbCircle
 10
3749.004301064449
 20
2110.116393141435
 30
0.0
 40
10.0
100
AcDbArc
 50
0.0
 51
90.0
  0
ARC
  5
7C26
330
8138
100
AcDbEntity
  8
1
100
AcDbCircle
 10
3749.004301064449
 20
2010.116393141435
 30
0.0
 40
10.0
100
AcDbArc
 50
270.0
 51
0.0
  0
LINE
  5
7C27
330
8138
100
AcDbEntity
  8
1
100
AcDbLine
 10
3649.004301064449
 20
2000.116393141436
 30
0.0
 11
3749.004301064449
 21
2000.116393141436
 31
0.0
  0
LINE
  5
7C28
330
8138
100
AcDbEntity
  8
1
100
AcDbLine
 10
3649.004301064449
 20
2120.116393141435
 30
0.0
 11
3749.004301064449
 21
2120.116393141435
 31
0.0
  0
CIRCLE
  5
7C29
330
8138
100
AcDbEntity
  8
1
100
AcDbCircle
 10
2150.651254010002
 20
1877.116393141435
 30
0.0
 40
79.0
  0
CIRCLE
  5
7C2A
330
8138
100
AcDbEntity
  8
1
100
AcDbCircle
 10
1300.651254010002
 20
2140.116393141436
 30
0.0
 40
88.9
  0
ARC
  5
7C2B
330
8138
100
AcDbEntity
  8
1
100
AcDbCircle
 10
1300.651254010002
 20
2140.116393141436
 30
0.0
 40
150.0
100
AcDbArc
 50
77.52830244339076
 51
257.5283024433907
  0
ARC
  5
7C2C
330
8138
100
AcDbEntity
  8
1
100
AcDbCircle
 10
2150.651254010002
 20
1877.116393141435
 30
0.0
 40
150.0
100
AcDbArc
 50
257.5283024433907
 51
77.52830244339076
  0
LINE
  5
7C2D
330
8138
100
AcDbEntity
  8
1
100
AcDbLine
 10
1333.044852881301
 20
2286.576813570182
 30
0.0
 11
2183.044852881301
 21
2023.576813570183
 31
0.0
  0
LINE
  5
7C2E
330
8138
100
AcDbEntity
  8
1
100
AcDbLine
 10
1320.835752676891
 20
2226.694658390667
 30
0.0
 11
2168.587985108812
 21
1954.053209279673
 31
0.0
  0
LINE
  5
7C2F
330
8138
100
AcDbEntity
  8
1
100
AcDbLine
 10
1282.441023134373
 20
2053.101466310137
 30
0.0
 11
2134.468934109274
 21
1799.791542526445
 31
0.0
  0
LINE
  5
7C30
330
8138
100
AcDbEntity
  8
1
100
AcDbLine
 10
1268.257655138703
 20
1993.655972712688
 30
0.0
 11
2118.257655138703
 21
1730.655972712688
 31
0.0
  0
LINE
  5
7C31
330
8138
100
AcDbEntity
  8
1
100
AcDbLine
 10
2597.004301064448
 20
2229.016393141435
 30
0.0
 11
2597.004301064448
 21
2051.216393141436
 31
0.0
  0
LINE
  5
7C32
330
8138
100
AcDbEntity
  8
1
100
AcDbLine
 10
2679.004301064448
 20
2229.016393141435
 30
0.0
 11
2679.004301064447
 21
2051.216393141436
 31
0.0
  0
LINE
  5
7C33
330
8138
100
AcDbEntity
  8
1
100
AcDbLine
 10
2597.004301064448
 20
2229.016393141435
 30
0.0
 11
2679.004301064448
 21
2229.016393141435
 31
0.0
  0
LINE
  5
7C34
330
8138
100
AcDbEntity
  8
1
100
AcDbLine
 10
2597.004301064448
 20
2051.216393141436
 30
0.0
 11
2679.004301064447
 21
2051.216393141436
 31
0.0
  0
LINE
  5
7C35
330
8138
100
AcDbEntity
  8
1
100
AcDbLine
 10
2597.004301064448
 20
1956.116393141435
 30
0.0
 11
2679.004301064447
 21
1956.116393141435
 31
0.0
  0
LINE
  5
7C36
330
8138
100
AcDbEntity
  8
1
100
AcDbLine
 10
2597.004301064445
 20
1798.116393141435
 30
0.0
 11
2679.004301064445
 21
1798.116393141435
 31
0.0
  0
LINE
  5
7C37
330
8138
100
AcDbEntity
  8
1
100
AcDbLine
 10
2469.004301064448
 20
2290.116393141436
 30
0.0
 11
2469.004301064448
 21
1727.116393141435
 31
0.0
  0
LINE
  5
7C38
330
8138
100
AcDbEntity
  8
1
100
AcDbLine
 10
2729.004301064448
 20
2290.116393141436
 30
0.0
 11
2729.00430106445
 21
2270.116393141435
 31
0.0
  0
LINE
  5
7C39
330
8138
100
AcDbEntity
  8
1
100
AcDbLine
 10
2469.004301064449
 20
2290.116393141436
 30
0.0
 11
2729.004301064448
 21
2290.116393141436
 31
0.0
  0
LINE
  5
7C3A
330
8138
100
AcDbEntity
  8
1
100
AcDbLine
 10
2469.004301064448
 20
1727.116393141435
 30
0.0
 11
2729.004301064446
 21
1727.116393141435
 31
0.0
  0
LINE
  5
7C3B
330
8138
100
AcDbEntity
  8
1
100
AcDbLine
 10
2729.004301064446
 20
1734.616393141435
 30
0.0
 11
2729.004301064446
 21
1727.116393141435
 31
0.0
  0
LINE
  5
7C3C
330
8138
100
AcDbEntity
  8
1
100
AcDbLine
 10
1700.651254010002
 20
4451.460569308628
 30
0.0
 11
900.6512540100009
 21
4451.460569308628
 31
0.0
  0
LINE
  5
7C3D
330
8138
100
AcDbEntity
  8
1
100
AcDbLine
 10
2350.651254010002
 20
3445.460569308626
 30
0.0
 11
900.6512540100018
 21
3445.460569308627
 31
0.0
  0
LINE
  5
7C3E
330
8138
100
AcDbEntity
  8
1
100
AcDbLine
 10
900.6512540100018
 20
4451.460569308628
 30
0.0
 11
900.6512540100018
 21
4398.460569308627
 31
0.0
  0
LINE
  5
7C3F
330
8138
100
AcDbEntity
  8
1
100
AcDbLine
 10
1700.651254010002
 20
4451.460569308628
 30
0.0
 11
1700.651254010002
 21
4398.460569308627
 31
0.0
  0
LINE
  5
7C40
330
8138
100
AcDbEntity
  8
1
100
AcDbLine
 10
2350.651254010002
 20
4045.460569308627
 30
0.0
 11
2350.651254010002
 21
3445.460569308626
 31
0.0
  0
LINE
  5
7C41
330
8138
100
AcDbEntity
  8
1
100
AcDbLine
 10
2350.651254010002
 20
4045.460569308626
 30
0.0
 11
1978.65125401
 21
4045.460569308627
 31
0.0
  0
POINT
  5
7C42
330
8138
100
AcDbEntity
  8
1
100
AcDbPoint
 10
900.6512540100018
 20
1590.116393141435
 30
0.0
  0
POINT
  5
7C43
330
8138
100
AcDbEntity
  8
1
100
AcDbPoint
 10
900.6512540100018
 20
1455.116393141435
 30
0.0
  0
POINT
  5
7C44
330
8138
100
AcDbEntity
  8
1
100
AcDbPoint
 10
900.6512540100018
 20
1590.116393141435
 30
0.0
  0
DIMENSION
  5
7C45
330
8138
100
AcDbEntity
  8
3
100
AcDbDimension
  2
*D6
 10
3902.541334635112
 20
1805.116393141435
 30
0.0
 11
3862.541334635113
 21
2140.116393141436
 31
0.0
 12
681.7081075811655
 22
1572.018766691315
 32
0.0
 71
     5
 42
-1.0
  3
Standard
100
AcDbAlignedDimension
 13
3654.504301064449
 23
2475.116393141435
 33
0.0
 14
3654.504301064449
 24
1805.116393141435
 34
0.0
 50
90.0
100
AcDbRotatedDimension
1001
ACAD
1000
DSTYLE
1002
{
1070
    40
1040
20.0
1070
     3
1000
\U+03C6<>
1002
}
  0
DIMENSION
  5
7C48
330
8138
100
AcDbEntity
  8
3
100
AcDbDimension
  2
*D7
 10
3649.004301064449
 20
2707.306378051618
 30
0.0
 11
3249.004301064447
 21
2747.306378051618
 31
0.0
 12
681.7081075811655
 22
1572.018766691315
 32
0.0
 71
     5
 42
-1.0
  3
Standard
100
AcDbAlignedDimension
 13
2849.004301064447
 23
2600.116393141435
 33
0.0
 14
3649.004301064449
 24
2600.116393141435
 34
0.0
100
AcDbRotatedDimension
1001
ACAD
1000
DSTYLE
1002
{
1070
    40
1040
20.0
1002
}
  0
ARC
  5
7C49
330
8138
100
AcDbEntity
  8
1
100
AcDbCircle
 10
2756.504301064448
 20
2106.916393141435
 30
0.0
 40
10.0
100
AcDbArc
 50
90.0
 51
180.0
  0
LINE
  5
7C4A
330
8138
100
AcDbEntity
  8
1
100
AcDbLine
 10
2849.004301064447
 20
2116.916393141435
 30
0.0
 11
2756.504301064448
 21
2116.916393141435
 31
0.0
  0
LINE
  5
7C4B
330
8138
100
AcDbEntity
  8
1
100
AcDbLine
 10
2746.504301064447
 20
2106.916393141435
 30
0.0
 11
2746.504301064447
 21
2019.616393141435
 31
0.0
  0
LINE
  5
7C4C
330
8138
100
AcDbEntity
  8
1
100
AcDbLine
 10
2679.004301064447
 20
2115.116393141435
 30
0.0
 11
2750.904301064448
 21
2115.116393141435
 31
0.0
  0
LINE
  5
7C4E
330
8138
100
AcDbEntity
  8
1
100
AcDbLine
 10
900.6512540100018
 20
1660.116393141436
 30
0.0
 11
900.6512540100018
 21
1560.116393141435
 31
0.0
  0
LINE
  5
7C4F
330
8138
100
AcDbEntity
  8
1
100
AcDbLine
 10
2350.651254010002
 20
1660.116393141436
 30
0.0
 11
900.6512540100018
 21
1660.116393141436
 31
0.0
1001
ACAD
1000
ASC_BOUNDS
1002
{
1070
    19
1005
0
1005
0
1002
}
  0
LINE
  5
7C50
330
8138
100
AcDbEntity
  8
1
100
AcDbLine
 10
2350.651254010002
 20
1560.116393141435
 30
0.0
 11
900.6512540100018
 21
1560.116393141435
 31
0.0
  0
LINE
  5
7C51
330
8138
100
AcDbEntity
  8
1
100
AcDbLine
 10
2350.651254010002
 20
1660.116393141436
 30
0.0
 11
2350.651254010002
 21
1560.116393141435
 31
0.0
  0
LINE
  5
7C52
330
8138
100
AcDbEntity
  8
1
100
AcDbLine
 10
2696.004301064448
 20
1660.116393141436
 30
0.0
 11
3701.304301064448
 21
1660.116393141436
 31
0.0
1001
ACAD
1000
ASC_BOUNDS
1002
{
1070
    19
1002
}
  0
LINE
  5
7C53
330
8138
100
AcDbEntity
  8
1
100
AcDbLine
 10
2696.004301064448
 20
1660.116393141436
 30
0.0
 11
2696.004301064448
 21
1560.116393141435
 31
0.0
  0
LINE
  5
7C54
330
8138
100
AcDbEntity
  8
1
100
AcDbLine
 10
2696.004301064448
 20
1560.116393141435
 30
0.0
 11
3702.004301064448
 21
1560.116393141435
 31
0.0
  0
LINE
  5
7C55
330
8138
100
AcDbEntity
  8
1
100
AcDbLine
 10
3702.004301064448
 20
1660.116393141436
 30
0.0
 11
3702.004301064448
 21
1560.116393141435
 31
0.0
  0
ARC
  5
7C56
330
8138
100
AcDbEntity
  8
1
100
AcDbCircle
 10
1300.651254010002
 20
2140.116393141436
 30
0.0
 40
378.0
100
AcDbArc
 50
175.7519773332714
 51
180.0
  0
LINE
  5
7C57
330
8138
100
AcDbEntity
  8
1
100
AcDbLine
 10
1978.65125401
 20
4398.460569308627
 30
0.0
 11
846.6512540100017
 21
4398.460569308627
 31
0.0
  0
LINE
  5
7C58
330
8138
100
AcDbEntity
  8
1
100
AcDbLine
 10
1978.65125401
 20
3598.460569308628
 30
0.0
 11
846.6512540100017
 21
3598.460569308628
 31
0.0
  0
LINE
  5
7C59
330
8138
100
AcDbEntity
  8
1
100
AcDbLine
 10
900.6512540100018
 20
3598.460569308628
 30
0.0
 11
900.6512540100018
 21
3445.460569308627
 31
0.0
  0
LINE
  5
7C5A
330
8138
100
AcDbEntity
  8
1
100
AcDbLine
 10
2229.651254010002
 20
3346.460569308627
 30
0.0
 11
2071.651254010002
 21
3346.460569308627
 31
0.0
  0
LINE
  5
7C5B
330
8138
100
AcDbEntity
  8
1
100
AcDbLine
 10
2229.651254010002
 20
3428.460569308628
 30
0.0
 11
2071.651254010002
 21
3428.460569308628
 31
0.0
  0
LINE
  5
7C5C
330
8138
100
AcDbEntity
  8
1
100
AcDbLine
 10
1211.751254010001
 20
3428.460569308628
 30
0.0
 11
1211.751254010001
 21
3346.460569308627
 31
0.0
  0
LINE
  5
7C5D
330
8138
100
AcDbEntity
  8
1
100
AcDbLine
 10
1389.551254010002
 20
3428.460569308628
 30
0.0
 11
1389.551254010002
 21
3346.460569308627
 31
0.0
  0
LINE
  5
7C5E
330
8138
100
AcDbEntity
  8
1
100
AcDbLine
 10
2071.651254010002
 20
3428.460569308628
 30
0.0
 11
2071.651254010002
 21
3346.460569308627
 31
0.0
  0
LINE
  5
7C5F
330
8138
100
AcDbEntity
  8
1
100
AcDbLine
 10
2229.651254010002
 20
3428.460569308628
 30
0.0
 11
2229.651254010002
 21
3346.460569308627
 31
0.0
  0
LINE
  5
7C60
330
8138
100
AcDbEntity
  8
1
100
AcDbLine
 10
2300.651254010002
 20
3218.460569308626
 30
0.0
 11
1150.651254010002
 21
3218.460569308627
 31
0.0
  0
LINE
  5
7C61
330
8138
100
AcDbEntity
  8
1
100
AcDbLine
 10
1150.651254010002
 20
3478.460569308627
 30
0.0
 11
1150.651254010002
 21
3218.460569308627
 31
0.0
  0
LINE
  5
7C62
330
8138
100
AcDbEntity
  8
1
100
AcDbLine
 10
2300.651254010002
 20
3478.460569308627
 30
0.0
 11
2300.651254010002
 21
3218.460569308626
 31
0.0
  0
LINE
  5
7C63
330
8138
100
AcDbEntity
  8
1
100
AcDbLine
 10
2300.651254010002
 20
3478.460569308627
 30
0.0
 11
1150.651254010002
 21
3478.460569308627
 31
0.0
  0
LINE
  5
7C64
330
8138
100
AcDbEntity
  8
1
100
AcDbLine
 10
1389.551254010002
 20
3428.460569308628
 30
0.0
 11
1211.751254010001
 21
3428.460569308628
 31
0.0
  0
LINE
  5
7C65
330
8138
100
AcDbEntity
  8
1
100
AcDbLine
 10
1389.551254010002
 20
3346.460569308627
 30
0.0
 11
1211.751254010001
 21
3346.460569308627
 31
0.0
  0
LINE
  5
7C66
330
8138
100
AcDbEntity
  8
2
100
AcDbLine
 10
2150.651254010002
 20
3907.051462475251
 30
0.0
 11
2150.651254010002
 21
3194.90728603693
 31
0.0
  0
LINE
  5
7C67
330
8138
100
AcDbEntity
  8
1
100
AcDbLine
 10
2008.151254010002
 20
3865.460269308627
 30
0.0
 11
2293.151254010001
 21
3865.460269308627
 31
0.0
  0
LINE
  5
7C68
330
8138
100
AcDbEntity
  8
1
100
AcDbLine
 10
2008.151254010002
 20
3475.460569308626
 30
0.0
 11
2293.151254010001
 21
3475.460569308627
 31
0.0
  0
LINE
  5
7C69
330
8138
100
AcDbEntity
  8
1
100
AcDbLine
 10
2169.651254010001
 20
3475.460569308626
 30
0.0
 11
2169.651254010001
 21
3428.460569308628
 31
0.0
  0
LINE
  5
7C6A
330
8138
100
AcDbEntity
  8
1
100
AcDbLine
 10
2131.651254010002
 20
3475.460569308626
 30
0.0
 11
2131.651254010002
 21
3428.460569308628
 31
0.0
  0
LINE
  5
7C6B
330
8138
100
AcDbEntity
  8
1
100
AcDbLine
 10
2293.151254010001
 20
3865.460269308627
 30
0.0
 11
2293.151254010001
 21
3475.460569308627
 31
0.0
  0
LINE
  5
7C6C
330
8138
100
AcDbEntity
  8
1
100
AcDbLine
 10
2008.151254010002
 20
3865.460269308627
 30
0.0
 11
2008.151254010002
 21
3475.460569308626
 31
0.0
  0
LINE
  5
7C6D
330
8138
100
AcDbEntity
  8
1
100
AcDbLine
 10
1275.651254010002
 20
3598.460569308628
 30
0.0
 11
1275.651254010002
 21
3428.460569308628
 31
0.0
  0
LINE
  5
7C6E
330
8138
100
AcDbEntity
  8
1
100
AcDbLine
 10
1325.651254010002
 20
3598.460569308628
 30
0.0
 11
1325.651254010002
 21
3428.460569308628
 31
0.0
  0
LINE
  5
7C6F
330
8138
100
AcDbEntity
  8
1
100
AcDbLine
 10
2679.004301064448
 20
2165.116393141436
 30
0.0
 11
2849.004301064447
 21
2165.116393141436
 31
0.0
  0
CIRCLE
  5
7C70
330
8138
100
AcDbEntity
  8
1
100
AcDbCircle
 10
1300.651254010002
 20
2140.116393141436
 30
0.0
 40
335.0
  0
CIRCLE
  5
7C71
330
8138
100
AcDbEntity
  8
1
100
AcDbCircle
 10
1300.651254010002
 20
2140.116393141436
 30
0.0
 40
375.0
  0
LINE
  5
7C72
330
8138
100
AcDbEntity
  8
1
100
AcDbLine
 10
2350.651254010001
 20
1700.116393141435
 30
0.0
 11
1950.651254010002
 21
1700.116393141435
 31
0.0
  0
POINT
  5
7C73
330
8138
100
AcDbEntity
  8
1
100
AcDbPoint
 10
3759.004301064448
 20
2110.116393141435
 30
0.0
  0
POINT
  5
7C74
330
8138
100
AcDbEntity
  8
1
100
AcDbPoint
 10
2469.004301064448
 20
2290.116393141436
 30
0.0
  0
DIMENSION
  5
7C76
330
8138
100
AcDbEntity
  8
3
100
AcDbDimension
  2
*D9
 10
691.8592830113939
 20
4451.460569308628
 30
0.0
 11
651.8592830113939
 21
3948.460569308628
 31
0.0
 12
945.7299874784583
 22
1287.045600777994
 32
0.0
 71
     5
 42
-1.0
  3
Standard
100
AcDbAlignedDimension
 13
900.6512540100018
 23
3445.460569308627
 33
0.0
 14
900.6512540100009
 24
4451.460569308628
 34
0.0
 50
270.0
100
AcDbRotatedDimension
1001
ACAD
1000
DSTYLE
1002
{
1070
    40
1040
20.0
1002
}
  0
DIMENSION
  5
7C77
330
8138
100
AcDbEntity
  8
3
100
AcDbDimension
  2
*D10
 10
900.6512540100009
 20
4600.065859807033
 30
0.0
 11
1300.651254010002
 21
4640.065859807033
 31
0.0
 12
945.7299874784583
 22
1287.045600777994
 32
0.0
 71
     5
 42
-1.0
  3
Standard
100
AcDbAlignedDimension
 13
1700.651254010002
 23
4451.460569308628
 33
0.0
 14
900.6512540100009
 24
4451.460569308628
 34
0.0
100
AcDbRotatedDimension
1001
ACAD
1000
DSTYLE
1002
{
1070
    40
1040
20.0
1002
}
  0
DIMENSION
  5
7C78
330
8138
100
AcDbEntity
  8
3
100
AcDbDimension
  2
*D11
 10
2501.078837885283
 20
3445.460569308626
 30
0.0
 11
2461.078837885283
 21
3745.460569308626
 31
0.0
 12
945.7299874784583
 22
1287.045600777994
 32
0.0
 71
     5
 42
-1.0
  3
Standard
100
AcDbAlignedDimension
 13
2350.651254010002
 23
4045.460569308627
 33
0.0
 14
2350.651254010002
 24
3445.460569308626
 34
0.0
 50
270.0
100
AcDbRotatedDimension
1001
ACAD
1000
DSTYLE
1002
{
1070
    40
1040
20.0
1002
}
  0
LINE
  5
7C7E
330
8138
100
AcDbEntity
  8
1
100
AcDbLine
 10
2726.004301064448
 20
1734.616393141435
 30
0.0
 11
2726.004301064448
 21
2019.616393141435
 31
0.0
  0
LINE
  5
7C7F
330
8138
100
AcDbEntity
  8
1
100
AcDbLine
 10
3116.004301064447
 20
2019.616393141435
 30
0.0
 11
2726.004301064448
 21
2019.616393141435
 31
0.0
  0
LINE
  5
7C80
330
8138
100
AcDbEntity
  8
1
100
AcDbLine
 10
2726.004301064448
 20
1858.116393141435
 30
0.0
 11
2679.004301064448
 21
1858.116393141435
 31
0.0
  0
LINE
  5
7C81
330
8138
100
AcDbEntity
  8
1
100
AcDbLine
 10
2726.004301064448
 20
1896.116393141435
 30
0.0
 11
2679.004301064448
 21
1896.116393141435
 31
0.0
  0
LINE
  5
7C82
330
8138
100
AcDbEntity
  8
1
100
AcDbLine
 10
3116.004301064446
 20
1734.616393141435
 30
0.0
 11
2726.004301064448
 21
1734.616393141435
 31
0.0
  0
POINT
  5
7C83
330
8138
100
AcDbEntity
  8
1
100
AcDbPoint
 10
900.6512540100018
 20
1590.116393141435
 30
0.0
  0
POINT
  5
7C84
330
8138
100
AcDbEntity
  8
1
100
AcDbPoint
 10
900.6512540100018
 20
1635.116393141435
 30
0.0
  0
LINE
  5
7C85
330
8138
100
AcDbEntity
  8
1
100
AcDbLine
 10
2679.004301064447
 20
1956.116393141435
 30
0.0
 11
2679.004301064445
 21
1798.116393141435
 31
0.0
  0
LINE
  5
7C86
330
8138
100
AcDbEntity
  8
1
100
AcDbLine
 10
2597.004301064448
 20
1956.116393141435
 30
0.0
 11
2597.004301064445
 21
1798.116393141435
 31
0.0
  0
DIMENSION
  5
7C8D
330
8138
100
AcDbEntity
  8
3
100
AcDbDimension
  2
*D15
 10
646.940960066795
 20
2140.116393141436
 30
0.0
 11
606.940960066795
 21
2370.116393141435
 31
0.0
 12
945.7299874784583
 22
1572.018766691315
 32
0.0
 71
     5
 42
-1.0
  3
Standard
100
AcDbAlignedDimension
 13
1286.651254010002
 23
2600.116393141435
 33
0.0
 14
793.7582809070062
 24
2140.116393141436
 34
0.0
 50
270.0
100
AcDbRotatedDimension
1001
ACAD
1000
DSTYLE
1002
{
1070
    40
1040
20.0
1002
}
  0
DIMENSION
  5
7C93
330
8138
100
AcDbEntity
  8
3
100
AcDbDimension
  2
*D20
 10
2350.651254010002
 20
3006.520535168108
 30
0.0
 11
1598.651254010002
 21
3046.520535168108
 31
0.0
 12
945.7299874784583
 22
1572.018766691315
 32
0.0
 71
     5
 42
-1.0
  3
Standard
100
AcDbAlignedDimension
 13
846.6512540100017
 23
2093.116393141435
 33
0.0
 14
2350.651254010002
 24
1700.116393141435
 34
0.0
100
AcDbRotatedDimension
1001
ACAD
1000
DSTYLE
1002
{
1070
    40
1040
20.0
1002
}
  0
LINE
  5
7C94
330
8138
100
AcDbEntity
  8
1
100
AcDbLine
 10
1978.65125401
 20
4398.460569308627
 30
0.0
 11
1978.65125401
 21
3598.460569308626
 31
0.0
  0
LINE
  5
7C95
330
8138
100
AcDbEntity
  8
1
100
AcDbLine
 10
846.6512540100017
 20
4398.460569308627
 30
0.0
 11
846.6512540100017
 21
3598.460569308628
 31
0.0
  0
LINE
  5
7C96
330
8138
100
AcDbEntity
  8
1
100
AcDbLine
 10
1328.651254010002
 20
4398.460569308627
 30
0.0
 11
1328.651254010002
 21
3598.460569308626
 31
0.0
  0
LINE
  5
7C97
330
8138
100
AcDbEntity
  8
1
100
AcDbLine
 10
1328.651254010002
 20
4398.460569308627
 30
0.0
 11
1978.65125401
 21
3598.460569308628
 31
0.0
  0
LINE
  5
7C98
330
8138
100
AcDbEntity
  8
1
100
AcDbLine
 10
1978.65125401
 20
4398.460569308627
 30
0.0
 11
1328.651254010002
 21
3598.460569308628
 31
0.0
  0
LINE
  5
7C99
330
8138
100
AcDbEntity
  8
1
100
AcDbLine
 10
2809.004301064447
 20
2597.116393141436
 30
0.0
 11
3689.004301064449
 21
2597.116393141436
 31
0.0
  0
LINE
  5
7C9A
330
8138
100
AcDbEntity
  8
1
100
AcDbLine
 10
2809.004301064447
 20
2600.116393141435
 30
0.0
 11
2809.004301064447
 21
2597.116393141436
 31
0.0
  0
LINE
  5
7C9B
330
8138
100
AcDbEntity
  8
1
100
AcDbLine
 10
3689.004301064449
 20
2600.116393141435
 30
0.0
 11
3689.004301064449
 21
2597.116393141436
 31
0.0
  0
LINE
  5
7C9C
330
8138
100
AcDbEntity
  8
1
100
AcDbLine
 10
3116.004301064447
 20
1734.616393141435
 30
0.0
 11
3116.004301064447
 21
2019.616393141435
 31
0.0
  0
LINE
  5
7C9D
330
8138
100
AcDbEntity
  8
1
100
AcDbLine
 10
3052.850495081842
 20
1734.616393141435
 30
0.0
 11
3052.850495081843
 21
1660.116393141436
 31
0.0
  0
LINE
  5
7C9E
330
8138
100
AcDbEntity
  8
1
100
AcDbLine
 10
2777.738056714825
 20
1734.616393141435
 30
0.0
 11
2777.738056714825
 21
1660.116393141436
 31
0.0
  0
LINE
  5
7C9F
330
8138
100
AcDbEntity
  8
1
100
AcDbLine
 10
2777.738056714825
 20
1700.116393141435
 30
0.0
 11
3052.850495081843
 21
1700.116393141435
 31
0.0
  0
LINE
  5
7EC6
330
8138
100
AcDbEntity
  8
4
100
AcDbLine
 10
3700.0
 20
1000.0
 30
0.0
 11
3700.0
 21
600.0
 31
0.0
  0
LINE
  5
7EC7
330
8138
100
AcDbEntity
  8
4
100
AcDbLine
 10
2300.0
 20
1000.0
 30
0.0
 11
2300.0
 21
600.0
 31
0.0
  0
LINE
  5
7EC8
330
8138
100
AcDbEntity
  8
4
100
AcDbLine
 10
1300.0
 20
1000.0
 30
0.0
 11
1300.0
 21
600.0
 31
0.0
  0
LINE
  5
7ECB
330
8138
100
AcDbEntity
  8
4
100
AcDbLine
 10
1300.0
 20
600.0
 30
0.0
 11
3700.0
 21
600.0
 31
0.0
  0
LINE
  5
7ECC
330
8138
100
AcDbEntity
  8
4
100
AcDbLine
 10
1300.0
 20
800.0
 30
0.0
 11
3700.0
 21
800.0
 31
0.0
  0
TEXT
  5
7ECD
330
8138
100
AcDbEntity
  8
4
100
AcDbText
 10
1377.004161693803
 20
863.0860517332255
 30
0.0
 40
100.0
  1
機器名称
100
AcDbText
  0
TEXT
  5
7ECE
330
8138
100
AcDbEntity
  8
4
100
AcDbText
 10
1372.516212049595
 20
643.2903134640219
 30
0.0
 40
100.0
  1
機器型番
100
AcDbText
  0
TEXT
  5
7ECF
330
8138
100
AcDbEntity
  8
4
100
AcDbText
 10
2355.357490975329
 20
845.1435379151371
 30
0.0
 40
100.0
  1
ミツヤ多翼送風機
100
AcDbText
  0
TEXT
  5
7ED0
330
8138
100
AcDbEntity
  8
4
100
AcDbText
 10
2373.308991170961
 20
634.3191685598867
 30
0.0
 40
100.0
  1
MF#4-5
100
AcDbText
  0
TEXT
  5
7ED2
330
8138
100
AcDbEntity
  8
4
100
AcDbText
 10
1608.914932671807
 20
4766.857682665031
 30
0.0
 40
107.9999999999999
  1
床置防振ベット
100
AcDbText
  0
TEXT
  5
7ED3
330
8138
100
AcDbEntity
  8
4
100
AcDbText
 10
632.3351866588928
 20
5067.761952398596
 30
0.0
 40
144.0
  1
遠心式両吸込両持多翼ファン
100
AcDbText
  0
LINE
  5
7ED4
330
8138
100
AcDbEntity
  8
4
100
AcDbLine
 10
500.0
 20
4938.817508529609
 30
0.0
 11
3700.0
 21
4938.817508529609
 31
0.0
  0
LINE
  5
7ED5
330
8138
100
AcDbEntity
  8
4
100
AcDbLine
 10
500.0
 20
5338.81750852961
 30
0.0
 11
3700.0
 21
5338.81750852961
 31
0.0
  0
LINE
  5
7ED6
330
8138
100
AcDbEntity
  8
4
100
AcDbLine
 10
1300.0
 20
1000.0
 30
0.0
 11
3700.0
 21
1000.0
 31
0.0
  0
LINE
  5
7ED7
330
8138
100
AcDbEntity
  8
4
100
AcDbLine
 10
500.0
 20
5338.81750852961
 30
0.0
 11
500.0
 21
4938.817508529609
 31
0.0
  0
TEXT
  5
7ED8
330
8138
100
AcDbEntity
  8
4
100
AcDbText
 10
737.1972681864024
 20
4764.638955092687
 30
0.0
 40
107.9999999999999
  1
左回転上向
100
AcDbText
  0
TEXT
  5
7ED9
330
8138
100
AcDbEntity
  8
4
100
AcDbText
 10
2937.939118498579
 20
5412.122162990619
 30
0.0
 40
112.0
  1
No.
100
AcDbText
  0
TEXT
  5
7EDA
330
8138
100
AcDbEntity
  8
4
100
AcDbText
 10
2622.592125200027
 20
4766.857682665031
 30
0.0
 40
107.9999999999999
  1
縮尺：1/20
100
AcDbText
  0
LINE
  5
7EDB
330
8138
100
AcDbEntity
  8
4
100
AcDbLine
 10
3700.0
 20
5338.81750852961
 30
0.0
 11
3700.0
 21
4938.817508529609
 31
0.0
  0
LINE
  5
7EDC
330
8138
100
AcDbEntity
  8
4
100
AcDbLine
 10
4200.0
 20
5900.0
 30
0.0
 11
4200.0
 21
5900.0
 31
0.0
  0
LINE
  5
7EDD
330
8138
100
AcDbEntity
  8
4
100
AcDbLine
 10
2881.234844719729
 20
5362.527166250802
 30
0.0
 11
2881.234844719729
 21
5573.304523099504
 31
0.0
  0
LINE
  5
7EDE
330
8138
100
AcDbEntity
  8
4
100
AcDbLine
 10
2881.234844719729
 20
5573.304523099504
 30
0.0
 11
3700.0
 21
5573.304523099504
 31
0.0
  0
LINE
  5
7EDF
330
8138
100
AcDbEntity
  8
4
100
AcDbLine
 10
3700.0
 20
5573.304523099504
 30
0.0
 11
3700.0
 21
5362.527166250802
 31
0.0
  0
LINE
  5
7EE0
330
8138
100
AcDbEntity
  8
4
100
AcDbLine
 10
3700.0
 20
5362.527166250802
 30
0.0
 11
2881.234844719729
 21
5362.527166250802
 31
0.0
  0
LINE
  5
7EE1
330
8138
100
AcDbEntity
  8
4
100
AcDbLine
 10
0.0
 20
0.0
 30
0.0
 11
0.0
 21
5900.0
 31
0.0
  0
LINE
  5
7EE2
330
8138
100
AcDbEntity
  8
4
100
AcDbLine
 10
0.0
 20
5900.0
 30
0.0
 11
4200.0
 21
5900.0
 31
0.0
  0
LINE
  5
7EE3
330
8138
100
AcDbEntity
  8
4
100
AcDbLine
 10
4200.0
 20
5900.0
 30
0.0
 11
4200.0
 21
0.0
 31
0.0
  0
LINE
  5
7EE4
330
8138
100
AcDbEntity
  8
4
100
AcDbLine
 10
4200.0
 20
0.0
 30
0.0
 11
0.0
 21
0.0
 31
0.0
  0
DIMENSION
  5
8184
330
8138
100
AcDbEntity
  8
3
100
AcDbDimension
  2
*D28
 10
3249.004301064449
 20
2983.253539278127
 30
0.0
 11
2859.004301064448
 21
3048.967824992412
 31
0.0
 70
    32
  1
(<>)
 71
     5
 42
780.0
  3
IGA
100
AcDbAlignedDimension
 13
2469.004301064448
 23
2290.116393141436
 33
0.0
 14
3249.004301064449
 24
2777.306378051618
 34
0.0
100
AcDbRotatedDimension
1001
ACAD
1000
DSTYLE
1002
{
1070
    40
1040
20.0
1070
    42
1040
1.0
1070
   143
1040
0.039
1070
   172
1070
     1
1070
   271
1070
     4
1070
   272
1070
     4
1070
   279
1070
     0
1070
   284
1070
     0
1070
   285
1070
     0
1070
   286
1070
     0
1070
   341
1005
814C
1070
   343
1005
814C
1070
   344
1005
814C
1002
}
  0
DIMENSION
  5
8191
330
8138
100
AcDbEntity
  8
3
100
AcDbDimension
  2
*D29
 10
3759.004301064448
 20
2983.253539278127
 30
0.0
 11
3504.004301064448
 21
3048.967824992412
 31
0.0
 70
    32
  1
(<>)
 71
     5
 42
510.0
  3
IGA
100
AcDbAlignedDimension
 13
3249.004301064449
 23
2777.306378051618
 33
0.0
 14
3759.004301064448
 24
2110.116393141435
 34
0.0
100
AcDbRotatedDimension
1001
ACAD
1000
DSTYLE
1002
{
1070
    40
1040
20.0
1070
    42
1040
1.0
1070
   143
1040
0.039
1070
   172
1070
     1
1070
   271
1070
     4
1070
   272
1070
     4
1070
   279
1070
     1
1070
   284
1070
     0
1070
   285
1070
     0
1070
   286
1070
     0
1070
   341
1005
814C
1070
   343
1005
814C
1070
   344
1005
814C
1002
}
  0
DIMENSION
  5
8242
330
8138
100
AcDbEntity
  8
3
100
AcDbDimension
  2
*D37
 10
1300.651254010001
 20
1250.598580933156
 30
0.0
 11
1100.651254010001
 21
1300.598580933156
 31
0.0
 70
    32
 71
     5
 42
399.9999999999989
  3
IGA
100
AcDbAlignedDimension
 13
900.6512540100018
 23
1380.116393141435
 33
0.0
 14
1300.651254010001
 24
1380.116393141435
 34
0.0
100
AcDbRotatedDimension
1001
ACAD
1000
DSTYLE
1002
{
1070
    40
1040
20.0
1070
    42
1040
1.0
1070
   143
1040
0.039
1070
   172
1070
     1
1070
   271
1070
     4
1070
   272
1070
     4
1070
   279
1070
     0
1070
   284
1070
     0
1070
   285
1070
     0
1070
   286
1070
     0
1070
   341
1005
814C
1070
   343
1005
814C
1070
   344
1005
814C
1002
}
  0
DIMENSION
  5
824F
330
8138
100
AcDbEntity
  8
3
100
AcDbDimension
  2
*D38
 10
2350.651254010002
 20
1250.598580933156
 30
0.0
 11
1825.651254010001
 21
1300.598580933156
 31
0.0
 70
    32
 71
     5
 42
1050.000000000001
  3
IGA
100
AcDbAlignedDimension
 13
1300.651254010001
 23
1380.116393141435
 33
0.0
 14
2350.651254010002
 24
1380.116393141435
 34
0.0
100
AcDbRotatedDimension
1001
ACAD
1000
DSTYLE
1002
{
1070
    40
1040
20.0
1070
    42
1040
1.0
1070
   143
1040
0.039
1070
   172
1070
     1
1070
   271
1070
     4
1070
   272
1070
     4
1070
   279
1070
     1
1070
   284
1070
     0
1070
   285
1070
     0
1070
   286
1070
     0
1070
   341
1005
814C
1070
   343
1005
814C
1070
   344
1005
814C
1002
}
  0
DIMENSION
  5
825C
330
8138
100
AcDbEntity
  8
3
100
AcDbDimension
  2
*D39
 10
3249.004301064447
 20
1250.598580933156
 30
0.0
 11
2972.504301064448
 21
1300.598580933156
 31
0.0
 70
    32
 71
     5
 42
552.9999999999991
  3
IGA
100
AcDbAlignedDimension
 13
2696.004301064448
 23
1380.116393141435
 33
0.0
 14
3249.004301064447
 24
1380.116393141435
 34
0.0
100
AcDbRotatedDimension
1001
ACAD
1000
DSTYLE
1002
{
1070
    40
1040
20.0
1070
    42
1040
1.0
1070
   143
1040
0.039
1070
   172
1070
     1
1070
   271
1070
     4
1070
   272
1070
     4
1070
   279
1070
     0
1070
   284
1070
     0
1070
   285
1070
     0
1070
   286
1070
     0
1070
   341
1005
814C
1070
   343
1005
814C
1070
   344
1005
814C
1002
}
  0
DIMENSION
  5
8269
330
8138
100
AcDbEntity
  8
3
100
AcDbDimension
  2
*D40
 10
3702.004301064448
 20
1250.598580933156
 30
0.0
 11
3475.504301064448
 21
1300.598580933156
 31
0.0
 70
    32
 71
     5
 42
453.0000000000009
  3
IGA
100
AcDbAlignedDimension
 13
3249.004301064447
 23
1380.116393141435
 33
0.0
 14
3702.004301064448
 24
1380.116393141435
 34
0.0
100
AcDbRotatedDimension
1001
ACAD
1000
DSTYLE
1002
{
1070
    40
1040
20.0
1070
    42
1040
1.0
1070
   143
1040
0.039
1070
   172
1070
     1
1070
   271
1070
     4
1070
   272
1070
     4
1070
   279
1070
     1
1070
   284
1070
     0
1070
   285
1070
     0
1070
   286
1070
     0
1070
   341
1005
814C
1070
   343
1005
814C
1070
   344
1005
814C
1002
}
  0
DIMENSION
  5
8276
330
8138
100
AcDbEntity
  8
3
100
AcDbDimension
  2
*D41
 10
646.940960066795
 20
1560.116393141435
 30
0.0
 11
596.9409600667948
 21
1850.116393141435
 31
0.0
 70
    32
 71
     5
 42
580.0000000000002
  3
IGA
100
AcDbAlignedDimension
 13
793.7582809070062
 23
2140.116393141436
 33
0.0
 14
900.6512540100018
 24
1560.116393141435
 34
0.0
 50
90.0
100
AcDbRotatedDimension
1001
ACAD
1000
DSTYLE
1002
{
1070
    40
1040
20.0
1070
    42
1040
1.0
1070
   143
1040
0.039
1070
   172
1070
     1
1070
   271
1070
     4
1070
   272
1070
     4
1070
   279
1070
     0
1070
   284
1070
     0
1070
   285
1070
     0
1070
   286
1070
     0
1070
   341
1005
814C
1070
   343
1005
814C
1070
   344
1005
814C
1002
}
  0
DIMENSION
  5
8283
330
8138
100
AcDbEntity
  8
3
100
AcDbDimension
  2
*D42
 10
646.940960066795
 20
1480.116393141435
 30
0.0
 11
646.940960066795
 21
1520.116393141435
 31
0.0
 70
   160
  1
(<>)
 71
     5
 42
80.0
  3
IGA
100
AcDbAlignedDimension
 13
900.6512540100018
 23
1560.116393141435
 33
0.0
 14
900.6512540100018
 24
1480.116393141435
 34
0.0
 50
90.0
100
AcDbRotatedDimension
1001
ACAD
1000
DSTYLE
1002
{
1070
    40
1040
20.0
1070
    42
1040
1.0
1070
   143
1040
0.039
1070
   172
1070
     1
1070
   271
1070
     4
1070
   272
1070
     4
1070
   279
1070
     1
1070
   284
1070
     0
1070
   285
1070
     0
1070
   286
1070
     0
1070
   341
1005
814C
1070
   343
1005
814C
1070
   344
1005
835C
1002
}
  0
DIMENSION
  5
8295
330
8138
100
AcDbEntity
  8
3
100
AcDbDimension
  2
*D43
 10
646.940960066795
 20
1380.116393141435
 30
0.0
 11
637.9005634515488
 21
1278.698792083154
 31
0.0
 70
   160
 71
     5
 42
100.0
  3
IGA
100
AcDbAlignedDimension
 13
900.6512540100018
 23
1480.116393141435
 33
0.0
 14
900.6512540100018
 24
1380.116393141435
 34
0.0
 50
90.0
100
AcDbRotatedDimension
1001
ACAD
1000
DSTYLE
1002
{
1070
    40
1040
20.0
1070
    42
1040
1.0
1070
   143
1040
0.039
1070
   172
1070
     1
1070
   271
1070
     4
1070
   272
1070
     4
1070
   279
1070
     1
1070
   284
1070
     0
1070
   285
1070
     0
1070
   286
1070
     0
1070
   341
1005
814C
1070
   343
1005
835C
1070
   344
1005
814C
1002
}
  0
DIMENSION
  5
83BE
330
8138
100
AcDbEntity
  8
3
100
AcDbDimension
  2
*D45
 10
484.6108100890707
 20
2600.116393141436
 30
0.0
 11
418.8965243747845
 21
1990.116393141435
 31
0.0
 70
    32
  1
(<>)
 71
     5
 42
1219.999999999999
  3
IGA
100
AcDbAlignedDimension
 13
900.6512540100018
 23
1380.116393141435
 33
0.0
 14
1286.651254010002
 24
2600.116393141435
 34
0.0
 50
90.0
100
AcDbRotatedDimension
1001
ACAD
1000
DSTYLE
1002
{
1070
    40
1040
20.0
1070
    42
1040
1.0
1070
   143
1040
0.039
1070
   172
1070
     1
1070
   271
1070
     4
1070
   272
1070
     4
1070
   279
1070
     0
1070
   284
1070
     0
1070
   285
1070
     0
1070
   286
1070
     0
1070
   341
1005
814C
1070
   343
1005
814C
1070
   344
1005
814C
1002
}
  0
DIMENSION
  5
83E3
330
8138
100
AcDbEntity
  8
3
100
AcDbDimension
  2
*D47
 10
846.6512540100021
 20
2899.618059262129
 30
0.0
 11
1073.651254010002
 21
2949.618059262128
 31
0.0
 70
    32
 71
     5
 42
454.0
  3
IGA
100
AcDbAlignedDimension
 13
1300.651254010002
 23
2645.040613710918
 33
0.0
 14
846.6512540100021
 24
2093.116393141435
 34
0.0
100
AcDbRotatedDimension
1001
ACAD
1000
DSTYLE
1002
{
1070
    40
1040
20.0
1070
    42
1040
1.0
1070
   143
1040
0.039
1070
   172
1070
     1
1070
   271
1070
     4
1070
   272
1070
     4
1070
   279
1070
     0
1070
   284
1070
     0
1070
   285
1070
     0
1070
   286
1070
     0
1070
   341
1005
814C
1070
   343
1005
814C
1070
   344
1005
814C
1002
}
  0
DIMENSION
  5
83F9
330
8138
100
AcDbEntity
  8
3
100
AcDbDimension
  2
*D48
 10
2350.651254010002
 20
3107.157614857106
 30
0.0
 11
1625.651254010002
 21
3157.157614857106
 31
0.0
 70
    32
 71
     5
 42
1450.0
  3
IGA
100
AcDbAlignedDimension
 13
900.6512540100018
 23
3445.460569308627
 33
0.0
 14
2350.651254010002
 24
3445.460569308626
 34
0.0
100
AcDbRotatedDimension
1001
ACAD
1000
DSTYLE
1002
{
1070
    40
1040
20.0
1070
    42
1040
1.0
1070
   143
1040
0.039
1070
   172
1070
     1
1070
   271
1070
     4
1070
   272
1070
     4
1070
   279
1070
     0
1070
   284
1070
     0
1070
   285
1070
     0
1070
   286
1070
     0
1070
   341
1005
814C
1070
   343
1005
814C
1070
   344
1005
814C
1002
}
  0
DIMENSION
  5
8406
330
8138
100
AcDbEntity
  8
3
100
AcDbDimension
  2
*D49
 10
2350.651254010002
 20
4600.065859807033
 30
0.0
 11
2025.651254010002
 21
4650.065859807033
 31
0.0
 70
    32
 71
     5
 42
650.0
  3
IGA
100
AcDbAlignedDimension
 13
1700.651254010002
 23
4451.460569308628
 33
0.0
 14
2350.651254010002
 24
4045.460569308627
 34
0.0
100
AcDbRotatedDimension
1001
ACAD
1000
DSTYLE
1002
{
1070
    40
1040
20.0
1070
    42
1040
1.0
1070
   143
1040
0.039
1070
   172
1070
     1
1070
   271
1070
     4
1070
   272
1070
     4
1070
   279
1070
     0
1070
   284
1070
     0
1070
   285
1070
     0
1070
   286
1070
     0
1070
   341
1005
814C
1070
   343
1005
814C
1070
   344
1005
814C
1002
}
  0
ENDSEC
  0
SECTION
  2
OBJECTS
  0
DICTIONARY
  5
80D5
330
0
100
AcDbDictionary
281
     1
  3
ACAD_CIP_PREVIOUS_PRODUCT_INFO
350
8180
  3
ACAD_COLOR
350
812B
  3
ACAD_DETAILVIEWSTYLE
350
8132
  3
ACAD_GROUP
350
80D6
  3
ACAD_LAYOUT
350
812A
  3
ACAD_MATERIAL
350
80D9
  3
ACAD_MLEADERSTYLE
350
812E
  3
ACAD_MLINESTYLE
350
8127
  3
ACAD_PLOTSETTINGS
350
8129
  3
ACAD_PLOTSTYLENAME
350
80D7
  3
ACAD_SCALELIST
350
810B
  3
ACAD_SECTIONVIEWSTYLE
350
8130
  3
ACAD_TABLESTYLE
350
812C
  3
ACAD_VISUALSTYLE
350
80F2
  3
ACDB_RECOMPOSE_DATA
350
8433
  3
AcDbVariableDictionary
350
8426
  3
DWGPROPS
350
8434
  0
DICTIONARY
  5
841C
330
811D
100
AcDbDictionary
280
     1
281
     1
  3
ADSK_XREC_LAYER_RECONCILED
360
841D
  0
DICTIONARY
  5
841E
330
813C
100
AcDbDictionary
280
     1
281
     1
  3
ADSK_XREC_LAYER_RECONCILED
360
841F
  0
DICTIONARY
  5
8420
330
813F
100
AcDbDictionary
280
     1
281
     1
  3
ADSK_XREC_LAYER_RECONCILED
360
8421
  0
DICTIONARY
  5
8422
330
8140
100
AcDbDictionary
280
     1
281
     1
  3
ADSK_XREC_LAYER_RECONCILED
360
8423
  0
DICTIONARY
  5
8424
330
8141
100
AcDbDictionary
280
     1
281
     1
  3
ADSK_XREC_LAYER_RECONCILED
360
8425
  0
XRECORD
  5
8180
102
{ACAD_REACTORS
330
80D5
102
}
330
80D5
100
AcDbXrecord
280
     1
300
ACDLT
300
2015
300
INVLTS_F_S
  0
DICTIONARY
  5
812B
102
{ACAD_REACTORS
330
80D5
102
}
330
80D5
100
AcDbDictionary
281
     1
  0
DICTIONARY
  5
8132
102
{ACAD_REACTORS
330
80D5
102
}
330
80D5
100
AcDbDictionary
281
     1
  3
Imperial24
350
8133
  0
DICTIONARY
  5
80D6
102
{ACAD_REACTORS
330
80D5
102
}
330
80D5
100
AcDbDictionary
281
     1
  0
DICTIONARY
  5
812A
102
{ACAD_REACTORS
330
80D5
102
}
330
80D5
100
AcDbDictionary
281
     1
  3
Model
350
813B
  3
レイアウト1
350
8137
  0
DICTIONARY
  5
80D9
102
{ACAD_REACTORS
330
80D5
102
}
330
80D5
100
AcDbDictionary
281
     1
  3
ByBlock
350
80E2
  3
ByLayer
350
80DA
  3
Global
350
80EA
  0
DICTIONARY
  5
812E
102
{ACAD_REACTORS
330
80D5
102
}
330
80D5
100
AcDbDictionary
281
     1
  3
Standard
350
812F
  0
DICTIONARY
  5
8127
102
{ACAD_REACTORS
330
80D5
102
}
330
80D5
100
AcDbDictionary
281
     1
  3
Standard
350
8128
  0
DICTIONARY
  5
8129
102
{ACAD_REACTORS
330
80D5
102
}
330
80D5
100
AcDbDictionary
281
     1
  0
ACDBDICTIONARYWDFLT
  5
80D7
102
{ACAD_REACTORS
330
80D5
102
}
330
80D5
100
AcDbDictionary
281
     1
  3
Normal
350
80D8
100
AcDbDictionaryWithDefault
340
80D8
  0
DICTIONARY
  5
810B
102
{ACAD_REACTORS
330
80D5
102
}
330
80D5
100
AcDbDictionary
281
     1
  3
A0
350
810C
  3
A1
350
810D
  3
A2
350
810E
  3
A3
350
810F
  3
A4
350
8110
  3
A5
350
8111
  3
A6
350
8112
  3
A7
350
8113
  3
A8
350
8114
  3
A9
350
8115
  3
B0
350
8116
  3
B1
350
8117
  3
B2
350
8118
  3
B3
350
8119
  3
B4
350
811A
  3
B5
350
811B
  3
B6
350
811C
  0
DICTIONARY
  5
8130
102
{ACAD_REACTORS
330
80D5
102
}
330
80D5
100
AcDbDictionary
281
     1
  3
Imperial24
350
8131
  0
DICTIONARY
  5
812C
102
{ACAD_REACTORS
330
80D5
102
}
330
80D5
100
AcDbDictionary
281
     1
  3
Standard
350
812D
  0
DICTIONARY
  5
80F2
102
{ACAD_REACTORS
330
80D5
102
}
330
80D5
100
AcDbDictionary
281
     1
  3
2dWireframe
350
80F8
  3
Basic
350
80F7
  3
Brighten
350
80FE
  3
ColorChange
350
8102
  3
Conceptual
350
80FB
  3
Dim
350
80FD
  3
EdgeColorOff
350
810A
  3
Facepattern
350
8101
  3
Flat
350
80F3
  3
FlatWithEdges
350
80F4
  3
Gouraud
350
80F5
  3
GouraudWithEdges
350
80F6
  3
Hidden
350
80FA
  3
JitterOff
350
8108
  3
Linepattern
350
8100
  3
OverhangOff
350
8109
  3
Realistic
350
80FC
  3
Shaded
350
8107
  3
Shaded with edges
350
8106
  3
Shades of Gray
350
8103
  3
Sketchy
350
8104
  3
Thicken
350
80FF
  3
Wireframe
350
80F9
  3
X-Ray
350
8105
  0
XRECORD
  5
8433
102
{ACAD_REACTORS
330
80D5
102
}
330
80D5
100
AcDbXrecord
280
     1
 90
        1
330
812D
  0
DICTIONARY
  5
8426
102
{ACAD_REACTORS
330
80D5
102
}
330
80D5
100
AcDbDictionary
281
     1
  3
CANNOSCALE
350
842B
  3
CMLEADERSTYLE
350
8428
  3
CTABLESTYLE
350
8427
  3
CVIEWDETAILSTYLE
350
8429
  3
CVIEWSECTIONSTYLE
350
842A
  3
DIMASSOC
350
842E
  3
INDEXCTL
350
842D
  3
SORTENTS
350
842C
  3
XCLIPFRAME
350
842F
  0
XRECORD
  5
8434
102
{ACAD_REACTORS
330
80D5
102
}
330
80D5
100
AcDbXrecord
280
     1
  1
DWGPROPS COOKIE
  2

  3

  4

  6

  7

  8
yasukiyo.ogawa
  9

300
=
301
=
302
=
303
=
304
=
305
=
306
=
307
=
308
=
309
=
 40
0.014895775462963
 41
2451387.570972685
 42
2460262.667442836
  1

 90
        0
  0
XRECORD
  5
841D
102
{ACAD_REACTORS
330
841C
102
}
330
841C
100
AcDbXrecord
280
     1
290
     1
  0
XRECORD
  5
841F
102
{ACAD_REACTORS
330
841E
102
}
330
841E
100
AcDbXrecord
280
     1
290
     1
  0
XRECORD
  5
8421
102
{ACAD_REACTORS
330
8420
102
}
330
8420
100
AcDbXrecord
280
     1
290
     1
  0
XRECORD
  5
8423
102
{ACAD_REACTORS
330
8422
102
}
330
8422
100
AcDbXrecord
280
     1
290
     1
  0
XRECORD
  5
8425
102
{ACAD_REACTORS
330
8424
102
}
330
8424
100
AcDbXrecord
280
     1
290
     1
  0
ACDBDETAILVIEWSTYLE
  5
8133
102
{ACAD_XDICTIONARY
360
846C
102
}
102
{ACAD_REACTORS
330
8132
102
}
330
8132
100
AcDbModelDocViewStyle
 70
     0
  3
Imperial24
290
     0
100
AcDbDetailViewStyle
 70
     0
 71
     0
 90
        3
 71
     1
340
811E
 40
0.24
340
0
 40
0.24
300

 40
0.36
280
     3
 71
     2
340
8125
 90
       25
 71
     3
340
811E
 40
0.24
 90
        1
 40
0.75
 90
        1
300
%<\AcVar ViewType \f "%tc1">% %<\AcVar ViewDetailId>%\PSCALE %<\AcVar ViewScale \f "%sn">%
 71
     4
340
8125
 90
       25
340
8125
 90
       25
280
     0
  0
LAYOUT
  5
813B
102
{ACAD_XDICTIONARY
360
8470
102
}
102
{ACAD_REACTORS
330
812A
102
}
330
812A
100
AcDbPlotSettings
  1

  2
RICOH imagio MP W3600 RPCS
  4

  6

 40
0.0
 41
0.0
 42
0.0
 43
0.0
 44
0.0
 45
0.0
 46
0.0
 47
0.0
 48
0.0
 49
0.0
140
0.0
141
0.0
142
1.0
143
1.0
 70
  1712
 72
     0
 73
     0
 74
     0
  7

 75
     0
147
1.0
148
0.0
149
0.0
100
AcDbLayout
  1
Model
 70
     1
 71
     0
 10
0.0
 20
0.0
 11
12.0
 21
9.0
 12
0.0
 22
0.0
 32
0.0
 14
0.0
 24
0.0
 34
0.0
 15
0.0
 25
0.0
 35
0.0
146
0.0
 13
0.0
 23
0.0
 33
0.0
 16
1.0
 26
0.0
 36
0.0
 17
0.0
 27
1.0
 37
0.0
 76
     0
330
8138
331
813D
  0
LAYOUT
  5
8137
102
{ACAD_XDICTIONARY
360
846E
102
}
102
{ACAD_REACTORS
330
812A
102
}
330
812A
100
AcDbPlotSettings
  1

  2
RICOH imagio MP W3600 RPCS
  4

  6

 40
0.0
 41
0.0
 42
0.0
 43
0.0
 44
0.0
 45
0.0
 46
0.0
 47
0.0
 48
0.0
 49
0.0
140
0.0
141
0.0
142
1.0
143
1.0
 70
   688
 72
     0
 73
     0
 74
     5
  7

 75
    16
147
1.0
148
0.0
149
0.0
100
AcDbLayout
  1
レイアウト1
 70
     1
 71
     1
 10
0.0
 20
0.0
 11
12.0
 21
9.0
 12
0.0
 22
0.0
 32
0.0
 14
1.000000000000000E+20
 24
1.000000000000000E+20
 34
1.000000000000000E+20
 15
-1.000000000000000E+20
 25
-1.000000000000000E+20
 35
-1.000000000000000E+20
146
0.0
 13
0.0
 23
0.0
 33
0.0
 16
1.0
 26
0.0
 36
0.0
 17
0.0
 27
1.0
 37
0.0
 76
     0
330
8134
  0
MATERIAL
  5
80E2
102
{ACAD_XDICTIONARY
360
80E3
102
}
102
{ACAD_REACTORS
330
80D9
102
}
330
80D9
100
AcDbMaterial
  1
ByBlock
 72
     0
 43
0.0208333333333333
 43
0.0
 43
0.0
 43
0.0
 43
0.0
 43
0.0208333333333333
 43
0.0
 43
0.0
 43
0.0
 43
0.0
 43
1.0
 43
0.0
 43
0.0
 43
0.0
 43
0.0
 43
1.0
 77
     0
 47
0.0208333333333333
 47
0.0
 47
0.0
 47
0.0
 47
0.0
 47
0.0208333333333333
 47
0.0
 47
0.0
 47
0.0
 47
0.0
 47
1.0
 47
0.0
 47
0.0
 47
0.0
 47
0.0
 47
1.0
171
     0
 49
0.0208333333333333
 49
0.0
 49
0.0
 49
0.0
 49
0.0
 49
0.0208333333333333
 49
0.0
 49
0.0
 49
0.0
 49
0.0
 49
1.0
 49
0.0
 49
0.0
 49
0.0
 49
0.0
 49
1.0
175
     0
142
0.0208333333333333
142
0.0
142
0.0
142
0.0
142
0.0
142
0.0208333333333333
142
0.0
142
0.0
142
0.0
142
0.0
142
1.0
142
0.0
142
0.0
142
0.0
142
0.0
142
1.0
179
     0
144
0.0208333333333333
144
0.0
144
0.0
144
0.0
144
0.0
144
0.0208333333333333
144
0.0
144
0.0
144
0.0
144
0.0
144
1.0
144
0.0
144
0.0
144
0.0
144
0.0
144
1.0
147
0.0208333333333333
147
0.0
147
0.0
147
0.0
147
0.0
147
0.0208333333333333
147
0.0
147
0.0
147
0.0
147
0.0
147
1.0
147
0.0
147
0.0
147
0.0
147
0.0
147
1.0
  0
MATERIAL
  5
80DA
102
{ACAD_XDICTIONARY
360
80DB
102
}
102
{ACAD_REACTORS
330
80D9
102
}
330
80D9
100
AcDbMaterial
  1
ByLayer
 72
     0
 43
0.0208333333333333
 43
0.0
 43
0.0
 43
0.0
 43
0.0
 43
0.0208333333333333
 43
0.0
 43
0.0
 43
0.0
 43
0.0
 43
1.0
 43
0.0
 43
0.0
 43
0.0
 43
0.0
 43
1.0
 77
     0
 47
0.0208333333333333
 47
0.0
 47
0.0
 47
0.0
 47
0.0
 47
0.0208333333333333
 47
0.0
 47
0.0
 47
0.0
 47
0.0
 47
1.0
 47
0.0
 47
0.0
 47
0.0
 47
0.0
 47
1.0
171
     0
 49
0.0208333333333333
 49
0.0
 49
0.0
 49
0.0
 49
0.0
 49
0.0208333333333333
 49
0.0
 49
0.0
 49
0.0
 49
0.0
 49
1.0
 49
0.0
 49
0.0
 49
0.0
 49
0.0
 49
1.0
175
     0
142
0.0208333333333333
142
0.0
142
0.0
142
0.0
142
0.0
142
0.0208333333333333
142
0.0
142
0.0
142
0.0
142
0.0
142
1.0
142
0.0
142
0.0
142
0.0
142
0.0
142
1.0
179
     0
144
0.0208333333333333
144
0.0
144
0.0
144
0.0
144
0.0
144
0.0208333333333333
144
0.0
144
0.0
144
0.0
144
0.0
144
1.0
144
0.0
144
0.0
144
0.0
144
0.0
144
1.0
147
0.0208333333333333
147
0.0
147
0.0
147
0.0
147
0.0
147
0.0208333333333333
147
0.0
147
0.0
147
0.0
147
0.0
147
1.0
147
0.0
147
0.0
147
0.0
147
0.0
147
1.0
  0
MATERIAL
  5
80EA
102
{ACAD_XDICTIONARY
360
80EB
102
}
102
{ACAD_REACTORS
330
80D9
102
}
330
80D9
100
AcDbMaterial
  1
Global
 72
     0
 43
0.0208333333333333
 43
0.0
 43
0.0
 43
0.0
 43
0.0
 43
0.0208333333333333
 43
0.0
 43
0.0
 43
0.0
 43
0.0
 43
1.0
 43
0.0
 43
0.0
 43
0.0
 43
0.0
 43
1.0
 77
     0
 47
0.0208333333333333
 47
0.0
 47
0.0
 47
0.0
 47
0.0
 47
0.0208333333333333
 47
0.0
 47
0.0
 47
0.0
 47
0.0
 47
1.0
 47
0.0
 47
0.0
 47
0.0
 47
0.0
 47
1.0
171
     0
 49
0.0208333333333333
 49
0.0
 49
0.0
 49
0.0
 49
0.0
 49
0.0208333333333333
 49
0.0
 49
0.0
 49
0.0
 49
0.0
 49
1.0
 49
0.0
 49
0.0
 49
0.0
 49
0.0
 49
1.0
175
     0
142
0.0208333333333333
142
0.0
142
0.0
142
0.0
142
0.0
142
0.0208333333333333
142
0.0
142
0.0
142
0.0
142
0.0
142
1.0
142
0.0
142
0.0
142
0.0
142
0.0
142
1.0
179
     0
144
0.0208333333333333
144
0.0
144
0.0
144
0.0
144
0.0
144
0.0208333333333333
144
0.0
144
0.0
144
0.0
144
0.0
144
1.0
144
0.0
144
0.0
144
0.0
144
0.0
144
1.0
147
0.0208333333333333
147
0.0
147
0.0
147
0.0
147
0.0
147
0.0208333333333333
147
0.0
147
0.0
147
0.0
147
0.0
147
1.0
147
0.0
147
0.0
147
0.0
147
0.0
147
1.0
  0
MLEADERSTYLE
  5
812F
102
{ACAD_REACTORS
330
812E
102
}
330
812E
100
AcDbMLeaderStyle
170
     2
171
     1
172
     0
 90
        2
 40
0.0
 41
0.0
173
     1
 91
-1056964608
340
8123
 92
       -2
290
     1
 42
0.09
291
     1
 43
0.36
  3
Standard
 44
0.18
300

342
811E
174
     1
178
     6
175
     1
176
     0
 93
-1056964608
 45
0.18
292
     0
297
     0
 46
0.18
 94
-1056964608
 47
1.0
 49
1.0
140
1.0
293
     1
141
0.0
294
     1
177
     0
142
1.0
295
     0
296
     0
143
0.125
1001
ACAD_MLEADERVER
1070
     2
  0
MLINESTYLE
  5
8128
102
{ACAD_REACTORS
330
8127
102
}
330
8127
100
AcDbMlineStyle
  2
STANDARD
 70
     0
  3

 62
   256
 51
90.0
 52
90.0
 71
     2
 49
0.5
 62
   256
  6
BYLAYER
 49
-0.5
 62
   256
  6
BYLAYER
  0
ACDBPLACEHOLDER
  5
80D8
102
{ACAD_REACTORS
330
80D7
102
}
330
80D7
  0
SCALE
  5
810C
102
{ACAD_REACTORS
330
810B
102
}
330
810B
100
AcDbScale
 70
     0
300
1:1
140
1.0
141
1.0
290
     1
  0
SCALE
  5
810D
102
{ACAD_REACTORS
330
810B
102
}
330
810B
100
AcDbScale
 70
     0
300
1/128" = 1'-0"
140
0.0078125
141
12.0
290
     0
  0
SCALE
  5
810E
102
{ACAD_REACTORS
330
810B
102
}
330
810B
100
AcDbScale
 70
     0
300
1/64" = 1'-0"
140
0.015625
141
12.0
290
     0
  0
SCALE
  5
810F
102
{ACAD_REACTORS
330
810B
102
}
330
810B
100
AcDbScale
 70
     0
300
1/32" = 1'-0"
140
0.03125
141
12.0
290
     0
  0
SCALE
  5
8110
102
{ACAD_REACTORS
330
810B
102
}
330
810B
100
AcDbScale
 70
     0
300
1/16" = 1'-0"
140
0.0625
141
12.0
290
     0
  0
SCALE
  5
8111
102
{ACAD_REACTORS
330
810B
102
}
330
810B
100
AcDbScale
 70
     0
300
3/32" = 1'-0"
140
0.09375
141
12.0
290
     0
  0
SCALE
  5
8112
102
{ACAD_REACTORS
330
810B
102
}
330
810B
100
AcDbScale
 70
     0
300
1/8" = 1'-0"
140
0.125
141
12.0
290
     0
  0
SCALE
  5
8113
102
{ACAD_REACTORS
330
810B
102
}
330
810B
100
AcDbScale
 70
     0
300
3/16" = 1'-0"
140
0.1875
141
12.0
290
     0
  0
SCALE
  5
8114
102
{ACAD_REACTORS
330
810B
102
}
330
810B
100
AcDbScale
 70
     0
300
1/4" = 1'-0"
140
0.25
141
12.0
290
     0
  0
SCALE
  5
8115
102
{ACAD_REACTORS
330
810B
102
}
330
810B
100
AcDbScale
 70
     0
300
3/8" = 1'-0"
140
0.375
141
12.0
290
     0
  0
SCALE
  5
8116
102
{ACAD_REACTORS
330
810B
102
}
330
810B
100
AcDbScale
 70
     0
300
1/2" = 1'-0"
140
0.5
141
12.0
290
     0
  0
SCALE
  5
8117
102
{ACAD_REACTORS
330
810B
102
}
330
810B
100
AcDbScale
 70
     0
300
3/4" = 1'-0"
140
0.75
141
12.0
290
     0
  0
SCALE
  5
8118
102
{ACAD_REACTORS
330
810B
102
}
330
810B
100
AcDbScale
 70
     0
300
1" = 1'-0"
140
1.0
141
12.0
290
     0
  0
SCALE
  5
8119
102
{ACAD_REACTORS
330
810B
102
}
330
810B
100
AcDbScale
 70
     0
300
1-1/2" = 1'-0"
140
1.5
141
12.0
290
     0
  0
SCALE
  5
811A
102
{ACAD_REACTORS
330
810B
102
}
330
810B
100
AcDbScale
 70
     0
300
3" = 1'-0"
140
3.0
141
12.0
290
     0
  0
SCALE
  5
811B
102
{ACAD_REACTORS
330
810B
102
}
330
810B
100
AcDbScale
 70
     0
300
6" = 1'-0"
140
6.0
141
12.0
290
     0
  0
SCALE
  5
811C
102
{ACAD_REACTORS
330
810B
102
}
330
810B
100
AcDbScale
 70
     0
300
1'-0" = 1'-0"
140
12.0
141
12.0
290
     0
  0
ACDBSECTIONVIEWSTYLE
  5
8131
102
{ACAD_XDICTIONARY
360
846A
102
}
102
{ACAD_REACTORS
330
8130
102
}
330
8130
100
AcDbModelDocViewStyle
 70
     0
  3
Imperial24
290
     0
100
AcDbSectionViewStyle
 70
     0
 71
     0
 90
       78
 71
     1
340
811E
 40
0.24
340
0
340
0
 40
0.24
300
I, O, Q, S, X, Z
 40
0.48
 90
        3
 40
0.18
 90
        1
 71
     2
340
8125
 90
       25
340
8125
 90
       50
 40
0.24
 40
0.0
 40
0.24
 71
     3
340
811E
 40
0.24
 90
        1
 40
0.75
 90
        1
300
%<\AcVar ViewType \f "%tc1">% %<\AcVar ViewSectionStartId>%-%<\AcVar ViewSectionEndId>%\PSCALE %<\AcVar ViewScale \f "%sn">%
 71
     4
300
ANSI31
 40
1.0
 90
        0
290
     0
290
     0
 90
        6
 40
0.0
 40
1.570796326794896
 40
0.2617993877991494
 40
1.308996938995747
 40
-0.2617993877991494
 40
1.832595714594046
  0
TABLESTYLE
  5
812D
102
{ACAD_XDICTIONARY
360
8431
102
}
102
{ACAD_REACTORS
330
812C
102
}
330
812C
100
AcDbTableStyle
  3
Standard
 70
     0
 71
     0
 40
0.06
 41
0.06
280
     0
281
     0
  7
STANDARD
140
0.18
170
     2
 62
     0
 63
     7
283
     0
274
    -2
284
     1
 64
     0
275
    -2
285
     1
 65
     0
276
    -2
286
     1
 66
     0
277
    -2
287
     1
 67
     0
278
    -2
288
     1
 68
     0
279
    -2
289
     1
 69
     0
  7
STANDARD
140
0.25
170
     5
 62
     0
 63
     7
283
     0
274
    -2
284
     1
 64
     0
275
    -2
285
     1
 65
     0
276
    -2
286
     1
 66
     0
277
    -2
287
     1
 67
     0
278
    -2
288
     1
 68
     0
279
    -2
289
     1
 69
     0
  7
STANDARD
140
0.18
170
     5
 62
     0
 63
     7
283
     0
274
    -2
284
     1
 64
     0
275
    -2
285
     1
 65
     0
276
    -2
286
     1
 66
     0
277
    -2
287
     1
 67
     0
278
    -2
288
     1
 68
     0
279
    -2
289
     1
 69
     0
  0
VISUALSTYLE
  5
80F8
102
{ACAD_XDICTIONARY
360
8442
102
}
102
{ACAD_REACTORS
330
80F2
102
}
330
80F2
100
AcDbVisualStyle
  2
2dWireframe
 70
     4
 71
     0
 72
     2
 73
     0
 90
        0
 40
-0.6
 41
-30.0
 62
     5
 63
     7
 74
     1
 91
        4
 64
     7
 65
   257
 75
     1
175
     1
 42
1.0
 92
        0
 66
   257
 43
1.0
 76
     1
 77
     6
 78
     2
 67
     7
 79
     5
170
     0
171
     0
290
     0
174
     0
 93
        1
 44
0.0
173
     0
291
     0
 45
0.0
1001
ACAD
1000
AcDbSavedByObjectVersion
1070
     0
  0
VISUALSTYLE
  5
80F7
102
{ACAD_XDICTIONARY
360
8440
102
}
102
{ACAD_REACTORS
330
80F2
102
}
330
80F2
100
AcDbVisualStyle
  2
Basic
 70
     7
 71
     1
 72
     0
 73
     1
 90
        0
 40
-0.6
 41
-30.0
 62
     5
 63
     7
 74
     0
 91
        4
 64
     7
 65
   257
 75
     1
175
     1
 42
1.0
 92
        8
 66
     7
 43
1.0
 76
     1
 77
     6
 78
     2
 67
     7
 79
     5
170
     0
171
     0
290
     0
174
     0
 93
        1
 44
0.0
173
     0
291
     1
 45
0.0
1001
ACAD
1000
AcDbSavedByObjectVersion
1070
     0
  0
VISUALSTYLE
  5
80FE
102
{ACAD_XDICTIONARY
360
844E
102
}
102
{ACAD_REACTORS
330
80F2
102
}
330
80F2
100
AcDbVisualStyle
  2
Brighten
 70
    12
 71
     2
 72
     2
 73
     0
 90
        0
 40
-0.6
 41
-30.0
 62
     5
 63
     7
 74
     1
 91
        4
 64
     7
 65
   257
 75
     1
175
     1
 42
1.0
 92
        8
 66
     7
 43
1.0
 76
     1
 77
     6
 78
     2
 67
     7
 79
     5
170
     0
171
     0
290
     0
174
     0
 93
        1
 44
50.0
173
     0
291
     1
 45
0.0
1001
ACAD
1000
AcDbSavedByObjectVersion
1070
     0
  0
VISUALSTYLE
  5
8102
102
{ACAD_XDICTIONARY
360
8456
102
}
102
{ACAD_REACTORS
330
80F2
102
}
330
80F2
100
AcDbVisualStyle
  2
ColorChange
 70
    16
 71
     2
 72
     2
 73
     3
 90
        0
 40
-0.6
 41
-30.0
 62
     5
 63
     8
 74
     1
 91
        4
 64
     7
 65
   257
 75
     1
175
     1
 42
1.0
 92
        8
 66
     8
 43
1.0
 76
     1
 77
     6
 78
     2
 67
     7
 79
     5
170
     0
171
     0
290
     0
174
     0
 93
        1
 44
0.0
173
     0
291
     1
 45
0.0
1001
ACAD
1000
AcDbSavedByObjectVersion
1070
     0
  0
VISUALSTYLE
  5
80FB
102
{ACAD_XDICTIONARY
360
8448
102
}
102
{ACAD_REACTORS
330
80F2
102
}
330
80F2
100
AcDbVisualStyle
  2
Conceptual
 70
     9
 71
     3
 72
     2
 73
     0
 90
        0
 40
-0.6
 41
-30.0
 62
     5
 63
     7
 74
     2
 91
        2
 64
     7
 65
   257
 75
     1
175
     1
 42
179.0
 92
        8
 66
     7
 43
1.0
 76
     1
 77
     6
 78
     2
 67
     7
 79
     3
170
     0
171
     0
290
     0
174
     0
 93
        1
 44
0.0
173
     0
291
     0
 45
0.0
1001
ACAD
1000
AcDbSavedByObjectVersion
1070
     0
  0
VISUALSTYLE
  5
80FD
102
{ACAD_XDICTIONARY
360
844C
102
}
102
{ACAD_REACTORS
330
80F2
102
}
330
80F2
100
AcDbVisualStyle
  2
Dim
 70
    11
 71
     2
 72
     2
 73
     0
 90
        0
 40
-0.6
 41
-30.0
 62
     5
 63
     7
 74
     1
 91
        4
 64
     7
 65
   257
 75
     1
175
     1
 42
1.0
 92
        8
 66
     7
 43
1.0
 76
     1
 77
     6
 78
     2
 67
     7
 79
     5
170
     0
171
     0
290
     0
174
     0
 93
        1
 44
-50.0
173
     0
291
     1
 45
0.0
1001
ACAD
1000
AcDbSavedByObjectVersion
1070
     0
  0
VISUALSTYLE
  5
810A
102
{ACAD_XDICTIONARY
360
8466
102
}
102
{ACAD_REACTORS
330
80F2
102
}
330
80F2
100
AcDbVisualStyle
  2
EdgeColorOff
 70
    22
 71
     2
 72
     2
 73
     0
 90
        0
 40
-0.6
 41
-30.0
 62
     5
 63
     7
 74
     1
 91
        4
 64
     7
 65
   257
 75
     1
175
     1
 42
1.0
 92
        8
 66
     7
 43
1.0
 76
     1
 77
     6
 78
     2
 67
     7
 79
     5
170
     0
171
     0
290
     0
174
     0
 93
        1
 44
0.0
173
     0
291
     1
 45
0.0
1001
ACAD
1000
AcDbSavedByObjectVersion
1070
     0
  0
VISUALSTYLE
  5
8101
102
{ACAD_XDICTIONARY
360
8454
102
}
102
{ACAD_REACTORS
330
80F2
102
}
330
80F2
100
AcDbVisualStyle
  2
Facepattern
 70
    15
 71
     2
 72
     2
 73
     0
 90
        0
 40
-0.6
 41
-30.0
 62
     5
 63
     7
 74
     1
 91
        4
 64
     7
 65
   257
 75
     1
175
     1
 42
1.0
 92
        8
 66
     7
 43
1.0
 76
     1
 77
     6
 78
     2
 67
     7
 79
     5
170
     0
171
     0
290
     0
174
     0
 93
        1
 44
0.0
173
     0
291
     1
 45
0.0
1001
ACAD
1000
AcDbSavedByObjectVersion
1070
     0
  0
VISUALSTYLE
  5
80F3
102
{ACAD_XDICTIONARY
360
8438
102
}
102
{ACAD_REACTORS
330
80F2
102
}
330
80F2
100
AcDbVisualStyle
  2
Flat
 70
     0
 71
     2
 72
     1
 73
     1
 90
        2
 40
-0.6
 41
30.0
 62
     5
 63
     7
 74
     0
 91
        0
 64
     7
 65
   257
 75
     1
175
     1
 42
1.0
 92
        8
 66
     7
 43
1.0
 76
     1
 77
     6
 78
     2
 67
     7
 79
     5
170
     0
171
     0
290
     0
174
     0
 93
       13
 44
0.0
173
     0
291
     1
 45
0.0
1001
ACAD
1000
AcDbSavedByObjectVersion
1070
     0
  0
VISUALSTYLE
  5
80F4
102
{ACAD_XDICTIONARY
360
843A
102
}
102
{ACAD_REACTORS
330
80F2
102
}
330
80F2
100
AcDbVisualStyle
  2
FlatWithEdges
 70
     1
 71
     2
 72
     1
 73
     1
 90
        2
 40
-0.6
 41
30.0
 62
     5
 63
     7
 74
     1
 91
        0
 64
     7
 65
   257
 75
     1
175
     1
 42
1.0
 92
        0
 66
   257
 43
1.0
 76
     1
 77
     6
 78
     2
 67
     7
 79
     5
170
     0
171
     0
290
     0
174
     0
 93
       13
 44
0.0
173
     0
291
     1
 45
0.0
1001
ACAD
1000
AcDbSavedByObjectVersion
1070
     0
  0
VISUALSTYLE
  5
80F5
102
{ACAD_XDICTIONARY
360
843C
102
}
102
{ACAD_REACTORS
330
80F2
102
}
330
80F2
100
AcDbVisualStyle
  2
Gouraud
 70
     2
 71
     2
 72
     2
 73
     1
 90
        2
 40
-0.6
 41
30.0
 62
     5
 63
     7
 74
     0
 91
        0
 64
     7
 65
   257
 75
     1
175
     1
 42
1.0
 92
        0
 66
     7
 43
1.0
 76
     1
 77
     6
 78
     2
 67
     7
 79
     5
170
     0
171
     0
290
     0
174
     0
 93
       13
 44
0.0
173
     0
291
     1
 45
0.0
1001
ACAD
1000
AcDbSavedByObjectVersion
1070
     0
  0
VISUALSTYLE
  5
80F6
102
{ACAD_XDICTIONARY
360
843E
102
}
102
{ACAD_REACTORS
330
80F2
102
}
330
80F2
100
AcDbVisualStyle
  2
GouraudWithEdges
 70
     3
 71
     2
 72
     2
 73
     1
 90
        2
 40
-0.6
 41
30.0
 62
     5
 63
     7
 74
     1
 91
        0
 64
     7
 65
   257
 75
     1
175
     1
 42
1.0
 92
        0
 66
   257
 43
1.0
 76
     1
 77
     6
 78
     2
 67
     7
 79
     5
170
     0
171
     0
290
     0
174
     0
 93
       13
 44
0.0
173
     0
291
     1
 45
0.0
1001
ACAD
1000
AcDbSavedByObjectVersion
1070
     0
  0
VISUALSTYLE
  5
80FA
102
{ACAD_XDICTIONARY
360
8446
102
}
102
{ACAD_REACTORS
330
80F2
102
}
330
80F2
100
AcDbVisualStyle
  2
Hidden
 70
     6
 71
     1
 72
     2
 73
     2
 90
        0
 40
-0.6
 41
-30.0
 62
     5
 63
     7
 74
     2
 91
        2
 64
     7
 65
   257
 75
     2
175
     1
 42
40.0
 92
        0
 66
   257
 43
1.0
 76
     1
 77
     6
 78
     2
 67
     7
 79
     3
170
     0
171
     0
290
     0
174
     0
 93
        1
 44
0.0
173
     0
291
     0
 45
0.0
1001
ACAD
1000
AcDbSavedByObjectVersion
1070
     0
  0
VISUALSTYLE
  5
8108
102
{ACAD_XDICTIONARY
360
8462
102
}
102
{ACAD_REACTORS
330
80F2
102
}
330
80F2
100
AcDbVisualStyle
  2
JitterOff
 70
    20
 71
     2
 72
     2
 73
     0
 90
        0
 40
-0.6
 41
-30.0
 62
     5
 63
     7
 74
     1
 91
        4
 64
     7
 65
   257
 75
     1
175
     1
 42
1.0
 92
       10
 66
     7
 43
1.0
 76
     1
 77
     6
 78
     2
 67
     7
 79
     5
170
     0
171
     0
290
     0
174
     0
 93
        1
 44
0.0
173
     0
291
     1
 45
0.0
1001
ACAD
1000
AcDbSavedByObjectVersion
1070
     0
  0
VISUALSTYLE
  5
8100
102
{ACAD_XDICTIONARY
360
8452
102
}
102
{ACAD_REACTORS
330
80F2
102
}
330
80F2
100
AcDbVisualStyle
  2
Linepattern
 70
    14
 71
     2
 72
     2
 73
     0
 90
        0
 40
-0.6
 41
-30.0
 62
     5
 63
     7
 74
     1
 91
        4
 64
     7
 65
   257
 75
     7
175
     7
 42
1.0
 92
        8
 66
     7
 43
1.0
 76
     1
 77
     6
 78
     2
 67
     7
 79
     5
170
     0
171
     0
290
     0
174
     0
 93
        1
 44
0.0
173
     0
291
     1
 45
0.0
1001
ACAD
1000
AcDbSavedByObjectVersion
1070
     0
  0
VISUALSTYLE
  5
8109
102
{ACAD_XDICTIONARY
360
8464
102
}
102
{ACAD_REACTORS
330
80F2
102
}
330
80F2
100
AcDbVisualStyle
  2
OverhangOff
 70
    21
 71
     2
 72
     2
 73
     0
 90
        0
 40
-0.6
 41
-30.0
 62
     5
 63
     7
 74
     1
 91
        4
 64
     7
 65
   257
 75
     1
175
     1
 42
1.0
 92
        9
 66
     7
 43
1.0
 76
     1
 77
     6
 78
     2
 67
     7
 79
     5
170
     0
171
     0
290
     0
174
     0
 93
        1
 44
0.0
173
     0
291
     1
 45
0.0
1001
ACAD
1000
AcDbSavedByObjectVersion
1070
     0
  0
VISUALSTYLE
  5
80FC
102
{ACAD_XDICTIONARY
360
844A
102
}
102
{ACAD_REACTORS
330
80F2
102
}
330
80F2
100
AcDbVisualStyle
  2
Realistic
 70
     8
 71
     2
 72
     3
 73
     0
 90
        2
 40
-0.6
 41
30.0
 62
     5
 63
     7
 74
     0
 91
        0
 64
     7
 65
   257
 75
     1
175
     1
 42
1.0
 92
        8
 66
   257
 43
1.0
 76
     1
 77
     6
 78
     2
 67
     7
 79
     3
170
     0
171
     0
290
     0
174
     0
 93
       13
 44
0.0
173
     0
291
     0
 45
0.0
1001
ACAD
1000
AcDbSavedByObjectVersion
1070
     0
  0
VISUALSTYLE
  5
8107
102
{ACAD_XDICTIONARY
360
8460
102
}
102
{ACAD_REACTORS
330
80F2
102
}
330
80F2
100
AcDbVisualStyle
  2
Shaded
 70
    27
 71
     2
 72
     2
 73
     1
 90
        2
 40
-0.6
 41
30.0
 62
     5
 63
     7
 74
     0
 91
        4
 64
     7
 65
   257
 75
     1
175
     1
 42
1.0
 92
        8
 66
   257
 43
1.0
 76
     1
 77
     6
 78
     2
 67
     8
 79
     3
170
     0
171
     0
290
     0
174
     0
 93
        5
 44
0.0
173
     0
291
     0
 45
0.0
1001
ACAD
1000
AcDbSavedByObjectVersion
1070
     0
  0
VISUALSTYLE
  5
8106
102
{ACAD_XDICTIONARY
360
845E
102
}
102
{ACAD_REACTORS
330
80F2
102
}
330
80F2
100
AcDbVisualStyle
  2
Shaded with edges
 70
    26
 71
     2
 72
     2
 73
     1
 90
        2
 40
-0.6
 41
30.0
 62
     5
 63
     7
 74
     1
 91
       10
 64
     7
 65
   257
 75
     2
175
     1
 42
1.0
 92
        8
 66
   257
 43
1.0
 76
     1
 77
     6
 78
     2
 67
     7
 79
     3
170
     0
171
     0
290
     0
174
     0
 93
        5
 44
0.0
173
     0
291
     0
 45
0.0
1001
ACAD
1000
AcDbSavedByObjectVersion
1070
     0
  0
VISUALSTYLE
  5
8103
102
{ACAD_XDICTIONARY
360
8458
102
}
102
{ACAD_REACTORS
330
80F2
102
}
330
80F2
100
AcDbVisualStyle
  2
Shades of Gray
 70
    23
 71
     2
 72
     2
 73
     3
 90
        0
 40
-0.6
 41
-30.0
 62
     5
 63
     7
 74
     2
 91
        2
 64
     7
 65
     7
 75
     1
175
     1
 42
40.0
 92
        8
 66
     7
 43
1.0
 76
     1
 77
     6
 78
     2
 67
     7
 79
     3
170
     0
171
     0
290
     0
174
     0
 93
        1
 44
0.0
173
     0
291
     0
 45
0.0
1001
ACAD
1000
AcDbSavedByObjectVersion
1070
     0
  0
VISUALSTYLE
  5
8104
102
{ACAD_XDICTIONARY
360
845A
102
}
102
{ACAD_REACTORS
330
80F2
102
}
330
80F2
100
AcDbVisualStyle
  2
Sketchy
 70
    24
 71
     1
 72
     2
 73
     2
 90
        0
 40
-0.6
 41
-30.0
 62
     5
 63
     7
 74
     2
 91
        2
 64
     7
 65
     7
 75
     1
175
     1
 42
40.0
 92
       11
 66
     7
 43
1.0
 76
     1
 77
     6
 78
     2
 67
     7
 79
     6
170
     0
171
     0
290
     0
174
     0
 93
        1
 44
0.0
173
     0
291
     0
 45
0.0
1001
ACAD
1000
AcDbSavedByObjectVersion
1070
     0
  0
VISUALSTYLE
  5
80FF
102
{ACAD_XDICTIONARY
360
8450
102
}
102
{ACAD_REACTORS
330
80F2
102
}
330
80F2
100
AcDbVisualStyle
  2
Thicken
 70
    13
 71
     2
 72
     2
 73
     0
 90
        0
 40
-0.6
 41
-30.0
 62
     5
 63
     7
 74
     1
 91
        4
 64
     7
 65
   257
 75
     1
175
     1
 42
1.0
 92
       12
 66
     7
 43
1.0
 76
     1
 77
     6
 78
     2
 67
     7
 79
     5
170
     0
171
     0
290
     0
174
     0
 93
        1
 44
0.0
173
     0
291
     1
 45
0.0
1001
ACAD
1000
AcDbSavedByObjectVersion
1070
     0
  0
VISUALSTYLE
  5
80F9
102
{ACAD_XDICTIONARY
360
8444
102
}
102
{ACAD_REACTORS
330
80F2
102
}
330
80F2
100
AcDbVisualStyle
  2
Wireframe
 70
     5
 71
     0
 72
     2
 73
     0
 90
        0
 40
-0.6
 41
-30.0
 62
     5
 63
     7
 74
     1
 91
        4
 64
     7
 65
   257
 75
     1
175
     1
 42
1.0
 92
        0
 66
   257
 43
1.0
 76
     1
 77
     6
 78
     2
 67
     7
 79
     3
170
     0
171
     0
290
     0
174
     0
 93
        1
 44
0.0
173
     0
291
     0
 45
0.0
1001
ACAD
1000
AcDbSavedByObjectVersion
1070
     0
  0
VISUALSTYLE
  5
8105
102
{ACAD_XDICTIONARY
360
845C
102
}
102
{ACAD_REACTORS
330
80F2
102
}
330
80F2
100
AcDbVisualStyle
  2
X-Ray
 70
    25
 71
     2
 72
     2
 73
     1
 90
        1
 40
0.5
 41
-30.0
 62
     5
 63
     7
 74
     1
 91
        0
 64
     7
 65
   257
 75
     1
175
     1
 42
1.0
 92
        8
 66
     7
 43
1.0
 76
     1
 77
     6
 78
     2
 67
     7
 79
     3
170
     0
171
     0
290
     0
174
     0
 93
       13
 44
0.0
173
     0
291
     0
 45
0.0
1001
ACAD
1000
AcDbSavedByObjectVersion
1070
     0
  0
DICTIONARYVAR
  5
842B
102
{ACAD_REACTORS
330
8426
102
}
330
8426
100
DictionaryVariables
280
     0
  1
1:1
  0
DICTIONARYVAR
  5
8428
102
{ACAD_REACTORS
330
8426
102
}
330
8426
100
DictionaryVariables
280
     0
  1
STANDARD
  0
DICTIONARYVAR
  5
8427
102
{ACAD_REACTORS
330
8426
102
}
330
8426
100
DictionaryVariables
280
     0
  1
STANDARD
  0
DICTIONARYVAR
  5
8429
102
{ACAD_REACTORS
330
8426
102
}
330
8426
100
DictionaryVariables
280
     0
  1
Imperial24
  0
DICTIONARYVAR
  5
842A
102
{ACAD_REACTORS
330
8426
102
}
330
8426
100
DictionaryVariables
280
     0
  1
Imperial24
  0
DICTIONARYVAR
  5
842E
102
{ACAD_REACTORS
330
8426
102
}
330
8426
100
DictionaryVariables
280
     0
  1
1
  0
DICTIONARYVAR
  5
842D
102
{ACAD_REACTORS
330
8426
102
}
330
8426
100
DictionaryVariables
280
     0
  1
0
  0
DICTIONARYVAR
  5
842C
102
{ACAD_REACTORS
330
8426
102
}
330
8426
100
DictionaryVariables
280
     0
  1
127
  0
DICTIONARYVAR
  5
842F
102
{ACAD_REACTORS
330
8426
102
}
330
8426
100
DictionaryVariables
280
     0
  1
2
  0
DICTIONARY
  5
846C
330
8133
100
AcDbDictionary
280
     1
281
     1
  3
ACAD_XREC_ROUNDTRIP
360
846D
  0
DICTIONARY
  5
8470
330
813B
100
AcDbDictionary
280
     1
281
     1
  3
ACAD_XREC_ROUNDTRIP
360
8471
  0
DICTIONARY
  5
846E
330
8137
100
AcDbDictionary
280
     1
281
     1
  3
ACAD_XREC_ROUNDTRIP
360
846F
  0
DICTIONARY
  5
80E3
330
80E2
100
AcDbDictionary
280
     1
281
     1
  3
ACAD_XREC_ROUNDTRIP
360
8436
  3
BUMPTILE
360
80E5
  3
DIFFUSETILE
360
80E4
  3
OPACITYTILE
360
80E8
  3
REFLECTIONTILE
360
80E7
  3
REFRACTIONTILE
360
80E9
  3
SPECULARTILE
360
80E6
  0
DICTIONARY
  5
80DB
330
80DA
100
AcDbDictionary
280
     1
281
     1
  3
ACAD_XREC_ROUNDTRIP
360
8435
  3
BUMPTILE
360
80DD
  3
DIFFUSETILE
360
80DC
  3
OPACITYTILE
360
80E0
  3
REFLECTIONTILE
360
80DF
  3
REFRACTIONTILE
360
80E1
  3
SPECULARTILE
360
80DE
  0
DICTIONARY
  5
80EB
330
80EA
100
AcDbDictionary
280
     1
281
     1
  3
ACAD_XREC_ROUNDTRIP
360
8437
  3
BUMPTILE
360
80ED
  3
DIFFUSETILE
360
80EC
  3
FBXASSET
360
8181
  3
OPACITYTILE
360
80F0
  3
REFLECTIONTILE
360
80EF
  3
REFRACTIONTILE
360
80F1
  3
SPECULARTILE
360
80EE
  0
DICTIONARY
  5
846A
330
8131
100
AcDbDictionary
280
     1
281
     1
  3
ACAD_XREC_ROUNDTRIP
360
846B
  0
DICTIONARY
  5
8431
330
812D
100
AcDbDictionary
280
     1
281
     1
  3
ACAD_ROUNDTRIP_2008_TABLESTYLE_CELLSTYLEMAP
360
8432
  3
ACAD_XREC_ROUNDTRIP
360
8468
  0
DICTIONARY
  5
8442
330
80F8
100
AcDbDictionary
280
     1
281
     1
  3
ACAD_XREC_ROUNDTRIP
360
8443
  0
DICTIONARY
  5
8440
330
80F7
100
AcDbDictionary
280
     1
281
     1
  3
ACAD_XREC_ROUNDTRIP
360
8441
  0
DICTIONARY
  5
844E
330
80FE
100
AcDbDictionary
280
     1
281
     1
  3
ACAD_XREC_ROUNDTRIP
360
844F
  0
DICTIONARY
  5
8456
330
8102
100
AcDbDictionary
280
     1
281
     1
  3
ACAD_XREC_ROUNDTRIP
360
8457
  0
DICTIONARY
  5
8448
330
80FB
100
AcDbDictionary
280
     1
281
     1
  3
ACAD_XREC_ROUNDTRIP
360
8449
  0
DICTIONARY
  5
844C
330
80FD
100
AcDbDictionary
280
     1
281
     1
  3
ACAD_XREC_ROUNDTRIP
360
844D
  0
DICTIONARY
  5
8466
330
810A
100
AcDbDictionary
280
     1
281
     1
  3
ACAD_XREC_ROUNDTRIP
360
8467
  0
DICTIONARY
  5
8454
330
8101
100
AcDbDictionary
280
     1
281
     1
  3
ACAD_XREC_ROUNDTRIP
360
8455
  0
DICTIONARY
  5
8438
330
80F3
100
AcDbDictionary
280
     1
281
     1
  3
ACAD_XREC_ROUNDTRIP
360
8439
  0
DICTIONARY
  5
843A
330
80F4
100
AcDbDictionary
280
     1
281
     1
  3
ACAD_XREC_ROUNDTRIP
360
843B
  0
DICTIONARY
  5
843C
330
80F5
100
AcDbDictionary
280
     1
281
     1
  3
ACAD_XREC_ROUNDTRIP
360
843D
  0
DICTIONARY
  5
843E
330
80F6
100
AcDbDictionary
280
     1
281
     1
  3
ACAD_XREC_ROUNDTRIP
360
843F
  0
DICTIONARY
  5
8446
330
80FA
100
AcDbDictionary
280
     1
281
     1
  3
ACAD_XREC_ROUNDTRIP
360
8447
  0
DICTIONARY
  5
8462
330
8108
100
AcDbDictionary
280
     1
281
     1
  3
ACAD_XREC_ROUNDTRIP
360
8463
  0
DICTIONARY
  5
8452
330
8100
100
AcDbDictionary
280
     1
281
     1
  3
ACAD_XREC_ROUNDTRIP
360
8453
  0
DICTIONARY
  5
8464
330
8109
100
AcDbDictionary
280
     1
281
     1
  3
ACAD_XREC_ROUNDTRIP
360
8465
  0
DICTIONARY
  5
844A
330
80FC
100
AcDbDictionary
280
     1
281
     1
  3
ACAD_XREC_ROUNDTRIP
360
844B
  0
DICTIONARY
  5
8460
330
8107
100
AcDbDictionary
280
     1
281
     1
  3
ACAD_XREC_ROUNDTRIP
360
8461
  0
DICTIONARY
  5
845E
330
8106
100
AcDbDictionary
280
     1
281
     1
  3
ACAD_XREC_ROUNDTRIP
360
845F
  0
DICTIONARY
  5
8458
330
8103
100
AcDbDictionary
280
     1
281
     1
  3
ACAD_XREC_ROUNDTRIP
360
8459
  0
DICTIONARY
  5
845A
330
8104
100
AcDbDictionary
280
     1
281
     1
  3
ACAD_XREC_ROUNDTRIP
360
845B
  0
DICTIONARY
  5
8450
330
80FF
100
AcDbDictionary
280
     1
281
     1
  3
ACAD_XREC_ROUNDTRIP
360
8451
  0
DICTIONARY
  5
8444
330
80F9
100
AcDbDictionary
280
     1
281
     1
  3
ACAD_XREC_ROUNDTRIP
360
8445
  0
DICTIONARY
  5
845C
330
8105
100
AcDbDictionary
280
     1
281
     1
  3
ACAD_XREC_ROUNDTRIP
360
845D
  0
XRECORD
  5
846D
102
{ACAD_REACTORS
330
846C
102
}
330
846C
100
AcDbXrecord
280
     1
102
DISPLAYNAME
  1
Imperial24
102
FLAGS
 90
        0
  0
XRECORD
  5
8471
102
{ACAD_REACTORS
330
8470
102
}
330
8470
100
AcDbXrecord
280
     1
102
SHADEPLOT
 70
     0
102
SHADEPLOTRESLEVEL
 70
     2
102
SHADEPLOTCUSTOMDPI
 70
   300
  0
XRECORD
  5
846F
102
{ACAD_REACTORS
330
846E
102
}
330
846E
100
AcDbXrecord
280
     1
102
SHADEPLOT
 70
     0
102
SHADEPLOTRESLEVEL
 70
     2
102
SHADEPLOTCUSTOMDPI
 70
   300
  0
XRECORD
  5
8436
102
{ACAD_REACTORS
330
80E3
102
}
330
80E3
100
AcDbXrecord
280
     1
102
MATERIAL
148
0.0
149
0.0
149
0.0
 93
        0
 94
      127
282
     0
 72
     0
 77
     0
171
     0
175
     0
179
     0
273
     0
  0
XRECORD
  5
80E5
102
{ACAD_REACTORS
330
80E3
102
}
330
80E3
100
AcDbXrecord
280
     1
270
     1
271
     1
  0
XRECORD
  5
80E4
102
{ACAD_REACTORS
330
80E3
102
}
330
80E3
100
AcDbXrecord
280
     1
270
     1
271
     1
  0
XRECORD
  5
80E8
102
{ACAD_REACTORS
330
80E3
102
}
330
80E3
100
AcDbXrecord
280
     1
270
     1
271
     1
  0
XRECORD
  5
80E7
102
{ACAD_REACTORS
330
80E3
102
}
330
80E3
100
AcDbXrecord
280
     1
270
     1
271
     1
  0
XRECORD
  5
80E9
102
{ACAD_REACTORS
330
80E3
102
}
330
80E3
100
AcDbXrecord
280
     1
270
     1
271
     1
  0
XRECORD
  5
80E6
102
{ACAD_REACTORS
330
80E3
102
}
330
80E3
100
AcDbXrecord
280
     1
270
     1
271
     1
  0
XRECORD
  5
8435
102
{ACAD_REACTORS
330
80DB
102
}
330
80DB
100
AcDbXrecord
280
     1
102
MATERIAL
148
0.0
149
0.0
149
0.0
 93
        0
 94
      127
282
     0
 72
     0
 77
     0
171
     0
175
     0
179
     0
273
     0
  0
XRECORD
  5
80DD
102
{ACAD_REACTORS
330
80DB
102
}
330
80DB
100
AcDbXrecord
280
     1
270
     1
271
     1
  0
XRECORD
  5
80DC
102
{ACAD_REACTORS
330
80DB
102
}
330
80DB
100
AcDbXrecord
280
     1
270
     1
271
     1
  0
XRECORD
  5
80E0
102
{ACAD_REACTORS
330
80DB
102
}
330
80DB
100
AcDbXrecord
280
     1
270
     1
271
     1
  0
XRECORD
  5
80DF
102
{ACAD_REACTORS
330
80DB
102
}
330
80DB
100
AcDbXrecord
280
     1
270
     1
271
     1
  0
XRECORD
  5
80E1
102
{ACAD_REACTORS
330
80DB
102
}
330
80DB
100
AcDbXrecord
280
     1
270
     1
271
     1
  0
XRECORD
  5
80DE
102
{ACAD_REACTORS
330
80DB
102
}
330
80DB
100
AcDbXrecord
280
     1
270
     1
271
     1
  0
XRECORD
  5
8437
102
{ACAD_REACTORS
330
80EB
102
}
330
80EB
100
AcDbXrecord
280
     1
102
MATERIAL
148
0.0
149
0.0
149
0.0
 93
        0
 94
      127
282
     0
 72
     0
 77
     0
171
     0
175
     0
179
     0
273
     0
  0
XRECORD
  5
80ED
102
{ACAD_REACTORS
330
80EB
102
}
330
80EB
100
AcDbXrecord
280
     1
270
     1
271
     1
  0
XRECORD
  5
80EC
102
{ACAD_REACTORS
330
80EB
102
}
330
80EB
100
AcDbXrecord
280
     1
270
     1
271
     1
  0
XRECORD
  5
8181
102
{ACAD_REACTORS
330
80EB
102
}
330
80EB
100
AcDbXrecord
280
     1
 70
     1
 90
1959938040
 71
     1
  1
D3628D19-4F70-43A8-8BD8-9F9D9B6869F1
311
504B0304140006080800F87E6D57E72A01D2D7000000200100004F00000042393832323737302D324135442D343342322D393542452D4443363743444141303939382F4173736574446174612F446566696E6974696F6E4974657261746F7250726F706572746965732E62696EEB606060F80F0540260323103700495E20ED
311
9E9A975A94991C9C9C919A9BC8C00612C9C94F4ACC6147C831019920AE4B6A5A62694E0948976F6671726A4E4E625E6A7E69B12042A9426E6209D0B8C41C3D90264E20860914834C48875806B2DF0F88414E02D189290556F689C5C5A925B6FA694915FA864E9646A66606C6BA46CE6696BA262EC64EBA8E8626AEBACE16AE
311
E6C6CE2E66CEC686A6FA45A9C5F9A545C9A9C5FA46FA06F15093E30BF2D283221DEB0C19188280D6B330BCDF9715AE159013CE5DA107B4C825BD3966A7C1CC4D402612D80700504B0304140006080800F87E6D5746F0F238EF000000300200004500000042393832323737302D324135442D343342322D393542452D444336
311
3743444141303939382F4173736574446174612F496E7374616E636550726F706572746965732E62696EEB606060F80F0540260323103700495E20ED9E9A975A94991C9C9C919A9BA8021470313633B27031B4D435713337D0353176B4D0B57072B1D0B574B374B17432B330B37433644768046931363471713532B5D43535
311
3131D635313332D475727372D13534373670367376B67474B5042A03DBCBA019D37FE8ABC6157B20CD04146B0062181F4C03F940F0C11EA29A8141C08141002C0426541C106CAC2CA046088033B02A030AC2157C6006F21A8018AAF50194E6010A610250382264E08660284CD9E98021862280A91564B406929A0FF62C401E
311
28B6F88038B83CB1243943D7A928312F25350524430D9080C51000504B0304140006080800F87E6D5728BB58AF800100009E0500003D00000042393832323737302D324135442D343342322D393542452D4443363743444141303939382F536368656D61732F436F6D6D6F6E536368656D612E786D6CBD544D4FC23018BEFB
311
2B96DE15493C78601010A34B880709DEDFB52FD0D8B54BD70DF6EFED3AC0B12E6442E2716BFB3CEFF3D18E26FB440405EA8C2B1992E1C323095052C5B8DC842437EBFB673219DF8DA659866649B798C078B48AE6410122242F2A4994AC7F93815DF85C049C8564CA0A901499DD886B2EB9B1E02448F358701A9235880C49A0
311
119892A20C89D1B9FD768815CAD268CB5E0355B40B1E47F3E37A2020464BED06AA57CE8FCC20C3C3446D46761A2632A8C1283D07031EFF2AE7CCB1BFEEE916E406DFAC8E36FFD99A9D60A6944090EEDC3B670C7DC13DE86B6B2C5C240D6E503BB85ACD579D513F1B9F9A69DC9CC22AFA80C426D40AF0B21EA168559156B627
311
6F0F726A6BFF04DCD513A87A62CAD41FB24FCB2858B3952E3D852084DA25B9303C15687973CC8E8AAE11DF2836C38C6A9E765E8C1BA1BFB1DC29CDFE518C8B5A7655A4ED7E77291ABEB80DBD82EC866ADE1B8D05AF9E35CF09D7A061F38A986D9EC412B8F0F65E5D81534D9B231D1E5A8FE577A241F3A5FD01504B03041400
311
06080800F87E6D572CCEBD668A040000E01200003E00000042393832323737302D324135442D343342322D393542452D4443363743444141303939382F536368656D61732F47656E65726963536368656D612E786D6CD5586D6FDB380CFE7EBF42F0F7A649B70E1B90744856B4970F450FCD7A5F05459613EDE4174872DADC
311
AF3F522F8ED3B88D2F1D06AC4050DBA2493EE4438AF2F8EB73AEC8466823CB62928C06C384888297A92C5693A4B6D9D9E7E4EBD51FE3A931C22EF85AE4EC6AFC38BF261BA626C9AD288496DC3F4FCEAFC63366845F7A10452AF41DB320C0D44EC26EAB20918735565582695670811A6A49643A49A6E9069FA4604A64B29016
311
DC4B48552F95E4932463CA888468C1D2B250DB4962750DF7CE273069CE8363F1FF4EDB00E0A21999574AE4A2B00C353B93F3BD4777B8A61ED8F604ABFEDD79CE56A2B7BDFBDBC50996E0ADDE16FED26223C5D30956C29BDF4A55EA686E5E58B112DA45CE67F76F4FA27EFA3FB672FD7372FC388FAECDCA5209E693CAD167BA
311
DCD272F943701B3812F8A3D852008B1D2E32DB927B2F833C6EA95879925356D254582695095A3CE982924720BE5774A3CB9CDCDB350427D2DF20DA1B5532EBE2D5D6288D75D4F7E4FD9890A0EF8E3D93EBB8F8BA4758158EF6FB90A6F9520281C93DE7AAC6D24607DA296BB96018123F821A7D6A5C5884050C475DA4865442
311
732C8B95684A50165CBB3A32F25F783A4A480ED59AD7F924B968AEA50131F46303223E6A397B0E52976030DC1DCA81D7E7C1EDEEA42C19FF27635C505E2BD5198A599020DF50A2330FCB3AAF28CB0124108429553EF1B228802E2265D8F7CC2401042B155BCC7070F1E5C55F13B4A9577362CCCE46C32174E010C3C378C448
311
41A4BDA00FE3A12006CE11EE6AEC59894D3526DDE1CD59D503ECC324017F8061B7F162162FA62EDD81AE3308617770796DCBDAD2B2625C5AE8A63DE20B2C8AA5E95E76E5730823955956E33E705425A2187C185D36489A1B44D3DCEC2172F6BA2105C3546287A7194B2331768EBBE64F6E70A9930ABE0ADEA89E9E2C38523B
311
810287AD67A54A039C1606EAFE68F8304610BB9093DBDDABC0B2AE4E290DCDA15376D7E39F72B556F0B32EAB5D3D498B4C41ABADEC3A1434C422D87E8025A84BDCB2B1417ED750FAE4DA8976863974C577C7F902D3F156AD354DEA3540DE6BEAE2BEA52F7A2EB4CA43802ECE5BF2CE2EDC9347179FFB023CE412E60BE16DA0
311
BE29B374988A553F561DC04615DD35F7D2C8979F60E5955CE93DF29DED8AFA1EE6642D53418086C03C47C377910F75F7E8F5EF665F70B60FFB22AEDF897D119E8423C773E819A3C1E55E550599EE6EDCA34D0C86FD72057DF2CD46F16A470682471C164E4346D5306BF12D7D12D82CFF673D41636C347443FEB51B50D72EA1
311
71A8E4A58623A4A16E0FA2B8B10A0D23268D87C33896EE8FB73305A74BF224EDBADFA0BD674AB354D63DB7BD5D83426761C077DE767728235446A552754EB93B755891C3C4CC6CADE37CF0E912A7BB38DBA010F9DE1282EDF470CA69A9CDA482E334C4A6EA4107987980B17E72F31730EBF88BBD39E7C629F56797A3C0009C
311
2C5AE7951D9A05A02773440F02EEB4DE396A3B6A570C72CCFBCD823B0B8ED3F1D5CEDDFED772FA70236C83FB7D86C385D570B87107535572A60A96035F8F7C6A7192F13007246BBE0521855E6AC46F3E27689CEE7D186A6FD679D98CDCAD13333E04EBE7ED6F55FF01504B0304140006080800F87E6D576180134D5F010000
311
6B0300004500000042393832323737302D324135442D343342322D393542452D4443363743444141303939382F536368656D61732F52656E6465724D6174657269616C536368656D612E786D6CA5934D6FC2300C86EFFB1551EEE343DBA41D1A103009551ADAD40EAE28A4A68D9426284961FCFBE5A340113B2071746D3F76
311
5EBF4DC6BFB5407BD0862B49F0B037C0082453059725C18DDD3EBFE3F1E829991803366715D474942CD30FB4A782E00C64017A412D684E454CE3FE28995203B162A6EA5AC94B66997D225E109CD63B0135484BAD1B3C07E9080CA35DB3119C11BCA5C200461A68A1A438126C75E3E230D40FF81FB3F03C91D1E3A3A0AF79FE
311
28E25BC39EC3E17E4C2A2D94A0833A51AF55BCCA7D88572FCBAC529C4140B020FC3AAFA886621DCED7EAD7664CC86024E806DC297DA1BB393E4156543457A4537DB8817349A70F8ACBF09B3EEE2CB2F33E91B65D60786E4E3B39B77E3FEEEF5650424525DA657FB8B46BE6BF064646F0A0F7327C0BC1BC1B4CBBC1C419FA3C
311
CB23500007872A2580CAAE5461865565294E4EDB4617B62FF579DF9A5B2F54E834076A597573A020912FED777F9B3F504B0304140006080800F87E6D57D71425C751000000570000004700000042393832323737302D324135442D343342322D393542452D4443363743444141303939382F4173736574446174612F417373
311
65745461626C654F66436F6E74656E74732E62696E5361606070313633B27031B4D435713337D0353176B4D0B57072B1D0B574B374B17432B330B374331402AACB4D2C492DCA4CCC492C28484D2C4ACC4B4E050A82012F90744FCD03CA26072767A4E6260200504B0304140006080800F87E6D57F865834058000000680000
311
004500000042393832323737302D324135442D343342322D393542452D4443363743444141303939382F4173736574446174612F53747265616D56657273696F6E5461626C652E696E66558CBD0A80300C06F73E4B117FB66E451741D041DC5BF98480A492E4FDD18EAEC7DD4555D89EF28DF51A0B1BD8340C4DE7DD848B98
311
8C0ACF0649566493F2408C508DDEBB99D5129FF8F1AF8CF5B9503E20FAE5A16B5AF702504B0304140006080800F87E6D57D14F7874350100009A0400003600000042393832323737302D324135442D343342322D393542452D4443363743444141303939382F4173736574446174612F636E782E786D6CCD94314FC3301085
311
FF4AE43D76D252092AC71582A51348540C6C57E752AC3A76645F10FC7BEC3403A888A943D7F3BBF3F327BF939BCFDE161F18A2F1AE6135AF58814EFBD6B843C346EACA5B566C940CDED30F192B1CF4D8B05C664A1E821F87B9D46207A3CD556BDC712EDEC788B483BDC5A7EEC13B42479115DA428C0D8BFA1D7BE030926F31
311
1E790B04BCE601A31F83C634894C8FF3241D10085BA616D56259D675592F77F56ABD5AAD6FEEDEA4C84A25F7DEDB596FD265C10F853EDDCA5425453E56720C66D6E4B730F59747BE374E8AA4543252484CE60EFA1A52070C83351A28A1135E1352994408BD1427B1922233F845E2113BE34C6ED92663403E3C277B18C8E0D5
311
11F9CFEBE5C96C5D24701AAF97C7B9C3CB5378997ED0EB29905362AE2D27E70EB971DD055222A635924293B78AFA06504B0304140006080800F87E6D579D5C8DF5090100004F0300003400000042393832323737302D324135442D343342322D393542452D4443363743444141303939382F536368656D61732F636E782E78
311
6D6CCD93BD4E042114855F85D00F33B3EB24BA61D8C2C2CA46ADEC10EEAE64813BE1C7E8DB0B23C56E62A7C57670F842CE395CF8FED359F201211AF4331DD940097885DAF8E34C733A74B794EC050F88E90CA3C44B0733AD3215FC18302F4DD27090D956D51A7F6AE23D3A87FE59BD839394282B639C695CB74CE6841AE289
311
6999241B5980883928283724E3A0DDA002C8049A8ACDB0D976E3D88DDB9771DA4DD3EEE6EE95F79514FC0DD136DEF8040117A2B02C7CB133F0BE1E0B9E83694CCD40C5B93756DAE07D21048F29940E1A99BE9642CA65B146C954AAEA57F08711BCAF512F023F808760D47526BE30F76F919FC06B088FE5958291F63A93FFE6
311
F16F05F4EBEC9711A85F417C03504B0304140006080800F87E6D57410A3D5871000000A40000002C00000042393832323737302D324135442D343342322D393542452D4443363743444141303939382F636E782E786D6C55CC4D0E82301086E1AB34B31774E7A22D31F1069E60020334B633A63FC6E34B0909B07DDE2F9FEE
311
7EC1AB2FC5E4840DDC9A2B28E25E06C7938192C7CB1D54677514C9871928C640062A83D55394F2D968A0118BAFEA1DBF377CA444F98919176EAB9FEAAB9F2960DA5BBB1E2ED3FA6FFF504B0304140006080800F87E6D57D5DA8E407E000000A300000007000000636E782E786D6C4D8CD10AC22018465F45FE7BCBAC350575
311
CCD9838CE686E4346C468F9FC62EBAFAE0F09D23BACFEAD1DBA6978B41C2E94000D9708F930B8B84BCCD9801EA9448316E7F3740615CAD848A418925C5FCDCD164E731FB4ABD0B8F1D6ACE286D5B8269DF187C396B8A79A36FD80CD776307D4F3867C53856A5CCAF57B6E6D517504B0304140006080800F87E6D5716E99B5D
311
A600000035010000130000005B436F6E74656E745F54797065735D2E786D6C9590410E82301045AFD2740F4517C6180A0BF5065E60AC53688469D30E066F6F91AD9AB89CF9FFFD3F99BA9DC7413C3026E749CB4D59498164FCCD51A7E5C4B6D84BD136F5E5193089ECA5A465CF1C0E4A25D3E308A9F401292BD6C711388FB1
311
5301CC1D3A54DBAADA29E38991B8E0254336F5092D4C038BF39CD76B6FC6A538AEBEA54A4B08617006389FA516557DE4AE8E7E70DE30729138228C5F021CD93F02D4FB0DCD0B504B0304140006080800F87E6D573DEE336E64000000790000001B0000006175746F6465736B2D64657369676E2D7061636B6167652E786D6C
311
35CBC10E83200C00D05F21DCA56CA76D41FC96062B120735B69A7DBE268BB7777961F8D5AF396893C2ADB70FE7ADA196782C2DF776D7A97B5933C430F15651E5469C55D70F80A4992A3ADC954792C525AE70A1E4D6AD9816CC044FEFDF01FE3FDE907802504B0304140006080800F87E6D5756B9E5CAF90000009601000037
311
00000042393832323737302D324135442D343342322D393542452D4443363743444141303939382F4173736574446174612F636F72652E786D6C8550CB6E833010FC15B47703B6214D23E3A894F0053DF56619875A0936F2A3EAE7D70E546A4F3DED6A76667677D8F96BB9179FCA796D4D07B8ACA15046DA499BB98318AEE8
311
08C59933676DF84583C28845759061E06C7636AE3B24AD09CA64D4D849EDA0F05E0528E43D351D78F9A116518A1812C3DFCA55C89B985589CB8DC7598C7ADAA57A4A6EFAAA9503FE445FFB711807D413DCA086E21E1D2F1782064C86911C687338D6ACCA62CE825E7EB64BA74450137052138A304698BEE1F6D4B6A7E6F99D
311
5599C9990F2EFDBC2FCDDF017FC9570F2208566DD33FAE719DFE778DDA044A76D74DE181E374E463C05995534AE51161AA3951FE0D504B0304140006080800F87E6D570D83BD1FF7000000940100003500000042393832323737302D324135442D343342322D393542452D4443363743444141303939382F536368656D6173
311
2F636F72652E786D6C8550C16E842010FD1533775450B776836C625D7FA03DF54680B5645730024D3FBFA036694F3DCDE4CD7B6F661EBD7CCD8FEC53AD4E5BD301CE4BC89411566A337510FC0DB5905D185DADF5BF6890193EAB0E120C8C4EAB0DCB01096BBC32093556AA03E4CE290F9978C4A603273ED4CC731E7C64B87B
311
BE7071E793CA71BEF3180D41CB43AA6574D337AD56604FD54B3F0EE3807A826B5457B847EDF54AD080C9309253559FDA921649CCA8D7F3CF76B12AEE9504464A52218C11AEDE70736E9A73FDFC4E8BC464D4F935FE7C2C4DDF017BDDEE74B4D8677F3CC322FFF70CDAF88A1C9EBBC201C3F1C46DC06891328A650B30D69427
311
FB06504B0304140006080800F87E6D5734DA40EB02010000D70100002D00000042393832323737302D324135442D343342322D393542452D4443363743444141303939382F636F72652E786D6C9591C16E842010865FC5CC1D155CAB6E908DEEF60D7AEA8DCAAC25BB82116CFAF8856AD3F6D69E203FDF3FC33FC34FEFD33D
311
79C3C5696B5AA0690E099AC12A6DC616567F25352427C1176BFD0F0C1223276C21CA20F8B8D875DEA5C11A8F26AAC62ADC45E91C7A48867BB8B4E086579C642A571F08774B6739DCE488294D374E70AFA72FEBB0A0F4A840B09C158452428B275A1ECBF278689E791649C1576D7CC1F66638BDA04AECEC43241025CFB6D740
311
AD5AED8C56E18FFAAA7101D1373563559513D6951772287A469AB27F2497F34375BE745DDE34752812CC823BBF84C9EC45E20CFE6ADF8CBF92ADB3FA67B2CDE140D0EF50591CB3E0D9E70EC21957223E00504B0304140006080800F87E6D5742D1BE8D06010000B201000008000000636F72652E786D6C8D50CD6E8420107E
311
1532775450B7DB0DB289757D829E7AA3C25AB20A4670D3BE7D61A5497BEB69C837DF1FC3CE9FF384EE6A75DA9A064856005266B0529BB181CD5FF111D099B3D55AFF8B06C88859351061E06C5CEDB62468B0C62B135163A54AA0704E7940C3141E0DB8E143CD22139B0F0C77CB1631DCC4A83292ED3CCEBC9E7FA4C3AA8457
311
12382D688909C1A47C25F5A9AE4FD5F31BCB2393B36DD332456919D2F555AB15F853F9D2F65DDFE196920A572569F1F172A1B823B4EBE9A1AC0EC782E551CC99F36BF87332093D3D72E21E7359BEAF387BB7764A84504A226BA62FE0C1212EFE94DE16F98FD2DAF89226C35DE1809350E8B108C1F182613CCE1B66BC36FF06
311
504B01021400140006080800F87E6D57E72A01D2D7000000200100004F000000000000000000000000000000000042393832323737302D324135442D343342322D393542452D4443363743444141303939382F4173736574446174612F446566696E6974696F6E4974657261746F7250726F706572746965732E62696E504B
311
01021400140006080800F87E6D5746F0F238EF0000003002000045000000000000000000000000004401000042393832323737302D324135442D343342322D393542452D4443363743444141303939382F4173736574446174612F496E7374616E636550726F706572746965732E62696E504B01021400140006080800F87E
311
6D5728BB58AF800100009E0500003D000000000000000000000000009602000042393832323737302D324135442D343342322D393542452D4443363743444141303939382F536368656D61732F436F6D6D6F6E536368656D612E786D6C504B01021400140006080800F87E6D572CCEBD668A040000E01200003E0000000000
311
00000000000000007104000042393832323737302D324135442D343342322D393542452D4443363743444141303939382F536368656D61732F47656E65726963536368656D612E786D6C504B01021400140006080800F87E6D576180134D5F0100006B03000045000000000000000000000000005709000042393832323737
311
302D324135442D343342322D393542452D4443363743444141303939382F536368656D61732F52656E6465724D6174657269616C536368656D612E786D6C504B01021400140006080800F87E6D57D71425C751000000570000004700000000000000000000000000190B000042393832323737302D324135442D343342322D
311
393542452D4443363743444141303939382F4173736574446174612F41737365745461626C654F66436F6E74656E74732E62696E504B01021400140006080800F87E6D57F865834058000000680000004500000000000000000000000000CF0B000042393832323737302D324135442D343342322D393542452D4443363743
311
444141303939382F4173736574446174612F53747265616D56657273696F6E5461626C652E696E66504B01021400140006080800F87E6D57D14F7874350100009A04000036000000000000000000000000008A0C000042393832323737302D324135442D343342322D393542452D4443363743444141303939382F41737365
311
74446174612F636E782E786D6C504B01021400140006080800F87E6D579D5C8DF5090100004F0300003400000000000000000000000000130E000042393832323737302D324135442D343342322D393542452D4443363743444141303939382F536368656D61732F636E782E786D6C504B01021400140006080800F87E6D57
311
410A3D5871000000A40000002C000000000000000000000000006E0F000042393832323737302D324135442D343342322D393542452D4443363743444141303939382F636E782E786D6C504B01021400140006080800F87E6D57D5DA8E407E000000A3000000070000000000000000000000000029100000636E782E786D6C
311
504B01021400140006080800F87E6D5716E99B5DA6000000350100001300000000000000000000000000CC1000005B436F6E74656E745F54797065735D2E786D6C504B01021400140006080800F87E6D573DEE336E64000000790000001B00000000000000000000000000A31100006175746F6465736B2D64657369676E2D
311
7061636B6167652E786D6C504B01021400140006080800F87E6D5756B9E5CAF90000009601000037000000000000000000000000004012000042393832323737302D324135442D343342322D393542452D4443363743444141303939382F4173736574446174612F636F72652E786D6C504B01021400140006080800F87E6D
311
570D83BD1FF70000009401000035000000000000000000000000008E13000042393832323737302D324135442D343342322D393542452D4443363743444141303939382F536368656D61732F636F72652E786D6C504B01021400140006080800F87E6D5734DA40EB02010000D70100002D00000000000000000000000000D8
311
14000042393832323737302D324135442D343342322D393542452D4443363743444141303939382F636F72652E786D6C504B01021400140006080800F87E6D5742D1BE8D06010000B2010000080000000000000000000000000025160000636F72652E786D6C504B050600000000110011005A060000511700000000
310
504B0304140006080800F87E6D57000000000000000000000000370000006662782F45423938353732322D463445302D343843422D384139372D3339303633413542423737432F617474726962757465732E62696E504B0304140006080800F87E6D57000000000000000000000000350000006662782F4542393835373232
310
2D463445302D343843422D384139372D3339303633413542423737432F76657274696365732E62696E504B0304140006080800F87E6D57F270F1330600000004000000360000006662782F45423938353732322D463445302D343843422D384139372D3339303633413542423737432F747269616E676C65732E62696E6366
310
60600000504B0304140006080800F87E6D5751464CB48900000043010000360000006662782F45423938353732322D463445302D343843422D384139372D3339303633413542423737432F6469726563746F72792E786D6C9D8F310EC2300C45AF127987122606C71DD918B841D4B851A43646695A717C52A85029031293A5
310
A76FBF6FACEF7DA7264E43906840EF0FA03836E242F406C6DCEE4EA06AC22492573150D1F66C60C640E8938CB705396EEDD86DE9B5042FE27813D640EA63BB001C722AF6E55CB61E4863F58284D5D3F53DD715CE1C3985E63FD7F1B7EBDD617E9F1E504B0304140006080800F87E6D57C542E5013E070000201C0000340000
310
006662782F45423938353732322D463445302D343843422D384139372D3339303633413542423737432F6F626A656374732E786D6CDD595B6FE23814FE2B56F665F72124214061441915684768D499D1A059ED5B6482A1DE3A1739494BF7D7EFB16387380D90CE455A6D2B15EAD8C7E77CE77E327D7F88187A223CA3497C6D
310
793DD742240E932D8DF7D75691EFECB185DECFD09427495EDB67A11847E4DA12CBD66CBAE74991AAA52DD9E1823557EFE67FA12C2431B150C870965D5B59F84022DCC3459E6C49F6D8DBE21CF7F6BB43CFEB951B4DB27B8ED387C65529E624CE8155588F818AE2C033FF05919CD9D4111B8C6D7EB76DFD33DB1C29B8C9288D
310
B31CC7E12BAE1AD7F54F70D5B8CEF706CBDBFE70620F0703DF1E8CFA9E3DBF9B2F6DEFCA7717A3C56272733BB1D06CBA491256292025F116B4F862CDBCA9239E54E22B14DAF80E933826A142B36DC39628BA94644D4C0C603D295A4D21A5ACB505BFA3F027B67502C560C9405B0BA73FEBD69B6CFE0610B22E56CA3322AC3C
310
CB39E85A615FFA833B75CA55432F344311CE09A7982146371C7350106C2D15649011DE2248218199D4A2A657E7150CFBB22FB571B92B1813FE6BCDA4A705E08F24CF2467F41FC28FDCD76F039E40DA82C6F958099BBFA440623275E462F9CCEFAB87259068C7F01EAC05C4149BFC7E03AF858805ABA535FB78B739AC457C68
310
BF3CE5494A782E2C4F3AB3F23BADC19A6981F17500A5C4D5D4DD1195AF00FD2740BEE2054D41739C1E068781969DE338DB253C02ED2017D92EFC7191F8FAEADBD4A90ECF103262E5294CC16D7F12A68618C6DD354867D32730FA84FB4AB8758819D8F43D8D859F83A12096C012C4FBDDE660CD56104C61114E6106D2C3EFD4
310
115F117C947420DE3434D4167E3B284A3B4CD3CF8EBAFA0036C36958A9CA90F114BEC39F82EFCD72FD715DF01D0EC9BD72EC25D9D198E6904CDB193240375CFEDBEA93F4C80F2CD960763C6D6C0AE19A7D22E2468B5AD64A2D48EA05381169B8D48C5CB9A7E0ED8CE1982445A6D6DBE25498B084079B97A074E1D6BBFED436
310
505EA60CA0359641720F394D0526D64C69AB0A84BD9AA06061982B0BDC975A0D36459406384A8A5884DAD7A6D8E403E28CB044A02AA969C3D65EABC96EE96E576410BC5A492E0C20953F6BC2A5850F208EB5F1CBC98E6348A2491C50C8C1E02CAD37181754E09DE739236C1750C68A28D85106792488707A827E4709EA99EB
310
91BC3C277CDB4AD0B42CED93DA8604E00A580D92CE5665CC573AE5E4898A3253E6339D0D8C1DAA0EB5668313E942648A1640B5319686EF8FFAE3A537B1077757AE3DF06FC6F678BE1CDB93BBC972321F8D4793BB23E2128163B4AAE73B50A528730CFFCB1F8A681363CAE081101B6FD377EF65F6BC7620343ADE7CD21F8E5C
310
DFEE2F46C0C0D29FDB37DEE0D65E8C6FAFFCC572B4F0BDA1C34996143C2499D377DC409B641AEF9BE85D8EA150D65C4E765A5F4D61FEC731B499130C25FE57836815BB5A0AC2AE41541C6D86501C3E8A14158450F5B5BA4F238836F9688B736F8CCB6ECF77E58FE74DFAEEA43F9E8C2A633F1BA8E53D3F1CE7DA2408A1EF2C
310
F220497148F3F684DAC0E51835CEB2FCA6DCD2838080009DEA6F75C9F93CA32E096884F724D861D125B404C64B12B4E6B03D4BB28CC624935DDEABEAAF41D3ED413165E6DC1623A45910911C7F8FFDC9B6A161D3109B5900FD682E260217AB82CAA05507728AA2E87E21714BF95F820C47292B3BDD4B18787D0D81EE71DA2C
310
4E302DAE78027B0B701EB85B22071797A857ECEBFAA0556B4DEA93EF267F021E5DD7FC4278F415DD4BA7DED09B889F310495D1D0F3AFB4222E61A5AFCA451FC70AE83CC397E099D0FD43A742B39B4E6A255B5954E724823616E705EFE4AFA3A1FBEA2215171A0E51BBE98DC5A1ECDF740707E8C906EE54795BBB06EA501AC3
310
9CAB9320AFA4683561A90B39D313A3AB37F8F55965D7A9FE70BCFCE51573DDF92239FCB98C0354CB650056D1C7A8A95BAB6EA31ECA9E711E42205DCB4F7B0E1EB125DB636366906B2BD1759D7AA97A5E89801AC1C4168B387B2FBEB0AF18540DDD73E67C288B36A75C5F89C4D683E1F4910F836993D6E70FEB061558E97CFA
310
8BC0883C3728A8D585E886CF90FAB63AF6FC0D0A4AA26FAB33C7FF131D8556606D8C06D3E02C611486F2648BF62481EC0D63870EDD068F4826B33218AF0A52FA8D4087D34FE54C35C71BA64F870F1806D34CF56245084351C898D7965A47BFC118544C22E570AAF7086D988A61162A38BDB6C062730ADD566F03E32C393C94
310
D41BE34A706C1CEF45BE2F4F55FF1F8F0974202A1DE5AAF674C1454966381314B6A97C4F00555FF96036FD7ED1353B08E7F07553E49530C785A3340A04FD42A0140EA67E8F0ADE031414E7E5F27A728F0149A7C9FC593B28A9DA39E67B395EAFE17DB3FCE288C9F8EA334A59B117EA3CD7FD1A946CD175B3A29C424DC13094
310
98291635E4E29DF38527F08A294277148C00FD7E188FFE701649142571B9E4DCA8175568FD00AF9DB68E1EF9411BEF42572FA7006AAC1F6C70467A789B3DC202A89653311B2D21360CA08AA63503D01A11BA8063C6FED512A9DAA83621A9875D018F9CE9237024F12E47B84D7D436D0009BE005CC987C72F7A61EA701882CF
310
FE05504B0304140006080800F87E6D57B3D79EDC3F01000046050000300000006662782F45423938353732322D463445302D343843422D384139372D3339303633413542423737432F636E782E786D6CCD94C14EC3300C865F25CABDEDBA3109A6349338F0041C10B734F54A581A57898BD8DB938C6C80D0108749DB2D727E
310
4BFF67FFB258BF0F96BD810F065DC3EB72C619388D9D717DC327DA14B79CADA5F088F44DC6995303343C95B914BDC769CCA50E366AB2A96A8DDBE6A222F2A69D080267DAAA101A1EF40B0CAA54136107615B768A5459971E024E5E43EC273340EED71E1441C7E57C365F14755DD48BC77AB95A2E573777CFA24A4A295A449B
310
F5C611781C99C6F870D1CC4C54E95B8AC99BAC49045C7E392B5BE34415FFA508D1ADEBB38E7663D28DA3355A511C53859A808A28023588EA532C4595787F503FDC3F1D1CB0CE78D0847E77A101D4A706703456C624FC8F7F2FFC1B1BDBD7887BA96D9F84CDB6CE867A486B8871FDBDFF9822E57A7B7DA13F1A3B7FE6E32921
310
A3AF0FF9E0EB4CC4D5FEE4C5A5A70B283F00504B0304140006080800F87E6D570F299F4B7F000000A30000000B0000006662782F636E782E786D6C4D8CDF0AC2201C465F457EF796ED4F2AA8638EF51EA3B921390D9BD1E3A7B18BAE3E387CE788EEB339F436F165839770391140C6DFC36CFD2A21ED0B66803A256208FBDF
310
0D909F3623A16050628D213D0F349B654AAE5067FDE380A3E6ACA555856FCD4870C3068D59CF29AE39B9D67DAB35A54336CE45C9F3EBE52D79F505504B0304140006080800F87E6D57A6D797065F0000008200000007000000636E782E786D6C4DCB3B0E80201045D1AD90E9FD7516806B51190811670C8A61F982B1B0BAC9
310
C97B72CA7B1037C6D3332918DA1E04D2CAC69353902EDB8C20262D23F3F59B81A079470595414B17391D1F19B4730A5583A7ED43BBE4025D9592775E5ADFFA01504B0304140006080800F87E6D574FEB6A7CA0000000F4000000130000005B436F6E74656E745F54797065735D2E786D6C7D8F4B0EC2300C44AF1279DFA6B0
310
400835ED02B8011730C16D239A8F121795DB93D02D6269CFBC19BBED573B8B17C564BC53B0AB1B10E4B47F18372A5878A88E20FAAEBDBD032591BD2E299898C349CAA427B2986A1FC86565F0D122E7318E32A07EE24872DF3407A9BD63725C71C980AEBDD080CBCCE2BAE6F5D69B7110E7CD57AA146008B3D1C8F92C5954F9
310
93BB1BF787F39A89ABC491D09600F9FDA2FB00504B0304140006080800F87E6D573DEE336E64000000790000001B0000006175746F6465736B2D64657369676E2D7061636B6167652E786D6C35CBC10E83200C00D05F21DCA56CA76D41FC96062B120735B69A7DBE268BB7777961F8D5AF396893C2ADB70FE7ADA196782C2D
310
F776D7A97B5933C430F15651E5469C55D70F80A4992A3ADC954792C525AE70A1E4D6AD9816CC044FEFDF01FE3FDE907802504B0304140006080800F87E6D574A34F316FA000000960100003B0000006662782F45423938353732322D463445302D343843422D384139372D3339303633413542423737432F7265736F757263
310
65732F636F72652E786D6C8550CB6E833010FC15B47703C68020328E489B7C414FBD5966935A0976E447D5CFAF9D50A93DF5B4ABD999D9DDE1FBAFF5567CA2F3DA9A096859438146D9459BCB04319CC900C55E70676DF84583C2C81527C830087E7136DE37485913D064D4D80537507A8F010A754BCD045E7DE02A4B194362
310
F86B7997EA2A2F58D2F2C9133C46BD6C52BD24377DD6E8408C6C781DDB7E26879E0DA465A7860CFDDC90E361EE8F734D87E3CB8957592C78D0EBCF76E550065C403475C308A584B237DAEDBA6ED78EEFBCCA4CC17D70E9E76D69FE0E84436FA353E879F59CFE718DF7E57FD7A84D60CDE6FA547810341DF918085EE5945279
310
44986A4E547C03504B0304140006080800F87E6D576906406EF3000000B1010000310000006662782F45423938353732322D463445302D343843422D384139372D3339303633413542423737432F636F72652E786D6C8D50CB6EC32010FC156BEFD8C68FDA8E30511CA55FD0536F0888831283C5A3EAE71762576A6F392D9A
310
9D6166871CBF9747F625AD53468F80F31232A9B9114ACF23047F453D64474AAC31FE0F0D32CD163942828192D99AB0EE1037DA4B9D506D84DC41E69CF490F1477C8CE0F84D2E2C67C14786BBE72BE37736CB1CE71B8F12AF965F29B792792980566555238C11AE3F707B68DB43337C92223129094189DD4A89E8AEAE4A5AA0
310
9769E8DBAEAAD07B732951D39F27D49F860ED543F9569FDA69EABA3329929812E76DBC79FF245DF7AA7C13FECB1C56F14266A57D5DED869BC201C531CF734149910A8CE3D96E9CA96CFA03504B0304140006080800F87E6D57231336DD55010000DD0200000C0000006662782F636F72652E786D6C8D525D6F832014FD2B86
310
7754D41ADB208DDDDA5FB0A7BD51A48E54C12098FEFC811FE97C58B7982039F7DE73EE39011F1F5D1B8C5C0F42C912A0300601974CD5423625B0E6060B101C09D64A991F6D2090B4E325F03020B8D1CAF60BC494345C7A54AA9A2F201D066E40C05A7729C1C0BE7847436A8DEB18EE614FD99D363C44E1DC47B0B5A25E4645
310
EDD8C44D700DC83E2DDEF7595EC1539E16304B2F092CF22A81E753959FAB1815E7B70B8EFC30C14674AB3AD39C1A5E0392C4490A118228FD40BBC36E77C8F69F38F29D040F463BCF8BA87707C8EDFAC0D18C6FF86C5FFFCD67853469B2F0CD130320C8AD3715088E7C3EEE3785B7CDD009BBFC0CBDB6AB85BB8346CE8CD299
310
ABD4CA3E4B236D2D77D471307D389AAB8E7922F88D2779C1F39AC3054565E356A3C65DAFD678F5ED4E3DD770348F402ADDD1F6B9DCBCE2F37C0A6D2CADE34CB54AFF677AB5BA8619F98749BE01504B0304140006080800F87E6D57BE859FA808010000B201000008000000636F72652E786D6C8D50C16E842014FC15F2EEA8
310
881A77836CDCD6FD829E7AA3C2BA64158CE0A6FDFBC26A93F6D6D32333F3DE0CC34E9FD3881E6A71DA9A0648920152A6B7529BA181D55F710DE8C4D962ADFF250364C4A41A883070362C769D77A8B7C62B135163A5DA41E19CF280FA313C1A70FD4D4D2211AB0F0A774F66D1DFC5A012926C3ACEBC9E7E56FB4509AF24F03C
310
CB29260413FA46CA63591E8BC33B4BA392B375D572B7D232B8EBAB560BF003AD5F0F45D5E273456B5CD04B8EEBAACD71776EABAECD48DDBD5C581A9739737E097FDE8F849C1E39F188BE2CDD28CE3EAC1D774108259135E317F08CA591F8137A9DE53F426BE369BE1FDC361C7012023D89601C1B0CE3596F98B16DFE0D504B
310
01021400140006080800F87E6D570000000000000000000000003700000000000000000000000000000000006662782F45423938353732322D463445302D343843422D384139372D3339303633413542423737432F617474726962757465732E62696E504B01021400140006080800F87E6D57000000000000000000000000
310
3500000000000000000000000000550000006662782F45423938353732322D463445302D343843422D384139372D3339303633413542423737432F76657274696365732E62696E504B01021400140006080800F87E6D57F270F13306000000040000003600000000000000000000000000A80000006662782F454239383537
310
32322D463445302D343843422D384139372D3339303633413542423737432F747269616E676C65732E62696E504B01021400140006080800F87E6D5751464CB489000000430100003600000000000000000000000000020100006662782F45423938353732322D463445302D343843422D384139372D333930363341354242
310
3737432F6469726563746F72792E786D6C504B01021400140006080800F87E6D57C542E5013E070000201C00003400000000000000000000000000DF0100006662782F45423938353732322D463445302D343843422D384139372D3339303633413542423737432F6F626A656374732E786D6C504B01021400140006080800
310
F87E6D57B3D79EDC3F0100004605000030000000000000000000000000006F0900006662782F45423938353732322D463445302D343843422D384139372D3339303633413542423737432F636E782E786D6C504B01021400140006080800F87E6D570F299F4B7F000000A30000000B00000000000000000000000000FC0A00
310
006662782F636E782E786D6C504B01021400140006080800F87E6D57A6D797065F000000820000000700000000000000000000000000A40B0000636E782E786D6C504B01021400140006080800F87E6D574FEB6A7CA0000000F40000001300000000000000000000000000280C00005B436F6E74656E745F54797065735D2E
310
786D6C504B01021400140006080800F87E6D573DEE336E64000000790000001B00000000000000000000000000F90C00006175746F6465736B2D64657369676E2D7061636B6167652E786D6C504B01021400140006080800F87E6D574A34F316FA000000960100003B00000000000000000000000000960D00006662782F45
310
423938353732322D463445302D343843422D384139372D3339303633413542423737432F7265736F75726365732F636F72652E786D6C504B01021400140006080800F87E6D576906406EF3000000B10100003100000000000000000000000000E90E00006662782F45423938353732322D463445302D343843422D38413937
310
2D3339303633413542423737432F636F72652E786D6C504B01021400140006080800F87E6D57231336DD55010000DD0200000C000000000000000000000000002B1000006662782F636F72652E786D6C504B01021400140006080800F87E6D57BE859FA808010000B20100000800000000000000000000000000AA11000063
310
6F72652E786D6C504B0506000000000E000E0080040000D81200000000
  0
XRECORD
  5
80F0
102
{ACAD_REACTORS
330
80EB
102
}
330
80EB
100
AcDbXrecord
280
     1
270
     1
271
     1
  0
XRECORD
  5
80EF
102
{ACAD_REACTORS
330
80EB
102
}
330
80EB
100
AcDbXrecord
280
     1
270
     1
271
     1
  0
XRECORD
  5
80F1
102
{ACAD_REACTORS
330
80EB
102
}
330
80EB
100
AcDbXrecord
280
     1
270
     1
271
     1
  0
XRECORD
  5
80EE
102
{ACAD_REACTORS
330
80EB
102
}
330
80EB
100
AcDbXrecord
280
     1
270
     1
271
     1
  0
XRECORD
  5
846B
102
{ACAD_REACTORS
330
846A
102
}
330
846A
100
AcDbXrecord
280
     1
102
DISPLAYNAME
  1
Imperial24
102
FLAGS
 90
        0
  0
CELLSTYLEMAP
  5
8432
102
{ACAD_REACTORS
330
8431
102
}
330
8431
100
AcDbCellStyleMap
 90
        3
300
CELLSTYLE
  1
TABLEFORMAT_BEGIN
 90
        5
170
     1
 91
        0
 92
    32768
 62
   257
 93
        1
300
CONTENTFORMAT
  1
CONTENTFORMAT_BEGIN
 90
        0
 91
        0
 92
      512
 93
        0
300

 40
0.0
140
1.0
 94
        5
 62
     0
340
811E
144
0.25
309
CONTENTFORMAT_END
171
     0
 94
        0
309
TABLEFORMAT_END
  1
CELLSTYLE_BEGIN
 90
        1
 91
        1
300
_TITLE
309
CELLSTYLE_END
300
CELLSTYLE
  1
TABLEFORMAT_BEGIN
 90
        5
170
     1
 91
        0
 92
        0
 62
   257
 93
        1
300
CONTENTFORMAT
  1
CONTENTFORMAT_BEGIN
 90
        0
 91
        0
 92
      512
 93
        0
300

 40
0.0
140
1.0
 94
        5
 62
     0
340
811E
144
0.18
309
CONTENTFORMAT_END
171
     0
 94
        0
309
TABLEFORMAT_END
  1
CELLSTYLE_BEGIN
 90
        2
 91
        1
300
_HEADER
309
CELLSTYLE_END
300
CELLSTYLE
  1
TABLEFORMAT_BEGIN
 90
        5
170
     1
 91
        0
 92
        0
 62
   257
 93
        1
300
CONTENTFORMAT
  1
CONTENTFORMAT_BEGIN
 90
        0
 91
        0
 92
      512
 93
        0
300

 40
0.0
140
1.0
 94
        2
 62
     0
340
811E
144
0.18
309
CONTENTFORMAT_END
171
     0
 94
        0
309
TABLEFORMAT_END
  1
CELLSTYLE_BEGIN
 90
        3
 91
        2
300
_DATA
309
CELLSTYLE_END
  0
XRECORD
  5
8468
102
{ACAD_REACTORS
330
8431
102
}
330
8431
100
AcDbXrecord
280
     1
102
ACAD_ROUNDTRIP_PRE2007_TABLESTYLE
 90
      512
 91
        0
  1

 92
      512
 93
        0
  2

 94
      512
 95
        0
  3

  0
XRECORD
  5
8443
102
{ACAD_REACTORS
330
8442
102
}
330
8442
100
AcDbXrecord
280
     1
102
RTVSPost2010Prop28
280
     1
102
RTVSPost2010PropOp28
 70
     1
102
RTVSPost2010Prop29
280
     1
102
RTVSPost2010PropOp29
 70
     1
102
RTVSPost2010Prop30
280
     0
102
RTVSPost2010PropOp30
 70
     1
102
RTVSPost2010Prop31
280
     0
102
RTVSPost2010PropOp31
 70
     1
102
RTVSPost2010Prop32
280
     0
102
RTVSPost2010PropOp32
 70
     1
102
RTVSPost2010Prop33
280
     0
102
RTVSPost2010PropOp33
 70
     1
102
RTVSPost2010Prop34
280
     0
102
RTVSPost2010PropOp34
 70
     1
102
RTVSPost2010Prop35
280
     0
102
RTVSPost2010PropOp35
 70
     1
102
RTVSPost2010Prop36
280
     0
102
RTVSPost2010PropOp36
 70
     1
102
RTVSPost2010Prop37
 90
       50
102
RTVSPost2010PropOp37
 70
     1
102
RTVSPost2010Prop38
140
0.0
102
RTVSPost2010PropOp38
 70
     1
102
RTVSPost2010Prop39
140
1.0
102
RTVSPost2010PropOp39
 70
     1
102
RTVSPost2010Prop40
 90
        0
102
RTVSPost2010PropOp40
 70
     1
102
RTVSPost2010Prop41ColorIndex
 90
       18
102
RTVSPost2010Prop41ColorRGB
 90
        0
102
RTVSPost2010PropOp41
 70
     1
102
RTVSPost2010Prop42
 90
       50
102
RTVSPost2010PropOp42
 70
     1
102
RTVSPost2010Prop43
 90
        3
102
RTVSPost2010PropOp43
 70
     1
102
RTVSPost2010Prop44ColorIndex
 90
        5
102
RTVSPost2010Prop44ColorRGB
 90
      255
102
RTVSPost2010PropOp44
 70
     1
102
RTVSPost2010Prop45
280
     0
102
RTVSPost2010PropOp45
 70
     1
102
RTVSPost2010Prop46
 90
       50
102
RTVSPost2010PropOp46
 70
     1
102
RTVSPost2010Prop47
 90
       50
102
RTVSPost2010PropOp47
 70
     1
102
RTVSPost2010Prop48
 90
       50
102
RTVSPost2010PropOp48
 70
     1
102
RTVSPost2010Prop49
280
     0
102
RTVSPost2010PropOp49
 70
     1
102
RTVSPost2010Prop50
 90
       50
102
RTVSPost2010PropOp50
 70
     1
102
RTVSPost2010Prop51ColorIndex
 90
      256
102
RTVSPost2010Prop51ColorRGB
 90
-16777216
102
RTVSPost2010PropOp51
 70
     0
102
RTVSPost2010Prop52
140
1.0
102
RTVSPost2010PropOp52
 70
     0
102
RTVSPost2010Prop53
 90
        2
102
RTVSPost2010PropOp53
 70
     1
102
RTVSPost2010Prop54
  1
strokes_ogs.tif
102
RTVSPost2010PropOp54
 70
     1
102
RTVSPost2010Prop55
280
     0
102
RTVSPost2010PropOp55
 70
     1
102
RTVSPost2010Prop56
140
1.0
102
RTVSPost2010PropOp56
 70
     1
102
RTVSPost2010Prop57
140
1.0
102
RTVSPost2010PropOp57
 70
     1
102
RTVSPropertyOp0
 70
     1
102
RTVSPropertyOp1
 70
     1
102
RTVSPropertyOp2
 70
     1
102
RTVSPropertyOp3
 70
     1
102
RTVSPropertyOp4
 70
     1
102
RTVSPropertyOp5
 70
     1
102
RTVSPropertyOp6
 70
     1
102
RTVSPropertyOp7
 70
     1
102
RTVSPropertyOp8
 70
     1
102
RTVSPropertyOp9
 70
     1
102
RTVSPropertyOp10
 70
     1
102
RTVSPropertyOp11
 70
     1
102
RTVSPropertyOp12
 70
     1
102
RTVSPropertyOp13
 70
     1
102
RTVSPropertyOp14
 70
     1
102
RTVSPropertyOp15
 70
     1
102
RTVSPropertyOp16
 70
     1
102
RTVSPropertyOp17
 70
     1
102
RTVSPropertyOp18
 70
     1
102
RTVSPropertyOp19
 70
     1
102
RTVSPropertyOp20
 70
     1
102
RTVSPropertyOp21
 70
     1
102
RTVSPropertyOp22
 70
     1
102
RTVSPropertyOp23
 70
     1
102
RTVSPropertyOp24
 70
     1
102
RTVSPropertyOp25
 70
     1
102
RTVSPropertyOp26
 70
     1
102
RTVSPropertyOp27
 70
     1
102
RTVSPropertyOp28
 70
     1
102
RTVSPropertyOp29
 70
     1
102
RTVSPropertyOp30
 70
     1
102
RTVSPropertyOp31
 70
     1
102
RTVSPropertyOp32
 70
     1
102
RTVSPropertyOp33
 70
     1
102
RTVSPropertyOp34
 70
     1
102
RTVSPropertyOp35
 70
     1
102
RTVSPropertyOp36
 70
     1
102
RTVSPropertyOp37
 70
     1
102
RTVSPropertyOp38
 70
     1
102
RTVSPropertyOp39
 70
     1
102
RTVSPropertyOp40
 70
     1
102
RTVSPropertyOp41
 70
     1
102
RTVSPropertyOp42
 70
     1
102
RTVSPropertyOp43
 70
     1
102
RTVSPropertyOp44
 70
     1
102
RTVSPropertyOp45
 70
     1
102
RTVSPropertyOp46
 70
     1
102
RTVSPropertyOp47
 70
     1
102
RTVSPropertyOp48
 70
     1
102
RTVSPropertyOp49
 70
     1
102
RTVSPropertyOp50
 70
     1
102
RTVSPropertyOp51
 70
     0
102
RTVSPropertyOp52
 70
     0
102
RTVSPropertyOp53
 70
     1
102
RTVSPropertyOp54
 70
     1
102
RTVSPropertyOp55
 70
     1
102
RTVSPropertyOp56
 70
     1
102
RTVSPropertyOp57
 70
     1
102
RTVSPropertyOp58
 70
     1
102
RTVSPropertyOp59
 70
     1
102
RTVSPropertyOp60
 70
     1
102
RTVSPropertyOp61
 70
     1
102
RTVSPropertyOp62
 70
     1
  0
XRECORD
  5
8441
102
{ACAD_REACTORS
330
8440
102
}
330
8440
100
AcDbXrecord
280
     1
102
RTVSPost2010Prop28
280
     0
102
RTVSPost2010PropOp28
 70
     1
102
RTVSPost2010Prop29
280
     1
102
RTVSPost2010PropOp29
 70
     1
102
RTVSPost2010Prop30
280
     1
102
RTVSPost2010PropOp30
 70
     1
102
RTVSPost2010Prop31
280
     0
102
RTVSPost2010PropOp31
 70
     1
102
RTVSPost2010Prop32
280
     0
102
RTVSPost2010PropOp32
 70
     1
102
RTVSPost2010Prop33
280
     0
102
RTVSPost2010PropOp33
 70
     1
102
RTVSPost2010Prop34
280
     0
102
RTVSPost2010PropOp34
 70
     1
102
RTVSPost2010Prop35
280
     0
102
RTVSPost2010PropOp35
 70
     1
102
RTVSPost2010Prop36
280
     0
102
RTVSPost2010PropOp36
 70
     1
102
RTVSPost2010Prop37
 90
       50
102
RTVSPost2010PropOp37
 70
     1
102
RTVSPost2010Prop38
140
0.0
102
RTVSPost2010PropOp38
 70
     1
102
RTVSPost2010Prop39
140
1.0
102
RTVSPost2010PropOp39
 70
     1
102
RTVSPost2010Prop40
 90
        0
102
RTVSPost2010PropOp40
 70
     1
102
RTVSPost2010Prop41ColorIndex
 90
       18
102
RTVSPost2010Prop41ColorRGB
 90
        0
102
RTVSPost2010PropOp41
 70
     1
102
RTVSPost2010Prop42
 90
       50
102
RTVSPost2010PropOp42
 70
     1
102
RTVSPost2010Prop43
 90
        3
102
RTVSPost2010PropOp43
 70
     1
102
RTVSPost2010Prop44ColorIndex
 90
        5
102
RTVSPost2010Prop44ColorRGB
 90
      255
102
RTVSPost2010PropOp44
 70
     1
102
RTVSPost2010Prop45
280
     0
102
RTVSPost2010PropOp45
 70
     1
102
RTVSPost2010Prop46
 90
       50
102
RTVSPost2010PropOp46
 70
     1
102
RTVSPost2010Prop47
 90
       50
102
RTVSPost2010PropOp47
 70
     1
102
RTVSPost2010Prop48
 90
       50
102
RTVSPost2010PropOp48
 70
     1
102
RTVSPost2010Prop49
280
     0
102
RTVSPost2010PropOp49
 70
     1
102
RTVSPost2010Prop50
 90
       50
102
RTVSPost2010PropOp50
 70
     1
102
RTVSPost2010Prop51ColorIndex
 90
      256
102
RTVSPost2010Prop51ColorRGB
 90
-16777216
102
RTVSPost2010PropOp51
 70
     0
102
RTVSPost2010Prop52
140
1.0
102
RTVSPost2010PropOp52
 70
     0
102
RTVSPost2010Prop53
 90
        2
102
RTVSPost2010PropOp53
 70
     1
102
RTVSPost2010Prop54
  1
strokes_ogs.tif
102
RTVSPost2010PropOp54
 70
     1
102
RTVSPost2010Prop55
280
     0
102
RTVSPost2010PropOp55
 70
     1
102
RTVSPost2010Prop56
140
1.0
102
RTVSPost2010PropOp56
 70
     1
102
RTVSPost2010Prop57
140
1.0
102
RTVSPost2010PropOp57
 70
     1
102
RTVSPropertyOp0
 70
     1
102
RTVSPropertyOp1
 70
     1
102
RTVSPropertyOp2
 70
     1
102
RTVSPropertyOp3
 70
     1
102
RTVSPropertyOp4
 70
     1
102
RTVSPropertyOp5
 70
     1
102
RTVSPropertyOp6
 70
     1
102
RTVSPropertyOp7
 70
     1
102
RTVSPropertyOp8
 70
     1
102
RTVSPropertyOp9
 70
     1
102
RTVSPropertyOp10
 70
     1
102
RTVSPropertyOp11
 70
     1
102
RTVSPropertyOp12
 70
     1
102
RTVSPropertyOp13
 70
     1
102
RTVSPropertyOp14
 70
     1
102
RTVSPropertyOp15
 70
     1
102
RTVSPropertyOp16
 70
     1
102
RTVSPropertyOp17
 70
     1
102
RTVSPropertyOp18
 70
     1
102
RTVSPropertyOp19
 70
     1
102
RTVSPropertyOp20
 70
     1
102
RTVSPropertyOp21
 70
     1
102
RTVSPropertyOp22
 70
     1
102
RTVSPropertyOp23
 70
     1
102
RTVSPropertyOp24
 70
     1
102
RTVSPropertyOp25
 70
     1
102
RTVSPropertyOp26
 70
     1
102
RTVSPropertyOp27
 70
     1
102
RTVSPropertyOp28
 70
     1
102
RTVSPropertyOp29
 70
     1
102
RTVSPropertyOp30
 70
     1
102
RTVSPropertyOp31
 70
     1
102
RTVSPropertyOp32
 70
     1
102
RTVSPropertyOp33
 70
     1
102
RTVSPropertyOp34
 70
     1
102
RTVSPropertyOp35
 70
     1
102
RTVSPropertyOp36
 70
     1
102
RTVSPropertyOp37
 70
     1
102
RTVSPropertyOp38
 70
     1
102
RTVSPropertyOp39
 70
     1
102
RTVSPropertyOp40
 70
     1
102
RTVSPropertyOp41
 70
     1
102
RTVSPropertyOp42
 70
     1
102
RTVSPropertyOp43
 70
     1
102
RTVSPropertyOp44
 70
     1
102
RTVSPropertyOp45
 70
     1
102
RTVSPropertyOp46
 70
     1
102
RTVSPropertyOp47
 70
     1
102
RTVSPropertyOp48
 70
     1
102
RTVSPropertyOp49
 70
     1
102
RTVSPropertyOp50
 70
     1
102
RTVSPropertyOp51
 70
     0
102
RTVSPropertyOp52
 70
     0
102
RTVSPropertyOp53
 70
     1
102
RTVSPropertyOp54
 70
     1
102
RTVSPropertyOp55
 70
     1
102
RTVSPropertyOp56
 70
     1
102
RTVSPropertyOp57
 70
     1
102
RTVSPropertyOp58
 70
     1
102
RTVSPropertyOp59
 70
     1
102
RTVSPropertyOp60
 70
     1
102
RTVSPropertyOp61
 70
     1
102
RTVSPropertyOp62
 70
     1
  0
XRECORD
  5
844F
102
{ACAD_REACTORS
330
844E
102
}
330
844E
100
AcDbXrecord
280
     1
102
RTVSPost2010Prop28
280
     0
102
RTVSPost2010PropOp28
 70
     1
102
RTVSPost2010Prop29
280
     1
102
RTVSPost2010PropOp29
 70
     1
102
RTVSPost2010Prop30
280
     1
102
RTVSPost2010PropOp30
 70
     1
102
RTVSPost2010Prop31
280
     0
102
RTVSPost2010PropOp31
 70
     1
102
RTVSPost2010Prop32
280
     0
102
RTVSPost2010PropOp32
 70
     1
102
RTVSPost2010Prop33
280
     0
102
RTVSPost2010PropOp33
 70
     1
102
RTVSPost2010Prop34
280
     0
102
RTVSPost2010PropOp34
 70
     1
102
RTVSPost2010Prop35
280
     0
102
RTVSPost2010PropOp35
 70
     1
102
RTVSPost2010Prop36
280
     0
102
RTVSPost2010PropOp36
 70
     1
102
RTVSPost2010Prop37
 90
       50
102
RTVSPost2010PropOp37
 70
     1
102
RTVSPost2010Prop38
140
0.0
102
RTVSPost2010PropOp38
 70
     1
102
RTVSPost2010Prop39
140
1.0
102
RTVSPost2010PropOp39
 70
     1
102
RTVSPost2010Prop40
 90
        0
102
RTVSPost2010PropOp40
 70
     1
102
RTVSPost2010Prop41ColorIndex
 90
       18
102
RTVSPost2010Prop41ColorRGB
 90
        0
102
RTVSPost2010PropOp41
 70
     1
102
RTVSPost2010Prop42
 90
       50
102
RTVSPost2010PropOp42
 70
     1
102
RTVSPost2010Prop43
 90
        3
102
RTVSPost2010PropOp43
 70
     1
102
RTVSPost2010Prop44ColorIndex
 90
        5
102
RTVSPost2010Prop44ColorRGB
 90
      255
102
RTVSPost2010PropOp44
 70
     1
102
RTVSPost2010Prop45
280
     0
102
RTVSPost2010PropOp45
 70
     1
102
RTVSPost2010Prop46
 90
       50
102
RTVSPost2010PropOp46
 70
     1
102
RTVSPost2010Prop47
 90
       50
102
RTVSPost2010PropOp47
 70
     1
102
RTVSPost2010Prop48
 90
       50
102
RTVSPost2010PropOp48
 70
     1
102
RTVSPost2010Prop49
280
     0
102
RTVSPost2010PropOp49
 70
     1
102
RTVSPost2010Prop50
 90
       50
102
RTVSPost2010PropOp50
 70
     1
102
RTVSPost2010Prop51ColorIndex
 90
      256
102
RTVSPost2010Prop51ColorRGB
 90
-16777216
102
RTVSPost2010PropOp51
 70
     0
102
RTVSPost2010Prop52
140
1.0
102
RTVSPost2010PropOp52
 70
     0
102
RTVSPost2010Prop53
 90
        2
102
RTVSPost2010PropOp53
 70
     1
102
RTVSPost2010Prop54
  1
strokes_ogs.tif
102
RTVSPost2010PropOp54
 70
     1
102
RTVSPost2010Prop55
280
     0
102
RTVSPost2010PropOp55
 70
     1
102
RTVSPost2010Prop56
140
1.0
102
RTVSPost2010PropOp56
 70
     1
102
RTVSPost2010Prop57
140
1.0
102
RTVSPost2010PropOp57
 70
     1
102
RTVSPropertyOp0
 70
     1
102
RTVSPropertyOp1
 70
     1
102
RTVSPropertyOp2
 70
     1
102
RTVSPropertyOp3
 70
     1
102
RTVSPropertyOp4
 70
     1
102
RTVSPropertyOp5
 70
     1
102
RTVSPropertyOp6
 70
     1
102
RTVSPropertyOp7
 70
     1
102
RTVSPropertyOp8
 70
     1
102
RTVSPropertyOp9
 70
     1
102
RTVSPropertyOp10
 70
     1
102
RTVSPropertyOp11
 70
     1
102
RTVSPropertyOp12
 70
     1
102
RTVSPropertyOp13
 70
     1
102
RTVSPropertyOp14
 70
     1
102
RTVSPropertyOp15
 70
     1
102
RTVSPropertyOp16
 70
     1
102
RTVSPropertyOp17
 70
     1
102
RTVSPropertyOp18
 70
     1
102
RTVSPropertyOp19
 70
     1
102
RTVSPropertyOp20
 70
     1
102
RTVSPropertyOp21
 70
     1
102
RTVSPropertyOp22
 70
     1
102
RTVSPropertyOp23
 70
     1
102
RTVSPropertyOp24
 70
     1
102
RTVSPropertyOp25
 70
     1
102
RTVSPropertyOp26
 70
     1
102
RTVSPropertyOp27
 70
     1
102
RTVSPropertyOp28
 70
     1
102
RTVSPropertyOp29
 70
     1
102
RTVSPropertyOp30
 70
     1
102
RTVSPropertyOp31
 70
     1
102
RTVSPropertyOp32
 70
     1
102
RTVSPropertyOp33
 70
     1
102
RTVSPropertyOp34
 70
     1
102
RTVSPropertyOp35
 70
     1
102
RTVSPropertyOp36
 70
     1
102
RTVSPropertyOp37
 70
     1
102
RTVSPropertyOp38
 70
     1
102
RTVSPropertyOp39
 70
     1
102
RTVSPropertyOp40
 70
     1
102
RTVSPropertyOp41
 70
     1
102
RTVSPropertyOp42
 70
     1
102
RTVSPropertyOp43
 70
     1
102
RTVSPropertyOp44
 70
     1
102
RTVSPropertyOp45
 70
     1
102
RTVSPropertyOp46
 70
     1
102
RTVSPropertyOp47
 70
     1
102
RTVSPropertyOp48
 70
     1
102
RTVSPropertyOp49
 70
     1
102
RTVSPropertyOp50
 70
     1
102
RTVSPropertyOp51
 70
     0
102
RTVSPropertyOp52
 70
     0
102
RTVSPropertyOp53
 70
     1
102
RTVSPropertyOp54
 70
     1
102
RTVSPropertyOp55
 70
     1
102
RTVSPropertyOp56
 70
     1
102
RTVSPropertyOp57
 70
     1
102
RTVSPropertyOp58
 70
     1
102
RTVSPropertyOp59
 70
     1
102
RTVSPropertyOp60
 70
     1
102
RTVSPropertyOp61
 70
     1
102
RTVSPropertyOp62
 70
     1
  0
XRECORD
  5
8457
102
{ACAD_REACTORS
330
8456
102
}
330
8456
100
AcDbXrecord
280
     1
102
RTVSPost2010Prop28
280
     0
102
RTVSPost2010PropOp28
 70
     1
102
RTVSPost2010Prop29
280
     1
102
RTVSPost2010PropOp29
 70
     1
102
RTVSPost2010Prop30
280
     1
102
RTVSPost2010PropOp30
 70
     1
102
RTVSPost2010Prop31
280
     0
102
RTVSPost2010PropOp31
 70
     1
102
RTVSPost2010Prop32
280
     0
102
RTVSPost2010PropOp32
 70
     1
102
RTVSPost2010Prop33
280
     0
102
RTVSPost2010PropOp33
 70
     1
102
RTVSPost2010Prop34
280
     0
102
RTVSPost2010PropOp34
 70
     1
102
RTVSPost2010Prop35
280
     0
102
RTVSPost2010PropOp35
 70
     1
102
RTVSPost2010Prop36
280
     0
102
RTVSPost2010PropOp36
 70
     1
102
RTVSPost2010Prop37
 90
       50
102
RTVSPost2010PropOp37
 70
     1
102
RTVSPost2010Prop38
140
0.0
102
RTVSPost2010PropOp38
 70
     1
102
RTVSPost2010Prop39
140
1.0
102
RTVSPost2010PropOp39
 70
     1
102
RTVSPost2010Prop40
 90
        0
102
RTVSPost2010PropOp40
 70
     1
102
RTVSPost2010Prop41ColorIndex
 90
       18
102
RTVSPost2010Prop41ColorRGB
 90
        0
102
RTVSPost2010PropOp41
 70
     1
102
RTVSPost2010Prop42
 90
       50
102
RTVSPost2010PropOp42
 70
     1
102
RTVSPost2010Prop43
 90
        3
102
RTVSPost2010PropOp43
 70
     1
102
RTVSPost2010Prop44ColorIndex
 90
        5
102
RTVSPost2010Prop44ColorRGB
 90
      255
102
RTVSPost2010PropOp44
 70
     1
102
RTVSPost2010Prop45
280
     0
102
RTVSPost2010PropOp45
 70
     1
102
RTVSPost2010Prop46
 90
       50
102
RTVSPost2010PropOp46
 70
     1
102
RTVSPost2010Prop47
 90
       50
102
RTVSPost2010PropOp47
 70
     1
102
RTVSPost2010Prop48
 90
       50
102
RTVSPost2010PropOp48
 70
     1
102
RTVSPost2010Prop49
280
     0
102
RTVSPost2010PropOp49
 70
     1
102
RTVSPost2010Prop50
 90
       50
102
RTVSPost2010PropOp50
 70
     1
102
RTVSPost2010Prop51ColorIndex
 90
      256
102
RTVSPost2010Prop51ColorRGB
 90
-16777216
102
RTVSPost2010PropOp51
 70
     0
102
RTVSPost2010Prop52
140
1.0
102
RTVSPost2010PropOp52
 70
     0
102
RTVSPost2010Prop53
 90
        2
102
RTVSPost2010PropOp53
 70
     1
102
RTVSPost2010Prop54
  1
strokes_ogs.tif
102
RTVSPost2010PropOp54
 70
     1
102
RTVSPost2010Prop55
280
     0
102
RTVSPost2010PropOp55
 70
     1
102
RTVSPost2010Prop56
140
1.0
102
RTVSPost2010PropOp56
 70
     1
102
RTVSPost2010Prop57
140
1.0
102
RTVSPost2010PropOp57
 70
     1
102
RTVSPropertyOp0
 70
     1
102
RTVSPropertyOp1
 70
     1
102
RTVSPropertyOp2
 70
     1
102
RTVSPropertyOp3
 70
     1
102
RTVSPropertyOp4
 70
     1
102
RTVSPropertyOp5
 70
     1
102
RTVSPropertyOp6
 70
     1
102
RTVSPropertyOp7
 70
     1
102
RTVSPropertyOp8
 70
     1
102
RTVSPropertyOp9
 70
     1
102
RTVSPropertyOp10
 70
     1
102
RTVSPropertyOp11
 70
     1
102
RTVSPropertyOp12
 70
     1
102
RTVSPropertyOp13
 70
     1
102
RTVSPropertyOp14
 70
     1
102
RTVSPropertyOp15
 70
     1
102
RTVSPropertyOp16
 70
     1
102
RTVSPropertyOp17
 70
     1
102
RTVSPropertyOp18
 70
     1
102
RTVSPropertyOp19
 70
     1
102
RTVSPropertyOp20
 70
     1
102
RTVSPropertyOp21
 70
     1
102
RTVSPropertyOp22
 70
     1
102
RTVSPropertyOp23
 70
     1
102
RTVSPropertyOp24
 70
     1
102
RTVSPropertyOp25
 70
     1
102
RTVSPropertyOp26
 70
     1
102
RTVSPropertyOp27
 70
     1
102
RTVSPropertyOp28
 70
     1
102
RTVSPropertyOp29
 70
     1
102
RTVSPropertyOp30
 70
     1
102
RTVSPropertyOp31
 70
     1
102
RTVSPropertyOp32
 70
     1
102
RTVSPropertyOp33
 70
     1
102
RTVSPropertyOp34
 70
     1
102
RTVSPropertyOp35
 70
     1
102
RTVSPropertyOp36
 70
     1
102
RTVSPropertyOp37
 70
     1
102
RTVSPropertyOp38
 70
     1
102
RTVSPropertyOp39
 70
     1
102
RTVSPropertyOp40
 70
     1
102
RTVSPropertyOp41
 70
     1
102
RTVSPropertyOp42
 70
     1
102
RTVSPropertyOp43
 70
     1
102
RTVSPropertyOp44
 70
     1
102
RTVSPropertyOp45
 70
     1
102
RTVSPropertyOp46
 70
     1
102
RTVSPropertyOp47
 70
     1
102
RTVSPropertyOp48
 70
     1
102
RTVSPropertyOp49
 70
     1
102
RTVSPropertyOp50
 70
     1
102
RTVSPropertyOp51
 70
     0
102
RTVSPropertyOp52
 70
     0
102
RTVSPropertyOp53
 70
     1
102
RTVSPropertyOp54
 70
     1
102
RTVSPropertyOp55
 70
     1
102
RTVSPropertyOp56
 70
     1
102
RTVSPropertyOp57
 70
     1
102
RTVSPropertyOp58
 70
     1
102
RTVSPropertyOp59
 70
     1
102
RTVSPropertyOp60
 70
     1
102
RTVSPropertyOp61
 70
     1
102
RTVSPropertyOp62
 70
     1
  0
XRECORD
  5
8449
102
{ACAD_REACTORS
330
8448
102
}
330
8448
100
AcDbXrecord
280
     1
102
RTVSPost2010Prop28
280
     0
102
RTVSPost2010PropOp28
 70
     1
102
RTVSPost2010Prop29
280
     1
102
RTVSPost2010PropOp29
 70
     1
102
RTVSPost2010Prop30
280
     1
102
RTVSPost2010PropOp30
 70
     1
102
RTVSPost2010Prop31
280
     0
102
RTVSPost2010PropOp31
 70
     1
102
RTVSPost2010Prop32
280
     0
102
RTVSPost2010PropOp32
 70
     1
102
RTVSPost2010Prop33
280
     0
102
RTVSPost2010PropOp33
 70
     1
102
RTVSPost2010Prop34
280
     0
102
RTVSPost2010PropOp34
 70
     1
102
RTVSPost2010Prop35
280
     0
102
RTVSPost2010PropOp35
 70
     1
102
RTVSPost2010Prop36
280
     0
102
RTVSPost2010PropOp36
 70
     1
102
RTVSPost2010Prop37
 90
       50
102
RTVSPost2010PropOp37
 70
     1
102
RTVSPost2010Prop38
140
0.0
102
RTVSPost2010PropOp38
 70
     1
102
RTVSPost2010Prop39
140
1.0
102
RTVSPost2010PropOp39
 70
     1
102
RTVSPost2010Prop40
 90
        0
102
RTVSPost2010PropOp40
 70
     1
102
RTVSPost2010Prop41ColorIndex
 90
       18
102
RTVSPost2010Prop41ColorRGB
 90
        0
102
RTVSPost2010PropOp41
 70
     1
102
RTVSPost2010Prop42
 90
       50
102
RTVSPost2010PropOp42
 70
     1
102
RTVSPost2010Prop43
 90
        3
102
RTVSPost2010PropOp43
 70
     1
102
RTVSPost2010Prop44ColorIndex
 90
        5
102
RTVSPost2010Prop44ColorRGB
 90
      255
102
RTVSPost2010PropOp44
 70
     1
102
RTVSPost2010Prop45
280
     0
102
RTVSPost2010PropOp45
 70
     1
102
RTVSPost2010Prop46
 90
       50
102
RTVSPost2010PropOp46
 70
     1
102
RTVSPost2010Prop47
 90
       50
102
RTVSPost2010PropOp47
 70
     1
102
RTVSPost2010Prop48
 90
       50
102
RTVSPost2010PropOp48
 70
     1
102
RTVSPost2010Prop49
280
     0
102
RTVSPost2010PropOp49
 70
     1
102
RTVSPost2010Prop50
 90
       50
102
RTVSPost2010PropOp50
 70
     1
102
RTVSPost2010Prop51ColorIndex
 90
      256
102
RTVSPost2010Prop51ColorRGB
 90
-16777216
102
RTVSPost2010PropOp51
 70
     0
102
RTVSPost2010Prop52
140
1.0
102
RTVSPost2010PropOp52
 70
     0
102
RTVSPost2010Prop53
 90
        2
102
RTVSPost2010PropOp53
 70
     1
102
RTVSPost2010Prop54
  1
strokes_ogs.tif
102
RTVSPost2010PropOp54
 70
     1
102
RTVSPost2010Prop55
280
     0
102
RTVSPost2010PropOp55
 70
     1
102
RTVSPost2010Prop56
140
1.0
102
RTVSPost2010PropOp56
 70
     1
102
RTVSPost2010Prop57
140
1.0
102
RTVSPost2010PropOp57
 70
     1
102
RTVSPropertyOp0
 70
     1
102
RTVSPropertyOp1
 70
     1
102
RTVSPropertyOp2
 70
     1
102
RTVSPropertyOp3
 70
     1
102
RTVSPropertyOp4
 70
     1
102
RTVSPropertyOp5
 70
     1
102
RTVSPropertyOp6
 70
     1
102
RTVSPropertyOp7
 70
     1
102
RTVSPropertyOp8
 70
     1
102
RTVSPropertyOp9
 70
     1
102
RTVSPropertyOp10
 70
     1
102
RTVSPropertyOp11
 70
     1
102
RTVSPropertyOp12
 70
     1
102
RTVSPropertyOp13
 70
     1
102
RTVSPropertyOp14
 70
     1
102
RTVSPropertyOp15
 70
     1
102
RTVSPropertyOp16
 70
     1
102
RTVSPropertyOp17
 70
     1
102
RTVSPropertyOp18
 70
     1
102
RTVSPropertyOp19
 70
     1
102
RTVSPropertyOp20
 70
     1
102
RTVSPropertyOp21
 70
     1
102
RTVSPropertyOp22
 70
     1
102
RTVSPropertyOp23
 70
     1
102
RTVSPropertyOp24
 70
     1
102
RTVSPropertyOp25
 70
     1
102
RTVSPropertyOp26
 70
     1
102
RTVSPropertyOp27
 70
     1
102
RTVSPropertyOp28
 70
     1
102
RTVSPropertyOp29
 70
     1
102
RTVSPropertyOp30
 70
     1
102
RTVSPropertyOp31
 70
     1
102
RTVSPropertyOp32
 70
     1
102
RTVSPropertyOp33
 70
     1
102
RTVSPropertyOp34
 70
     1
102
RTVSPropertyOp35
 70
     1
102
RTVSPropertyOp36
 70
     1
102
RTVSPropertyOp37
 70
     1
102
RTVSPropertyOp38
 70
     1
102
RTVSPropertyOp39
 70
     1
102
RTVSPropertyOp40
 70
     1
102
RTVSPropertyOp41
 70
     1
102
RTVSPropertyOp42
 70
     1
102
RTVSPropertyOp43
 70
     1
102
RTVSPropertyOp44
 70
     1
102
RTVSPropertyOp45
 70
     1
102
RTVSPropertyOp46
 70
     1
102
RTVSPropertyOp47
 70
     1
102
RTVSPropertyOp48
 70
     1
102
RTVSPropertyOp49
 70
     1
102
RTVSPropertyOp50
 70
     1
102
RTVSPropertyOp51
 70
     0
102
RTVSPropertyOp52
 70
     0
102
RTVSPropertyOp53
 70
     1
102
RTVSPropertyOp54
 70
     1
102
RTVSPropertyOp55
 70
     1
102
RTVSPropertyOp56
 70
     1
102
RTVSPropertyOp57
 70
     1
102
RTVSPropertyOp58
 70
     1
102
RTVSPropertyOp59
 70
     1
102
RTVSPropertyOp60
 70
     1
102
RTVSPropertyOp61
 70
     1
102
RTVSPropertyOp62
 70
     1
  0
XRECORD
  5
844D
102
{ACAD_REACTORS
330
844C
102
}
330
844C
100
AcDbXrecord
280
     1
102
RTVSPost2010Prop28
280
     0
102
RTVSPost2010PropOp28
 70
     1
102
RTVSPost2010Prop29
280
     1
102
RTVSPost2010PropOp29
 70
     1
102
RTVSPost2010Prop30
280
     1
102
RTVSPost2010PropOp30
 70
     1
102
RTVSPost2010Prop31
280
     0
102
RTVSPost2010PropOp31
 70
     1
102
RTVSPost2010Prop32
280
     0
102
RTVSPost2010PropOp32
 70
     1
102
RTVSPost2010Prop33
280
     0
102
RTVSPost2010PropOp33
 70
     1
102
RTVSPost2010Prop34
280
     0
102
RTVSPost2010PropOp34
 70
     1
102
RTVSPost2010Prop35
280
     0
102
RTVSPost2010PropOp35
 70
     1
102
RTVSPost2010Prop36
280
     0
102
RTVSPost2010PropOp36
 70
     1
102
RTVSPost2010Prop37
 90
       50
102
RTVSPost2010PropOp37
 70
     1
102
RTVSPost2010Prop38
140
0.0
102
RTVSPost2010PropOp38
 70
     1
102
RTVSPost2010Prop39
140
1.0
102
RTVSPost2010PropOp39
 70
     1
102
RTVSPost2010Prop40
 90
        0
102
RTVSPost2010PropOp40
 70
     1
102
RTVSPost2010Prop41ColorIndex
 90
       18
102
RTVSPost2010Prop41ColorRGB
 90
        0
102
RTVSPost2010PropOp41
 70
     1
102
RTVSPost2010Prop42
 90
       50
102
RTVSPost2010PropOp42
 70
     1
102
RTVSPost2010Prop43
 90
        3
102
RTVSPost2010PropOp43
 70
     1
102
RTVSPost2010Prop44ColorIndex
 90
        5
102
RTVSPost2010Prop44ColorRGB
 90
      255
102
RTVSPost2010PropOp44
 70
     1
102
RTVSPost2010Prop45
280
     0
102
RTVSPost2010PropOp45
 70
     1
102
RTVSPost2010Prop46
 90
       50
102
RTVSPost2010PropOp46
 70
     1
102
RTVSPost2010Prop47
 90
       50
102
RTVSPost2010PropOp47
 70
     1
102
RTVSPost2010Prop48
 90
       50
102
RTVSPost2010PropOp48
 70
     1
102
RTVSPost2010Prop49
280
     0
102
RTVSPost2010PropOp49
 70
     1
102
RTVSPost2010Prop50
 90
       50
102
RTVSPost2010PropOp50
 70
     1
102
RTVSPost2010Prop51ColorIndex
 90
      256
102
RTVSPost2010Prop51ColorRGB
 90
-16777216
102
RTVSPost2010PropOp51
 70
     0
102
RTVSPost2010Prop52
140
1.0
102
RTVSPost2010PropOp52
 70
     0
102
RTVSPost2010Prop53
 90
        2
102
RTVSPost2010PropOp53
 70
     1
102
RTVSPost2010Prop54
  1
strokes_ogs.tif
102
RTVSPost2010PropOp54
 70
     1
102
RTVSPost2010Prop55
280
     0
102
RTVSPost2010PropOp55
 70
     1
102
RTVSPost2010Prop56
140
1.0
102
RTVSPost2010PropOp56
 70
     1
102
RTVSPost2010Prop57
140
1.0
102
RTVSPost2010PropOp57
 70
     1
102
RTVSPropertyOp0
 70
     1
102
RTVSPropertyOp1
 70
     1
102
RTVSPropertyOp2
 70
     1
102
RTVSPropertyOp3
 70
     1
102
RTVSPropertyOp4
 70
     1
102
RTVSPropertyOp5
 70
     1
102
RTVSPropertyOp6
 70
     1
102
RTVSPropertyOp7
 70
     1
102
RTVSPropertyOp8
 70
     1
102
RTVSPropertyOp9
 70
     1
102
RTVSPropertyOp10
 70
     1
102
RTVSPropertyOp11
 70
     1
102
RTVSPropertyOp12
 70
     1
102
RTVSPropertyOp13
 70
     1
102
RTVSPropertyOp14
 70
     1
102
RTVSPropertyOp15
 70
     1
102
RTVSPropertyOp16
 70
     1
102
RTVSPropertyOp17
 70
     1
102
RTVSPropertyOp18
 70
     1
102
RTVSPropertyOp19
 70
     1
102
RTVSPropertyOp20
 70
     1
102
RTVSPropertyOp21
 70
     1
102
RTVSPropertyOp22
 70
     1
102
RTVSPropertyOp23
 70
     1
102
RTVSPropertyOp24
 70
     1
102
RTVSPropertyOp25
 70
     1
102
RTVSPropertyOp26
 70
     1
102
RTVSPropertyOp27
 70
     1
102
RTVSPropertyOp28
 70
     1
102
RTVSPropertyOp29
 70
     1
102
RTVSPropertyOp30
 70
     1
102
RTVSPropertyOp31
 70
     1
102
RTVSPropertyOp32
 70
     1
102
RTVSPropertyOp33
 70
     1
102
RTVSPropertyOp34
 70
     1
102
RTVSPropertyOp35
 70
     1
102
RTVSPropertyOp36
 70
     1
102
RTVSPropertyOp37
 70
     1
102
RTVSPropertyOp38
 70
     1
102
RTVSPropertyOp39
 70
     1
102
RTVSPropertyOp40
 70
     1
102
RTVSPropertyOp41
 70
     1
102
RTVSPropertyOp42
 70
     1
102
RTVSPropertyOp43
 70
     1
102
RTVSPropertyOp44
 70
     1
102
RTVSPropertyOp45
 70
     1
102
RTVSPropertyOp46
 70
     1
102
RTVSPropertyOp47
 70
     1
102
RTVSPropertyOp48
 70
     1
102
RTVSPropertyOp49
 70
     1
102
RTVSPropertyOp50
 70
     1
102
RTVSPropertyOp51
 70
     0
102
RTVSPropertyOp52
 70
     0
102
RTVSPropertyOp53
 70
     1
102
RTVSPropertyOp54
 70
     1
102
RTVSPropertyOp55
 70
     1
102
RTVSPropertyOp56
 70
     1
102
RTVSPropertyOp57
 70
     1
102
RTVSPropertyOp58
 70
     1
102
RTVSPropertyOp59
 70
     1
102
RTVSPropertyOp60
 70
     1
102
RTVSPropertyOp61
 70
     1
102
RTVSPropertyOp62
 70
     1
  0
XRECORD
  5
8467
102
{ACAD_REACTORS
330
8466
102
}
330
8466
100
AcDbXrecord
280
     1
102
RTVSPost2010Prop28
280
     0
102
RTVSPost2010PropOp28
 70
     1
102
RTVSPost2010Prop29
280
     1
102
RTVSPost2010PropOp29
 70
     1
102
RTVSPost2010Prop30
280
     1
102
RTVSPost2010PropOp30
 70
     1
102
RTVSPost2010Prop31
280
     0
102
RTVSPost2010PropOp31
 70
     1
102
RTVSPost2010Prop32
280
     0
102
RTVSPost2010PropOp32
 70
     1
102
RTVSPost2010Prop33
280
     0
102
RTVSPost2010PropOp33
 70
     1
102
RTVSPost2010Prop34
280
     0
102
RTVSPost2010PropOp34
 70
     1
102
RTVSPost2010Prop35
280
     0
102
RTVSPost2010PropOp35
 70
     1
102
RTVSPost2010Prop36
280
     0
102
RTVSPost2010PropOp36
 70
     1
102
RTVSPost2010Prop37
 90
       50
102
RTVSPost2010PropOp37
 70
     0
102
RTVSPost2010Prop38
140
0.0
102
RTVSPost2010PropOp38
 70
     0
102
RTVSPost2010Prop39
140
1.0
102
RTVSPost2010PropOp39
 70
     0
102
RTVSPost2010Prop40
 90
        0
102
RTVSPost2010PropOp40
 70
     0
102
RTVSPost2010Prop41ColorIndex
 90
       18
102
RTVSPost2010Prop41ColorRGB
 90
        0
102
RTVSPost2010PropOp41
 70
     0
102
RTVSPost2010Prop42
 90
       50
102
RTVSPost2010PropOp42
 70
     0
102
RTVSPost2010Prop43
 90
        3
102
RTVSPost2010PropOp43
 70
     0
102
RTVSPost2010Prop44ColorIndex
 90
        5
102
RTVSPost2010Prop44ColorRGB
 90
      255
102
RTVSPost2010PropOp44
 70
     0
102
RTVSPost2010Prop45
280
     0
102
RTVSPost2010PropOp45
 70
     1
102
RTVSPost2010Prop46
 90
       50
102
RTVSPost2010PropOp46
 70
     0
102
RTVSPost2010Prop47
 90
       50
102
RTVSPost2010PropOp47
 70
     0
102
RTVSPost2010Prop48
 90
       50
102
RTVSPost2010PropOp48
 70
     0
102
RTVSPost2010Prop49
280
     0
102
RTVSPost2010PropOp49
 70
     1
102
RTVSPost2010Prop50
 90
       50
102
RTVSPost2010PropOp50
 70
     0
102
RTVSPost2010Prop51ColorIndex
 90
      256
102
RTVSPost2010Prop51ColorRGB
 90
-16777216
102
RTVSPost2010PropOp51
 70
     0
102
RTVSPost2010Prop52
140
1.0
102
RTVSPost2010PropOp52
 70
     0
102
RTVSPost2010Prop53
 90
        2
102
RTVSPost2010PropOp53
 70
     0
102
RTVSPost2010Prop54
  1
strokes_ogs.tif
102
RTVSPost2010PropOp54
 70
     0
102
RTVSPost2010Prop55
280
     0
102
RTVSPost2010PropOp55
 70
     1
102
RTVSPost2010Prop56
140
1.0
102
RTVSPost2010PropOp56
 70
     0
102
RTVSPost2010Prop57
140
1.0
102
RTVSPost2010PropOp57
 70
     0
102
RTVSPropertyOp0
 70
     0
102
RTVSPropertyOp1
 70
     0
102
RTVSPropertyOp2
 70
     0
102
RTVSPropertyOp3
 70
     0
102
RTVSPropertyOp4
 70
     0
102
RTVSPropertyOp5
 70
     0
102
RTVSPropertyOp6
 70
     0
102
RTVSPropertyOp7
 70
     0
102
RTVSPropertyOp8
 70
     0
102
RTVSPropertyOp9
 70
     0
102
RTVSPropertyOp10
 70
     0
102
RTVSPropertyOp11
 70
     0
102
RTVSPropertyOp12
 70
     0
102
RTVSPropertyOp13
 70
     0
102
RTVSPropertyOp14
 70
     2
102
RTVSPropertyOp15
 70
     0
102
RTVSPropertyOp16
 70
     0
102
RTVSPropertyOp17
 70
     0
102
RTVSPropertyOp18
 70
     0
102
RTVSPropertyOp19
 70
     0
102
RTVSPropertyOp20
 70
     0
102
RTVSPropertyOp21
 70
     0
102
RTVSPropertyOp22
 70
     0
102
RTVSPropertyOp23
 70
     0
102
RTVSPropertyOp24
 70
     0
102
RTVSPropertyOp25
 70
     0
102
RTVSPropertyOp26
 70
     0
102
RTVSPropertyOp27
 70
     0
102
RTVSPropertyOp28
 70
     1
102
RTVSPropertyOp29
 70
     1
102
RTVSPropertyOp30
 70
     1
102
RTVSPropertyOp31
 70
     1
102
RTVSPropertyOp32
 70
     1
102
RTVSPropertyOp33
 70
     1
102
RTVSPropertyOp34
 70
     1
102
RTVSPropertyOp35
 70
     1
102
RTVSPropertyOp36
 70
     1
102
RTVSPropertyOp37
 70
     0
102
RTVSPropertyOp38
 70
     0
102
RTVSPropertyOp39
 70
     0
102
RTVSPropertyOp40
 70
     0
102
RTVSPropertyOp41
 70
     0
102
RTVSPropertyOp42
 70
     0
102
RTVSPropertyOp43
 70
     0
102
RTVSPropertyOp44
 70
     0
102
RTVSPropertyOp45
 70
     1
102
RTVSPropertyOp46
 70
     0
102
RTVSPropertyOp47
 70
     0
102
RTVSPropertyOp48
 70
     0
102
RTVSPropertyOp49
 70
     1
102
RTVSPropertyOp50
 70
     0
102
RTVSPropertyOp51
 70
     0
102
RTVSPropertyOp52
 70
     0
102
RTVSPropertyOp53
 70
     0
102
RTVSPropertyOp54
 70
     0
102
RTVSPropertyOp55
 70
     1
102
RTVSPropertyOp56
 70
     0
102
RTVSPropertyOp57
 70
     0
102
RTVSPropertyOp58
 70
     0
102
RTVSPropertyOp59
 70
     0
102
RTVSPropertyOp60
 70
     0
102
RTVSPropertyOp61
 70
     0
102
RTVSPropertyOp62
 70
     0
  0
XRECORD
  5
8455
102
{ACAD_REACTORS
330
8454
102
}
330
8454
100
AcDbXrecord
280
     1
102
RTVSPost2010Prop28
280
     0
102
RTVSPost2010PropOp28
 70
     1
102
RTVSPost2010Prop29
280
     1
102
RTVSPost2010PropOp29
 70
     1
102
RTVSPost2010Prop30
280
     1
102
RTVSPost2010PropOp30
 70
     1
102
RTVSPost2010Prop31
280
     0
102
RTVSPost2010PropOp31
 70
     1
102
RTVSPost2010Prop32
280
     0
102
RTVSPost2010PropOp32
 70
     1
102
RTVSPost2010Prop33
280
     0
102
RTVSPost2010PropOp33
 70
     1
102
RTVSPost2010Prop34
280
     0
102
RTVSPost2010PropOp34
 70
     1
102
RTVSPost2010Prop35
280
     0
102
RTVSPost2010PropOp35
 70
     1
102
RTVSPost2010Prop36
280
     0
102
RTVSPost2010PropOp36
 70
     1
102
RTVSPost2010Prop37
 90
       50
102
RTVSPost2010PropOp37
 70
     1
102
RTVSPost2010Prop38
140
0.0
102
RTVSPost2010PropOp38
 70
     1
102
RTVSPost2010Prop39
140
1.0
102
RTVSPost2010PropOp39
 70
     1
102
RTVSPost2010Prop40
 90
        0
102
RTVSPost2010PropOp40
 70
     1
102
RTVSPost2010Prop41ColorIndex
 90
       18
102
RTVSPost2010Prop41ColorRGB
 90
        0
102
RTVSPost2010PropOp41
 70
     1
102
RTVSPost2010Prop42
 90
       50
102
RTVSPost2010PropOp42
 70
     1
102
RTVSPost2010Prop43
 90
        3
102
RTVSPost2010PropOp43
 70
     1
102
RTVSPost2010Prop44ColorIndex
 90
        5
102
RTVSPost2010Prop44ColorRGB
 90
      255
102
RTVSPost2010PropOp44
 70
     1
102
RTVSPost2010Prop45
280
     0
102
RTVSPost2010PropOp45
 70
     1
102
RTVSPost2010Prop46
 90
       50
102
RTVSPost2010PropOp46
 70
     1
102
RTVSPost2010Prop47
 90
       50
102
RTVSPost2010PropOp47
 70
     1
102
RTVSPost2010Prop48
 90
       50
102
RTVSPost2010PropOp48
 70
     1
102
RTVSPost2010Prop49
280
     0
102
RTVSPost2010PropOp49
 70
     1
102
RTVSPost2010Prop50
 90
       50
102
RTVSPost2010PropOp50
 70
     1
102
RTVSPost2010Prop51ColorIndex
 90
      256
102
RTVSPost2010Prop51ColorRGB
 90
-16777216
102
RTVSPost2010PropOp51
 70
     0
102
RTVSPost2010Prop52
140
1.0
102
RTVSPost2010PropOp52
 70
     0
102
RTVSPost2010Prop53
 90
        2
102
RTVSPost2010PropOp53
 70
     1
102
RTVSPost2010Prop54
  1
strokes_ogs.tif
102
RTVSPost2010PropOp54
 70
     1
102
RTVSPost2010Prop55
280
     0
102
RTVSPost2010PropOp55
 70
     1
102
RTVSPost2010Prop56
140
1.0
102
RTVSPost2010PropOp56
 70
     1
102
RTVSPost2010Prop57
140
1.0
102
RTVSPost2010PropOp57
 70
     1
102
RTVSPropertyOp0
 70
     1
102
RTVSPropertyOp1
 70
     1
102
RTVSPropertyOp2
 70
     1
102
RTVSPropertyOp3
 70
     1
102
RTVSPropertyOp4
 70
     1
102
RTVSPropertyOp5
 70
     1
102
RTVSPropertyOp6
 70
     1
102
RTVSPropertyOp7
 70
     1
102
RTVSPropertyOp8
 70
     1
102
RTVSPropertyOp9
 70
     1
102
RTVSPropertyOp10
 70
     1
102
RTVSPropertyOp11
 70
     1
102
RTVSPropertyOp12
 70
     1
102
RTVSPropertyOp13
 70
     1
102
RTVSPropertyOp14
 70
     1
102
RTVSPropertyOp15
 70
     1
102
RTVSPropertyOp16
 70
     1
102
RTVSPropertyOp17
 70
     1
102
RTVSPropertyOp18
 70
     1
102
RTVSPropertyOp19
 70
     1
102
RTVSPropertyOp20
 70
     1
102
RTVSPropertyOp21
 70
     1
102
RTVSPropertyOp22
 70
     1
102
RTVSPropertyOp23
 70
     1
102
RTVSPropertyOp24
 70
     1
102
RTVSPropertyOp25
 70
     1
102
RTVSPropertyOp26
 70
     1
102
RTVSPropertyOp27
 70
     1
102
RTVSPropertyOp28
 70
     1
102
RTVSPropertyOp29
 70
     1
102
RTVSPropertyOp30
 70
     1
102
RTVSPropertyOp31
 70
     1
102
RTVSPropertyOp32
 70
     1
102
RTVSPropertyOp33
 70
     1
102
RTVSPropertyOp34
 70
     1
102
RTVSPropertyOp35
 70
     1
102
RTVSPropertyOp36
 70
     1
102
RTVSPropertyOp37
 70
     1
102
RTVSPropertyOp38
 70
     1
102
RTVSPropertyOp39
 70
     1
102
RTVSPropertyOp40
 70
     1
102
RTVSPropertyOp41
 70
     1
102
RTVSPropertyOp42
 70
     1
102
RTVSPropertyOp43
 70
     1
102
RTVSPropertyOp44
 70
     1
102
RTVSPropertyOp45
 70
     1
102
RTVSPropertyOp46
 70
     1
102
RTVSPropertyOp47
 70
     1
102
RTVSPropertyOp48
 70
     1
102
RTVSPropertyOp49
 70
     1
102
RTVSPropertyOp50
 70
     1
102
RTVSPropertyOp51
 70
     0
102
RTVSPropertyOp52
 70
     0
102
RTVSPropertyOp53
 70
     1
102
RTVSPropertyOp54
 70
     1
102
RTVSPropertyOp55
 70
     1
102
RTVSPropertyOp56
 70
     1
102
RTVSPropertyOp57
 70
     1
102
RTVSPropertyOp58
 70
     1
102
RTVSPropertyOp59
 70
     1
102
RTVSPropertyOp60
 70
     1
102
RTVSPropertyOp61
 70
     1
102
RTVSPropertyOp62
 70
     1
  0
XRECORD
  5
8439
102
{ACAD_REACTORS
330
8438
102
}
330
8438
100
AcDbXrecord
280
     1
102
RTVSPost2010Prop28
280
     0
102
RTVSPost2010PropOp28
 70
     1
102
RTVSPost2010Prop29
280
     1
102
RTVSPost2010PropOp29
 70
     1
102
RTVSPost2010Prop30
280
     1
102
RTVSPost2010PropOp30
 70
     1
102
RTVSPost2010Prop31
280
     0
102
RTVSPost2010PropOp31
 70
     1
102
RTVSPost2010Prop32
280
     0
102
RTVSPost2010PropOp32
 70
     1
102
RTVSPost2010Prop33
280
     0
102
RTVSPost2010PropOp33
 70
     1
102
RTVSPost2010Prop34
280
     0
102
RTVSPost2010PropOp34
 70
     1
102
RTVSPost2010Prop35
280
     0
102
RTVSPost2010PropOp35
 70
     1
102
RTVSPost2010Prop36
280
     0
102
RTVSPost2010PropOp36
 70
     1
102
RTVSPost2010Prop37
 90
       50
102
RTVSPost2010PropOp37
 70
     1
102
RTVSPost2010Prop38
140
0.0
102
RTVSPost2010PropOp38
 70
     1
102
RTVSPost2010Prop39
140
1.0
102
RTVSPost2010PropOp39
 70
     1
102
RTVSPost2010Prop40
 90
        0
102
RTVSPost2010PropOp40
 70
     1
102
RTVSPost2010Prop41ColorIndex
 90
       18
102
RTVSPost2010Prop41ColorRGB
 90
        0
102
RTVSPost2010PropOp41
 70
     1
102
RTVSPost2010Prop42
 90
       50
102
RTVSPost2010PropOp42
 70
     1
102
RTVSPost2010Prop43
 90
        3
102
RTVSPost2010PropOp43
 70
     1
102
RTVSPost2010Prop44ColorIndex
 90
        5
102
RTVSPost2010Prop44ColorRGB
 90
      255
102
RTVSPost2010PropOp44
 70
     1
102
RTVSPost2010Prop45
280
     0
102
RTVSPost2010PropOp45
 70
     1
102
RTVSPost2010Prop46
 90
       50
102
RTVSPost2010PropOp46
 70
     1
102
RTVSPost2010Prop47
 90
       50
102
RTVSPost2010PropOp47
 70
     1
102
RTVSPost2010Prop48
 90
       50
102
RTVSPost2010PropOp48
 70
     1
102
RTVSPost2010Prop49
280
     0
102
RTVSPost2010PropOp49
 70
     1
102
RTVSPost2010Prop50
 90
       50
102
RTVSPost2010PropOp50
 70
     1
102
RTVSPost2010Prop51ColorIndex
 90
      256
102
RTVSPost2010Prop51ColorRGB
 90
-16777216
102
RTVSPost2010PropOp51
 70
     0
102
RTVSPost2010Prop52
140
1.0
102
RTVSPost2010PropOp52
 70
     0
102
RTVSPost2010Prop53
 90
        2
102
RTVSPost2010PropOp53
 70
     1
102
RTVSPost2010Prop54
  1
strokes_ogs.tif
102
RTVSPost2010PropOp54
 70
     1
102
RTVSPost2010Prop55
280
     0
102
RTVSPost2010PropOp55
 70
     1
102
RTVSPost2010Prop56
140
1.0
102
RTVSPost2010PropOp56
 70
     1
102
RTVSPost2010Prop57
140
1.0
102
RTVSPost2010PropOp57
 70
     1
102
RTVSPropertyOp0
 70
     1
102
RTVSPropertyOp1
 70
     1
102
RTVSPropertyOp2
 70
     1
102
RTVSPropertyOp3
 70
     1
102
RTVSPropertyOp4
 70
     1
102
RTVSPropertyOp5
 70
     1
102
RTVSPropertyOp6
 70
     1
102
RTVSPropertyOp7
 70
     1
102
RTVSPropertyOp8
 70
     1
102
RTVSPropertyOp9
 70
     1
102
RTVSPropertyOp10
 70
     1
102
RTVSPropertyOp11
 70
     1
102
RTVSPropertyOp12
 70
     1
102
RTVSPropertyOp13
 70
     1
102
RTVSPropertyOp14
 70
     1
102
RTVSPropertyOp15
 70
     1
102
RTVSPropertyOp16
 70
     1
102
RTVSPropertyOp17
 70
     1
102
RTVSPropertyOp18
 70
     1
102
RTVSPropertyOp19
 70
     1
102
RTVSPropertyOp20
 70
     1
102
RTVSPropertyOp21
 70
     1
102
RTVSPropertyOp22
 70
     1
102
RTVSPropertyOp23
 70
     1
102
RTVSPropertyOp24
 70
     1
102
RTVSPropertyOp25
 70
     1
102
RTVSPropertyOp26
 70
     1
102
RTVSPropertyOp27
 70
     1
102
RTVSPropertyOp28
 70
     1
102
RTVSPropertyOp29
 70
     1
102
RTVSPropertyOp30
 70
     1
102
RTVSPropertyOp31
 70
     1
102
RTVSPropertyOp32
 70
     1
102
RTVSPropertyOp33
 70
     1
102
RTVSPropertyOp34
 70
     1
102
RTVSPropertyOp35
 70
     1
102
RTVSPropertyOp36
 70
     1
102
RTVSPropertyOp37
 70
     1
102
RTVSPropertyOp38
 70
     1
102
RTVSPropertyOp39
 70
     1
102
RTVSPropertyOp40
 70
     1
102
RTVSPropertyOp41
 70
     1
102
RTVSPropertyOp42
 70
     1
102
RTVSPropertyOp43
 70
     1
102
RTVSPropertyOp44
 70
     1
102
RTVSPropertyOp45
 70
     1
102
RTVSPropertyOp46
 70
     1
102
RTVSPropertyOp47
 70
     1
102
RTVSPropertyOp48
 70
     1
102
RTVSPropertyOp49
 70
     1
102
RTVSPropertyOp50
 70
     1
102
RTVSPropertyOp51
 70
     0
102
RTVSPropertyOp52
 70
     0
102
RTVSPropertyOp53
 70
     1
102
RTVSPropertyOp54
 70
     1
102
RTVSPropertyOp55
 70
     1
102
RTVSPropertyOp56
 70
     1
102
RTVSPropertyOp57
 70
     1
102
RTVSPropertyOp58
 70
     1
102
RTVSPropertyOp59
 70
     1
102
RTVSPropertyOp60
 70
     1
102
RTVSPropertyOp61
 70
     1
102
RTVSPropertyOp62
 70
     1
  0
XRECORD
  5
843B
102
{ACAD_REACTORS
330
843A
102
}
330
843A
100
AcDbXrecord
280
     1
102
RTVSPost2010Prop28
280
     0
102
RTVSPost2010PropOp28
 70
     1
102
RTVSPost2010Prop29
280
     1
102
RTVSPost2010PropOp29
 70
     1
102
RTVSPost2010Prop30
280
     1
102
RTVSPost2010PropOp30
 70
     1
102
RTVSPost2010Prop31
280
     0
102
RTVSPost2010PropOp31
 70
     1
102
RTVSPost2010Prop32
280
     0
102
RTVSPost2010PropOp32
 70
     1
102
RTVSPost2010Prop33
280
     0
102
RTVSPost2010PropOp33
 70
     1
102
RTVSPost2010Prop34
280
     0
102
RTVSPost2010PropOp34
 70
     1
102
RTVSPost2010Prop35
280
     0
102
RTVSPost2010PropOp35
 70
     1
102
RTVSPost2010Prop36
280
     0
102
RTVSPost2010PropOp36
 70
     1
102
RTVSPost2010Prop37
 90
       50
102
RTVSPost2010PropOp37
 70
     1
102
RTVSPost2010Prop38
140
0.0
102
RTVSPost2010PropOp38
 70
     1
102
RTVSPost2010Prop39
140
1.0
102
RTVSPost2010PropOp39
 70
     1
102
RTVSPost2010Prop40
 90
        0
102
RTVSPost2010PropOp40
 70
     1
102
RTVSPost2010Prop41ColorIndex
 90
       18
102
RTVSPost2010Prop41ColorRGB
 90
        0
102
RTVSPost2010PropOp41
 70
     1
102
RTVSPost2010Prop42
 90
       50
102
RTVSPost2010PropOp42
 70
     1
102
RTVSPost2010Prop43
 90
        3
102
RTVSPost2010PropOp43
 70
     1
102
RTVSPost2010Prop44ColorIndex
 90
        5
102
RTVSPost2010Prop44ColorRGB
 90
      255
102
RTVSPost2010PropOp44
 70
     1
102
RTVSPost2010Prop45
280
     0
102
RTVSPost2010PropOp45
 70
     1
102
RTVSPost2010Prop46
 90
       50
102
RTVSPost2010PropOp46
 70
     1
102
RTVSPost2010Prop47
 90
       50
102
RTVSPost2010PropOp47
 70
     1
102
RTVSPost2010Prop48
 90
       50
102
RTVSPost2010PropOp48
 70
     1
102
RTVSPost2010Prop49
280
     0
102
RTVSPost2010PropOp49
 70
     1
102
RTVSPost2010Prop50
 90
       50
102
RTVSPost2010PropOp50
 70
     1
102
RTVSPost2010Prop51ColorIndex
 90
      256
102
RTVSPost2010Prop51ColorRGB
 90
-16777216
102
RTVSPost2010PropOp51
 70
     0
102
RTVSPost2010Prop52
140
1.0
102
RTVSPost2010PropOp52
 70
     0
102
RTVSPost2010Prop53
 90
        2
102
RTVSPost2010PropOp53
 70
     1
102
RTVSPost2010Prop54
  1
strokes_ogs.tif
102
RTVSPost2010PropOp54
 70
     1
102
RTVSPost2010Prop55
280
     0
102
RTVSPost2010PropOp55
 70
     1
102
RTVSPost2010Prop56
140
1.0
102
RTVSPost2010PropOp56
 70
     1
102
RTVSPost2010Prop57
140
1.0
102
RTVSPost2010PropOp57
 70
     1
102
RTVSPropertyOp0
 70
     1
102
RTVSPropertyOp1
 70
     1
102
RTVSPropertyOp2
 70
     1
102
RTVSPropertyOp3
 70
     1
102
RTVSPropertyOp4
 70
     1
102
RTVSPropertyOp5
 70
     1
102
RTVSPropertyOp6
 70
     1
102
RTVSPropertyOp7
 70
     1
102
RTVSPropertyOp8
 70
     1
102
RTVSPropertyOp9
 70
     1
102
RTVSPropertyOp10
 70
     1
102
RTVSPropertyOp11
 70
     1
102
RTVSPropertyOp12
 70
     1
102
RTVSPropertyOp13
 70
     1
102
RTVSPropertyOp14
 70
     1
102
RTVSPropertyOp15
 70
     1
102
RTVSPropertyOp16
 70
     1
102
RTVSPropertyOp17
 70
     1
102
RTVSPropertyOp18
 70
     1
102
RTVSPropertyOp19
 70
     1
102
RTVSPropertyOp20
 70
     1
102
RTVSPropertyOp21
 70
     1
102
RTVSPropertyOp22
 70
     1
102
RTVSPropertyOp23
 70
     1
102
RTVSPropertyOp24
 70
     1
102
RTVSPropertyOp25
 70
     1
102
RTVSPropertyOp26
 70
     1
102
RTVSPropertyOp27
 70
     1
102
RTVSPropertyOp28
 70
     1
102
RTVSPropertyOp29
 70
     1
102
RTVSPropertyOp30
 70
     1
102
RTVSPropertyOp31
 70
     1
102
RTVSPropertyOp32
 70
     1
102
RTVSPropertyOp33
 70
     1
102
RTVSPropertyOp34
 70
     1
102
RTVSPropertyOp35
 70
     1
102
RTVSPropertyOp36
 70
     1
102
RTVSPropertyOp37
 70
     1
102
RTVSPropertyOp38
 70
     1
102
RTVSPropertyOp39
 70
     1
102
RTVSPropertyOp40
 70
     1
102
RTVSPropertyOp41
 70
     1
102
RTVSPropertyOp42
 70
     1
102
RTVSPropertyOp43
 70
     1
102
RTVSPropertyOp44
 70
     1
102
RTVSPropertyOp45
 70
     1
102
RTVSPropertyOp46
 70
     1
102
RTVSPropertyOp47
 70
     1
102
RTVSPropertyOp48
 70
     1
102
RTVSPropertyOp49
 70
     1
102
RTVSPropertyOp50
 70
     1
102
RTVSPropertyOp51
 70
     0
102
RTVSPropertyOp52
 70
     0
102
RTVSPropertyOp53
 70
     1
102
RTVSPropertyOp54
 70
     1
102
RTVSPropertyOp55
 70
     1
102
RTVSPropertyOp56
 70
     1
102
RTVSPropertyOp57
 70
     1
102
RTVSPropertyOp58
 70
     1
102
RTVSPropertyOp59
 70
     1
102
RTVSPropertyOp60
 70
     1
102
RTVSPropertyOp61
 70
     1
102
RTVSPropertyOp62
 70
     1
  0
XRECORD
  5
843D
102
{ACAD_REACTORS
330
843C
102
}
330
843C
100
AcDbXrecord
280
     1
102
RTVSPost2010Prop28
280
     0
102
RTVSPost2010PropOp28
 70
     1
102
RTVSPost2010Prop29
280
     1
102
RTVSPost2010PropOp29
 70
     1
102
RTVSPost2010Prop30
280
     1
102
RTVSPost2010PropOp30
 70
     1
102
RTVSPost2010Prop31
280
     0
102
RTVSPost2010PropOp31
 70
     1
102
RTVSPost2010Prop32
280
     0
102
RTVSPost2010PropOp32
 70
     1
102
RTVSPost2010Prop33
280
     0
102
RTVSPost2010PropOp33
 70
     1
102
RTVSPost2010Prop34
280
     0
102
RTVSPost2010PropOp34
 70
     1
102
RTVSPost2010Prop35
280
     0
102
RTVSPost2010PropOp35
 70
     1
102
RTVSPost2010Prop36
280
     0
102
RTVSPost2010PropOp36
 70
     1
102
RTVSPost2010Prop37
 90
       50
102
RTVSPost2010PropOp37
 70
     1
102
RTVSPost2010Prop38
140
0.0
102
RTVSPost2010PropOp38
 70
     1
102
RTVSPost2010Prop39
140
1.0
102
RTVSPost2010PropOp39
 70
     1
102
RTVSPost2010Prop40
 90
        0
102
RTVSPost2010PropOp40
 70
     1
102
RTVSPost2010Prop41ColorIndex
 90
       18
102
RTVSPost2010Prop41ColorRGB
 90
        0
102
RTVSPost2010PropOp41
 70
     1
102
RTVSPost2010Prop42
 90
       50
102
RTVSPost2010PropOp42
 70
     1
102
RTVSPost2010Prop43
 90
        3
102
RTVSPost2010PropOp43
 70
     1
102
RTVSPost2010Prop44ColorIndex
 90
        5
102
RTVSPost2010Prop44ColorRGB
 90
      255
102
RTVSPost2010PropOp44
 70
     1
102
RTVSPost2010Prop45
280
     0
102
RTVSPost2010PropOp45
 70
     1
102
RTVSPost2010Prop46
 90
       50
102
RTVSPost2010PropOp46
 70
     1
102
RTVSPost2010Prop47
 90
       50
102
RTVSPost2010PropOp47
 70
     1
102
RTVSPost2010Prop48
 90
       50
102
RTVSPost2010PropOp48
 70
     1
102
RTVSPost2010Prop49
280
     0
102
RTVSPost2010PropOp49
 70
     1
102
RTVSPost2010Prop50
 90
       50
102
RTVSPost2010PropOp50
 70
     1
102
RTVSPost2010Prop51ColorIndex
 90
      256
102
RTVSPost2010Prop51ColorRGB
 90
-16777216
102
RTVSPost2010PropOp51
 70
     0
102
RTVSPost2010Prop52
140
1.0
102
RTVSPost2010PropOp52
 70
     0
102
RTVSPost2010Prop53
 90
        2
102
RTVSPost2010PropOp53
 70
     1
102
RTVSPost2010Prop54
  1
strokes_ogs.tif
102
RTVSPost2010PropOp54
 70
     1
102
RTVSPost2010Prop55
280
     0
102
RTVSPost2010PropOp55
 70
     1
102
RTVSPost2010Prop56
140
1.0
102
RTVSPost2010PropOp56
 70
     1
102
RTVSPost2010Prop57
140
1.0
102
RTVSPost2010PropOp57
 70
     1
102
RTVSPropertyOp0
 70
     1
102
RTVSPropertyOp1
 70
     1
102
RTVSPropertyOp2
 70
     1
102
RTVSPropertyOp3
 70
     1
102
RTVSPropertyOp4
 70
     1
102
RTVSPropertyOp5
 70
     1
102
RTVSPropertyOp6
 70
     1
102
RTVSPropertyOp7
 70
     1
102
RTVSPropertyOp8
 70
     1
102
RTVSPropertyOp9
 70
     1
102
RTVSPropertyOp10
 70
     1
102
RTVSPropertyOp11
 70
     1
102
RTVSPropertyOp12
 70
     1
102
RTVSPropertyOp13
 70
     1
102
RTVSPropertyOp14
 70
     1
102
RTVSPropertyOp15
 70
     1
102
RTVSPropertyOp16
 70
     1
102
RTVSPropertyOp17
 70
     1
102
RTVSPropertyOp18
 70
     1
102
RTVSPropertyOp19
 70
     1
102
RTVSPropertyOp20
 70
     1
102
RTVSPropertyOp21
 70
     1
102
RTVSPropertyOp22
 70
     1
102
RTVSPropertyOp23
 70
     1
102
RTVSPropertyOp24
 70
     1
102
RTVSPropertyOp25
 70
     1
102
RTVSPropertyOp26
 70
     1
102
RTVSPropertyOp27
 70
     1
102
RTVSPropertyOp28
 70
     1
102
RTVSPropertyOp29
 70
     1
102
RTVSPropertyOp30
 70
     1
102
RTVSPropertyOp31
 70
     1
102
RTVSPropertyOp32
 70
     1
102
RTVSPropertyOp33
 70
     1
102
RTVSPropertyOp34
 70
     1
102
RTVSPropertyOp35
 70
     1
102
RTVSPropertyOp36
 70
     1
102
RTVSPropertyOp37
 70
     1
102
RTVSPropertyOp38
 70
     1
102
RTVSPropertyOp39
 70
     1
102
RTVSPropertyOp40
 70
     1
102
RTVSPropertyOp41
 70
     1
102
RTVSPropertyOp42
 70
     1
102
RTVSPropertyOp43
 70
     1
102
RTVSPropertyOp44
 70
     1
102
RTVSPropertyOp45
 70
     1
102
RTVSPropertyOp46
 70
     1
102
RTVSPropertyOp47
 70
     1
102
RTVSPropertyOp48
 70
     1
102
RTVSPropertyOp49
 70
     1
102
RTVSPropertyOp50
 70
     1
102
RTVSPropertyOp51
 70
     0
102
RTVSPropertyOp52
 70
     0
102
RTVSPropertyOp53
 70
     1
102
RTVSPropertyOp54
 70
     1
102
RTVSPropertyOp55
 70
     1
102
RTVSPropertyOp56
 70
     1
102
RTVSPropertyOp57
 70
     1
102
RTVSPropertyOp58
 70
     1
102
RTVSPropertyOp59
 70
     1
102
RTVSPropertyOp60
 70
     1
102
RTVSPropertyOp61
 70
     1
102
RTVSPropertyOp62
 70
     1
  0
XRECORD
  5
843F
102
{ACAD_REACTORS
330
843E
102
}
330
843E
100
AcDbXrecord
280
     1
102
RTVSPost2010Prop28
280
     0
102
RTVSPost2010PropOp28
 70
     1
102
RTVSPost2010Prop29
280
     1
102
RTVSPost2010PropOp29
 70
     1
102
RTVSPost2010Prop30
280
     1
102
RTVSPost2010PropOp30
 70
     1
102
RTVSPost2010Prop31
280
     0
102
RTVSPost2010PropOp31
 70
     1
102
RTVSPost2010Prop32
280
     0
102
RTVSPost2010PropOp32
 70
     1
102
RTVSPost2010Prop33
280
     0
102
RTVSPost2010PropOp33
 70
     1
102
RTVSPost2010Prop34
280
     0
102
RTVSPost2010PropOp34
 70
     1
102
RTVSPost2010Prop35
280
     0
102
RTVSPost2010PropOp35
 70
     1
102
RTVSPost2010Prop36
280
     0
102
RTVSPost2010PropOp36
 70
     1
102
RTVSPost2010Prop37
 90
       50
102
RTVSPost2010PropOp37
 70
     1
102
RTVSPost2010Prop38
140
0.0
102
RTVSPost2010PropOp38
 70
     1
102
RTVSPost2010Prop39
140
1.0
102
RTVSPost2010PropOp39
 70
     1
102
RTVSPost2010Prop40
 90
        0
102
RTVSPost2010PropOp40
 70
     1
102
RTVSPost2010Prop41ColorIndex
 90
       18
102
RTVSPost2010Prop41ColorRGB
 90
        0
102
RTVSPost2010PropOp41
 70
     1
102
RTVSPost2010Prop42
 90
       50
102
RTVSPost2010PropOp42
 70
     1
102
RTVSPost2010Prop43
 90
        3
102
RTVSPost2010PropOp43
 70
     1
102
RTVSPost2010Prop44ColorIndex
 90
        5
102
RTVSPost2010Prop44ColorRGB
 90
      255
102
RTVSPost2010PropOp44
 70
     1
102
RTVSPost2010Prop45
280
     0
102
RTVSPost2010PropOp45
 70
     1
102
RTVSPost2010Prop46
 90
       50
102
RTVSPost2010PropOp46
 70
     1
102
RTVSPost2010Prop47
 90
       50
102
RTVSPost2010PropOp47
 70
     1
102
RTVSPost2010Prop48
 90
       50
102
RTVSPost2010PropOp48
 70
     1
102
RTVSPost2010Prop49
280
     0
102
RTVSPost2010PropOp49
 70
     1
102
RTVSPost2010Prop50
 90
       50
102
RTVSPost2010PropOp50
 70
     1
102
RTVSPost2010Prop51ColorIndex
 90
      256
102
RTVSPost2010Prop51ColorRGB
 90
-16777216
102
RTVSPost2010PropOp51
 70
     0
102
RTVSPost2010Prop52
140
1.0
102
RTVSPost2010PropOp52
 70
     0
102
RTVSPost2010Prop53
 90
        2
102
RTVSPost2010PropOp53
 70
     1
102
RTVSPost2010Prop54
  1
strokes_ogs.tif
102
RTVSPost2010PropOp54
 70
     1
102
RTVSPost2010Prop55
280
     0
102
RTVSPost2010PropOp55
 70
     1
102
RTVSPost2010Prop56
140
1.0
102
RTVSPost2010PropOp56
 70
     1
102
RTVSPost2010Prop57
140
1.0
102
RTVSPost2010PropOp57
 70
     1
102
RTVSPropertyOp0
 70
     1
102
RTVSPropertyOp1
 70
     1
102
RTVSPropertyOp2
 70
     1
102
RTVSPropertyOp3
 70
     1
102
RTVSPropertyOp4
 70
     1
102
RTVSPropertyOp5
 70
     1
102
RTVSPropertyOp6
 70
     1
102
RTVSPropertyOp7
 70
     1
102
RTVSPropertyOp8
 70
     1
102
RTVSPropertyOp9
 70
     1
102
RTVSPropertyOp10
 70
     1
102
RTVSPropertyOp11
 70
     1
102
RTVSPropertyOp12
 70
     1
102
RTVSPropertyOp13
 70
     1
102
RTVSPropertyOp14
 70
     1
102
RTVSPropertyOp15
 70
     1
102
RTVSPropertyOp16
 70
     1
102
RTVSPropertyOp17
 70
     1
102
RTVSPropertyOp18
 70
     1
102
RTVSPropertyOp19
 70
     1
102
RTVSPropertyOp20
 70
     1
102
RTVSPropertyOp21
 70
     1
102
RTVSPropertyOp22
 70
     1
102
RTVSPropertyOp23
 70
     1
102
RTVSPropertyOp24
 70
     1
102
RTVSPropertyOp25
 70
     1
102
RTVSPropertyOp26
 70
     1
102
RTVSPropertyOp27
 70
     1
102
RTVSPropertyOp28
 70
     1
102
RTVSPropertyOp29
 70
     1
102
RTVSPropertyOp30
 70
     1
102
RTVSPropertyOp31
 70
     1
102
RTVSPropertyOp32
 70
     1
102
RTVSPropertyOp33
 70
     1
102
RTVSPropertyOp34
 70
     1
102
RTVSPropertyOp35
 70
     1
102
RTVSPropertyOp36
 70
     1
102
RTVSPropertyOp37
 70
     1
102
RTVSPropertyOp38
 70
     1
102
RTVSPropertyOp39
 70
     1
102
RTVSPropertyOp40
 70
     1
102
RTVSPropertyOp41
 70
     1
102
RTVSPropertyOp42
 70
     1
102
RTVSPropertyOp43
 70
     1
102
RTVSPropertyOp44
 70
     1
102
RTVSPropertyOp45
 70
     1
102
RTVSPropertyOp46
 70
     1
102
RTVSPropertyOp47
 70
     1
102
RTVSPropertyOp48
 70
     1
102
RTVSPropertyOp49
 70
     1
102
RTVSPropertyOp50
 70
     1
102
RTVSPropertyOp51
 70
     0
102
RTVSPropertyOp52
 70
     0
102
RTVSPropertyOp53
 70
     1
102
RTVSPropertyOp54
 70
     1
102
RTVSPropertyOp55
 70
     1
102
RTVSPropertyOp56
 70
     1
102
RTVSPropertyOp57
 70
     1
102
RTVSPropertyOp58
 70
     1
102
RTVSPropertyOp59
 70
     1
102
RTVSPropertyOp60
 70
     1
102
RTVSPropertyOp61
 70
     1
102
RTVSPropertyOp62
 70
     1
  0
XRECORD
  5
8447
102
{ACAD_REACTORS
330
8446
102
}
330
8446
100
AcDbXrecord
280
     1
102
RTVSPost2010Prop28
280
     0
102
RTVSPost2010PropOp28
 70
     1
102
RTVSPost2010Prop29
280
     1
102
RTVSPost2010PropOp29
 70
     1
102
RTVSPost2010Prop30
280
     1
102
RTVSPost2010PropOp30
 70
     1
102
RTVSPost2010Prop31
280
     0
102
RTVSPost2010PropOp31
 70
     1
102
RTVSPost2010Prop32
280
     0
102
RTVSPost2010PropOp32
 70
     1
102
RTVSPost2010Prop33
280
     0
102
RTVSPost2010PropOp33
 70
     1
102
RTVSPost2010Prop34
280
     0
102
RTVSPost2010PropOp34
 70
     1
102
RTVSPost2010Prop35
280
     0
102
RTVSPost2010PropOp35
 70
     1
102
RTVSPost2010Prop36
280
     0
102
RTVSPost2010PropOp36
 70
     1
102
RTVSPost2010Prop37
 90
       50
102
RTVSPost2010PropOp37
 70
     1
102
RTVSPost2010Prop38
140
0.0
102
RTVSPost2010PropOp38
 70
     1
102
RTVSPost2010Prop39
140
1.0
102
RTVSPost2010PropOp39
 70
     1
102
RTVSPost2010Prop40
 90
        0
102
RTVSPost2010PropOp40
 70
     1
102
RTVSPost2010Prop41ColorIndex
 90
       18
102
RTVSPost2010Prop41ColorRGB
 90
        0
102
RTVSPost2010PropOp41
 70
     1
102
RTVSPost2010Prop42
 90
       50
102
RTVSPost2010PropOp42
 70
     1
102
RTVSPost2010Prop43
 90
        3
102
RTVSPost2010PropOp43
 70
     1
102
RTVSPost2010Prop44ColorIndex
 90
        5
102
RTVSPost2010Prop44ColorRGB
 90
      255
102
RTVSPost2010PropOp44
 70
     1
102
RTVSPost2010Prop45
280
     0
102
RTVSPost2010PropOp45
 70
     1
102
RTVSPost2010Prop46
 90
       50
102
RTVSPost2010PropOp46
 70
     1
102
RTVSPost2010Prop47
 90
       50
102
RTVSPost2010PropOp47
 70
     1
102
RTVSPost2010Prop48
 90
       50
102
RTVSPost2010PropOp48
 70
     1
102
RTVSPost2010Prop49
280
     0
102
RTVSPost2010PropOp49
 70
     1
102
RTVSPost2010Prop50
 90
       50
102
RTVSPost2010PropOp50
 70
     1
102
RTVSPost2010Prop51ColorIndex
 90
      256
102
RTVSPost2010Prop51ColorRGB
 90
-16777216
102
RTVSPost2010PropOp51
 70
     0
102
RTVSPost2010Prop52
140
1.0
102
RTVSPost2010PropOp52
 70
     0
102
RTVSPost2010Prop53
 90
        2
102
RTVSPost2010PropOp53
 70
     1
102
RTVSPost2010Prop54
  1
strokes_ogs.tif
102
RTVSPost2010PropOp54
 70
     1
102
RTVSPost2010Prop55
280
     0
102
RTVSPost2010PropOp55
 70
     1
102
RTVSPost2010Prop56
140
1.0
102
RTVSPost2010PropOp56
 70
     1
102
RTVSPost2010Prop57
140
1.0
102
RTVSPost2010PropOp57
 70
     1
102
RTVSPropertyOp0
 70
     1
102
RTVSPropertyOp1
 70
     1
102
RTVSPropertyOp2
 70
     1
102
RTVSPropertyOp3
 70
     1
102
RTVSPropertyOp4
 70
     1
102
RTVSPropertyOp5
 70
     1
102
RTVSPropertyOp6
 70
     1
102
RTVSPropertyOp7
 70
     1
102
RTVSPropertyOp8
 70
     1
102
RTVSPropertyOp9
 70
     1
102
RTVSPropertyOp10
 70
     1
102
RTVSPropertyOp11
 70
     1
102
RTVSPropertyOp12
 70
     1
102
RTVSPropertyOp13
 70
     1
102
RTVSPropertyOp14
 70
     1
102
RTVSPropertyOp15
 70
     1
102
RTVSPropertyOp16
 70
     1
102
RTVSPropertyOp17
 70
     1
102
RTVSPropertyOp18
 70
     1
102
RTVSPropertyOp19
 70
     1
102
RTVSPropertyOp20
 70
     1
102
RTVSPropertyOp21
 70
     1
102
RTVSPropertyOp22
 70
     1
102
RTVSPropertyOp23
 70
     1
102
RTVSPropertyOp24
 70
     1
102
RTVSPropertyOp25
 70
     1
102
RTVSPropertyOp26
 70
     1
102
RTVSPropertyOp27
 70
     1
102
RTVSPropertyOp28
 70
     1
102
RTVSPropertyOp29
 70
     1
102
RTVSPropertyOp30
 70
     1
102
RTVSPropertyOp31
 70
     1
102
RTVSPropertyOp32
 70
     1
102
RTVSPropertyOp33
 70
     1
102
RTVSPropertyOp34
 70
     1
102
RTVSPropertyOp35
 70
     1
102
RTVSPropertyOp36
 70
     1
102
RTVSPropertyOp37
 70
     1
102
RTVSPropertyOp38
 70
     1
102
RTVSPropertyOp39
 70
     1
102
RTVSPropertyOp40
 70
     1
102
RTVSPropertyOp41
 70
     1
102
RTVSPropertyOp42
 70
     1
102
RTVSPropertyOp43
 70
     1
102
RTVSPropertyOp44
 70
     1
102
RTVSPropertyOp45
 70
     1
102
RTVSPropertyOp46
 70
     1
102
RTVSPropertyOp47
 70
     1
102
RTVSPropertyOp48
 70
     1
102
RTVSPropertyOp49
 70
     1
102
RTVSPropertyOp50
 70
     1
102
RTVSPropertyOp51
 70
     0
102
RTVSPropertyOp52
 70
     0
102
RTVSPropertyOp53
 70
     1
102
RTVSPropertyOp54
 70
     1
102
RTVSPropertyOp55
 70
     1
102
RTVSPropertyOp56
 70
     1
102
RTVSPropertyOp57
 70
     1
102
RTVSPropertyOp58
 70
     1
102
RTVSPropertyOp59
 70
     1
102
RTVSPropertyOp60
 70
     1
102
RTVSPropertyOp61
 70
     1
102
RTVSPropertyOp62
 70
     1
  0
XRECORD
  5
8463
102
{ACAD_REACTORS
330
8462
102
}
330
8462
100
AcDbXrecord
280
     1
102
RTVSPost2010Prop28
280
     0
102
RTVSPost2010PropOp28
 70
     1
102
RTVSPost2010Prop29
280
     1
102
RTVSPost2010PropOp29
 70
     1
102
RTVSPost2010Prop30
280
     1
102
RTVSPost2010PropOp30
 70
     1
102
RTVSPost2010Prop31
280
     0
102
RTVSPost2010PropOp31
 70
     1
102
RTVSPost2010Prop32
280
     0
102
RTVSPost2010PropOp32
 70
     1
102
RTVSPost2010Prop33
280
     0
102
RTVSPost2010PropOp33
 70
     1
102
RTVSPost2010Prop34
280
     0
102
RTVSPost2010PropOp34
 70
     1
102
RTVSPost2010Prop35
280
     0
102
RTVSPost2010PropOp35
 70
     1
102
RTVSPost2010Prop36
280
     0
102
RTVSPost2010PropOp36
 70
     1
102
RTVSPost2010Prop37
 90
       50
102
RTVSPost2010PropOp37
 70
     0
102
RTVSPost2010Prop38
140
0.0
102
RTVSPost2010PropOp38
 70
     0
102
RTVSPost2010Prop39
140
1.0
102
RTVSPost2010PropOp39
 70
     0
102
RTVSPost2010Prop40
 90
        0
102
RTVSPost2010PropOp40
 70
     0
102
RTVSPost2010Prop41ColorIndex
 90
       18
102
RTVSPost2010Prop41ColorRGB
 90
        0
102
RTVSPost2010PropOp41
 70
     0
102
RTVSPost2010Prop42
 90
       50
102
RTVSPost2010PropOp42
 70
     0
102
RTVSPost2010Prop43
 90
        3
102
RTVSPost2010PropOp43
 70
     0
102
RTVSPost2010Prop44ColorIndex
 90
        5
102
RTVSPost2010Prop44ColorRGB
 90
      255
102
RTVSPost2010PropOp44
 70
     0
102
RTVSPost2010Prop45
280
     0
102
RTVSPost2010PropOp45
 70
     1
102
RTVSPost2010Prop46
 90
       50
102
RTVSPost2010PropOp46
 70
     0
102
RTVSPost2010Prop47
 90
       50
102
RTVSPost2010PropOp47
 70
     0
102
RTVSPost2010Prop48
 90
       50
102
RTVSPost2010PropOp48
 70
     0
102
RTVSPost2010Prop49
280
     0
102
RTVSPost2010PropOp49
 70
     1
102
RTVSPost2010Prop50
 90
       50
102
RTVSPost2010PropOp50
 70
     0
102
RTVSPost2010Prop51ColorIndex
 90
      256
102
RTVSPost2010Prop51ColorRGB
 90
-16777216
102
RTVSPost2010PropOp51
 70
     0
102
RTVSPost2010Prop52
140
1.0
102
RTVSPost2010PropOp52
 70
     0
102
RTVSPost2010Prop53
 90
        2
102
RTVSPost2010PropOp53
 70
     0
102
RTVSPost2010Prop54
  1
strokes_ogs.tif
102
RTVSPost2010PropOp54
 70
     0
102
RTVSPost2010Prop55
280
     0
102
RTVSPost2010PropOp55
 70
     1
102
RTVSPost2010Prop56
140
1.0
102
RTVSPost2010PropOp56
 70
     0
102
RTVSPost2010Prop57
140
1.0
102
RTVSPost2010PropOp57
 70
     0
102
RTVSPropertyOp0
 70
     0
102
RTVSPropertyOp1
 70
     0
102
RTVSPropertyOp2
 70
     0
102
RTVSPropertyOp3
 70
     0
102
RTVSPropertyOp4
 70
     0
102
RTVSPropertyOp5
 70
     0
102
RTVSPropertyOp6
 70
     0
102
RTVSPropertyOp7
 70
     0
102
RTVSPropertyOp8
 70
     0
102
RTVSPropertyOp9
 70
     0
102
RTVSPropertyOp10
 70
     0
102
RTVSPropertyOp11
 70
     0
102
RTVSPropertyOp12
 70
     0
102
RTVSPropertyOp13
 70
     0
102
RTVSPropertyOp14
 70
     2
102
RTVSPropertyOp15
 70
     0
102
RTVSPropertyOp16
 70
     0
102
RTVSPropertyOp17
 70
     0
102
RTVSPropertyOp18
 70
     0
102
RTVSPropertyOp19
 70
     0
102
RTVSPropertyOp20
 70
     0
102
RTVSPropertyOp21
 70
     0
102
RTVSPropertyOp22
 70
     0
102
RTVSPropertyOp23
 70
     0
102
RTVSPropertyOp24
 70
     0
102
RTVSPropertyOp25
 70
     0
102
RTVSPropertyOp26
 70
     0
102
RTVSPropertyOp27
 70
     0
102
RTVSPropertyOp28
 70
     1
102
RTVSPropertyOp29
 70
     1
102
RTVSPropertyOp30
 70
     1
102
RTVSPropertyOp31
 70
     1
102
RTVSPropertyOp32
 70
     1
102
RTVSPropertyOp33
 70
     1
102
RTVSPropertyOp34
 70
     1
102
RTVSPropertyOp35
 70
     1
102
RTVSPropertyOp36
 70
     1
102
RTVSPropertyOp37
 70
     0
102
RTVSPropertyOp38
 70
     0
102
RTVSPropertyOp39
 70
     0
102
RTVSPropertyOp40
 70
     0
102
RTVSPropertyOp41
 70
     0
102
RTVSPropertyOp42
 70
     0
102
RTVSPropertyOp43
 70
     0
102
RTVSPropertyOp44
 70
     0
102
RTVSPropertyOp45
 70
     1
102
RTVSPropertyOp46
 70
     0
102
RTVSPropertyOp47
 70
     0
102
RTVSPropertyOp48
 70
     0
102
RTVSPropertyOp49
 70
     1
102
RTVSPropertyOp50
 70
     0
102
RTVSPropertyOp51
 70
     0
102
RTVSPropertyOp52
 70
     0
102
RTVSPropertyOp53
 70
     0
102
RTVSPropertyOp54
 70
     0
102
RTVSPropertyOp55
 70
     1
102
RTVSPropertyOp56
 70
     0
102
RTVSPropertyOp57
 70
     0
102
RTVSPropertyOp58
 70
     0
102
RTVSPropertyOp59
 70
     0
102
RTVSPropertyOp60
 70
     0
102
RTVSPropertyOp61
 70
     0
102
RTVSPropertyOp62
 70
     0
  0
XRECORD
  5
8453
102
{ACAD_REACTORS
330
8452
102
}
330
8452
100
AcDbXrecord
280
     1
102
RTVSPost2010Prop28
280
     0
102
RTVSPost2010PropOp28
 70
     1
102
RTVSPost2010Prop29
280
     1
102
RTVSPost2010PropOp29
 70
     1
102
RTVSPost2010Prop30
280
     1
102
RTVSPost2010PropOp30
 70
     1
102
RTVSPost2010Prop31
280
     0
102
RTVSPost2010PropOp31
 70
     1
102
RTVSPost2010Prop32
280
     0
102
RTVSPost2010PropOp32
 70
     1
102
RTVSPost2010Prop33
280
     0
102
RTVSPost2010PropOp33
 70
     1
102
RTVSPost2010Prop34
280
     0
102
RTVSPost2010PropOp34
 70
     1
102
RTVSPost2010Prop35
280
     0
102
RTVSPost2010PropOp35
 70
     1
102
RTVSPost2010Prop36
280
     0
102
RTVSPost2010PropOp36
 70
     1
102
RTVSPost2010Prop37
 90
       50
102
RTVSPost2010PropOp37
 70
     1
102
RTVSPost2010Prop38
140
0.0
102
RTVSPost2010PropOp38
 70
     1
102
RTVSPost2010Prop39
140
1.0
102
RTVSPost2010PropOp39
 70
     1
102
RTVSPost2010Prop40
 90
        0
102
RTVSPost2010PropOp40
 70
     1
102
RTVSPost2010Prop41ColorIndex
 90
       18
102
RTVSPost2010Prop41ColorRGB
 90
        0
102
RTVSPost2010PropOp41
 70
     1
102
RTVSPost2010Prop42
 90
       50
102
RTVSPost2010PropOp42
 70
     1
102
RTVSPost2010Prop43
 90
        3
102
RTVSPost2010PropOp43
 70
     1
102
RTVSPost2010Prop44ColorIndex
 90
        5
102
RTVSPost2010Prop44ColorRGB
 90
      255
102
RTVSPost2010PropOp44
 70
     1
102
RTVSPost2010Prop45
280
     0
102
RTVSPost2010PropOp45
 70
     1
102
RTVSPost2010Prop46
 90
       50
102
RTVSPost2010PropOp46
 70
     1
102
RTVSPost2010Prop47
 90
       50
102
RTVSPost2010PropOp47
 70
     1
102
RTVSPost2010Prop48
 90
       50
102
RTVSPost2010PropOp48
 70
     1
102
RTVSPost2010Prop49
280
     0
102
RTVSPost2010PropOp49
 70
     1
102
RTVSPost2010Prop50
 90
       50
102
RTVSPost2010PropOp50
 70
     1
102
RTVSPost2010Prop51ColorIndex
 90
      256
102
RTVSPost2010Prop51ColorRGB
 90
-16777216
102
RTVSPost2010PropOp51
 70
     0
102
RTVSPost2010Prop52
140
1.0
102
RTVSPost2010PropOp52
 70
     0
102
RTVSPost2010Prop53
 90
        2
102
RTVSPost2010PropOp53
 70
     1
102
RTVSPost2010Prop54
  1
strokes_ogs.tif
102
RTVSPost2010PropOp54
 70
     1
102
RTVSPost2010Prop55
280
     0
102
RTVSPost2010PropOp55
 70
     1
102
RTVSPost2010Prop56
140
1.0
102
RTVSPost2010PropOp56
 70
     1
102
RTVSPost2010Prop57
140
1.0
102
RTVSPost2010PropOp57
 70
     1
102
RTVSPropertyOp0
 70
     1
102
RTVSPropertyOp1
 70
     1
102
RTVSPropertyOp2
 70
     1
102
RTVSPropertyOp3
 70
     1
102
RTVSPropertyOp4
 70
     1
102
RTVSPropertyOp5
 70
     1
102
RTVSPropertyOp6
 70
     1
102
RTVSPropertyOp7
 70
     1
102
RTVSPropertyOp8
 70
     1
102
RTVSPropertyOp9
 70
     1
102
RTVSPropertyOp10
 70
     1
102
RTVSPropertyOp11
 70
     1
102
RTVSPropertyOp12
 70
     1
102
RTVSPropertyOp13
 70
     1
102
RTVSPropertyOp14
 70
     1
102
RTVSPropertyOp15
 70
     1
102
RTVSPropertyOp16
 70
     1
102
RTVSPropertyOp17
 70
     1
102
RTVSPropertyOp18
 70
     1
102
RTVSPropertyOp19
 70
     1
102
RTVSPropertyOp20
 70
     1
102
RTVSPropertyOp21
 70
     1
102
RTVSPropertyOp22
 70
     1
102
RTVSPropertyOp23
 70
     1
102
RTVSPropertyOp24
 70
     1
102
RTVSPropertyOp25
 70
     1
102
RTVSPropertyOp26
 70
     1
102
RTVSPropertyOp27
 70
     1
102
RTVSPropertyOp28
 70
     1
102
RTVSPropertyOp29
 70
     1
102
RTVSPropertyOp30
 70
     1
102
RTVSPropertyOp31
 70
     1
102
RTVSPropertyOp32
 70
     1
102
RTVSPropertyOp33
 70
     1
102
RTVSPropertyOp34
 70
     1
102
RTVSPropertyOp35
 70
     1
102
RTVSPropertyOp36
 70
     1
102
RTVSPropertyOp37
 70
     1
102
RTVSPropertyOp38
 70
     1
102
RTVSPropertyOp39
 70
     1
102
RTVSPropertyOp40
 70
     1
102
RTVSPropertyOp41
 70
     1
102
RTVSPropertyOp42
 70
     1
102
RTVSPropertyOp43
 70
     1
102
RTVSPropertyOp44
 70
     1
102
RTVSPropertyOp45
 70
     1
102
RTVSPropertyOp46
 70
     1
102
RTVSPropertyOp47
 70
     1
102
RTVSPropertyOp48
 70
     1
102
RTVSPropertyOp49
 70
     1
102
RTVSPropertyOp50
 70
     1
102
RTVSPropertyOp51
 70
     0
102
RTVSPropertyOp52
 70
     0
102
RTVSPropertyOp53
 70
     1
102
RTVSPropertyOp54
 70
     1
102
RTVSPropertyOp55
 70
     1
102
RTVSPropertyOp56
 70
     1
102
RTVSPropertyOp57
 70
     1
102
RTVSPropertyOp58
 70
     1
102
RTVSPropertyOp59
 70
     1
102
RTVSPropertyOp60
 70
     1
102
RTVSPropertyOp61
 70
     1
102
RTVSPropertyOp62
 70
     1
  0
XRECORD
  5
8465
102
{ACAD_REACTORS
330
8464
102
}
330
8464
100
AcDbXrecord
280
     1
102
RTVSPost2010Prop28
280
     0
102
RTVSPost2010PropOp28
 70
     1
102
RTVSPost2010Prop29
280
     1
102
RTVSPost2010PropOp29
 70
     1
102
RTVSPost2010Prop30
280
     1
102
RTVSPost2010PropOp30
 70
     1
102
RTVSPost2010Prop31
280
     0
102
RTVSPost2010PropOp31
 70
     1
102
RTVSPost2010Prop32
280
     0
102
RTVSPost2010PropOp32
 70
     1
102
RTVSPost2010Prop33
280
     0
102
RTVSPost2010PropOp33
 70
     1
102
RTVSPost2010Prop34
280
     0
102
RTVSPost2010PropOp34
 70
     1
102
RTVSPost2010Prop35
280
     0
102
RTVSPost2010PropOp35
 70
     1
102
RTVSPost2010Prop36
280
     0
102
RTVSPost2010PropOp36
 70
     1
102
RTVSPost2010Prop37
 90
       50
102
RTVSPost2010PropOp37
 70
     0
102
RTVSPost2010Prop38
140
0.0
102
RTVSPost2010PropOp38
 70
     0
102
RTVSPost2010Prop39
140
1.0
102
RTVSPost2010PropOp39
 70
     0
102
RTVSPost2010Prop40
 90
        0
102
RTVSPost2010PropOp40
 70
     0
102
RTVSPost2010Prop41ColorIndex
 90
       18
102
RTVSPost2010Prop41ColorRGB
 90
        0
102
RTVSPost2010PropOp41
 70
     0
102
RTVSPost2010Prop42
 90
       50
102
RTVSPost2010PropOp42
 70
     0
102
RTVSPost2010Prop43
 90
        3
102
RTVSPost2010PropOp43
 70
     0
102
RTVSPost2010Prop44ColorIndex
 90
        5
102
RTVSPost2010Prop44ColorRGB
 90
      255
102
RTVSPost2010PropOp44
 70
     0
102
RTVSPost2010Prop45
280
     0
102
RTVSPost2010PropOp45
 70
     1
102
RTVSPost2010Prop46
 90
       50
102
RTVSPost2010PropOp46
 70
     0
102
RTVSPost2010Prop47
 90
       50
102
RTVSPost2010PropOp47
 70
     0
102
RTVSPost2010Prop48
 90
       50
102
RTVSPost2010PropOp48
 70
     0
102
RTVSPost2010Prop49
280
     0
102
RTVSPost2010PropOp49
 70
     1
102
RTVSPost2010Prop50
 90
       50
102
RTVSPost2010PropOp50
 70
     0
102
RTVSPost2010Prop51ColorIndex
 90
      256
102
RTVSPost2010Prop51ColorRGB
 90
-16777216
102
RTVSPost2010PropOp51
 70
     0
102
RTVSPost2010Prop52
140
1.0
102
RTVSPost2010PropOp52
 70
     0
102
RTVSPost2010Prop53
 90
        2
102
RTVSPost2010PropOp53
 70
     0
102
RTVSPost2010Prop54
  1
strokes_ogs.tif
102
RTVSPost2010PropOp54
 70
     0
102
RTVSPost2010Prop55
280
     0
102
RTVSPost2010PropOp55
 70
     1
102
RTVSPost2010Prop56
140
1.0
102
RTVSPost2010PropOp56
 70
     0
102
RTVSPost2010Prop57
140
1.0
102
RTVSPost2010PropOp57
 70
     0
102
RTVSPropertyOp0
 70
     0
102
RTVSPropertyOp1
 70
     0
102
RTVSPropertyOp2
 70
     0
102
RTVSPropertyOp3
 70
     0
102
RTVSPropertyOp4
 70
     0
102
RTVSPropertyOp5
 70
     0
102
RTVSPropertyOp6
 70
     0
102
RTVSPropertyOp7
 70
     0
102
RTVSPropertyOp8
 70
     0
102
RTVSPropertyOp9
 70
     0
102
RTVSPropertyOp10
 70
     0
102
RTVSPropertyOp11
 70
     0
102
RTVSPropertyOp12
 70
     0
102
RTVSPropertyOp13
 70
     0
102
RTVSPropertyOp14
 70
     2
102
RTVSPropertyOp15
 70
     0
102
RTVSPropertyOp16
 70
     0
102
RTVSPropertyOp17
 70
     0
102
RTVSPropertyOp18
 70
     0
102
RTVSPropertyOp19
 70
     0
102
RTVSPropertyOp20
 70
     0
102
RTVSPropertyOp21
 70
     0
102
RTVSPropertyOp22
 70
     0
102
RTVSPropertyOp23
 70
     0
102
RTVSPropertyOp24
 70
     0
102
RTVSPropertyOp25
 70
     0
102
RTVSPropertyOp26
 70
     0
102
RTVSPropertyOp27
 70
     0
102
RTVSPropertyOp28
 70
     1
102
RTVSPropertyOp29
 70
     1
102
RTVSPropertyOp30
 70
     1
102
RTVSPropertyOp31
 70
     1
102
RTVSPropertyOp32
 70
     1
102
RTVSPropertyOp33
 70
     1
102
RTVSPropertyOp34
 70
     1
102
RTVSPropertyOp35
 70
     1
102
RTVSPropertyOp36
 70
     1
102
RTVSPropertyOp37
 70
     0
102
RTVSPropertyOp38
 70
     0
102
RTVSPropertyOp39
 70
     0
102
RTVSPropertyOp40
 70
     0
102
RTVSPropertyOp41
 70
     0
102
RTVSPropertyOp42
 70
     0
102
RTVSPropertyOp43
 70
     0
102
RTVSPropertyOp44
 70
     0
102
RTVSPropertyOp45
 70
     1
102
RTVSPropertyOp46
 70
     0
102
RTVSPropertyOp47
 70
     0
102
RTVSPropertyOp48
 70
     0
102
RTVSPropertyOp49
 70
     1
102
RTVSPropertyOp50
 70
     0
102
RTVSPropertyOp51
 70
     0
102
RTVSPropertyOp52
 70
     0
102
RTVSPropertyOp53
 70
     0
102
RTVSPropertyOp54
 70
     0
102
RTVSPropertyOp55
 70
     1
102
RTVSPropertyOp56
 70
     0
102
RTVSPropertyOp57
 70
     0
102
RTVSPropertyOp58
 70
     0
102
RTVSPropertyOp59
 70
     0
102
RTVSPropertyOp60
 70
     0
102
RTVSPropertyOp61
 70
     0
102
RTVSPropertyOp62
 70
     0
  0
XRECORD
  5
844B
102
{ACAD_REACTORS
330
844A
102
}
330
844A
100
AcDbXrecord
280
     1
102
RTVSPost2010Prop28
280
     0
102
RTVSPost2010PropOp28
 70
     1
102
RTVSPost2010Prop29
280
     1
102
RTVSPost2010PropOp29
 70
     1
102
RTVSPost2010Prop30
280
     1
102
RTVSPost2010PropOp30
 70
     1
102
RTVSPost2010Prop31
280
     0
102
RTVSPost2010PropOp31
 70
     1
102
RTVSPost2010Prop32
280
     0
102
RTVSPost2010PropOp32
 70
     1
102
RTVSPost2010Prop33
280
     0
102
RTVSPost2010PropOp33
 70
     1
102
RTVSPost2010Prop34
280
     0
102
RTVSPost2010PropOp34
 70
     1
102
RTVSPost2010Prop35
280
     0
102
RTVSPost2010PropOp35
 70
     1
102
RTVSPost2010Prop36
280
     0
102
RTVSPost2010PropOp36
 70
     1
102
RTVSPost2010Prop37
 90
       50
102
RTVSPost2010PropOp37
 70
     1
102
RTVSPost2010Prop38
140
0.0
102
RTVSPost2010PropOp38
 70
     1
102
RTVSPost2010Prop39
140
1.0
102
RTVSPost2010PropOp39
 70
     1
102
RTVSPost2010Prop40
 90
        0
102
RTVSPost2010PropOp40
 70
     1
102
RTVSPost2010Prop41ColorIndex
 90
       18
102
RTVSPost2010Prop41ColorRGB
 90
        0
102
RTVSPost2010PropOp41
 70
     1
102
RTVSPost2010Prop42
 90
       50
102
RTVSPost2010PropOp42
 70
     1
102
RTVSPost2010Prop43
 90
        3
102
RTVSPost2010PropOp43
 70
     1
102
RTVSPost2010Prop44ColorIndex
 90
        5
102
RTVSPost2010Prop44ColorRGB
 90
      255
102
RTVSPost2010PropOp44
 70
     1
102
RTVSPost2010Prop45
280
     0
102
RTVSPost2010PropOp45
 70
     1
102
RTVSPost2010Prop46
 90
       50
102
RTVSPost2010PropOp46
 70
     1
102
RTVSPost2010Prop47
 90
       50
102
RTVSPost2010PropOp47
 70
     1
102
RTVSPost2010Prop48
 90
       50
102
RTVSPost2010PropOp48
 70
     1
102
RTVSPost2010Prop49
280
     0
102
RTVSPost2010PropOp49
 70
     1
102
RTVSPost2010Prop50
 90
       50
102
RTVSPost2010PropOp50
 70
     1
102
RTVSPost2010Prop51ColorIndex
 90
      256
102
RTVSPost2010Prop51ColorRGB
 90
-16777216
102
RTVSPost2010PropOp51
 70
     0
102
RTVSPost2010Prop52
140
1.0
102
RTVSPost2010PropOp52
 70
     0
102
RTVSPost2010Prop53
 90
        2
102
RTVSPost2010PropOp53
 70
     1
102
RTVSPost2010Prop54
  1
strokes_ogs.tif
102
RTVSPost2010PropOp54
 70
     1
102
RTVSPost2010Prop55
280
     0
102
RTVSPost2010PropOp55
 70
     1
102
RTVSPost2010Prop56
140
1.0
102
RTVSPost2010PropOp56
 70
     1
102
RTVSPost2010Prop57
140
1.0
102
RTVSPost2010PropOp57
 70
     1
102
RTVSPropertyOp0
 70
     1
102
RTVSPropertyOp1
 70
     1
102
RTVSPropertyOp2
 70
     1
102
RTVSPropertyOp3
 70
     1
102
RTVSPropertyOp4
 70
     1
102
RTVSPropertyOp5
 70
     1
102
RTVSPropertyOp6
 70
     1
102
RTVSPropertyOp7
 70
     1
102
RTVSPropertyOp8
 70
     1
102
RTVSPropertyOp9
 70
     1
102
RTVSPropertyOp10
 70
     1
102
RTVSPropertyOp11
 70
     1
102
RTVSPropertyOp12
 70
     1
102
RTVSPropertyOp13
 70
     1
102
RTVSPropertyOp14
 70
     1
102
RTVSPropertyOp15
 70
     1
102
RTVSPropertyOp16
 70
     1
102
RTVSPropertyOp17
 70
     1
102
RTVSPropertyOp18
 70
     1
102
RTVSPropertyOp19
 70
     1
102
RTVSPropertyOp20
 70
     1
102
RTVSPropertyOp21
 70
     1
102
RTVSPropertyOp22
 70
     1
102
RTVSPropertyOp23
 70
     1
102
RTVSPropertyOp24
 70
     1
102
RTVSPropertyOp25
 70
     1
102
RTVSPropertyOp26
 70
     1
102
RTVSPropertyOp27
 70
     1
102
RTVSPropertyOp28
 70
     1
102
RTVSPropertyOp29
 70
     1
102
RTVSPropertyOp30
 70
     1
102
RTVSPropertyOp31
 70
     1
102
RTVSPropertyOp32
 70
     1
102
RTVSPropertyOp33
 70
     1
102
RTVSPropertyOp34
 70
     1
102
RTVSPropertyOp35
 70
     1
102
RTVSPropertyOp36
 70
     1
102
RTVSPropertyOp37
 70
     1
102
RTVSPropertyOp38
 70
     1
102
RTVSPropertyOp39
 70
     1
102
RTVSPropertyOp40
 70
     1
102
RTVSPropertyOp41
 70
     1
102
RTVSPropertyOp42
 70
     1
102
RTVSPropertyOp43
 70
     1
102
RTVSPropertyOp44
 70
     1
102
RTVSPropertyOp45
 70
     1
102
RTVSPropertyOp46
 70
     1
102
RTVSPropertyOp47
 70
     1
102
RTVSPropertyOp48
 70
     1
102
RTVSPropertyOp49
 70
     1
102
RTVSPropertyOp50
 70
     1
102
RTVSPropertyOp51
 70
     0
102
RTVSPropertyOp52
 70
     0
102
RTVSPropertyOp53
 70
     1
102
RTVSPropertyOp54
 70
     1
102
RTVSPropertyOp55
 70
     1
102
RTVSPropertyOp56
 70
     1
102
RTVSPropertyOp57
 70
     1
102
RTVSPropertyOp58
 70
     1
102
RTVSPropertyOp59
 70
     1
102
RTVSPropertyOp60
 70
     1
102
RTVSPropertyOp61
 70
     1
102
RTVSPropertyOp62
 70
     1
  0
XRECORD
  5
8461
102
{ACAD_REACTORS
330
8460
102
}
330
8460
100
AcDbXrecord
280
     1
102
RTVSPost2010Prop28
280
     0
102
RTVSPost2010PropOp28
 70
     1
102
RTVSPost2010Prop29
280
     1
102
RTVSPost2010PropOp29
 70
     1
102
RTVSPost2010Prop30
280
     1
102
RTVSPost2010PropOp30
 70
     1
102
RTVSPost2010Prop31
280
     0
102
RTVSPost2010PropOp31
 70
     1
102
RTVSPost2010Prop32
280
     0
102
RTVSPost2010PropOp32
 70
     1
102
RTVSPost2010Prop33
280
     0
102
RTVSPost2010PropOp33
 70
     1
102
RTVSPost2010Prop34
280
     0
102
RTVSPost2010PropOp34
 70
     1
102
RTVSPost2010Prop35
280
     0
102
RTVSPost2010PropOp35
 70
     1
102
RTVSPost2010Prop36
280
     0
102
RTVSPost2010PropOp36
 70
     1
102
RTVSPost2010Prop37
 90
       50
102
RTVSPost2010PropOp37
 70
     1
102
RTVSPost2010Prop38
140
0.0
102
RTVSPost2010PropOp38
 70
     1
102
RTVSPost2010Prop39
140
1.0
102
RTVSPost2010PropOp39
 70
     1
102
RTVSPost2010Prop40
 90
        0
102
RTVSPost2010PropOp40
 70
     1
102
RTVSPost2010Prop41ColorIndex
 90
       18
102
RTVSPost2010Prop41ColorRGB
 90
        0
102
RTVSPost2010PropOp41
 70
     1
102
RTVSPost2010Prop42
 90
       50
102
RTVSPost2010PropOp42
 70
     1
102
RTVSPost2010Prop43
 90
        3
102
RTVSPost2010PropOp43
 70
     1
102
RTVSPost2010Prop44ColorIndex
 90
        5
102
RTVSPost2010Prop44ColorRGB
 90
      255
102
RTVSPost2010PropOp44
 70
     1
102
RTVSPost2010Prop45
280
     0
102
RTVSPost2010PropOp45
 70
     1
102
RTVSPost2010Prop46
 90
       50
102
RTVSPost2010PropOp46
 70
     1
102
RTVSPost2010Prop47
 90
       50
102
RTVSPost2010PropOp47
 70
     1
102
RTVSPost2010Prop48
 90
       50
102
RTVSPost2010PropOp48
 70
     1
102
RTVSPost2010Prop49
280
     0
102
RTVSPost2010PropOp49
 70
     1
102
RTVSPost2010Prop50
 90
       50
102
RTVSPost2010PropOp50
 70
     1
102
RTVSPost2010Prop51ColorIndex
 90
      256
102
RTVSPost2010Prop51ColorRGB
 90
-16777216
102
RTVSPost2010PropOp51
 70
     0
102
RTVSPost2010Prop52
140
1.0
102
RTVSPost2010PropOp52
 70
     0
102
RTVSPost2010Prop53
 90
        2
102
RTVSPost2010PropOp53
 70
     1
102
RTVSPost2010Prop54
  1
strokes_ogs.tif
102
RTVSPost2010PropOp54
 70
     1
102
RTVSPost2010Prop55
280
     0
102
RTVSPost2010PropOp55
 70
     1
102
RTVSPost2010Prop56
140
1.0
102
RTVSPost2010PropOp56
 70
     1
102
RTVSPost2010Prop57
140
1.0
102
RTVSPost2010PropOp57
 70
     1
102
RTVSPropertyOp0
 70
     1
102
RTVSPropertyOp1
 70
     1
102
RTVSPropertyOp2
 70
     1
102
RTVSPropertyOp3
 70
     1
102
RTVSPropertyOp4
 70
     1
102
RTVSPropertyOp5
 70
     1
102
RTVSPropertyOp6
 70
     1
102
RTVSPropertyOp7
 70
     1
102
RTVSPropertyOp8
 70
     1
102
RTVSPropertyOp9
 70
     1
102
RTVSPropertyOp10
 70
     1
102
RTVSPropertyOp11
 70
     1
102
RTVSPropertyOp12
 70
     1
102
RTVSPropertyOp13
 70
     1
102
RTVSPropertyOp14
 70
     1
102
RTVSPropertyOp15
 70
     1
102
RTVSPropertyOp16
 70
     1
102
RTVSPropertyOp17
 70
     1
102
RTVSPropertyOp18
 70
     1
102
RTVSPropertyOp19
 70
     1
102
RTVSPropertyOp20
 70
     1
102
RTVSPropertyOp21
 70
     1
102
RTVSPropertyOp22
 70
     1
102
RTVSPropertyOp23
 70
     1
102
RTVSPropertyOp24
 70
     1
102
RTVSPropertyOp25
 70
     1
102
RTVSPropertyOp26
 70
     1
102
RTVSPropertyOp27
 70
     1
102
RTVSPropertyOp28
 70
     1
102
RTVSPropertyOp29
 70
     1
102
RTVSPropertyOp30
 70
     1
102
RTVSPropertyOp31
 70
     1
102
RTVSPropertyOp32
 70
     1
102
RTVSPropertyOp33
 70
     1
102
RTVSPropertyOp34
 70
     1
102
RTVSPropertyOp35
 70
     1
102
RTVSPropertyOp36
 70
     1
102
RTVSPropertyOp37
 70
     1
102
RTVSPropertyOp38
 70
     1
102
RTVSPropertyOp39
 70
     1
102
RTVSPropertyOp40
 70
     1
102
RTVSPropertyOp41
 70
     1
102
RTVSPropertyOp42
 70
     1
102
RTVSPropertyOp43
 70
     1
102
RTVSPropertyOp44
 70
     1
102
RTVSPropertyOp45
 70
     1
102
RTVSPropertyOp46
 70
     1
102
RTVSPropertyOp47
 70
     1
102
RTVSPropertyOp48
 70
     1
102
RTVSPropertyOp49
 70
     1
102
RTVSPropertyOp50
 70
     1
102
RTVSPropertyOp51
 70
     0
102
RTVSPropertyOp52
 70
     0
102
RTVSPropertyOp53
 70
     1
102
RTVSPropertyOp54
 70
     1
102
RTVSPropertyOp55
 70
     1
102
RTVSPropertyOp56
 70
     1
102
RTVSPropertyOp57
 70
     1
102
RTVSPropertyOp58
 70
     1
102
RTVSPropertyOp59
 70
     1
102
RTVSPropertyOp60
 70
     1
102
RTVSPropertyOp61
 70
     1
102
RTVSPropertyOp62
 70
     1
  0
XRECORD
  5
845F
102
{ACAD_REACTORS
330
845E
102
}
330
845E
100
AcDbXrecord
280
     1
102
RTVSPost2010Prop28
280
     0
102
RTVSPost2010PropOp28
 70
     1
102
RTVSPost2010Prop29
280
     1
102
RTVSPost2010PropOp29
 70
     1
102
RTVSPost2010Prop30
280
     1
102
RTVSPost2010PropOp30
 70
     1
102
RTVSPost2010Prop31
280
     0
102
RTVSPost2010PropOp31
 70
     1
102
RTVSPost2010Prop32
280
     0
102
RTVSPost2010PropOp32
 70
     1
102
RTVSPost2010Prop33
280
     0
102
RTVSPost2010PropOp33
 70
     1
102
RTVSPost2010Prop34
280
     0
102
RTVSPost2010PropOp34
 70
     1
102
RTVSPost2010Prop35
280
     0
102
RTVSPost2010PropOp35
 70
     1
102
RTVSPost2010Prop36
280
     0
102
RTVSPost2010PropOp36
 70
     1
102
RTVSPost2010Prop37
 90
       50
102
RTVSPost2010PropOp37
 70
     1
102
RTVSPost2010Prop38
140
0.0
102
RTVSPost2010PropOp38
 70
     1
102
RTVSPost2010Prop39
140
1.0
102
RTVSPost2010PropOp39
 70
     1
102
RTVSPost2010Prop40
 90
        0
102
RTVSPost2010PropOp40
 70
     1
102
RTVSPost2010Prop41ColorIndex
 90
       18
102
RTVSPost2010Prop41ColorRGB
 90
        0
102
RTVSPost2010PropOp41
 70
     1
102
RTVSPost2010Prop42
 90
       50
102
RTVSPost2010PropOp42
 70
     1
102
RTVSPost2010Prop43
 90
        3
102
RTVSPost2010PropOp43
 70
     1
102
RTVSPost2010Prop44ColorIndex
 90
        5
102
RTVSPost2010Prop44ColorRGB
 90
      255
102
RTVSPost2010PropOp44
 70
     1
102
RTVSPost2010Prop45
280
     0
102
RTVSPost2010PropOp45
 70
     1
102
RTVSPost2010Prop46
 90
       50
102
RTVSPost2010PropOp46
 70
     1
102
RTVSPost2010Prop47
 90
       50
102
RTVSPost2010PropOp47
 70
     1
102
RTVSPost2010Prop48
 90
       50
102
RTVSPost2010PropOp48
 70
     1
102
RTVSPost2010Prop49
280
     0
102
RTVSPost2010PropOp49
 70
     1
102
RTVSPost2010Prop50
 90
       50
102
RTVSPost2010PropOp50
 70
     1
102
RTVSPost2010Prop51ColorIndex
 90
      256
102
RTVSPost2010Prop51ColorRGB
 90
-16777216
102
RTVSPost2010PropOp51
 70
     0
102
RTVSPost2010Prop52
140
1.0
102
RTVSPost2010PropOp52
 70
     0
102
RTVSPost2010Prop53
 90
        2
102
RTVSPost2010PropOp53
 70
     1
102
RTVSPost2010Prop54
  1
strokes_ogs.tif
102
RTVSPost2010PropOp54
 70
     1
102
RTVSPost2010Prop55
280
     0
102
RTVSPost2010PropOp55
 70
     1
102
RTVSPost2010Prop56
140
1.0
102
RTVSPost2010PropOp56
 70
     1
102
RTVSPost2010Prop57
140
1.0
102
RTVSPost2010PropOp57
 70
     1
102
RTVSPropertyOp0
 70
     1
102
RTVSPropertyOp1
 70
     1
102
RTVSPropertyOp2
 70
     1
102
RTVSPropertyOp3
 70
     1
102
RTVSPropertyOp4
 70
     1
102
RTVSPropertyOp5
 70
     1
102
RTVSPropertyOp6
 70
     1
102
RTVSPropertyOp7
 70
     1
102
RTVSPropertyOp8
 70
     1
102
RTVSPropertyOp9
 70
     1
102
RTVSPropertyOp10
 70
     1
102
RTVSPropertyOp11
 70
     1
102
RTVSPropertyOp12
 70
     1
102
RTVSPropertyOp13
 70
     1
102
RTVSPropertyOp14
 70
     1
102
RTVSPropertyOp15
 70
     1
102
RTVSPropertyOp16
 70
     1
102
RTVSPropertyOp17
 70
     1
102
RTVSPropertyOp18
 70
     1
102
RTVSPropertyOp19
 70
     1
102
RTVSPropertyOp20
 70
     1
102
RTVSPropertyOp21
 70
     1
102
RTVSPropertyOp22
 70
     1
102
RTVSPropertyOp23
 70
     1
102
RTVSPropertyOp24
 70
     1
102
RTVSPropertyOp25
 70
     1
102
RTVSPropertyOp26
 70
     1
102
RTVSPropertyOp27
 70
     1
102
RTVSPropertyOp28
 70
     1
102
RTVSPropertyOp29
 70
     1
102
RTVSPropertyOp30
 70
     1
102
RTVSPropertyOp31
 70
     1
102
RTVSPropertyOp32
 70
     1
102
RTVSPropertyOp33
 70
     1
102
RTVSPropertyOp34
 70
     1
102
RTVSPropertyOp35
 70
     1
102
RTVSPropertyOp36
 70
     1
102
RTVSPropertyOp37
 70
     1
102
RTVSPropertyOp38
 70
     1
102
RTVSPropertyOp39
 70
     1
102
RTVSPropertyOp40
 70
     1
102
RTVSPropertyOp41
 70
     1
102
RTVSPropertyOp42
 70
     1
102
RTVSPropertyOp43
 70
     1
102
RTVSPropertyOp44
 70
     1
102
RTVSPropertyOp45
 70
     1
102
RTVSPropertyOp46
 70
     1
102
RTVSPropertyOp47
 70
     1
102
RTVSPropertyOp48
 70
     1
102
RTVSPropertyOp49
 70
     1
102
RTVSPropertyOp50
 70
     1
102
RTVSPropertyOp51
 70
     0
102
RTVSPropertyOp52
 70
     0
102
RTVSPropertyOp53
 70
     1
102
RTVSPropertyOp54
 70
     1
102
RTVSPropertyOp55
 70
     1
102
RTVSPropertyOp56
 70
     1
102
RTVSPropertyOp57
 70
     1
102
RTVSPropertyOp58
 70
     1
102
RTVSPropertyOp59
 70
     1
102
RTVSPropertyOp60
 70
     1
102
RTVSPropertyOp61
 70
     1
102
RTVSPropertyOp62
 70
     1
  0
XRECORD
  5
8459
102
{ACAD_REACTORS
330
8458
102
}
330
8458
100
AcDbXrecord
280
     1
102
RTVSPost2010Prop28
280
     0
102
RTVSPost2010PropOp28
 70
     1
102
RTVSPost2010Prop29
280
     1
102
RTVSPost2010PropOp29
 70
     1
102
RTVSPost2010Prop30
280
     1
102
RTVSPost2010PropOp30
 70
     1
102
RTVSPost2010Prop31
280
     0
102
RTVSPost2010PropOp31
 70
     1
102
RTVSPost2010Prop32
280
     0
102
RTVSPost2010PropOp32
 70
     1
102
RTVSPost2010Prop33
280
     0
102
RTVSPost2010PropOp33
 70
     1
102
RTVSPost2010Prop34
280
     0
102
RTVSPost2010PropOp34
 70
     1
102
RTVSPost2010Prop35
280
     0
102
RTVSPost2010PropOp35
 70
     1
102
RTVSPost2010Prop36
280
     0
102
RTVSPost2010PropOp36
 70
     1
102
RTVSPost2010Prop37
 90
       50
102
RTVSPost2010PropOp37
 70
     1
102
RTVSPost2010Prop38
140
0.0
102
RTVSPost2010PropOp38
 70
     1
102
RTVSPost2010Prop39
140
1.0
102
RTVSPost2010PropOp39
 70
     1
102
RTVSPost2010Prop40
 90
        0
102
RTVSPost2010PropOp40
 70
     1
102
RTVSPost2010Prop41ColorIndex
 90
       18
102
RTVSPost2010Prop41ColorRGB
 90
        0
102
RTVSPost2010PropOp41
 70
     1
102
RTVSPost2010Prop42
 90
       50
102
RTVSPost2010PropOp42
 70
     1
102
RTVSPost2010Prop43
 90
        3
102
RTVSPost2010PropOp43
 70
     1
102
RTVSPost2010Prop44ColorIndex
 90
        5
102
RTVSPost2010Prop44ColorRGB
 90
      255
102
RTVSPost2010PropOp44
 70
     1
102
RTVSPost2010Prop45
280
     0
102
RTVSPost2010PropOp45
 70
     1
102
RTVSPost2010Prop46
 90
       50
102
RTVSPost2010PropOp46
 70
     1
102
RTVSPost2010Prop47
 90
       50
102
RTVSPost2010PropOp47
 70
     1
102
RTVSPost2010Prop48
 90
       50
102
RTVSPost2010PropOp48
 70
     1
102
RTVSPost2010Prop49
280
     0
102
RTVSPost2010PropOp49
 70
     1
102
RTVSPost2010Prop50
 90
       50
102
RTVSPost2010PropOp50
 70
     1
102
RTVSPost2010Prop51ColorIndex
 90
      256
102
RTVSPost2010Prop51ColorRGB
 90
-16777216
102
RTVSPost2010PropOp51
 70
     0
102
RTVSPost2010Prop52
140
1.0
102
RTVSPost2010PropOp52
 70
     0
102
RTVSPost2010Prop53
 90
        2
102
RTVSPost2010PropOp53
 70
     1
102
RTVSPost2010Prop54
  1
strokes_ogs.tif
102
RTVSPost2010PropOp54
 70
     1
102
RTVSPost2010Prop55
280
     0
102
RTVSPost2010PropOp55
 70
     1
102
RTVSPost2010Prop56
140
1.0
102
RTVSPost2010PropOp56
 70
     1
102
RTVSPost2010Prop57
140
1.0
102
RTVSPost2010PropOp57
 70
     1
102
RTVSPropertyOp0
 70
     1
102
RTVSPropertyOp1
 70
     1
102
RTVSPropertyOp2
 70
     1
102
RTVSPropertyOp3
 70
     1
102
RTVSPropertyOp4
 70
     1
102
RTVSPropertyOp5
 70
     1
102
RTVSPropertyOp6
 70
     1
102
RTVSPropertyOp7
 70
     1
102
RTVSPropertyOp8
 70
     1
102
RTVSPropertyOp9
 70
     1
102
RTVSPropertyOp10
 70
     1
102
RTVSPropertyOp11
 70
     1
102
RTVSPropertyOp12
 70
     1
102
RTVSPropertyOp13
 70
     1
102
RTVSPropertyOp14
 70
     1
102
RTVSPropertyOp15
 70
     1
102
RTVSPropertyOp16
 70
     1
102
RTVSPropertyOp17
 70
     1
102
RTVSPropertyOp18
 70
     1
102
RTVSPropertyOp19
 70
     1
102
RTVSPropertyOp20
 70
     1
102
RTVSPropertyOp21
 70
     1
102
RTVSPropertyOp22
 70
     1
102
RTVSPropertyOp23
 70
     1
102
RTVSPropertyOp24
 70
     1
102
RTVSPropertyOp25
 70
     1
102
RTVSPropertyOp26
 70
     1
102
RTVSPropertyOp27
 70
     1
102
RTVSPropertyOp28
 70
     1
102
RTVSPropertyOp29
 70
     1
102
RTVSPropertyOp30
 70
     1
102
RTVSPropertyOp31
 70
     1
102
RTVSPropertyOp32
 70
     1
102
RTVSPropertyOp33
 70
     1
102
RTVSPropertyOp34
 70
     1
102
RTVSPropertyOp35
 70
     1
102
RTVSPropertyOp36
 70
     1
102
RTVSPropertyOp37
 70
     1
102
RTVSPropertyOp38
 70
     1
102
RTVSPropertyOp39
 70
     1
102
RTVSPropertyOp40
 70
     1
102
RTVSPropertyOp41
 70
     1
102
RTVSPropertyOp42
 70
     1
102
RTVSPropertyOp43
 70
     1
102
RTVSPropertyOp44
 70
     1
102
RTVSPropertyOp45
 70
     1
102
RTVSPropertyOp46
 70
     1
102
RTVSPropertyOp47
 70
     1
102
RTVSPropertyOp48
 70
     1
102
RTVSPropertyOp49
 70
     1
102
RTVSPropertyOp50
 70
     1
102
RTVSPropertyOp51
 70
     0
102
RTVSPropertyOp52
 70
     0
102
RTVSPropertyOp53
 70
     1
102
RTVSPropertyOp54
 70
     1
102
RTVSPropertyOp55
 70
     1
102
RTVSPropertyOp56
 70
     1
102
RTVSPropertyOp57
 70
     1
102
RTVSPropertyOp58
 70
     1
102
RTVSPropertyOp59
 70
     1
102
RTVSPropertyOp60
 70
     1
102
RTVSPropertyOp61
 70
     1
102
RTVSPropertyOp62
 70
     1
  0
XRECORD
  5
845B
102
{ACAD_REACTORS
330
845A
102
}
330
845A
100
AcDbXrecord
280
     1
102
RTVSPost2010Prop28
280
     0
102
RTVSPost2010PropOp28
 70
     1
102
RTVSPost2010Prop29
280
     1
102
RTVSPost2010PropOp29
 70
     1
102
RTVSPost2010Prop30
280
     1
102
RTVSPost2010PropOp30
 70
     1
102
RTVSPost2010Prop31
280
     0
102
RTVSPost2010PropOp31
 70
     1
102
RTVSPost2010Prop32
280
     0
102
RTVSPost2010PropOp32
 70
     1
102
RTVSPost2010Prop33
280
     0
102
RTVSPost2010PropOp33
 70
     1
102
RTVSPost2010Prop34
280
     0
102
RTVSPost2010PropOp34
 70
     1
102
RTVSPost2010Prop35
280
     0
102
RTVSPost2010PropOp35
 70
     1
102
RTVSPost2010Prop36
280
     0
102
RTVSPost2010PropOp36
 70
     1
102
RTVSPost2010Prop37
 90
       50
102
RTVSPost2010PropOp37
 70
     1
102
RTVSPost2010Prop38
140
0.0
102
RTVSPost2010PropOp38
 70
     1
102
RTVSPost2010Prop39
140
1.0
102
RTVSPost2010PropOp39
 70
     1
102
RTVSPost2010Prop40
 90
        0
102
RTVSPost2010PropOp40
 70
     1
102
RTVSPost2010Prop41ColorIndex
 90
       18
102
RTVSPost2010Prop41ColorRGB
 90
        0
102
RTVSPost2010PropOp41
 70
     1
102
RTVSPost2010Prop42
 90
       50
102
RTVSPost2010PropOp42
 70
     1
102
RTVSPost2010Prop43
 90
        3
102
RTVSPost2010PropOp43
 70
     1
102
RTVSPost2010Prop44ColorIndex
 90
        5
102
RTVSPost2010Prop44ColorRGB
 90
      255
102
RTVSPost2010PropOp44
 70
     1
102
RTVSPost2010Prop45
280
     0
102
RTVSPost2010PropOp45
 70
     1
102
RTVSPost2010Prop46
 90
       50
102
RTVSPost2010PropOp46
 70
     1
102
RTVSPost2010Prop47
 90
       50
102
RTVSPost2010PropOp47
 70
     1
102
RTVSPost2010Prop48
 90
       50
102
RTVSPost2010PropOp48
 70
     1
102
RTVSPost2010Prop49
280
     0
102
RTVSPost2010PropOp49
 70
     1
102
RTVSPost2010Prop50
 90
       50
102
RTVSPost2010PropOp50
 70
     1
102
RTVSPost2010Prop51ColorIndex
 90
      256
102
RTVSPost2010Prop51ColorRGB
 90
-16777216
102
RTVSPost2010PropOp51
 70
     0
102
RTVSPost2010Prop52
140
1.0
102
RTVSPost2010PropOp52
 70
     0
102
RTVSPost2010Prop53
 90
        2
102
RTVSPost2010PropOp53
 70
     1
102
RTVSPost2010Prop54
  1
strokes_ogs.tif
102
RTVSPost2010PropOp54
 70
     1
102
RTVSPost2010Prop55
280
     0
102
RTVSPost2010PropOp55
 70
     1
102
RTVSPost2010Prop56
140
1.0
102
RTVSPost2010PropOp56
 70
     1
102
RTVSPost2010Prop57
140
1.0
102
RTVSPost2010PropOp57
 70
     1
102
RTVSPropertyOp0
 70
     1
102
RTVSPropertyOp1
 70
     1
102
RTVSPropertyOp2
 70
     1
102
RTVSPropertyOp3
 70
     1
102
RTVSPropertyOp4
 70
     1
102
RTVSPropertyOp5
 70
     1
102
RTVSPropertyOp6
 70
     1
102
RTVSPropertyOp7
 70
     1
102
RTVSPropertyOp8
 70
     1
102
RTVSPropertyOp9
 70
     1
102
RTVSPropertyOp10
 70
     1
102
RTVSPropertyOp11
 70
     1
102
RTVSPropertyOp12
 70
     1
102
RTVSPropertyOp13
 70
     1
102
RTVSPropertyOp14
 70
     1
102
RTVSPropertyOp15
 70
     1
102
RTVSPropertyOp16
 70
     1
102
RTVSPropertyOp17
 70
     1
102
RTVSPropertyOp18
 70
     1
102
RTVSPropertyOp19
 70
     1
102
RTVSPropertyOp20
 70
     1
102
RTVSPropertyOp21
 70
     1
102
RTVSPropertyOp22
 70
     1
102
RTVSPropertyOp23
 70
     1
102
RTVSPropertyOp24
 70
     1
102
RTVSPropertyOp25
 70
     1
102
RTVSPropertyOp26
 70
     1
102
RTVSPropertyOp27
 70
     1
102
RTVSPropertyOp28
 70
     1
102
RTVSPropertyOp29
 70
     1
102
RTVSPropertyOp30
 70
     1
102
RTVSPropertyOp31
 70
     1
102
RTVSPropertyOp32
 70
     1
102
RTVSPropertyOp33
 70
     1
102
RTVSPropertyOp34
 70
     1
102
RTVSPropertyOp35
 70
     1
102
RTVSPropertyOp36
 70
     1
102
RTVSPropertyOp37
 70
     1
102
RTVSPropertyOp38
 70
     1
102
RTVSPropertyOp39
 70
     1
102
RTVSPropertyOp40
 70
     1
102
RTVSPropertyOp41
 70
     1
102
RTVSPropertyOp42
 70
     1
102
RTVSPropertyOp43
 70
     1
102
RTVSPropertyOp44
 70
     1
102
RTVSPropertyOp45
 70
     1
102
RTVSPropertyOp46
 70
     1
102
RTVSPropertyOp47
 70
     1
102
RTVSPropertyOp48
 70
     1
102
RTVSPropertyOp49
 70
     1
102
RTVSPropertyOp50
 70
     1
102
RTVSPropertyOp51
 70
     0
102
RTVSPropertyOp52
 70
     0
102
RTVSPropertyOp53
 70
     1
102
RTVSPropertyOp54
 70
     1
102
RTVSPropertyOp55
 70
     1
102
RTVSPropertyOp56
 70
     1
102
RTVSPropertyOp57
 70
     1
102
RTVSPropertyOp58
 70
     1
102
RTVSPropertyOp59
 70
     1
102
RTVSPropertyOp60
 70
     1
102
RTVSPropertyOp61
 70
     1
102
RTVSPropertyOp62
 70
     1
  0
XRECORD
  5
8451
102
{ACAD_REACTORS
330
8450
102
}
330
8450
100
AcDbXrecord
280
     1
102
RTVSPost2010Prop28
280
     0
102
RTVSPost2010PropOp28
 70
     1
102
RTVSPost2010Prop29
280
     1
102
RTVSPost2010PropOp29
 70
     1
102
RTVSPost2010Prop30
280
     1
102
RTVSPost2010PropOp30
 70
     1
102
RTVSPost2010Prop31
280
     0
102
RTVSPost2010PropOp31
 70
     1
102
RTVSPost2010Prop32
280
     0
102
RTVSPost2010PropOp32
 70
     1
102
RTVSPost2010Prop33
280
     0
102
RTVSPost2010PropOp33
 70
     1
102
RTVSPost2010Prop34
280
     0
102
RTVSPost2010PropOp34
 70
     1
102
RTVSPost2010Prop35
280
     0
102
RTVSPost2010PropOp35
 70
     1
102
RTVSPost2010Prop36
280
     0
102
RTVSPost2010PropOp36
 70
     1
102
RTVSPost2010Prop37
 90
       50
102
RTVSPost2010PropOp37
 70
     1
102
RTVSPost2010Prop38
140
0.0
102
RTVSPost2010PropOp38
 70
     1
102
RTVSPost2010Prop39
140
1.0
102
RTVSPost2010PropOp39
 70
     1
102
RTVSPost2010Prop40
 90
        0
102
RTVSPost2010PropOp40
 70
     1
102
RTVSPost2010Prop41ColorIndex
 90
       18
102
RTVSPost2010Prop41ColorRGB
 90
        0
102
RTVSPost2010PropOp41
 70
     1
102
RTVSPost2010Prop42
 90
       50
102
RTVSPost2010PropOp42
 70
     1
102
RTVSPost2010Prop43
 90
        3
102
RTVSPost2010PropOp43
 70
     1
102
RTVSPost2010Prop44ColorIndex
 90
        5
102
RTVSPost2010Prop44ColorRGB
 90
      255
102
RTVSPost2010PropOp44
 70
     1
102
RTVSPost2010Prop45
280
     0
102
RTVSPost2010PropOp45
 70
     1
102
RTVSPost2010Prop46
 90
       50
102
RTVSPost2010PropOp46
 70
     1
102
RTVSPost2010Prop47
 90
       50
102
RTVSPost2010PropOp47
 70
     1
102
RTVSPost2010Prop48
 90
       50
102
RTVSPost2010PropOp48
 70
     1
102
RTVSPost2010Prop49
280
     0
102
RTVSPost2010PropOp49
 70
     1
102
RTVSPost2010Prop50
 90
       50
102
RTVSPost2010PropOp50
 70
     1
102
RTVSPost2010Prop51ColorIndex
 90
      256
102
RTVSPost2010Prop51ColorRGB
 90
-16777216
102
RTVSPost2010PropOp51
 70
     0
102
RTVSPost2010Prop52
140
1.0
102
RTVSPost2010PropOp52
 70
     0
102
RTVSPost2010Prop53
 90
        2
102
RTVSPost2010PropOp53
 70
     1
102
RTVSPost2010Prop54
  1
strokes_ogs.tif
102
RTVSPost2010PropOp54
 70
     1
102
RTVSPost2010Prop55
280
     0
102
RTVSPost2010PropOp55
 70
     1
102
RTVSPost2010Prop56
140
1.0
102
RTVSPost2010PropOp56
 70
     1
102
RTVSPost2010Prop57
140
1.0
102
RTVSPost2010PropOp57
 70
     1
102
RTVSPropertyOp0
 70
     1
102
RTVSPropertyOp1
 70
     1
102
RTVSPropertyOp2
 70
     1
102
RTVSPropertyOp3
 70
     1
102
RTVSPropertyOp4
 70
     1
102
RTVSPropertyOp5
 70
     1
102
RTVSPropertyOp6
 70
     1
102
RTVSPropertyOp7
 70
     1
102
RTVSPropertyOp8
 70
     1
102
RTVSPropertyOp9
 70
     1
102
RTVSPropertyOp10
 70
     1
102
RTVSPropertyOp11
 70
     1
102
RTVSPropertyOp12
 70
     1
102
RTVSPropertyOp13
 70
     1
102
RTVSPropertyOp14
 70
     1
102
RTVSPropertyOp15
 70
     1
102
RTVSPropertyOp16
 70
     1
102
RTVSPropertyOp17
 70
     1
102
RTVSPropertyOp18
 70
     1
102
RTVSPropertyOp19
 70
     1
102
RTVSPropertyOp20
 70
     1
102
RTVSPropertyOp21
 70
     1
102
RTVSPropertyOp22
 70
     1
102
RTVSPropertyOp23
 70
     1
102
RTVSPropertyOp24
 70
     1
102
RTVSPropertyOp25
 70
     1
102
RTVSPropertyOp26
 70
     1
102
RTVSPropertyOp27
 70
     1
102
RTVSPropertyOp28
 70
     1
102
RTVSPropertyOp29
 70
     1
102
RTVSPropertyOp30
 70
     1
102
RTVSPropertyOp31
 70
     1
102
RTVSPropertyOp32
 70
     1
102
RTVSPropertyOp33
 70
     1
102
RTVSPropertyOp34
 70
     1
102
RTVSPropertyOp35
 70
     1
102
RTVSPropertyOp36
 70
     1
102
RTVSPropertyOp37
 70
     1
102
RTVSPropertyOp38
 70
     1
102
RTVSPropertyOp39
 70
     1
102
RTVSPropertyOp40
 70
     1
102
RTVSPropertyOp41
 70
     1
102
RTVSPropertyOp42
 70
     1
102
RTVSPropertyOp43
 70
     1
102
RTVSPropertyOp44
 70
     1
102
RTVSPropertyOp45
 70
     1
102
RTVSPropertyOp46
 70
     1
102
RTVSPropertyOp47
 70
     1
102
RTVSPropertyOp48
 70
     1
102
RTVSPropertyOp49
 70
     1
102
RTVSPropertyOp50
 70
     1
102
RTVSPropertyOp51
 70
     0
102
RTVSPropertyOp52
 70
     0
102
RTVSPropertyOp53
 70
     1
102
RTVSPropertyOp54
 70
     1
102
RTVSPropertyOp55
 70
     1
102
RTVSPropertyOp56
 70
     1
102
RTVSPropertyOp57
 70
     1
102
RTVSPropertyOp58
 70
     1
102
RTVSPropertyOp59
 70
     1
102
RTVSPropertyOp60
 70
     1
102
RTVSPropertyOp61
 70
     1
102
RTVSPropertyOp62
 70
     1
  0
XRECORD
  5
8445
102
{ACAD_REACTORS
330
8444
102
}
330
8444
100
AcDbXrecord
280
     1
102
RTVSPost2010Prop28
280
     0
102
RTVSPost2010PropOp28
 70
     1
102
RTVSPost2010Prop29
280
     1
102
RTVSPost2010PropOp29
 70
     1
102
RTVSPost2010Prop30
280
     1
102
RTVSPost2010PropOp30
 70
     1
102
RTVSPost2010Prop31
280
     0
102
RTVSPost2010PropOp31
 70
     1
102
RTVSPost2010Prop32
280
     0
102
RTVSPost2010PropOp32
 70
     1
102
RTVSPost2010Prop33
280
     0
102
RTVSPost2010PropOp33
 70
     1
102
RTVSPost2010Prop34
280
     0
102
RTVSPost2010PropOp34
 70
     1
102
RTVSPost2010Prop35
280
     0
102
RTVSPost2010PropOp35
 70
     1
102
RTVSPost2010Prop36
280
     0
102
RTVSPost2010PropOp36
 70
     1
102
RTVSPost2010Prop37
 90
       50
102
RTVSPost2010PropOp37
 70
     1
102
RTVSPost2010Prop38
140
0.0
102
RTVSPost2010PropOp38
 70
     1
102
RTVSPost2010Prop39
140
1.0
102
RTVSPost2010PropOp39
 70
     1
102
RTVSPost2010Prop40
 90
        0
102
RTVSPost2010PropOp40
 70
     1
102
RTVSPost2010Prop41ColorIndex
 90
       18
102
RTVSPost2010Prop41ColorRGB
 90
        0
102
RTVSPost2010PropOp41
 70
     1
102
RTVSPost2010Prop42
 90
       50
102
RTVSPost2010PropOp42
 70
     1
102
RTVSPost2010Prop43
 90
        3
102
RTVSPost2010PropOp43
 70
     1
102
RTVSPost2010Prop44ColorIndex
 90
        5
102
RTVSPost2010Prop44ColorRGB
 90
      255
102
RTVSPost2010PropOp44
 70
     1
102
RTVSPost2010Prop45
280
     0
102
RTVSPost2010PropOp45
 70
     1
102
RTVSPost2010Prop46
 90
       50
102
RTVSPost2010PropOp46
 70
     1
102
RTVSPost2010Prop47
 90
       50
102
RTVSPost2010PropOp47
 70
     1
102
RTVSPost2010Prop48
 90
       50
102
RTVSPost2010PropOp48
 70
     1
102
RTVSPost2010Prop49
280
     0
102
RTVSPost2010PropOp49
 70
     1
102
RTVSPost2010Prop50
 90
       50
102
RTVSPost2010PropOp50
 70
     1
102
RTVSPost2010Prop51ColorIndex
 90
      256
102
RTVSPost2010Prop51ColorRGB
 90
-16777216
102
RTVSPost2010PropOp51
 70
     0
102
RTVSPost2010Prop52
140
1.0
102
RTVSPost2010PropOp52
 70
     0
102
RTVSPost2010Prop53
 90
        2
102
RTVSPost2010PropOp53
 70
     1
102
RTVSPost2010Prop54
  1
strokes_ogs.tif
102
RTVSPost2010PropOp54
 70
     1
102
RTVSPost2010Prop55
280
     0
102
RTVSPost2010PropOp55
 70
     1
102
RTVSPost2010Prop56
140
1.0
102
RTVSPost2010PropOp56
 70
     1
102
RTVSPost2010Prop57
140
1.0
102
RTVSPost2010PropOp57
 70
     1
102
RTVSPropertyOp0
 70
     1
102
RTVSPropertyOp1
 70
     1
102
RTVSPropertyOp2
 70
     1
102
RTVSPropertyOp3
 70
     1
102
RTVSPropertyOp4
 70
     1
102
RTVSPropertyOp5
 70
     1
102
RTVSPropertyOp6
 70
     1
102
RTVSPropertyOp7
 70
     1
102
RTVSPropertyOp8
 70
     1
102
RTVSPropertyOp9
 70
     1
102
RTVSPropertyOp10
 70
     1
102
RTVSPropertyOp11
 70
     1
102
RTVSPropertyOp12
 70
     1
102
RTVSPropertyOp13
 70
     1
102
RTVSPropertyOp14
 70
     1
102
RTVSPropertyOp15
 70
     1
102
RTVSPropertyOp16
 70
     1
102
RTVSPropertyOp17
 70
     1
102
RTVSPropertyOp18
 70
     1
102
RTVSPropertyOp19
 70
     1
102
RTVSPropertyOp20
 70
     1
102
RTVSPropertyOp21
 70
     1
102
RTVSPropertyOp22
 70
     1
102
RTVSPropertyOp23
 70
     1
102
RTVSPropertyOp24
 70
     1
102
RTVSPropertyOp25
 70
     1
102
RTVSPropertyOp26
 70
     1
102
RTVSPropertyOp27
 70
     1
102
RTVSPropertyOp28
 70
     1
102
RTVSPropertyOp29
 70
     1
102
RTVSPropertyOp30
 70
     1
102
RTVSPropertyOp31
 70
     1
102
RTVSPropertyOp32
 70
     1
102
RTVSPropertyOp33
 70
     1
102
RTVSPropertyOp34
 70
     1
102
RTVSPropertyOp35
 70
     1
102
RTVSPropertyOp36
 70
     1
102
RTVSPropertyOp37
 70
     1
102
RTVSPropertyOp38
 70
     1
102
RTVSPropertyOp39
 70
     1
102
RTVSPropertyOp40
 70
     1
102
RTVSPropertyOp41
 70
     1
102
RTVSPropertyOp42
 70
     1
102
RTVSPropertyOp43
 70
     1
102
RTVSPropertyOp44
 70
     1
102
RTVSPropertyOp45
 70
     1
102
RTVSPropertyOp46
 70
     1
102
RTVSPropertyOp47
 70
     1
102
RTVSPropertyOp48
 70
     1
102
RTVSPropertyOp49
 70
     1
102
RTVSPropertyOp50
 70
     1
102
RTVSPropertyOp51
 70
     0
102
RTVSPropertyOp52
 70
     0
102
RTVSPropertyOp53
 70
     1
102
RTVSPropertyOp54
 70
     1
102
RTVSPropertyOp55
 70
     1
102
RTVSPropertyOp56
 70
     1
102
RTVSPropertyOp57
 70
     1
102
RTVSPropertyOp58
 70
     1
102
RTVSPropertyOp59
 70
     1
102
RTVSPropertyOp60
 70
     1
102
RTVSPropertyOp61
 70
     1
102
RTVSPropertyOp62
 70
     1
  0
XRECORD
  5
845D
102
{ACAD_REACTORS
330
845C
102
}
330
845C
100
AcDbXrecord
280
     1
102
RTVSPost2010Prop28
280
     0
102
RTVSPost2010PropOp28
 70
     1
102
RTVSPost2010Prop29
280
     1
102
RTVSPost2010PropOp29
 70
     1
102
RTVSPost2010Prop30
280
     1
102
RTVSPost2010PropOp30
 70
     1
102
RTVSPost2010Prop31
280
     0
102
RTVSPost2010PropOp31
 70
     1
102
RTVSPost2010Prop32
280
     0
102
RTVSPost2010PropOp32
 70
     1
102
RTVSPost2010Prop33
280
     0
102
RTVSPost2010PropOp33
 70
     1
102
RTVSPost2010Prop34
280
     0
102
RTVSPost2010PropOp34
 70
     1
102
RTVSPost2010Prop35
280
     0
102
RTVSPost2010PropOp35
 70
     1
102
RTVSPost2010Prop36
280
     0
102
RTVSPost2010PropOp36
 70
     1
102
RTVSPost2010Prop37
 90
       50
102
RTVSPost2010PropOp37
 70
     1
102
RTVSPost2010Prop38
140
0.0
102
RTVSPost2010PropOp38
 70
     1
102
RTVSPost2010Prop39
140
1.0
102
RTVSPost2010PropOp39
 70
     1
102
RTVSPost2010Prop40
 90
        0
102
RTVSPost2010PropOp40
 70
     1
102
RTVSPost2010Prop41ColorIndex
 90
       18
102
RTVSPost2010Prop41ColorRGB
 90
        0
102
RTVSPost2010PropOp41
 70
     1
102
RTVSPost2010Prop42
 90
       50
102
RTVSPost2010PropOp42
 70
     1
102
RTVSPost2010Prop43
 90
        3
102
RTVSPost2010PropOp43
 70
     1
102
RTVSPost2010Prop44ColorIndex
 90
        5
102
RTVSPost2010Prop44ColorRGB
 90
      255
102
RTVSPost2010PropOp44
 70
     1
102
RTVSPost2010Prop45
280
     0
102
RTVSPost2010PropOp45
 70
     1
102
RTVSPost2010Prop46
 90
       50
102
RTVSPost2010PropOp46
 70
     1
102
RTVSPost2010Prop47
 90
       50
102
RTVSPost2010PropOp47
 70
     1
102
RTVSPost2010Prop48
 90
       50
102
RTVSPost2010PropOp48
 70
     1
102
RTVSPost2010Prop49
280
     0
102
RTVSPost2010PropOp49
 70
     1
102
RTVSPost2010Prop50
 90
       50
102
RTVSPost2010PropOp50
 70
     1
102
RTVSPost2010Prop51ColorIndex
 90
      256
102
RTVSPost2010Prop51ColorRGB
 90
-16777216
102
RTVSPost2010PropOp51
 70
     0
102
RTVSPost2010Prop52
140
1.0
102
RTVSPost2010PropOp52
 70
     0
102
RTVSPost2010Prop53
 90
        2
102
RTVSPost2010PropOp53
 70
     1
102
RTVSPost2010Prop54
  1
strokes_ogs.tif
102
RTVSPost2010PropOp54
 70
     1
102
RTVSPost2010Prop55
280
     0
102
RTVSPost2010PropOp55
 70
     1
102
RTVSPost2010Prop56
140
1.0
102
RTVSPost2010PropOp56
 70
     1
102
RTVSPost2010Prop57
140
1.0
102
RTVSPost2010PropOp57
 70
     1
102
RTVSPropertyOp0
 70
     1
102
RTVSPropertyOp1
 70
     1
102
RTVSPropertyOp2
 70
     1
102
RTVSPropertyOp3
 70
     1
102
RTVSPropertyOp4
 70
     1
102
RTVSPropertyOp5
 70
     1
102
RTVSPropertyOp6
 70
     1
102
RTVSPropertyOp7
 70
     1
102
RTVSPropertyOp8
 70
     1
102
RTVSPropertyOp9
 70
     1
102
RTVSPropertyOp10
 70
     1
102
RTVSPropertyOp11
 70
     1
102
RTVSPropertyOp12
 70
     1
102
RTVSPropertyOp13
 70
     1
102
RTVSPropertyOp14
 70
     1
102
RTVSPropertyOp15
 70
     1
102
RTVSPropertyOp16
 70
     1
102
RTVSPropertyOp17
 70
     1
102
RTVSPropertyOp18
 70
     1
102
RTVSPropertyOp19
 70
     1
102
RTVSPropertyOp20
 70
     1
102
RTVSPropertyOp21
 70
     1
102
RTVSPropertyOp22
 70
     1
102
RTVSPropertyOp23
 70
     1
102
RTVSPropertyOp24
 70
     1
102
RTVSPropertyOp25
 70
     1
102
RTVSPropertyOp26
 70
     1
102
RTVSPropertyOp27
 70
     1
102
RTVSPropertyOp28
 70
     1
102
RTVSPropertyOp29
 70
     1
102
RTVSPropertyOp30
 70
     1
102
RTVSPropertyOp31
 70
     1
102
RTVSPropertyOp32
 70
     1
102
RTVSPropertyOp33
 70
     1
102
RTVSPropertyOp34
 70
     1
102
RTVSPropertyOp35
 70
     1
102
RTVSPropertyOp36
 70
     1
102
RTVSPropertyOp37
 70
     1
102
RTVSPropertyOp38
 70
     1
102
RTVSPropertyOp39
 70
     1
102
RTVSPropertyOp40
 70
     1
102
RTVSPropertyOp41
 70
     1
102
RTVSPropertyOp42
 70
     1
102
RTVSPropertyOp43
 70
     1
102
RTVSPropertyOp44
 70
     1
102
RTVSPropertyOp45
 70
     1
102
RTVSPropertyOp46
 70
     1
102
RTVSPropertyOp47
 70
     1
102
RTVSPropertyOp48
 70
     1
102
RTVSPropertyOp49
 70
     1
102
RTVSPropertyOp50
 70
     1
102
RTVSPropertyOp51
 70
     0
102
RTVSPropertyOp52
 70
     0
102
RTVSPropertyOp53
 70
     1
102
RTVSPropertyOp54
 70
     1
102
RTVSPropertyOp55
 70
     1
102
RTVSPropertyOp56
 70
     1
102
RTVSPropertyOp57
 70
     1
102
RTVSPropertyOp58
 70
     1
102
RTVSPropertyOp59
 70
     1
102
RTVSPropertyOp60
 70
     1
102
RTVSPropertyOp61
 70
     1
102
RTVSPropertyOp62
 70
     1
  0
ENDSEC
  0
EOF
