  0
SECTION
  2
HEADER
  9
$ACADVER
  1
AC1015
  9
$ACADMAINTVER
 70
    20
  9
$DWGCODEPAGE
  3
ANSI_932
  9
$INSBASE
 10
0.0
 20
0.0
 30
0.0
  9
$EXTMIN
 10
-0.1281640493871237
 20
-0.1800399741405272
 30
-0.0015258207003583
  9
$EXTMAX
 10
4200.128183607161
 20
5900.180067448153
 30
0.0000000349246037
  9
$LIMMIN
 10
0.0
 20
0.0
  9
$LIMMAX
 10
297.0
 20
210.0
  9
$ORTHOMODE
 70
     1
  9
$REGENMODE
 70
     1
  9
$FILLMODE
 70
     0
  9
$QTEXTMODE
 70
     0
  9
$MIRRTEXT
 70
     1
  9
$LTSCALE
 40
100.0
  9
$ATTMODE
 70
     1
  9
$TEXTSIZE
 40
180.0
  9
$TRACEWID
 40
0.05
  9
$TEXTSTYLE
  7
STANDARD
  9
$CLAYER
  8
3
  9
$CELTYPE
  6
ByLayer
  9
$CECOLOR
 62
   256
  9
$CELTSCALE
 40
1.0
  9
$DISPSILH
 70
     0
  9
$DIMSCALE
 40
20.0
  9
$DIMASZ
 40
2.0
  9
$DIMEXO
 40
1.0
  9
$DIMDLI
 40
10.0
  9
$DIMRND
 40
0.0
  9
$DIMDLE
 40
0.0
  9
$DIMEXE
 40
1.0
  9
$DIMTP
 40
1.0
  9
$DIMTM
 40
1.0
  9
$DIMTXT
 40
3.0
  9
$DIMCEN
 40
0.0
  9
$DIMTSZ
 40
0.0
  9
$DIMTOL
 70
     0
  9
$DIMLIM
 70
     0
  9
$DIMTIH
 70
     0
  9
$DIMTOH
 70
     0
  9
$DIMSE1
 70
     0
  9
$DIMSE2
 70
     0
  9
$DIMTAD
 70
     1
  9
$DIMZIN
 70
     8
  9
$DIMBLK
  1

  9
$DIMASO
 70
     1
  9
$DIMSHO
 70
     1
  9
$DIMPOST
  1

  9
$DIMAPOST
  1

  9
$DIMALT
 70
     0
  9
$DIMALTD
 70
     2
  9
$DIMALTF
 40
0.039
  9
$DIMLFAC
 40
1.0
  9
$DIMTOFL
 70
     1
  9
$DIMTVP
 40
0.0
  9
$DIMTIX
 70
     0
  9
$DIMSOXD
 70
     0
  9
$DIMSAH
 70
     1
  9
$DIMBLK1
  1
OPEN
  9
$DIMBLK2
  1
OPEN
  9
$DIMSTYLE
  2
IGA
  9
$DIMCLRD
 70
     0
  9
$DIMCLRE
 70
     0
  9
$DIMCLRT
 70
     0
  9
$DIMTFAC
 40
10.0
  9
$DIMGAP
 40
1.0
  9
$DIMJUST
 70
     0
  9
$DIMSD1
 70
     0
  9
$DIMSD2
 70
     0
  9
$DIMTOLJ
 70
     1
  9
$DIMTZIN
 70
     0
  9
$DIMALTZ
 70
     0
  9
$DIMALTTZ
 70
     0
  9
$DIMUPT
 70
     0
  9
$DIMDEC
 70
     4
  9
$DIMTDEC
 70
     4
  9
$DIMALTU
 70
     2
  9
$DIMALTTD
 70
     2
  9
$DIMTXSTY
  7
STANDARD
  9
$DIMAUNIT
 70
     0
  9
$DIMADEC
 70
     0
  9
$DIMALTRND
 40
0.0
  9
$DIMAZIN
 70
     0
  9
$DIMDSEP
 70
    46
  9
$DIMATFIT
 70
     3
  9
$DIMFRAC
 70
     0
  9
$DIMLDRBLK
  1
OPEN
  9
$DIMLUNIT
 70
     2
  9
$DIMLWD
 70
    -2
  9
$DIMLWE
 70
    -2
  9
$DIMTMOVE
 70
     0
  9
$LUNITS
 70
     2
  9
$LUPREC
 70
     3
  9
$SKETCHINC
 40
0.1
  9
$FILLETRAD
 40
50.0
  9
$AUNITS
 70
     0
  9
$AUPREC
 70
     0
  9
$MENU
  1
acad
  9
$ELEVATION
 40
0.0
  9
$PELEVATION
 40
0.0
  9
$THICKNESS
 40
0.0
  9
$LIMCHECK
 70
     0
  9
$CHAMFERA
 40
0.5
  9
$CHAMFERB
 40
0.5
  9
$CHAMFERC
 40
0.0
  9
$CHAMFERD
 40
0.0
  9
$SKPOLY
 70
     0
  9
$TDCREATE
 40
2451387.491829167
  9
$TDUCREATE
 40
2451387.116829167
  9
$TDUPDATE
 40
2460262.662952558
  9
$TDUUPDATE
 40
2460262.287952558
  9
$TDINDWG
 40
0.0904160532
  9
$TDUSRTIMER
 40
0.0904158102
  9
$USRTIMER
 70
     1
  9
$ANGBASE
 50
0.0
  9
$ANGDIR
 70
     0
  9
$PDMODE
 70
     0
  9
$PDSIZE
 40
0.0
  9
$PLINEWID
 40
0.0
  9
$SPLFRAME
 70
     0
  9
$SPLINETYPE
 70
     6
  9
$SPLINESEGS
 70
     8
  9
$HANDSEED
  5
84D9
  9
$SURFTAB1
 70
     6
  9
$SURFTAB2
 70
     6
  9
$SURFTYPE
 70
     6
  9
$SURFU
 70
     6
  9
$SURFV
 70
     6
  9
$UCSBASE
  2

  9
$UCSNAME
  2

  9
$UCSORG
 10
0.0
 20
0.0
 30
0.0
  9
$UCSXDIR
 10
1.0
 20
0.0
 30
0.0
  9
$UCSYDIR
 10
0.0
 20
1.0
 30
0.0
  9
$UCSORTHOREF
  2

  9
$UCSORTHOVIEW
 70
     0
  9
$UCSORGTOP
 10
0.0
 20
0.0
 30
0.0
  9
$UCSORGBOTTOM
 10
0.0
 20
0.0
 30
0.0
  9
$UCSORGLEFT
 10
0.0
 20
0.0
 30
0.0
  9
$UCSORGRIGHT
 10
0.0
 20
0.0
 30
0.0
  9
$UCSORGFRONT
 10
0.0
 20
0.0
 30
0.0
  9
$UCSORGBACK
 10
0.0
 20
0.0
 30
0.0
  9
$PUCSBASE
  2

  9
$PUCSNAME
  2

  9
$PUCSORG
 10
0.0
 20
0.0
 30
0.0
  9
$PUCSXDIR
 10
1.0
 20
0.0
 30
0.0
  9
$PUCSYDIR
 10
0.0
 20
1.0
 30
0.0
  9
$PUCSORTHOREF
  2

  9
$PUCSORTHOVIEW
 70
     0
  9
$PUCSORGTOP
 10
0.0
 20
0.0
 30
0.0
  9
$PUCSORGBOTTOM
 10
0.0
 20
0.0
 30
0.0
  9
$PUCSORGLEFT
 10
0.0
 20
0.0
 30
0.0
  9
$PUCSORGRIGHT
 10
0.0
 20
0.0
 30
0.0
  9
$PUCSORGFRONT
 10
0.0
 20
0.0
 30
0.0
  9
$PUCSORGBACK
 10
0.0
 20
0.0
 30
0.0
  9
$USERI1
 70
     0
  9
$USERI2
 70
     0
  9
$USERI3
 70
     0
  9
$USERI4
 70
     0
  9
$USERI5
 70
     0
  9
$USERR1
 40
0.0
  9
$USERR2
 40
0.0
  9
$USERR3
 40
0.0
  9
$USERR4
 40
0.0
  9
$USERR5
 40
0.0
  9
$WORLDVIEW
 70
     1
  9
$SHADEDGE
 70
     3
  9
$SHADEDIF
 70
    70
  9
$TILEMODE
 70
     1
  9
$MAXACTVP
 70
    16
  9
$PINSBASE
 10
0.0
 20
0.0
 30
0.0
  9
$PLIMCHECK
 70
     0
  9
$PEXTMIN
 10
1.000000000000000E+20
 20
1.000000000000000E+20
 30
1.000000000000000E+20
  9
$PEXTMAX
 10
-1.000000000000000E+20
 20
-1.000000000000000E+20
 30
-1.000000000000000E+20
  9
$PLIMMIN
 10
0.0
 20
0.0
  9
$PLIMMAX
 10
12.0
 20
9.0
  9
$UNITMODE
 70
     0
  9
$VISRETAIN
 70
     0
  9
$PLINEGEN
 70
     0
  9
$PSLTSCALE
 70
     1
  9
$TREEDEPTH
 70
  3020
  9
$CMLSTYLE
  2
Standard
  9
$CMLJUST
 70
     0
  9
$CMLSCALE
 40
1.0
  9
$PROXYGRAPHICS
 70
     1
  9
$MEASUREMENT
 70
     0
  9
$CELWEIGHT
370
    -1
  9
$ENDCAPS
280
     0
  9
$JOINSTYLE
280
     0
  9
$LWDISPLAY
290
     0
  9
$INSUNITS
 70
     0
  9
$HYPERLINKBASE
  1

  9
$STYLESHEET
  1

  9
$XEDIT
290
     1
  9
$CEPSNTYPE
380
     0
  9
$PSTYLEMODE
290
     1
  9
$FINGERPRINTGUID
  2
{00500E4E-2A9E-4B82-961C-CD2B10D6F083}
  9
$VERSIONGUID
  2
{07E9AED3-4A8D-4C1D-B056-D31622E84A67}
  9
$EXTNAMES
290
     1
  9
$PSVPSCALE
 40
0.0
  9
$OLESTARTUP
290
     0
  0
ENDSEC
  0
SECTION
  2
CLASSES
  0
CLASS
  1
ACDBDICTIONARYWDFLT
  2
AcDbDictionaryWithDefault
  3
ObjectDBX Classes
 90
        0
280
     0
281
     0
  0
CLASS
  1
MATERIAL
  2
AcDbMaterial
  3
ObjectDBX Classes
 90
     1153
280
     0
281
     0
  0
CLASS
  1
VISUALSTYLE
  2
AcDbVisualStyle
  3
ObjectDBX Classes
 90
     4095
280
     0
281
     0
  0
CLASS
  1
SCALE
  2
AcDbScale
  3
ObjectDBX Classes
 90
     1153
280
     0
281
     0
  0
CLASS
  1
TABLESTYLE
  2
AcDbTableStyle
  3
ObjectDBX Classes
 90
     4095
280
     0
281
     0
  0
CLASS
  1
MLEADERSTYLE
  2
AcDbMLeaderStyle
  3
ACDB_MLEADERSTYLE_CLASS
 90
     4095
280
     0
281
     0
  0
CLASS
  1
ACDBSECTIONVIEWSTYLE
  2
AcDbSectionViewStyle
  3
ObjectDBX Classes
 90
     1025
280
     0
281
     0
  0
CLASS
  1
ACDBDETAILVIEWSTYLE
  2
AcDbDetailViewStyle
  3
ObjectDBX Classes
 90
     1025
280
     0
281
     0
  0
CLASS
  1
DICTIONARYVAR
  2
AcDbDictionaryVar
  3
ObjectDBX Classes
 90
        0
280
     0
281
     0
  0
CLASS
  1
CELLSTYLEMAP
  2
AcDbCellStyleMap
  3
ObjectDBX Classes
 90
     1152
280
     0
281
     0
  0
CLASS
  1
ACDBPLACEHOLDER
  2
AcDbPlaceHolder
  3
ObjectDBX Classes
 90
        0
280
     0
281
     0
  0
CLASS
  1
LAYOUT
  2
AcDbLayout
  3
ObjectDBX Classes
 90
        0
280
     0
281
     0
  0
ENDSEC
  0
SECTION
  2
TABLES
  0
TABLE
  2
VPORT
  5
813C
330
0
100
AcDbSymbolTable
 70
     1
  0
VPORT
  5
81A8
330
813C
100
AcDbSymbolTableRecord
100
AcDbViewportTableRecord
  2
*ACTIVE
 70
     0
 10
0.0
 20
0.0
 11
1.0
 21
1.0
 12
2100.000009778887
 22
2950.000013737006
 13
0.0
 23
0.0
 14
10.0
 24
10.0
 15
10.0
 25
10.0
 16
0.0
 26
0.0
 36
1.0
 17
0.0
 27
0.0
 37
0.0
 40
5938.142562752639
 41
2.050213675213675
 42
50.0
 43
0.0
 44
0.0
 50
0.0
 51
0.0
 71
     0
 72
   100
 73
     1
 74
     0
 75
     0
 76
     0
 77
     0
 78
     0
281
     0
 65
     1
110
0.0
120
0.0
130
0.0
111
1.0
121
0.0
131
0.0
112
0.0
122
1.0
132
0.0
 79
     0
146
0.0
1001
ACAD_NAV_VCDISPLAY
1070
     3
  0
ENDTAB
  0
TABLE
  2
LTYPE
  5
8139
330
0
100
AcDbSymbolTable
 70
     3
  0
LTYPE
  5
818E
330
8139
100
AcDbSymbolTableRecord
100
AcDbLinetypeTableRecord
  2
ByBlock
 70
     0
  3

 72
    65
 73
     0
 40
0.0
  0
LTYPE
  5
818F
330
8139
100
AcDbSymbolTableRecord
100
AcDbLinetypeTableRecord
  2
ByLayer
 70
     0
  3

 72
    65
 73
     0
 40
0.0
  0
LTYPE
  5
8190
330
8139
100
AcDbSymbolTableRecord
100
AcDbLinetypeTableRecord
  2
CONTINUOUS
 70
     0
  3
Solid line
 72
    65
 73
     0
 40
0.0
  0
LTYPE
  5
81A9
330
8139
100
AcDbSymbolTableRecord
100
AcDbLinetypeTableRecord
  2
CENTER
 70
     0
  3
____ _ ____ _ ____ _ ____ _ ____ _ ____ _ ____ 
 72
    65
 73
     4
 40
2.0
 49
1.25
 74
     0
 49
-0.25
 74
     0
 49
0.25
 74
     0
 49
-0.25
 74
     0
  0
ENDTAB
  0
TABLE
  2
LAYER
  5
8136
330
0
100
AcDbSymbolTable
 70
     6
  0
LAYER
  5
8188
102
{ACAD_XDICTIONARY
360
8483
102
}
330
8136
100
AcDbSymbolTableRecord
100
AcDbLayerTableRecord
  2
0
 70
     0
 62
     7
  6
CONTINUOUS
370
    -3
390
8143
  0
LAYER
  5
81A7
102
{ACAD_XDICTIONARY
360
8485
102
}
330
8136
100
AcDbSymbolTableRecord
100
AcDbLayerTableRecord
  2
3
 70
     0
 62
     2
  6
CONTINUOUS
370
    -3
390
8143
  0
LAYER
  5
81AA
102
{ACAD_XDICTIONARY
360
8487
102
}
330
8136
100
AcDbSymbolTableRecord
100
AcDbLayerTableRecord
  2
2
 70
     0
 62
     3
  6
CENTER
370
    -3
390
8143
  0
LAYER
  5
81AB
102
{ACAD_XDICTIONARY
360
8489
102
}
330
8136
100
AcDbSymbolTableRecord
100
AcDbLayerTableRecord
  2
1
 70
     0
 62
     4
  6
CONTINUOUS
370
    -3
390
8143
  0
LAYER
  5
81AC
102
{ACAD_XDICTIONARY
360
848B
102
}
330
8136
100
AcDbSymbolTableRecord
100
AcDbLayerTableRecord
  2
4
 70
     0
 62
     7
  6
CONTINUOUS
370
    -3
390
8143
  0
LAYER
  5
81AD
330
8136
100
AcDbSymbolTableRecord
100
AcDbLayerTableRecord
  2
DEFPOINTS
 70
     0
 62
     7
  6
CONTINUOUS
290
     0
370
    -3
390
8143
  0
ENDTAB
  0
TABLE
  2
STYLE
  5
8137
330
0
100
AcDbSymbolTable
 70
     2
  0
STYLE
  5
8189
330
8137
100
AcDbSymbolTableRecord
100
AcDbTextStyleTableRecord
  2
STANDARD
 70
     0
 40
0.0
 41
1.0
 50
0.0
 71
     0
 42
180.0
  3
simplex.shx
  4
extfont.shx
  0
STYLE
  5
818D
330
8137
100
AcDbSymbolTableRecord
100
AcDbTextStyleTableRecord
  2
Annotative
 70
     0
 40
0.0
 41
1.0
 50
0.0
 71
     0
 42
0.2
  3
txt
  4

1001
AcadAnnotative
1000
AnnotativeData
1002
{
1070
     1
1070
     1
1002
}
  0
ENDTAB
  0
TABLE
  2
VIEW
  5
813A
330
0
100
AcDbSymbolTable
 70
     0
  0
ENDTAB
  0
TABLE
  2
UCS
  5
813B
330
0
100
AcDbSymbolTable
 70
     0
  0
ENDTAB
  0
TABLE
  2
APPID
  5
813D
330
0
100
AcDbSymbolTable
 70
     8
  0
APPID
  5
818A
330
813D
100
AcDbSymbolTableRecord
100
AcDbRegAppTableRecord
  2
ACAD
 70
     0
  0
APPID
  5
8191
330
813D
100
AcDbSymbolTableRecord
100
AcDbRegAppTableRecord
  2
AcadAnnotative
 70
     0
  0
APPID
  5
8272
330
813D
100
AcDbSymbolTableRecord
100
AcDbRegAppTableRecord
  2
ACAD_DSTYLE_DIMJAG
 70
     0
  0
APPID
  5
8273
330
813D
100
AcDbSymbolTableRecord
100
AcDbRegAppTableRecord
  2
ACAD_DSTYLE_DIMTALN
 70
     0
  0
APPID
  5
8319
330
813D
100
AcDbSymbolTableRecord
100
AcDbRegAppTableRecord
  2
AcadAnnoMonitorAlertIconDisabled
 70
     0
  0
APPID
  5
831A
330
813D
100
AcDbSymbolTableRecord
100
AcDbRegAppTableRecord
  2
ACAD_EXEMPT_FROM_CAD_STANDARDS
 70
     0
  0
APPID
  5
8497
330
813D
100
AcDbSymbolTableRecord
100
AcDbRegAppTableRecord
  2
ACAD_NAV_VCDISPLAY
 70
     0
  0
APPID
  5
84D0
330
813D
100
AcDbSymbolTableRecord
100
AcDbRegAppTableRecord
  2
ACAD_MLEADERVER
 70
     0
  0
ENDTAB
  0
TABLE
  2
DIMSTYLE
  5
813E
330
0
100
AcDbSymbolTable
 70
     4
100
AcDbDimStyleTable
 71
     1
340
81AE
  0
DIMSTYLE
105
818B
102
{ACAD_REACTORS
330
7C1F
330
7C20
330
7C22
330
7C4A
330
7C4D
330
7C80
330
7C81
330
7C82
330
7C88
102
}
330
813E
100
AcDbSymbolTableRecord
100
AcDbDimStyleTableRecord
  2
Standard
 70
     0
340
8189
  0
DIMSTYLE
105
818C
330
813E
100
AcDbSymbolTableRecord
100
AcDbDimStyleTableRecord
  2
Annotative
 70
     0
340
8189
1001
AcadAnnotative
1000
AnnotativeData
1002
{
1070
     1
1070
     1
1002
}
  0
DIMSTYLE
105
81AE
102
{ACAD_REACTORS
330
81EC
330
81F9
330
8274
330
8281
330
828E
330
829B
330
82BA
330
82C7
330
82DD
330
82EA
330
82FC
330
844E
330
846D
102
}
330
813E
100
AcDbSymbolTableRecord
100
AcDbDimStyleTableRecord
  2
IGA
 70
     0
 40
2.0
 41
2.0
 42
0.5
 43
10.0
 44
1.0
 47
1.0
 48
1.0
 73
     0
 74
     0
 77
     1
 78
     8
140
3.0
141
0.0
143
0.03937
146
10.0
147
1.0
173
     1
271
     3
272
     3
279
     2
284
     8
285
     8
286
     8
340
8189
  0
DIMSTYLE
105
81AF
330
813E
100
AcDbSymbolTableRecord
100
AcDbDimStyleTableRecord
  2
MATSU
 70
     0
 41
2.0
 42
1.0
 43
10.0
 44
1.0
 73
     0
 74
     0
 77
     1
 78
     8
140
3.0
141
0.0
143
0.03937
147
0.5
172
     1
173
     1
176
   256
177
   256
178
   256
271
     3
272
     3
279
     2
284
     8
285
     8
286
     8
340
8189
  0
ENDTAB
  0
TABLE
  2
BLOCK_RECORD
  5
8135
330
0
100
AcDbSymbolTable
 70
    49
  0
BLOCK_RECORD
  5
81A3
330
8135
100
AcDbSymbolTableRecord
100
AcDbBlockTableRecord
  2
*Model_Space
340
81A6
  0
BLOCK_RECORD
  5
819F
330
8135
100
AcDbSymbolTableRecord
100
AcDbBlockTableRecord
  2
*Paper_Space
340
81A2
  0
BLOCK_RECORD
  5
81B3
330
8135
100
AcDbSymbolTableRecord
100
AcDbBlockTableRecord
  2
$MODEL_SPACE
340
0
  0
BLOCK_RECORD
  5
81B5
330
8135
100
AcDbSymbolTableRecord
100
AcDbBlockTableRecord
  2
$PAPER_SPACE
340
0
  0
BLOCK_RECORD
  5
81B7
330
8135
100
AcDbSymbolTableRecord
100
AcDbBlockTableRecord
  2
_OPEN
340
0
102
{BLKREFS
331
827B
331
827C
331
8288
331
8289
331
8295
331
8296
331
82A2
331
82A3
331
82AB
331
82AC
331
800E
331
800F
331
8120
331
8127
331
8128
331
8022
331
8023
331
802F
331
8030
331
803C
331
803D
331
7E07
331
7E08
331
7F05
331
7F06
331
7E3E
331
7E3F
331
7E49
331
7E4A
331
7E54
331
7E55
331
7E5F
331
7E60
331
7ECF
331
8118
331
811F
331
8049
331
804A
331
8091
331
8092
331
82B4
331
82B5
331
82C1
331
82C2
331
82D7
331
82D8
331
7DD0
331
7DD1
331
7DDB
331
7DDC
331
7EE5
331
7EE6
331
7ED0
331
7EDA
331
7EDB
331
810C
331
810D
331
8424
331
8425
331
8441
331
8449
331
8467
331
8468
331
847D
331
847E
102
}
  0
BLOCK_RECORD
  5
81B9
330
8135
100
AcDbSymbolTableRecord
100
AcDbBlockTableRecord
  2
YA_N
340
0
102
{BLKREFS
331
7BEF
331
7C06
102
}
  0
BLOCK_RECORD
  5
81BB
330
8135
100
AcDbSymbolTableRecord
100
AcDbBlockTableRecord
  2
*D4
340
0
  0
BLOCK_RECORD
  5
81BD
330
8135
100
AcDbSymbolTableRecord
100
AcDbBlockTableRecord
  2
*D5
340
0
  0
BLOCK_RECORD
  5
81BF
330
8135
100
AcDbSymbolTableRecord
100
AcDbBlockTableRecord
  2
*D6
340
0
  0
BLOCK_RECORD
  5
81C1
330
8135
100
AcDbSymbolTableRecord
100
AcDbBlockTableRecord
  2
*D7
340
0
  0
BLOCK_RECORD
  5
81C3
330
8135
100
AcDbSymbolTableRecord
100
AcDbBlockTableRecord
  2
*D8
340
0
  0
BLOCK_RECORD
  5
81C5
330
8135
100
AcDbSymbolTableRecord
100
AcDbBlockTableRecord
  2
*D9
340
0
  0
BLOCK_RECORD
  5
81C7
330
8135
100
AcDbSymbolTableRecord
100
AcDbBlockTableRecord
  2
*D10
340
0
  0
BLOCK_RECORD
  5
81C9
330
8135
100
AcDbSymbolTableRecord
100
AcDbBlockTableRecord
  2
*D11
340
0
  0
BLOCK_RECORD
  5
81CB
330
8135
100
AcDbSymbolTableRecord
100
AcDbBlockTableRecord
  2
*D12
340
0
  0
BLOCK_RECORD
  5
81CD
330
8135
100
AcDbSymbolTableRecord
100
AcDbBlockTableRecord
  2
*D13
340
0
  0
BLOCK_RECORD
  5
81CF
330
8135
100
AcDbSymbolTableRecord
100
AcDbBlockTableRecord
  2
*D14
340
0
  0
BLOCK_RECORD
  5
81D1
330
8135
100
AcDbSymbolTableRecord
100
AcDbBlockTableRecord
  2
*D15
340
0
  0
BLOCK_RECORD
  5
81D3
330
8135
100
AcDbSymbolTableRecord
100
AcDbBlockTableRecord
  2
*D16
340
0
  0
BLOCK_RECORD
  5
81D5
330
8135
100
AcDbSymbolTableRecord
100
AcDbBlockTableRecord
  2
_DOT
340
0
102
{BLKREFS
331
8117
102
}
  0
BLOCK_RECORD
  5
81D6
330
8135
100
AcDbSymbolTableRecord
100
AcDbBlockTableRecord
  2
*D18
340
0
  0
BLOCK_RECORD
  5
81D8
330
8135
100
AcDbSymbolTableRecord
100
AcDbBlockTableRecord
  2
*D19
340
0
  0
BLOCK_RECORD
  5
81DA
330
8135
100
AcDbSymbolTableRecord
100
AcDbBlockTableRecord
  2
*D20
340
0
  0
BLOCK_RECORD
  5
81DD
330
8135
100
AcDbSymbolTableRecord
100
AcDbBlockTableRecord
  2
*D21
340
0
  0
BLOCK_RECORD
  5
81DF
330
8135
100
AcDbSymbolTableRecord
100
AcDbBlockTableRecord
  2
*D22
340
0
  0
BLOCK_RECORD
  5
81E1
330
8135
100
AcDbSymbolTableRecord
100
AcDbBlockTableRecord
  2
*D23
340
0
  0
BLOCK_RECORD
  5
81E3
330
8135
100
AcDbSymbolTableRecord
100
AcDbBlockTableRecord
  2
*D24
340
0
  0
BLOCK_RECORD
  5
81E5
330
8135
100
AcDbSymbolTableRecord
100
AcDbBlockTableRecord
  2
_NONE
340
0
  0
BLOCK_RECORD
  5
81E7
330
8135
100
AcDbSymbolTableRecord
100
AcDbBlockTableRecord
  2
*D26
340
0
  0
BLOCK_RECORD
  5
81E9
330
8135
100
AcDbSymbolTableRecord
100
AcDbBlockTableRecord
  2
*D27
340
0
  0
BLOCK_RECORD
  5
81ED
330
8135
100
AcDbSymbolTableRecord
100
AcDbBlockTableRecord
  2
*D28
340
0
  0
BLOCK_RECORD
  5
81FA
330
8135
100
AcDbSymbolTableRecord
100
AcDbBlockTableRecord
  2
*D29
340
0
  0
BLOCK_RECORD
  5
8218
330
8135
100
AcDbSymbolTableRecord
100
AcDbBlockTableRecord
  2
*D30
340
0
  0
BLOCK_RECORD
  5
8225
330
8135
100
AcDbSymbolTableRecord
100
AcDbBlockTableRecord
  2
*D31
340
0
  0
BLOCK_RECORD
  5
8232
330
8135
100
AcDbSymbolTableRecord
100
AcDbBlockTableRecord
  2
*D32
340
0
  0
BLOCK_RECORD
  5
823F
330
8135
100
AcDbSymbolTableRecord
100
AcDbBlockTableRecord
  2
*D33
340
0
  0
BLOCK_RECORD
  5
824C
330
8135
100
AcDbSymbolTableRecord
100
AcDbBlockTableRecord
  2
*D34
340
0
  0
BLOCK_RECORD
  5
8257
330
8135
100
AcDbSymbolTableRecord
100
AcDbBlockTableRecord
  2
*D35
340
0
  0
BLOCK_RECORD
  5
8264
330
8135
100
AcDbSymbolTableRecord
100
AcDbBlockTableRecord
  2
*D36
340
0
  0
BLOCK_RECORD
  5
8275
330
8135
100
AcDbSymbolTableRecord
100
AcDbBlockTableRecord
  2
*D37
340
0
  0
BLOCK_RECORD
  5
8282
330
8135
100
AcDbSymbolTableRecord
100
AcDbBlockTableRecord
  2
*D38
340
0
  0
BLOCK_RECORD
  5
828F
330
8135
100
AcDbSymbolTableRecord
100
AcDbBlockTableRecord
  2
*D39
340
0
  0
BLOCK_RECORD
  5
829C
330
8135
100
AcDbSymbolTableRecord
100
AcDbBlockTableRecord
  2
*D40
340
0
  0
BLOCK_RECORD
  5
82BB
330
8135
100
AcDbSymbolTableRecord
100
AcDbBlockTableRecord
  2
*D41
340
0
  0
BLOCK_RECORD
  5
82C8
330
8135
100
AcDbSymbolTableRecord
100
AcDbBlockTableRecord
  2
*D42
340
0
  0
BLOCK_RECORD
  5
82DE
330
8135
100
AcDbSymbolTableRecord
100
AcDbBlockTableRecord
  2
*D43
340
0
  0
BLOCK_RECORD
  5
82EB
330
8135
100
AcDbSymbolTableRecord
100
AcDbBlockTableRecord
  2
*D44
340
0
  0
BLOCK_RECORD
  5
82FD
330
8135
100
AcDbSymbolTableRecord
100
AcDbBlockTableRecord
  2
*D45
340
0
  0
BLOCK_RECORD
  5
8393
330
8135
100
AcDbSymbolTableRecord
100
AcDbBlockTableRecord
  2
_DotSmall
340
0
102
{BLKREFS
331
8440
331
844A
102
}
  0
BLOCK_RECORD
  5
844F
330
8135
100
AcDbSymbolTableRecord
100
AcDbBlockTableRecord
  2
*D47
340
0
  0
BLOCK_RECORD
  5
846E
330
8135
100
AcDbSymbolTableRecord
100
AcDbBlockTableRecord
  2
*D48
340
0
  0
ENDTAB
  0
ENDSEC
  0
SECTION
  2
BLOCKS
  0
BLOCK
  5
81A4
330
81A3
100
AcDbEntity
  8
0
100
AcDbBlockBegin
  2
*Model_Space
 70
     0
 10
0.0
 20
0.0
 30
0.0
  3
*Model_Space
  1

  0
ENDBLK
  5
81A5
330
81A3
100
AcDbEntity
  8
0
100
AcDbBlockEnd
  0
BLOCK
  5
81A0
330
819F
100
AcDbEntity
 67
     1
  8
0
100
AcDbBlockBegin
  2
*Paper_Space
 70
     0
 10
0.0
 20
0.0
 30
0.0
  3
*Paper_Space
  1

  0
ENDBLK
  5
81A1
330
819F
100
AcDbEntity
 67
     1
  8
0
100
AcDbBlockEnd
  0
BLOCK
  5
81B4
330
81B3
100
AcDbEntity
  8
0
100
AcDbBlockBegin
  2
$MODEL_SPACE
 70
     0
 10
0.0
 20
0.0
 30
0.0
  3
$MODEL_SPACE
  1

  0
ENDBLK
  5
1B
330
81B3
100
AcDbEntity
  8
0
100
AcDbBlockEnd
  0
BLOCK
  5
81B6
330
81B5
100
AcDbEntity
  8
0
100
AcDbBlockBegin
  2
$PAPER_SPACE
 70
     0
 10
0.0
 20
0.0
 30
0.0
  3
$PAPER_SPACE
  1

  0
ENDBLK
  5
18
330
81B5
100
AcDbEntity
  8
0
100
AcDbBlockEnd
  0
BLOCK
  5
81B8
330
81B7
100
AcDbEntity
  8
0
100
AcDbBlockBegin
  2
_OPEN
 70
     0
 10
0.0
 20
0.0
 30
0.0
  3
_OPEN
  1

  0
LINE
  5
79FD
330
81B7
100
AcDbEntity
  8
0
  6
ByBlock
 62
     0
100
AcDbLine
 10
-1.0
 20
0.1666666666666666
 30
0.0
 11
0.0
 21
0.0
 31
0.0
  0
LINE
  5
79FE
330
81B7
100
AcDbEntity
  8
0
  6
ByBlock
 62
     0
100
AcDbLine
 10
0.0
 20
0.0
 30
0.0
 11
-1.0
 21
-0.1666666666666666
 31
0.0
  0
LINE
  5
79FF
330
81B7
100
AcDbEntity
  8
0
  6
ByBlock
 62
     0
100
AcDbLine
 10
0.0
 20
0.0
 30
0.0
 11
-1.0
 21
0.0
 31
0.0
  0
ENDBLK
  5
7A01
330
81B7
100
AcDbEntity
  8
0
100
AcDbBlockEnd
  0
BLOCK
  5
81BA
330
81B9
100
AcDbEntity
  8
0
100
AcDbBlockBegin
  2
YA_N
 70
     0
 10
0.0
 20
0.0
 30
0.0
  3
YA_N
  1

  0
ENDBLK
  5
7A0C
330
81B9
100
AcDbEntity
  8
0
100
AcDbBlockEnd
  0
BLOCK
  5
81BC
330
81BB
100
AcDbEntity
  8
0
100
AcDbBlockBegin
  2
*D4
 70
     1
 10
0.0
 20
0.0
 30
0.0
  3
*D4
  1

  0
LINE
  5
7DCD
330
81BB
100
AcDbEntity
  8
0
  6
ByBlock
100
AcDbLine
 10
-155.4140300875705
 20
1246.09762645012
 30
0.0
 11
-305.3718520045804
 21
1246.09762645012
 31
0.0
  0
LINE
  5
7DCE
330
81BB
100
AcDbEntity
  8
0
  6
ByBlock
100
AcDbLine
 10
-155.4140300875705
 20
596.0976264501205
 30
0.0
 11
-305.3718520045804
 21
596.0976264501205
 31
0.0
  0
LINE
  5
7DCF
330
81BB
100
AcDbEntity
  8
0
  6
ByBlock
100
AcDbLine
 10
-285.3718520045804
 20
1206.09762645012
 30
0.0
 11
-285.3718520045804
 21
636.0976264501204
 31
0.0
  0
INSERT
  5
7DD0
330
81BB
100
AcDbEntity
  8
0
  6
ByBlock
100
AcDbBlockReference
  2
_OPEN
 10
-285.3718520045804
 20
1246.09762645012
 30
0.0
 41
40.0
 42
40.0
 43
40.0
 50
90.0
  0
INSERT
  5
7DD1
330
81BB
100
AcDbEntity
  8
0
  6
ByBlock
100
AcDbBlockReference
  2
_OPEN
 10
-285.3718520045804
 20
596.0976264501205
 30
0.0
 41
40.0
 42
40.0
 43
40.0
 50
270.0
  0
TEXT
  5
7DD2
330
81BB
100
AcDbEntity
  8
3
100
AcDbText
 10
-295.3718520045804
 20
843.9547693072633
 30
0.0
 40
60.0
  1
650
 50
90.0
100
AcDbText
  0
POINT
  5
7DD3
330
81BB
100
AcDbEntity
  8
DEFPOINTS
  6
ByBlock
 62
     0
100
AcDbPoint
 10
-135.4140300875706
 20
1246.09762645012
 30
0.0
  0
POINT
  5
7DD4
330
81BB
100
AcDbEntity
  8
DEFPOINTS
  6
ByBlock
 62
     0
100
AcDbPoint
 10
-135.4140300875706
 20
596.0976264501205
 30
0.0
  0
POINT
  5
7DD5
330
81BB
100
AcDbEntity
  8
DEFPOINTS
  6
ByBlock
 62
     0
100
AcDbPoint
 10
-285.3718520045804
 20
596.0976264501205
 30
0.0
  0
ENDBLK
  5
7DD6
330
81BB
100
AcDbEntity
  8
0
100
AcDbBlockEnd
  0
BLOCK
  5
81BE
330
81BD
100
AcDbEntity
  8
0
100
AcDbBlockBegin
  2
*D5
 70
     1
 10
0.0
 20
0.0
 30
0.0
  3
*D5
  1

  0
LINE
  5
7DD8
330
81BD
100
AcDbEntity
  8
0
  6
ByBlock
100
AcDbLine
 10
-155.4140300875705
 20
1246.09762645012
 30
0.0
 11
-454.9156962082632
 21
1246.09762645012
 31
0.0
  0
LINE
  5
7DD9
330
81BD
100
AcDbEntity
  8
0
  6
ByBlock
100
AcDbLine
 10
-202.3070031905663
 20
568.0976264501205
 30
0.0
 11
-454.9156962082632
 21
568.0976264501205
 31
0.0
  0
LINE
  5
7DDA
330
81BD
100
AcDbEntity
  8
0
  6
ByBlock
100
AcDbLine
 10
-434.9156962082632
 20
1206.09762645012
 30
0.0
 11
-434.9156962082632
 21
608.0976264501205
 31
0.0
  0
INSERT
  5
7DDB
330
81BD
100
AcDbEntity
  8
0
  6
ByBlock
100
AcDbBlockReference
  2
_OPEN
 10
-434.9156962082632
 20
1246.09762645012
 30
0.0
 41
40.0
 42
40.0
 43
40.0
 50
90.0
  0
INSERT
  5
7DDC
330
81BD
100
AcDbEntity
  8
0
  6
ByBlock
100
AcDbBlockReference
  2
_OPEN
 10
-434.9156962082632
 20
568.0976264501205
 30
0.0
 41
40.0
 42
40.0
 43
40.0
 50
270.0
  0
TEXT
  5
7DDD
330
81BD
100
AcDbEntity
  8
3
100
AcDbText
 10
-444.9156962082634
 20
829.9547693072632
 30
0.0
 40
60.0
  1
678
 50
90.0
100
AcDbText
  0
POINT
  5
7DDE
330
81BD
100
AcDbEntity
  8
DEFPOINTS
  6
ByBlock
 62
     0
100
AcDbPoint
 10
-135.4140300875706
 20
1246.09762645012
 30
0.0
  0
POINT
  5
7DDF
330
81BD
100
AcDbEntity
  8
DEFPOINTS
  6
ByBlock
 62
     0
100
AcDbPoint
 10
-182.3070031905663
 20
568.0976264501205
 30
0.0
  0
POINT
  5
7DE0
330
81BD
100
AcDbEntity
  8
DEFPOINTS
  6
ByBlock
 62
     0
100
AcDbPoint
 10
-434.9156962082632
 20
568.0976264501205
 30
0.0
  0
ENDBLK
  5
7DE1
330
81BD
100
AcDbEntity
  8
0
100
AcDbBlockEnd
  0
BLOCK
  5
81C0
330
81BF
100
AcDbEntity
  8
0
100
AcDbBlockBegin
  2
*D6
 70
     1
 10
0.0
 20
0.0
 30
0.0
  3
*D6
  1

  0
LINE
  5
7EE2
330
81BF
100
AcDbEntity
  8
0
  6
ByBlock
100
AcDbLine
 10
698.1223398688261
 20
2794.057551144371
 30
0.0
 11
698.1223398688261
 21
2881.724760620891
 31
0.0
  0
LINE
  5
7EE3
330
81BF
100
AcDbEntity
  8
0
  6
ByBlock
100
AcDbLine
 10
1158.122339868826
 20
2793.690386796245
 30
0.0
 11
1158.122339868826
 21
2881.724760620891
 31
0.0
  0
LINE
  5
7EE4
330
81BF
100
AcDbEntity
  8
0
  6
ByBlock
100
AcDbLine
 10
738.1223398688263
 20
2861.724760620891
 30
0.0
 11
1118.122339868826
 21
2861.724760620891
 31
0.0
  0
INSERT
  5
7EE5
330
81BF
100
AcDbEntity
  8
0
  6
ByBlock
100
AcDbBlockReference
  2
_OPEN
 10
698.1223398688261
 20
2861.724760620891
 30
0.0
 41
40.0
 42
40.0
 43
40.0
 50
180.0
  0
INSERT
  5
7EE6
330
81BF
100
AcDbEntity
  8
0
  6
ByBlock
100
AcDbBlockReference
  2
_OPEN
 10
1158.122339868826
 20
2861.724760620891
 30
0.0
 41
40.0
 42
40.0
 43
40.0
  0
TEXT
  5
7EE7
330
81BF
100
AcDbEntity
  8
3
100
AcDbText
 10
850.9794827259691
 20
2871.724760620891
 30
0.0
 40
60.0
  1
460
100
AcDbText
  0
POINT
  5
7EE8
330
81BF
100
AcDbEntity
  8
DEFPOINTS
  6
ByBlock
 62
     0
100
AcDbPoint
 10
698.1223398688261
 20
2774.057551144371
 30
0.0
  0
POINT
  5
7EE9
330
81BF
100
AcDbEntity
  8
DEFPOINTS
  6
ByBlock
 62
     0
100
AcDbPoint
 10
1158.122339868826
 20
2773.690386796245
 30
0.0
  0
POINT
  5
7EEA
330
81BF
100
AcDbEntity
  8
DEFPOINTS
  6
ByBlock
 62
     0
100
AcDbPoint
 10
1158.122339868826
 20
2861.724760620891
 30
0.0
  0
ENDBLK
  5
7EEB
330
81BF
100
AcDbEntity
  8
0
100
AcDbBlockEnd
  0
BLOCK
  5
81C2
330
81C1
100
AcDbEntity
  8
0
100
AcDbBlockBegin
  2
*D7
 70
     1
 10
0.0
 20
0.0
 30
0.0
  3
*D7
  1

  0
LINE
  5
7ED7
330
81C1
100
AcDbEntity
  8
0
  6
ByBlock
100
AcDbLine
 10
1158.122339868826
 20
2793.690386796245
 30
0.0
 11
1158.122339868826
 21
2881.504314246758
 31
0.0
  0
LINE
  5
7ED8
330
81C1
100
AcDbEntity
  8
0
  6
ByBlock
100
AcDbLine
 10
1703.912877068561
 20
2074.057551144371
 30
0.0
 11
1703.912877068561
 21
2881.504314246758
 31
0.0
  0
LINE
  5
7ED9
330
81C1
100
AcDbEntity
  8
0
  6
ByBlock
100
AcDbLine
 10
1198.122339868826
 20
2861.504314246758
 30
0.0
 11
1663.912877068561
 21
2861.504314246758
 31
0.0
  0
INSERT
  5
7EDA
330
81C1
100
AcDbEntity
  8
0
  6
ByBlock
100
AcDbBlockReference
  2
_OPEN
 10
1158.122339868826
 20
2861.504314246758
 30
0.0
 41
40.0
 42
40.0
 43
40.0
 50
180.0
  0
INSERT
  5
7EDB
330
81C1
100
AcDbEntity
  8
0
  6
ByBlock
100
AcDbBlockReference
  2
_OPEN
 10
1703.912877068561
 20
2861.504314246758
 30
0.0
 41
40.0
 42
40.0
 43
40.0
  0
TEXT
  5
7EDC
330
81C1
100
AcDbEntity
  8
3
100
AcDbText
 10
1353.874751325836
 20
2871.504314246758
 30
0.0
 40
60.0
  1
548
100
AcDbText
  0
POINT
  5
7EDD
330
81C1
100
AcDbEntity
  8
DEFPOINTS
  6
ByBlock
 62
     0
100
AcDbPoint
 10
1158.122339868826
 20
2773.690386796245
 30
0.0
  0
POINT
  5
7EDE
330
81C1
100
AcDbEntity
  8
DEFPOINTS
  6
ByBlock
 62
     0
100
AcDbPoint
 10
1703.912877068561
 20
2054.057551144371
 30
0.0
  0
POINT
  5
7EDF
330
81C1
100
AcDbEntity
  8
DEFPOINTS
  6
ByBlock
 62
     0
100
AcDbPoint
 10
1703.912877068561
 20
2861.504314246758
 30
0.0
  0
ENDBLK
  5
7EE0
330
81C1
100
AcDbEntity
  8
0
100
AcDbBlockEnd
  0
BLOCK
  5
81C4
330
81C3
100
AcDbEntity
  8
0
100
AcDbBlockBegin
  2
*D8
 70
     1
 10
0.0
 20
0.0
 30
0.0
  3
*D8
  1

  0
LINE
  5
8109
330
81C3
100
AcDbEntity
  8
3
 62
     0
100
AcDbLine
 10
831.3251039243441
 20
2054.057551144371
 30
0.0
 11
568.0161204082907
 21
2054.057551144371
 31
0.0
  0
LINE
  5
810A
330
81C3
100
AcDbEntity
  8
3
 62
     0
100
AcDbLine
 10
938.2180770273395
 20
1549.057551144371
 30
0.0
 11
568.0161204082905
 21
1549.057551144371
 31
0.0
  0
LINE
  5
810B
330
81C3
100
AcDbEntity
  8
3
 62
     0
100
AcDbLine
 10
588.0161204082908
 20
2014.057551144371
 30
0.0
 11
588.0161204082904
 21
1589.057551144371
 31
0.0
  0
INSERT
  5
810C
330
81C3
100
AcDbEntity
  8
3
 62
     0
100
AcDbBlockReference
  2
_OPEN
 10
588.0161204082908
 20
2054.057551144371
 30
0.0
 41
40.0
 42
40.0
 43
40.0
 50
90.0
  0
INSERT
  5
810D
330
81C3
100
AcDbEntity
  8
3
 62
     0
100
AcDbBlockReference
  2
_OPEN
 10
588.0161204082904
 20
1549.057551144371
 30
0.0
 41
40.0
 42
40.0
 43
40.0
 50
270.0
  0
TEXT
  5
8130
330
81C3
100
AcDbEntity
  8
3
 62
     0
100
AcDbText
 10
418.0159999999999
 20
1695.36
 30
0.0
 40
60.0
  1
505
100
AcDbText
  0
POINT
  5
810F
330
81C3
100
AcDbEntity
  8
DEFPOINTS
 62
     0
100
AcDbPoint
 10
841.3251039243441
 20
2054.057551144371
 30
0.0
  0
POINT
  5
8110
330
81C3
100
AcDbEntity
  8
DEFPOINTS
 62
     0
100
AcDbPoint
 10
948.2180770273394
 20
1549.057551144371
 30
0.0
  0
POINT
  5
8111
330
81C3
100
AcDbEntity
  8
DEFPOINTS
 62
     0
100
AcDbPoint
 10
588.0161204082904
 20
1549.057551144371
 30
0.0
  0
ENDBLK
  5
7F4A
330
81C3
100
AcDbEntity
  8
0
100
AcDbBlockEnd
  0
BLOCK
  5
81C6
330
81C5
100
AcDbEntity
  8
0
100
AcDbBlockBegin
  2
*D9
 70
     1
 10
0.0
 20
0.0
 30
0.0
  3
*D9
  1

  0
LINE
  5
7E04
330
81C5
100
AcDbEntity
  8
0
  6
ByBlock
100
AcDbLine
 10
2992.796193483283
 20
903.0976264501203
 30
0.0
 11
3240.833227053947
 21
903.0976264501203
 31
0.0
  0
LINE
  5
7E05
330
81C5
100
AcDbEntity
  8
0
  6
ByBlock
100
AcDbLine
 10
2992.796193483283
 20
233.0976264501205
 30
0.0
 11
3240.833227053947
 21
233.0976264501205
 31
0.0
  0
LINE
  5
7E06
330
81C5
100
AcDbEntity
  8
0
  6
ByBlock
100
AcDbLine
 10
3220.833227053946
 20
863.0976264501205
 30
0.0
 11
3220.833227053946
 21
273.0976264501205
 31
0.0
  0
INSERT
  5
7E07
330
81C5
100
AcDbEntity
  8
0
  6
ByBlock
100
AcDbBlockReference
  2
_OPEN
 10
3220.833227053946
 20
903.0976264501203
 30
0.0
 41
40.0
 42
40.0
 43
40.0
 50
90.0
  0
INSERT
  5
7E08
330
81C5
100
AcDbEntity
  8
0
  6
ByBlock
100
AcDbBlockReference
  2
_OPEN
 10
3220.833227053946
 20
233.0976264501205
 30
0.0
 41
40.0
 42
40.0
 43
40.0
 50
270.0
  0
TEXT
  5
7E09
330
81C5
100
AcDbEntity
  8
3
100
AcDbText
 10
3210.833227053947
 20
460.9547693072634
 30
0.0
 40
60.0
  1
\U+03C6670
 50
90.0
100
AcDbText
  0
POINT
  5
7E0A
330
81C5
100
AcDbEntity
  8
DEFPOINTS
  6
ByBlock
 62
     0
100
AcDbPoint
 10
2972.796193483283
 20
903.0976264501203
 30
0.0
  0
POINT
  5
7E0B
330
81C5
100
AcDbEntity
  8
DEFPOINTS
  6
ByBlock
 62
     0
100
AcDbPoint
 10
2972.796193483283
 20
233.0976264501205
 30
0.0
  0
POINT
  5
7E0C
330
81C5
100
AcDbEntity
  8
DEFPOINTS
  6
ByBlock
 62
     0
100
AcDbPoint
 10
3220.833227053946
 20
233.0976264501205
 30
0.0
  0
ENDBLK
  5
7E0D
330
81C5
100
AcDbEntity
  8
0
100
AcDbBlockEnd
  0
BLOCK
  5
81C8
330
81C7
100
AcDbEntity
  8
0
100
AcDbBlockBegin
  2
*D10
 70
     1
 10
0.0
 20
0.0
 30
0.0
  3
*D10
  1

  0
LINE
  5
7F02
330
81C7
100
AcDbEntity
  8
0
  6
ByBlock
100
AcDbLine
 10
2831.858577972293
 20
2752.057551144371
 30
0.0
 11
2831.858577972293
 21
2910.249354893976
 31
0.0
  0
LINE
  5
7F03
330
81C7
100
AcDbEntity
  8
0
  6
ByBlock
100
AcDbLine
 10
3631.858577972292
 20
2752.057551144371
 30
0.0
 11
3631.858577972292
 21
2910.249354893976
 31
0.0
  0
LINE
  5
7F04
330
81C7
100
AcDbEntity
  8
0
  6
ByBlock
100
AcDbLine
 10
2871.858577972292
 20
2890.249354893976
 30
0.0
 11
3591.858577972292
 21
2890.249354893976
 31
0.0
  0
INSERT
  5
7F05
330
81C7
100
AcDbEntity
  8
0
  6
ByBlock
100
AcDbBlockReference
  2
_OPEN
 10
2831.858577972293
 20
2890.249354893976
 30
0.0
 41
40.0
 42
40.0
 43
40.0
 50
180.0
  0
INSERT
  5
7F06
330
81C7
100
AcDbEntity
  8
0
  6
ByBlock
100
AcDbBlockReference
  2
_OPEN
 10
3631.858577972292
 20
2890.249354893976
 30
0.0
 41
40.0
 42
40.0
 43
40.0
  0
TEXT
  5
7F07
330
81C7
100
AcDbEntity
  8
3
100
AcDbText
 10
3154.715720829435
 20
2900.249354893976
 30
0.0
 40
60.0
  1
800
100
AcDbText
  0
POINT
  5
7F08
330
81C7
100
AcDbEntity
  8
DEFPOINTS
  6
ByBlock
 62
     0
100
AcDbPoint
 10
2831.858577972293
 20
2732.057551144372
 30
0.0
  0
POINT
  5
7F09
330
81C7
100
AcDbEntity
  8
DEFPOINTS
  6
ByBlock
 62
     0
100
AcDbPoint
 10
3631.858577972292
 20
2732.057551144372
 30
0.0
  0
POINT
  5
7F0A
330
81C7
100
AcDbEntity
  8
DEFPOINTS
  6
ByBlock
 62
     0
100
AcDbPoint
 10
3631.858577972292
 20
2890.249354893976
 30
0.0
  0
ENDBLK
  5
7F0B
330
81C7
100
AcDbEntity
  8
0
100
AcDbBlockEnd
  0
BLOCK
  5
81CA
330
81C9
100
AcDbEntity
  8
0
100
AcDbBlockBegin
  2
*D11
 70
     1
 10
0.0
 20
0.0
 30
0.0
  3
*D11
  1

  0
LINE
  5
7E3B
330
81C9
100
AcDbEntity
  8
0
  6
ByBlock
100
AcDbLine
 10
1374.585969912429
 20
2138.414968530632
 30
0.0
 11
1374.585969912429
 21
1863.01337041143
 31
0.0
  0
LINE
  5
7E3C
330
81C9
100
AcDbEntity
  8
0
  6
ByBlock
100
AcDbLine
 10
-75.41403008757061
 20
2138.414968530633
 30
0.0
 11
-75.41403008757061
 21
1863.01337041143
 31
0.0
  0
LINE
  5
7E3D
330
81C9
100
AcDbEntity
  8
0
  6
ByBlock
100
AcDbLine
 10
1334.585969912429
 20
1883.01337041143
 30
0.0
 11
-35.41403008757061
 21
1883.01337041143
 31
0.0
  0
INSERT
  5
7E3E
330
81C9
100
AcDbEntity
  8
0
  6
ByBlock
100
AcDbBlockReference
  2
_OPEN
 10
1374.585969912429
 20
1883.01337041143
 30
0.0
 41
40.0
 42
40.0
 43
40.0
  0
INSERT
  5
7E3F
330
81C9
100
AcDbEntity
  8
0
  6
ByBlock
100
AcDbBlockReference
  2
_OPEN
 10
-75.41403008757061
 20
1883.01337041143
 30
0.0
 41
40.0
 42
40.0
 43
40.0
 50
180.0
  0
TEXT
  5
7E40
330
81C9
100
AcDbEntity
  8
3
100
AcDbText
 10
549.5859699124292
 20
1893.01337041143
 30
0.0
 40
60.0
  1
1450
100
AcDbText
  0
POINT
  5
7E41
330
81C9
100
AcDbEntity
  8
DEFPOINTS
  6
ByBlock
 62
     0
100
AcDbPoint
 10
1374.585969912429
 20
2158.414968530632
 30
0.0
  0
POINT
  5
7E42
330
81C9
100
AcDbEntity
  8
DEFPOINTS
  6
ByBlock
 62
     0
100
AcDbPoint
 10
-75.41403008757061
 20
2158.414968530633
 30
0.0
  0
POINT
  5
7E43
330
81C9
100
AcDbEntity
  8
DEFPOINTS
  6
ByBlock
 62
     0
100
AcDbPoint
 10
-75.41403008757061
 20
1883.01337041143
 30
0.0
  0
ENDBLK
  5
7E44
330
81C9
100
AcDbEntity
  8
0
100
AcDbBlockEnd
  0
BLOCK
  5
81CC
330
81CB
100
AcDbEntity
  8
0
100
AcDbBlockBegin
  2
*D12
 70
     1
 10
0.0
 20
0.0
 30
0.0
  3
*D12
  1

  0
LINE
  5
7E46
330
81CB
100
AcDbEntity
  8
0
  6
ByBlock
100
AcDbLine
 10
-95.41403008757059
 20
2158.414968530633
 30
0.0
 11
-304.2060010861787
 21
2158.414968530633
 31
0.0
  0
LINE
  5
7E47
330
81CB
100
AcDbEntity
  8
0
  6
ByBlock
100
AcDbLine
 10
-95.41403008757106
 20
3164.414968530635
 30
0.0
 11
-304.2060010861787
 21
3164.414968530635
 31
0.0
  0
LINE
  5
7E48
330
81CB
100
AcDbEntity
  8
0
  6
ByBlock
100
AcDbLine
 10
-284.2060010861787
 20
2198.414968530633
 30
0.0
 11
-284.2060010861787
 21
3124.414968530635
 31
0.0
  0
INSERT
  5
7E49
330
81CB
100
AcDbEntity
  8
0
  6
ByBlock
100
AcDbBlockReference
  2
_OPEN
 10
-284.2060010861787
 20
2158.414968530633
 30
0.0
 41
40.0
 42
40.0
 43
40.0
 50
270.0
  0
INSERT
  5
7E4A
330
81CB
100
AcDbEntity
  8
0
  6
ByBlock
100
AcDbBlockReference
  2
_OPEN
 10
-284.2060010861787
 20
3164.414968530635
 30
0.0
 41
40.0
 42
40.0
 43
40.0
 50
90.0
  0
TEXT
  5
7E4B
330
81CB
100
AcDbEntity
  8
3
100
AcDbText
 10
-294.2060010861787
 20
2562.843539959205
 30
0.0
 40
60.0
  1
1006
 50
90.0
100
AcDbText
  0
POINT
  5
7E4C
330
81CB
100
AcDbEntity
  8
DEFPOINTS
  6
ByBlock
 62
     0
100
AcDbPoint
 10
-75.41403008757061
 20
2158.414968530633
 30
0.0
  0
POINT
  5
7E4D
330
81CB
100
AcDbEntity
  8
DEFPOINTS
  6
ByBlock
 62
     0
100
AcDbPoint
 10
-75.41403008757106
 20
3164.414968530635
 30
0.0
  0
POINT
  5
7E4E
330
81CB
100
AcDbEntity
  8
DEFPOINTS
  6
ByBlock
 62
     0
100
AcDbPoint
 10
-284.2060010861787
 20
3164.414968530635
 30
0.0
  0
ENDBLK
  5
7E4F
330
81CB
100
AcDbEntity
  8
0
100
AcDbBlockEnd
  0
BLOCK
  5
81CE
330
81CD
100
AcDbEntity
  8
0
100
AcDbBlockBegin
  2
*D13
 70
     1
 10
0.0
 20
0.0
 30
0.0
  3
*D13
  1

  0
LINE
  5
7E51
330
81CD
100
AcDbEntity
  8
0
  6
ByBlock
100
AcDbLine
 10
724.5859699124292
 20
3184.414968530634
 30
0.0
 11
724.5859699124292
 21
3333.020259029039
 31
0.0
  0
LINE
  5
7E52
330
81CD
100
AcDbEntity
  8
0
  6
ByBlock
100
AcDbLine
 10
-75.41403008757106
 20
3184.414968530635
 30
0.0
 11
-75.41403008757106
 21
3333.020259029039
 31
0.0
  0
LINE
  5
7E53
330
81CD
100
AcDbEntity
  8
0
  6
ByBlock
100
AcDbLine
 10
684.5859699124294
 20
3313.020259029039
 30
0.0
 11
-35.41403008757106
 21
3313.020259029039
 31
0.0
  0
INSERT
  5
7E54
330
81CD
100
AcDbEntity
  8
0
  6
ByBlock
100
AcDbBlockReference
  2
_OPEN
 10
724.5859699124292
 20
3313.020259029039
 30
0.0
 41
40.0
 42
40.0
 43
40.0
  0
INSERT
  5
7E55
330
81CD
100
AcDbEntity
  8
0
  6
ByBlock
100
AcDbBlockReference
  2
_OPEN
 10
-75.41403008757106
 20
3313.020259029039
 30
0.0
 41
40.0
 42
40.0
 43
40.0
 50
180.0
  0
TEXT
  5
7E56
330
81CD
100
AcDbEntity
  8
3
100
AcDbText
 10
247.443112769572
 20
3323.020259029039
 30
0.0
 40
60.0
  1
800
100
AcDbText
  0
POINT
  5
7E57
330
81CD
100
AcDbEntity
  8
DEFPOINTS
  6
ByBlock
 62
     0
100
AcDbPoint
 10
724.5859699124292
 20
3164.414968530634
 30
0.0
  0
POINT
  5
7E58
330
81CD
100
AcDbEntity
  8
DEFPOINTS
  6
ByBlock
 62
     0
100
AcDbPoint
 10
-75.41403008757106
 20
3164.414968530635
 30
0.0
  0
POINT
  5
7E59
330
81CD
100
AcDbEntity
  8
DEFPOINTS
  6
ByBlock
 62
     0
100
AcDbPoint
 10
-75.41403008757106
 20
3313.020259029039
 30
0.0
  0
ENDBLK
  5
7E5A
330
81CD
100
AcDbEntity
  8
0
100
AcDbBlockEnd
  0
BLOCK
  5
81D0
330
81CF
100
AcDbEntity
  8
0
100
AcDbBlockBegin
  2
*D14
 70
     1
 10
0.0
 20
0.0
 30
0.0
  3
*D14
  1

  0
LINE
  5
7E5C
330
81CF
100
AcDbEntity
  8
0
  6
ByBlock
100
AcDbLine
 10
1394.585969912429
 20
2758.414968530632
 30
0.0
 11
1545.01355378771
 21
2758.414968530632
 31
0.0
  0
LINE
  5
7E5D
330
81CF
100
AcDbEntity
  8
0
  6
ByBlock
100
AcDbLine
 10
1394.585969912429
 20
2158.414968530632
 30
0.0
 11
1545.01355378771
 21
2158.414968530632
 31
0.0
  0
LINE
  5
7E5E
330
81CF
100
AcDbEntity
  8
0
  6
ByBlock
100
AcDbLine
 10
1525.01355378771
 20
2718.414968530632
 30
0.0
 11
1525.01355378771
 21
2198.414968530632
 31
0.0
  0
INSERT
  5
7E5F
330
81CF
100
AcDbEntity
  8
0
  6
ByBlock
100
AcDbBlockReference
  2
_OPEN
 10
1525.01355378771
 20
2758.414968530632
 30
0.0
 41
40.0
 42
40.0
 43
40.0
 50
90.0
  0
INSERT
  5
7E60
330
81CF
100
AcDbEntity
  8
0
  6
ByBlock
100
AcDbBlockReference
  2
_OPEN
 10
1525.01355378771
 20
2158.414968530632
 30
0.0
 41
40.0
 42
40.0
 43
40.0
 50
270.0
  0
TEXT
  5
7E61
330
81CF
100
AcDbEntity
  8
3
100
AcDbText
 10
1515.01355378771
 20
2381.272111387775
 30
0.0
 40
60.0
  1
600
 50
90.0
100
AcDbText
  0
POINT
  5
7E62
330
81CF
100
AcDbEntity
  8
DEFPOINTS
  6
ByBlock
 62
     0
100
AcDbPoint
 10
1374.585969912429
 20
2758.414968530632
 30
0.0
  0
POINT
  5
7E63
330
81CF
100
AcDbEntity
  8
DEFPOINTS
  6
ByBlock
 62
     0
100
AcDbPoint
 10
1374.585969912429
 20
2158.414968530632
 30
0.0
  0
POINT
  5
7E64
330
81CF
100
AcDbEntity
  8
DEFPOINTS
  6
ByBlock
 62
     0
100
AcDbPoint
 10
1525.01355378771
 20
2158.414968530632
 30
0.0
  0
ENDBLK
  5
7E65
330
81CF
100
AcDbEntity
  8
0
100
AcDbBlockEnd
  0
BLOCK
  5
81D2
330
81D1
100
AcDbEntity
  8
0
100
AcDbBlockBegin
  2
*D15
 70
     1
 10
0.0
 20
0.0
 30
0.0
  3
*D15
  1

  0
LINE
  5
7ECC
330
81D1
100
AcDbEntity
  8
0
  6
ByBlock
100
AcDbLine
 10
2208.122339868827
 20
1709.057551144371
 30
0.0
 11
2208.122339868827
 21
3034.114690805144
 31
0.0
  0
LINE
  5
7ECD
330
81D1
100
AcDbEntity
  8
0
  6
ByBlock
100
AcDbLine
 10
698.1223398688261
 20
2794.057551144371
 30
0.0
 11
698.1223398688261
 21
3034.114690805144
 31
0.0
  0
LINE
  5
7ECE
330
81D1
100
AcDbEntity
  8
0
  6
ByBlock
100
AcDbLine
 10
2168.122339868827
 20
3014.114690805144
 30
0.0
 11
738.1223398688263
 21
3014.114690805144
 31
0.0
  0
INSERT
  5
7ECF
330
81D1
100
AcDbEntity
  8
0
  6
ByBlock
100
AcDbBlockReference
  2
_OPEN
 10
2208.122339868827
 20
3014.114690805144
 30
0.0
 41
40.0
 42
40.0
 43
40.0
  0
INSERT
  5
7ED0
330
81D1
100
AcDbEntity
  8
0
  6
ByBlock
100
AcDbBlockReference
  2
_OPEN
 10
698.1223398688261
 20
3014.114690805144
 30
0.0
 41
40.0
 42
40.0
 43
40.0
 50
180.0
  0
TEXT
  5
7ED1
330
81D1
100
AcDbEntity
  8
3
100
AcDbText
 10
1358.836625583112
 20
3024.114690805144
 30
0.0
 40
60.0
  1
1510
100
AcDbText
  0
POINT
  5
7ED2
330
81D1
100
AcDbEntity
  8
DEFPOINTS
  6
ByBlock
 62
     0
100
AcDbPoint
 10
2208.122339868827
 20
1689.057551144371
 30
0.0
  0
POINT
  5
7ED3
330
81D1
100
AcDbEntity
  8
DEFPOINTS
  6
ByBlock
 62
     0
100
AcDbPoint
 10
698.1223398688261
 20
2774.057551144371
 30
0.0
  0
POINT
  5
7ED4
330
81D1
100
AcDbEntity
  8
DEFPOINTS
  6
ByBlock
 62
     0
100
AcDbPoint
 10
698.1223398688261
 20
3014.114690805144
 30
0.0
  0
ENDBLK
  5
7ED5
330
81D1
100
AcDbEntity
  8
0
100
AcDbBlockEnd
  0
BLOCK
  5
81D4
330
81D3
100
AcDbEntity
  8
0
100
AcDbBlockBegin
  2
*D16
 70
     1
 10
0.0
 20
0.0
 30
0.0
  3
*D16
  1

  0
LINE
  5
8112
330
81D3
100
AcDbEntity
  8
3
 62
     0
100
AcDbLine
 10
938.2180770273395
 20
1454.057551144371
 30
0.0
 11
568.0161204082905
 21
1454.057551144371
 31
0.0
  0
LINE
  5
8113
330
81D3
100
AcDbEntity
  8
3
 62
     0
100
AcDbLine
 10
938.2180770273395
 20
1354.057551144371
 30
0.0
 11
568.0161204082905
 21
1354.057551144371
 31
0.0
  0
LINE
  5
8114
330
81D3
100
AcDbEntity
  8
3
 62
     0
100
AcDbLine
 10
588.0161204082904
 20
1494.057551144371
 30
0.0
 11
588.0161204082904
 21
1534.057551144371
 31
0.0
  0
LINE
  5
8115
330
81D3
100
AcDbEntity
  8
3
 62
     0
100
AcDbLine
 10
588.0161204082904
 20
1314.057551144371
 30
0.0
 11
588.0161204082903
 21
1091.200408287228
 31
0.0
  0
LINE
  5
8116
330
81D3
100
AcDbEntity
  8
3
 62
     0
100
AcDbLine
 10
588.0161204082904
 20
1454.057551144371
 30
0.0
 11
588.0161204082904
 21
1354.057551144371
 31
0.0
  0
INSERT
  5
8117
330
81D3
100
AcDbEntity
  8
3
 62
     0
100
AcDbBlockReference
  2
_DOT
 10
588.0161204082904
 20
1454.057551144371
 30
0.0
 41
40.0
 42
40.0
 43
40.0
 50
270.0
  0
INSERT
  5
8118
330
81D3
100
AcDbEntity
  8
3
 62
     0
100
AcDbBlockReference
  2
_OPEN
 10
588.0161204082904
 20
1354.057551144371
 30
0.0
 41
40.0
 42
40.0
 43
40.0
 50
90.0
  0
TEXT
  5
8131
330
81D3
100
AcDbEntity
  8
3
 62
     0
100
AcDbText
 10
418.0159999999999
 20
1076.43
 30
0.0
 40
60.0
  1
100
100
AcDbText
  0
POINT
  5
811A
330
81D3
100
AcDbEntity
  8
DEFPOINTS
 62
     0
100
AcDbPoint
 10
948.2180770273394
 20
1454.057551144371
 30
0.0
  0
POINT
  5
811B
330
81D3
100
AcDbEntity
  8
DEFPOINTS
 62
     0
100
AcDbPoint
 10
948.2180770273394
 20
1354.057551144371
 30
0.0
  0
POINT
  5
811C
330
81D3
100
AcDbEntity
  8
DEFPOINTS
 62
     0
100
AcDbPoint
 10
588.0161204082904
 20
1354.057551144371
 30
0.0
  0
ENDBLK
  5
7FC5
330
81D3
100
AcDbEntity
  8
0
100
AcDbBlockEnd
  0
BLOCK
  5
81DC
330
81D5
100
AcDbEntity
  8
0
100
AcDbBlockBegin
  2
_DOT
 70
     0
 10
0.0
 20
0.0
 30
0.0
  3
_DOT
  1

  0
LWPOLYLINE
  5
7FEF
330
81D5
100
AcDbEntity
  8
0
  6
ByBlock
 62
     0
100
AcDbPolyline
 90
        2
 70
     1
 43
0.25
 10
-0.125
 20
0.0
 42
1.0
 10
0.125
 20
0.0
 42
1.0
  0
LINE
  5
7FF3
330
81D5
100
AcDbEntity
  8
0
  6
ByBlock
 62
     0
100
AcDbLine
 10
-0.25
 20
0.0
 30
0.0
 11
-1.0
 21
0.0
 31
0.0
  0
ENDBLK
  5
7FB8
330
81D5
100
AcDbEntity
  8
0
100
AcDbBlockEnd
  0
BLOCK
  5
81D7
330
81D6
100
AcDbEntity
  8
0
100
AcDbBlockBegin
  2
*D18
 70
     1
 10
0.0
 20
0.0
 30
0.0
  3
*D18
  1

  0
LINE
  5
800B
330
81D6
100
AcDbEntity
  8
0
  6
ByBlock
100
AcDbLine
 10
3731.858577972293
 20
2044.057551144371
 30
0.0
 11
3731.858577972293
 21
3056.10052155734
 31
0.0
  0
LINE
  5
800C
330
81D6
100
AcDbEntity
  8
0
  6
ByBlock
100
AcDbLine
 10
3231.858577972293
 20
3003.678855993701
 30
0.0
 11
3231.858577972293
 21
3056.10052155734
 31
0.0
  0
LINE
  5
800D
330
81D6
100
AcDbEntity
  8
0
  6
ByBlock
100
AcDbLine
 10
3691.858577972293
 20
3036.10052155734
 30
0.0
 11
3271.858577972293
 21
3036.10052155734
 31
0.0
  0
INSERT
  5
800E
330
81D6
100
AcDbEntity
  8
0
  6
ByBlock
100
AcDbBlockReference
  2
_OPEN
 10
3731.858577972293
 20
3036.10052155734
 30
0.0
 41
40.0
 42
40.0
 43
40.0
  0
INSERT
  5
800F
330
81D6
100
AcDbEntity
  8
0
  6
ByBlock
100
AcDbBlockReference
  2
_OPEN
 10
3231.858577972293
 20
3036.10052155734
 30
0.0
 41
40.0
 42
40.0
 43
40.0
 50
180.0
  0
TEXT
  5
8010
330
81D6
100
AcDbEntity
  8
3
100
AcDbText
 10
3371.858577972293
 20
3071.814807271625
 30
0.0
 40
60.0
  1
(510)
100
AcDbText
  0
POINT
  5
8011
330
81D6
100
AcDbEntity
  8
DEFPOINTS
  6
ByBlock
 62
     0
100
AcDbPoint
 10
3731.858577972293
 20
2024.057551144371
 30
0.0
  0
POINT
  5
8012
330
81D6
100
AcDbEntity
  8
DEFPOINTS
  6
ByBlock
 62
     0
100
AcDbPoint
 10
3231.858577972293
 20
2983.678855993701
 30
0.0
  0
POINT
  5
8013
330
81D6
100
AcDbEntity
  8
DEFPOINTS
  6
ByBlock
 62
     0
100
AcDbPoint
 10
3231.858577972293
 20
3036.10052155734
 30
0.0
  0
ENDBLK
  5
8014
330
81D6
100
AcDbEntity
  8
0
100
AcDbBlockEnd
  0
BLOCK
  5
81D9
330
81D8
100
AcDbEntity
  8
0
100
AcDbBlockBegin
  2
*D19
 70
     1
 10
0.0
 20
0.0
 30
0.0
  3
*D19
  1

  0
LINE
  5
811D
330
81D8
100
AcDbEntity
  8
3
100
AcDbLine
 10
2551.858577972293
 20
2224.057551144371
 30
0.0
 11
2551.858577972293
 21
3056.10052155734
 31
0.0
  0
LINE
  5
811E
330
81D8
100
AcDbEntity
  8
3
100
AcDbLine
 10
3191.858577972292
 20
3036.10052155734
 30
0.0
 11
2591.858577972293
 21
3036.10052155734
 31
0.0
  0
INSERT
  5
811F
330
81D8
100
AcDbEntity
  8
3
100
AcDbBlockReference
  2
_OPEN
 10
3231.858577972293
 20
3036.10052155734
 30
0.0
 41
40.0
 42
40.0
 43
40.0
  0
INSERT
  5
8120
330
81D8
100
AcDbEntity
  8
3
100
AcDbBlockReference
  2
_OPEN
 10
2551.858577972293
 20
3036.10052155734
 30
0.0
 41
40.0
 42
40.0
 43
40.0
 50
180.0
  0
TEXT
  5
8132
330
81D8
100
AcDbEntity
  8
3
100
AcDbText
 10
2771.86
 20
3019.9
 30
0.0
 40
60.0
  1
MAX
100
AcDbText
  0
TEXT
  5
8133
330
81D8
100
AcDbEntity
  8
3
100
AcDbText
 10
2771.86
 20
2941.9
 30
0.0
 40
60.0
  1
710
100
AcDbText
  0
POINT
  5
8122
330
81D8
100
AcDbEntity
  8
DEFPOINTS
 62
     0
100
AcDbPoint
 10
3231.858577972293
 20
2983.678855993701
 30
0.0
  0
POINT
  5
8123
330
81D8
100
AcDbEntity
  8
DEFPOINTS
 62
     0
100
AcDbPoint
 10
2551.858577972293
 20
2204.057551144371
 30
0.0
  0
POINT
  5
8124
330
81D8
100
AcDbEntity
  8
DEFPOINTS
 62
     0
100
AcDbPoint
 10
2551.858577972293
 20
3036.10052155734
 30
0.0
  0
ENDBLK
  5
8009
330
81D8
100
AcDbEntity
  8
0
100
AcDbBlockEnd
  0
BLOCK
  5
81DB
330
81DA
100
AcDbEntity
  8
0
100
AcDbBlockBegin
  2
*D20
 70
     1
 10
0.0
 20
0.0
 30
0.0
  3
*D20
  1

  0
LINE
  5
8125
330
81DA
100
AcDbEntity
  8
3
100
AcDbLine
 10
2398.21807702734
 20
4053.283651247936
 30
0.0
 11
2398.21807702734
 21
4607.888941746344
 31
0.0
  0
LINE
  5
8126
330
81DA
100
AcDbEntity
  8
3
100
AcDbLine
 10
1788.21807702734
 20
4587.888941746345
 30
0.0
 11
2358.218077027339
 21
4587.888941746345
 31
0.0
  0
INSERT
  5
8127
330
81DA
100
AcDbEntity
  8
3
100
AcDbBlockReference
  2
_OPEN
 10
1748.218077027339
 20
4587.888941746345
 30
0.0
 41
40.0
 42
40.0
 43
40.0
 50
180.0
  0
INSERT
  5
8128
330
81DA
100
AcDbEntity
  8
3
100
AcDbBlockReference
  2
_OPEN
 10
2398.21807702734
 20
4587.888941746345
 30
0.0
 41
40.0
 42
40.0
 43
40.0
  0
TEXT
  5
8134
330
81DA
100
AcDbEntity
  8
3
100
AcDbText
 10
1953.22
 20
4521.689999999999
 30
0.0
 40
60.0
  1
650
100
AcDbText
  0
POINT
  5
812A
330
81DA
100
AcDbEntity
  8
DEFPOINTS
 62
     0
100
AcDbPoint
 10
1748.218077027339
 20
4439.283651247939
 30
0.0
  0
POINT
  5
812B
330
81DA
100
AcDbEntity
  8
DEFPOINTS
 62
     0
100
AcDbPoint
 10
2398.21807702734
 20
4033.283651247938
 30
0.0
  0
POINT
  5
812C
330
81DA
100
AcDbEntity
  8
DEFPOINTS
 62
     0
100
AcDbPoint
 10
2398.21807702734
 20
4587.888941746345
 30
0.0
  0
ENDBLK
  5
7ECA
330
81DA
100
AcDbEntity
  8
0
100
AcDbBlockEnd
  0
BLOCK
  5
81DE
330
81DD
100
AcDbEntity
  8
0
100
AcDbBlockBegin
  2
*D21
 70
     1
 10
0.0
 20
0.0
 30
0.0
  3
*D21
  1

  0
LINE
  5
801F
330
81DD
100
AcDbEntity
  8
0
  6
ByBlock
 62
     0
100
AcDbLine
 10
948.2180770273394
 20
1402.057551144371
 30
0.0
 11
948.2180770273394
 21
1250.622138628376
 31
0.0
  0
LINE
  5
8020
330
81DD
100
AcDbEntity
  8
0
  6
ByBlock
 62
     0
100
AcDbLine
 10
1348.218077027339
 20
1402.057551144371
 30
0.0
 11
1348.218077027339
 21
1250.622138628376
 31
0.0
  0
LINE
  5
8021
330
81DD
100
AcDbEntity
  8
0
  6
ByBlock
 62
     0
100
AcDbLine
 10
988.2180770273395
 20
1270.622138628376
 30
0.0
 11
1308.218077027339
 21
1270.622138628376
 31
0.0
  0
INSERT
  5
8022
330
81DD
100
AcDbEntity
  8
0
  6
ByBlock
 62
     0
100
AcDbBlockReference
  2
_OPEN
 10
948.2180770273394
 20
1270.622138628376
 30
0.0
 41
40.0
 42
40.0
 43
40.0
 50
180.0
  0
INSERT
  5
8023
330
81DD
100
AcDbEntity
  8
0
  6
ByBlock
 62
     0
100
AcDbBlockReference
  2
_OPEN
 10
1348.218077027339
 20
1270.622138628376
 30
0.0
 41
40.0
 42
40.0
 43
40.0
  0
TEXT
  5
8024
330
81DD
100
AcDbEntity
  8
3
 62
     0
100
AcDbText
 10
1071.075219884482
 20
1290.622138628376
 30
0.0
 40
60.0
  1
400
100
AcDbText
  0
POINT
  5
8025
330
81DD
100
AcDbEntity
  8
DEFPOINTS
  6
ByBlock
 62
     0
100
AcDbPoint
 10
948.2180770273394
 20
1422.057551144371
 30
0.0
  0
POINT
  5
8026
330
81DD
100
AcDbEntity
  8
DEFPOINTS
  6
ByBlock
 62
     0
100
AcDbPoint
 10
1348.218077027339
 20
1422.057551144371
 30
0.0
  0
POINT
  5
8027
330
81DD
100
AcDbEntity
  8
DEFPOINTS
  6
ByBlock
 62
     0
100
AcDbPoint
 10
1348.218077027339
 20
1270.622138628376
 30
0.0
  0
ENDBLK
  5
8028
330
81DD
100
AcDbEntity
  8
0
100
AcDbBlockEnd
  0
BLOCK
  5
81E0
330
81DF
100
AcDbEntity
  8
0
100
AcDbBlockBegin
  2
*D22
 70
     1
 10
0.0
 20
0.0
 30
0.0
  3
*D22
  1

  0
LINE
  5
802C
330
81DF
100
AcDbEntity
  8
0
  6
ByBlock
 62
     0
100
AcDbLine
 10
1348.218077027339
 20
1402.057551144371
 30
0.0
 11
1348.218077027339
 21
1250.622138628376
 31
0.0
  0
LINE
  5
802D
330
81DF
100
AcDbEntity
  8
0
  6
ByBlock
 62
     0
100
AcDbLine
 10
2398.21807702734
 20
1402.057551144371
 30
0.0
 11
2398.21807702734
 21
1250.622138628376
 31
0.0
  0
LINE
  5
802E
330
81DF
100
AcDbEntity
  8
0
  6
ByBlock
 62
     0
100
AcDbLine
 10
1388.21807702734
 20
1270.622138628376
 30
0.0
 11
2358.218077027339
 21
1270.622138628376
 31
0.0
  0
INSERT
  5
802F
330
81DF
100
AcDbEntity
  8
0
  6
ByBlock
 62
     0
100
AcDbBlockReference
  2
_OPEN
 10
1348.218077027339
 20
1270.622138628376
 30
0.0
 41
40.0
 42
40.0
 43
40.0
 50
180.0
  0
INSERT
  5
8030
330
81DF
100
AcDbEntity
  8
0
  6
ByBlock
 62
     0
100
AcDbBlockReference
  2
_OPEN
 10
2398.21807702734
 20
1270.622138628376
 30
0.0
 41
40.0
 42
40.0
 43
40.0
  0
TEXT
  5
8031
330
81DF
100
AcDbEntity
  8
3
 62
     0
100
AcDbText
 10
1773.21807702734
 20
1290.622138628376
 30
0.0
 40
60.0
  1
1050
100
AcDbText
  0
POINT
  5
8032
330
81DF
100
AcDbEntity
  8
DEFPOINTS
  6
ByBlock
 62
     0
100
AcDbPoint
 10
1348.218077027339
 20
1422.057551144371
 30
0.0
  0
POINT
  5
8033
330
81DF
100
AcDbEntity
  8
DEFPOINTS
  6
ByBlock
 62
     0
100
AcDbPoint
 10
2398.21807702734
 20
1422.057551144371
 30
0.0
  0
POINT
  5
8034
330
81DF
100
AcDbEntity
  8
DEFPOINTS
  6
ByBlock
 62
     0
100
AcDbPoint
 10
2398.21807702734
 20
1270.622138628376
 30
0.0
  0
ENDBLK
  5
8035
330
81DF
100
AcDbEntity
  8
0
100
AcDbBlockEnd
  0
BLOCK
  5
81E2
330
81E1
100
AcDbEntity
  8
0
100
AcDbBlockBegin
  2
*D23
 70
     1
 10
0.0
 20
0.0
 30
0.0
  3
*D23
  1

  0
LINE
  5
8039
330
81E1
100
AcDbEntity
  8
0
  6
ByBlock
 62
     0
100
AcDbLine
 10
2678.858577972293
 20
1402.057551144371
 30
0.0
 11
2678.858577972293
 21
1250.622138628376
 31
0.0
  0
LINE
  5
803A
330
81E1
100
AcDbEntity
  8
0
  6
ByBlock
 62
     0
100
AcDbLine
 10
3231.858577972293
 20
1402.057551144371
 30
0.0
 11
3231.858577972293
 21
1250.622138628376
 31
0.0
  0
LINE
  5
803B
330
81E1
100
AcDbEntity
  8
0
  6
ByBlock
 62
     0
100
AcDbLine
 10
2718.858577972293
 20
1270.622138628376
 30
0.0
 11
3191.858577972292
 21
1270.622138628376
 31
0.0
  0
INSERT
  5
803C
330
81E1
100
AcDbEntity
  8
0
  6
ByBlock
 62
     0
100
AcDbBlockReference
  2
_OPEN
 10
2678.858577972293
 20
1270.622138628376
 30
0.0
 41
40.0
 42
40.0
 43
40.0
 50
180.0
  0
INSERT
  5
803D
330
81E1
100
AcDbEntity
  8
0
  6
ByBlock
 62
     0
100
AcDbBlockReference
  2
_OPEN
 10
3231.858577972293
 20
1270.622138628376
 30
0.0
 41
40.0
 42
40.0
 43
40.0
  0
TEXT
  5
803E
330
81E1
100
AcDbEntity
  8
3
 62
     0
100
AcDbText
 10
2878.215720829436
 20
1290.622138628376
 30
0.0
 40
60.0
  1
553
100
AcDbText
  0
POINT
  5
803F
330
81E1
100
AcDbEntity
  8
DEFPOINTS
  6
ByBlock
 62
     0
100
AcDbPoint
 10
2678.858577972293
 20
1422.057551144371
 30
0.0
  0
POINT
  5
8040
330
81E1
100
AcDbEntity
  8
DEFPOINTS
  6
ByBlock
 62
     0
100
AcDbPoint
 10
3231.858577972293
 20
1422.057551144371
 30
0.0
  0
POINT
  5
8041
330
81E1
100
AcDbEntity
  8
DEFPOINTS
  6
ByBlock
 62
     0
100
AcDbPoint
 10
3231.858577972293
 20
1270.622138628376
 30
0.0
  0
ENDBLK
  5
8042
330
81E1
100
AcDbEntity
  8
0
100
AcDbBlockEnd
  0
BLOCK
  5
81E4
330
81E3
100
AcDbEntity
  8
0
100
AcDbBlockBegin
  2
*D24
 70
     1
 10
0.0
 20
0.0
 30
0.0
  3
*D24
  1

  0
LINE
  5
8046
330
81E3
100
AcDbEntity
  8
0
  6
ByBlock
 62
     0
100
AcDbLine
 10
3231.858577972293
 20
1402.057551144371
 30
0.0
 11
3231.858577972293
 21
1250.622138628376
 31
0.0
  0
LINE
  5
8047
330
81E3
100
AcDbEntity
  8
0
  6
ByBlock
 62
     0
100
AcDbLine
 10
3684.858577972294
 20
1402.057551144371
 30
0.0
 11
3684.858577972294
 21
1250.622138628376
 31
0.0
  0
LINE
  5
8048
330
81E3
100
AcDbEntity
  8
0
  6
ByBlock
 62
     0
100
AcDbLine
 10
3271.858577972293
 20
1270.622138628376
 30
0.0
 11
3644.858577972293
 21
1270.622138628376
 31
0.0
  0
INSERT
  5
8049
330
81E3
100
AcDbEntity
  8
0
  6
ByBlock
 62
     0
100
AcDbBlockReference
  2
_OPEN
 10
3231.858577972293
 20
1270.622138628376
 30
0.0
 41
40.0
 42
40.0
 43
40.0
 50
180.0
  0
INSERT
  5
804A
330
81E3
100
AcDbEntity
  8
0
  6
ByBlock
 62
     0
100
AcDbBlockReference
  2
_OPEN
 10
3684.858577972294
 20
1270.622138628376
 30
0.0
 41
40.0
 42
40.0
 43
40.0
  0
TEXT
  5
804B
330
81E3
100
AcDbEntity
  8
3
 62
     0
100
AcDbText
 10
3381.215720829436
 20
1290.622138628376
 30
0.0
 40
60.0
  1
453
100
AcDbText
  0
POINT
  5
804C
330
81E3
100
AcDbEntity
  8
DEFPOINTS
  6
ByBlock
 62
     0
100
AcDbPoint
 10
3231.858577972293
 20
1422.057551144371
 30
0.0
  0
POINT
  5
804D
330
81E3
100
AcDbEntity
  8
DEFPOINTS
  6
ByBlock
 62
     0
100
AcDbPoint
 10
3684.858577972294
 20
1422.057551144371
 30
0.0
  0
POINT
  5
804E
330
81E3
100
AcDbEntity
  8
DEFPOINTS
  6
ByBlock
 62
     0
100
AcDbPoint
 10
3684.858577972294
 20
1270.622138628376
 30
0.0
  0
ENDBLK
  5
804F
330
81E3
100
AcDbEntity
  8
0
100
AcDbBlockEnd
  0
BLOCK
  5
81E6
330
81E5
100
AcDbEntity
  8
0
100
AcDbBlockBegin
  2
_NONE
 70
     0
 10
0.0
 20
0.0
 30
0.0
  3
_NONE
  1

  0
CIRCLE
  5
8053
330
81E5
100
AcDbEntity
  8
0
  6
ByBlock
 62
     0
100
AcDbCircle
 10
0.0
 20
0.0
 30
0.0
 40
0.25
  0
ENDBLK
  5
8054
330
81E5
100
AcDbEntity
  8
0
100
AcDbBlockEnd
  0
BLOCK
  5
81E8
330
81E7
100
AcDbEntity
  8
0
100
AcDbBlockBegin
  2
*D26
 70
     1
 10
0.0
 20
0.0
 30
0.0
  3
*D26
  1

  0
LINE
  5
8085
330
81E7
100
AcDbEntity
  8
0
  6
ByBlock
 62
     0
100
AcDbLine
 10
589.8390946766449
 20
1454.057551144371
 30
0.0
 11
589.8390946766449
 21
1549.057551144371
 31
0.0
  0
TEXT
  5
8086
330
81E7
100
AcDbEntity
  8
3
 62
     0
100
AcDbText
 10
514.1248089623591
 20
1414.414694001514
 30
0.0
 40
60.0
  1
(95)
 50
90.0
100
AcDbText
  0
POINT
  5
8087
330
81E7
100
AcDbEntity
  8
DEFPOINTS
  6
ByBlock
 62
     0
100
AcDbPoint
 10
948.2180770273394
 20
1454.057551144371
 30
0.0
  0
POINT
  5
8088
330
81E7
100
AcDbEntity
  8
DEFPOINTS
  6
ByBlock
 62
     0
100
AcDbPoint
 10
948.2180770273394
 20
1549.057551144371
 30
0.0
  0
POINT
  5
8089
330
81E7
100
AcDbEntity
  8
DEFPOINTS
  6
ByBlock
 62
     0
100
AcDbPoint
 10
589.8390946766449
 20
1549.057551144371
 30
0.0
  0
ENDBLK
  5
808A
330
81E7
100
AcDbEntity
  8
0
100
AcDbBlockEnd
  0
BLOCK
  5
81EA
330
81E9
100
AcDbEntity
  8
0
100
AcDbBlockBegin
  2
*D27
 70
     1
 10
0.0
 20
0.0
 30
0.0
  3
*D27
  1

  0
LINE
  5
808E
330
81E9
100
AcDbEntity
  8
0
  6
ByBlock
 62
     0
100
AcDbLine
 10
928.2180770273399
 20
1354.057551144371
 30
0.0
 11
400.6278136740364
 21
1354.057551144371
 31
0.0
  0
LINE
  5
808F
330
81E9
100
AcDbEntity
  8
0
  6
ByBlock
 62
     0
100
AcDbLine
 10
848.2180770273396
 20
2732.057551144372
 30
0.0
 11
400.6278136740364
 21
2732.057551144372
 31
0.0
  0
LINE
  5
8090
330
81E9
100
AcDbEntity
  8
0
  6
ByBlock
 62
     0
100
AcDbLine
 10
420.6278136740364
 20
1394.057551144371
 30
0.0
 11
420.6278136740364
 21
2692.057551144371
 31
0.0
  0
INSERT
  5
8091
330
81E9
100
AcDbEntity
  8
0
  6
ByBlock
 62
     0
100
AcDbBlockReference
  2
_OPEN
 10
420.6278136740364
 20
1354.057551144371
 30
0.0
 41
40.0
 42
40.0
 43
40.0
 50
270.0
  0
INSERT
  5
8092
330
81E9
100
AcDbEntity
  8
0
  6
ByBlock
 62
     0
100
AcDbBlockReference
  2
_OPEN
 10
420.6278136740364
 20
2732.057551144372
 30
0.0
 41
40.0
 42
40.0
 43
40.0
 50
90.0
  0
TEXT
  5
8093
330
81E9
100
AcDbEntity
  8
3
 62
     0
100
AcDbText
 10
374.9135279597508
 20
1904.486122572942
 30
0.0
 40
60.0
  1
(1378)
 50
90.0
100
AcDbText
  0
POINT
  5
8094
330
81E9
100
AcDbEntity
  8
DEFPOINTS
  6
ByBlock
 62
     0
100
AcDbPoint
 10
948.2180770273394
 20
1354.057551144371
 30
0.0
  0
POINT
  5
8095
330
81E9
100
AcDbEntity
  8
DEFPOINTS
  6
ByBlock
 62
     0
100
AcDbPoint
 10
868.2180770273399
 20
2732.057551144372
 30
0.0
  0
POINT
  5
8096
330
81E9
100
AcDbEntity
  8
DEFPOINTS
  6
ByBlock
 62
     0
100
AcDbPoint
 10
420.6278136740364
 20
2732.057551144372
 30
0.0
  0
ENDBLK
  5
8097
330
81E9
100
AcDbEntity
  8
0
100
AcDbBlockEnd
  0
BLOCK
  5
81EE
330
81ED
100
AcDbEntity
  8
0
100
AcDbBlockBegin
  2
*D28
 70
     1
 10
0.0
 20
0.0
 30
0.0
  3
*D28
  1

  0
LINE
  5
82A8
330
81ED
100
AcDbEntity
  8
3
 62
     0
370
    -2
100
AcDbLine
 10
2451.858577972293
 20
2224.057551144371
 30
0.0
 11
2451.858577972293
 21
3024.269895059579
 31
0.0
  0
LINE
  5
82A9
330
81ED
100
AcDbEntity
  8
3
 62
     0
370
    -2
100
AcDbLine
 10
3231.858577972293
 20
2980.249354893976
 30
0.0
 11
3231.858577972293
 21
3024.269895059579
 31
0.0
  0
LINE
  5
82AA
330
81ED
100
AcDbEntity
  8
3
 62
     0
370
    -2
100
AcDbLine
 10
2491.858577972293
 20
3004.269895059579
 30
0.0
 11
3191.858577972292
 21
3004.269895059579
 31
0.0
  0
INSERT
  5
82AB
330
81ED
100
AcDbEntity
  8
3
 62
     0
370
    -2
100
AcDbBlockReference
  2
_OPEN
 10
2451.858577972293
 20
3004.269895059579
 30
0.0
 41
40.0
 42
40.0
 43
40.0
 50
180.0
  0
INSERT
  5
82AC
330
81ED
100
AcDbEntity
  8
3
 62
     0
370
    -2
100
AcDbBlockReference
  2
_OPEN
 10
3231.858577972293
 20
3004.269895059579
 30
0.0
 41
40.0
 42
40.0
 43
40.0
  0
MTEXT
  5
82AD
330
81ED
100
AcDbEntity
  8
3
 62
     0
100
AcDbMText
 10
2841.858577972292
 20
3069.984180773865
 30
0.0
 40
60.0
 41
0.0
 71
     5
 72
     1
  1
\A1;(780)
 73
     1
 44
1.0
1001
ACAD
1000
MTEXTBEGIN
1070
    73
1070
     1
1070
    44
1040
1.0
1070
    74
1070
     0
1000
MTEXTEND
  0
POINT
  5
82AE
330
81ED
100
AcDbEntity
  8
DEFPOINTS
 62
     0
100
AcDbPoint
 10
2451.858577972293
 20
2204.057551144371
 30
0.0
  0
POINT
  5
82AF
330
81ED
100
AcDbEntity
  8
DEFPOINTS
 62
     0
100
AcDbPoint
 10
3231.858577972293
 20
2960.249354893976
 30
0.0
  0
POINT
  5
82B0
330
81ED
100
AcDbEntity
  8
DEFPOINTS
 62
     0
100
AcDbPoint
 10
3231.858577972293
 20
3004.269895059579
 30
0.0
  0
ENDBLK
  5
81EF
330
81ED
100
AcDbEntity
  8
0
100
AcDbBlockEnd
  0
BLOCK
  5
81FB
330
81FA
100
AcDbEntity
  8
0
100
AcDbBlockBegin
  2
*D29
 70
     1
 10
0.0
 20
0.0
 30
0.0
  3
*D29
  1

  0
LINE
  5
82B1
330
81FA
100
AcDbEntity
  8
3
 62
     0
370
    -2
100
AcDbLine
 10
3231.858577972293
 20
2980.249354893976
 30
0.0
 11
3231.858577972293
 21
3024.269895059579
 31
0.0
  0
LINE
  5
82B2
330
81FA
100
AcDbEntity
  8
3
 62
     0
370
    -2
100
AcDbLine
 10
3741.858577972293
 20
2044.057551144371
 30
0.0
 11
3741.858577972293
 21
3024.269895059579
 31
0.0
  0
LINE
  5
82B3
330
81FA
100
AcDbEntity
  8
3
 62
     0
370
    -2
100
AcDbLine
 10
3271.858577972292
 20
3004.269895059579
 30
0.0
 11
3701.858577972294
 21
3004.269895059579
 31
0.0
  0
INSERT
  5
82B4
330
81FA
100
AcDbEntity
  8
3
 62
     0
370
    -2
100
AcDbBlockReference
  2
_OPEN
 10
3231.858577972293
 20
3004.269895059579
 30
0.0
 41
40.0
 42
40.0
 43
40.0
 50
180.0
  0
INSERT
  5
82B5
330
81FA
100
AcDbEntity
  8
3
 62
     0
370
    -2
100
AcDbBlockReference
  2
_OPEN
 10
3741.858577972293
 20
3004.269895059579
 30
0.0
 41
40.0
 42
40.0
 43
40.0
  0
MTEXT
  5
82B6
330
81FA
100
AcDbEntity
  8
3
 62
     0
100
AcDbMText
 10
3486.858577972293
 20
3069.984180773865
 30
0.0
 40
60.0
 41
0.0
 71
     5
 72
     1
  1
\A1;(510)
 73
     1
 44
1.0
1001
ACAD
1000
MTEXTBEGIN
1070
    73
1070
     1
1070
    44
1040
1.0
1070
    74
1070
     0
1000
MTEXTEND
  0
POINT
  5
82B7
330
81FA
100
AcDbEntity
  8
DEFPOINTS
 62
     0
100
AcDbPoint
 10
3231.858577972293
 20
2960.249354893976
 30
0.0
  0
POINT
  5
82B8
330
81FA
100
AcDbEntity
  8
DEFPOINTS
 62
     0
100
AcDbPoint
 10
3741.858577972293
 20
2024.057551144371
 30
0.0
  0
POINT
  5
82B9
330
81FA
100
AcDbEntity
  8
DEFPOINTS
 62
     0
100
AcDbPoint
 10
3741.858577972293
 20
3004.269895059579
 30
0.0
  0
ENDBLK
  5
81FC
330
81FA
100
AcDbEntity
  8
0
100
AcDbBlockEnd
  0
BLOCK
  5
8219
330
8218
100
AcDbEntity
  8
0
100
AcDbBlockBegin
  2
*D30
 70
     1
 10
0.0
 20
0.0
 30
0.0
  3
*D30
  1

  0
LINE
  5
821B
330
8218
100
AcDbEntity
  8
3
 62
     0
370
    -2
100
AcDbLine
 10
948.2180770273394
 20
1349.057551144371
 30
0.0
 11
948.2180770273394
 21
1214.022138628376
 31
0.0
  0
LINE
  5
821C
330
8218
100
AcDbEntity
  8
3
 62
     0
370
    -2
100
AcDbLine
 10
1348.218077027339
 20
1349.057551144371
 30
0.0
 11
1348.218077027339
 21
1214.022138628376
 31
0.0
  0
LINE
  5
821D
330
8218
100
AcDbEntity
  8
3
 62
     0
370
    -2
100
AcDbLine
 10
951.8180770273396
 20
1217.622138628376
 30
0.0
 11
1141.789505598768
 21
1217.622138628376
 31
0.0
  0
LINE
  5
821E
330
8218
100
AcDbEntity
  8
3
 62
     0
370
    -2
100
AcDbLine
 10
1344.618077027339
 20
1217.622138628376
 30
0.0
 11
1154.64664845591
 21
1217.622138628376
 31
0.0
  0
SOLID
  5
821F
330
8218
100
AcDbEntity
  8
3
 62
     0
100
AcDbTrace
 10
951.8180770273396
 20
1218.222138628376
 30
0.0
 11
951.8180770273396
 21
1217.022138628376
 31
0.0
 12
948.2180770273394
 22
1217.622138628376
 32
0.0
 13
948.2180770273394
 23
1217.622138628376
 33
0.0
  0
SOLID
  5
8220
330
8218
100
AcDbEntity
  8
3
 62
     0
100
AcDbTrace
 10
1344.618077027339
 20
1218.222138628376
 30
0.0
 11
1344.618077027339
 21
1217.022138628376
 31
0.0
 12
1348.218077027339
 22
1217.622138628376
 32
0.0
 13
1348.218077027339
 23
1217.622138628376
 33
0.0
  0
MTEXT
  5
8221
330
8218
100
AcDbEntity
  8
3
 62
     0
100
AcDbMText
 10
1148.218077027339
 20
1217.622138628376
 30
0.0
 40
3.599999999999999
 41
0.0
 71
     5
 72
     1
  1
\A1;400
 73
     1
 44
1.0
1001
ACAD
1000
MTEXTBEGIN
1070
    73
1070
     1
1070
    44
1040
1.0
1070
    74
1070
     0
1000
MTEXTEND
  0
POINT
  5
8222
330
8218
100
AcDbEntity
  8
DEFPOINTS
 62
     0
100
AcDbPoint
 10
948.2180770273394
 20
1369.057551144371
 30
0.0
  0
POINT
  5
8223
330
8218
100
AcDbEntity
  8
DEFPOINTS
 62
     0
100
AcDbPoint
 10
1348.218077027339
 20
1369.057551144371
 30
0.0
  0
POINT
  5
8224
330
8218
100
AcDbEntity
  8
DEFPOINTS
 62
     0
100
AcDbPoint
 10
1348.218077027339
 20
1217.622138628376
 30
0.0
  0
ENDBLK
  5
821A
330
8218
100
AcDbEntity
  8
0
100
AcDbBlockEnd
  0
BLOCK
  5
8226
330
8225
100
AcDbEntity
  8
0
100
AcDbBlockBegin
  2
*D31
 70
     1
 10
0.0
 20
0.0
 30
0.0
  3
*D31
  1

  0
LINE
  5
8228
330
8225
100
AcDbEntity
  8
3
 62
     0
370
    -2
100
AcDbLine
 10
1348.218077027339
 20
1349.057551144371
 30
0.0
 11
1348.218077027339
 21
1214.022138628376
 31
0.0
  0
LINE
  5
8229
330
8225
100
AcDbEntity
  8
3
 62
     0
370
    -2
100
AcDbLine
 10
2398.21807702734
 20
1349.057551144371
 30
0.0
 11
2398.21807702734
 21
1214.022138628376
 31
0.0
  0
LINE
  5
822A
330
8225
100
AcDbEntity
  8
3
 62
     0
370
    -2
100
AcDbLine
 10
1351.818077027339
 20
1217.622138628376
 30
0.0
 11
1865.418077027339
 21
1217.622138628376
 31
0.0
  0
LINE
  5
822B
330
8225
100
AcDbEntity
  8
3
 62
     0
370
    -2
100
AcDbLine
 10
2394.61807702734
 20
1217.622138628376
 30
0.0
 11
1881.018077027339
 21
1217.622138628376
 31
0.0
  0
SOLID
  5
822C
330
8225
100
AcDbEntity
  8
3
 62
     0
100
AcDbTrace
 10
1351.818077027339
 20
1218.222138628376
 30
0.0
 11
1351.818077027339
 21
1217.022138628376
 31
0.0
 12
1348.218077027339
 22
1217.622138628376
 32
0.0
 13
1348.218077027339
 23
1217.622138628376
 33
0.0
  0
SOLID
  5
822D
330
8225
100
AcDbEntity
  8
3
 62
     0
100
AcDbTrace
 10
2394.61807702734
 20
1218.222138628376
 30
0.0
 11
2394.61807702734
 21
1217.022138628376
 31
0.0
 12
2398.21807702734
 22
1217.622138628376
 32
0.0
 13
2398.21807702734
 23
1217.622138628376
 33
0.0
  0
MTEXT
  5
822E
330
8225
100
AcDbEntity
  8
3
 62
     0
100
AcDbMText
 10
1873.218077027339
 20
1217.622138628376
 30
0.0
 40
3.599999999999999
 41
0.0
 71
     5
 72
     1
  1
\A1;1050
 73
     1
 44
1.0
1001
ACAD
1000
MTEXTBEGIN
1070
    73
1070
     1
1070
    44
1040
1.0
1070
    74
1070
     0
1000
MTEXTEND
  0
POINT
  5
822F
330
8225
100
AcDbEntity
  8
DEFPOINTS
 62
     0
100
AcDbPoint
 10
1348.218077027339
 20
1369.057551144371
 30
0.0
  0
POINT
  5
8230
330
8225
100
AcDbEntity
  8
DEFPOINTS
 62
     0
100
AcDbPoint
 10
2398.21807702734
 20
1369.057551144371
 30
0.0
  0
POINT
  5
8231
330
8225
100
AcDbEntity
  8
DEFPOINTS
 62
     0
100
AcDbPoint
 10
2398.21807702734
 20
1217.622138628376
 30
0.0
  0
ENDBLK
  5
8227
330
8225
100
AcDbEntity
  8
0
100
AcDbBlockEnd
  0
BLOCK
  5
8233
330
8232
100
AcDbEntity
  8
0
100
AcDbBlockBegin
  2
*D32
 70
     1
 10
0.0
 20
0.0
 30
0.0
  3
*D32
  1

  0
LINE
  5
8235
330
8232
100
AcDbEntity
  8
3
 62
     0
370
    -2
100
AcDbLine
 10
2678.858577972293
 20
1349.057551144371
 30
0.0
 11
2678.858577972293
 21
1214.022138628376
 31
0.0
  0
LINE
  5
8236
330
8232
100
AcDbEntity
  8
3
 62
     0
370
    -2
100
AcDbLine
 10
3231.858577972293
 20
1349.057551144371
 30
0.0
 11
3231.858577972293
 21
1214.022138628376
 31
0.0
  0
LINE
  5
8237
330
8232
100
AcDbEntity
  8
3
 62
     0
370
    -2
100
AcDbLine
 10
2682.458577972293
 20
1217.622138628376
 30
0.0
 11
2948.930006543721
 21
1217.622138628376
 31
0.0
  0
LINE
  5
8238
330
8232
100
AcDbEntity
  8
3
 62
     0
370
    -2
100
AcDbLine
 10
3228.258577972292
 20
1217.622138628376
 30
0.0
 11
2961.787149400864
 21
1217.622138628376
 31
0.0
  0
SOLID
  5
8239
330
8232
100
AcDbEntity
  8
3
 62
     0
100
AcDbTrace
 10
2682.458577972293
 20
1218.222138628376
 30
0.0
 11
2682.458577972293
 21
1217.022138628376
 31
0.0
 12
2678.858577972293
 22
1217.622138628376
 32
0.0
 13
2678.858577972293
 23
1217.622138628376
 33
0.0
  0
SOLID
  5
823A
330
8232
100
AcDbEntity
  8
3
 62
     0
100
AcDbTrace
 10
3228.258577972292
 20
1218.222138628376
 30
0.0
 11
3228.258577972292
 21
1217.022138628376
 31
0.0
 12
3231.858577972293
 22
1217.622138628376
 32
0.0
 13
3231.858577972293
 23
1217.622138628376
 33
0.0
  0
MTEXT
  5
823B
330
8232
100
AcDbEntity
  8
3
 62
     0
100
AcDbMText
 10
2955.358577972292
 20
1217.622138628376
 30
0.0
 40
3.599999999999999
 41
0.0
 71
     5
 72
     1
  1
\A1;553
 73
     1
 44
1.0
1001
ACAD
1000
MTEXTBEGIN
1070
    73
1070
     1
1070
    44
1040
1.0
1070
    74
1070
     0
1000
MTEXTEND
  0
POINT
  5
823C
330
8232
100
AcDbEntity
  8
DEFPOINTS
 62
     0
100
AcDbPoint
 10
2678.858577972293
 20
1369.057551144371
 30
0.0
  0
POINT
  5
823D
330
8232
100
AcDbEntity
  8
DEFPOINTS
 62
     0
100
AcDbPoint
 10
3231.858577972293
 20
1369.057551144371
 30
0.0
  0
POINT
  5
823E
330
8232
100
AcDbEntity
  8
DEFPOINTS
 62
     0
100
AcDbPoint
 10
3231.858577972293
 20
1217.622138628376
 30
0.0
  0
ENDBLK
  5
8234
330
8232
100
AcDbEntity
  8
0
100
AcDbBlockEnd
  0
BLOCK
  5
8240
330
823F
100
AcDbEntity
  8
0
100
AcDbBlockBegin
  2
*D33
 70
     1
 10
0.0
 20
0.0
 30
0.0
  3
*D33
  1

  0
LINE
  5
8242
330
823F
100
AcDbEntity
  8
3
 62
     0
370
    -2
100
AcDbLine
 10
3231.858577972293
 20
1349.057551144371
 30
0.0
 11
3231.858577972293
 21
1214.022138628376
 31
0.0
  0
LINE
  5
8243
330
823F
100
AcDbEntity
  8
3
 62
     0
370
    -2
100
AcDbLine
 10
3684.858577972294
 20
1349.057551144371
 30
0.0
 11
3684.858577972294
 21
1214.022138628376
 31
0.0
  0
LINE
  5
8244
330
823F
100
AcDbEntity
  8
3
 62
     0
370
    -2
100
AcDbLine
 10
3235.458577972292
 20
1217.622138628376
 30
0.0
 11
3451.930006543721
 21
1217.622138628376
 31
0.0
  0
LINE
  5
8245
330
823F
100
AcDbEntity
  8
3
 62
     0
370
    -2
100
AcDbLine
 10
3681.258577972295
 20
1217.622138628376
 30
0.0
 11
3464.787149400865
 21
1217.622138628376
 31
0.0
  0
SOLID
  5
8246
330
823F
100
AcDbEntity
  8
3
 62
     0
100
AcDbTrace
 10
3235.458577972292
 20
1218.222138628376
 30
0.0
 11
3235.458577972292
 21
1217.022138628376
 31
0.0
 12
3231.858577972293
 22
1217.622138628376
 32
0.0
 13
3231.858577972293
 23
1217.622138628376
 33
0.0
  0
SOLID
  5
8247
330
823F
100
AcDbEntity
  8
3
 62
     0
100
AcDbTrace
 10
3681.258577972295
 20
1218.222138628376
 30
0.0
 11
3681.258577972295
 21
1217.022138628376
 31
0.0
 12
3684.858577972294
 22
1217.622138628376
 32
0.0
 13
3684.858577972294
 23
1217.622138628376
 33
0.0
  0
MTEXT
  5
8248
330
823F
100
AcDbEntity
  8
3
 62
     0
100
AcDbMText
 10
3458.358577972293
 20
1217.622138628376
 30
0.0
 40
3.599999999999999
 41
0.0
 71
     5
 72
     1
  1
\A1;453
 73
     1
 44
1.0
1001
ACAD
1000
MTEXTBEGIN
1070
    73
1070
     1
1070
    44
1040
1.0
1070
    74
1070
     0
1000
MTEXTEND
  0
POINT
  5
8249
330
823F
100
AcDbEntity
  8
DEFPOINTS
 62
     0
100
AcDbPoint
 10
3231.858577972293
 20
1369.057551144371
 30
0.0
  0
POINT
  5
824A
330
823F
100
AcDbEntity
  8
DEFPOINTS
 62
     0
100
AcDbPoint
 10
3684.858577972294
 20
1369.057551144371
 30
0.0
  0
POINT
  5
824B
330
823F
100
AcDbEntity
  8
DEFPOINTS
 62
     0
100
AcDbPoint
 10
3684.858577972294
 20
1217.622138628376
 30
0.0
  0
ENDBLK
  5
8241
330
823F
100
AcDbEntity
  8
0
100
AcDbBlockEnd
  0
BLOCK
  5
824D
330
824C
100
AcDbEntity
  8
0
100
AcDbBlockBegin
  2
*D34
 70
     1
 10
0.0
 20
0.0
 30
0.0
  3
*D34
  1

  0
LINE
  5
824F
330
824C
100
AcDbEntity
  8
3
 62
     0
370
    -2
100
AcDbLine
 10
589.8390946766449
 20
1472.657551144371
 30
0.0
 11
589.8390946766449
 21
1504.514694001514
 31
0.0
  0
LINE
  5
8250
330
824C
100
AcDbEntity
  8
3
 62
     0
370
    -2
100
AcDbLine
 10
589.8390946766449
 20
1545.457551144371
 30
0.0
 11
589.8390946766449
 21
1513.600408287228
 31
0.0
  0
SOLID
  5
8251
330
824C
100
AcDbEntity
  8
3
 62
     0
100
AcDbTrace
 10
589.2390946766449
 20
1472.657551144371
 30
0.0
 11
590.4390946766449
 21
1472.657551144371
 31
0.0
 12
589.8390946766449
 22
1469.057551144371
 32
0.0
 13
589.8390946766449
 23
1469.057551144371
 33
0.0
  0
SOLID
  5
8252
330
824C
100
AcDbEntity
  8
3
 62
     0
100
AcDbTrace
 10
589.2390946766449
 20
1545.457551144371
 30
0.0
 11
590.4390946766449
 21
1545.457551144371
 31
0.0
 12
589.8390946766449
 22
1549.057551144371
 32
0.0
 13
589.8390946766449
 23
1549.057551144371
 33
0.0
  0
MTEXT
  5
8253
330
824C
100
AcDbEntity
  8
3
 62
     0
100
AcDbMText
 10
589.8390946766446
 20
1509.057551144371
 30
0.0
 40
3.599999999999999
 41
0.0
 71
     5
 72
     1
  1
\A1;(80)
 73
     1
 44
1.0
1001
ACAD
1000
MTEXTBEGIN
1070
    73
1070
     1
1070
    44
1040
1.0
1070
    74
1070
     0
1000
MTEXTEND
  0
POINT
  5
8254
330
824C
100
AcDbEntity
  8
DEFPOINTS
 62
     0
100
AcDbPoint
 10
948.2180770273394
 20
1469.057551144371
 30
0.0
  0
POINT
  5
8255
330
824C
100
AcDbEntity
  8
DEFPOINTS
 62
     0
100
AcDbPoint
 10
948.2180770273394
 20
1549.057551144371
 30
0.0
  0
POINT
  5
8256
330
824C
100
AcDbEntity
  8
DEFPOINTS
 62
     0
100
AcDbPoint
 10
589.8390946766449
 20
1549.057551144371
 30
0.0
  0
ENDBLK
  5
824E
330
824C
100
AcDbEntity
  8
0
100
AcDbBlockEnd
  0
BLOCK
  5
8258
330
8257
100
AcDbEntity
  8
0
100
AcDbBlockBegin
  2
*D35
 70
     1
 10
0.0
 20
0.0
 30
0.0
  3
*D35
  1

  0
LINE
  5
825A
330
8257
100
AcDbEntity
  8
3
 62
     0
370
    -2
100
AcDbLine
 10
946.9680770273395
 20
1469.057551144371
 30
0.0
 11
584.4161204082904
 21
1469.057551144371
 31
0.0
  0
LINE
  5
825B
330
8257
100
AcDbEntity
  8
3
 62
     0
370
    -2
100
AcDbLine
 10
946.9680770273395
 20
1369.057551144371
 30
0.0
 11
584.4161204082904
 21
1369.057551144371
 31
0.0
  0
LINE
  5
825C
330
8257
100
AcDbEntity
  8
3
 62
     0
370
    -2
100
AcDbLine
 10
588.0161204082904
 20
1465.457551144371
 30
0.0
 11
588.0161204082904
 21
1422.657551144371
 31
0.0
  0
LINE
  5
825D
330
8257
100
AcDbEntity
  8
3
 62
     0
370
    -2
100
AcDbLine
 10
588.0161204082904
 20
1372.657551144371
 30
0.0
 11
588.0161204082904
 21
1415.457551144371
 31
0.0
  0
SOLID
  5
825E
330
8257
100
AcDbEntity
  8
3
 62
     0
100
AcDbTrace
 10
587.4161204082904
 20
1465.457551144371
 30
0.0
 11
588.6161204082904
 21
1465.457551144371
 31
0.0
 12
588.0161204082904
 22
1469.057551144371
 32
0.0
 13
588.0161204082904
 23
1469.057551144371
 33
0.0
  0
SOLID
  5
825F
330
8257
100
AcDbEntity
  8
3
 62
     0
100
AcDbTrace
 10
587.4161204082904
 20
1372.657551144371
 30
0.0
 11
588.6161204082904
 21
1372.657551144371
 31
0.0
 12
588.0161204082904
 22
1369.057551144371
 32
0.0
 13
588.0161204082904
 23
1369.057551144371
 33
0.0
  0
MTEXT
  5
8260
330
8257
100
AcDbEntity
  8
3
 62
     0
100
AcDbMText
 10
588.0161204082902
 20
1419.057551144371
 30
0.0
 40
3.599999999999999
 41
0.0
 71
     5
 72
     1
  1
\A1;100
 73
     1
 44
1.0
1001
ACAD
1000
MTEXTBEGIN
1070
    73
1070
     1
1070
    44
1040
1.0
1070
    74
1070
     0
1000
MTEXTEND
  0
POINT
  5
8261
330
8257
100
AcDbEntity
  8
DEFPOINTS
 62
     0
100
AcDbPoint
 10
948.2180770273394
 20
1469.057551144371
 30
0.0
  0
POINT
  5
8262
330
8257
100
AcDbEntity
  8
DEFPOINTS
 62
     0
100
AcDbPoint
 10
948.2180770273394
 20
1369.057551144371
 30
0.0
  0
POINT
  5
8263
330
8257
100
AcDbEntity
  8
DEFPOINTS
 62
     0
100
AcDbPoint
 10
588.0161204082904
 20
1369.057551144371
 30
0.0
  0
ENDBLK
  5
8259
330
8257
100
AcDbEntity
  8
0
100
AcDbBlockEnd
  0
BLOCK
  5
8265
330
8264
100
AcDbEntity
  8
0
100
AcDbBlockBegin
  2
*D36
 70
     1
 10
0.0
 20
0.0
 30
0.0
  3
*D36
  1

  0
LINE
  5
8267
330
8264
100
AcDbEntity
  8
3
 62
     0
370
    -2
100
AcDbLine
 10
928.2180770273395
 20
1369.057551144371
 30
0.0
 11
417.0278136740361
 21
1369.057551144371
 31
0.0
  0
LINE
  5
8268
330
8264
100
AcDbEntity
  8
3
 62
     0
370
    -2
100
AcDbLine
 10
848.21807702734
 20
2732.057551144372
 30
0.0
 11
417.0278136740364
 21
2732.057551144372
 31
0.0
  0
LINE
  5
8269
330
8264
100
AcDbEntity
  8
3
 62
     0
370
    -2
100
AcDbLine
 10
420.6278136740361
 20
1372.657551144371
 30
0.0
 11
420.6278136740363
 21
2046.014694001514
 31
0.0
  0
LINE
  5
826A
330
8264
100
AcDbEntity
  8
3
 62
     0
370
    -2
100
AcDbLine
 10
420.6278136740364
 20
2728.457551144372
 30
0.0
 11
420.6278136740363
 21
2055.100408287228
 31
0.0
  0
SOLID
  5
826B
330
8264
100
AcDbEntity
  8
3
 62
     0
100
AcDbTrace
 10
420.0278136740361
 20
1372.657551144371
 30
0.0
 11
421.2278136740361
 21
1372.657551144371
 31
0.0
 12
420.6278136740361
 22
1369.057551144371
 32
0.0
 13
420.6278136740361
 23
1369.057551144371
 33
0.0
  0
SOLID
  5
826C
330
8264
100
AcDbEntity
  8
3
 62
     0
100
AcDbTrace
 10
420.0278136740364
 20
2728.457551144372
 30
0.0
 11
421.2278136740365
 21
2728.457551144372
 31
0.0
 12
420.6278136740364
 22
2732.057551144372
 32
0.0
 13
420.6278136740364
 23
2732.057551144372
 33
0.0
  0
MTEXT
  5
826D
330
8264
100
AcDbEntity
  8
3
 62
     0
100
AcDbMText
 10
420.6278136740359
 20
2050.557551144371
 30
0.0
 40
3.599999999999999
 41
0.0
 71
     5
 72
     1
  1
\A1;(1363)
 73
     1
 44
1.0
1001
ACAD
1000
MTEXTBEGIN
1070
    73
1070
     1
1070
    44
1040
1.0
1070
    74
1070
     0
1000
MTEXTEND
  0
POINT
  5
826E
330
8264
100
AcDbEntity
  8
DEFPOINTS
 62
     0
100
AcDbPoint
 10
948.2180770273394
 20
1369.057551144371
 30
0.0
  0
POINT
  5
826F
330
8264
100
AcDbEntity
  8
DEFPOINTS
 62
     0
100
AcDbPoint
 10
868.2180770273399
 20
2732.057551144372
 30
0.0
  0
POINT
  5
8270
330
8264
100
AcDbEntity
  8
DEFPOINTS
 62
     0
100
AcDbPoint
 10
420.6278136740364
 20
2732.057551144372
 30
0.0
  0
ENDBLK
  5
8266
330
8264
100
AcDbEntity
  8
0
100
AcDbBlockEnd
  0
BLOCK
  5
8276
330
8275
100
AcDbEntity
  8
0
100
AcDbBlockBegin
  2
*D37
 70
     1
 10
0.0
 20
0.0
 30
0.0
  3
*D37
  1

  0
LINE
  5
8278
330
8275
100
AcDbEntity
  8
3
 62
     0
370
    -2
100
AcDbLine
 10
3684.858577972294
 20
1349.057551144371
 30
0.0
 11
3684.858577972294
 21
1204.081171893349
 31
0.0
  0
LINE
  5
8279
330
8275
100
AcDbEntity
  8
3
 62
     0
370
    -2
100
AcDbLine
 10
3231.858577972293
 20
1349.057551144371
 30
0.0
 11
3231.858577972293
 21
1204.081171893349
 31
0.0
  0
LINE
  5
827A
330
8275
100
AcDbEntity
  8
3
 62
     0
370
    -2
100
AcDbLine
 10
3644.858577972294
 20
1224.081171893349
 30
0.0
 11
3271.858577972292
 21
1224.081171893349
 31
0.0
  0
INSERT
  5
827B
330
8275
100
AcDbEntity
  8
3
 62
     0
370
    -2
100
AcDbBlockReference
  2
_OPEN
 10
3684.858577972294
 20
1224.081171893349
 30
0.0
 41
40.0
 42
40.0
 43
40.0
  0
INSERT
  5
827C
330
8275
100
AcDbEntity
  8
3
 62
     0
370
    -2
100
AcDbBlockReference
  2
_OPEN
 10
3231.858577972293
 20
1224.081171893349
 30
0.0
 41
40.0
 42
40.0
 43
40.0
 50
180.0
  0
MTEXT
  5
827D
330
8275
100
AcDbEntity
  8
3
 62
     0
100
AcDbMText
 10
3458.358577972293
 20
1274.081171893349
 30
0.0
 40
60.0
 41
0.0
 71
     5
 72
     1
  1
\A1;453
 73
     1
 44
1.0
1001
ACAD
1000
MTEXTBEGIN
1070
    73
1070
     1
1070
    44
1040
1.0
1070
    74
1070
     0
1000
MTEXTEND
  0
POINT
  5
827E
330
8275
100
AcDbEntity
  8
DEFPOINTS
 62
     0
100
AcDbPoint
 10
3684.858577972294
 20
1369.057551144371
 30
0.0
  0
POINT
  5
827F
330
8275
100
AcDbEntity
  8
DEFPOINTS
 62
     0
100
AcDbPoint
 10
3231.858577972293
 20
1369.057551144371
 30
0.0
  0
POINT
  5
8280
330
8275
100
AcDbEntity
  8
DEFPOINTS
 62
     0
100
AcDbPoint
 10
3231.858577972293
 20
1224.081171893349
 30
0.0
  0
ENDBLK
  5
8277
330
8275
100
AcDbEntity
  8
0
100
AcDbBlockEnd
  0
BLOCK
  5
8283
330
8282
100
AcDbEntity
  8
0
100
AcDbBlockBegin
  2
*D38
 70
     1
 10
0.0
 20
0.0
 30
0.0
  3
*D38
  1

  0
LINE
  5
8285
330
8282
100
AcDbEntity
  8
3
 62
     0
370
    -2
100
AcDbLine
 10
3231.858577972293
 20
1349.057551144371
 30
0.0
 11
3231.858577972293
 21
1204.081171893349
 31
0.0
  0
LINE
  5
8286
330
8282
100
AcDbEntity
  8
3
 62
     0
370
    -2
100
AcDbLine
 10
2678.858577972293
 20
1349.057551144371
 30
0.0
 11
2678.858577972293
 21
1204.081171893349
 31
0.0
  0
LINE
  5
8287
330
8282
100
AcDbEntity
  8
3
 62
     0
370
    -2
100
AcDbLine
 10
3191.858577972292
 20
1224.081171893349
 30
0.0
 11
2718.858577972293
 21
1224.081171893349
 31
0.0
  0
INSERT
  5
8288
330
8282
100
AcDbEntity
  8
3
 62
     0
370
    -2
100
AcDbBlockReference
  2
_OPEN
 10
3231.858577972293
 20
1224.081171893349
 30
0.0
 41
40.0
 42
40.0
 43
40.0
  0
INSERT
  5
8289
330
8282
100
AcDbEntity
  8
3
 62
     0
370
    -2
100
AcDbBlockReference
  2
_OPEN
 10
2678.858577972293
 20
1224.081171893349
 30
0.0
 41
40.0
 42
40.0
 43
40.0
 50
180.0
  0
MTEXT
  5
828A
330
8282
100
AcDbEntity
  8
3
 62
     0
100
AcDbMText
 10
2955.358577972292
 20
1274.081171893349
 30
0.0
 40
60.0
 41
0.0
 71
     5
 72
     1
  1
\A1;553
 73
     1
 44
1.0
1001
ACAD
1000
MTEXTBEGIN
1070
    73
1070
     1
1070
    44
1040
1.0
1070
    74
1070
     0
1000
MTEXTEND
  0
POINT
  5
828B
330
8282
100
AcDbEntity
  8
DEFPOINTS
 62
     0
100
AcDbPoint
 10
3231.858577972293
 20
1369.057551144371
 30
0.0
  0
POINT
  5
828C
330
8282
100
AcDbEntity
  8
DEFPOINTS
 62
     0
100
AcDbPoint
 10
2678.858577972293
 20
1369.057551144371
 30
0.0
  0
POINT
  5
828D
330
8282
100
AcDbEntity
  8
DEFPOINTS
 62
     0
100
AcDbPoint
 10
2678.858577972293
 20
1224.081171893349
 30
0.0
  0
ENDBLK
  5
8284
330
8282
100
AcDbEntity
  8
0
100
AcDbBlockEnd
  0
BLOCK
  5
8290
330
828F
100
AcDbEntity
  8
0
100
AcDbBlockBegin
  2
*D39
 70
     1
 10
0.0
 20
0.0
 30
0.0
  3
*D39
  1

  0
LINE
  5
8292
330
828F
100
AcDbEntity
  8
3
 62
     0
370
    -2
100
AcDbLine
 10
948.2180770273394
 20
1349.057551144371
 30
0.0
 11
948.2180770273394
 21
1204.081171893349
 31
0.0
  0
LINE
  5
8293
330
828F
100
AcDbEntity
  8
3
 62
     0
370
    -2
100
AcDbLine
 10
1348.218077027339
 20
1349.057551144371
 30
0.0
 11
1348.218077027339
 21
1204.081171893349
 31
0.0
  0
LINE
  5
8294
330
828F
100
AcDbEntity
  8
3
 62
     0
370
    -2
100
AcDbLine
 10
988.2180770273395
 20
1224.081171893349
 30
0.0
 11
1308.218077027339
 21
1224.081171893349
 31
0.0
  0
INSERT
  5
8295
330
828F
100
AcDbEntity
  8
3
 62
     0
370
    -2
100
AcDbBlockReference
  2
_OPEN
 10
948.2180770273394
 20
1224.081171893349
 30
0.0
 41
40.0
 42
40.0
 43
40.0
 50
180.0
  0
INSERT
  5
8296
330
828F
100
AcDbEntity
  8
3
 62
     0
370
    -2
100
AcDbBlockReference
  2
_OPEN
 10
1348.218077027339
 20
1224.081171893349
 30
0.0
 41
40.0
 42
40.0
 43
40.0
  0
MTEXT
  5
8297
330
828F
100
AcDbEntity
  8
3
 62
     0
100
AcDbMText
 10
1148.218077027339
 20
1274.081171893349
 30
0.0
 40
60.0
 41
0.0
 71
     5
 72
     1
  1
\A1;400
 73
     1
 44
1.0
1001
ACAD
1000
MTEXTBEGIN
1070
    73
1070
     1
1070
    44
1040
1.0
1070
    74
1070
     0
1000
MTEXTEND
  0
POINT
  5
8298
330
828F
100
AcDbEntity
  8
DEFPOINTS
 62
     0
100
AcDbPoint
 10
948.2180770273394
 20
1369.057551144371
 30
0.0
  0
POINT
  5
8299
330
828F
100
AcDbEntity
  8
DEFPOINTS
 62
     0
100
AcDbPoint
 10
1348.218077027339
 20
1369.057551144371
 30
0.0
  0
POINT
  5
829A
330
828F
100
AcDbEntity
  8
DEFPOINTS
 62
     0
100
AcDbPoint
 10
1348.218077027339
 20
1224.081171893349
 30
0.0
  0
ENDBLK
  5
8291
330
828F
100
AcDbEntity
  8
0
100
AcDbBlockEnd
  0
BLOCK
  5
829D
330
829C
100
AcDbEntity
  8
0
100
AcDbBlockBegin
  2
*D40
 70
     1
 10
0.0
 20
0.0
 30
0.0
  3
*D40
  1

  0
LINE
  5
829F
330
829C
100
AcDbEntity
  8
3
 62
     0
370
    -2
100
AcDbLine
 10
1348.218077027339
 20
1349.057551144371
 30
0.0
 11
1348.218077027339
 21
1204.081171893349
 31
0.0
  0
LINE
  5
82A0
330
829C
100
AcDbEntity
  8
3
 62
     0
370
    -2
100
AcDbLine
 10
2398.21807702734
 20
1349.057551144371
 30
0.0
 11
2398.21807702734
 21
1204.081171893349
 31
0.0
  0
LINE
  5
82A1
330
829C
100
AcDbEntity
  8
3
 62
     0
370
    -2
100
AcDbLine
 10
1388.218077027339
 20
1224.081171893349
 30
0.0
 11
2358.21807702734
 21
1224.081171893349
 31
0.0
  0
INSERT
  5
82A2
330
829C
100
AcDbEntity
  8
3
 62
     0
370
    -2
100
AcDbBlockReference
  2
_OPEN
 10
1348.218077027339
 20
1224.081171893349
 30
0.0
 41
40.0
 42
40.0
 43
40.0
 50
180.0
  0
INSERT
  5
82A3
330
829C
100
AcDbEntity
  8
3
 62
     0
370
    -2
100
AcDbBlockReference
  2
_OPEN
 10
2398.21807702734
 20
1224.081171893349
 30
0.0
 41
40.0
 42
40.0
 43
40.0
  0
MTEXT
  5
82A4
330
829C
100
AcDbEntity
  8
3
 62
     0
100
AcDbMText
 10
1873.218077027339
 20
1274.081171893349
 30
0.0
 40
60.0
 41
0.0
 71
     5
 72
     1
  1
\A1;1050
 73
     1
 44
1.0
1001
ACAD
1000
MTEXTBEGIN
1070
    73
1070
     1
1070
    44
1040
1.0
1070
    74
1070
     0
1000
MTEXTEND
  0
POINT
  5
82A5
330
829C
100
AcDbEntity
  8
DEFPOINTS
 62
     0
100
AcDbPoint
 10
1348.218077027339
 20
1369.057551144371
 30
0.0
  0
POINT
  5
82A6
330
829C
100
AcDbEntity
  8
DEFPOINTS
 62
     0
100
AcDbPoint
 10
2398.21807702734
 20
1369.057551144371
 30
0.0
  0
POINT
  5
82A7
330
829C
100
AcDbEntity
  8
DEFPOINTS
 62
     0
100
AcDbPoint
 10
2398.21807702734
 20
1224.081171893349
 30
0.0
  0
ENDBLK
  5
829E
330
829C
100
AcDbEntity
  8
0
100
AcDbBlockEnd
  0
BLOCK
  5
82BC
330
82BB
100
AcDbEntity
  8
0
100
AcDbBlockBegin
  2
*D41
 70
     1
 10
0.0
 20
0.0
 30
0.0
  3
*D41
  1

  0
LINE
  5
82BE
330
82BB
100
AcDbEntity
  8
3
 62
     0
370
    -2
100
AcDbLine
 10
948.2180770273394
 20
3413.283651247939
 30
0.0
 11
948.2180770273394
 21
3090.340426405584
 31
0.0
  0
LINE
  5
82BF
330
82BB
100
AcDbEntity
  8
3
 62
     0
370
    -2
100
AcDbLine
 10
2398.21807702734
 20
3413.283651247939
 30
0.0
 11
2398.21807702734
 21
3090.340426405584
 31
0.0
  0
LINE
  5
82C0
330
82BB
100
AcDbEntity
  8
3
 62
     0
370
    -2
100
AcDbLine
 10
988.2180770273395
 20
3110.340426405584
 30
0.0
 11
2358.21807702734
 21
3110.340426405584
 31
0.0
  0
INSERT
  5
82C1
330
82BB
100
AcDbEntity
  8
3
 62
     0
370
    -2
100
AcDbBlockReference
  2
_OPEN
 10
948.2180770273394
 20
3110.340426405584
 30
0.0
 41
40.0
 42
40.0
 43
40.0
 50
180.0
  0
INSERT
  5
82C2
330
82BB
100
AcDbEntity
  8
3
 62
     0
370
    -2
100
AcDbBlockReference
  2
_OPEN
 10
2398.21807702734
 20
3110.340426405584
 30
0.0
 41
40.0
 42
40.0
 43
40.0
  0
MTEXT
  5
82C3
330
82BB
100
AcDbEntity
  8
3
 62
     0
100
AcDbMText
 10
1673.21807702734
 20
3160.340426405584
 30
0.0
 40
60.0
 41
0.0
 71
     5
 72
     1
  1
\A1;1450
 73
     1
 44
1.0
1001
ACAD
1000
MTEXTBEGIN
1070
    73
1070
     1
1070
    44
1040
1.0
1070
    74
1070
     0
1000
MTEXTEND
  0
POINT
  5
82C4
330
82BB
100
AcDbEntity
  8
DEFPOINTS
 62
     0
100
AcDbPoint
 10
948.2180770273394
 20
3433.283651247939
 30
0.0
  0
POINT
  5
82C5
330
82BB
100
AcDbEntity
  8
DEFPOINTS
 62
     0
100
AcDbPoint
 10
2398.21807702734
 20
3433.283651247938
 30
0.0
  0
POINT
  5
82C6
330
82BB
100
AcDbEntity
  8
DEFPOINTS
 62
     0
100
AcDbPoint
 10
2398.21807702734
 20
3110.340426405584
 30
0.0
  0
ENDBLK
  5
82BD
330
82BB
100
AcDbEntity
  8
0
100
AcDbBlockEnd
  0
BLOCK
  5
82C9
330
82C8
100
AcDbEntity
  8
0
100
AcDbBlockBegin
  2
*D42
 70
     1
 10
0.0
 20
0.0
 30
0.0
  3
*D42
  1

  0
LINE
  5
82D4
330
82C8
100
AcDbEntity
  8
3
 62
     0
370
    -2
100
AcDbLine
 10
1348.218077027339
 20
2793.690386796245
 30
0.0
 11
1348.218077027339
 21
2881.724760620891
 31
0.0
  0
LINE
  5
82D5
330
82C8
100
AcDbEntity
  8
3
 62
     0
370
    -2
100
AcDbLine
 10
1896.21807702734
 20
2121.057551144371
 30
0.0
 11
1896.21807702734
 21
2881.724760620891
 31
0.0
  0
LINE
  5
82D6
330
82C8
100
AcDbEntity
  8
3
 62
     0
370
    -2
100
AcDbLine
 10
1388.218077027339
 20
2861.724760620891
 30
0.0
 11
1856.21807702734
 21
2861.724760620891
 31
0.0
  0
INSERT
  5
82D7
330
82C8
100
AcDbEntity
  8
3
 62
     0
370
    -2
100
AcDbBlockReference
  2
_OPEN
 10
1348.218077027339
 20
2861.724760620891
 30
0.0
 41
40.0
 42
40.0
 43
40.0
 50
180.0
  0
INSERT
  5
82D8
330
82C8
100
AcDbEntity
  8
3
 62
     0
370
    -2
100
AcDbBlockReference
  2
_OPEN
 10
1896.21807702734
 20
2861.724760620891
 30
0.0
 41
40.0
 42
40.0
 43
40.0
  0
MTEXT
  5
82D9
330
82C8
100
AcDbEntity
  8
3
 62
     0
100
AcDbMText
 10
1622.218077027339
 20
2911.724760620892
 30
0.0
 40
60.0
 41
0.0
 71
     5
 72
     1
  1
\A1;548
 73
     1
 44
1.0
1001
ACAD
1000
MTEXTBEGIN
1070
    73
1070
     1
1070
    44
1040
1.0
1070
    74
1070
     0
1000
MTEXTEND
  0
POINT
  5
82DA
330
82C8
100
AcDbEntity
  8
DEFPOINTS
 62
     0
100
AcDbPoint
 10
1348.218077027339
 20
2773.690386796245
 30
0.0
  0
POINT
  5
82DB
330
82C8
100
AcDbEntity
  8
DEFPOINTS
 62
     0
100
AcDbPoint
 10
1896.21807702734
 20
2101.057551144371
 30
0.0
  0
POINT
  5
82DC
330
82C8
100
AcDbEntity
  8
DEFPOINTS
 62
     0
100
AcDbPoint
 10
1896.21807702734
 20
2861.724760620891
 30
0.0
  0
ENDBLK
  5
82CA
330
82C8
100
AcDbEntity
  8
0
100
AcDbBlockEnd
  0
BLOCK
  5
82DF
330
82DE
100
AcDbEntity
  8
0
100
AcDbBlockBegin
  2
*D43
 70
     1
 10
0.0
 20
0.0
 30
0.0
  3
*D43
  1

  0
LINE
  5
8421
330
82DE
100
AcDbEntity
  8
3
 62
     0
370
    -2
100
AcDbLine
 10
821.3251039243441
 20
2054.057551144371
 30
0.0
 11
568.7164109066469
 21
2054.057551144371
 31
0.0
  0
LINE
  5
8422
330
82DE
100
AcDbEntity
  8
3
 62
     0
370
    -2
100
AcDbLine
 10
928.2180770273393
 20
1549.057551144371
 30
0.0
 11
568.7164109066468
 21
1549.057551144371
 31
0.0
  0
LINE
  5
8423
330
82DE
100
AcDbEntity
  8
3
 62
     0
370
    -2
100
AcDbLine
 10
588.7164109066469
 20
2014.057551144371
 30
0.0
 11
588.7164109066468
 21
1589.057551144371
 31
0.0
  0
INSERT
  5
8424
330
82DE
100
AcDbEntity
  8
3
 62
     0
370
    -2
100
AcDbBlockReference
  2
_OPEN
 10
588.7164109066469
 20
2054.057551144371
 30
0.0
 41
40.0
 42
40.0
 43
40.0
 50
90.0
  0
INSERT
  5
8425
330
82DE
100
AcDbEntity
  8
3
 62
     0
370
    -2
100
AcDbBlockReference
  2
_OPEN
 10
588.7164109066468
 20
1549.057551144371
 30
0.0
 41
40.0
 42
40.0
 43
40.0
 50
270.0
  0
MTEXT
  5
8426
330
82DE
100
AcDbEntity
  8
3
 62
     0
100
AcDbMText
 10
538.7164109066466
 20
1801.557551144371
 30
0.0
 40
60.0
 41
0.0
 71
     5
 72
     1
  1
\A1;505
 11
0.0000000000000001
 21
1.0
 31
0.0
 73
     1
 44
1.0
1001
ACAD
1000
MTEXTBEGIN
1070
    73
1070
     1
1070
    44
1040
1.0
1070
    74
1070
     0
1000
MTEXTEND
  0
POINT
  5
8427
330
82DE
100
AcDbEntity
  8
DEFPOINTS
 62
     0
100
AcDbPoint
 10
841.3251039243441
 20
2054.057551144371
 30
0.0
  0
POINT
  5
8428
330
82DE
100
AcDbEntity
  8
DEFPOINTS
 62
     0
100
AcDbPoint
 10
948.2180770273394
 20
1549.057551144371
 30
0.0
  0
POINT
  5
8429
330
82DE
100
AcDbEntity
  8
DEFPOINTS
 62
     0
100
AcDbPoint
 10
588.7164109066468
 20
1549.057551144371
 30
0.0
  0
ENDBLK
  5
82E0
330
82DE
100
AcDbEntity
  8
0
100
AcDbBlockEnd
  0
BLOCK
  5
82EC
330
82EB
100
AcDbEntity
  8
0
100
AcDbBlockBegin
  2
*D44
 70
     1
 10
0.0
 20
0.0
 30
0.0
  3
*D44
  1

  0
LINE
  5
8445
330
82EB
100
AcDbEntity
  8
3
 62
     0
370
    -2
100
AcDbLine
 10
928.2180770273393
 20
1549.057551144371
 30
0.0
 11
568.7164109066468
 21
1549.057551144371
 31
0.0
  0
LINE
  5
8446
330
82EB
100
AcDbEntity
  8
3
 62
     0
370
    -2
100
AcDbLine
 10
928.2180770273395
 20
1469.057551144371
 30
0.0
 11
568.7164109066468
 21
1469.057551144371
 31
0.0
  0
LINE
  5
8447
330
82EB
100
AcDbEntity
  8
3
 62
     0
370
    -2
100
AcDbLine
 10
588.7164109066468
 20
1509.057551144371
 30
0.0
 11
588.7164109066468
 21
1469.057551144371
 31
0.0
  0
MTEXT
  5
8448
330
82EB
100
AcDbEntity
  8
3
 62
     0
100
AcDbMText
 10
512.614312160517
 20
1509.057551144371
 30
0.0
 40
60.0
 41
0.0
 71
     5
 72
     1
  1
\A1;(80)
 11
0.0000000000000001
 21
1.0
 31
0.0
 73
     1
 44
1.0
1001
ACAD
1000
MTEXTBEGIN
1070
    73
1070
     1
1070
    44
1040
1.0
1070
    74
1070
     0
1000
MTEXTEND
  0
INSERT
  5
8449
330
82EB
100
AcDbEntity
  8
3
 62
     0
370
    -2
100
AcDbBlockReference
  2
_OPEN
 10
588.7164109066468
 20
1549.057551144371
 30
0.0
 41
40.0
 42
40.0
 43
40.0
 50
90.0
  0
INSERT
  5
844A
330
82EB
100
AcDbEntity
  8
3
 62
     0
370
    -2
100
AcDbBlockReference
  2
_DotSmall
 10
588.7164109066468
 20
1469.057551144371
 30
0.0
 41
40.0
 42
40.0
 43
40.0
 50
270.0
  0
POINT
  5
844B
330
82EB
100
AcDbEntity
  8
DEFPOINTS
 62
     0
100
AcDbPoint
 10
948.2180770273394
 20
1549.057551144371
 30
0.0
  0
POINT
  5
844C
330
82EB
100
AcDbEntity
  8
DEFPOINTS
 62
     0
100
AcDbPoint
 10
948.2180770273394
 20
1469.057551144371
 30
0.0
  0
POINT
  5
844D
330
82EB
100
AcDbEntity
  8
DEFPOINTS
 62
     0
100
AcDbPoint
 10
588.7164109066468
 20
1469.057551144371
 30
0.0
  0
ENDBLK
  5
82ED
330
82EB
100
AcDbEntity
  8
0
100
AcDbBlockEnd
  0
BLOCK
  5
82FE
330
82FD
100
AcDbEntity
  8
0
100
AcDbBlockBegin
  2
*D45
 70
     1
 10
0.0
 20
0.0
 30
0.0
  3
*D45
  1

  0
LINE
  5
843C
330
82FD
100
AcDbEntity
  8
3
 62
     0
370
    -2
100
AcDbLine
 10
928.2180770273395
 20
1469.057551144371
 30
0.0
 11
568.7164109066468
 21
1469.057551144371
 31
0.0
  0
LINE
  5
843D
330
82FD
100
AcDbEntity
  8
3
 62
     0
370
    -2
100
AcDbLine
 10
928.2180770273395
 20
1369.057551144371
 30
0.0
 11
568.7164109066468
 21
1369.057551144371
 31
0.0
  0
LINE
  5
843E
330
82FD
100
AcDbEntity
  8
3
 62
     0
370
    -2
100
AcDbLine
 10
588.7164109066468
 20
1469.057551144371
 30
0.0
 11
588.7164109066468
 21
1409.057551144371
 31
0.0
  0
MTEXT
  5
843F
330
82FD
100
AcDbEntity
  8
3
 62
     0
100
AcDbMText
 10
539.8131484138247
 20
1268.701471382472
 30
0.0
 40
60.0
 41
0.0
 71
     5
 72
     1
  1
\A1;100
 11
0.0000000000000001
 21
1.0
 31
0.0
 73
     1
 44
1.0
1001
ACAD
1000
MTEXTBEGIN
1070
    73
1070
     1
1070
    44
1040
1.0
1070
    74
1070
     0
1000
MTEXTEND
  0
INSERT
  5
8440
330
82FD
100
AcDbEntity
  8
3
 62
     0
370
    -2
100
AcDbBlockReference
  2
_DotSmall
 10
588.7164109066468
 20
1469.057551144371
 30
0.0
 41
40.0
 42
40.0
 43
40.0
 50
90.0
  0
INSERT
  5
8441
330
82FD
100
AcDbEntity
  8
3
 62
     0
370
    -2
100
AcDbBlockReference
  2
_OPEN
 10
588.7164109066468
 20
1369.057551144371
 30
0.0
 41
40.0
 42
40.0
 43
40.0
 50
270.0
  0
POINT
  5
8442
330
82FD
100
AcDbEntity
  8
DEFPOINTS
 62
     0
100
AcDbPoint
 10
948.2180770273394
 20
1469.057551144371
 30
0.0
  0
POINT
  5
8443
330
82FD
100
AcDbEntity
  8
DEFPOINTS
 62
     0
100
AcDbPoint
 10
948.2180770273394
 20
1369.057551144371
 30
0.0
  0
POINT
  5
8444
330
82FD
100
AcDbEntity
  8
DEFPOINTS
 62
     0
100
AcDbPoint
 10
588.7164109066468
 20
1369.057551144371
 30
0.0
  0
ENDBLK
  5
82FF
330
82FD
100
AcDbEntity
  8
0
100
AcDbBlockEnd
  0
BLOCK
  5
8395
330
8393
100
AcDbEntity
  8
0
100
AcDbBlockBegin
  2
_DotSmall
 70
     0
 10
0.0
 20
0.0
 30
0.0
  3
_DotSmall
  1

  0
LWPOLYLINE
  5
8394
330
8393
100
AcDbEntity
  8
0
  6
ByBlock
 62
     0
100
AcDbPolyline
 90
        2
 70
     1
 43
0.5
 10
-0.0625
 20
0.0
 42
1.0
 10
0.0625
 20
0.0
 42
1.0
  0
ENDBLK
  5
8396
330
8393
100
AcDbEntity
  8
0
100
AcDbBlockEnd
  0
BLOCK
  5
8450
330
844F
100
AcDbEntity
  8
0
100
AcDbBlockBegin
  2
*D47
 70
     1
 10
0.0
 20
0.0
 30
0.0
  3
*D47
  1

  0
LINE
  5
8464
330
844F
100
AcDbEntity
  8
3
 62
     0
370
    -2
100
AcDbLine
 10
928.2180770273395
 20
1369.057551144371
 30
0.0
 11
386.5336324759408
 21
1369.057551144371
 31
0.0
  0
LINE
  5
8465
330
844F
100
AcDbEntity
  8
3
 62
     0
370
    -2
100
AcDbLine
 10
868.2180770273395
 20
2732.057551144372
 30
0.0
 11
386.5336324759411
 21
2732.057551144372
 31
0.0
  0
LINE
  5
8466
330
844F
100
AcDbEntity
  8
3
 62
     0
370
    -2
100
AcDbLine
 10
406.5336324759408
 20
1409.057551144371
 30
0.0
 11
406.533632475941
 21
2692.057551144371
 31
0.0
  0
INSERT
  5
8467
330
844F
100
AcDbEntity
  8
3
 62
     0
370
    -2
100
AcDbBlockReference
  2
_OPEN
 10
406.5336324759407
 20
1369.057551144371
 30
0.0
 41
40.0
 42
40.0
 43
40.0
 50
270.0
  0
INSERT
  5
8468
330
844F
100
AcDbEntity
  8
3
 62
     0
370
    -2
100
AcDbBlockReference
  2
_OPEN
 10
406.533632475941
 20
2732.057551144372
 30
0.0
 41
40.0
 42
40.0
 43
40.0
 50
90.0
  0
MTEXT
  5
8469
330
844F
100
AcDbEntity
  8
3
 62
     0
100
AcDbMText
 10
340.8193467616549
 20
2050.557551144371
 30
0.0
 40
60.0
 41
0.0
 71
     5
 72
     1
  1
\A1;(1363)
 11
0.0000000000000001
 21
1.0
 31
0.0
 73
     1
 44
1.0
1001
ACAD
1000
MTEXTBEGIN
1070
    73
1070
     1
1070
    44
1040
1.0
1070
    74
1070
     0
1000
MTEXTEND
  0
POINT
  5
846A
330
844F
100
AcDbEntity
  8
DEFPOINTS
 62
     0
100
AcDbPoint
 10
948.2180770273394
 20
1369.057551144371
 30
0.0
  0
POINT
  5
846B
330
844F
100
AcDbEntity
  8
DEFPOINTS
 62
     0
100
AcDbPoint
 10
888.2180770273397
 20
2732.057551144372
 30
0.0
  0
POINT
  5
846C
330
844F
100
AcDbEntity
  8
DEFPOINTS
 62
     0
100
AcDbPoint
 10
406.533632475941
 20
2732.057551144372
 30
0.0
  0
ENDBLK
  5
8451
330
844F
100
AcDbEntity
  8
0
100
AcDbBlockEnd
  0
BLOCK
  5
846F
330
846E
100
AcDbEntity
  8
0
100
AcDbBlockBegin
  2
*D48
 70
     1
 10
0.0
 20
0.0
 30
0.0
  3
*D48
  1

  0
LINE
  5
847A
330
846E
100
AcDbEntity
  8
3
 62
     0
370
    -2
100
AcDbLine
 10
1748.218077027339
 20
4459.28365124794
 30
0.0
 11
1748.218077027339
 21
4607.888941746344
 31
0.0
  0
LINE
  5
847B
330
846E
100
AcDbEntity
  8
3
 62
     0
370
    -2
100
AcDbLine
 10
2398.21807702734
 20
4053.283651247938
 30
0.0
 11
2398.21807702734
 21
4607.888941746344
 31
0.0
  0
LINE
  5
847C
330
846E
100
AcDbEntity
  8
3
 62
     0
370
    -2
100
AcDbLine
 10
1788.218077027339
 20
4587.888941746345
 30
0.0
 11
2358.21807702734
 21
4587.888941746345
 31
0.0
  0
INSERT
  5
847D
330
846E
100
AcDbEntity
  8
3
 62
     0
370
    -2
100
AcDbBlockReference
  2
_OPEN
 10
1748.218077027339
 20
4587.888941746345
 30
0.0
 41
40.0
 42
40.0
 43
40.0
 50
180.0
  0
INSERT
  5
847E
330
846E
100
AcDbEntity
  8
3
 62
     0
370
    -2
100
AcDbBlockReference
  2
_OPEN
 10
2398.21807702734
 20
4587.888941746345
 30
0.0
 41
40.0
 42
40.0
 43
40.0
  0
MTEXT
  5
847F
330
846E
100
AcDbEntity
  8
3
 62
     0
100
AcDbMText
 10
2073.21807702734
 20
4637.888941746346
 30
0.0
 40
60.0
 41
0.0
 71
     5
 72
     1
  1
\A1;650
 73
     1
 44
1.0
1001
ACAD
1000
MTEXTBEGIN
1070
    73
1070
     1
1070
    44
1040
1.0
1070
    74
1070
     0
1000
MTEXTEND
  0
POINT
  5
8480
330
846E
100
AcDbEntity
  8
DEFPOINTS
 62
     0
100
AcDbPoint
 10
1748.218077027339
 20
4439.283651247939
 30
0.0
  0
POINT
  5
8481
330
846E
100
AcDbEntity
  8
DEFPOINTS
 62
     0
100
AcDbPoint
 10
2398.21807702734
 20
4033.283651247938
 30
0.0
  0
POINT
  5
8482
330
846E
100
AcDbEntity
  8
DEFPOINTS
 62
     0
100
AcDbPoint
 10
2398.21807702734
 20
4587.888941746345
 30
0.0
  0
ENDBLK
  5
8470
330
846E
100
AcDbEntity
  8
0
100
AcDbBlockEnd
  0
ENDSEC
  0
SECTION
  2
ENTITIES
  0
INSERT
  5
7BEF
330
81A3
100
AcDbEntity
  8
0
100
AcDbBlockReference
  2
YA_N
 10
6.0
 20
5.0
 30
0.0
  0
LINE
  5
7BF1
330
81A3
100
AcDbEntity
  8
2
100
AcDbLine
 10
1959.471819333266
 20
2054.057551144371
 30
0.0
 11
841.3251039243441
 21
2054.057551144371
 31
0.0
  0
LINE
  5
7BF2
330
81A3
100
AcDbEntity
  8
2
100
AcDbLine
 10
1348.218077027339
 20
2773.690386796245
 30
0.0
 11
1348.218077027339
 21
1369.057551144371
 31
0.0
  0
ARC
  5
7BF3
330
81A3
100
AcDbEntity
  8
1
100
AcDbCircle
 10
1301.21807702734
 20
2101.057551144371
 30
0.0
 40
595.0
100
AcDbArc
 50
355.4693949573174
 51
85.46939495731736
  0
ARC
  5
7BF4
330
81A3
100
AcDbEntity
  8
1
100
AcDbCircle
 10
1395.218077027339
 20
2101.057551144371
 30
0.0
 40
501.0
100
AcDbArc
 50
295.5518119606779
 51
354.6170313501186
  0
ARC
  5
7BF5
330
81A3
100
AcDbEntity
  8
1
100
AcDbCircle
 10
1386.21807702734
 20
2016.057551144371
 30
0.0
 40
416.0
100
AcDbArc
 50
174.7589449387033
 51
241.9103016310945
  0
LINE
  5
7BF6
330
81A3
100
AcDbEntity
  8
1
100
AcDbLine
 10
888.2180770273397
 20
2774.057551144371
 30
0.0
 11
888.2180770273397
 21
2040.057551144371
 31
0.0
  0
LINE
  5
7BF7
330
81A3
100
AcDbEntity
  8
1
100
AcDbLine
 10
888.2180770273397
 20
2732.057551144372
 30
0.0
 11
1348.218077027339
 21
2694.198343874056
 31
0.0
  0
LINE
  5
7BF8
330
81A3
100
AcDbEntity
  8
1
100
AcDbLine
 10
971.2565405279248
 20
2082.057551144371
 30
0.0
 11
888.2180770273397
 21
2082.057551144371
 31
0.0
  0
LINE
  5
7BF9
330
81A3
100
AcDbEntity
  8
1
100
AcDbLine
 10
928.2180770273399
 20
2728.765446164344
 30
0.0
 11
928.2180770273399
 21
2082.057551144371
 31
0.0
  0
LINE
  5
7BFA
330
81A3
100
AcDbEntity
  8
1
100
AcDbLine
 10
891.2180770273396
 20
2774.057551144371
 30
0.0
 11
888.2180770273397
 21
2774.057551144371
 31
0.0
  0
LINE
  5
7BFB
330
81A3
100
AcDbEntity
  8
1
100
AcDbLine
 10
891.2180770273396
 20
2040.057551144371
 30
0.0
 11
888.2180770273397
 21
2040.057551144371
 31
0.0
  0
LINE
  5
7BFC
330
81A3
100
AcDbEntity
  8
1
100
AcDbLine
 10
891.2180770273396
 20
2774.057551144371
 30
0.0
 11
891.2180770273396
 21
2040.057551144371
 31
0.0
  0
LINE
  5
7BFD
330
81A3
100
AcDbEntity
  8
2
100
AcDbLine
 10
3231.858577972293
 20
2873.777212535904
 30
0.0
 11
3231.858577972293
 21
1369.057551144371
 31
0.0
  0
LINE
  5
7BFE
330
81A3
100
AcDbEntity
  8
2
100
AcDbLine
 10
2449.858577972293
 20
2054.057551144371
 30
0.0
 11
3737.530252594442
 21
2054.057551144371
 31
0.0
  0
LINE
  5
7BFF
330
81A3
100
AcDbEntity
  8
1
100
AcDbLine
 10
3684.858577972294
 20
1649.057551144371
 30
0.0
 11
3684.858577972294
 21
1643.587419931185
 31
0.0
  0
LINE
  5
7C00
330
81A3
100
AcDbEntity
  8
1
100
AcDbLine
 10
3631.858577972293
 20
2732.057551144372
 30
0.0
 11
3631.858577972293
 21
2082.057551144371
 31
0.0
  0
LINE
  5
7C01
330
81A3
100
AcDbEntity
  8
1
100
AcDbLine
 10
2831.858577972293
 20
2732.057551144372
 30
0.0
 11
3631.858577972292
 21
2732.057551144372
 31
0.0
  0
LINE
  5
7C03
330
81A3
100
AcDbEntity
  8
1
100
AcDbLine
 10
3631.858577972292
 20
2082.057551144371
 30
0.0
 11
3631.858577972293
 21
1649.057551144371
 31
0.0
  0
LINE
  5
7C04
330
81A3
100
AcDbEntity
  8
2
100
AcDbLine
 10
1348.218077027339
 20
4467.081737752761
 30
0.0
 11
1348.218077027339
 21
3182.730367976243
 31
0.0
  0
LINE
  5
7C05
330
81A3
100
AcDbEntity
  8
2
100
AcDbLine
 10
1950.065926726158
 20
3986.283651247939
 30
0.0
 11
838.7075423435161
 21
3986.283651247939
 31
0.0
  0
INSERT
  5
7C06
330
81A3
100
AcDbEntity
  8
0
100
AcDbBlockReference
  2
YA_N
 10
-1221.011981710642
 20
-542.7332483964637
 30
0.0
 41
15.0
 42
15.0
 43
15.0
  0
LINE
  5
7C08
330
81A3
100
AcDbEntity
  8
1
100
AcDbLine
 10
2398.21807702734
 20
1369.057551144371
 30
0.0
 11
948.2180770273394
 21
1369.057551144371
 31
0.0
  0
LINE
  5
7C09
330
81A3
100
AcDbEntity
  8
1
100
AcDbLine
 10
2398.21807702734
 20
1469.057551144371
 30
0.0
 11
948.2180770273394
 21
1469.057551144371
 31
0.0
1001
ACAD
1000
ASC_BOUNDS
1002
{
1070
    19
1005
0
1005
0
1002
}
  0
LINE
  5
7C0A
330
81A3
100
AcDbEntity
  8
1
100
AcDbLine
 10
2398.21807702734
 20
1469.057551144371
 30
0.0
 11
2398.21807702734
 21
1369.057551144371
 31
0.0
  0
LINE
  5
7C0B
330
81A3
100
AcDbEntity
  8
1
100
AcDbLine
 10
948.2180770273394
 20
1469.057551144371
 30
0.0
 11
948.2180770273394
 21
1369.057551144371
 31
0.0
  0
ARC
  5
7C0C
330
81A3
100
AcDbEntity
  8
1
100
AcDbCircle
 10
2198.218077027339
 20
1866.057551144371
 30
0.0
 40
142.5
100
AcDbArc
 50
180.0
 51
213.0338076719878
  0
ARC
  5
7C0D
330
81A3
100
AcDbEntity
  8
1
100
AcDbCircle
 10
2198.218077027339
 20
1866.057551144371
 30
0.0
 40
142.5
100
AcDbArc
 50
326.9661316176382
 51
180.0
  0
LINE
  5
7C0E
330
81A3
100
AcDbEntity
  8
2
100
AcDbLine
 10
2198.218077027339
 20
2027.65629226163
 30
0.0
 11
2198.218077027339
 21
1369.057551144371
 31
0.0
  0
LINE
  5
7C0F
330
81A3
100
AcDbEntity
  8
1
100
AcDbLine
 10
2317.682735036262
 20
1788.375857761624
 30
0.0
 11
2328.21807702734
 21
1749.057551144371
 31
0.0
  0
LINE
  5
7C10
330
81A3
100
AcDbEntity
  8
1
100
AcDbLine
 10
2328.21807702734
 20
1748.860151144371
 30
0.0
 11
2328.21807702734
 21
1734.057551144371
 31
0.0
  0
LINE
  5
7C11
330
81A3
100
AcDbEntity
  8
1
100
AcDbLine
 10
2078.753336707279
 20
1788.375984345931
 30
0.0
 11
2068.218077027339
 21
1749.057551144371
 31
0.0
  0
LINE
  5
7C12
330
81A3
100
AcDbEntity
  8
1
100
AcDbLine
 10
2068.218077027339
 20
1748.860151144371
 30
0.0
 11
2068.218077027339
 21
1734.057551144371
 31
0.0
  0
LINE
  5
7C13
330
81A3
100
AcDbEntity
  8
2
100
AcDbLine
 10
2368.75564184293
 20
1866.057551144371
 30
0.0
 11
2029.717311501679
 21
1866.057551144371
 31
0.0
  0
LINE
  5
7C14
330
81A3
100
AcDbEntity
  8
1
100
AcDbLine
 10
1998.218077027339
 20
1689.057551144371
 30
0.0
 11
1998.218077027339
 21
1649.057551144371
 31
0.0
  0
LINE
  5
7C15
330
81A3
100
AcDbEntity
  8
1
100
AcDbLine
 10
2398.21807702734
 20
1689.057551144371
 30
0.0
 11
2398.21807702734
 21
1649.057551144371
 31
0.0
  0
LINE
  5
7C17
330
81A3
100
AcDbEntity
  8
1
100
AcDbLine
 10
2362.053733641134
 20
1734.057551144371
 30
0.0
 11
2035.595565636012
 21
1734.057551144371
 31
0.0
  0
LINE
  5
7C18
330
81A3
100
AcDbEntity
  8
1
100
AcDbLine
 10
2373.21807702734
 20
1689.057551144371
 30
0.0
 11
2362.053733641134
 21
1734.057551144371
 31
0.0
  0
LINE
  5
7C19
330
81A3
100
AcDbEntity
  8
1
100
AcDbLine
 10
2023.21807702734
 20
1689.057551144371
 30
0.0
 11
2035.595565636012
 21
1734.057551144371
 31
0.0
  0
LINE
  5
7C1A
330
81A3
100
AcDbEntity
  8
1
100
AcDbLine
 10
2678.858577972293
 20
1469.057551144371
 30
0.0
 11
3684.858577972294
 21
1469.057551144371
 31
0.0
1001
ACAD
1000
ASC_BOUNDS
1002
{
1070
    19
1002
}
  0
LINE
  5
7C1B
330
81A3
100
AcDbEntity
  8
1
100
AcDbLine
 10
2678.858577972293
 20
1369.057551144371
 30
0.0
 11
3684.858577972294
 21
1369.057551144371
 31
0.0
  0
LINE
  5
7C1C
330
81A3
100
AcDbEntity
  8
1
100
AcDbLine
 10
2678.858577972293
 20
1469.057551144371
 30
0.0
 11
2678.858577972293
 21
1369.057551144371
 31
0.0
  0
LINE
  5
7C1D
330
81A3
100
AcDbEntity
  8
1
100
AcDbLine
 10
3684.858577972294
 20
1469.057551144371
 30
0.0
 11
3684.858577972294
 21
1369.057551144371
 31
0.0
  0
DIMENSION
  5
7C1F
330
81A3
100
AcDbEntity
  8
3
100
AcDbDimension
  2
*D4
 10
738.2602551103299
 20
2082.057551144371
 30
0.0
 11
698.2602551103301
 21
2407.057551144371
 31
0.0
 12
1023.63210711491
 22
1485.959924694251
 32
0.0
 71
     5
 42
-1.0
  3
Standard
100
AcDbAlignedDimension
 13
888.2180770273397
 23
2732.057551144372
 33
0.0
 14
888.2180770273397
 24
2082.057551144371
 34
0.0
 50
270.0
100
AcDbRotatedDimension
1001
ACAD
1000
DSTYLE
1002
{
1070
    40
1040
20.0
1002
}
  0
DIMENSION
  5
7C20
330
81A3
100
AcDbEntity
  8
3
100
AcDbDimension
  2
*D5
 10
588.716410906647
 20
2054.057551144371
 30
0.0
 11
548.7164109066469
 21
2393.057551144371
 31
0.0
 12
1023.63210711491
 22
1485.959924694251
 32
0.0
 71
     5
 42
-1.0
  3
Standard
100
AcDbAlignedDimension
 13
888.2180770273397
 23
2732.057551144372
 33
0.0
 14
841.3251039243441
 24
2054.057551144371
 34
0.0
 50
270.0
100
AcDbRotatedDimension
1001
ACAD
1000
DSTYLE
1002
{
1070
    40
1040
20.0
1002
}
  0
POINT
  5
7C21
330
81A3
100
AcDbEntity
  8
1
100
AcDbPoint
 10
948.2180770273394
 20
1369.057551144371
 30
0.0
  0
DIMENSION
  5
7C22
330
81A3
100
AcDbEntity
  8
3
100
AcDbDimension
  2
*D6
 10
1348.218077027339
 20
2861.724760620891
 30
0.0
 11
1118.218077027338
 21
2901.724760620891
 31
0.0
 12
190.0957371585136
 22
0.0
 32
0.0
 71
     5
 42
-1.0
  3
Standard
100
AcDbAlignedDimension
 13
888.2180770273397
 23
2774.057551144371
 33
0.0
 14
1348.218077027339
 24
2773.690386796245
 34
0.0
100
AcDbRotatedDimension
1001
ACAD
1000
DSTYLE
1002
{
1070
    40
1040
20.0
1002
}
  0
LINE
  5
7C24
330
81A3
100
AcDbEntity
  8
2
100
AcDbLine
 10
2449.858577972293
 20
1866.057551144371
 30
0.0
 11
3132.886188514454
 21
1866.057551144371
 31
0.0
  0
LINE
  5
7C26
330
81A3
100
AcDbEntity
  8
1
100
AcDbLine
 10
2831.858577972293
 20
2732.057551144372
 30
0.0
 11
2831.858577972293
 21
2082.057551144371
 31
0.0
  0
LINE
  5
7C27
330
81A3
100
AcDbEntity
  8
1
100
AcDbLine
 10
2831.858577972293
 20
2082.057551144371
 30
0.0
 11
2831.858577972293
 21
2008.557551144371
 31
0.0
  0
LINE
  5
7C28
330
81A3
100
AcDbEntity
  8
1
100
AcDbLine
 10
3741.858577972293
 20
2024.057551144371
 30
0.0
 11
3741.858577972293
 21
1924.05755114437
 31
0.0
  0
ARC
  5
7C29
330
81A3
100
AcDbEntity
  8
1
100
AcDbCircle
 10
3731.858577972293
 20
2024.057551144371
 30
0.0
 40
10.0
100
AcDbArc
 50
0.0
 51
90.0
  0
ARC
  5
7C2A
330
81A3
100
AcDbEntity
  8
1
100
AcDbCircle
 10
3731.858577972293
 20
1924.05755114437
 30
0.0
 40
10.0
100
AcDbArc
 50
270.0
 51
0.0
  0
LINE
  5
7C2B
330
81A3
100
AcDbEntity
  8
1
100
AcDbLine
 10
3631.858577972293
 20
1914.057551144371
 30
0.0
 11
3731.858577972293
 21
1914.05755114437
 31
0.0
  0
LINE
  5
7C2C
330
81A3
100
AcDbEntity
  8
1
100
AcDbLine
 10
3631.858577972293
 20
2034.057551144371
 30
0.0
 11
3731.858577972293
 21
2034.057551144371
 31
0.0
  0
CIRCLE
  5
7C2D
330
81A3
100
AcDbEntity
  8
1
100
AcDbCircle
 10
2198.218077027339
 20
1866.057551144371
 30
0.0
 40
79.0
  0
CIRCLE
  5
7C2E
330
81A3
100
AcDbEntity
  8
1
100
AcDbCircle
 10
1348.218077027339
 20
2054.057551144371
 30
0.0
 40
88.9
  0
ARC
  5
7C2F
330
81A3
100
AcDbEntity
  8
1
100
AcDbCircle
 10
1348.218077027339
 20
2054.057551144371
 30
0.0
 40
150.0
100
AcDbArc
 50
77.52830244339076
 51
257.5283024433907
  0
ARC
  5
7C30
330
81A3
100
AcDbEntity
  8
1
100
AcDbCircle
 10
2198.218077027339
 20
1866.057551144371
 30
0.0
 40
150.0
100
AcDbArc
 50
257.5283024433907
 51
77.52830244339076
  0
LINE
  5
7C31
330
81A3
100
AcDbEntity
  8
1
100
AcDbLine
 10
1380.611675898639
 20
2200.517971573118
 30
0.0
 11
2230.611675898639
 21
2012.517971573118
 31
0.0
  0
LINE
  5
7C32
330
81A3
100
AcDbEntity
  8
1
100
AcDbLine
 10
1368.402575694228
 20
2140.635816393603
 30
0.0
 11
2216.154808126149
 21
1942.994367282608
 31
0.0
  0
LINE
  5
7C33
330
81A3
100
AcDbEntity
  8
1
100
AcDbLine
 10
1330.007846151711
 20
1967.042624313072
 30
0.0
 11
2182.035757126612
 21
1788.73270052938
 31
0.0
  0
LINE
  5
7C34
330
81A3
100
AcDbEntity
  8
1
100
AcDbLine
 10
1315.82447815604
 20
1907.597130715624
 30
0.0
 11
2165.82447815604
 21
1719.597130715624
 31
0.0
  0
LINE
  5
7C35
330
81A3
100
AcDbEntity
  8
1
100
AcDbLine
 10
2579.858577972293
 20
2142.957551144371
 30
0.0
 11
2579.858577972292
 21
1965.15755114437
 31
0.0
  0
LINE
  5
7C36
330
81A3
100
AcDbEntity
  8
1
100
AcDbLine
 10
2661.858577972293
 20
2142.957551144371
 30
0.0
 11
2661.858577972292
 21
1965.15755114437
 31
0.0
  0
LINE
  5
7C37
330
81A3
100
AcDbEntity
  8
1
100
AcDbLine
 10
2579.858577972293
 20
2142.957551144371
 30
0.0
 11
2661.858577972293
 21
2142.957551144371
 31
0.0
  0
LINE
  5
7C38
330
81A3
100
AcDbEntity
  8
1
100
AcDbLine
 10
2579.858577972292
 20
1965.15755114437
 30
0.0
 11
2661.858577972292
 21
1965.15755114437
 31
0.0
  0
LINE
  5
7C39
330
81A3
100
AcDbEntity
  8
1
100
AcDbLine
 10
2579.858577972292
 20
1945.057551144371
 30
0.0
 11
2661.858577972292
 21
1945.057551144371
 31
0.0
  0
LINE
  5
7C3A
330
81A3
100
AcDbEntity
  8
1
100
AcDbLine
 10
2579.858577972292
 20
1787.057551144371
 30
0.0
 11
2661.858577972291
 21
1787.057551144371
 31
0.0
  0
LINE
  5
7C3B
330
81A3
100
AcDbEntity
  8
1
100
AcDbLine
 10
2451.858577972293
 20
2204.057551144371
 30
0.0
 11
2451.858577972291
 21
1716.057551144371
 31
0.0
  0
LINE
  5
7C3C
330
81A3
100
AcDbEntity
  8
1
100
AcDbLine
 10
2711.858577972293
 20
2204.057551144371
 30
0.0
 11
2711.858577972293
 21
2184.057551144371
 31
0.0
  0
LINE
  5
7C3D
330
81A3
100
AcDbEntity
  8
1
100
AcDbLine
 10
2451.858577972294
 20
2204.057551144371
 30
0.0
 11
2711.858577972293
 21
2204.057551144371
 31
0.0
  0
LINE
  5
7C3E
330
81A3
100
AcDbEntity
  8
1
100
AcDbLine
 10
2451.858577972291
 20
1716.057551144371
 30
0.0
 11
2711.858577972291
 21
1716.057551144371
 31
0.0
  0
LINE
  5
7C3F
330
81A3
100
AcDbEntity
  8
1
100
AcDbLine
 10
2711.858577972291
 20
1723.557551144371
 30
0.0
 11
2711.858577972291
 21
1716.057551144371
 31
0.0
  0
LINE
  5
7C40
330
81A3
100
AcDbEntity
  8
1
100
AcDbLine
 10
1748.218077027339
 20
4439.283651247939
 30
0.0
 11
948.2180770273387
 21
4439.283651247939
 31
0.0
  0
LINE
  5
7C41
330
81A3
100
AcDbEntity
  8
1
100
AcDbLine
 10
2398.21807702734
 20
3433.283651247938
 30
0.0
 11
948.2180770273394
 21
3433.283651247939
 31
0.0
  0
LINE
  5
7C42
330
81A3
100
AcDbEntity
  8
1
100
AcDbLine
 10
948.2180770273394
 20
4439.283651247939
 30
0.0
 11
948.2180770273394
 21
4386.283651247942
 31
0.0
  0
LINE
  5
7C43
330
81A3
100
AcDbEntity
  8
1
100
AcDbLine
 10
1748.218077027339
 20
4439.283651247939
 30
0.0
 11
1748.218077027339
 21
4386.283651247938
 31
0.0
  0
LINE
  5
7C44
330
81A3
100
AcDbEntity
  8
1
100
AcDbLine
 10
2398.21807702734
 20
4033.283651247938
 30
0.0
 11
2398.21807702734
 21
3433.283651247938
 31
0.0
  0
LINE
  5
7C45
330
81A3
100
AcDbEntity
  8
1
100
AcDbLine
 10
2398.21807702734
 20
4033.283651247938
 30
0.0
 11
1896.21807702734
 21
4033.283651247938
 31
0.0
  0
POINT
  5
7C47
330
81A3
100
AcDbEntity
  8
1
100
AcDbPoint
 10
948.2180770273394
 20
1469.057551144371
 30
0.0
  0
POINT
  5
7C48
330
81A3
100
AcDbEntity
  8
1
100
AcDbPoint
 10
948.2180770273394
 20
1369.057551144371
 30
0.0
  0
POINT
  5
7C49
330
81A3
100
AcDbEntity
  8
1
100
AcDbPoint
 10
948.2180770273394
 20
1469.057551144371
 30
0.0
  0
DIMENSION
  5
7C4A
330
81A3
100
AcDbEntity
  8
3
100
AcDbDimension
  2
*D9
 10
3885.395611542957
 20
1719.057551144371
 30
0.0
 11
3845.395611542958
 21
2054.057551144371
 31
0.0
 12
664.5623844890105
 22
1485.959924694251
 32
0.0
 71
     5
 42
-1.0
  3
Standard
100
AcDbAlignedDimension
 13
3637.358577972294
 23
2389.057551144372
 33
0.0
 14
3637.358577972294
 24
1719.057551144371
 34
0.0
 50
90.0
100
AcDbRotatedDimension
1001
ACAD
1000
DSTYLE
1002
{
1070
    40
1040
20.0
1070
     3
1000
\U+03C6<>
1002
}
  0
DIMENSION
  5
7C4D
330
81A3
100
AcDbEntity
  8
3
100
AcDbDimension
  2
*D10
 10
3631.858577972292
 20
2890.249354893976
 30
0.0
 11
3231.858577972293
 21
2930.249354893976
 31
0.0
 71
     5
 42
-1.0
  3
Standard
100
AcDbAlignedDimension
 13
2831.858577972293
 23
2732.057551144372
 33
0.0
 14
3631.858577972292
 24
2732.057551144372
 34
0.0
100
AcDbRotatedDimension
1001
ACAD
1000
DSTYLE
1002
{
1070
    40
1040
20.0
1002
}
  0
ARC
  5
7C4E
330
81A3
100
AcDbEntity
  8
1
100
AcDbCircle
 10
2739.358577972292
 20
2020.85755114437
 30
0.0
 40
10.0
100
AcDbArc
 50
90.0
 51
180.0
  0
LINE
  5
7C4F
330
81A3
100
AcDbEntity
  8
1
100
AcDbLine
 10
2831.858577972293
 20
2030.857551144371
 30
0.0
 11
2739.358577972292
 21
2030.857551144371
 31
0.0
  0
LINE
  5
7C50
330
81A3
100
AcDbEntity
  8
1
100
AcDbLine
 10
2729.358577972292
 20
2020.85755114437
 30
0.0
 11
2729.358577972292
 21
2008.557551144371
 31
0.0
  0
LINE
  5
7C51
330
81A3
100
AcDbEntity
  8
1
100
AcDbLine
 10
2661.858577972292
 20
2029.057551144371
 30
0.0
 11
2733.758577972293
 21
2029.057551144371
 31
0.0
  0
LINE
  5
7C53
330
81A3
100
AcDbEntity
  8
1
100
AcDbLine
 10
948.2180770273394
 20
1649.057551144371
 30
0.0
 11
948.2180770273394
 21
1549.057551144371
 31
0.0
  0
LINE
  5
7C54
330
81A3
100
AcDbEntity
  8
1
100
AcDbLine
 10
2398.21807702734
 20
1649.057551144371
 30
0.0
 11
948.2180770273394
 21
1649.057551144371
 31
0.0
1001
ACAD
1000
ASC_BOUNDS
1002
{
1070
    19
1005
0
1005
0
1002
}
  0
LINE
  5
7C55
330
81A3
100
AcDbEntity
  8
1
100
AcDbLine
 10
2398.21807702734
 20
1549.057551144371
 30
0.0
 11
948.2180770273394
 21
1549.057551144371
 31
0.0
  0
LINE
  5
7C56
330
81A3
100
AcDbEntity
  8
1
100
AcDbLine
 10
2398.21807702734
 20
1649.057551144371
 30
0.0
 11
2398.21807702734
 21
1549.057551144371
 31
0.0
  0
LINE
  5
7C57
330
81A3
100
AcDbEntity
  8
1
100
AcDbLine
 10
2678.858577972293
 20
1649.057551144371
 30
0.0
 11
3684.158577972294
 21
1649.057551144371
 31
0.0
1001
ACAD
1000
ASC_BOUNDS
1002
{
1070
    19
1002
}
  0
LINE
  5
7C58
330
81A3
100
AcDbEntity
  8
1
100
AcDbLine
 10
2678.858577972293
 20
1649.057551144371
 30
0.0
 11
2678.858577972293
 21
1549.057551144371
 31
0.0
  0
LINE
  5
7C59
330
81A3
100
AcDbEntity
  8
1
100
AcDbLine
 10
2678.858577972293
 20
1549.057551144371
 30
0.0
 11
3684.858577972292
 21
1549.057551144371
 31
0.0
  0
LINE
  5
7C5A
330
81A3
100
AcDbEntity
  8
1
100
AcDbLine
 10
3684.858577972294
 20
1649.057551144371
 30
0.0
 11
3684.858577972294
 21
1549.057551144371
 31
0.0
  0
ARC
  5
7C5B
330
81A3
100
AcDbEntity
  8
1
100
AcDbCircle
 10
1348.218077027339
 20
2054.057551144371
 30
0.0
 40
378.0
100
AcDbArc
 50
175.7519773332714
 51
180.0
  0
LINE
  5
7C5C
330
81A3
100
AcDbEntity
  8
1
100
AcDbLine
 10
1896.21807702734
 20
4386.283651247938
 30
0.0
 11
888.2180770273397
 21
4386.283651247942
 31
0.0
  0
LINE
  5
7C5D
330
81A3
100
AcDbEntity
  8
1
100
AcDbLine
 10
1896.21807702734
 20
3586.283651247939
 30
0.0
 11
888.2180770273397
 21
3586.283651247939
 31
0.0
  0
LINE
  5
7C5E
330
81A3
100
AcDbEntity
  8
1
100
AcDbLine
 10
888.2180770273397
 20
4426.283651247941
 30
0.0
 11
888.2180770273397
 21
3546.283651247939
 31
0.0
  0
LINE
  5
7C5F
330
81A3
100
AcDbEntity
  8
1
100
AcDbLine
 10
1896.21807702734
 20
4386.283651247938
 30
0.0
 11
1896.21807702734
 21
3586.283651247939
 31
0.0
  0
LINE
  5
7C60
330
81A3
100
AcDbEntity
  8
1
100
AcDbLine
 10
928.2180770273406
 20
4386.283651247942
 30
0.0
 11
928.2180770273399
 21
3586.283651247939
 31
0.0
  0
LINE
  5
7C61
330
81A3
100
AcDbEntity
  8
1
100
AcDbLine
 10
948.2180770273394
 20
3586.283651247939
 30
0.0
 11
948.2180770273394
 21
3433.283651247939
 31
0.0
  0
LINE
  5
7C62
330
81A3
100
AcDbEntity
  8
1
100
AcDbLine
 10
2277.21807702734
 20
3334.283651247939
 30
0.0
 11
2119.21807702734
 21
3334.283651247939
 31
0.0
  0
LINE
  5
7C63
330
81A3
100
AcDbEntity
  8
1
100
AcDbLine
 10
2277.21807702734
 20
3416.28365124794
 30
0.0
 11
2119.21807702734
 21
3416.28365124794
 31
0.0
  0
LINE
  5
7C64
330
81A3
100
AcDbEntity
  8
1
100
AcDbLine
 10
1259.318077027339
 20
3416.283651247939
 30
0.0
 11
1259.318077027339
 21
3334.283651247939
 31
0.0
  0
LINE
  5
7C65
330
81A3
100
AcDbEntity
  8
1
100
AcDbLine
 10
1437.11807702734
 20
3416.283651247939
 30
0.0
 11
1437.11807702734
 21
3334.283651247939
 31
0.0
  0
LINE
  5
7C66
330
81A3
100
AcDbEntity
  8
1
100
AcDbLine
 10
2119.21807702734
 20
3416.283651247939
 30
0.0
 11
2119.21807702734
 21
3334.283651247939
 31
0.0
  0
LINE
  5
7C67
330
81A3
100
AcDbEntity
  8
1
100
AcDbLine
 10
2277.21807702734
 20
3416.283651247939
 30
0.0
 11
2277.21807702734
 21
3334.283651247939
 31
0.0
  0
LINE
  5
7C68
330
81A3
100
AcDbEntity
  8
1
100
AcDbLine
 10
2348.218077027339
 20
3206.283651247939
 30
0.0
 11
1198.218077027338
 21
3206.28365124794
 31
0.0
  0
LINE
  5
7C69
330
81A3
100
AcDbEntity
  8
1
100
AcDbLine
 10
1198.218077027338
 20
3466.283651247939
 30
0.0
 11
1198.218077027338
 21
3206.28365124794
 31
0.0
  0
LINE
  5
7C6A
330
81A3
100
AcDbEntity
  8
1
100
AcDbLine
 10
2348.218077027339
 20
3466.283651247939
 30
0.0
 11
2348.218077027339
 21
3206.28365124794
 31
0.0
  0
LINE
  5
7C6B
330
81A3
100
AcDbEntity
  8
1
100
AcDbLine
 10
2348.218077027339
 20
3466.283651247939
 30
0.0
 11
1198.218077027338
 21
3466.283651247939
 31
0.0
  0
LINE
  5
7C6C
330
81A3
100
AcDbEntity
  8
1
100
AcDbLine
 10
1437.11807702734
 20
3416.283651247939
 30
0.0
 11
1259.318077027339
 21
3416.283651247939
 31
0.0
  0
LINE
  5
7C6D
330
81A3
100
AcDbEntity
  8
1
100
AcDbLine
 10
1437.11807702734
 20
3334.283651247939
 30
0.0
 11
1259.318077027339
 21
3334.28365124794
 31
0.0
  0
LINE
  5
7C6E
330
81A3
100
AcDbEntity
  8
2
100
AcDbLine
 10
2198.218077027339
 20
3894.874544414562
 30
0.0
 11
2198.218077027339
 21
3182.730367976243
 31
0.0
  0
LINE
  5
7C6F
330
81A3
100
AcDbEntity
  8
1
100
AcDbLine
 10
2055.718077027339
 20
3853.283351247938
 30
0.0
 11
2340.718077027339
 21
3853.283351247938
 31
0.0
  0
LINE
  5
7C70
330
81A3
100
AcDbEntity
  8
1
100
AcDbLine
 10
2055.718077027339
 20
3463.28365124794
 30
0.0
 11
2340.718077027339
 21
3463.28365124794
 31
0.0
  0
LINE
  5
7C71
330
81A3
100
AcDbEntity
  8
1
100
AcDbLine
 10
2217.218077027339
 20
3463.28365124794
 30
0.0
 11
2217.218077027339
 21
3416.28365124794
 31
0.0
  0
LINE
  5
7C72
330
81A3
100
AcDbEntity
  8
1
100
AcDbLine
 10
2179.218077027341
 20
3463.28365124794
 30
0.0
 11
2179.218077027341
 21
3416.28365124794
 31
0.0
  0
LINE
  5
7C73
330
81A3
100
AcDbEntity
  8
1
100
AcDbLine
 10
2340.718077027339
 20
3853.28335124794
 30
0.0
 11
2340.718077027339
 21
3463.28365124794
 31
0.0
  0
LINE
  5
7C74
330
81A3
100
AcDbEntity
  8
1
100
AcDbLine
 10
2055.718077027339
 20
3853.28335124794
 30
0.0
 11
2055.718077027339
 21
3463.28365124794
 31
0.0
  0
LINE
  5
7C75
330
81A3
100
AcDbEntity
  8
1
100
AcDbLine
 10
1323.218077027339
 20
3586.283651247939
 30
0.0
 11
1323.218077027339
 21
3416.283651247939
 31
0.0
  0
LINE
  5
7C76
330
81A3
100
AcDbEntity
  8
1
100
AcDbLine
 10
1373.218077027339
 20
3586.283651247939
 30
0.0
 11
1373.218077027339
 21
3416.283651247939
 31
0.0
  0
LINE
  5
7C79
330
81A3
100
AcDbEntity
  8
1
100
AcDbLine
 10
2661.858577972293
 20
2079.057551144371
 30
0.0
 11
2831.858577972293
 21
2079.057551144371
 31
0.0
  0
CIRCLE
  5
7C7A
330
81A3
100
AcDbEntity
  8
1
100
AcDbCircle
 10
1348.218077027339
 20
2054.057551144371
 30
0.0
 40
335.0
  0
CIRCLE
  5
7C7B
330
81A3
100
AcDbEntity
  8
1
100
AcDbCircle
 10
1348.218077027339
 20
2054.057551144371
 30
0.0
 40
375.0
  0
LINE
  5
7C7C
330
81A3
100
AcDbEntity
  8
1
100
AcDbLine
 10
2398.21807702734
 20
1689.057551144371
 30
0.0
 11
1998.218077027339
 21
1689.057551144371
 31
0.0
  0
POINT
  5
7C7D
330
81A3
100
AcDbEntity
  8
1
100
AcDbPoint
 10
3741.858577972293
 20
2024.057551144371
 30
0.0
  0
POINT
  5
7C7E
330
81A3
100
AcDbEntity
  8
1
100
AcDbPoint
 10
2451.858577972293
 20
2204.057551144371
 30
0.0
  0
DIMENSION
  5
7C80
330
81A3
100
AcDbEntity
  8
3
100
AcDbDimension
  2
*D12
 10
739.4261060287317
 20
4439.283651247939
 30
0.0
 11
699.4261060287317
 21
3936.28365124794
 31
0.0
 12
1023.63210711491
 22
1274.868682717306
 32
0.0
 71
     5
 42
-1.0
  3
Standard
100
AcDbAlignedDimension
 13
948.2180770273394
 23
3433.283651247939
 33
0.0
 14
948.2180770273387
 24
4439.283651247939
 34
0.0
 50
270.0
100
AcDbRotatedDimension
1001
ACAD
1000
DSTYLE
1002
{
1070
    40
1040
20.0
1002
}
  0
DIMENSION
  5
7C81
330
81A3
100
AcDbEntity
  8
3
100
AcDbDimension
  2
*D13
 10
948.2180770273387
 20
4587.888941746345
 30
0.0
 11
1348.218077027339
 21
4627.888941746345
 31
0.0
 12
1023.63210711491
 22
1274.868682717306
 32
0.0
 71
     5
 42
-1.0
  3
Standard
100
AcDbAlignedDimension
 13
1748.218077027339
 23
4439.283651247939
 33
0.0
 14
948.2180770273387
 24
4439.283651247939
 34
0.0
100
AcDbRotatedDimension
1001
ACAD
1000
DSTYLE
1002
{
1070
    40
1040
20.0
1002
}
  0
DIMENSION
  5
7C82
330
81A3
100
AcDbEntity
  8
3
100
AcDbDimension
  2
*D14
 10
2548.645660902621
 20
3433.283651247938
 30
0.0
 11
2508.645660902621
 21
3733.283651247938
 31
0.0
 12
1023.63210711491
 22
1274.868682717306
 32
0.0
 71
     5
 42
-1.0
  3
Standard
100
AcDbAlignedDimension
 13
2398.21807702734
 23
4033.283651247938
 33
0.0
 14
2398.21807702734
 24
3433.283651247938
 34
0.0
 50
270.0
100
AcDbRotatedDimension
1001
ACAD
1000
DSTYLE
1002
{
1070
    40
1040
20.0
1002
}
  0
DIMENSION
  5
7C88
330
81A3
100
AcDbEntity
  8
3
100
AcDbDimension
  2
*D15
 10
888.2180770273397
 20
3014.114690805144
 30
0.0
 11
1643.218077027339
 21
3054.114690805144
 31
0.0
 12
190.0957371585136
 22
0.0
 32
0.0
 71
     5
 42
-1.0
  3
Standard
100
AcDbAlignedDimension
 13
2398.21807702734
 23
1689.057551144371
 33
0.0
 14
888.2180770273397
 24
2774.057551144371
 34
0.0
100
AcDbRotatedDimension
1001
ACAD
1000
DSTYLE
1002
{
1070
    40
1040
20.0
1002
}
  0
LINE
  5
7C89
330
81A3
100
AcDbEntity
  8
1
100
AcDbLine
 10
2708.858577972292
 20
1723.557551144371
 30
0.0
 11
2708.858577972292
 21
2008.557551144371
 31
0.0
  0
LINE
  5
7C8A
330
81A3
100
AcDbEntity
  8
1
100
AcDbLine
 10
3098.858577972292
 20
2008.557551144371
 30
0.0
 11
2708.858577972293
 21
2008.557551144371
 31
0.0
  0
LINE
  5
7C8B
330
81A3
100
AcDbEntity
  8
1
100
AcDbLine
 10
2708.858577972292
 20
1847.057551144371
 30
0.0
 11
2661.858577972293
 21
1847.057551144371
 31
0.0
  0
LINE
  5
7C8C
330
81A3
100
AcDbEntity
  8
1
100
AcDbLine
 10
2708.858577972292
 20
1885.057551144371
 30
0.0
 11
2661.858577972293
 21
1885.057551144371
 31
0.0
  0
LINE
  5
7C8D
330
81A3
100
AcDbEntity
  8
1
100
AcDbLine
 10
3098.858577972292
 20
1723.557551144371
 30
0.0
 11
2708.858577972292
 21
1723.557551144371
 31
0.0
  0
POINT
  5
7C8E
330
81A3
100
AcDbEntity
  8
1
100
AcDbPoint
 10
948.2180770273394
 20
1469.057551144371
 30
0.0
  0
POINT
  5
7C8F
330
81A3
100
AcDbEntity
  8
1
100
AcDbPoint
 10
948.2180770273394
 20
1549.057551144371
 30
0.0
  0
LINE
  5
7C91
330
81A3
100
AcDbEntity
  8
1
100
AcDbLine
 10
2661.858577972292
 20
1945.057551144371
 30
0.0
 11
2661.858577972291
 21
1787.057551144371
 31
0.0
  0
LINE
  5
7C92
330
81A3
100
AcDbEntity
  8
1
100
AcDbLine
 10
2579.858577972292
 20
1945.057551144371
 30
0.0
 11
2579.858577972292
 21
1787.057551144371
 31
0.0
  0
LINE
  5
7C9B
330
81A3
100
AcDbEntity
  8
1
100
AcDbLine
 10
3098.858577972292
 20
1723.55755114437
 30
0.0
 11
3098.858577972292
 21
2008.55755114437
 31
0.0
  0
LINE
  5
7C9C
330
81A3
100
AcDbEntity
  8
1
100
AcDbLine
 10
3051.875278789664
 20
1723.557551144371
 30
0.0
 11
3051.875278789664
 21
1649.057551144371
 31
0.0
  0
LINE
  5
7C9D
330
81A3
100
AcDbEntity
  8
1
100
AcDbLine
 10
2756.850452477043
 20
1723.557551144371
 30
0.0
 11
2756.850452477043
 21
1649.057551144371
 31
0.0
  0
LINE
  5
7C9E
330
81A3
100
AcDbEntity
  8
1
100
AcDbLine
 10
2756.850452477042
 20
1689.057551144371
 30
0.0
 11
3051.875278789664
 21
1689.057551144371
 31
0.0
  0
LINE
  5
7F21
330
81A3
100
AcDbEntity
  8
4
100
AcDbLine
 10
3700.0
 20
1000.0
 30
0.0
 11
3700.0
 21
600.0
 31
0.0
  0
LINE
  5
7F22
330
81A3
100
AcDbEntity
  8
4
100
AcDbLine
 10
2300.0
 20
1000.0
 30
0.0
 11
2300.0
 21
600.0
 31
0.0
  0
LINE
  5
7F23
330
81A3
100
AcDbEntity
  8
4
100
AcDbLine
 10
1300.0
 20
1000.0
 30
0.0
 11
1300.0
 21
600.0
 31
0.0
  0
LINE
  5
7F26
330
81A3
100
AcDbEntity
  8
4
100
AcDbLine
 10
1300.0
 20
600.0
 30
0.0
 11
3700.0
 21
600.0
 31
0.0
  0
LINE
  5
7F27
330
81A3
100
AcDbEntity
  8
4
100
AcDbLine
 10
1300.0
 20
800.0
 30
0.0
 11
3700.0
 21
800.0
 31
0.0
  0
TEXT
  5
7F28
330
81A3
100
AcDbEntity
  8
4
100
AcDbText
 10
1377.004161693803
 20
863.0860517332255
 30
0.0
 40
100.0
  1
機器名称
100
AcDbText
  0
TEXT
  5
7F29
330
81A3
100
AcDbEntity
  8
4
100
AcDbText
 10
1372.516212049595
 20
643.2903134640219
 30
0.0
 40
100.0
  1
機器型番
100
AcDbText
  0
TEXT
  5
7F2A
330
81A3
100
AcDbEntity
  8
4
100
AcDbText
 10
2355.357490975329
 20
845.1435379151371
 30
0.0
 40
100.0
  1
ミツヤ多翼送風機
100
AcDbText
  0
TEXT
  5
7F2B
330
81A3
100
AcDbEntity
  8
4
100
AcDbText
 10
2373.308991170961
 20
634.3191685598867
 30
0.0
 40
100.0
  1
MF#4-5
100
AcDbText
  0
TEXT
  5
7F2D
330
81A3
100
AcDbEntity
  8
4
100
AcDbText
 10
1630.036668622455
 20
4766.857682665031
 30
0.0
 40
107.9999999999999
  1
床置防振ベット
100
AcDbText
  0
TEXT
  5
7F2E
330
81A3
100
AcDbEntity
  8
4
100
AcDbText
 10
632.3351866588928
 20
5067.761952398596
 30
0.0
 40
144.0
  1
遠心式両吸込両持多翼ファン
100
AcDbText
  0
LINE
  5
7F2F
330
81A3
100
AcDbEntity
  8
4
100
AcDbLine
 10
500.0
 20
4938.817508529609
 30
0.0
 11
3700.0
 21
4938.817508529609
 31
0.0
  0
LINE
  5
7F30
330
81A3
100
AcDbEntity
  8
4
100
AcDbLine
 10
500.0
 20
5338.81750852961
 30
0.0
 11
3700.0
 21
5338.81750852961
 31
0.0
  0
LINE
  5
7F31
330
81A3
100
AcDbEntity
  8
4
100
AcDbLine
 10
1300.0
 20
1000.0
 30
0.0
 11
3700.0
 21
1000.0
 31
0.0
  0
LINE
  5
7F32
330
81A3
100
AcDbEntity
  8
4
100
AcDbLine
 10
500.0
 20
5338.81750852961
 30
0.0
 11
500.0
 21
4938.817508529609
 31
0.0
  0
TEXT
  5
7F33
330
81A3
100
AcDbEntity
  8
4
100
AcDbText
 10
758.3190041370508
 20
4764.638955092687
 30
0.0
 40
107.9999999999999
  1
左回転左横向
100
AcDbText
  0
TEXT
  5
7F34
330
81A3
100
AcDbEntity
  8
4
100
AcDbText
 10
2937.939118498579
 20
5412.122162990619
 30
0.0
 40
112.0
  1
No.
100
AcDbText
  0
TEXT
  5
7F35
330
81A3
100
AcDbEntity
  8
4
100
AcDbText
 10
2622.592125200027
 20
4766.857682665031
 30
0.0
 40
107.9999999999999
  1
縮尺：1/20
100
AcDbText
  0
LINE
  5
7F36
330
81A3
100
AcDbEntity
  8
4
100
AcDbLine
 10
3700.0
 20
5338.81750852961
 30
0.0
 11
3700.0
 21
4938.817508529609
 31
0.0
  0
LINE
  5
7F37
330
81A3
100
AcDbEntity
  8
4
100
AcDbLine
 10
4200.0
 20
5900.0
 30
0.0
 11
4200.0
 21
5900.0
 31
0.0
  0
LINE
  5
7F38
330
81A3
100
AcDbEntity
  8
4
100
AcDbLine
 10
2881.234844719729
 20
5362.527166250802
 30
0.0
 11
2881.234844719729
 21
5573.304523099504
 31
0.0
  0
LINE
  5
7F39
330
81A3
100
AcDbEntity
  8
4
100
AcDbLine
 10
2881.234844719729
 20
5573.304523099504
 30
0.0
 11
3700.0
 21
5573.304523099504
 31
0.0
  0
LINE
  5
7F3A
330
81A3
100
AcDbEntity
  8
4
100
AcDbLine
 10
3700.0
 20
5573.304523099504
 30
0.0
 11
3700.0
 21
5362.527166250802
 31
0.0
  0
LINE
  5
7F3B
330
81A3
100
AcDbEntity
  8
4
100
AcDbLine
 10
3700.0
 20
5362.527166250802
 30
0.0
 11
2881.234844719729
 21
5362.527166250802
 31
0.0
  0
LINE
  5
7F3C
330
81A3
100
AcDbEntity
  8
4
100
AcDbLine
 10
0.0
 20
0.0
 30
0.0
 11
0.0
 21
5900.0
 31
0.0
  0
LINE
  5
7F3D
330
81A3
100
AcDbEntity
  8
4
100
AcDbLine
 10
0.0
 20
5900.0
 30
0.0
 11
4200.0
 21
5900.0
 31
0.0
  0
LINE
  5
7F3E
330
81A3
100
AcDbEntity
  8
4
100
AcDbLine
 10
4200.0
 20
5900.0
 30
0.0
 11
4200.0
 21
0.0
 31
0.0
  0
LINE
  5
7F3F
330
81A3
100
AcDbEntity
  8
4
100
AcDbLine
 10
4200.0
 20
0.0
 30
0.0
 11
0.0
 21
0.0
 31
0.0
  0
DIMENSION
  5
81EC
330
81A3
100
AcDbEntity
  8
3
100
AcDbDimension
  2
*D28
 10
3231.858577972293
 20
3004.269895059579
 30
0.0
 11
2841.858577972292
 21
3069.984180773865
 31
0.0
 70
    32
 71
     5
 42
779.999999999999
  3
IGA
100
AcDbAlignedDimension
 13
2451.858577972293
 23
2204.057551144371
 33
0.0
 14
3231.858577972293
 24
2960.249354893976
 34
0.0
100
AcDbRotatedDimension
1001
ACAD
1000
DSTYLE
1002
{
1070
     3
1000
(<>)
1070
    40
1040
20.0
1070
    42
1040
1.0
1070
   143
1040
0.039
1070
   172
1070
     1
1070
   271
1070
     4
1070
   272
1070
     4
1070
   279
1070
     0
1070
   284
1070
     0
1070
   285
1070
     0
1070
   286
1070
     0
1070
   341
1005
81B7
1070
   343
1005
81B7
1070
   344
1005
81B7
1002
}
  0
DIMENSION
  5
81F9
330
81A3
100
AcDbEntity
  8
3
100
AcDbDimension
  2
*D29
 10
3741.858577972293
 20
3004.269895059579
 30
0.0
 11
3486.858577972293
 21
3069.984180773865
 31
0.0
 70
    32
 71
     5
 42
510.0000000000009
  3
IGA
100
AcDbAlignedDimension
 13
3231.858577972293
 23
2960.249354893976
 33
0.0
 14
3741.858577972293
 24
2024.057551144371
 34
0.0
100
AcDbRotatedDimension
1001
ACAD
1000
DSTYLE
1002
{
1070
     3
1000
(<>)
1070
    40
1040
20.0
1070
    42
1040
1.0
1070
   143
1040
0.039
1070
   172
1070
     1
1070
   271
1070
     4
1070
   272
1070
     4
1070
   279
1070
     1
1070
   284
1070
     0
1070
   285
1070
     0
1070
   286
1070
     0
1070
   341
1005
81B7
1070
   343
1005
81B7
1070
   344
1005
81B7
1002
}
  0
DIMENSION
  5
8274
330
81A3
100
AcDbEntity
  8
3
100
AcDbDimension
  2
*D37
 10
3231.858577972293
 20
1224.081171893349
 30
0.0
 11
3458.358577972293
 21
1274.081171893349
 31
0.0
 70
    32
 71
     5
 42
453.0000000000018
  3
IGA
100
AcDbAlignedDimension
 13
3684.858577972294
 23
1369.057551144371
 33
0.0
 14
3231.858577972293
 24
1369.057551144371
 34
0.0
100
AcDbRotatedDimension
1001
ACAD
1000
DSTYLE
1002
{
1070
    40
1040
20.0
1070
    42
1040
1.0
1070
   143
1040
0.039
1070
   172
1070
     1
1070
   271
1070
     4
1070
   272
1070
     4
1070
   279
1070
     0
1070
   284
1070
     0
1070
   285
1070
     0
1070
   286
1070
     0
1070
   341
1005
81B7
1070
   343
1005
81B7
1070
   344
1005
81B7
1002
}
  0
DIMENSION
  5
8281
330
81A3
100
AcDbEntity
  8
3
100
AcDbDimension
  2
*D38
 10
2678.858577972293
 20
1224.081171893349
 30
0.0
 11
2955.358577972292
 21
1274.081171893349
 31
0.0
 70
    32
 71
     5
 42
552.9999999999991
  3
IGA
100
AcDbAlignedDimension
 13
3231.858577972293
 23
1369.057551144371
 33
0.0
 14
2678.858577972293
 24
1369.057551144371
 34
0.0
100
AcDbRotatedDimension
1001
ACAD
1000
DSTYLE
1002
{
1070
    40
1040
20.0
1070
    42
1040
1.0
1070
   143
1040
0.039
1070
   172
1070
     1
1070
   271
1070
     4
1070
   272
1070
     4
1070
   279
1070
     1
1070
   284
1070
     0
1070
   285
1070
     0
1070
   286
1070
     0
1070
   341
1005
81B7
1070
   343
1005
81B7
1070
   344
1005
81B7
1002
}
  0
DIMENSION
  5
828E
330
81A3
100
AcDbEntity
  8
3
100
AcDbDimension
  2
*D39
 10
1348.218077027339
 20
1224.081171893349
 30
0.0
 11
1148.218077027339
 21
1274.081171893349
 31
0.0
 70
    32
 71
     5
 42
399.9999999999992
  3
IGA
100
AcDbAlignedDimension
 13
948.2180770273394
 23
1369.057551144371
 33
0.0
 14
1348.218077027339
 24
1369.057551144371
 34
0.0
100
AcDbRotatedDimension
1001
ACAD
1000
DSTYLE
1002
{
1070
    40
1040
20.0
1070
    42
1040
1.0
1070
   143
1040
0.039
1070
   172
1070
     1
1070
   271
1070
     4
1070
   272
1070
     4
1070
   279
1070
     0
1070
   284
1070
     0
1070
   285
1070
     0
1070
   286
1070
     0
1070
   341
1005
81B7
1070
   343
1005
81B7
1070
   344
1005
81B7
1002
}
  0
DIMENSION
  5
829B
330
81A3
100
AcDbEntity
  8
3
100
AcDbDimension
  2
*D40
 10
2398.21807702734
 20
1224.081171893349
 30
0.0
 11
1873.218077027339
 21
1274.081171893349
 31
0.0
 70
    32
 71
     5
 42
1050.000000000001
  3
IGA
100
AcDbAlignedDimension
 13
1348.218077027339
 23
1369.057551144371
 33
0.0
 14
2398.21807702734
 24
1369.057551144371
 34
0.0
100
AcDbRotatedDimension
1001
ACAD
1000
DSTYLE
1002
{
1070
    40
1040
20.0
1070
    42
1040
1.0
1070
   143
1040
0.039
1070
   172
1070
     1
1070
   271
1070
     4
1070
   272
1070
     4
1070
   279
1070
     1
1070
   284
1070
     0
1070
   285
1070
     0
1070
   286
1070
     0
1070
   341
1005
81B7
1070
   343
1005
81B7
1070
   344
1005
81B7
1002
}
  0
DIMENSION
  5
82BA
330
81A3
100
AcDbEntity
  8
3
100
AcDbDimension
  2
*D41
 10
2398.21807702734
 20
3110.340426405584
 30
0.0
 11
1673.21807702734
 21
3160.340426405584
 31
0.0
 70
    32
 71
     5
 42
1450.000000000001
  3
IGA
100
AcDbAlignedDimension
 13
948.2180770273394
 23
3433.283651247939
 33
0.0
 14
2398.21807702734
 24
3433.283651247938
 34
0.0
100
AcDbRotatedDimension
1001
ACAD
1000
DSTYLE
1002
{
1070
    40
1040
20.0
1070
    42
1040
1.0
1070
   143
1040
0.039
1070
   172
1070
     1
1070
   271
1070
     4
1070
   272
1070
     4
1070
   279
1070
     0
1070
   284
1070
     0
1070
   285
1070
     0
1070
   286
1070
     0
1070
   341
1005
81B7
1070
   343
1005
81B7
1070
   344
1005
81B7
1002
}
  0
DIMENSION
  5
82C7
330
81A3
100
AcDbEntity
  8
3
100
AcDbDimension
  2
*D42
 10
1896.21807702734
 20
2861.724760620891
 30
0.0
 11
1622.218077027339
 21
2911.724760620892
 31
0.0
 70
    32
 71
     5
 42
548.0000000000011
  3
IGA
100
AcDbAlignedDimension
 13
1348.218077027339
 23
2773.690386796245
 33
0.0
 14
1896.21807702734
 24
2101.057551144371
 34
0.0
100
AcDbRotatedDimension
1001
ACAD
1000
DSTYLE
1002
{
1070
    40
1040
20.0
1070
    42
1040
1.0
1070
   143
1040
0.039
1070
   172
1070
     1
1070
   271
1070
     4
1070
   272
1070
     4
1070
   279
1070
     0
1070
   284
1070
     0
1070
   285
1070
     0
1070
   286
1070
     0
1070
   341
1005
81B7
1070
   343
1005
81B7
1070
   344
1005
81B7
1002
}
  0
DIMENSION
  5
82DD
330
81A3
100
AcDbEntity
  8
3
100
AcDbDimension
  2
*D43
 10
588.7164109066468
 20
1549.057551144371
 30
0.0
 11
538.7164109066466
 21
1801.557551144371
 31
0.0
 70
    32
 71
     5
 42
504.9999999999995
  3
IGA
100
AcDbAlignedDimension
 13
841.3251039243441
 23
2054.057551144371
 33
0.0
 14
948.2180770273394
 24
1549.057551144371
 34
0.0
 50
90.0
100
AcDbRotatedDimension
1001
ACAD
1000
DSTYLE
1002
{
1070
    40
1040
20.0
1070
    42
1040
1.0
1070
   143
1040
0.039
1070
   172
1070
     1
1070
   271
1070
     4
1070
   272
1070
     4
1070
   279
1070
     0
1070
   284
1070
     0
1070
   285
1070
     0
1070
   286
1070
     0
1070
   341
1005
81B7
1070
   343
1005
81B7
1070
   344
1005
81B7
1002
}
  0
DIMENSION
  5
82EA
330
81A3
100
AcDbEntity
  8
3
100
AcDbDimension
  2
*D44
 10
588.7164109066468
 20
1469.057551144371
 30
0.0
 11
578.3285978748026
 21
1509.057551144371
 31
0.0
 70
   160
  1
(<>)
 71
     5
 42
80.0
  3
IGA
100
AcDbAlignedDimension
 13
948.2180770273394
 23
1549.057551144371
 33
0.0
 14
948.2180770273394
 24
1469.057551144371
 34
0.0
 50
90.0
100
AcDbRotatedDimension
1001
ACAD
1000
DSTYLE
1002
{
1070
    40
1040
20.0
1070
    42
1040
1.0
1070
   143
1040
0.039
1070
   172
1070
     1
1070
   271
1070
     4
1070
   272
1070
     4
1070
   279
1070
     1
1070
   284
1070
     0
1070
   285
1070
     0
1070
   286
1070
     0
1070
   341
1005
81B7
1070
   343
1005
81B7
1070
   344
1005
8393
1002
}
  0
DIMENSION
  5
82FC
330
81A3
100
AcDbEntity
  8
3
100
AcDbDimension
  2
*D45
 10
588.7164109066468
 20
1369.057551144371
 30
0.0
 11
589.8131484138247
 21
1268.701471382472
 31
0.0
 70
   160
 71
     5
 42
100.0
  3
IGA
100
AcDbAlignedDimension
 13
948.2180770273394
 23
1469.057551144371
 33
0.0
 14
948.2180770273394
 24
1369.057551144371
 34
0.0
 50
90.0
100
AcDbRotatedDimension
1001
ACAD
1000
DSTYLE
1002
{
1070
    40
1040
20.0
1070
    42
1040
1.0
1070
   143
1040
0.039
1070
   172
1070
     1
1070
   271
1070
     4
1070
   272
1070
     4
1070
   279
1070
     1
1070
   284
1070
     0
1070
   285
1070
     0
1070
   286
1070
     0
1070
   341
1005
81B7
1070
   343
1005
8393
1070
   344
1005
81B7
1002
}
  0
DIMENSION
  5
844E
330
81A3
100
AcDbEntity
  8
3
100
AcDbDimension
  2
*D47
 10
406.533632475941
 20
2732.057551144372
 30
0.0
 11
340.8193467616549
 21
2050.557551144371
 31
0.0
 70
    32
  1
(<>)
 71
     5
 42
1363.0
  3
IGA
100
AcDbAlignedDimension
 13
948.2180770273394
 23
1369.057551144371
 33
0.0
 14
888.2180770273397
 24
2732.057551144372
 34
0.0
 50
90.0
100
AcDbRotatedDimension
1001
ACAD
1000
DSTYLE
1002
{
1070
    40
1040
20.0
1070
    42
1040
1.0
1070
   143
1040
0.039
1070
   172
1070
     1
1070
   271
1070
     4
1070
   272
1070
     4
1070
   279
1070
     0
1070
   284
1070
     0
1070
   285
1070
     0
1070
   286
1070
     0
1070
   341
1005
81B7
1070
   343
1005
81B7
1070
   344
1005
81B7
1002
}
  0
DIMENSION
  5
846D
330
81A3
100
AcDbEntity
  8
3
100
AcDbDimension
  2
*D48
 10
2398.21807702734
 20
4587.888941746345
 30
0.0
 11
2073.21807702734
 21
4637.888941746346
 31
0.0
 70
    32
 71
     5
 42
650.0000000000014
  3
IGA
100
AcDbAlignedDimension
 13
1748.218077027339
 23
4439.283651247939
 33
0.0
 14
2398.21807702734
 24
4033.283651247938
 34
0.0
100
AcDbRotatedDimension
1001
ACAD
1000
DSTYLE
1002
{
1070
    40
1040
20.0
1070
    42
1040
1.0
1070
   143
1040
0.039
1070
   172
1070
     1
1070
   271
1070
     4
1070
   272
1070
     4
1070
   279
1070
     0
1070
   284
1070
     0
1070
   285
1070
     0
1070
   286
1070
     0
1070
   341
1005
81B7
1070
   343
1005
81B7
1070
   344
1005
81B7
1002
}
  0
ENDSEC
  0
SECTION
  2
OBJECTS
  0
DICTIONARY
  5
8140
330
0
100
AcDbDictionary
281
     1
  3
ACAD_CIP_PREVIOUS_PRODUCT_INFO
350
81EB
  3
ACAD_COLOR
350
8196
  3
ACAD_DETAILVIEWSTYLE
350
819D
  3
ACAD_GROUP
350
8141
  3
ACAD_LAYOUT
350
8195
  3
ACAD_MATERIAL
350
8144
  3
ACAD_MLEADERSTYLE
350
8199
  3
ACAD_MLINESTYLE
350
8192
  3
ACAD_PLOTSETTINGS
350
8194
  3
ACAD_PLOTSTYLENAME
350
8142
  3
ACAD_SCALELIST
350
8176
  3
ACAD_SECTIONVIEWSTYLE
350
819B
  3
ACAD_TABLESTYLE
350
8197
  3
ACAD_VISUALSTYLE
350
815D
  3
ACDB_RECOMPOSE_DATA
350
849A
  3
AcDbVariableDictionary
350
848D
  3
DWGPROPS
350
849B
  0
DICTIONARY
  5
8483
330
8188
100
AcDbDictionary
280
     1
281
     1
  3
ADSK_XREC_LAYER_RECONCILED
360
8484
  0
DICTIONARY
  5
8485
330
81A7
100
AcDbDictionary
280
     1
281
     1
  3
ADSK_XREC_LAYER_RECONCILED
360
8486
  0
DICTIONARY
  5
8487
330
81AA
100
AcDbDictionary
280
     1
281
     1
  3
ADSK_XREC_LAYER_RECONCILED
360
8488
  0
DICTIONARY
  5
8489
330
81AB
100
AcDbDictionary
280
     1
281
     1
  3
ADSK_XREC_LAYER_RECONCILED
360
848A
  0
DICTIONARY
  5
848B
330
81AC
100
AcDbDictionary
280
     1
281
     1
  3
ADSK_XREC_LAYER_RECONCILED
360
848C
  0
XRECORD
  5
81EB
102
{ACAD_REACTORS
330
8140
102
}
330
8140
100
AcDbXrecord
280
     1
300
ACDLT
300
2015
300
INVLTS_F_S
  0
DICTIONARY
  5
8196
102
{ACAD_REACTORS
330
8140
102
}
330
8140
100
AcDbDictionary
281
     1
  0
DICTIONARY
  5
819D
102
{ACAD_REACTORS
330
8140
102
}
330
8140
100
AcDbDictionary
281
     1
  3
Imperial24
350
819E
  0
DICTIONARY
  5
8141
102
{ACAD_REACTORS
330
8140
102
}
330
8140
100
AcDbDictionary
281
     1
  0
DICTIONARY
  5
8195
102
{ACAD_REACTORS
330
8140
102
}
330
8140
100
AcDbDictionary
281
     1
  3
Model
350
81A6
  3
レイアウト1
350
81A2
  0
DICTIONARY
  5
8144
102
{ACAD_REACTORS
330
8140
102
}
330
8140
100
AcDbDictionary
281
     1
  3
ByBlock
350
814D
  3
ByLayer
350
8145
  3
Global
350
8155
  0
DICTIONARY
  5
8199
102
{ACAD_REACTORS
330
8140
102
}
330
8140
100
AcDbDictionary
281
     1
  3
Standard
350
819A
  0
DICTIONARY
  5
8192
102
{ACAD_REACTORS
330
8140
102
}
330
8140
100
AcDbDictionary
281
     1
  3
Standard
350
8193
  0
DICTIONARY
  5
8194
102
{ACAD_REACTORS
330
8140
102
}
330
8140
100
AcDbDictionary
281
     1
  0
ACDBDICTIONARYWDFLT
  5
8142
102
{ACAD_REACTORS
330
8140
102
}
330
8140
100
AcDbDictionary
281
     1
  3
Normal
350
8143
100
AcDbDictionaryWithDefault
340
8143
  0
DICTIONARY
  5
8176
102
{ACAD_REACTORS
330
8140
102
}
330
8140
100
AcDbDictionary
281
     1
  3
A0
350
8177
  3
A1
350
8178
  3
A2
350
8179
  3
A3
350
817A
  3
A4
350
817B
  3
A5
350
817C
  3
A6
350
817D
  3
A7
350
817E
  3
A8
350
817F
  3
A9
350
8180
  3
B0
350
8181
  3
B1
350
8182
  3
B2
350
8183
  3
B3
350
8184
  3
B4
350
8185
  3
B5
350
8186
  3
B6
350
8187
  0
DICTIONARY
  5
819B
102
{ACAD_REACTORS
330
8140
102
}
330
8140
100
AcDbDictionary
281
     1
  3
Imperial24
350
819C
  0
DICTIONARY
  5
8197
102
{ACAD_REACTORS
330
8140
102
}
330
8140
100
AcDbDictionary
281
     1
  3
Standard
350
8198
  0
DICTIONARY
  5
815D
102
{ACAD_REACTORS
330
8140
102
}
330
8140
100
AcDbDictionary
281
     1
  3
2dWireframe
350
8163
  3
Basic
350
8162
  3
Brighten
350
8169
  3
ColorChange
350
816D
  3
Conceptual
350
8166
  3
Dim
350
8168
  3
EdgeColorOff
350
8175
  3
Facepattern
350
816C
  3
Flat
350
815E
  3
FlatWithEdges
350
815F
  3
Gouraud
350
8160
  3
GouraudWithEdges
350
8161
  3
Hidden
350
8165
  3
JitterOff
350
8173
  3
Linepattern
350
816B
  3
OverhangOff
350
8174
  3
Realistic
350
8167
  3
Shaded
350
8172
  3
Shaded with edges
350
8171
  3
Shades of Gray
350
816E
  3
Sketchy
350
816F
  3
Thicken
350
816A
  3
Wireframe
350
8164
  3
X-Ray
350
8170
  0
XRECORD
  5
849A
102
{ACAD_REACTORS
330
8140
102
}
330
8140
100
AcDbXrecord
280
     1
 90
        1
330
8198
  0
DICTIONARY
  5
848D
102
{ACAD_REACTORS
330
8140
102
}
330
8140
100
AcDbDictionary
281
     1
  3
CANNOSCALE
350
8492
  3
CMLEADERSTYLE
350
848F
  3
CTABLESTYLE
350
848E
  3
CVIEWDETAILSTYLE
350
8490
  3
CVIEWSECTIONSTYLE
350
8491
  3
DIMASSOC
350
8495
  3
INDEXCTL
350
8494
  3
SORTENTS
350
8493
  3
XCLIPFRAME
350
8496
  0
XRECORD
  5
849B
102
{ACAD_REACTORS
330
8140
102
}
330
8140
100
AcDbXrecord
280
     1
  1
DWGPROPS COOKIE
  2

  3

  4

  6

  7

  8
yasukiyo.ogawa
  9

300
=
301
=
302
=
303
=
304
=
305
=
306
=
307
=
308
=
309
=
 40
0.0904151851851852
 41
2451387.491829167
 42
2460262.662952558
  1

 90
        0
  0
XRECORD
  5
8484
102
{ACAD_REACTORS
330
8483
102
}
330
8483
100
AcDbXrecord
280
     1
290
     1
  0
XRECORD
  5
8486
102
{ACAD_REACTORS
330
8485
102
}
330
8485
100
AcDbXrecord
280
     1
290
     1
  0
XRECORD
  5
8488
102
{ACAD_REACTORS
330
8487
102
}
330
8487
100
AcDbXrecord
280
     1
290
     1
  0
XRECORD
  5
848A
102
{ACAD_REACTORS
330
8489
102
}
330
8489
100
AcDbXrecord
280
     1
290
     1
  0
XRECORD
  5
848C
102
{ACAD_REACTORS
330
848B
102
}
330
848B
100
AcDbXrecord
280
     1
290
     1
  0
ACDBDETAILVIEWSTYLE
  5
819E
102
{ACAD_XDICTIONARY
360
84D3
102
}
102
{ACAD_REACTORS
330
819D
102
}
330
819D
100
AcDbModelDocViewStyle
 70
     0
  3
Imperial24
290
     0
100
AcDbDetailViewStyle
 70
     0
 71
     0
 90
        3
 71
     1
340
8189
 40
0.24
340
0
 40
0.24
300

 40
0.36
280
     3
 71
     2
340
8190
 90
       25
 71
     3
340
8189
 40
0.24
 90
        1
 40
0.75
 90
        1
300
%<\AcVar ViewType \f "%tc1">% %<\AcVar ViewDetailId>%\PSCALE %<\AcVar ViewScale \f "%sn">%
 71
     4
340
8190
 90
       25
340
8190
 90
       25
280
     0
  0
LAYOUT
  5
81A6
102
{ACAD_XDICTIONARY
360
84D7
102
}
102
{ACAD_REACTORS
330
8195
102
}
330
8195
100
AcDbPlotSettings
  1

  2
RICOH imagio MP W3600 RPCS
  4

  6

 40
0.0
 41
0.0
 42
0.0
 43
0.0
 44
0.0
 45
0.0
 46
0.0
 47
0.0
 48
0.0
 49
0.0
140
0.0
141
0.0
142
1.0
143
1.0
 70
  1712
 72
     0
 73
     0
 74
     0
  7

 75
     0
147
1.0
148
0.0
149
0.0
100
AcDbLayout
  1
Model
 70
     1
 71
     0
 10
0.0
 20
0.0
 11
12.0
 21
9.0
 12
0.0
 22
0.0
 32
0.0
 14
0.0
 24
0.0
 34
0.0
 15
0.0
 25
0.0
 35
0.0
146
0.0
 13
0.0
 23
0.0
 33
0.0
 16
1.0
 26
0.0
 36
0.0
 17
0.0
 27
1.0
 37
0.0
 76
     0
330
81A3
331
81A8
  0
LAYOUT
  5
81A2
102
{ACAD_XDICTIONARY
360
84D5
102
}
102
{ACAD_REACTORS
330
8195
102
}
330
8195
100
AcDbPlotSettings
  1

  2
RICOH imagio MP W3600 RPCS
  4

  6

 40
0.0
 41
0.0
 42
0.0
 43
0.0
 44
0.0
 45
0.0
 46
0.0
 47
0.0
 48
0.0
 49
0.0
140
0.0
141
0.0
142
1.0
143
1.0
 70
   688
 72
     0
 73
     0
 74
     5
  7

 75
    16
147
1.0
148
0.0
149
0.0
100
AcDbLayout
  1
レイアウト1
 70
     1
 71
     1
 10
0.0
 20
0.0
 11
12.0
 21
9.0
 12
0.0
 22
0.0
 32
0.0
 14
1.000000000000000E+20
 24
1.000000000000000E+20
 34
1.000000000000000E+20
 15
-1.000000000000000E+20
 25
-1.000000000000000E+20
 35
-1.000000000000000E+20
146
0.0
 13
0.0
 23
0.0
 33
0.0
 16
1.0
 26
0.0
 36
0.0
 17
0.0
 27
1.0
 37
0.0
 76
     0
330
819F
  0
MATERIAL
  5
814D
102
{ACAD_XDICTIONARY
360
814E
102
}
102
{ACAD_REACTORS
330
8144
102
}
330
8144
100
AcDbMaterial
  1
ByBlock
 72
     0
 43
0.0208333333333333
 43
0.0
 43
0.0
 43
0.0
 43
0.0
 43
0.0208333333333333
 43
0.0
 43
0.0
 43
0.0
 43
0.0
 43
1.0
 43
0.0
 43
0.0
 43
0.0
 43
0.0
 43
1.0
 77
     0
 47
0.0208333333333333
 47
0.0
 47
0.0
 47
0.0
 47
0.0
 47
0.0208333333333333
 47
0.0
 47
0.0
 47
0.0
 47
0.0
 47
1.0
 47
0.0
 47
0.0
 47
0.0
 47
0.0
 47
1.0
171
     0
 49
0.0208333333333333
 49
0.0
 49
0.0
 49
0.0
 49
0.0
 49
0.0208333333333333
 49
0.0
 49
0.0
 49
0.0
 49
0.0
 49
1.0
 49
0.0
 49
0.0
 49
0.0
 49
0.0
 49
1.0
175
     0
142
0.0208333333333333
142
0.0
142
0.0
142
0.0
142
0.0
142
0.0208333333333333
142
0.0
142
0.0
142
0.0
142
0.0
142
1.0
142
0.0
142
0.0
142
0.0
142
0.0
142
1.0
179
     0
144
0.0208333333333333
144
0.0
144
0.0
144
0.0
144
0.0
144
0.0208333333333333
144
0.0
144
0.0
144
0.0
144
0.0
144
1.0
144
0.0
144
0.0
144
0.0
144
0.0
144
1.0
147
0.0208333333333333
147
0.0
147
0.0
147
0.0
147
0.0
147
0.0208333333333333
147
0.0
147
0.0
147
0.0
147
0.0
147
1.0
147
0.0
147
0.0
147
0.0
147
0.0
147
1.0
  0
MATERIAL
  5
8145
102
{ACAD_XDICTIONARY
360
8146
102
}
102
{ACAD_REACTORS
330
8144
102
}
330
8144
100
AcDbMaterial
  1
ByLayer
 72
     0
 43
0.0208333333333333
 43
0.0
 43
0.0
 43
0.0
 43
0.0
 43
0.0208333333333333
 43
0.0
 43
0.0
 43
0.0
 43
0.0
 43
1.0
 43
0.0
 43
0.0
 43
0.0
 43
0.0
 43
1.0
 77
     0
 47
0.0208333333333333
 47
0.0
 47
0.0
 47
0.0
 47
0.0
 47
0.0208333333333333
 47
0.0
 47
0.0
 47
0.0
 47
0.0
 47
1.0
 47
0.0
 47
0.0
 47
0.0
 47
0.0
 47
1.0
171
     0
 49
0.0208333333333333
 49
0.0
 49
0.0
 49
0.0
 49
0.0
 49
0.0208333333333333
 49
0.0
 49
0.0
 49
0.0
 49
0.0
 49
1.0
 49
0.0
 49
0.0
 49
0.0
 49
0.0
 49
1.0
175
     0
142
0.0208333333333333
142
0.0
142
0.0
142
0.0
142
0.0
142
0.0208333333333333
142
0.0
142
0.0
142
0.0
142
0.0
142
1.0
142
0.0
142
0.0
142
0.0
142
0.0
142
1.0
179
     0
144
0.0208333333333333
144
0.0
144
0.0
144
0.0
144
0.0
144
0.0208333333333333
144
0.0
144
0.0
144
0.0
144
0.0
144
1.0
144
0.0
144
0.0
144
0.0
144
0.0
144
1.0
147
0.0208333333333333
147
0.0
147
0.0
147
0.0
147
0.0
147
0.0208333333333333
147
0.0
147
0.0
147
0.0
147
0.0
147
1.0
147
0.0
147
0.0
147
0.0
147
0.0
147
1.0
  0
MATERIAL
  5
8155
102
{ACAD_XDICTIONARY
360
8156
102
}
102
{ACAD_REACTORS
330
8144
102
}
330
8144
100
AcDbMaterial
  1
Global
 72
     0
 43
0.0208333333333333
 43
0.0
 43
0.0
 43
0.0
 43
0.0
 43
0.0208333333333333
 43
0.0
 43
0.0
 43
0.0
 43
0.0
 43
1.0
 43
0.0
 43
0.0
 43
0.0
 43
0.0
 43
1.0
 77
     0
 47
0.0208333333333333
 47
0.0
 47
0.0
 47
0.0
 47
0.0
 47
0.0208333333333333
 47
0.0
 47
0.0
 47
0.0
 47
0.0
 47
1.0
 47
0.0
 47
0.0
 47
0.0
 47
0.0
 47
1.0
171
     0
 49
0.0208333333333333
 49
0.0
 49
0.0
 49
0.0
 49
0.0
 49
0.0208333333333333
 49
0.0
 49
0.0
 49
0.0
 49
0.0
 49
1.0
 49
0.0
 49
0.0
 49
0.0
 49
0.0
 49
1.0
175
     0
142
0.0208333333333333
142
0.0
142
0.0
142
0.0
142
0.0
142
0.0208333333333333
142
0.0
142
0.0
142
0.0
142
0.0
142
1.0
142
0.0
142
0.0
142
0.0
142
0.0
142
1.0
179
     0
144
0.0208333333333333
144
0.0
144
0.0
144
0.0
144
0.0
144
0.0208333333333333
144
0.0
144
0.0
144
0.0
144
0.0
144
1.0
144
0.0
144
0.0
144
0.0
144
0.0
144
1.0
147
0.0208333333333333
147
0.0
147
0.0
147
0.0
147
0.0
147
0.0208333333333333
147
0.0
147
0.0
147
0.0
147
0.0
147
1.0
147
0.0
147
0.0
147
0.0
147
0.0
147
1.0
  0
MLEADERSTYLE
  5
819A
102
{ACAD_REACTORS
330
8199
102
}
330
8199
100
AcDbMLeaderStyle
170
     2
171
     1
172
     0
 90
        2
 40
0.0
 41
0.0
173
     1
 91
-1056964608
340
818E
 92
       -2
290
     1
 42
0.09
291
     1
 43
0.36
  3
Standard
 44
0.18
300

342
8189
174
     1
178
     6
175
     1
176
     0
 93
-1056964608
 45
0.18
292
     0
297
     0
 46
0.18
 94
-1056964608
 47
1.0
 49
1.0
140
1.0
293
     1
141
0.0
294
     1
177
     0
142
1.0
295
     0
296
     0
143
0.125
1001
ACAD_MLEADERVER
1070
     2
  0
MLINESTYLE
  5
8193
102
{ACAD_REACTORS
330
8192
102
}
330
8192
100
AcDbMlineStyle
  2
STANDARD
 70
     0
  3

 62
   256
 51
90.0
 52
90.0
 71
     2
 49
0.5
 62
   256
  6
BYLAYER
 49
-0.5
 62
   256
  6
BYLAYER
  0
ACDBPLACEHOLDER
  5
8143
102
{ACAD_REACTORS
330
8142
102
}
330
8142
  0
SCALE
  5
8177
102
{ACAD_REACTORS
330
8176
102
}
330
8176
100
AcDbScale
 70
     0
300
1:1
140
1.0
141
1.0
290
     1
  0
SCALE
  5
8178
102
{ACAD_REACTORS
330
8176
102
}
330
8176
100
AcDbScale
 70
     0
300
1/128" = 1'-0"
140
0.0078125
141
12.0
290
     0
  0
SCALE
  5
8179
102
{ACAD_REACTORS
330
8176
102
}
330
8176
100
AcDbScale
 70
     0
300
1/64" = 1'-0"
140
0.015625
141
12.0
290
     0
  0
SCALE
  5
817A
102
{ACAD_REACTORS
330
8176
102
}
330
8176
100
AcDbScale
 70
     0
300
1/32" = 1'-0"
140
0.03125
141
12.0
290
     0
  0
SCALE
  5
817B
102
{ACAD_REACTORS
330
8176
102
}
330
8176
100
AcDbScale
 70
     0
300
1/16" = 1'-0"
140
0.0625
141
12.0
290
     0
  0
SCALE
  5
817C
102
{ACAD_REACTORS
330
8176
102
}
330
8176
100
AcDbScale
 70
     0
300
3/32" = 1'-0"
140
0.09375
141
12.0
290
     0
  0
SCALE
  5
817D
102
{ACAD_REACTORS
330
8176
102
}
330
8176
100
AcDbScale
 70
     0
300
1/8" = 1'-0"
140
0.125
141
12.0
290
     0
  0
SCALE
  5
817E
102
{ACAD_REACTORS
330
8176
102
}
330
8176
100
AcDbScale
 70
     0
300
3/16" = 1'-0"
140
0.1875
141
12.0
290
     0
  0
SCALE
  5
817F
102
{ACAD_REACTORS
330
8176
102
}
330
8176
100
AcDbScale
 70
     0
300
1/4" = 1'-0"
140
0.25
141
12.0
290
     0
  0
SCALE
  5
8180
102
{ACAD_REACTORS
330
8176
102
}
330
8176
100
AcDbScale
 70
     0
300
3/8" = 1'-0"
140
0.375
141
12.0
290
     0
  0
SCALE
  5
8181
102
{ACAD_REACTORS
330
8176
102
}
330
8176
100
AcDbScale
 70
     0
300
1/2" = 1'-0"
140
0.5
141
12.0
290
     0
  0
SCALE
  5
8182
102
{ACAD_REACTORS
330
8176
102
}
330
8176
100
AcDbScale
 70
     0
300
3/4" = 1'-0"
140
0.75
141
12.0
290
     0
  0
SCALE
  5
8183
102
{ACAD_REACTORS
330
8176
102
}
330
8176
100
AcDbScale
 70
     0
300
1" = 1'-0"
140
1.0
141
12.0
290
     0
  0
SCALE
  5
8184
102
{ACAD_REACTORS
330
8176
102
}
330
8176
100
AcDbScale
 70
     0
300
1-1/2" = 1'-0"
140
1.5
141
12.0
290
     0
  0
SCALE
  5
8185
102
{ACAD_REACTORS
330
8176
102
}
330
8176
100
AcDbScale
 70
     0
300
3" = 1'-0"
140
3.0
141
12.0
290
     0
  0
SCALE
  5
8186
102
{ACAD_REACTORS
330
8176
102
}
330
8176
100
AcDbScale
 70
     0
300
6" = 1'-0"
140
6.0
141
12.0
290
     0
  0
SCALE
  5
8187
102
{ACAD_REACTORS
330
8176
102
}
330
8176
100
AcDbScale
 70
     0
300
1'-0" = 1'-0"
140
12.0
141
12.0
290
     0
  0
ACDBSECTIONVIEWSTYLE
  5
819C
102
{ACAD_XDICTIONARY
360
84D1
102
}
102
{ACAD_REACTORS
330
819B
102
}
330
819B
100
AcDbModelDocViewStyle
 70
     0
  3
Imperial24
290
     0
100
AcDbSectionViewStyle
 70
     0
 71
     0
 90
       78
 71
     1
340
8189
 40
0.24
340
0
340
0
 40
0.24
300
I, O, Q, S, X, Z
 40
0.48
 90
        3
 40
0.18
 90
        1
 71
     2
340
8190
 90
       25
340
8190
 90
       50
 40
0.24
 40
0.0
 40
0.24
 71
     3
340
8189
 40
0.24
 90
        1
 40
0.75
 90
        1
300
%<\AcVar ViewType \f "%tc1">% %<\AcVar ViewSectionStartId>%-%<\AcVar ViewSectionEndId>%\PSCALE %<\AcVar ViewScale \f "%sn">%
 71
     4
300
ANSI31
 40
1.0
 90
        0
290
     0
290
     0
 90
        6
 40
0.0
 40
1.570796326794896
 40
0.2617993877991494
 40
1.308996938995747
 40
-0.2617993877991494
 40
1.832595714594046
  0
TABLESTYLE
  5
8198
102
{ACAD_XDICTIONARY
360
8498
102
}
102
{ACAD_REACTORS
330
8197
102
}
330
8197
100
AcDbTableStyle
  3
Standard
 70
     0
 71
     0
 40
0.06
 41
0.06
280
     0
281
     0
  7
STANDARD
140
0.18
170
     2
 62
     0
 63
     7
283
     0
274
    -2
284
     1
 64
     0
275
    -2
285
     1
 65
     0
276
    -2
286
     1
 66
     0
277
    -2
287
     1
 67
     0
278
    -2
288
     1
 68
     0
279
    -2
289
     1
 69
     0
  7
STANDARD
140
0.25
170
     5
 62
     0
 63
     7
283
     0
274
    -2
284
     1
 64
     0
275
    -2
285
     1
 65
     0
276
    -2
286
     1
 66
     0
277
    -2
287
     1
 67
     0
278
    -2
288
     1
 68
     0
279
    -2
289
     1
 69
     0
  7
STANDARD
140
0.18
170
     5
 62
     0
 63
     7
283
     0
274
    -2
284
     1
 64
     0
275
    -2
285
     1
 65
     0
276
    -2
286
     1
 66
     0
277
    -2
287
     1
 67
     0
278
    -2
288
     1
 68
     0
279
    -2
289
     1
 69
     0
  0
VISUALSTYLE
  5
8163
102
{ACAD_XDICTIONARY
360
84A9
102
}
102
{ACAD_REACTORS
330
815D
102
}
330
815D
100
AcDbVisualStyle
  2
2dWireframe
 70
     4
 71
     0
 72
     2
 73
     0
 90
        0
 40
-0.6
 41
-30.0
 62
     5
 63
     7
 74
     1
 91
        4
 64
     7
 65
   257
 75
     1
175
     1
 42
1.0
 92
        0
 66
   257
 43
1.0
 76
     1
 77
     6
 78
     2
 67
     7
 79
     5
170
     0
171
     0
290
     0
174
     0
 93
        1
 44
0.0
173
     0
291
     0
 45
0.0
1001
ACAD
1000
AcDbSavedByObjectVersion
1070
     0
  0
VISUALSTYLE
  5
8162
102
{ACAD_XDICTIONARY
360
84A7
102
}
102
{ACAD_REACTORS
330
815D
102
}
330
815D
100
AcDbVisualStyle
  2
Basic
 70
     7
 71
     1
 72
     0
 73
     1
 90
        0
 40
-0.6
 41
-30.0
 62
     5
 63
     7
 74
     0
 91
        4
 64
     7
 65
   257
 75
     1
175
     1
 42
1.0
 92
        8
 66
     7
 43
1.0
 76
     1
 77
     6
 78
     2
 67
     7
 79
     5
170
     0
171
     0
290
     0
174
     0
 93
        1
 44
0.0
173
     0
291
     1
 45
0.0
1001
ACAD
1000
AcDbSavedByObjectVersion
1070
     0
  0
VISUALSTYLE
  5
8169
102
{ACAD_XDICTIONARY
360
84B5
102
}
102
{ACAD_REACTORS
330
815D
102
}
330
815D
100
AcDbVisualStyle
  2
Brighten
 70
    12
 71
     2
 72
     2
 73
     0
 90
        0
 40
-0.6
 41
-30.0
 62
     5
 63
     7
 74
     1
 91
        4
 64
     7
 65
   257
 75
     1
175
     1
 42
1.0
 92
        8
 66
     7
 43
1.0
 76
     1
 77
     6
 78
     2
 67
     7
 79
     5
170
     0
171
     0
290
     0
174
     0
 93
        1
 44
50.0
173
     0
291
     1
 45
0.0
1001
ACAD
1000
AcDbSavedByObjectVersion
1070
     0
  0
VISUALSTYLE
  5
816D
102
{ACAD_XDICTIONARY
360
84BD
102
}
102
{ACAD_REACTORS
330
815D
102
}
330
815D
100
AcDbVisualStyle
  2
ColorChange
 70
    16
 71
     2
 72
     2
 73
     3
 90
        0
 40
-0.6
 41
-30.0
 62
     5
 63
     8
 74
     1
 91
        4
 64
     7
 65
   257
 75
     1
175
     1
 42
1.0
 92
        8
 66
     8
 43
1.0
 76
     1
 77
     6
 78
     2
 67
     7
 79
     5
170
     0
171
     0
290
     0
174
     0
 93
        1
 44
0.0
173
     0
291
     1
 45
0.0
1001
ACAD
1000
AcDbSavedByObjectVersion
1070
     0
  0
VISUALSTYLE
  5
8166
102
{ACAD_XDICTIONARY
360
84AF
102
}
102
{ACAD_REACTORS
330
815D
102
}
330
815D
100
AcDbVisualStyle
  2
Conceptual
 70
     9
 71
     3
 72
     2
 73
     0
 90
        0
 40
-0.6
 41
-30.0
 62
     5
 63
     7
 74
     2
 91
        2
 64
     7
 65
   257
 75
     1
175
     1
 42
179.0
 92
        8
 66
     7
 43
1.0
 76
     1
 77
     6
 78
     2
 67
     7
 79
     3
170
     0
171
     0
290
     0
174
     0
 93
        1
 44
0.0
173
     0
291
     0
 45
0.0
1001
ACAD
1000
AcDbSavedByObjectVersion
1070
     0
  0
VISUALSTYLE
  5
8168
102
{ACAD_XDICTIONARY
360
84B3
102
}
102
{ACAD_REACTORS
330
815D
102
}
330
815D
100
AcDbVisualStyle
  2
Dim
 70
    11
 71
     2
 72
     2
 73
     0
 90
        0
 40
-0.6
 41
-30.0
 62
     5
 63
     7
 74
     1
 91
        4
 64
     7
 65
   257
 75
     1
175
     1
 42
1.0
 92
        8
 66
     7
 43
1.0
 76
     1
 77
     6
 78
     2
 67
     7
 79
     5
170
     0
171
     0
290
     0
174
     0
 93
        1
 44
-50.0
173
     0
291
     1
 45
0.0
1001
ACAD
1000
AcDbSavedByObjectVersion
1070
     0
  0
VISUALSTYLE
  5
8175
102
{ACAD_XDICTIONARY
360
84CD
102
}
102
{ACAD_REACTORS
330
815D
102
}
330
815D
100
AcDbVisualStyle
  2
EdgeColorOff
 70
    22
 71
     2
 72
     2
 73
     0
 90
        0
 40
-0.6
 41
-30.0
 62
     5
 63
     7
 74
     1
 91
        4
 64
     7
 65
   257
 75
     1
175
     1
 42
1.0
 92
        8
 66
     7
 43
1.0
 76
     1
 77
     6
 78
     2
 67
     7
 79
     5
170
     0
171
     0
290
     0
174
     0
 93
        1
 44
0.0
173
     0
291
     1
 45
0.0
1001
ACAD
1000
AcDbSavedByObjectVersion
1070
     0
  0
VISUALSTYLE
  5
816C
102
{ACAD_XDICTIONARY
360
84BB
102
}
102
{ACAD_REACTORS
330
815D
102
}
330
815D
100
AcDbVisualStyle
  2
Facepattern
 70
    15
 71
     2
 72
     2
 73
     0
 90
        0
 40
-0.6
 41
-30.0
 62
     5
 63
     7
 74
     1
 91
        4
 64
     7
 65
   257
 75
     1
175
     1
 42
1.0
 92
        8
 66
     7
 43
1.0
 76
     1
 77
     6
 78
     2
 67
     7
 79
     5
170
     0
171
     0
290
     0
174
     0
 93
        1
 44
0.0
173
     0
291
     1
 45
0.0
1001
ACAD
1000
AcDbSavedByObjectVersion
1070
     0
  0
VISUALSTYLE
  5
815E
102
{ACAD_XDICTIONARY
360
849F
102
}
102
{ACAD_REACTORS
330
815D
102
}
330
815D
100
AcDbVisualStyle
  2
Flat
 70
     0
 71
     2
 72
     1
 73
     1
 90
        2
 40
-0.6
 41
30.0
 62
     5
 63
     7
 74
     0
 91
        0
 64
     7
 65
   257
 75
     1
175
     1
 42
1.0
 92
        8
 66
     7
 43
1.0
 76
     1
 77
     6
 78
     2
 67
     7
 79
     5
170
     0
171
     0
290
     0
174
     0
 93
       13
 44
0.0
173
     0
291
     1
 45
0.0
1001
ACAD
1000
AcDbSavedByObjectVersion
1070
     0
  0
VISUALSTYLE
  5
815F
102
{ACAD_XDICTIONARY
360
84A1
102
}
102
{ACAD_REACTORS
330
815D
102
}
330
815D
100
AcDbVisualStyle
  2
FlatWithEdges
 70
     1
 71
     2
 72
     1
 73
     1
 90
        2
 40
-0.6
 41
30.0
 62
     5
 63
     7
 74
     1
 91
        0
 64
     7
 65
   257
 75
     1
175
     1
 42
1.0
 92
        0
 66
   257
 43
1.0
 76
     1
 77
     6
 78
     2
 67
     7
 79
     5
170
     0
171
     0
290
     0
174
     0
 93
       13
 44
0.0
173
     0
291
     1
 45
0.0
1001
ACAD
1000
AcDbSavedByObjectVersion
1070
     0
  0
VISUALSTYLE
  5
8160
102
{ACAD_XDICTIONARY
360
84A3
102
}
102
{ACAD_REACTORS
330
815D
102
}
330
815D
100
AcDbVisualStyle
  2
Gouraud
 70
     2
 71
     2
 72
     2
 73
     1
 90
        2
 40
-0.6
 41
30.0
 62
     5
 63
     7
 74
     0
 91
        0
 64
     7
 65
   257
 75
     1
175
     1
 42
1.0
 92
        0
 66
     7
 43
1.0
 76
     1
 77
     6
 78
     2
 67
     7
 79
     5
170
     0
171
     0
290
     0
174
     0
 93
       13
 44
0.0
173
     0
291
     1
 45
0.0
1001
ACAD
1000
AcDbSavedByObjectVersion
1070
     0
  0
VISUALSTYLE
  5
8161
102
{ACAD_XDICTIONARY
360
84A5
102
}
102
{ACAD_REACTORS
330
815D
102
}
330
815D
100
AcDbVisualStyle
  2
GouraudWithEdges
 70
     3
 71
     2
 72
     2
 73
     1
 90
        2
 40
-0.6
 41
30.0
 62
     5
 63
     7
 74
     1
 91
        0
 64
     7
 65
   257
 75
     1
175
     1
 42
1.0
 92
        0
 66
   257
 43
1.0
 76
     1
 77
     6
 78
     2
 67
     7
 79
     5
170
     0
171
     0
290
     0
174
     0
 93
       13
 44
0.0
173
     0
291
     1
 45
0.0
1001
ACAD
1000
AcDbSavedByObjectVersion
1070
     0
  0
VISUALSTYLE
  5
8165
102
{ACAD_XDICTIONARY
360
84AD
102
}
102
{ACAD_REACTORS
330
815D
102
}
330
815D
100
AcDbVisualStyle
  2
Hidden
 70
     6
 71
     1
 72
     2
 73
     2
 90
        0
 40
-0.6
 41
-30.0
 62
     5
 63
     7
 74
     2
 91
        2
 64
     7
 65
   257
 75
     2
175
     1
 42
40.0
 92
        0
 66
   257
 43
1.0
 76
     1
 77
     6
 78
     2
 67
     7
 79
     3
170
     0
171
     0
290
     0
174
     0
 93
        1
 44
0.0
173
     0
291
     0
 45
0.0
1001
ACAD
1000
AcDbSavedByObjectVersion
1070
     0
  0
VISUALSTYLE
  5
8173
102
{ACAD_XDICTIONARY
360
84C9
102
}
102
{ACAD_REACTORS
330
815D
102
}
330
815D
100
AcDbVisualStyle
  2
JitterOff
 70
    20
 71
     2
 72
     2
 73
     0
 90
        0
 40
-0.6
 41
-30.0
 62
     5
 63
     7
 74
     1
 91
        4
 64
     7
 65
   257
 75
     1
175
     1
 42
1.0
 92
       10
 66
     7
 43
1.0
 76
     1
 77
     6
 78
     2
 67
     7
 79
     5
170
     0
171
     0
290
     0
174
     0
 93
        1
 44
0.0
173
     0
291
     1
 45
0.0
1001
ACAD
1000
AcDbSavedByObjectVersion
1070
     0
  0
VISUALSTYLE
  5
816B
102
{ACAD_XDICTIONARY
360
84B9
102
}
102
{ACAD_REACTORS
330
815D
102
}
330
815D
100
AcDbVisualStyle
  2
Linepattern
 70
    14
 71
     2
 72
     2
 73
     0
 90
        0
 40
-0.6
 41
-30.0
 62
     5
 63
     7
 74
     1
 91
        4
 64
     7
 65
   257
 75
     7
175
     7
 42
1.0
 92
        8
 66
     7
 43
1.0
 76
     1
 77
     6
 78
     2
 67
     7
 79
     5
170
     0
171
     0
290
     0
174
     0
 93
        1
 44
0.0
173
     0
291
     1
 45
0.0
1001
ACAD
1000
AcDbSavedByObjectVersion
1070
     0
  0
VISUALSTYLE
  5
8174
102
{ACAD_XDICTIONARY
360
84CB
102
}
102
{ACAD_REACTORS
330
815D
102
}
330
815D
100
AcDbVisualStyle
  2
OverhangOff
 70
    21
 71
     2
 72
     2
 73
     0
 90
        0
 40
-0.6
 41
-30.0
 62
     5
 63
     7
 74
     1
 91
        4
 64
     7
 65
   257
 75
     1
175
     1
 42
1.0
 92
        9
 66
     7
 43
1.0
 76
     1
 77
     6
 78
     2
 67
     7
 79
     5
170
     0
171
     0
290
     0
174
     0
 93
        1
 44
0.0
173
     0
291
     1
 45
0.0
1001
ACAD
1000
AcDbSavedByObjectVersion
1070
     0
  0
VISUALSTYLE
  5
8167
102
{ACAD_XDICTIONARY
360
84B1
102
}
102
{ACAD_REACTORS
330
815D
102
}
330
815D
100
AcDbVisualStyle
  2
Realistic
 70
     8
 71
     2
 72
     3
 73
     0
 90
        2
 40
-0.6
 41
30.0
 62
     5
 63
     7
 74
     0
 91
        0
 64
     7
 65
   257
 75
     1
175
     1
 42
1.0
 92
        8
 66
   257
 43
1.0
 76
     1
 77
     6
 78
     2
 67
     7
 79
     3
170
     0
171
     0
290
     0
174
     0
 93
       13
 44
0.0
173
     0
291
     0
 45
0.0
1001
ACAD
1000
AcDbSavedByObjectVersion
1070
     0
  0
VISUALSTYLE
  5
8172
102
{ACAD_XDICTIONARY
360
84C7
102
}
102
{ACAD_REACTORS
330
815D
102
}
330
815D
100
AcDbVisualStyle
  2
Shaded
 70
    27
 71
     2
 72
     2
 73
     1
 90
        2
 40
-0.6
 41
30.0
 62
     5
 63
     7
 74
     0
 91
        4
 64
     7
 65
   257
 75
     1
175
     1
 42
1.0
 92
        8
 66
   257
 43
1.0
 76
     1
 77
     6
 78
     2
 67
     8
 79
     3
170
     0
171
     0
290
     0
174
     0
 93
        5
 44
0.0
173
     0
291
     0
 45
0.0
1001
ACAD
1000
AcDbSavedByObjectVersion
1070
     0
  0
VISUALSTYLE
  5
8171
102
{ACAD_XDICTIONARY
360
84C5
102
}
102
{ACAD_REACTORS
330
815D
102
}
330
815D
100
AcDbVisualStyle
  2
Shaded with edges
 70
    26
 71
     2
 72
     2
 73
     1
 90
        2
 40
-0.6
 41
30.0
 62
     5
 63
     7
 74
     1
 91
       10
 64
     7
 65
   257
 75
     2
175
     1
 42
1.0
 92
        8
 66
   257
 43
1.0
 76
     1
 77
     6
 78
     2
 67
     7
 79
     3
170
     0
171
     0
290
     0
174
     0
 93
        5
 44
0.0
173
     0
291
     0
 45
0.0
1001
ACAD
1000
AcDbSavedByObjectVersion
1070
     0
  0
VISUALSTYLE
  5
816E
102
{ACAD_XDICTIONARY
360
84BF
102
}
102
{ACAD_REACTORS
330
815D
102
}
330
815D
100
AcDbVisualStyle
  2
Shades of Gray
 70
    23
 71
     2
 72
     2
 73
     3
 90
        0
 40
-0.6
 41
-30.0
 62
     5
 63
     7
 74
     2
 91
        2
 64
     7
 65
     7
 75
     1
175
     1
 42
40.0
 92
        8
 66
     7
 43
1.0
 76
     1
 77
     6
 78
     2
 67
     7
 79
     3
170
     0
171
     0
290
     0
174
     0
 93
        1
 44
0.0
173
     0
291
     0
 45
0.0
1001
ACAD
1000
AcDbSavedByObjectVersion
1070
     0
  0
VISUALSTYLE
  5
816F
102
{ACAD_XDICTIONARY
360
84C1
102
}
102
{ACAD_REACTORS
330
815D
102
}
330
815D
100
AcDbVisualStyle
  2
Sketchy
 70
    24
 71
     1
 72
     2
 73
     2
 90
        0
 40
-0.6
 41
-30.0
 62
     5
 63
     7
 74
     2
 91
        2
 64
     7
 65
     7
 75
     1
175
     1
 42
40.0
 92
       11
 66
     7
 43
1.0
 76
     1
 77
     6
 78
     2
 67
     7
 79
     6
170
     0
171
     0
290
     0
174
     0
 93
        1
 44
0.0
173
     0
291
     0
 45
0.0
1001
ACAD
1000
AcDbSavedByObjectVersion
1070
     0
  0
VISUALSTYLE
  5
816A
102
{ACAD_XDICTIONARY
360
84B7
102
}
102
{ACAD_REACTORS
330
815D
102
}
330
815D
100
AcDbVisualStyle
  2
Thicken
 70
    13
 71
     2
 72
     2
 73
     0
 90
        0
 40
-0.6
 41
-30.0
 62
     5
 63
     7
 74
     1
 91
        4
 64
     7
 65
   257
 75
     1
175
     1
 42
1.0
 92
       12
 66
     7
 43
1.0
 76
     1
 77
     6
 78
     2
 67
     7
 79
     5
170
     0
171
     0
290
     0
174
     0
 93
        1
 44
0.0
173
     0
291
     1
 45
0.0
1001
ACAD
1000
AcDbSavedByObjectVersion
1070
     0
  0
VISUALSTYLE
  5
8164
102
{ACAD_XDICTIONARY
360
84AB
102
}
102
{ACAD_REACTORS
330
815D
102
}
330
815D
100
AcDbVisualStyle
  2
Wireframe
 70
     5
 71
     0
 72
     2
 73
     0
 90
        0
 40
-0.6
 41
-30.0
 62
     5
 63
     7
 74
     1
 91
        4
 64
     7
 65
   257
 75
     1
175
     1
 42
1.0
 92
        0
 66
   257
 43
1.0
 76
     1
 77
     6
 78
     2
 67
     7
 79
     3
170
     0
171
     0
290
     0
174
     0
 93
        1
 44
0.0
173
     0
291
     0
 45
0.0
1001
ACAD
1000
AcDbSavedByObjectVersion
1070
     0
  0
VISUALSTYLE
  5
8170
102
{ACAD_XDICTIONARY
360
84C3
102
}
102
{ACAD_REACTORS
330
815D
102
}
330
815D
100
AcDbVisualStyle
  2
X-Ray
 70
    25
 71
     2
 72
     2
 73
     1
 90
        1
 40
0.5
 41
-30.0
 62
     5
 63
     7
 74
     1
 91
        0
 64
     7
 65
   257
 75
     1
175
     1
 42
1.0
 92
        8
 66
     7
 43
1.0
 76
     1
 77
     6
 78
     2
 67
     7
 79
     3
170
     0
171
     0
290
     0
174
     0
 93
       13
 44
0.0
173
     0
291
     0
 45
0.0
1001
ACAD
1000
AcDbSavedByObjectVersion
1070
     0
  0
DICTIONARYVAR
  5
8492
102
{ACAD_REACTORS
330
848D
102
}
330
848D
100
DictionaryVariables
280
     0
  1
1:1
  0
DICTIONARYVAR
  5
848F
102
{ACAD_REACTORS
330
848D
102
}
330
848D
100
DictionaryVariables
280
     0
  1
STANDARD
  0
DICTIONARYVAR
  5
848E
102
{ACAD_REACTORS
330
848D
102
}
330
848D
100
DictionaryVariables
280
     0
  1
STANDARD
  0
DICTIONARYVAR
  5
8490
102
{ACAD_REACTORS
330
848D
102
}
330
848D
100
DictionaryVariables
280
     0
  1
Imperial24
  0
DICTIONARYVAR
  5
8491
102
{ACAD_REACTORS
330
848D
102
}
330
848D
100
DictionaryVariables
280
     0
  1
Imperial24
  0
DICTIONARYVAR
  5
8495
102
{ACAD_REACTORS
330
848D
102
}
330
848D
100
DictionaryVariables
280
     0
  1
1
  0
DICTIONARYVAR
  5
8494
102
{ACAD_REACTORS
330
848D
102
}
330
848D
100
DictionaryVariables
280
     0
  1
0
  0
DICTIONARYVAR
  5
8493
102
{ACAD_REACTORS
330
848D
102
}
330
848D
100
DictionaryVariables
280
     0
  1
127
  0
DICTIONARYVAR
  5
8496
102
{ACAD_REACTORS
330
848D
102
}
330
848D
100
DictionaryVariables
280
     0
  1
2
  0
DICTIONARY
  5
84D3
330
819E
100
AcDbDictionary
280
     1
281
     1
  3
ACAD_XREC_ROUNDTRIP
360
84D4
  0
DICTIONARY
  5
84D7
330
81A6
100
AcDbDictionary
280
     1
281
     1
  3
ACAD_XREC_ROUNDTRIP
360
84D8
  0
DICTIONARY
  5
84D5
330
81A2
100
AcDbDictionary
280
     1
281
     1
  3
ACAD_XREC_ROUNDTRIP
360
84D6
  0
DICTIONARY
  5
814E
330
814D
100
AcDbDictionary
280
     1
281
     1
  3
ACAD_XREC_ROUNDTRIP
360
849D
  3
BUMPTILE
360
8150
  3
DIFFUSETILE
360
814F
  3
OPACITYTILE
360
8153
  3
REFLECTIONTILE
360
8152
  3
REFRACTIONTILE
360
8154
  3
SPECULARTILE
360
8151
  0
DICTIONARY
  5
8146
330
8145
100
AcDbDictionary
280
     1
281
     1
  3
ACAD_XREC_ROUNDTRIP
360
849C
  3
BUMPTILE
360
8148
  3
DIFFUSETILE
360
8147
  3
OPACITYTILE
360
814B
  3
REFLECTIONTILE
360
814A
  3
REFRACTIONTILE
360
814C
  3
SPECULARTILE
360
8149
  0
DICTIONARY
  5
8156
330
8155
100
AcDbDictionary
280
     1
281
     1
  3
ACAD_XREC_ROUNDTRIP
360
849E
  3
BUMPTILE
360
8158
  3
DIFFUSETILE
360
8157
  3
FBXASSET
360
8271
  3
OPACITYTILE
360
815B
  3
REFLECTIONTILE
360
815A
  3
REFRACTIONTILE
360
815C
  3
SPECULARTILE
360
8159
  0
DICTIONARY
  5
84D1
330
819C
100
AcDbDictionary
280
     1
281
     1
  3
ACAD_XREC_ROUNDTRIP
360
84D2
  0
DICTIONARY
  5
8498
330
8198
100
AcDbDictionary
280
     1
281
     1
  3
ACAD_ROUNDTRIP_2008_TABLESTYLE_CELLSTYLEMAP
360
8499
  3
ACAD_XREC_ROUNDTRIP
360
84CF
  0
DICTIONARY
  5
84A9
330
8163
100
AcDbDictionary
280
     1
281
     1
  3
ACAD_XREC_ROUNDTRIP
360
84AA
  0
DICTIONARY
  5
84A7
330
8162
100
AcDbDictionary
280
     1
281
     1
  3
ACAD_XREC_ROUNDTRIP
360
84A8
  0
DICTIONARY
  5
84B5
330
8169
100
AcDbDictionary
280
     1
281
     1
  3
ACAD_XREC_ROUNDTRIP
360
84B6
  0
DICTIONARY
  5
84BD
330
816D
100
AcDbDictionary
280
     1
281
     1
  3
ACAD_XREC_ROUNDTRIP
360
84BE
  0
DICTIONARY
  5
84AF
330
8166
100
AcDbDictionary
280
     1
281
     1
  3
ACAD_XREC_ROUNDTRIP
360
84B0
  0
DICTIONARY
  5
84B3
330
8168
100
AcDbDictionary
280
     1
281
     1
  3
ACAD_XREC_ROUNDTRIP
360
84B4
  0
DICTIONARY
  5
84CD
330
8175
100
AcDbDictionary
280
     1
281
     1
  3
ACAD_XREC_ROUNDTRIP
360
84CE
  0
DICTIONARY
  5
84BB
330
816C
100
AcDbDictionary
280
     1
281
     1
  3
ACAD_XREC_ROUNDTRIP
360
84BC
  0
DICTIONARY
  5
849F
330
815E
100
AcDbDictionary
280
     1
281
     1
  3
ACAD_XREC_ROUNDTRIP
360
84A0
  0
DICTIONARY
  5
84A1
330
815F
100
AcDbDictionary
280
     1
281
     1
  3
ACAD_XREC_ROUNDTRIP
360
84A2
  0
DICTIONARY
  5
84A3
330
8160
100
AcDbDictionary
280
     1
281
     1
  3
ACAD_XREC_ROUNDTRIP
360
84A4
  0
DICTIONARY
  5
84A5
330
8161
100
AcDbDictionary
280
     1
281
     1
  3
ACAD_XREC_ROUNDTRIP
360
84A6
  0
DICTIONARY
  5
84AD
330
8165
100
AcDbDictionary
280
     1
281
     1
  3
ACAD_XREC_ROUNDTRIP
360
84AE
  0
DICTIONARY
  5
84C9
330
8173
100
AcDbDictionary
280
     1
281
     1
  3
ACAD_XREC_ROUNDTRIP
360
84CA
  0
DICTIONARY
  5
84B9
330
816B
100
AcDbDictionary
280
     1
281
     1
  3
ACAD_XREC_ROUNDTRIP
360
84BA
  0
DICTIONARY
  5
84CB
330
8174
100
AcDbDictionary
280
     1
281
     1
  3
ACAD_XREC_ROUNDTRIP
360
84CC
  0
DICTIONARY
  5
84B1
330
8167
100
AcDbDictionary
280
     1
281
     1
  3
ACAD_XREC_ROUNDTRIP
360
84B2
  0
DICTIONARY
  5
84C7
330
8172
100
AcDbDictionary
280
     1
281
     1
  3
ACAD_XREC_ROUNDTRIP
360
84C8
  0
DICTIONARY
  5
84C5
330
8171
100
AcDbDictionary
280
     1
281
     1
  3
ACAD_XREC_ROUNDTRIP
360
84C6
  0
DICTIONARY
  5
84BF
330
816E
100
AcDbDictionary
280
     1
281
     1
  3
ACAD_XREC_ROUNDTRIP
360
84C0
  0
DICTIONARY
  5
84C1
330
816F
100
AcDbDictionary
280
     1
281
     1
  3
ACAD_XREC_ROUNDTRIP
360
84C2
  0
DICTIONARY
  5
84B7
330
816A
100
AcDbDictionary
280
     1
281
     1
  3
ACAD_XREC_ROUNDTRIP
360
84B8
  0
DICTIONARY
  5
84AB
330
8164
100
AcDbDictionary
280
     1
281
     1
  3
ACAD_XREC_ROUNDTRIP
360
84AC
  0
DICTIONARY
  5
84C3
330
8170
100
AcDbDictionary
280
     1
281
     1
  3
ACAD_XREC_ROUNDTRIP
360
84C4
  0
XRECORD
  5
84D4
102
{ACAD_REACTORS
330
84D3
102
}
330
84D3
100
AcDbXrecord
280
     1
102
DISPLAYNAME
  1
Imperial24
102
FLAGS
 90
        0
  0
XRECORD
  5
84D8
102
{ACAD_REACTORS
330
84D7
102
}
330
84D7
100
AcDbXrecord
280
     1
102
SHADEPLOT
 70
     0
102
SHADEPLOTRESLEVEL
 70
     2
102
SHADEPLOTCUSTOMDPI
 70
   300
  0
XRECORD
  5
84D6
102
{ACAD_REACTORS
330
84D5
102
}
330
84D5
100
AcDbXrecord
280
     1
102
SHADEPLOT
 70
     0
102
SHADEPLOTRESLEVEL
 70
     2
102
SHADEPLOTCUSTOMDPI
 70
   300
  0
XRECORD
  5
849D
102
{ACAD_REACTORS
330
814E
102
}
330
814E
100
AcDbXrecord
280
     1
102
MATERIAL
148
0.0
149
0.0
149
0.0
 93
        0
 94
      127
282
     0
 72
     0
 77
     0
171
     0
175
     0
179
     0
273
     0
  0
XRECORD
  5
8150
102
{ACAD_REACTORS
330
814E
102
}
330
814E
100
AcDbXrecord
280
     1
270
     1
271
     1
  0
XRECORD
  5
814F
102
{ACAD_REACTORS
330
814E
102
}
330
814E
100
AcDbXrecord
280
     1
270
     1
271
     1
  0
XRECORD
  5
8153
102
{ACAD_REACTORS
330
814E
102
}
330
814E
100
AcDbXrecord
280
     1
270
     1
271
     1
  0
XRECORD
  5
8152
102
{ACAD_REACTORS
330
814E
102
}
330
814E
100
AcDbXrecord
280
     1
270
     1
271
     1
  0
XRECORD
  5
8154
102
{ACAD_REACTORS
330
814E
102
}
330
814E
100
AcDbXrecord
280
     1
270
     1
271
     1
  0
XRECORD
  5
8151
102
{ACAD_REACTORS
330
814E
102
}
330
814E
100
AcDbXrecord
280
     1
270
     1
271
     1
  0
XRECORD
  5
849C
102
{ACAD_REACTORS
330
8146
102
}
330
8146
100
AcDbXrecord
280
     1
102
MATERIAL
148
0.0
149
0.0
149
0.0
 93
        0
 94
      127
282
     0
 72
     0
 77
     0
171
     0
175
     0
179
     0
273
     0
  0
XRECORD
  5
8148
102
{ACAD_REACTORS
330
8146
102
}
330
8146
100
AcDbXrecord
280
     1
270
     1
271
     1
  0
XRECORD
  5
8147
102
{ACAD_REACTORS
330
8146
102
}
330
8146
100
AcDbXrecord
280
     1
270
     1
271
     1
  0
XRECORD
  5
814B
102
{ACAD_REACTORS
330
8146
102
}
330
8146
100
AcDbXrecord
280
     1
270
     1
271
     1
  0
XRECORD
  5
814A
102
{ACAD_REACTORS
330
8146
102
}
330
8146
100
AcDbXrecord
280
     1
270
     1
271
     1
  0
XRECORD
  5
814C
102
{ACAD_REACTORS
330
8146
102
}
330
8146
100
AcDbXrecord
280
     1
270
     1
271
     1
  0
XRECORD
  5
8149
102
{ACAD_REACTORS
330
8146
102
}
330
8146
100
AcDbXrecord
280
     1
270
     1
271
     1
  0
XRECORD
  5
849E
102
{ACAD_REACTORS
330
8156
102
}
330
8156
100
AcDbXrecord
280
     1
102
MATERIAL
148
0.0
149
0.0
149
0.0
 93
        0
 94
      127
282
     0
 72
     0
 77
     0
171
     0
175
     0
179
     0
273
     0
  0
XRECORD
  5
8158
102
{ACAD_REACTORS
330
8156
102
}
330
8156
100
AcDbXrecord
280
     1
270
     1
271
     1
  0
XRECORD
  5
8157
102
{ACAD_REACTORS
330
8156
102
}
330
8156
100
AcDbXrecord
280
     1
270
     1
271
     1
  0
XRECORD
  5
8271
102
{ACAD_REACTORS
330
8156
102
}
330
8156
100
AcDbXrecord
280
     1
 70
     1
 90
1959938040
 71
     1
  1
25D016A1-B685-41D1-A872-812F740DA441
311
504B03041400060808004C7E6D57780EB96BCF000000200100004F00000038313643384131312D334236332D343539442D383735342D3745344632443737454332422F4173736574446174612F446566696E6974696F6E4974657261746F7250726F706572746965732E62696EEB606060F80F0540260323103700495E20ED
311
9E9A975A94991C9C9C919A9BC8C00612C9C94F4ACC6147C831019920AE4B6A5A62694E0948976F6671726A4E4E625E6A7E69B12042A9426E6209D0B8C41C3D90264E20860914834C48875806B2DF0F88414E02D189290556F689C5C5A925B6FA694915FA864E9646A66606C6BA46CE6696BA262EC64EBA8E8626AEBACE16AE
311
E6C6CE2E66CEC686A6FA45A9C5F9A545C9A9C5FA46FA06F15093E30BF2D21918D6DC7D6A370768C98EE710FAC847087DE13784BEC3FA0C2CFF821F420300504B03041400060808004C7E6D57D62C9C39EB000000300200004500000038313643384131312D334236332D343539442D383735342D3745344632443737454332
311
422F4173736574446174612F496E7374616E636550726F706572746965732E62696EEB606060F80F0540260323103700495E20ED9E9A975A94991C9C9C919A9BA802143032753130347334D47532B330D535317431D475B43037D2B53034723337317071343131644768046931363471713532B5D435353131D6353133026A
311
767372D13534373670367376B67474B5042A03DBCBA019D37FE8ABC6157B20CD04146B0062181F4C03F940F0C11EA29A8141C08141002C0426541C106CAC2CA046088033B02A030AC2157C6006F21A8018AAF50194E6010A610250382264E08660284CD9E98021862280A91564B406929A0FF62C401E28B6F88038B83CB124
311
3943D7A928312F25350524432B0000504B03041400060808004C7E6D5728BB58AF800100009E0500003D00000038313643384131312D334236332D343539442D383735342D3745344632443737454332422F536368656D61732F436F6D6D6F6E536368656D612E786D6CBD544D4FC23018BEFB2B96DE15493C78601010A34B
311
880709DEDFB52FD0D8B54BD70DF6EFED3AC0B12E6442E2716BFB3CEFF3D18E26FB440405EA8C2B1992E1C323095052C5B8DC842437EBFB673219DF8DA659866649B798C078B48AE6410122242F2A4994AC7F93815DF85C049C8564CA0A901499DD886B2EB9B1E02448F358701A9235880C49A0119892A20C89D1B9FD768815
311
CAD268CB5E0355B40B1E47F3E37A2020464BED06AA57CE8FCC20C3C3446D46761A2632A8C1283D07031EFF2AE7CCB1BFEEE916E406DFAC8E36FFD99A9D60A6944090EEDC3B670C7DC13DE86B6B2C5C240D6E503BB85ACD579D513F1B9F9A69DC9CC22AFA80C426D40AF0B21EA168559156B6276F0F726A6BFF04DCD513A87A
311
62CAD41FB24FCB2858B3952E3D852084DA25B9303C15687973CC8E8AAE11DF2836C38C6A9E765E8C1BA1BFB1DC29CDFE518C8B5A7655A4ED7E77291ABEB80DBD82EC866ADE1B8D05AF9E35CF09D7A061F38A986D9EC412B8F0F65E5D81534D9B231D1E5A8FE577A241F3A5FD01504B03041400060808004C7E6D572CCEBD66
311
8A040000E01200003E00000038313643384131312D334236332D343539442D383735342D3745344632443737454332422F536368656D61732F47656E65726963536368656D612E786D6CD5586D6FDB380CFE7EBF42F0F7A649B70E1B90744856B4970F450FCD7A5F05459613EDE4174872DADCAF3F522F8ED3B88D2F1D06AC
311
4050DBA2493EE4438AF2F8EB73AEC8466823CB62928C06C384888297A92C5693A4B6D9D9E7E4EBD51FE3A931C22EF85AE4EC6AFC38BF261BA626C9AD288496DC3F4FCEAFC63366845F7A10452AF41DB320C0D44EC26EAB20918735565582695670811A6A49643A49A6E9069FA4604A64B29016DC4B48552F95E4932463CA88
311
8468C1D2B250DB4962750DF7CE273069CE8363F1FF4EDB00E0A21999574AE4A2B00C353B93F3BD4777B8A61ED8F604ABFEDD79CE56A2B7BDFBDBC50996E0ADDE16FED26223C5D30956C29BDF4A55EA686E5E58B112DA45CE67F76F4FA27EFA3FB672FD7372FC388FAECDCA5209E693CAD167BADCD272F943701B3812F8A3D8
311
52008B1D2E32DB927B2F833C6EA95879925356D254582695095A3CE982924720BE5774A3CB9CDCDB350427D2DF20DA1B5532EBE2D5D6288D75D4F7E4FD9890A0EF8E3D93EBB8F8BA4758158EF6FB90A6F9520281C93DE7AAC6D24607DA296BB96018123F821A7D6A5C5884050C475DA4865442732C8B95684A50165CBB3A32
311
F25F783A4A480ED59AD7F924B968AEA50131F46303223E6A397B0E52976030DC1DCA81D7E7C1EDEEA42C19FF27635C505E2BD5198A599020DF50A2330FCB3AAF28CB0124108429553EF1B228802E2265D8F7CC2401042B155BCC7070F1E5C55F13B4A9577362CCCE46C32174E010C3C378C44841A4BDA00FE3A12006CE11EE
311
6AEC59894D3526DDE1CD59D503ECC324017F8061B7F162162FA62EDD81AE3308617770796DCBDAD2B2625C5AE8A63DE20B2C8AA5E95E76E5730823955956E33E705425A2187C185D36489A1B44D3DCEC2172F6BA2105C3546287A7194B2331768EBBE64F6E70A9930ABE0ADEA89E9E2C38523B810287AD67A54A039C1606EA
311
FE68F8304610BB9093DBDDABC0B2AE4E290DCDA15376D7E39F72B556F0B32EAB5D3D498B4C41ABADEC3A1434C422D87E8025A84BDCB2B1417ED750FAE4DA8976863974C577C7F902D3F156AD354DEA3540DE6BEAE2BEA52F7A2EB4CA43802ECE5BF2CE2EDC9347179FFB023CE412E60BE16DA0BE29B374988A553F561DC046
311
15DD35F7D2C8979F60E5955CE93DF29DED8AFA1EE6642D53418086C03C47C377910F75F7E8F5EF665F70B60FFB22AEDF897D119E8423C773E819A3C1E55E550599EE6EDCA34D0C86FD72057DF2CD46F16A470682471C164E4346D5306BF12D7D12D82CFF673D41636C347443FEB51B50D72EA171A8E4A58623A4A16E0FA2B8
311
B10A0D23268D87C33896EE8FB73305A74BF224EDBADFA0BD674AB354D63DB7BD5D83426761C077DE767728235446A552754EB93B755891C3C4CC6CADE37CF0E912A7BB38DBA010F9DE1282EDF470CA69A9CDA482E334C4A6EA4107987980B17E72F31730EBF88BBD39E7C629F56797A3C0009C2C5AE7951D9A05A02773440F
311
02EEB4DE396A3B6A570C72CCFBCD823B0B8ED3F1D5CEDDFED772FA70236C83FB7D86C385D570B87107535572A60A96035F8F7C6A7192F13007246BBE0521855E6AC46F3E27689CEE7D186A6FD679D98CDCAD13333E04EBE7ED6F55FF01504B03041400060808004C7E6D576180134D5F0100006B0300004500000038313643
311
384131312D334236332D343539442D383735342D3745344632443737454332422F536368656D61732F52656E6465724D6174657269616C536368656D612E786D6CA5934D6FC2300C86EFFB1551EEE343DBA41D1A103009551ADAD40EAE28A4A68D9426284961FCFBE5A340113B2071746D3F765EBF4DC6BFB5407BD0862B49
311
F0B037C0082453059725C18DDD3EBFE3F1E829991803366715D474942CD30FB4A782E00C64017A412D684E454CE3FE28995203B162A6EA5AC94B66997D225E109CD63B0135484BAD1B3C07E9080CA35DB3119C11BCA5C200461A68A1A438126C75E3E230D40FF81FB3F03C91D1E3A3A0AF79FE28E25BC39EC3E17E4C2A2D94
311
A0833A51AF55BCCA7D88572FCBAC529C4140B020FC3AAFA886621DCED7EAD7664CC86024E806DC297DA1BB393E4156543457A4537DB8817349A70F8ACBF09B3EEE2CB2F33E91B65D60786E4E3B39B77E3FEEEF5650424525DA657FB8B46BE6BF064646F0A0F7327C0BC1BC1B4CBBC1C419FA3CCB23500007872A2580CAAE54
311
61865565294E4EDB4617B62FF579DF9A5B2F54E834076A597573A020912FED777F9B3F504B03041400060808004C7E6D57E1123A2D51000000570000004700000038313643384131312D334236332D343539442D383735342D3745344632443737454332422F4173736574446174612F41737365745461626C654F66436F6E
311
74656E74732E62696E536160603032753130347334D47532B330D535317431D475B43037D2B530347233373170713431311402AACB4D2C492DCA4CCC492C28484D2C4ACC4B4E050A82012F90744FCD03CA26072767A4E6260200504B03041400060808004C7E6D57F865834058000000680000004500000038313643384131
311
312D334236332D343539442D383735342D3745344632443737454332422F4173736574446174612F53747265616D56657273696F6E5461626C652E696E66558CBD0A80300C06F73E4B117FB66E451741D041DC5BF98480A492E4FDD18EAEC7DD4555D89EF28DF51A0B1BD8340C4DE7DD848B988C0ACF0649566493F2408C50
311
8DDEBB99D5129FF8F1AF8CF5B9503E20FAE5A16B5AF702504B03041400060808004C7E6D578C696BB5340100009A0400003600000038313643384131312D334236332D343539442D383735342D3745344632443737454332422F4173736574446174612F636E782E786D6CCD94314FC3301085FF4AE43D76D2AA12AA1C5708
311
964E205131B05D9D4BB1EAD8917D41F0EFB1930CA022A60E5DCFEFCECF9FFC4EEE3E7B5B7C6088C6BB86D5BC62053AED5BE34E0D1BA92BEF58B15332784F3F64AC70D063C3729929790A7E1C96528B1D8C3657AD71E7A5781F23D2018E169FBA07EF081D4556680B31362CEA77EC81C348BEC578E62D10F09A078C7E0C1AD3
311
24323D2E937440206C995A55AB7559D765BD3ED49BEDA6DAAE366F5264A59247EFEDA237E9B2E08742CFB7325549918F951C835934F92D4CFDE5911F8D932229958C141293A583BE86D401C3608D064AE884D784542611422FC52C56526406BF483C62679CC92DFB640CC887E7640F0319BC3922FF79BD3E99BD8B044EE3ED
311
F2B874787D0A2FD30F7A9D033925E6D67272E9901BD75D2125625A23293479ABA86F504B03041400060808004C7E6D57EA2B40AD080100004F0300003400000038313643384131312D334236332D343539442D383735342D3745344632443737454332422F536368656D61732F636E782E786D6CCD93BD6EC32014855FC562
311
37D88E2C55112643874E5DDA4EDD28DCA428C0B5F8A9DAB72FB80C89D4AD1DB2C1E1133AE770E1874F67BB0F08D1A05FC84807D28157A88D3F2D24A7637F47BA83E001315D60A4F3D2C142AA4C043F05CC6B93341C65B655B5C69F9B788FCEA17F56EFE024E99495312E246E5B2A73420DF14CB54C928E3440C41C14941B92
311
71D06E500164024DC4344CBB7E1CFB71F732CEFB79D84FF32B679514FC0DD136DEF80401D74E6159F86267E0AC1E0B9E83694CCD40C4A5375ADAE0AC1082C7144A078D4C5F6B21E5BA5AA3642A55B10DFC61046735EA55E007F0108CBACDC457E6FE2DF213780DE1B1BC5230D2DE66F2DF3CFEAD00B6CD7E1981FA15C43750
311
4B03041400060808004C7E6D57410A3D5871000000A40000002C00000038313643384131312D334236332D343539442D383735342D3745344632443737454332422F636E782E786D6C55CC4D0E82301086E1AB34B31774E7A22D31F1069E60020334B633A63FC6E34B0909B07DDE2F9FEE7EC1AB2FC5E4840DDC9A2B28E25E
311
06C7938192C7CB1D54677514C9871928C640062A83D55394F2D968A0118BAFEA1DBF377CA444F98919176EAB9FEAAB9F2960DA5BBB1E2ED3FA6FFF504B03041400060808004C7E6D57FAB4C1717F000000A300000007000000636E782E786D6C4D8CDF0E82201C465F85FDEEA95014DA00977F7A0F97E898088DA4F5F841F3
311
A2AB6F3BFBCE11CD67B3E8ADC3CB7827819C2E80B47BF8C9B84542DC67CC01354A04EFF7BF1B20376E5A42C6A0C4127C7C1E68D2F3186DA6D6B8F5809CD41DBF1182CBB62E31ADAE3DE6ACA2980DF45EF48C0D5DD126E39C9534BF5EDA9C575F504B03041400060808004C7E6D5716E99B5DA600000035010000130000005B
311
436F6E74656E745F54797065735D2E786D6C9590410E82301045AFD2740F4517C6180A0BF5065E60AC53688469D30E066F6F91AD9AB89CF9FFFD3F99BA9DC7413C3026E749CB4D59498164FCCD51A7E5C4B6D84BD136F5E5193089ECA5A465CF1C0E4A25D3E308A9F401292BD6C711388FB15301CC1D3A54DBAADA29E38991
311
B8E0254336F5092D4C038BF39CD76B6FC6A538AEBEA54A4B08617006389FA516557DE4AE8E7E70DE30729138228C5F021CD93F02D4FB0DCD0B504B03041400060808004C7E6D573DEE336E64000000790000001B0000006175746F6465736B2D64657369676E2D7061636B6167652E786D6C35CBC10E83200C00D05F21DCA5
311
6CA76D41FC96062B120735B69A7DBE268BB7777961F8D5AF396893C2ADB70FE7ADA196782C2DF776D7A97B5933C430F15651E5469C55D70F80A4992A3ADC954792C525AE70A1E4D6AD9816CC044FEFDF01FE3FDE907802504B03041400060808004C7E6D579E6BF676F9000000960100003700000038313643384131312D33
311
4236332D343539442D383735342D3745344632443737454332422F4173736574446174612F636F72652E786D6C8550CB6E833010FC15B4770336A181C8384A41F9829E7AB36C875A0936F2A3EAE7D70E546A4F3DED6A76667677E8F96B79149FCA796DCD00B8ACA1504658A9CD3C400C37D4417166D4591B7ED1A0307C5103
311
6418189D9D8DEB0E096B8232193556AA1DE4DEAB008578A466002F3ED4C24B1E4362F87BB97271E7B32A71B9F1188D51CB5DAA6572D337AD1CB0EE726CA663D7A29ED4353A8CE32BEA0F538FA62BC63D1971FF42AEB4CA6246835E7EB60BA778501218A949833046B879C3EDA9AD4FA47DA7556632EA834B3FEF4BF377C02E
311
F9EA89074EAB6DFAC735AEF27FD7A84D68C8EEBA293C309C8E7C0E18AD724AA93C234C3527CABE01504B03041400060808004C7E6D572B063065F7000000940100003500000038313643384131312D334236332D343539442D383735342D3745344632443737454332422F536368656D61732F636F72652E786D6C8550CB6E
311
833010FC15B4770336A1099171D482F203EDA937CB76A89560233FAA7E7E6DA0527BEA6957B333B3BB432F5FF3A3F854CE6B6B7AC0650D8532C24A6DA61E62B8A1131417469DB5E1170D0AC367D5438681D1C9D9B8EC90B02628935163A5DA41EEBD0A5088476A7AF0E243CDBCE4312486BF970B17773EA912971B8FD118B5
311
DCA55A26377DD3CA013B3D1F9BF1786A5147EA1A1D86E1057587B143E315E38E0CB87B22575A6531A341CF3FDB85533C28098CD4A4411823DCBCE1F6DCD667D2BED32A3319F5C1A59FF7A5F93B60AFEB9D9E56DBEC8F675CE4FF9E519BD090DD73537860389DB80E18AD7246A9AC01A69AF364DF504B03041400060808004C
311
7E6D57AEA8766801010000D70100002D00000038313643384131312D334236332D343539442D383735342D3745344632443737454332422F636F72652E786D6C9551CB6EC32010FC15B477DBC18FD88D3051F3E817F4D41B858D831283C5A3EAE717D7AEDADEDA136898996566D9FE7DBC9337745E5BD303CD3740D048ABB4
311
197A88E1927540F69C396BC30F1A102346EC618681B3C1D938AD90B426A099516315AEA0F01E0310794F971EBCBCE22872114362F85B3E09791303E6345F789C053D7E49A5431150012F376595519AD1EA9936BB66B32B9B1756CC4CCEA236A12AD76138BEA222760A2912F08615CB6B6245AD568E56E98FFAA2D101EFE8F6
311
D83D26E7EAB0ADB2BA7938655DDBD4597BAE9FCA53DB9E8FE521992431673EB8D4CC6A3277F057F922FC952C4EEA9FC91685074EBF431573CD9C159F3B48E7BC12FE01504B03041400060808004C7E6D57156200E607010000B201000008000000636F72652E786D6C8D50C16E842014FC15F2EE28E0DAD50DB26935FB053D
311
F54685B564158CE0A6FDFBC26A93F6D6D32333F3DE0CC3CF9FD388EE7AF1C6D90668460069DB3B65ECD0C01AAEB80274167C712EFC9201B272D20D2418041F16B7CE3BD43B1BB44DA8754AEFA0F45E0740FD181F0DF8FE434F32936B880A7FCB66D9DFE4A0339A6D3AC183997E56FB45CBA0150846588129C5B478A5E5A924
311
2756BEF13C29055F57A3762BA3A2BBB91ABD80A89E8F4577AC4A5C3342F0A16D5F707DE86ADC5D28AD594BEB2776E1795A16DC8725FE793F127306E4E53DF9F27CA3047F776EDC05319442CE8E5F2008CF13F127F43AAB7F843636146C3FB86D781034067A10D1383518C7A3DE3853DBE21B504B010214001400060808004C
311
7E6D57780EB96BCF000000200100004F000000000000000000000000000000000038313643384131312D334236332D343539442D383735342D3745344632443737454332422F4173736574446174612F446566696E6974696F6E4974657261746F7250726F706572746965732E62696E504B010214001400060808004C7E6D
311
57D62C9C39EB0000003002000045000000000000000000000000003C01000038313643384131312D334236332D343539442D383735342D3745344632443737454332422F4173736574446174612F496E7374616E636550726F706572746965732E62696E504B010214001400060808004C7E6D5728BB58AF800100009E0500
311
003D000000000000000000000000008A02000038313643384131312D334236332D343539442D383735342D3745344632443737454332422F536368656D61732F436F6D6D6F6E536368656D612E786D6C504B010214001400060808004C7E6D572CCEBD668A040000E01200003E000000000000000000000000006504000038
311
313643384131312D334236332D343539442D383735342D3745344632443737454332422F536368656D61732F47656E65726963536368656D612E786D6C504B010214001400060808004C7E6D576180134D5F0100006B03000045000000000000000000000000004B09000038313643384131312D334236332D343539442D38
311
3735342D3745344632443737454332422F536368656D61732F52656E6465724D6174657269616C536368656D612E786D6C504B010214001400060808004C7E6D57E1123A2D510000005700000047000000000000000000000000000D0B000038313643384131312D334236332D343539442D383735342D3745344632443737
311
454332422F4173736574446174612F41737365745461626C654F66436F6E74656E74732E62696E504B010214001400060808004C7E6D57F865834058000000680000004500000000000000000000000000C30B000038313643384131312D334236332D343539442D383735342D3745344632443737454332422F4173736574
311
446174612F53747265616D56657273696F6E5461626C652E696E66504B010214001400060808004C7E6D578C696BB5340100009A04000036000000000000000000000000007E0C000038313643384131312D334236332D343539442D383735342D3745344632443737454332422F4173736574446174612F636E782E786D6C
311
504B010214001400060808004C7E6D57EA2B40AD080100004F0300003400000000000000000000000000060E000038313643384131312D334236332D343539442D383735342D3745344632443737454332422F536368656D61732F636E782E786D6C504B010214001400060808004C7E6D57410A3D5871000000A40000002C
311
00000000000000000000000000600F000038313643384131312D334236332D343539442D383735342D3745344632443737454332422F636E782E786D6C504B010214001400060808004C7E6D57FAB4C1717F000000A300000007000000000000000000000000001B100000636E782E786D6C504B010214001400060808004C
311
7E6D5716E99B5DA6000000350100001300000000000000000000000000BF1000005B436F6E74656E745F54797065735D2E786D6C504B010214001400060808004C7E6D573DEE336E64000000790000001B00000000000000000000000000961100006175746F6465736B2D64657369676E2D7061636B6167652E786D6C504B
311
010214001400060808004C7E6D579E6BF676F90000009601000037000000000000000000000000003312000038313643384131312D334236332D343539442D383735342D3745344632443737454332422F4173736574446174612F636F72652E786D6C504B010214001400060808004C7E6D572B063065F700000094010000
311
35000000000000000000000000008113000038313643384131312D334236332D343539442D383735342D3745344632443737454332422F536368656D61732F636F72652E786D6C504B010214001400060808004C7E6D57AEA8766801010000D70100002D00000000000000000000000000CB14000038313643384131312D33
311
4236332D343539442D383735342D3745344632443737454332422F636F72652E786D6C504B010214001400060808004C7E6D57156200E607010000B2010000080000000000000000000000000017160000636F72652E786D6C504B050600000000110011005A060000441700000000
310
504B03041400060808004C7E6D57000000000000000000000000370000006662782F36424633464533422D324535422D343339392D423546352D3230363736423945353537342F617474726962757465732E62696E504B03041400060808004C7E6D57000000000000000000000000350000006662782F3642463346453342
310
2D324535422D343339392D423546352D3230363736423945353537342F76657274696365732E62696E504B03041400060808004C7E6D57F270F1330600000004000000360000006662782F36424633464533422D324535422D343339392D423546352D3230363736423945353537342F747269616E676C65732E62696E6366
310
60600000504B03041400060808004C7E6D5751464CB48900000043010000360000006662782F36424633464533422D324535422D343339392D423546352D3230363736423945353537342F6469726563746F72792E786D6C9D8F310EC2300C45AF127987122606C71DD918B841D4B851A43646695A717C52A85029031293A5
310
A76FBF6FACEF7DA7264E43906840EF0FA03836E242F406C6DCEE4EA06AC22492573150D1F66C60C640E8938CB705396EEDD86DE9B5042FE27813D640EA63BB001C722AF6E55CB61E4863F58284D5D3F53DD715CE1C3985E63FD7F1B7EBDD617E9F1E504B03041400060808004C7E6D57DF63FFCE36070000201C0000340000
310
006662782F36424633464533422D324535422D343339392D423546352D3230363736423945353537342F6F626A656374732E786D6CDD59DB6EDB3810FD1542FBB2FBA09B6FB10BC58563278551A40D6A74B16F022DD30E37BA81941267BF7E8714294BB26C2BD9162836051A87A686336766CE0C47DEC77D14A267C2384DE2
310
6BC3B51C039138483634DE5D1B79B635C706FA38451E4B92ACB2CF40318EC8B521968DA9B763499EAAA50DD9E23C6CAEDEDDFC8578406262A020C49C5F1B3C782411B6709E251BC29FAC0DCEB0B5DBEE2DD72A36D6C5EE184E1F1B47A59891380355613D06294A03B7FE2798644F3D5B6CA86DEB75DBD63FB3CD9686D715A5
310
31CF701C1C69D590D3EBA655DF1D2C6E7BC389391C0CFAE660D473CD9BBB9B85E95EF59DF9683E9FCC6E27069A7AEB24094B07A424DE80175F8DA9EBD9E29BD27C85429BDE4112C7245068B66DD810259712DEC4A406AC2B4DAB38A4B0B5B2D0EF68FC896D9D40A9A954435B1BA77F57A33759FF0D20F02E51CA381151CE33
310
06BE56D817F9E07876B15AF30BE528C21961148728A46B86193808B6160EAA8911D92244218199F4A29657D51502FB722EB569B9CDC350E4AF319599E6433E928C4BCDE83F841DB4AF9E063A81B5398DB3B132367B4D41C4C4B3E562F15DBFA7BE2C8044DB10EF205AC04CB1A9DF6BE035175CB05C18D3CF77EBFD4AF043FB
310
E1294B52C2321179329955DE690F56420B82AF032805AE75DF1D50F906D07F01E44B5D90079E63743FD80FB4ED0CC77C9BB008BC831C643AF09F83C4C7A34F9E5D3E3C45A8C695A73085B4FD4198D6CCA89D5D8174EA3D43D027ACAF8C5B05388498BEA7B1C87308141426B0047CBF5DEF8DE912C81416E1291C82F5F0CFB3
310
C54704BF0A39C0370D0FB5D16F0747E98469E6D9C1579F2066180D4A57D56C3C85EFF087E03B5BAC3EAF72B6C501B95789BD205B1AD30C8A69BB4235D06B29FF7DF94566E4913DB55D019CB34B0471B4F865A5FC82A463401551870BD7C8957B0AE91E86382649CED57A1B51054998307FFDEA1739DC7AD69F3A088AC320BF
310
4504B4921954F780D15480624C957925135A079C040FAA00DC154EF5D7387812F0FA0130D67BF480A8C5AC29348F521F47491E0BFA3E0EEFA66956DF913FAE3BE93993DE7832D2C672295E678FA6865279714E84D31387CC6BDE52ACA12517793400B66CB320809E29CFFC24C501CDDA63A16184CA5000FBACCA1BBADDE61C
310
48BD159686C656DF1D22A7F27F79C879EDD5213E8DF08EF85B2C2A5CEB7935804AE1DA8256647661C2398D09971DCA11733550712C2082226EB5D49620A4DC8F4886DF137FB2E435C28F916DE8432F95896EF672F4690555F53C2551746E49EC4BFB5F7D8EA3342CBAB44B18B8BDC609ADB80AA5C511CF106F3ECE7C674364
310
D37D497AC90B1ADF4ED227EF167F021E867F3A3CFA080AAD37D4C8CB9E75ADA13B113F632095D1D0ED5F69475CC24A1F95891E24CCA16B0A5EFD1742778FDD08ADD3399C845B9F86611EF9453DC848042D18CE72D6295F4743E7C8F98A171A095139694B4368903B93A6EC3D74F70156C9E6E31469568E01A3680C77B44E86
310
1C59D11AC2D217F23E2AAE5D97BDFF76A9FF992FABF79427F2FA92B04DABA6F536427760BA611074A92A5C194752F2D4AB265F242F2E97711868218ADF8A5B828A10469EA9184CC81B50EBFD81BFE02C00225DC9DFE60D64C4866C0E3D454D9C1A73185338544BD37D6AF5A6036427CA47ADF15A0A428D60DA8005CFDE8B0F
310
E1370CAE86CE8FDBAAABB18BF5A5286C160C560E7A9C91F5F5D3AA2105563A3FFD2030222F0D096A752E1AB933A2BE2F0FFD6A4382B2E8FBF2CCE3D9631EAD634C456514618137E9878FF22E796DC345C1766F26BDE1C8E99BBDF968620E16FD1B73E60E6ECDF9F8F6AA3F5F8CE6D040D88CF0246701E176CF767CDD3BA5F1
310
4E0746015D971B054C152E5FFD743C371DFC3FBE5184C91A9F8AC55FF54251B67BA2216BE462D70B452B51AFDFD6FDBB4744DD5EC4DED43917B3021DE0E7CB169091AEF7DD5B0B2D5A7712ED3A572AE21B0BEFC9DBCA4FAF3135426FAD0FB51D6D945FE762983DB554297DBB95BCD61B2E1C773483C9EB683C3407EEC23567
310
E3AB9E39767B77570367311B0CCA706DB2D5A5BAF24B70A82E8295311A4C8379125218CA930DDA91046E403075E8C0AF2C225CDE6CA00150655CBF11E8F0F4733153CDF03AD44F078F1806D3A1AAC879004351B8755C1B6A1DFD066350318994C329EB090A8F8A7603E58C5E1B10021985FA62AD619C258787527A635C0981
310
8BE39DB833154F957F1F1E13E840AC1CEC2AF774C14559568B4E180EA4F23D01848F6E48DE6FBA5607E10C3EAEF3AC34E6B070B04681A05F0814C6C1D4EF49C1BB07E2396F976BC93D35483A4DE6CFC64121D5CC30DBC9F17A05EFD9E2C11693F1E5579486F94EB8F35CBDAF4932459F11E6C510CA83C05066A658DCC3E71F
310
EC0796C02BA608DD510802F4FB7E3CFAC39E275194C4C5923D532FAAD0EA115E3B6D6C3DF283C6C5813E46F63D6AAC0F732B4E2CBCE14FB000AE6554CC460B886B0150D2532500B447842FE0B1DAFEE502A922506961AB1423E091337D048924DEE588B4A96EA80C202117402BF9E5E1835EF06C0643F0E9BF504B03041400
310
060808004C7E6D5711F61C653E01000046050000300000006662782F36424633464533422D324535422D343339392D423546352D3230363736423945353537342F636E782E786D6CCD94C16AC3300C865F25F81E2769298CE2B8B0C39E6087B19BE3A89957C70AB632D6B79FDDB9DDC6E8D8A1D0DE8CFC0BFE4FFA91D8BC8F
310
B678031F0CBA9635BC6605388DBD7143CB66DA9677ACD848E111E99B8C154E8DD0B25466520C1EE729977AD8AAD9A6AA356E978B8AC89B6E2608ACD05685D0B2A05F60545CCD843D841DEF1529DE700F0167AF21F6931921F76B0F8AA06772512F9665D394CDF2B159AD57F57AB17A1655524AD121DAAC378EC0E354688C0F
310
17CDD4A24ADF52CCDE644D2260F2CB19EF8C1355FC972244B76EC83ADA4F49374DD66845714C156A022AA308D428AA4FB11455E2FD41FD70FF747450F4C68326F4FB2B0DA039378093311E93F03FFE83F06F6CEC5E23EEB5B67D1636DBBA18EA31AD21C6F5F7FE638A941BECED85FE64ECF2998FA7848CBE3DE4A3AF0B1157
310
879317979E2EA0FC00504B03041400060808004C7E6D577C7E58C67E000000A30000000B0000006662782F636E782E786D6C4D8CD10A832018465F45FE7BB7966913D240D0F7886521330D97638F3F1D5DECEA83C377CE307E368FDE36BD5C0C026E9706900D8F38BBB00AC8C782EF804639A4188FBF1BA0306D5640C52087
310
35C5BC9F68B6CB947DA5DE85E7099932C468A270ABA9C21DE11C2B6A286E1BD633C535A57D578C6B55CAFC7A656B5E7E01504B03041400060808004C7E6D57A6D797065F0000008200000007000000636E782E786D6C4DCB3B0E80201045D1AD90E9FD7516806B51190811670C8A61F982B1B0BAC9C97B72CA7B1037C6D333
310
2918DA1E04D2CAC69353902EDB8C20262D23F3F59B81A079470595414B17391D1F19B4730A5583A7ED43BBE4025D9592775E5ADFFA01504B03041400060808004C7E6D574FEB6A7CA0000000F4000000130000005B436F6E74656E745F54797065735D2E786D6C7D8F4B0EC2300C44AF1279DFA6B0400835ED02B8011730C1
310
6D239A8F121795DB93D02D6269CFBC19BBED573B8B17C564BC53B0AB1B10E4B47F18372A5878A88E20FAAEBDBD032591BD2E299898C349CAA427B2986A1FC86565F0D122E7318E32A07EE24872DF3407A9BD63725C71C980AEBDD080CBCCE2BAE6F5D69B7110E7CD57AA146008B3D1C8F92C5954F993BB1BF787F39A89ABC4
310
91D09600F9FDA2FB00504B03041400060808004C7E6D573DEE336E64000000790000001B0000006175746F6465736B2D64657369676E2D7061636B6167652E786D6C35CBC10E83200C00D05F21DCA56CA76D41FC96062B120735B69A7DBE268BB7777961F8D5AF396893C2ADB70FE7ADA196782C2DF776D7A97B5933C430F1
310
5651E5469C55D70F80A4992A3ADC954792C525AE70A1E4D6AD9816CC044FEFDF01FE3FDE907802504B03041400060808004C7E6D577E01E356F9000000960100003B0000006662782F36424633464533422D324535422D343339392D423546352D3230363736423945353537342F7265736F75726365732F636F72652E786D
310
6C8550CB6EC32010FC158B3BB6C176E54498C869E22FE8A937041B1725068B47D5CF2FC4AED49E7A61D1ECECECCEB0D3D7F2283EC1796DCD804859A3028CB44A9B794031DC708F8A1367CEDAF08B860A23161850861167B3B371DD21694D0093516315ECA0F01E022AE4237D06E4E5072CA214312486BF97AB9077314349CA
310
8DC7598C5AEDA35A25357DD3E0102723ED0E977EC2177ABEE2F65ABFE27E6A0FE9394FE348EAE9A53DB02A0F7316F4F2B35D3A100114E2B4A60D260493E68D74C7AE3ED2EE9D5599C9990F2E79DE976677883BF0363A099E555BF78F6A5CD5FFAA519BD0D05D759BF0C9473AF2D9E0ACCA29A5F28C30D59C28FF06504B0304
310
1400060808004C7E6D578AA34D13F1000000B1010000310000006662782F36424633464533422D324535422D343339392D423546352D3230363736423945353537342F636F72652E786D6C8D504B6EC32014BC8AC51EDB4070EA0813C9927D82AEBA43405C94182C3E558F5F885DA9DD65F5D0BC1966DEB0EBF7FAA8BEB40F
310
C6D901A0BA0595B6D229639701A478836FA0BA72E69D8B7F68A0B262D5032830E06CF12E6D07249D8DDA16D43AA50F5084A023A8E4233F0610E4A75E452D52CC8C70AF3721EF62D135AA771E67D1ACBF52E9B5885A018E5B4C2042109177442FB4BD60FAC19AC2E42C25A30E2BA3B2BBB919ED01EFC699CC1319219EE8084F
310
A4EFE148670A71DB9DBBB19F283D9F5853C49C85E8F3CDC727E5BA57E5BBF05FE6B4A917321B1B093E0C7745001CE53CCF05674D29308F67BB7996B2F90F504B03041400060808004C7E6D573B40028F54010000DD0200000C0000006662782F636F72652E786D6C8D52CB6E833010FC15E43B0F13A892C8384A9AF0053DF5
310
E618875A011B191BE5F3BBE6A19443D30AC958B33BB33B2393C3A36D8241985E6A55201C2528108AEB4AAABA40CEDEC22D0A0E9418ADED8F361428D68A02791851521BEDBA19E25A59A13CAA74256690F5BDB028E00D5C0AD4F32FD1B288390B1DFD3DEA18BFB35A44389AFA28714E56335556A0266F521844F131CD77E76D
310
199ED3D325CC2EC97BB82DB31D1CA7F278C449F996ED48ECC99458D92ED3B911CC8A0AD134493721C621DE7CE07C9F27FB34FF24B1EFA4A4B7063CCF43BD3B446FD70789277CA5E7BAEA6F3D2795DDA4B3DEC4E8C101AC371628897D3EF01BC35B670883213FCBAECD62E10ED020B8D526834AA5DDB334B0C609904E82F123
310
F15405E551E0379DF485CE6B0D088AA91A566316AE5767FDF4F54E9D30E1601F81D2A665CD73B969C5E7F91CB4B2B4D0B96EB4F90F7BB1BA8419FB8749BF01504B03041400060808004C7E6D57E9B9A8A308010000B201000008000000636F72652E786D6C8D50CB6EC32010FC15C4DD3660BBB2234CE434F117F4D41B35C4
310
41B1C1E211B57F5F885DA9BDF5C2A299D99DD9A5C7CF65060F699D32BA83384710483D1AA1F4D4C1E0AF5903C191516B8CFF258340F3457630C190D1C99AB0EED068B4973AA1DA08B983DC39E92118E7F8E9A01B6F72E1390F3E2ADC3D5FF978E793CC71BEE918F56AF9691DADE45E0AC8082265867186CB375C1F6A7420F5
310
3B2D9292D11094D8AD9488EEEAAAA4850CF7A46ECFCD909DC9E9925517F49A3543D5C6E734F43D46C34BD5D2223533EABC8D3BEF43624E0F1C7F245F5A6C14A31FC6CCBB208612C0E8F90B32448B44FC091D56F18FD04AFB92EC03B70E1733C7404F221AA70BC6F23C6FACE9DAEC1B504B010214001400060808004C7E6D57
310
0000000000000000000000003700000000000000000000000000000000006662782F36424633464533422D324535422D343339392D423546352D3230363736423945353537342F617474726962757465732E62696E504B010214001400060808004C7E6D570000000000000000000000003500000000000000000000000000
310
550000006662782F36424633464533422D324535422D343339392D423546352D3230363736423945353537342F76657274696365732E62696E504B010214001400060808004C7E6D57F270F13306000000040000003600000000000000000000000000A80000006662782F36424633464533422D324535422D343339392D42
310
3546352D3230363736423945353537342F747269616E676C65732E62696E504B010214001400060808004C7E6D5751464CB489000000430100003600000000000000000000000000020100006662782F36424633464533422D324535422D343339392D423546352D3230363736423945353537342F6469726563746F72792E
310
786D6C504B010214001400060808004C7E6D57DF63FFCE36070000201C00003400000000000000000000000000DF0100006662782F36424633464533422D324535422D343339392D423546352D3230363736423945353537342F6F626A656374732E786D6C504B010214001400060808004C7E6D5711F61C653E0100004605
310
00003000000000000000000000000000670900006662782F36424633464533422D324535422D343339392D423546352D3230363736423945353537342F636E782E786D6C504B010214001400060808004C7E6D577C7E58C67E000000A30000000B00000000000000000000000000F30A00006662782F636E782E786D6C504B
310
010214001400060808004C7E6D57A6D797065F0000008200000007000000000000000000000000009A0B0000636E782E786D6C504B010214001400060808004C7E6D574FEB6A7CA0000000F400000013000000000000000000000000001E0C00005B436F6E74656E745F54797065735D2E786D6C504B010214001400060808
310
004C7E6D573DEE336E64000000790000001B00000000000000000000000000EF0C00006175746F6465736B2D64657369676E2D7061636B6167652E786D6C504B010214001400060808004C7E6D577E01E356F9000000960100003B000000000000000000000000008C0D00006662782F36424633464533422D324535422D34
310
3339392D423546352D3230363736423945353537342F7265736F75726365732F636F72652E786D6C504B010214001400060808004C7E6D578AA34D13F1000000B10100003100000000000000000000000000DE0E00006662782F36424633464533422D324535422D343339392D423546352D3230363736423945353537342F
310
636F72652E786D6C504B010214001400060808004C7E6D573B40028F54010000DD0200000C000000000000000000000000001E1000006662782F636F72652E786D6C504B010214001400060808004C7E6D57E9B9A8A308010000B201000008000000000000000000000000009C110000636F72652E786D6C504B0506000000
310
000E000E0080040000CA1200000000
  0
XRECORD
  5
815B
102
{ACAD_REACTORS
330
8156
102
}
330
8156
100
AcDbXrecord
280
     1
270
     1
271
     1
  0
XRECORD
  5
815A
102
{ACAD_REACTORS
330
8156
102
}
330
8156
100
AcDbXrecord
280
     1
270
     1
271
     1
  0
XRECORD
  5
815C
102
{ACAD_REACTORS
330
8156
102
}
330
8156
100
AcDbXrecord
280
     1
270
     1
271
     1
  0
XRECORD
  5
8159
102
{ACAD_REACTORS
330
8156
102
}
330
8156
100
AcDbXrecord
280
     1
270
     1
271
     1
  0
XRECORD
  5
84D2
102
{ACAD_REACTORS
330
84D1
102
}
330
84D1
100
AcDbXrecord
280
     1
102
DISPLAYNAME
  1
Imperial24
102
FLAGS
 90
        0
  0
CELLSTYLEMAP
  5
8499
102
{ACAD_REACTORS
330
8498
102
}
330
8498
100
AcDbCellStyleMap
 90
        3
300
CELLSTYLE
  1
TABLEFORMAT_BEGIN
 90
        5
170
     1
 91
        0
 92
    32768
 62
   257
 93
        1
300
CONTENTFORMAT
  1
CONTENTFORMAT_BEGIN
 90
        0
 91
        0
 92
      512
 93
        0
300

 40
0.0
140
1.0
 94
        5
 62
     0
340
8189
144
0.25
309
CONTENTFORMAT_END
171
     0
 94
        0
309
TABLEFORMAT_END
  1
CELLSTYLE_BEGIN
 90
        1
 91
        1
300
_TITLE
309
CELLSTYLE_END
300
CELLSTYLE
  1
TABLEFORMAT_BEGIN
 90
        5
170
     1
 91
        0
 92
        0
 62
   257
 93
        1
300
CONTENTFORMAT
  1
CONTENTFORMAT_BEGIN
 90
        0
 91
        0
 92
      512
 93
        0
300

 40
0.0
140
1.0
 94
        5
 62
     0
340
8189
144
0.18
309
CONTENTFORMAT_END
171
     0
 94
        0
309
TABLEFORMAT_END
  1
CELLSTYLE_BEGIN
 90
        2
 91
        1
300
_HEADER
309
CELLSTYLE_END
300
CELLSTYLE
  1
TABLEFORMAT_BEGIN
 90
        5
170
     1
 91
        0
 92
        0
 62
   257
 93
        1
300
CONTENTFORMAT
  1
CONTENTFORMAT_BEGIN
 90
        0
 91
        0
 92
      512
 93
        0
300

 40
0.0
140
1.0
 94
        2
 62
     0
340
8189
144
0.18
309
CONTENTFORMAT_END
171
     0
 94
        0
309
TABLEFORMAT_END
  1
CELLSTYLE_BEGIN
 90
        3
 91
        2
300
_DATA
309
CELLSTYLE_END
  0
XRECORD
  5
84CF
102
{ACAD_REACTORS
330
8498
102
}
330
8498
100
AcDbXrecord
280
     1
102
ACAD_ROUNDTRIP_PRE2007_TABLESTYLE
 90
      512
 91
        0
  1

 92
      512
 93
        0
  2

 94
      512
 95
        0
  3

  0
XRECORD
  5
84AA
102
{ACAD_REACTORS
330
84A9
102
}
330
84A9
100
AcDbXrecord
280
     1
102
RTVSPost2010Prop28
280
     1
102
RTVSPost2010PropOp28
 70
     1
102
RTVSPost2010Prop29
280
     1
102
RTVSPost2010PropOp29
 70
     1
102
RTVSPost2010Prop30
280
     0
102
RTVSPost2010PropOp30
 70
     1
102
RTVSPost2010Prop31
280
     0
102
RTVSPost2010PropOp31
 70
     1
102
RTVSPost2010Prop32
280
     0
102
RTVSPost2010PropOp32
 70
     1
102
RTVSPost2010Prop33
280
     0
102
RTVSPost2010PropOp33
 70
     1
102
RTVSPost2010Prop34
280
     0
102
RTVSPost2010PropOp34
 70
     1
102
RTVSPost2010Prop35
280
     0
102
RTVSPost2010PropOp35
 70
     1
102
RTVSPost2010Prop36
280
     0
102
RTVSPost2010PropOp36
 70
     1
102
RTVSPost2010Prop37
 90
       50
102
RTVSPost2010PropOp37
 70
     1
102
RTVSPost2010Prop38
140
0.0
102
RTVSPost2010PropOp38
 70
     1
102
RTVSPost2010Prop39
140
1.0
102
RTVSPost2010PropOp39
 70
     1
102
RTVSPost2010Prop40
 90
        0
102
RTVSPost2010PropOp40
 70
     1
102
RTVSPost2010Prop41ColorIndex
 90
       18
102
RTVSPost2010Prop41ColorRGB
 90
        0
102
RTVSPost2010PropOp41
 70
     1
102
RTVSPost2010Prop42
 90
       50
102
RTVSPost2010PropOp42
 70
     1
102
RTVSPost2010Prop43
 90
        3
102
RTVSPost2010PropOp43
 70
     1
102
RTVSPost2010Prop44ColorIndex
 90
        5
102
RTVSPost2010Prop44ColorRGB
 90
      255
102
RTVSPost2010PropOp44
 70
     1
102
RTVSPost2010Prop45
280
     0
102
RTVSPost2010PropOp45
 70
     1
102
RTVSPost2010Prop46
 90
       50
102
RTVSPost2010PropOp46
 70
     1
102
RTVSPost2010Prop47
 90
       50
102
RTVSPost2010PropOp47
 70
     1
102
RTVSPost2010Prop48
 90
       50
102
RTVSPost2010PropOp48
 70
     1
102
RTVSPost2010Prop49
280
     0
102
RTVSPost2010PropOp49
 70
     1
102
RTVSPost2010Prop50
 90
       50
102
RTVSPost2010PropOp50
 70
     1
102
RTVSPost2010Prop51ColorIndex
 90
      256
102
RTVSPost2010Prop51ColorRGB
 90
-16777216
102
RTVSPost2010PropOp51
 70
     0
102
RTVSPost2010Prop52
140
1.0
102
RTVSPost2010PropOp52
 70
     0
102
RTVSPost2010Prop53
 90
        2
102
RTVSPost2010PropOp53
 70
     1
102
RTVSPost2010Prop54
  1
strokes_ogs.tif
102
RTVSPost2010PropOp54
 70
     1
102
RTVSPost2010Prop55
280
     0
102
RTVSPost2010PropOp55
 70
     1
102
RTVSPost2010Prop56
140
1.0
102
RTVSPost2010PropOp56
 70
     1
102
RTVSPost2010Prop57
140
1.0
102
RTVSPost2010PropOp57
 70
     1
102
RTVSPropertyOp0
 70
     1
102
RTVSPropertyOp1
 70
     1
102
RTVSPropertyOp2
 70
     1
102
RTVSPropertyOp3
 70
     1
102
RTVSPropertyOp4
 70
     1
102
RTVSPropertyOp5
 70
     1
102
RTVSPropertyOp6
 70
     1
102
RTVSPropertyOp7
 70
     1
102
RTVSPropertyOp8
 70
     1
102
RTVSPropertyOp9
 70
     1
102
RTVSPropertyOp10
 70
     1
102
RTVSPropertyOp11
 70
     1
102
RTVSPropertyOp12
 70
     1
102
RTVSPropertyOp13
 70
     1
102
RTVSPropertyOp14
 70
     1
102
RTVSPropertyOp15
 70
     1
102
RTVSPropertyOp16
 70
     1
102
RTVSPropertyOp17
 70
     1
102
RTVSPropertyOp18
 70
     1
102
RTVSPropertyOp19
 70
     1
102
RTVSPropertyOp20
 70
     1
102
RTVSPropertyOp21
 70
     1
102
RTVSPropertyOp22
 70
     1
102
RTVSPropertyOp23
 70
     1
102
RTVSPropertyOp24
 70
     1
102
RTVSPropertyOp25
 70
     1
102
RTVSPropertyOp26
 70
     1
102
RTVSPropertyOp27
 70
     1
102
RTVSPropertyOp28
 70
     1
102
RTVSPropertyOp29
 70
     1
102
RTVSPropertyOp30
 70
     1
102
RTVSPropertyOp31
 70
     1
102
RTVSPropertyOp32
 70
     1
102
RTVSPropertyOp33
 70
     1
102
RTVSPropertyOp34
 70
     1
102
RTVSPropertyOp35
 70
     1
102
RTVSPropertyOp36
 70
     1
102
RTVSPropertyOp37
 70
     1
102
RTVSPropertyOp38
 70
     1
102
RTVSPropertyOp39
 70
     1
102
RTVSPropertyOp40
 70
     1
102
RTVSPropertyOp41
 70
     1
102
RTVSPropertyOp42
 70
     1
102
RTVSPropertyOp43
 70
     1
102
RTVSPropertyOp44
 70
     1
102
RTVSPropertyOp45
 70
     1
102
RTVSPropertyOp46
 70
     1
102
RTVSPropertyOp47
 70
     1
102
RTVSPropertyOp48
 70
     1
102
RTVSPropertyOp49
 70
     1
102
RTVSPropertyOp50
 70
     1
102
RTVSPropertyOp51
 70
     0
102
RTVSPropertyOp52
 70
     0
102
RTVSPropertyOp53
 70
     1
102
RTVSPropertyOp54
 70
     1
102
RTVSPropertyOp55
 70
     1
102
RTVSPropertyOp56
 70
     1
102
RTVSPropertyOp57
 70
     1
102
RTVSPropertyOp58
 70
     1
102
RTVSPropertyOp59
 70
     1
102
RTVSPropertyOp60
 70
     1
102
RTVSPropertyOp61
 70
     1
102
RTVSPropertyOp62
 70
     1
  0
XRECORD
  5
84A8
102
{ACAD_REACTORS
330
84A7
102
}
330
84A7
100
AcDbXrecord
280
     1
102
RTVSPost2010Prop28
280
     0
102
RTVSPost2010PropOp28
 70
     1
102
RTVSPost2010Prop29
280
     1
102
RTVSPost2010PropOp29
 70
     1
102
RTVSPost2010Prop30
280
     1
102
RTVSPost2010PropOp30
 70
     1
102
RTVSPost2010Prop31
280
     0
102
RTVSPost2010PropOp31
 70
     1
102
RTVSPost2010Prop32
280
     0
102
RTVSPost2010PropOp32
 70
     1
102
RTVSPost2010Prop33
280
     0
102
RTVSPost2010PropOp33
 70
     1
102
RTVSPost2010Prop34
280
     0
102
RTVSPost2010PropOp34
 70
     1
102
RTVSPost2010Prop35
280
     0
102
RTVSPost2010PropOp35
 70
     1
102
RTVSPost2010Prop36
280
     0
102
RTVSPost2010PropOp36
 70
     1
102
RTVSPost2010Prop37
 90
       50
102
RTVSPost2010PropOp37
 70
     1
102
RTVSPost2010Prop38
140
0.0
102
RTVSPost2010PropOp38
 70
     1
102
RTVSPost2010Prop39
140
1.0
102
RTVSPost2010PropOp39
 70
     1
102
RTVSPost2010Prop40
 90
        0
102
RTVSPost2010PropOp40
 70
     1
102
RTVSPost2010Prop41ColorIndex
 90
       18
102
RTVSPost2010Prop41ColorRGB
 90
        0
102
RTVSPost2010PropOp41
 70
     1
102
RTVSPost2010Prop42
 90
       50
102
RTVSPost2010PropOp42
 70
     1
102
RTVSPost2010Prop43
 90
        3
102
RTVSPost2010PropOp43
 70
     1
102
RTVSPost2010Prop44ColorIndex
 90
        5
102
RTVSPost2010Prop44ColorRGB
 90
      255
102
RTVSPost2010PropOp44
 70
     1
102
RTVSPost2010Prop45
280
     0
102
RTVSPost2010PropOp45
 70
     1
102
RTVSPost2010Prop46
 90
       50
102
RTVSPost2010PropOp46
 70
     1
102
RTVSPost2010Prop47
 90
       50
102
RTVSPost2010PropOp47
 70
     1
102
RTVSPost2010Prop48
 90
       50
102
RTVSPost2010PropOp48
 70
     1
102
RTVSPost2010Prop49
280
     0
102
RTVSPost2010PropOp49
 70
     1
102
RTVSPost2010Prop50
 90
       50
102
RTVSPost2010PropOp50
 70
     1
102
RTVSPost2010Prop51ColorIndex
 90
      256
102
RTVSPost2010Prop51ColorRGB
 90
-16777216
102
RTVSPost2010PropOp51
 70
     0
102
RTVSPost2010Prop52
140
1.0
102
RTVSPost2010PropOp52
 70
     0
102
RTVSPost2010Prop53
 90
        2
102
RTVSPost2010PropOp53
 70
     1
102
RTVSPost2010Prop54
  1
strokes_ogs.tif
102
RTVSPost2010PropOp54
 70
     1
102
RTVSPost2010Prop55
280
     0
102
RTVSPost2010PropOp55
 70
     1
102
RTVSPost2010Prop56
140
1.0
102
RTVSPost2010PropOp56
 70
     1
102
RTVSPost2010Prop57
140
1.0
102
RTVSPost2010PropOp57
 70
     1
102
RTVSPropertyOp0
 70
     1
102
RTVSPropertyOp1
 70
     1
102
RTVSPropertyOp2
 70
     1
102
RTVSPropertyOp3
 70
     1
102
RTVSPropertyOp4
 70
     1
102
RTVSPropertyOp5
 70
     1
102
RTVSPropertyOp6
 70
     1
102
RTVSPropertyOp7
 70
     1
102
RTVSPropertyOp8
 70
     1
102
RTVSPropertyOp9
 70
     1
102
RTVSPropertyOp10
 70
     1
102
RTVSPropertyOp11
 70
     1
102
RTVSPropertyOp12
 70
     1
102
RTVSPropertyOp13
 70
     1
102
RTVSPropertyOp14
 70
     1
102
RTVSPropertyOp15
 70
     1
102
RTVSPropertyOp16
 70
     1
102
RTVSPropertyOp17
 70
     1
102
RTVSPropertyOp18
 70
     1
102
RTVSPropertyOp19
 70
     1
102
RTVSPropertyOp20
 70
     1
102
RTVSPropertyOp21
 70
     1
102
RTVSPropertyOp22
 70
     1
102
RTVSPropertyOp23
 70
     1
102
RTVSPropertyOp24
 70
     1
102
RTVSPropertyOp25
 70
     1
102
RTVSPropertyOp26
 70
     1
102
RTVSPropertyOp27
 70
     1
102
RTVSPropertyOp28
 70
     1
102
RTVSPropertyOp29
 70
     1
102
RTVSPropertyOp30
 70
     1
102
RTVSPropertyOp31
 70
     1
102
RTVSPropertyOp32
 70
     1
102
RTVSPropertyOp33
 70
     1
102
RTVSPropertyOp34
 70
     1
102
RTVSPropertyOp35
 70
     1
102
RTVSPropertyOp36
 70
     1
102
RTVSPropertyOp37
 70
     1
102
RTVSPropertyOp38
 70
     1
102
RTVSPropertyOp39
 70
     1
102
RTVSPropertyOp40
 70
     1
102
RTVSPropertyOp41
 70
     1
102
RTVSPropertyOp42
 70
     1
102
RTVSPropertyOp43
 70
     1
102
RTVSPropertyOp44
 70
     1
102
RTVSPropertyOp45
 70
     1
102
RTVSPropertyOp46
 70
     1
102
RTVSPropertyOp47
 70
     1
102
RTVSPropertyOp48
 70
     1
102
RTVSPropertyOp49
 70
     1
102
RTVSPropertyOp50
 70
     1
102
RTVSPropertyOp51
 70
     0
102
RTVSPropertyOp52
 70
     0
102
RTVSPropertyOp53
 70
     1
102
RTVSPropertyOp54
 70
     1
102
RTVSPropertyOp55
 70
     1
102
RTVSPropertyOp56
 70
     1
102
RTVSPropertyOp57
 70
     1
102
RTVSPropertyOp58
 70
     1
102
RTVSPropertyOp59
 70
     1
102
RTVSPropertyOp60
 70
     1
102
RTVSPropertyOp61
 70
     1
102
RTVSPropertyOp62
 70
     1
  0
XRECORD
  5
84B6
102
{ACAD_REACTORS
330
84B5
102
}
330
84B5
100
AcDbXrecord
280
     1
102
RTVSPost2010Prop28
280
     0
102
RTVSPost2010PropOp28
 70
     1
102
RTVSPost2010Prop29
280
     1
102
RTVSPost2010PropOp29
 70
     1
102
RTVSPost2010Prop30
280
     1
102
RTVSPost2010PropOp30
 70
     1
102
RTVSPost2010Prop31
280
     0
102
RTVSPost2010PropOp31
 70
     1
102
RTVSPost2010Prop32
280
     0
102
RTVSPost2010PropOp32
 70
     1
102
RTVSPost2010Prop33
280
     0
102
RTVSPost2010PropOp33
 70
     1
102
RTVSPost2010Prop34
280
     0
102
RTVSPost2010PropOp34
 70
     1
102
RTVSPost2010Prop35
280
     0
102
RTVSPost2010PropOp35
 70
     1
102
RTVSPost2010Prop36
280
     0
102
RTVSPost2010PropOp36
 70
     1
102
RTVSPost2010Prop37
 90
       50
102
RTVSPost2010PropOp37
 70
     1
102
RTVSPost2010Prop38
140
0.0
102
RTVSPost2010PropOp38
 70
     1
102
RTVSPost2010Prop39
140
1.0
102
RTVSPost2010PropOp39
 70
     1
102
RTVSPost2010Prop40
 90
        0
102
RTVSPost2010PropOp40
 70
     1
102
RTVSPost2010Prop41ColorIndex
 90
       18
102
RTVSPost2010Prop41ColorRGB
 90
        0
102
RTVSPost2010PropOp41
 70
     1
102
RTVSPost2010Prop42
 90
       50
102
RTVSPost2010PropOp42
 70
     1
102
RTVSPost2010Prop43
 90
        3
102
RTVSPost2010PropOp43
 70
     1
102
RTVSPost2010Prop44ColorIndex
 90
        5
102
RTVSPost2010Prop44ColorRGB
 90
      255
102
RTVSPost2010PropOp44
 70
     1
102
RTVSPost2010Prop45
280
     0
102
RTVSPost2010PropOp45
 70
     1
102
RTVSPost2010Prop46
 90
       50
102
RTVSPost2010PropOp46
 70
     1
102
RTVSPost2010Prop47
 90
       50
102
RTVSPost2010PropOp47
 70
     1
102
RTVSPost2010Prop48
 90
       50
102
RTVSPost2010PropOp48
 70
     1
102
RTVSPost2010Prop49
280
     0
102
RTVSPost2010PropOp49
 70
     1
102
RTVSPost2010Prop50
 90
       50
102
RTVSPost2010PropOp50
 70
     1
102
RTVSPost2010Prop51ColorIndex
 90
      256
102
RTVSPost2010Prop51ColorRGB
 90
-16777216
102
RTVSPost2010PropOp51
 70
     0
102
RTVSPost2010Prop52
140
1.0
102
RTVSPost2010PropOp52
 70
     0
102
RTVSPost2010Prop53
 90
        2
102
RTVSPost2010PropOp53
 70
     1
102
RTVSPost2010Prop54
  1
strokes_ogs.tif
102
RTVSPost2010PropOp54
 70
     1
102
RTVSPost2010Prop55
280
     0
102
RTVSPost2010PropOp55
 70
     1
102
RTVSPost2010Prop56
140
1.0
102
RTVSPost2010PropOp56
 70
     1
102
RTVSPost2010Prop57
140
1.0
102
RTVSPost2010PropOp57
 70
     1
102
RTVSPropertyOp0
 70
     1
102
RTVSPropertyOp1
 70
     1
102
RTVSPropertyOp2
 70
     1
102
RTVSPropertyOp3
 70
     1
102
RTVSPropertyOp4
 70
     1
102
RTVSPropertyOp5
 70
     1
102
RTVSPropertyOp6
 70
     1
102
RTVSPropertyOp7
 70
     1
102
RTVSPropertyOp8
 70
     1
102
RTVSPropertyOp9
 70
     1
102
RTVSPropertyOp10
 70
     1
102
RTVSPropertyOp11
 70
     1
102
RTVSPropertyOp12
 70
     1
102
RTVSPropertyOp13
 70
     1
102
RTVSPropertyOp14
 70
     1
102
RTVSPropertyOp15
 70
     1
102
RTVSPropertyOp16
 70
     1
102
RTVSPropertyOp17
 70
     1
102
RTVSPropertyOp18
 70
     1
102
RTVSPropertyOp19
 70
     1
102
RTVSPropertyOp20
 70
     1
102
RTVSPropertyOp21
 70
     1
102
RTVSPropertyOp22
 70
     1
102
RTVSPropertyOp23
 70
     1
102
RTVSPropertyOp24
 70
     1
102
RTVSPropertyOp25
 70
     1
102
RTVSPropertyOp26
 70
     1
102
RTVSPropertyOp27
 70
     1
102
RTVSPropertyOp28
 70
     1
102
RTVSPropertyOp29
 70
     1
102
RTVSPropertyOp30
 70
     1
102
RTVSPropertyOp31
 70
     1
102
RTVSPropertyOp32
 70
     1
102
RTVSPropertyOp33
 70
     1
102
RTVSPropertyOp34
 70
     1
102
RTVSPropertyOp35
 70
     1
102
RTVSPropertyOp36
 70
     1
102
RTVSPropertyOp37
 70
     1
102
RTVSPropertyOp38
 70
     1
102
RTVSPropertyOp39
 70
     1
102
RTVSPropertyOp40
 70
     1
102
RTVSPropertyOp41
 70
     1
102
RTVSPropertyOp42
 70
     1
102
RTVSPropertyOp43
 70
     1
102
RTVSPropertyOp44
 70
     1
102
RTVSPropertyOp45
 70
     1
102
RTVSPropertyOp46
 70
     1
102
RTVSPropertyOp47
 70
     1
102
RTVSPropertyOp48
 70
     1
102
RTVSPropertyOp49
 70
     1
102
RTVSPropertyOp50
 70
     1
102
RTVSPropertyOp51
 70
     0
102
RTVSPropertyOp52
 70
     0
102
RTVSPropertyOp53
 70
     1
102
RTVSPropertyOp54
 70
     1
102
RTVSPropertyOp55
 70
     1
102
RTVSPropertyOp56
 70
     1
102
RTVSPropertyOp57
 70
     1
102
RTVSPropertyOp58
 70
     1
102
RTVSPropertyOp59
 70
     1
102
RTVSPropertyOp60
 70
     1
102
RTVSPropertyOp61
 70
     1
102
RTVSPropertyOp62
 70
     1
  0
XRECORD
  5
84BE
102
{ACAD_REACTORS
330
84BD
102
}
330
84BD
100
AcDbXrecord
280
     1
102
RTVSPost2010Prop28
280
     0
102
RTVSPost2010PropOp28
 70
     1
102
RTVSPost2010Prop29
280
     1
102
RTVSPost2010PropOp29
 70
     1
102
RTVSPost2010Prop30
280
     1
102
RTVSPost2010PropOp30
 70
     1
102
RTVSPost2010Prop31
280
     0
102
RTVSPost2010PropOp31
 70
     1
102
RTVSPost2010Prop32
280
     0
102
RTVSPost2010PropOp32
 70
     1
102
RTVSPost2010Prop33
280
     0
102
RTVSPost2010PropOp33
 70
     1
102
RTVSPost2010Prop34
280
     0
102
RTVSPost2010PropOp34
 70
     1
102
RTVSPost2010Prop35
280
     0
102
RTVSPost2010PropOp35
 70
     1
102
RTVSPost2010Prop36
280
     0
102
RTVSPost2010PropOp36
 70
     1
102
RTVSPost2010Prop37
 90
       50
102
RTVSPost2010PropOp37
 70
     1
102
RTVSPost2010Prop38
140
0.0
102
RTVSPost2010PropOp38
 70
     1
102
RTVSPost2010Prop39
140
1.0
102
RTVSPost2010PropOp39
 70
     1
102
RTVSPost2010Prop40
 90
        0
102
RTVSPost2010PropOp40
 70
     1
102
RTVSPost2010Prop41ColorIndex
 90
       18
102
RTVSPost2010Prop41ColorRGB
 90
        0
102
RTVSPost2010PropOp41
 70
     1
102
RTVSPost2010Prop42
 90
       50
102
RTVSPost2010PropOp42
 70
     1
102
RTVSPost2010Prop43
 90
        3
102
RTVSPost2010PropOp43
 70
     1
102
RTVSPost2010Prop44ColorIndex
 90
        5
102
RTVSPost2010Prop44ColorRGB
 90
      255
102
RTVSPost2010PropOp44
 70
     1
102
RTVSPost2010Prop45
280
     0
102
RTVSPost2010PropOp45
 70
     1
102
RTVSPost2010Prop46
 90
       50
102
RTVSPost2010PropOp46
 70
     1
102
RTVSPost2010Prop47
 90
       50
102
RTVSPost2010PropOp47
 70
     1
102
RTVSPost2010Prop48
 90
       50
102
RTVSPost2010PropOp48
 70
     1
102
RTVSPost2010Prop49
280
     0
102
RTVSPost2010PropOp49
 70
     1
102
RTVSPost2010Prop50
 90
       50
102
RTVSPost2010PropOp50
 70
     1
102
RTVSPost2010Prop51ColorIndex
 90
      256
102
RTVSPost2010Prop51ColorRGB
 90
-16777216
102
RTVSPost2010PropOp51
 70
     0
102
RTVSPost2010Prop52
140
1.0
102
RTVSPost2010PropOp52
 70
     0
102
RTVSPost2010Prop53
 90
        2
102
RTVSPost2010PropOp53
 70
     1
102
RTVSPost2010Prop54
  1
strokes_ogs.tif
102
RTVSPost2010PropOp54
 70
     1
102
RTVSPost2010Prop55
280
     0
102
RTVSPost2010PropOp55
 70
     1
102
RTVSPost2010Prop56
140
1.0
102
RTVSPost2010PropOp56
 70
     1
102
RTVSPost2010Prop57
140
1.0
102
RTVSPost2010PropOp57
 70
     1
102
RTVSPropertyOp0
 70
     1
102
RTVSPropertyOp1
 70
     1
102
RTVSPropertyOp2
 70
     1
102
RTVSPropertyOp3
 70
     1
102
RTVSPropertyOp4
 70
     1
102
RTVSPropertyOp5
 70
     1
102
RTVSPropertyOp6
 70
     1
102
RTVSPropertyOp7
 70
     1
102
RTVSPropertyOp8
 70
     1
102
RTVSPropertyOp9
 70
     1
102
RTVSPropertyOp10
 70
     1
102
RTVSPropertyOp11
 70
     1
102
RTVSPropertyOp12
 70
     1
102
RTVSPropertyOp13
 70
     1
102
RTVSPropertyOp14
 70
     1
102
RTVSPropertyOp15
 70
     1
102
RTVSPropertyOp16
 70
     1
102
RTVSPropertyOp17
 70
     1
102
RTVSPropertyOp18
 70
     1
102
RTVSPropertyOp19
 70
     1
102
RTVSPropertyOp20
 70
     1
102
RTVSPropertyOp21
 70
     1
102
RTVSPropertyOp22
 70
     1
102
RTVSPropertyOp23
 70
     1
102
RTVSPropertyOp24
 70
     1
102
RTVSPropertyOp25
 70
     1
102
RTVSPropertyOp26
 70
     1
102
RTVSPropertyOp27
 70
     1
102
RTVSPropertyOp28
 70
     1
102
RTVSPropertyOp29
 70
     1
102
RTVSPropertyOp30
 70
     1
102
RTVSPropertyOp31
 70
     1
102
RTVSPropertyOp32
 70
     1
102
RTVSPropertyOp33
 70
     1
102
RTVSPropertyOp34
 70
     1
102
RTVSPropertyOp35
 70
     1
102
RTVSPropertyOp36
 70
     1
102
RTVSPropertyOp37
 70
     1
102
RTVSPropertyOp38
 70
     1
102
RTVSPropertyOp39
 70
     1
102
RTVSPropertyOp40
 70
     1
102
RTVSPropertyOp41
 70
     1
102
RTVSPropertyOp42
 70
     1
102
RTVSPropertyOp43
 70
     1
102
RTVSPropertyOp44
 70
     1
102
RTVSPropertyOp45
 70
     1
102
RTVSPropertyOp46
 70
     1
102
RTVSPropertyOp47
 70
     1
102
RTVSPropertyOp48
 70
     1
102
RTVSPropertyOp49
 70
     1
102
RTVSPropertyOp50
 70
     1
102
RTVSPropertyOp51
 70
     0
102
RTVSPropertyOp52
 70
     0
102
RTVSPropertyOp53
 70
     1
102
RTVSPropertyOp54
 70
     1
102
RTVSPropertyOp55
 70
     1
102
RTVSPropertyOp56
 70
     1
102
RTVSPropertyOp57
 70
     1
102
RTVSPropertyOp58
 70
     1
102
RTVSPropertyOp59
 70
     1
102
RTVSPropertyOp60
 70
     1
102
RTVSPropertyOp61
 70
     1
102
RTVSPropertyOp62
 70
     1
  0
XRECORD
  5
84B0
102
{ACAD_REACTORS
330
84AF
102
}
330
84AF
100
AcDbXrecord
280
     1
102
RTVSPost2010Prop28
280
     0
102
RTVSPost2010PropOp28
 70
     1
102
RTVSPost2010Prop29
280
     1
102
RTVSPost2010PropOp29
 70
     1
102
RTVSPost2010Prop30
280
     1
102
RTVSPost2010PropOp30
 70
     1
102
RTVSPost2010Prop31
280
     0
102
RTVSPost2010PropOp31
 70
     1
102
RTVSPost2010Prop32
280
     0
102
RTVSPost2010PropOp32
 70
     1
102
RTVSPost2010Prop33
280
     0
102
RTVSPost2010PropOp33
 70
     1
102
RTVSPost2010Prop34
280
     0
102
RTVSPost2010PropOp34
 70
     1
102
RTVSPost2010Prop35
280
     0
102
RTVSPost2010PropOp35
 70
     1
102
RTVSPost2010Prop36
280
     0
102
RTVSPost2010PropOp36
 70
     1
102
RTVSPost2010Prop37
 90
       50
102
RTVSPost2010PropOp37
 70
     1
102
RTVSPost2010Prop38
140
0.0
102
RTVSPost2010PropOp38
 70
     1
102
RTVSPost2010Prop39
140
1.0
102
RTVSPost2010PropOp39
 70
     1
102
RTVSPost2010Prop40
 90
        0
102
RTVSPost2010PropOp40
 70
     1
102
RTVSPost2010Prop41ColorIndex
 90
       18
102
RTVSPost2010Prop41ColorRGB
 90
        0
102
RTVSPost2010PropOp41
 70
     1
102
RTVSPost2010Prop42
 90
       50
102
RTVSPost2010PropOp42
 70
     1
102
RTVSPost2010Prop43
 90
        3
102
RTVSPost2010PropOp43
 70
     1
102
RTVSPost2010Prop44ColorIndex
 90
        5
102
RTVSPost2010Prop44ColorRGB
 90
      255
102
RTVSPost2010PropOp44
 70
     1
102
RTVSPost2010Prop45
280
     0
102
RTVSPost2010PropOp45
 70
     1
102
RTVSPost2010Prop46
 90
       50
102
RTVSPost2010PropOp46
 70
     1
102
RTVSPost2010Prop47
 90
       50
102
RTVSPost2010PropOp47
 70
     1
102
RTVSPost2010Prop48
 90
       50
102
RTVSPost2010PropOp48
 70
     1
102
RTVSPost2010Prop49
280
     0
102
RTVSPost2010PropOp49
 70
     1
102
RTVSPost2010Prop50
 90
       50
102
RTVSPost2010PropOp50
 70
     1
102
RTVSPost2010Prop51ColorIndex
 90
      256
102
RTVSPost2010Prop51ColorRGB
 90
-16777216
102
RTVSPost2010PropOp51
 70
     0
102
RTVSPost2010Prop52
140
1.0
102
RTVSPost2010PropOp52
 70
     0
102
RTVSPost2010Prop53
 90
        2
102
RTVSPost2010PropOp53
 70
     1
102
RTVSPost2010Prop54
  1
strokes_ogs.tif
102
RTVSPost2010PropOp54
 70
     1
102
RTVSPost2010Prop55
280
     0
102
RTVSPost2010PropOp55
 70
     1
102
RTVSPost2010Prop56
140
1.0
102
RTVSPost2010PropOp56
 70
     1
102
RTVSPost2010Prop57
140
1.0
102
RTVSPost2010PropOp57
 70
     1
102
RTVSPropertyOp0
 70
     1
102
RTVSPropertyOp1
 70
     1
102
RTVSPropertyOp2
 70
     1
102
RTVSPropertyOp3
 70
     1
102
RTVSPropertyOp4
 70
     1
102
RTVSPropertyOp5
 70
     1
102
RTVSPropertyOp6
 70
     1
102
RTVSPropertyOp7
 70
     1
102
RTVSPropertyOp8
 70
     1
102
RTVSPropertyOp9
 70
     1
102
RTVSPropertyOp10
 70
     1
102
RTVSPropertyOp11
 70
     1
102
RTVSPropertyOp12
 70
     1
102
RTVSPropertyOp13
 70
     1
102
RTVSPropertyOp14
 70
     1
102
RTVSPropertyOp15
 70
     1
102
RTVSPropertyOp16
 70
     1
102
RTVSPropertyOp17
 70
     1
102
RTVSPropertyOp18
 70
     1
102
RTVSPropertyOp19
 70
     1
102
RTVSPropertyOp20
 70
     1
102
RTVSPropertyOp21
 70
     1
102
RTVSPropertyOp22
 70
     1
102
RTVSPropertyOp23
 70
     1
102
RTVSPropertyOp24
 70
     1
102
RTVSPropertyOp25
 70
     1
102
RTVSPropertyOp26
 70
     1
102
RTVSPropertyOp27
 70
     1
102
RTVSPropertyOp28
 70
     1
102
RTVSPropertyOp29
 70
     1
102
RTVSPropertyOp30
 70
     1
102
RTVSPropertyOp31
 70
     1
102
RTVSPropertyOp32
 70
     1
102
RTVSPropertyOp33
 70
     1
102
RTVSPropertyOp34
 70
     1
102
RTVSPropertyOp35
 70
     1
102
RTVSPropertyOp36
 70
     1
102
RTVSPropertyOp37
 70
     1
102
RTVSPropertyOp38
 70
     1
102
RTVSPropertyOp39
 70
     1
102
RTVSPropertyOp40
 70
     1
102
RTVSPropertyOp41
 70
     1
102
RTVSPropertyOp42
 70
     1
102
RTVSPropertyOp43
 70
     1
102
RTVSPropertyOp44
 70
     1
102
RTVSPropertyOp45
 70
     1
102
RTVSPropertyOp46
 70
     1
102
RTVSPropertyOp47
 70
     1
102
RTVSPropertyOp48
 70
     1
102
RTVSPropertyOp49
 70
     1
102
RTVSPropertyOp50
 70
     1
102
RTVSPropertyOp51
 70
     0
102
RTVSPropertyOp52
 70
     0
102
RTVSPropertyOp53
 70
     1
102
RTVSPropertyOp54
 70
     1
102
RTVSPropertyOp55
 70
     1
102
RTVSPropertyOp56
 70
     1
102
RTVSPropertyOp57
 70
     1
102
RTVSPropertyOp58
 70
     1
102
RTVSPropertyOp59
 70
     1
102
RTVSPropertyOp60
 70
     1
102
RTVSPropertyOp61
 70
     1
102
RTVSPropertyOp62
 70
     1
  0
XRECORD
  5
84B4
102
{ACAD_REACTORS
330
84B3
102
}
330
84B3
100
AcDbXrecord
280
     1
102
RTVSPost2010Prop28
280
     0
102
RTVSPost2010PropOp28
 70
     1
102
RTVSPost2010Prop29
280
     1
102
RTVSPost2010PropOp29
 70
     1
102
RTVSPost2010Prop30
280
     1
102
RTVSPost2010PropOp30
 70
     1
102
RTVSPost2010Prop31
280
     0
102
RTVSPost2010PropOp31
 70
     1
102
RTVSPost2010Prop32
280
     0
102
RTVSPost2010PropOp32
 70
     1
102
RTVSPost2010Prop33
280
     0
102
RTVSPost2010PropOp33
 70
     1
102
RTVSPost2010Prop34
280
     0
102
RTVSPost2010PropOp34
 70
     1
102
RTVSPost2010Prop35
280
     0
102
RTVSPost2010PropOp35
 70
     1
102
RTVSPost2010Prop36
280
     0
102
RTVSPost2010PropOp36
 70
     1
102
RTVSPost2010Prop37
 90
       50
102
RTVSPost2010PropOp37
 70
     1
102
RTVSPost2010Prop38
140
0.0
102
RTVSPost2010PropOp38
 70
     1
102
RTVSPost2010Prop39
140
1.0
102
RTVSPost2010PropOp39
 70
     1
102
RTVSPost2010Prop40
 90
        0
102
RTVSPost2010PropOp40
 70
     1
102
RTVSPost2010Prop41ColorIndex
 90
       18
102
RTVSPost2010Prop41ColorRGB
 90
        0
102
RTVSPost2010PropOp41
 70
     1
102
RTVSPost2010Prop42
 90
       50
102
RTVSPost2010PropOp42
 70
     1
102
RTVSPost2010Prop43
 90
        3
102
RTVSPost2010PropOp43
 70
     1
102
RTVSPost2010Prop44ColorIndex
 90
        5
102
RTVSPost2010Prop44ColorRGB
 90
      255
102
RTVSPost2010PropOp44
 70
     1
102
RTVSPost2010Prop45
280
     0
102
RTVSPost2010PropOp45
 70
     1
102
RTVSPost2010Prop46
 90
       50
102
RTVSPost2010PropOp46
 70
     1
102
RTVSPost2010Prop47
 90
       50
102
RTVSPost2010PropOp47
 70
     1
102
RTVSPost2010Prop48
 90
       50
102
RTVSPost2010PropOp48
 70
     1
102
RTVSPost2010Prop49
280
     0
102
RTVSPost2010PropOp49
 70
     1
102
RTVSPost2010Prop50
 90
       50
102
RTVSPost2010PropOp50
 70
     1
102
RTVSPost2010Prop51ColorIndex
 90
      256
102
RTVSPost2010Prop51ColorRGB
 90
-16777216
102
RTVSPost2010PropOp51
 70
     0
102
RTVSPost2010Prop52
140
1.0
102
RTVSPost2010PropOp52
 70
     0
102
RTVSPost2010Prop53
 90
        2
102
RTVSPost2010PropOp53
 70
     1
102
RTVSPost2010Prop54
  1
strokes_ogs.tif
102
RTVSPost2010PropOp54
 70
     1
102
RTVSPost2010Prop55
280
     0
102
RTVSPost2010PropOp55
 70
     1
102
RTVSPost2010Prop56
140
1.0
102
RTVSPost2010PropOp56
 70
     1
102
RTVSPost2010Prop57
140
1.0
102
RTVSPost2010PropOp57
 70
     1
102
RTVSPropertyOp0
 70
     1
102
RTVSPropertyOp1
 70
     1
102
RTVSPropertyOp2
 70
     1
102
RTVSPropertyOp3
 70
     1
102
RTVSPropertyOp4
 70
     1
102
RTVSPropertyOp5
 70
     1
102
RTVSPropertyOp6
 70
     1
102
RTVSPropertyOp7
 70
     1
102
RTVSPropertyOp8
 70
     1
102
RTVSPropertyOp9
 70
     1
102
RTVSPropertyOp10
 70
     1
102
RTVSPropertyOp11
 70
     1
102
RTVSPropertyOp12
 70
     1
102
RTVSPropertyOp13
 70
     1
102
RTVSPropertyOp14
 70
     1
102
RTVSPropertyOp15
 70
     1
102
RTVSPropertyOp16
 70
     1
102
RTVSPropertyOp17
 70
     1
102
RTVSPropertyOp18
 70
     1
102
RTVSPropertyOp19
 70
     1
102
RTVSPropertyOp20
 70
     1
102
RTVSPropertyOp21
 70
     1
102
RTVSPropertyOp22
 70
     1
102
RTVSPropertyOp23
 70
     1
102
RTVSPropertyOp24
 70
     1
102
RTVSPropertyOp25
 70
     1
102
RTVSPropertyOp26
 70
     1
102
RTVSPropertyOp27
 70
     1
102
RTVSPropertyOp28
 70
     1
102
RTVSPropertyOp29
 70
     1
102
RTVSPropertyOp30
 70
     1
102
RTVSPropertyOp31
 70
     1
102
RTVSPropertyOp32
 70
     1
102
RTVSPropertyOp33
 70
     1
102
RTVSPropertyOp34
 70
     1
102
RTVSPropertyOp35
 70
     1
102
RTVSPropertyOp36
 70
     1
102
RTVSPropertyOp37
 70
     1
102
RTVSPropertyOp38
 70
     1
102
RTVSPropertyOp39
 70
     1
102
RTVSPropertyOp40
 70
     1
102
RTVSPropertyOp41
 70
     1
102
RTVSPropertyOp42
 70
     1
102
RTVSPropertyOp43
 70
     1
102
RTVSPropertyOp44
 70
     1
102
RTVSPropertyOp45
 70
     1
102
RTVSPropertyOp46
 70
     1
102
RTVSPropertyOp47
 70
     1
102
RTVSPropertyOp48
 70
     1
102
RTVSPropertyOp49
 70
     1
102
RTVSPropertyOp50
 70
     1
102
RTVSPropertyOp51
 70
     0
102
RTVSPropertyOp52
 70
     0
102
RTVSPropertyOp53
 70
     1
102
RTVSPropertyOp54
 70
     1
102
RTVSPropertyOp55
 70
     1
102
RTVSPropertyOp56
 70
     1
102
RTVSPropertyOp57
 70
     1
102
RTVSPropertyOp58
 70
     1
102
RTVSPropertyOp59
 70
     1
102
RTVSPropertyOp60
 70
     1
102
RTVSPropertyOp61
 70
     1
102
RTVSPropertyOp62
 70
     1
  0
XRECORD
  5
84CE
102
{ACAD_REACTORS
330
84CD
102
}
330
84CD
100
AcDbXrecord
280
     1
102
RTVSPost2010Prop28
280
     0
102
RTVSPost2010PropOp28
 70
     1
102
RTVSPost2010Prop29
280
     1
102
RTVSPost2010PropOp29
 70
     1
102
RTVSPost2010Prop30
280
     1
102
RTVSPost2010PropOp30
 70
     1
102
RTVSPost2010Prop31
280
     0
102
RTVSPost2010PropOp31
 70
     1
102
RTVSPost2010Prop32
280
     0
102
RTVSPost2010PropOp32
 70
     1
102
RTVSPost2010Prop33
280
     0
102
RTVSPost2010PropOp33
 70
     1
102
RTVSPost2010Prop34
280
     0
102
RTVSPost2010PropOp34
 70
     1
102
RTVSPost2010Prop35
280
     0
102
RTVSPost2010PropOp35
 70
     1
102
RTVSPost2010Prop36
280
     0
102
RTVSPost2010PropOp36
 70
     1
102
RTVSPost2010Prop37
 90
       50
102
RTVSPost2010PropOp37
 70
     0
102
RTVSPost2010Prop38
140
0.0
102
RTVSPost2010PropOp38
 70
     0
102
RTVSPost2010Prop39
140
1.0
102
RTVSPost2010PropOp39
 70
     0
102
RTVSPost2010Prop40
 90
        0
102
RTVSPost2010PropOp40
 70
     0
102
RTVSPost2010Prop41ColorIndex
 90
       18
102
RTVSPost2010Prop41ColorRGB
 90
        0
102
RTVSPost2010PropOp41
 70
     0
102
RTVSPost2010Prop42
 90
       50
102
RTVSPost2010PropOp42
 70
     0
102
RTVSPost2010Prop43
 90
        3
102
RTVSPost2010PropOp43
 70
     0
102
RTVSPost2010Prop44ColorIndex
 90
        5
102
RTVSPost2010Prop44ColorRGB
 90
      255
102
RTVSPost2010PropOp44
 70
     0
102
RTVSPost2010Prop45
280
     0
102
RTVSPost2010PropOp45
 70
     1
102
RTVSPost2010Prop46
 90
       50
102
RTVSPost2010PropOp46
 70
     0
102
RTVSPost2010Prop47
 90
       50
102
RTVSPost2010PropOp47
 70
     0
102
RTVSPost2010Prop48
 90
       50
102
RTVSPost2010PropOp48
 70
     0
102
RTVSPost2010Prop49
280
     0
102
RTVSPost2010PropOp49
 70
     1
102
RTVSPost2010Prop50
 90
       50
102
RTVSPost2010PropOp50
 70
     0
102
RTVSPost2010Prop51ColorIndex
 90
      256
102
RTVSPost2010Prop51ColorRGB
 90
-16777216
102
RTVSPost2010PropOp51
 70
     0
102
RTVSPost2010Prop52
140
1.0
102
RTVSPost2010PropOp52
 70
     0
102
RTVSPost2010Prop53
 90
        2
102
RTVSPost2010PropOp53
 70
     0
102
RTVSPost2010Prop54
  1
strokes_ogs.tif
102
RTVSPost2010PropOp54
 70
     0
102
RTVSPost2010Prop55
280
     0
102
RTVSPost2010PropOp55
 70
     1
102
RTVSPost2010Prop56
140
1.0
102
RTVSPost2010PropOp56
 70
     0
102
RTVSPost2010Prop57
140
1.0
102
RTVSPost2010PropOp57
 70
     0
102
RTVSPropertyOp0
 70
     0
102
RTVSPropertyOp1
 70
     0
102
RTVSPropertyOp2
 70
     0
102
RTVSPropertyOp3
 70
     0
102
RTVSPropertyOp4
 70
     0
102
RTVSPropertyOp5
 70
     0
102
RTVSPropertyOp6
 70
     0
102
RTVSPropertyOp7
 70
     0
102
RTVSPropertyOp8
 70
     0
102
RTVSPropertyOp9
 70
     0
102
RTVSPropertyOp10
 70
     0
102
RTVSPropertyOp11
 70
     0
102
RTVSPropertyOp12
 70
     0
102
RTVSPropertyOp13
 70
     0
102
RTVSPropertyOp14
 70
     2
102
RTVSPropertyOp15
 70
     0
102
RTVSPropertyOp16
 70
     0
102
RTVSPropertyOp17
 70
     0
102
RTVSPropertyOp18
 70
     0
102
RTVSPropertyOp19
 70
     0
102
RTVSPropertyOp20
 70
     0
102
RTVSPropertyOp21
 70
     0
102
RTVSPropertyOp22
 70
     0
102
RTVSPropertyOp23
 70
     0
102
RTVSPropertyOp24
 70
     0
102
RTVSPropertyOp25
 70
     0
102
RTVSPropertyOp26
 70
     0
102
RTVSPropertyOp27
 70
     0
102
RTVSPropertyOp28
 70
     1
102
RTVSPropertyOp29
 70
     1
102
RTVSPropertyOp30
 70
     1
102
RTVSPropertyOp31
 70
     1
102
RTVSPropertyOp32
 70
     1
102
RTVSPropertyOp33
 70
     1
102
RTVSPropertyOp34
 70
     1
102
RTVSPropertyOp35
 70
     1
102
RTVSPropertyOp36
 70
     1
102
RTVSPropertyOp37
 70
     0
102
RTVSPropertyOp38
 70
     0
102
RTVSPropertyOp39
 70
     0
102
RTVSPropertyOp40
 70
     0
102
RTVSPropertyOp41
 70
     0
102
RTVSPropertyOp42
 70
     0
102
RTVSPropertyOp43
 70
     0
102
RTVSPropertyOp44
 70
     0
102
RTVSPropertyOp45
 70
     1
102
RTVSPropertyOp46
 70
     0
102
RTVSPropertyOp47
 70
     0
102
RTVSPropertyOp48
 70
     0
102
RTVSPropertyOp49
 70
     1
102
RTVSPropertyOp50
 70
     0
102
RTVSPropertyOp51
 70
     0
102
RTVSPropertyOp52
 70
     0
102
RTVSPropertyOp53
 70
     0
102
RTVSPropertyOp54
 70
     0
102
RTVSPropertyOp55
 70
     1
102
RTVSPropertyOp56
 70
     0
102
RTVSPropertyOp57
 70
     0
102
RTVSPropertyOp58
 70
     0
102
RTVSPropertyOp59
 70
     0
102
RTVSPropertyOp60
 70
     0
102
RTVSPropertyOp61
 70
     0
102
RTVSPropertyOp62
 70
     0
  0
XRECORD
  5
84BC
102
{ACAD_REACTORS
330
84BB
102
}
330
84BB
100
AcDbXrecord
280
     1
102
RTVSPost2010Prop28
280
     0
102
RTVSPost2010PropOp28
 70
     1
102
RTVSPost2010Prop29
280
     1
102
RTVSPost2010PropOp29
 70
     1
102
RTVSPost2010Prop30
280
     1
102
RTVSPost2010PropOp30
 70
     1
102
RTVSPost2010Prop31
280
     0
102
RTVSPost2010PropOp31
 70
     1
102
RTVSPost2010Prop32
280
     0
102
RTVSPost2010PropOp32
 70
     1
102
RTVSPost2010Prop33
280
     0
102
RTVSPost2010PropOp33
 70
     1
102
RTVSPost2010Prop34
280
     0
102
RTVSPost2010PropOp34
 70
     1
102
RTVSPost2010Prop35
280
     0
102
RTVSPost2010PropOp35
 70
     1
102
RTVSPost2010Prop36
280
     0
102
RTVSPost2010PropOp36
 70
     1
102
RTVSPost2010Prop37
 90
       50
102
RTVSPost2010PropOp37
 70
     1
102
RTVSPost2010Prop38
140
0.0
102
RTVSPost2010PropOp38
 70
     1
102
RTVSPost2010Prop39
140
1.0
102
RTVSPost2010PropOp39
 70
     1
102
RTVSPost2010Prop40
 90
        0
102
RTVSPost2010PropOp40
 70
     1
102
RTVSPost2010Prop41ColorIndex
 90
       18
102
RTVSPost2010Prop41ColorRGB
 90
        0
102
RTVSPost2010PropOp41
 70
     1
102
RTVSPost2010Prop42
 90
       50
102
RTVSPost2010PropOp42
 70
     1
102
RTVSPost2010Prop43
 90
        3
102
RTVSPost2010PropOp43
 70
     1
102
RTVSPost2010Prop44ColorIndex
 90
        5
102
RTVSPost2010Prop44ColorRGB
 90
      255
102
RTVSPost2010PropOp44
 70
     1
102
RTVSPost2010Prop45
280
     0
102
RTVSPost2010PropOp45
 70
     1
102
RTVSPost2010Prop46
 90
       50
102
RTVSPost2010PropOp46
 70
     1
102
RTVSPost2010Prop47
 90
       50
102
RTVSPost2010PropOp47
 70
     1
102
RTVSPost2010Prop48
 90
       50
102
RTVSPost2010PropOp48
 70
     1
102
RTVSPost2010Prop49
280
     0
102
RTVSPost2010PropOp49
 70
     1
102
RTVSPost2010Prop50
 90
       50
102
RTVSPost2010PropOp50
 70
     1
102
RTVSPost2010Prop51ColorIndex
 90
      256
102
RTVSPost2010Prop51ColorRGB
 90
-16777216
102
RTVSPost2010PropOp51
 70
     0
102
RTVSPost2010Prop52
140
1.0
102
RTVSPost2010PropOp52
 70
     0
102
RTVSPost2010Prop53
 90
        2
102
RTVSPost2010PropOp53
 70
     1
102
RTVSPost2010Prop54
  1
strokes_ogs.tif
102
RTVSPost2010PropOp54
 70
     1
102
RTVSPost2010Prop55
280
     0
102
RTVSPost2010PropOp55
 70
     1
102
RTVSPost2010Prop56
140
1.0
102
RTVSPost2010PropOp56
 70
     1
102
RTVSPost2010Prop57
140
1.0
102
RTVSPost2010PropOp57
 70
     1
102
RTVSPropertyOp0
 70
     1
102
RTVSPropertyOp1
 70
     1
102
RTVSPropertyOp2
 70
     1
102
RTVSPropertyOp3
 70
     1
102
RTVSPropertyOp4
 70
     1
102
RTVSPropertyOp5
 70
     1
102
RTVSPropertyOp6
 70
     1
102
RTVSPropertyOp7
 70
     1
102
RTVSPropertyOp8
 70
     1
102
RTVSPropertyOp9
 70
     1
102
RTVSPropertyOp10
 70
     1
102
RTVSPropertyOp11
 70
     1
102
RTVSPropertyOp12
 70
     1
102
RTVSPropertyOp13
 70
     1
102
RTVSPropertyOp14
 70
     1
102
RTVSPropertyOp15
 70
     1
102
RTVSPropertyOp16
 70
     1
102
RTVSPropertyOp17
 70
     1
102
RTVSPropertyOp18
 70
     1
102
RTVSPropertyOp19
 70
     1
102
RTVSPropertyOp20
 70
     1
102
RTVSPropertyOp21
 70
     1
102
RTVSPropertyOp22
 70
     1
102
RTVSPropertyOp23
 70
     1
102
RTVSPropertyOp24
 70
     1
102
RTVSPropertyOp25
 70
     1
102
RTVSPropertyOp26
 70
     1
102
RTVSPropertyOp27
 70
     1
102
RTVSPropertyOp28
 70
     1
102
RTVSPropertyOp29
 70
     1
102
RTVSPropertyOp30
 70
     1
102
RTVSPropertyOp31
 70
     1
102
RTVSPropertyOp32
 70
     1
102
RTVSPropertyOp33
 70
     1
102
RTVSPropertyOp34
 70
     1
102
RTVSPropertyOp35
 70
     1
102
RTVSPropertyOp36
 70
     1
102
RTVSPropertyOp37
 70
     1
102
RTVSPropertyOp38
 70
     1
102
RTVSPropertyOp39
 70
     1
102
RTVSPropertyOp40
 70
     1
102
RTVSPropertyOp41
 70
     1
102
RTVSPropertyOp42
 70
     1
102
RTVSPropertyOp43
 70
     1
102
RTVSPropertyOp44
 70
     1
102
RTVSPropertyOp45
 70
     1
102
RTVSPropertyOp46
 70
     1
102
RTVSPropertyOp47
 70
     1
102
RTVSPropertyOp48
 70
     1
102
RTVSPropertyOp49
 70
     1
102
RTVSPropertyOp50
 70
     1
102
RTVSPropertyOp51
 70
     0
102
RTVSPropertyOp52
 70
     0
102
RTVSPropertyOp53
 70
     1
102
RTVSPropertyOp54
 70
     1
102
RTVSPropertyOp55
 70
     1
102
RTVSPropertyOp56
 70
     1
102
RTVSPropertyOp57
 70
     1
102
RTVSPropertyOp58
 70
     1
102
RTVSPropertyOp59
 70
     1
102
RTVSPropertyOp60
 70
     1
102
RTVSPropertyOp61
 70
     1
102
RTVSPropertyOp62
 70
     1
  0
XRECORD
  5
84A0
102
{ACAD_REACTORS
330
849F
102
}
330
849F
100
AcDbXrecord
280
     1
102
RTVSPost2010Prop28
280
     0
102
RTVSPost2010PropOp28
 70
     1
102
RTVSPost2010Prop29
280
     1
102
RTVSPost2010PropOp29
 70
     1
102
RTVSPost2010Prop30
280
     1
102
RTVSPost2010PropOp30
 70
     1
102
RTVSPost2010Prop31
280
     0
102
RTVSPost2010PropOp31
 70
     1
102
RTVSPost2010Prop32
280
     0
102
RTVSPost2010PropOp32
 70
     1
102
RTVSPost2010Prop33
280
     0
102
RTVSPost2010PropOp33
 70
     1
102
RTVSPost2010Prop34
280
     0
102
RTVSPost2010PropOp34
 70
     1
102
RTVSPost2010Prop35
280
     0
102
RTVSPost2010PropOp35
 70
     1
102
RTVSPost2010Prop36
280
     0
102
RTVSPost2010PropOp36
 70
     1
102
RTVSPost2010Prop37
 90
       50
102
RTVSPost2010PropOp37
 70
     1
102
RTVSPost2010Prop38
140
0.0
102
RTVSPost2010PropOp38
 70
     1
102
RTVSPost2010Prop39
140
1.0
102
RTVSPost2010PropOp39
 70
     1
102
RTVSPost2010Prop40
 90
        0
102
RTVSPost2010PropOp40
 70
     1
102
RTVSPost2010Prop41ColorIndex
 90
       18
102
RTVSPost2010Prop41ColorRGB
 90
        0
102
RTVSPost2010PropOp41
 70
     1
102
RTVSPost2010Prop42
 90
       50
102
RTVSPost2010PropOp42
 70
     1
102
RTVSPost2010Prop43
 90
        3
102
RTVSPost2010PropOp43
 70
     1
102
RTVSPost2010Prop44ColorIndex
 90
        5
102
RTVSPost2010Prop44ColorRGB
 90
      255
102
RTVSPost2010PropOp44
 70
     1
102
RTVSPost2010Prop45
280
     0
102
RTVSPost2010PropOp45
 70
     1
102
RTVSPost2010Prop46
 90
       50
102
RTVSPost2010PropOp46
 70
     1
102
RTVSPost2010Prop47
 90
       50
102
RTVSPost2010PropOp47
 70
     1
102
RTVSPost2010Prop48
 90
       50
102
RTVSPost2010PropOp48
 70
     1
102
RTVSPost2010Prop49
280
     0
102
RTVSPost2010PropOp49
 70
     1
102
RTVSPost2010Prop50
 90
       50
102
RTVSPost2010PropOp50
 70
     1
102
RTVSPost2010Prop51ColorIndex
 90
      256
102
RTVSPost2010Prop51ColorRGB
 90
-16777216
102
RTVSPost2010PropOp51
 70
     0
102
RTVSPost2010Prop52
140
1.0
102
RTVSPost2010PropOp52
 70
     0
102
RTVSPost2010Prop53
 90
        2
102
RTVSPost2010PropOp53
 70
     1
102
RTVSPost2010Prop54
  1
strokes_ogs.tif
102
RTVSPost2010PropOp54
 70
     1
102
RTVSPost2010Prop55
280
     0
102
RTVSPost2010PropOp55
 70
     1
102
RTVSPost2010Prop56
140
1.0
102
RTVSPost2010PropOp56
 70
     1
102
RTVSPost2010Prop57
140
1.0
102
RTVSPost2010PropOp57
 70
     1
102
RTVSPropertyOp0
 70
     1
102
RTVSPropertyOp1
 70
     1
102
RTVSPropertyOp2
 70
     1
102
RTVSPropertyOp3
 70
     1
102
RTVSPropertyOp4
 70
     1
102
RTVSPropertyOp5
 70
     1
102
RTVSPropertyOp6
 70
     1
102
RTVSPropertyOp7
 70
     1
102
RTVSPropertyOp8
 70
     1
102
RTVSPropertyOp9
 70
     1
102
RTVSPropertyOp10
 70
     1
102
RTVSPropertyOp11
 70
     1
102
RTVSPropertyOp12
 70
     1
102
RTVSPropertyOp13
 70
     1
102
RTVSPropertyOp14
 70
     1
102
RTVSPropertyOp15
 70
     1
102
RTVSPropertyOp16
 70
     1
102
RTVSPropertyOp17
 70
     1
102
RTVSPropertyOp18
 70
     1
102
RTVSPropertyOp19
 70
     1
102
RTVSPropertyOp20
 70
     1
102
RTVSPropertyOp21
 70
     1
102
RTVSPropertyOp22
 70
     1
102
RTVSPropertyOp23
 70
     1
102
RTVSPropertyOp24
 70
     1
102
RTVSPropertyOp25
 70
     1
102
RTVSPropertyOp26
 70
     1
102
RTVSPropertyOp27
 70
     1
102
RTVSPropertyOp28
 70
     1
102
RTVSPropertyOp29
 70
     1
102
RTVSPropertyOp30
 70
     1
102
RTVSPropertyOp31
 70
     1
102
RTVSPropertyOp32
 70
     1
102
RTVSPropertyOp33
 70
     1
102
RTVSPropertyOp34
 70
     1
102
RTVSPropertyOp35
 70
     1
102
RTVSPropertyOp36
 70
     1
102
RTVSPropertyOp37
 70
     1
102
RTVSPropertyOp38
 70
     1
102
RTVSPropertyOp39
 70
     1
102
RTVSPropertyOp40
 70
     1
102
RTVSPropertyOp41
 70
     1
102
RTVSPropertyOp42
 70
     1
102
RTVSPropertyOp43
 70
     1
102
RTVSPropertyOp44
 70
     1
102
RTVSPropertyOp45
 70
     1
102
RTVSPropertyOp46
 70
     1
102
RTVSPropertyOp47
 70
     1
102
RTVSPropertyOp48
 70
     1
102
RTVSPropertyOp49
 70
     1
102
RTVSPropertyOp50
 70
     1
102
RTVSPropertyOp51
 70
     0
102
RTVSPropertyOp52
 70
     0
102
RTVSPropertyOp53
 70
     1
102
RTVSPropertyOp54
 70
     1
102
RTVSPropertyOp55
 70
     1
102
RTVSPropertyOp56
 70
     1
102
RTVSPropertyOp57
 70
     1
102
RTVSPropertyOp58
 70
     1
102
RTVSPropertyOp59
 70
     1
102
RTVSPropertyOp60
 70
     1
102
RTVSPropertyOp61
 70
     1
102
RTVSPropertyOp62
 70
     1
  0
XRECORD
  5
84A2
102
{ACAD_REACTORS
330
84A1
102
}
330
84A1
100
AcDbXrecord
280
     1
102
RTVSPost2010Prop28
280
     0
102
RTVSPost2010PropOp28
 70
     1
102
RTVSPost2010Prop29
280
     1
102
RTVSPost2010PropOp29
 70
     1
102
RTVSPost2010Prop30
280
     1
102
RTVSPost2010PropOp30
 70
     1
102
RTVSPost2010Prop31
280
     0
102
RTVSPost2010PropOp31
 70
     1
102
RTVSPost2010Prop32
280
     0
102
RTVSPost2010PropOp32
 70
     1
102
RTVSPost2010Prop33
280
     0
102
RTVSPost2010PropOp33
 70
     1
102
RTVSPost2010Prop34
280
     0
102
RTVSPost2010PropOp34
 70
     1
102
RTVSPost2010Prop35
280
     0
102
RTVSPost2010PropOp35
 70
     1
102
RTVSPost2010Prop36
280
     0
102
RTVSPost2010PropOp36
 70
     1
102
RTVSPost2010Prop37
 90
       50
102
RTVSPost2010PropOp37
 70
     1
102
RTVSPost2010Prop38
140
0.0
102
RTVSPost2010PropOp38
 70
     1
102
RTVSPost2010Prop39
140
1.0
102
RTVSPost2010PropOp39
 70
     1
102
RTVSPost2010Prop40
 90
        0
102
RTVSPost2010PropOp40
 70
     1
102
RTVSPost2010Prop41ColorIndex
 90
       18
102
RTVSPost2010Prop41ColorRGB
 90
        0
102
RTVSPost2010PropOp41
 70
     1
102
RTVSPost2010Prop42
 90
       50
102
RTVSPost2010PropOp42
 70
     1
102
RTVSPost2010Prop43
 90
        3
102
RTVSPost2010PropOp43
 70
     1
102
RTVSPost2010Prop44ColorIndex
 90
        5
102
RTVSPost2010Prop44ColorRGB
 90
      255
102
RTVSPost2010PropOp44
 70
     1
102
RTVSPost2010Prop45
280
     0
102
RTVSPost2010PropOp45
 70
     1
102
RTVSPost2010Prop46
 90
       50
102
RTVSPost2010PropOp46
 70
     1
102
RTVSPost2010Prop47
 90
       50
102
RTVSPost2010PropOp47
 70
     1
102
RTVSPost2010Prop48
 90
       50
102
RTVSPost2010PropOp48
 70
     1
102
RTVSPost2010Prop49
280
     0
102
RTVSPost2010PropOp49
 70
     1
102
RTVSPost2010Prop50
 90
       50
102
RTVSPost2010PropOp50
 70
     1
102
RTVSPost2010Prop51ColorIndex
 90
      256
102
RTVSPost2010Prop51ColorRGB
 90
-16777216
102
RTVSPost2010PropOp51
 70
     0
102
RTVSPost2010Prop52
140
1.0
102
RTVSPost2010PropOp52
 70
     0
102
RTVSPost2010Prop53
 90
        2
102
RTVSPost2010PropOp53
 70
     1
102
RTVSPost2010Prop54
  1
strokes_ogs.tif
102
RTVSPost2010PropOp54
 70
     1
102
RTVSPost2010Prop55
280
     0
102
RTVSPost2010PropOp55
 70
     1
102
RTVSPost2010Prop56
140
1.0
102
RTVSPost2010PropOp56
 70
     1
102
RTVSPost2010Prop57
140
1.0
102
RTVSPost2010PropOp57
 70
     1
102
RTVSPropertyOp0
 70
     1
102
RTVSPropertyOp1
 70
     1
102
RTVSPropertyOp2
 70
     1
102
RTVSPropertyOp3
 70
     1
102
RTVSPropertyOp4
 70
     1
102
RTVSPropertyOp5
 70
     1
102
RTVSPropertyOp6
 70
     1
102
RTVSPropertyOp7
 70
     1
102
RTVSPropertyOp8
 70
     1
102
RTVSPropertyOp9
 70
     1
102
RTVSPropertyOp10
 70
     1
102
RTVSPropertyOp11
 70
     1
102
RTVSPropertyOp12
 70
     1
102
RTVSPropertyOp13
 70
     1
102
RTVSPropertyOp14
 70
     1
102
RTVSPropertyOp15
 70
     1
102
RTVSPropertyOp16
 70
     1
102
RTVSPropertyOp17
 70
     1
102
RTVSPropertyOp18
 70
     1
102
RTVSPropertyOp19
 70
     1
102
RTVSPropertyOp20
 70
     1
102
RTVSPropertyOp21
 70
     1
102
RTVSPropertyOp22
 70
     1
102
RTVSPropertyOp23
 70
     1
102
RTVSPropertyOp24
 70
     1
102
RTVSPropertyOp25
 70
     1
102
RTVSPropertyOp26
 70
     1
102
RTVSPropertyOp27
 70
     1
102
RTVSPropertyOp28
 70
     1
102
RTVSPropertyOp29
 70
     1
102
RTVSPropertyOp30
 70
     1
102
RTVSPropertyOp31
 70
     1
102
RTVSPropertyOp32
 70
     1
102
RTVSPropertyOp33
 70
     1
102
RTVSPropertyOp34
 70
     1
102
RTVSPropertyOp35
 70
     1
102
RTVSPropertyOp36
 70
     1
102
RTVSPropertyOp37
 70
     1
102
RTVSPropertyOp38
 70
     1
102
RTVSPropertyOp39
 70
     1
102
RTVSPropertyOp40
 70
     1
102
RTVSPropertyOp41
 70
     1
102
RTVSPropertyOp42
 70
     1
102
RTVSPropertyOp43
 70
     1
102
RTVSPropertyOp44
 70
     1
102
RTVSPropertyOp45
 70
     1
102
RTVSPropertyOp46
 70
     1
102
RTVSPropertyOp47
 70
     1
102
RTVSPropertyOp48
 70
     1
102
RTVSPropertyOp49
 70
     1
102
RTVSPropertyOp50
 70
     1
102
RTVSPropertyOp51
 70
     0
102
RTVSPropertyOp52
 70
     0
102
RTVSPropertyOp53
 70
     1
102
RTVSPropertyOp54
 70
     1
102
RTVSPropertyOp55
 70
     1
102
RTVSPropertyOp56
 70
     1
102
RTVSPropertyOp57
 70
     1
102
RTVSPropertyOp58
 70
     1
102
RTVSPropertyOp59
 70
     1
102
RTVSPropertyOp60
 70
     1
102
RTVSPropertyOp61
 70
     1
102
RTVSPropertyOp62
 70
     1
  0
XRECORD
  5
84A4
102
{ACAD_REACTORS
330
84A3
102
}
330
84A3
100
AcDbXrecord
280
     1
102
RTVSPost2010Prop28
280
     0
102
RTVSPost2010PropOp28
 70
     1
102
RTVSPost2010Prop29
280
     1
102
RTVSPost2010PropOp29
 70
     1
102
RTVSPost2010Prop30
280
     1
102
RTVSPost2010PropOp30
 70
     1
102
RTVSPost2010Prop31
280
     0
102
RTVSPost2010PropOp31
 70
     1
102
RTVSPost2010Prop32
280
     0
102
RTVSPost2010PropOp32
 70
     1
102
RTVSPost2010Prop33
280
     0
102
RTVSPost2010PropOp33
 70
     1
102
RTVSPost2010Prop34
280
     0
102
RTVSPost2010PropOp34
 70
     1
102
RTVSPost2010Prop35
280
     0
102
RTVSPost2010PropOp35
 70
     1
102
RTVSPost2010Prop36
280
     0
102
RTVSPost2010PropOp36
 70
     1
102
RTVSPost2010Prop37
 90
       50
102
RTVSPost2010PropOp37
 70
     1
102
RTVSPost2010Prop38
140
0.0
102
RTVSPost2010PropOp38
 70
     1
102
RTVSPost2010Prop39
140
1.0
102
RTVSPost2010PropOp39
 70
     1
102
RTVSPost2010Prop40
 90
        0
102
RTVSPost2010PropOp40
 70
     1
102
RTVSPost2010Prop41ColorIndex
 90
       18
102
RTVSPost2010Prop41ColorRGB
 90
        0
102
RTVSPost2010PropOp41
 70
     1
102
RTVSPost2010Prop42
 90
       50
102
RTVSPost2010PropOp42
 70
     1
102
RTVSPost2010Prop43
 90
        3
102
RTVSPost2010PropOp43
 70
     1
102
RTVSPost2010Prop44ColorIndex
 90
        5
102
RTVSPost2010Prop44ColorRGB
 90
      255
102
RTVSPost2010PropOp44
 70
     1
102
RTVSPost2010Prop45
280
     0
102
RTVSPost2010PropOp45
 70
     1
102
RTVSPost2010Prop46
 90
       50
102
RTVSPost2010PropOp46
 70
     1
102
RTVSPost2010Prop47
 90
       50
102
RTVSPost2010PropOp47
 70
     1
102
RTVSPost2010Prop48
 90
       50
102
RTVSPost2010PropOp48
 70
     1
102
RTVSPost2010Prop49
280
     0
102
RTVSPost2010PropOp49
 70
     1
102
RTVSPost2010Prop50
 90
       50
102
RTVSPost2010PropOp50
 70
     1
102
RTVSPost2010Prop51ColorIndex
 90
      256
102
RTVSPost2010Prop51ColorRGB
 90
-16777216
102
RTVSPost2010PropOp51
 70
     0
102
RTVSPost2010Prop52
140
1.0
102
RTVSPost2010PropOp52
 70
     0
102
RTVSPost2010Prop53
 90
        2
102
RTVSPost2010PropOp53
 70
     1
102
RTVSPost2010Prop54
  1
strokes_ogs.tif
102
RTVSPost2010PropOp54
 70
     1
102
RTVSPost2010Prop55
280
     0
102
RTVSPost2010PropOp55
 70
     1
102
RTVSPost2010Prop56
140
1.0
102
RTVSPost2010PropOp56
 70
     1
102
RTVSPost2010Prop57
140
1.0
102
RTVSPost2010PropOp57
 70
     1
102
RTVSPropertyOp0
 70
     1
102
RTVSPropertyOp1
 70
     1
102
RTVSPropertyOp2
 70
     1
102
RTVSPropertyOp3
 70
     1
102
RTVSPropertyOp4
 70
     1
102
RTVSPropertyOp5
 70
     1
102
RTVSPropertyOp6
 70
     1
102
RTVSPropertyOp7
 70
     1
102
RTVSPropertyOp8
 70
     1
102
RTVSPropertyOp9
 70
     1
102
RTVSPropertyOp10
 70
     1
102
RTVSPropertyOp11
 70
     1
102
RTVSPropertyOp12
 70
     1
102
RTVSPropertyOp13
 70
     1
102
RTVSPropertyOp14
 70
     1
102
RTVSPropertyOp15
 70
     1
102
RTVSPropertyOp16
 70
     1
102
RTVSPropertyOp17
 70
     1
102
RTVSPropertyOp18
 70
     1
102
RTVSPropertyOp19
 70
     1
102
RTVSPropertyOp20
 70
     1
102
RTVSPropertyOp21
 70
     1
102
RTVSPropertyOp22
 70
     1
102
RTVSPropertyOp23
 70
     1
102
RTVSPropertyOp24
 70
     1
102
RTVSPropertyOp25
 70
     1
102
RTVSPropertyOp26
 70
     1
102
RTVSPropertyOp27
 70
     1
102
RTVSPropertyOp28
 70
     1
102
RTVSPropertyOp29
 70
     1
102
RTVSPropertyOp30
 70
     1
102
RTVSPropertyOp31
 70
     1
102
RTVSPropertyOp32
 70
     1
102
RTVSPropertyOp33
 70
     1
102
RTVSPropertyOp34
 70
     1
102
RTVSPropertyOp35
 70
     1
102
RTVSPropertyOp36
 70
     1
102
RTVSPropertyOp37
 70
     1
102
RTVSPropertyOp38
 70
     1
102
RTVSPropertyOp39
 70
     1
102
RTVSPropertyOp40
 70
     1
102
RTVSPropertyOp41
 70
     1
102
RTVSPropertyOp42
 70
     1
102
RTVSPropertyOp43
 70
     1
102
RTVSPropertyOp44
 70
     1
102
RTVSPropertyOp45
 70
     1
102
RTVSPropertyOp46
 70
     1
102
RTVSPropertyOp47
 70
     1
102
RTVSPropertyOp48
 70
     1
102
RTVSPropertyOp49
 70
     1
102
RTVSPropertyOp50
 70
     1
102
RTVSPropertyOp51
 70
     0
102
RTVSPropertyOp52
 70
     0
102
RTVSPropertyOp53
 70
     1
102
RTVSPropertyOp54
 70
     1
102
RTVSPropertyOp55
 70
     1
102
RTVSPropertyOp56
 70
     1
102
RTVSPropertyOp57
 70
     1
102
RTVSPropertyOp58
 70
     1
102
RTVSPropertyOp59
 70
     1
102
RTVSPropertyOp60
 70
     1
102
RTVSPropertyOp61
 70
     1
102
RTVSPropertyOp62
 70
     1
  0
XRECORD
  5
84A6
102
{ACAD_REACTORS
330
84A5
102
}
330
84A5
100
AcDbXrecord
280
     1
102
RTVSPost2010Prop28
280
     0
102
RTVSPost2010PropOp28
 70
     1
102
RTVSPost2010Prop29
280
     1
102
RTVSPost2010PropOp29
 70
     1
102
RTVSPost2010Prop30
280
     1
102
RTVSPost2010PropOp30
 70
     1
102
RTVSPost2010Prop31
280
     0
102
RTVSPost2010PropOp31
 70
     1
102
RTVSPost2010Prop32
280
     0
102
RTVSPost2010PropOp32
 70
     1
102
RTVSPost2010Prop33
280
     0
102
RTVSPost2010PropOp33
 70
     1
102
RTVSPost2010Prop34
280
     0
102
RTVSPost2010PropOp34
 70
     1
102
RTVSPost2010Prop35
280
     0
102
RTVSPost2010PropOp35
 70
     1
102
RTVSPost2010Prop36
280
     0
102
RTVSPost2010PropOp36
 70
     1
102
RTVSPost2010Prop37
 90
       50
102
RTVSPost2010PropOp37
 70
     1
102
RTVSPost2010Prop38
140
0.0
102
RTVSPost2010PropOp38
 70
     1
102
RTVSPost2010Prop39
140
1.0
102
RTVSPost2010PropOp39
 70
     1
102
RTVSPost2010Prop40
 90
        0
102
RTVSPost2010PropOp40
 70
     1
102
RTVSPost2010Prop41ColorIndex
 90
       18
102
RTVSPost2010Prop41ColorRGB
 90
        0
102
RTVSPost2010PropOp41
 70
     1
102
RTVSPost2010Prop42
 90
       50
102
RTVSPost2010PropOp42
 70
     1
102
RTVSPost2010Prop43
 90
        3
102
RTVSPost2010PropOp43
 70
     1
102
RTVSPost2010Prop44ColorIndex
 90
        5
102
RTVSPost2010Prop44ColorRGB
 90
      255
102
RTVSPost2010PropOp44
 70
     1
102
RTVSPost2010Prop45
280
     0
102
RTVSPost2010PropOp45
 70
     1
102
RTVSPost2010Prop46
 90
       50
102
RTVSPost2010PropOp46
 70
     1
102
RTVSPost2010Prop47
 90
       50
102
RTVSPost2010PropOp47
 70
     1
102
RTVSPost2010Prop48
 90
       50
102
RTVSPost2010PropOp48
 70
     1
102
RTVSPost2010Prop49
280
     0
102
RTVSPost2010PropOp49
 70
     1
102
RTVSPost2010Prop50
 90
       50
102
RTVSPost2010PropOp50
 70
     1
102
RTVSPost2010Prop51ColorIndex
 90
      256
102
RTVSPost2010Prop51ColorRGB
 90
-16777216
102
RTVSPost2010PropOp51
 70
     0
102
RTVSPost2010Prop52
140
1.0
102
RTVSPost2010PropOp52
 70
     0
102
RTVSPost2010Prop53
 90
        2
102
RTVSPost2010PropOp53
 70
     1
102
RTVSPost2010Prop54
  1
strokes_ogs.tif
102
RTVSPost2010PropOp54
 70
     1
102
RTVSPost2010Prop55
280
     0
102
RTVSPost2010PropOp55
 70
     1
102
RTVSPost2010Prop56
140
1.0
102
RTVSPost2010PropOp56
 70
     1
102
RTVSPost2010Prop57
140
1.0
102
RTVSPost2010PropOp57
 70
     1
102
RTVSPropertyOp0
 70
     1
102
RTVSPropertyOp1
 70
     1
102
RTVSPropertyOp2
 70
     1
102
RTVSPropertyOp3
 70
     1
102
RTVSPropertyOp4
 70
     1
102
RTVSPropertyOp5
 70
     1
102
RTVSPropertyOp6
 70
     1
102
RTVSPropertyOp7
 70
     1
102
RTVSPropertyOp8
 70
     1
102
RTVSPropertyOp9
 70
     1
102
RTVSPropertyOp10
 70
     1
102
RTVSPropertyOp11
 70
     1
102
RTVSPropertyOp12
 70
     1
102
RTVSPropertyOp13
 70
     1
102
RTVSPropertyOp14
 70
     1
102
RTVSPropertyOp15
 70
     1
102
RTVSPropertyOp16
 70
     1
102
RTVSPropertyOp17
 70
     1
102
RTVSPropertyOp18
 70
     1
102
RTVSPropertyOp19
 70
     1
102
RTVSPropertyOp20
 70
     1
102
RTVSPropertyOp21
 70
     1
102
RTVSPropertyOp22
 70
     1
102
RTVSPropertyOp23
 70
     1
102
RTVSPropertyOp24
 70
     1
102
RTVSPropertyOp25
 70
     1
102
RTVSPropertyOp26
 70
     1
102
RTVSPropertyOp27
 70
     1
102
RTVSPropertyOp28
 70
     1
102
RTVSPropertyOp29
 70
     1
102
RTVSPropertyOp30
 70
     1
102
RTVSPropertyOp31
 70
     1
102
RTVSPropertyOp32
 70
     1
102
RTVSPropertyOp33
 70
     1
102
RTVSPropertyOp34
 70
     1
102
RTVSPropertyOp35
 70
     1
102
RTVSPropertyOp36
 70
     1
102
RTVSPropertyOp37
 70
     1
102
RTVSPropertyOp38
 70
     1
102
RTVSPropertyOp39
 70
     1
102
RTVSPropertyOp40
 70
     1
102
RTVSPropertyOp41
 70
     1
102
RTVSPropertyOp42
 70
     1
102
RTVSPropertyOp43
 70
     1
102
RTVSPropertyOp44
 70
     1
102
RTVSPropertyOp45
 70
     1
102
RTVSPropertyOp46
 70
     1
102
RTVSPropertyOp47
 70
     1
102
RTVSPropertyOp48
 70
     1
102
RTVSPropertyOp49
 70
     1
102
RTVSPropertyOp50
 70
     1
102
RTVSPropertyOp51
 70
     0
102
RTVSPropertyOp52
 70
     0
102
RTVSPropertyOp53
 70
     1
102
RTVSPropertyOp54
 70
     1
102
RTVSPropertyOp55
 70
     1
102
RTVSPropertyOp56
 70
     1
102
RTVSPropertyOp57
 70
     1
102
RTVSPropertyOp58
 70
     1
102
RTVSPropertyOp59
 70
     1
102
RTVSPropertyOp60
 70
     1
102
RTVSPropertyOp61
 70
     1
102
RTVSPropertyOp62
 70
     1
  0
XRECORD
  5
84AE
102
{ACAD_REACTORS
330
84AD
102
}
330
84AD
100
AcDbXrecord
280
     1
102
RTVSPost2010Prop28
280
     0
102
RTVSPost2010PropOp28
 70
     1
102
RTVSPost2010Prop29
280
     1
102
RTVSPost2010PropOp29
 70
     1
102
RTVSPost2010Prop30
280
     1
102
RTVSPost2010PropOp30
 70
     1
102
RTVSPost2010Prop31
280
     0
102
RTVSPost2010PropOp31
 70
     1
102
RTVSPost2010Prop32
280
     0
102
RTVSPost2010PropOp32
 70
     1
102
RTVSPost2010Prop33
280
     0
102
RTVSPost2010PropOp33
 70
     1
102
RTVSPost2010Prop34
280
     0
102
RTVSPost2010PropOp34
 70
     1
102
RTVSPost2010Prop35
280
     0
102
RTVSPost2010PropOp35
 70
     1
102
RTVSPost2010Prop36
280
     0
102
RTVSPost2010PropOp36
 70
     1
102
RTVSPost2010Prop37
 90
       50
102
RTVSPost2010PropOp37
 70
     1
102
RTVSPost2010Prop38
140
0.0
102
RTVSPost2010PropOp38
 70
     1
102
RTVSPost2010Prop39
140
1.0
102
RTVSPost2010PropOp39
 70
     1
102
RTVSPost2010Prop40
 90
        0
102
RTVSPost2010PropOp40
 70
     1
102
RTVSPost2010Prop41ColorIndex
 90
       18
102
RTVSPost2010Prop41ColorRGB
 90
        0
102
RTVSPost2010PropOp41
 70
     1
102
RTVSPost2010Prop42
 90
       50
102
RTVSPost2010PropOp42
 70
     1
102
RTVSPost2010Prop43
 90
        3
102
RTVSPost2010PropOp43
 70
     1
102
RTVSPost2010Prop44ColorIndex
 90
        5
102
RTVSPost2010Prop44ColorRGB
 90
      255
102
RTVSPost2010PropOp44
 70
     1
102
RTVSPost2010Prop45
280
     0
102
RTVSPost2010PropOp45
 70
     1
102
RTVSPost2010Prop46
 90
       50
102
RTVSPost2010PropOp46
 70
     1
102
RTVSPost2010Prop47
 90
       50
102
RTVSPost2010PropOp47
 70
     1
102
RTVSPost2010Prop48
 90
       50
102
RTVSPost2010PropOp48
 70
     1
102
RTVSPost2010Prop49
280
     0
102
RTVSPost2010PropOp49
 70
     1
102
RTVSPost2010Prop50
 90
       50
102
RTVSPost2010PropOp50
 70
     1
102
RTVSPost2010Prop51ColorIndex
 90
      256
102
RTVSPost2010Prop51ColorRGB
 90
-16777216
102
RTVSPost2010PropOp51
 70
     0
102
RTVSPost2010Prop52
140
1.0
102
RTVSPost2010PropOp52
 70
     0
102
RTVSPost2010Prop53
 90
        2
102
RTVSPost2010PropOp53
 70
     1
102
RTVSPost2010Prop54
  1
strokes_ogs.tif
102
RTVSPost2010PropOp54
 70
     1
102
RTVSPost2010Prop55
280
     0
102
RTVSPost2010PropOp55
 70
     1
102
RTVSPost2010Prop56
140
1.0
102
RTVSPost2010PropOp56
 70
     1
102
RTVSPost2010Prop57
140
1.0
102
RTVSPost2010PropOp57
 70
     1
102
RTVSPropertyOp0
 70
     1
102
RTVSPropertyOp1
 70
     1
102
RTVSPropertyOp2
 70
     1
102
RTVSPropertyOp3
 70
     1
102
RTVSPropertyOp4
 70
     1
102
RTVSPropertyOp5
 70
     1
102
RTVSPropertyOp6
 70
     1
102
RTVSPropertyOp7
 70
     1
102
RTVSPropertyOp8
 70
     1
102
RTVSPropertyOp9
 70
     1
102
RTVSPropertyOp10
 70
     1
102
RTVSPropertyOp11
 70
     1
102
RTVSPropertyOp12
 70
     1
102
RTVSPropertyOp13
 70
     1
102
RTVSPropertyOp14
 70
     1
102
RTVSPropertyOp15
 70
     1
102
RTVSPropertyOp16
 70
     1
102
RTVSPropertyOp17
 70
     1
102
RTVSPropertyOp18
 70
     1
102
RTVSPropertyOp19
 70
     1
102
RTVSPropertyOp20
 70
     1
102
RTVSPropertyOp21
 70
     1
102
RTVSPropertyOp22
 70
     1
102
RTVSPropertyOp23
 70
     1
102
RTVSPropertyOp24
 70
     1
102
RTVSPropertyOp25
 70
     1
102
RTVSPropertyOp26
 70
     1
102
RTVSPropertyOp27
 70
     1
102
RTVSPropertyOp28
 70
     1
102
RTVSPropertyOp29
 70
     1
102
RTVSPropertyOp30
 70
     1
102
RTVSPropertyOp31
 70
     1
102
RTVSPropertyOp32
 70
     1
102
RTVSPropertyOp33
 70
     1
102
RTVSPropertyOp34
 70
     1
102
RTVSPropertyOp35
 70
     1
102
RTVSPropertyOp36
 70
     1
102
RTVSPropertyOp37
 70
     1
102
RTVSPropertyOp38
 70
     1
102
RTVSPropertyOp39
 70
     1
102
RTVSPropertyOp40
 70
     1
102
RTVSPropertyOp41
 70
     1
102
RTVSPropertyOp42
 70
     1
102
RTVSPropertyOp43
 70
     1
102
RTVSPropertyOp44
 70
     1
102
RTVSPropertyOp45
 70
     1
102
RTVSPropertyOp46
 70
     1
102
RTVSPropertyOp47
 70
     1
102
RTVSPropertyOp48
 70
     1
102
RTVSPropertyOp49
 70
     1
102
RTVSPropertyOp50
 70
     1
102
RTVSPropertyOp51
 70
     0
102
RTVSPropertyOp52
 70
     0
102
RTVSPropertyOp53
 70
     1
102
RTVSPropertyOp54
 70
     1
102
RTVSPropertyOp55
 70
     1
102
RTVSPropertyOp56
 70
     1
102
RTVSPropertyOp57
 70
     1
102
RTVSPropertyOp58
 70
     1
102
RTVSPropertyOp59
 70
     1
102
RTVSPropertyOp60
 70
     1
102
RTVSPropertyOp61
 70
     1
102
RTVSPropertyOp62
 70
     1
  0
XRECORD
  5
84CA
102
{ACAD_REACTORS
330
84C9
102
}
330
84C9
100
AcDbXrecord
280
     1
102
RTVSPost2010Prop28
280
     0
102
RTVSPost2010PropOp28
 70
     1
102
RTVSPost2010Prop29
280
     1
102
RTVSPost2010PropOp29
 70
     1
102
RTVSPost2010Prop30
280
     1
102
RTVSPost2010PropOp30
 70
     1
102
RTVSPost2010Prop31
280
     0
102
RTVSPost2010PropOp31
 70
     1
102
RTVSPost2010Prop32
280
     0
102
RTVSPost2010PropOp32
 70
     1
102
RTVSPost2010Prop33
280
     0
102
RTVSPost2010PropOp33
 70
     1
102
RTVSPost2010Prop34
280
     0
102
RTVSPost2010PropOp34
 70
     1
102
RTVSPost2010Prop35
280
     0
102
RTVSPost2010PropOp35
 70
     1
102
RTVSPost2010Prop36
280
     0
102
RTVSPost2010PropOp36
 70
     1
102
RTVSPost2010Prop37
 90
       50
102
RTVSPost2010PropOp37
 70
     0
102
RTVSPost2010Prop38
140
0.0
102
RTVSPost2010PropOp38
 70
     0
102
RTVSPost2010Prop39
140
1.0
102
RTVSPost2010PropOp39
 70
     0
102
RTVSPost2010Prop40
 90
        0
102
RTVSPost2010PropOp40
 70
     0
102
RTVSPost2010Prop41ColorIndex
 90
       18
102
RTVSPost2010Prop41ColorRGB
 90
        0
102
RTVSPost2010PropOp41
 70
     0
102
RTVSPost2010Prop42
 90
       50
102
RTVSPost2010PropOp42
 70
     0
102
RTVSPost2010Prop43
 90
        3
102
RTVSPost2010PropOp43
 70
     0
102
RTVSPost2010Prop44ColorIndex
 90
        5
102
RTVSPost2010Prop44ColorRGB
 90
      255
102
RTVSPost2010PropOp44
 70
     0
102
RTVSPost2010Prop45
280
     0
102
RTVSPost2010PropOp45
 70
     1
102
RTVSPost2010Prop46
 90
       50
102
RTVSPost2010PropOp46
 70
     0
102
RTVSPost2010Prop47
 90
       50
102
RTVSPost2010PropOp47
 70
     0
102
RTVSPost2010Prop48
 90
       50
102
RTVSPost2010PropOp48
 70
     0
102
RTVSPost2010Prop49
280
     0
102
RTVSPost2010PropOp49
 70
     1
102
RTVSPost2010Prop50
 90
       50
102
RTVSPost2010PropOp50
 70
     0
102
RTVSPost2010Prop51ColorIndex
 90
      256
102
RTVSPost2010Prop51ColorRGB
 90
-16777216
102
RTVSPost2010PropOp51
 70
     0
102
RTVSPost2010Prop52
140
1.0
102
RTVSPost2010PropOp52
 70
     0
102
RTVSPost2010Prop53
 90
        2
102
RTVSPost2010PropOp53
 70
     0
102
RTVSPost2010Prop54
  1
strokes_ogs.tif
102
RTVSPost2010PropOp54
 70
     0
102
RTVSPost2010Prop55
280
     0
102
RTVSPost2010PropOp55
 70
     1
102
RTVSPost2010Prop56
140
1.0
102
RTVSPost2010PropOp56
 70
     0
102
RTVSPost2010Prop57
140
1.0
102
RTVSPost2010PropOp57
 70
     0
102
RTVSPropertyOp0
 70
     0
102
RTVSPropertyOp1
 70
     0
102
RTVSPropertyOp2
 70
     0
102
RTVSPropertyOp3
 70
     0
102
RTVSPropertyOp4
 70
     0
102
RTVSPropertyOp5
 70
     0
102
RTVSPropertyOp6
 70
     0
102
RTVSPropertyOp7
 70
     0
102
RTVSPropertyOp8
 70
     0
102
RTVSPropertyOp9
 70
     0
102
RTVSPropertyOp10
 70
     0
102
RTVSPropertyOp11
 70
     0
102
RTVSPropertyOp12
 70
     0
102
RTVSPropertyOp13
 70
     0
102
RTVSPropertyOp14
 70
     2
102
RTVSPropertyOp15
 70
     0
102
RTVSPropertyOp16
 70
     0
102
RTVSPropertyOp17
 70
     0
102
RTVSPropertyOp18
 70
     0
102
RTVSPropertyOp19
 70
     0
102
RTVSPropertyOp20
 70
     0
102
RTVSPropertyOp21
 70
     0
102
RTVSPropertyOp22
 70
     0
102
RTVSPropertyOp23
 70
     0
102
RTVSPropertyOp24
 70
     0
102
RTVSPropertyOp25
 70
     0
102
RTVSPropertyOp26
 70
     0
102
RTVSPropertyOp27
 70
     0
102
RTVSPropertyOp28
 70
     1
102
RTVSPropertyOp29
 70
     1
102
RTVSPropertyOp30
 70
     1
102
RTVSPropertyOp31
 70
     1
102
RTVSPropertyOp32
 70
     1
102
RTVSPropertyOp33
 70
     1
102
RTVSPropertyOp34
 70
     1
102
RTVSPropertyOp35
 70
     1
102
RTVSPropertyOp36
 70
     1
102
RTVSPropertyOp37
 70
     0
102
RTVSPropertyOp38
 70
     0
102
RTVSPropertyOp39
 70
     0
102
RTVSPropertyOp40
 70
     0
102
RTVSPropertyOp41
 70
     0
102
RTVSPropertyOp42
 70
     0
102
RTVSPropertyOp43
 70
     0
102
RTVSPropertyOp44
 70
     0
102
RTVSPropertyOp45
 70
     1
102
RTVSPropertyOp46
 70
     0
102
RTVSPropertyOp47
 70
     0
102
RTVSPropertyOp48
 70
     0
102
RTVSPropertyOp49
 70
     1
102
RTVSPropertyOp50
 70
     0
102
RTVSPropertyOp51
 70
     0
102
RTVSPropertyOp52
 70
     0
102
RTVSPropertyOp53
 70
     0
102
RTVSPropertyOp54
 70
     0
102
RTVSPropertyOp55
 70
     1
102
RTVSPropertyOp56
 70
     0
102
RTVSPropertyOp57
 70
     0
102
RTVSPropertyOp58
 70
     0
102
RTVSPropertyOp59
 70
     0
102
RTVSPropertyOp60
 70
     0
102
RTVSPropertyOp61
 70
     0
102
RTVSPropertyOp62
 70
     0
  0
XRECORD
  5
84BA
102
{ACAD_REACTORS
330
84B9
102
}
330
84B9
100
AcDbXrecord
280
     1
102
RTVSPost2010Prop28
280
     0
102
RTVSPost2010PropOp28
 70
     1
102
RTVSPost2010Prop29
280
     1
102
RTVSPost2010PropOp29
 70
     1
102
RTVSPost2010Prop30
280
     1
102
RTVSPost2010PropOp30
 70
     1
102
RTVSPost2010Prop31
280
     0
102
RTVSPost2010PropOp31
 70
     1
102
RTVSPost2010Prop32
280
     0
102
RTVSPost2010PropOp32
 70
     1
102
RTVSPost2010Prop33
280
     0
102
RTVSPost2010PropOp33
 70
     1
102
RTVSPost2010Prop34
280
     0
102
RTVSPost2010PropOp34
 70
     1
102
RTVSPost2010Prop35
280
     0
102
RTVSPost2010PropOp35
 70
     1
102
RTVSPost2010Prop36
280
     0
102
RTVSPost2010PropOp36
 70
     1
102
RTVSPost2010Prop37
 90
       50
102
RTVSPost2010PropOp37
 70
     1
102
RTVSPost2010Prop38
140
0.0
102
RTVSPost2010PropOp38
 70
     1
102
RTVSPost2010Prop39
140
1.0
102
RTVSPost2010PropOp39
 70
     1
102
RTVSPost2010Prop40
 90
        0
102
RTVSPost2010PropOp40
 70
     1
102
RTVSPost2010Prop41ColorIndex
 90
       18
102
RTVSPost2010Prop41ColorRGB
 90
        0
102
RTVSPost2010PropOp41
 70
     1
102
RTVSPost2010Prop42
 90
       50
102
RTVSPost2010PropOp42
 70
     1
102
RTVSPost2010Prop43
 90
        3
102
RTVSPost2010PropOp43
 70
     1
102
RTVSPost2010Prop44ColorIndex
 90
        5
102
RTVSPost2010Prop44ColorRGB
 90
      255
102
RTVSPost2010PropOp44
 70
     1
102
RTVSPost2010Prop45
280
     0
102
RTVSPost2010PropOp45
 70
     1
102
RTVSPost2010Prop46
 90
       50
102
RTVSPost2010PropOp46
 70
     1
102
RTVSPost2010Prop47
 90
       50
102
RTVSPost2010PropOp47
 70
     1
102
RTVSPost2010Prop48
 90
       50
102
RTVSPost2010PropOp48
 70
     1
102
RTVSPost2010Prop49
280
     0
102
RTVSPost2010PropOp49
 70
     1
102
RTVSPost2010Prop50
 90
       50
102
RTVSPost2010PropOp50
 70
     1
102
RTVSPost2010Prop51ColorIndex
 90
      256
102
RTVSPost2010Prop51ColorRGB
 90
-16777216
102
RTVSPost2010PropOp51
 70
     0
102
RTVSPost2010Prop52
140
1.0
102
RTVSPost2010PropOp52
 70
     0
102
RTVSPost2010Prop53
 90
        2
102
RTVSPost2010PropOp53
 70
     1
102
RTVSPost2010Prop54
  1
strokes_ogs.tif
102
RTVSPost2010PropOp54
 70
     1
102
RTVSPost2010Prop55
280
     0
102
RTVSPost2010PropOp55
 70
     1
102
RTVSPost2010Prop56
140
1.0
102
RTVSPost2010PropOp56
 70
     1
102
RTVSPost2010Prop57
140
1.0
102
RTVSPost2010PropOp57
 70
     1
102
RTVSPropertyOp0
 70
     1
102
RTVSPropertyOp1
 70
     1
102
RTVSPropertyOp2
 70
     1
102
RTVSPropertyOp3
 70
     1
102
RTVSPropertyOp4
 70
     1
102
RTVSPropertyOp5
 70
     1
102
RTVSPropertyOp6
 70
     1
102
RTVSPropertyOp7
 70
     1
102
RTVSPropertyOp8
 70
     1
102
RTVSPropertyOp9
 70
     1
102
RTVSPropertyOp10
 70
     1
102
RTVSPropertyOp11
 70
     1
102
RTVSPropertyOp12
 70
     1
102
RTVSPropertyOp13
 70
     1
102
RTVSPropertyOp14
 70
     1
102
RTVSPropertyOp15
 70
     1
102
RTVSPropertyOp16
 70
     1
102
RTVSPropertyOp17
 70
     1
102
RTVSPropertyOp18
 70
     1
102
RTVSPropertyOp19
 70
     1
102
RTVSPropertyOp20
 70
     1
102
RTVSPropertyOp21
 70
     1
102
RTVSPropertyOp22
 70
     1
102
RTVSPropertyOp23
 70
     1
102
RTVSPropertyOp24
 70
     1
102
RTVSPropertyOp25
 70
     1
102
RTVSPropertyOp26
 70
     1
102
RTVSPropertyOp27
 70
     1
102
RTVSPropertyOp28
 70
     1
102
RTVSPropertyOp29
 70
     1
102
RTVSPropertyOp30
 70
     1
102
RTVSPropertyOp31
 70
     1
102
RTVSPropertyOp32
 70
     1
102
RTVSPropertyOp33
 70
     1
102
RTVSPropertyOp34
 70
     1
102
RTVSPropertyOp35
 70
     1
102
RTVSPropertyOp36
 70
     1
102
RTVSPropertyOp37
 70
     1
102
RTVSPropertyOp38
 70
     1
102
RTVSPropertyOp39
 70
     1
102
RTVSPropertyOp40
 70
     1
102
RTVSPropertyOp41
 70
     1
102
RTVSPropertyOp42
 70
     1
102
RTVSPropertyOp43
 70
     1
102
RTVSPropertyOp44
 70
     1
102
RTVSPropertyOp45
 70
     1
102
RTVSPropertyOp46
 70
     1
102
RTVSPropertyOp47
 70
     1
102
RTVSPropertyOp48
 70
     1
102
RTVSPropertyOp49
 70
     1
102
RTVSPropertyOp50
 70
     1
102
RTVSPropertyOp51
 70
     0
102
RTVSPropertyOp52
 70
     0
102
RTVSPropertyOp53
 70
     1
102
RTVSPropertyOp54
 70
     1
102
RTVSPropertyOp55
 70
     1
102
RTVSPropertyOp56
 70
     1
102
RTVSPropertyOp57
 70
     1
102
RTVSPropertyOp58
 70
     1
102
RTVSPropertyOp59
 70
     1
102
RTVSPropertyOp60
 70
     1
102
RTVSPropertyOp61
 70
     1
102
RTVSPropertyOp62
 70
     1
  0
XRECORD
  5
84CC
102
{ACAD_REACTORS
330
84CB
102
}
330
84CB
100
AcDbXrecord
280
     1
102
RTVSPost2010Prop28
280
     0
102
RTVSPost2010PropOp28
 70
     1
102
RTVSPost2010Prop29
280
     1
102
RTVSPost2010PropOp29
 70
     1
102
RTVSPost2010Prop30
280
     1
102
RTVSPost2010PropOp30
 70
     1
102
RTVSPost2010Prop31
280
     0
102
RTVSPost2010PropOp31
 70
     1
102
RTVSPost2010Prop32
280
     0
102
RTVSPost2010PropOp32
 70
     1
102
RTVSPost2010Prop33
280
     0
102
RTVSPost2010PropOp33
 70
     1
102
RTVSPost2010Prop34
280
     0
102
RTVSPost2010PropOp34
 70
     1
102
RTVSPost2010Prop35
280
     0
102
RTVSPost2010PropOp35
 70
     1
102
RTVSPost2010Prop36
280
     0
102
RTVSPost2010PropOp36
 70
     1
102
RTVSPost2010Prop37
 90
       50
102
RTVSPost2010PropOp37
 70
     0
102
RTVSPost2010Prop38
140
0.0
102
RTVSPost2010PropOp38
 70
     0
102
RTVSPost2010Prop39
140
1.0
102
RTVSPost2010PropOp39
 70
     0
102
RTVSPost2010Prop40
 90
        0
102
RTVSPost2010PropOp40
 70
     0
102
RTVSPost2010Prop41ColorIndex
 90
       18
102
RTVSPost2010Prop41ColorRGB
 90
        0
102
RTVSPost2010PropOp41
 70
     0
102
RTVSPost2010Prop42
 90
       50
102
RTVSPost2010PropOp42
 70
     0
102
RTVSPost2010Prop43
 90
        3
102
RTVSPost2010PropOp43
 70
     0
102
RTVSPost2010Prop44ColorIndex
 90
        5
102
RTVSPost2010Prop44ColorRGB
 90
      255
102
RTVSPost2010PropOp44
 70
     0
102
RTVSPost2010Prop45
280
     0
102
RTVSPost2010PropOp45
 70
     1
102
RTVSPost2010Prop46
 90
       50
102
RTVSPost2010PropOp46
 70
     0
102
RTVSPost2010Prop47
 90
       50
102
RTVSPost2010PropOp47
 70
     0
102
RTVSPost2010Prop48
 90
       50
102
RTVSPost2010PropOp48
 70
     0
102
RTVSPost2010Prop49
280
     0
102
RTVSPost2010PropOp49
 70
     1
102
RTVSPost2010Prop50
 90
       50
102
RTVSPost2010PropOp50
 70
     0
102
RTVSPost2010Prop51ColorIndex
 90
      256
102
RTVSPost2010Prop51ColorRGB
 90
-16777216
102
RTVSPost2010PropOp51
 70
     0
102
RTVSPost2010Prop52
140
1.0
102
RTVSPost2010PropOp52
 70
     0
102
RTVSPost2010Prop53
 90
        2
102
RTVSPost2010PropOp53
 70
     0
102
RTVSPost2010Prop54
  1
strokes_ogs.tif
102
RTVSPost2010PropOp54
 70
     0
102
RTVSPost2010Prop55
280
     0
102
RTVSPost2010PropOp55
 70
     1
102
RTVSPost2010Prop56
140
1.0
102
RTVSPost2010PropOp56
 70
     0
102
RTVSPost2010Prop57
140
1.0
102
RTVSPost2010PropOp57
 70
     0
102
RTVSPropertyOp0
 70
     0
102
RTVSPropertyOp1
 70
     0
102
RTVSPropertyOp2
 70
     0
102
RTVSPropertyOp3
 70
     0
102
RTVSPropertyOp4
 70
     0
102
RTVSPropertyOp5
 70
     0
102
RTVSPropertyOp6
 70
     0
102
RTVSPropertyOp7
 70
     0
102
RTVSPropertyOp8
 70
     0
102
RTVSPropertyOp9
 70
     0
102
RTVSPropertyOp10
 70
     0
102
RTVSPropertyOp11
 70
     0
102
RTVSPropertyOp12
 70
     0
102
RTVSPropertyOp13
 70
     0
102
RTVSPropertyOp14
 70
     2
102
RTVSPropertyOp15
 70
     0
102
RTVSPropertyOp16
 70
     0
102
RTVSPropertyOp17
 70
     0
102
RTVSPropertyOp18
 70
     0
102
RTVSPropertyOp19
 70
     0
102
RTVSPropertyOp20
 70
     0
102
RTVSPropertyOp21
 70
     0
102
RTVSPropertyOp22
 70
     0
102
RTVSPropertyOp23
 70
     0
102
RTVSPropertyOp24
 70
     0
102
RTVSPropertyOp25
 70
     0
102
RTVSPropertyOp26
 70
     0
102
RTVSPropertyOp27
 70
     0
102
RTVSPropertyOp28
 70
     1
102
RTVSPropertyOp29
 70
     1
102
RTVSPropertyOp30
 70
     1
102
RTVSPropertyOp31
 70
     1
102
RTVSPropertyOp32
 70
     1
102
RTVSPropertyOp33
 70
     1
102
RTVSPropertyOp34
 70
     1
102
RTVSPropertyOp35
 70
     1
102
RTVSPropertyOp36
 70
     1
102
RTVSPropertyOp37
 70
     0
102
RTVSPropertyOp38
 70
     0
102
RTVSPropertyOp39
 70
     0
102
RTVSPropertyOp40
 70
     0
102
RTVSPropertyOp41
 70
     0
102
RTVSPropertyOp42
 70
     0
102
RTVSPropertyOp43
 70
     0
102
RTVSPropertyOp44
 70
     0
102
RTVSPropertyOp45
 70
     1
102
RTVSPropertyOp46
 70
     0
102
RTVSPropertyOp47
 70
     0
102
RTVSPropertyOp48
 70
     0
102
RTVSPropertyOp49
 70
     1
102
RTVSPropertyOp50
 70
     0
102
RTVSPropertyOp51
 70
     0
102
RTVSPropertyOp52
 70
     0
102
RTVSPropertyOp53
 70
     0
102
RTVSPropertyOp54
 70
     0
102
RTVSPropertyOp55
 70
     1
102
RTVSPropertyOp56
 70
     0
102
RTVSPropertyOp57
 70
     0
102
RTVSPropertyOp58
 70
     0
102
RTVSPropertyOp59
 70
     0
102
RTVSPropertyOp60
 70
     0
102
RTVSPropertyOp61
 70
     0
102
RTVSPropertyOp62
 70
     0
  0
XRECORD
  5
84B2
102
{ACAD_REACTORS
330
84B1
102
}
330
84B1
100
AcDbXrecord
280
     1
102
RTVSPost2010Prop28
280
     0
102
RTVSPost2010PropOp28
 70
     1
102
RTVSPost2010Prop29
280
     1
102
RTVSPost2010PropOp29
 70
     1
102
RTVSPost2010Prop30
280
     1
102
RTVSPost2010PropOp30
 70
     1
102
RTVSPost2010Prop31
280
     0
102
RTVSPost2010PropOp31
 70
     1
102
RTVSPost2010Prop32
280
     0
102
RTVSPost2010PropOp32
 70
     1
102
RTVSPost2010Prop33
280
     0
102
RTVSPost2010PropOp33
 70
     1
102
RTVSPost2010Prop34
280
     0
102
RTVSPost2010PropOp34
 70
     1
102
RTVSPost2010Prop35
280
     0
102
RTVSPost2010PropOp35
 70
     1
102
RTVSPost2010Prop36
280
     0
102
RTVSPost2010PropOp36
 70
     1
102
RTVSPost2010Prop37
 90
       50
102
RTVSPost2010PropOp37
 70
     1
102
RTVSPost2010Prop38
140
0.0
102
RTVSPost2010PropOp38
 70
     1
102
RTVSPost2010Prop39
140
1.0
102
RTVSPost2010PropOp39
 70
     1
102
RTVSPost2010Prop40
 90
        0
102
RTVSPost2010PropOp40
 70
     1
102
RTVSPost2010Prop41ColorIndex
 90
       18
102
RTVSPost2010Prop41ColorRGB
 90
        0
102
RTVSPost2010PropOp41
 70
     1
102
RTVSPost2010Prop42
 90
       50
102
RTVSPost2010PropOp42
 70
     1
102
RTVSPost2010Prop43
 90
        3
102
RTVSPost2010PropOp43
 70
     1
102
RTVSPost2010Prop44ColorIndex
 90
        5
102
RTVSPost2010Prop44ColorRGB
 90
      255
102
RTVSPost2010PropOp44
 70
     1
102
RTVSPost2010Prop45
280
     0
102
RTVSPost2010PropOp45
 70
     1
102
RTVSPost2010Prop46
 90
       50
102
RTVSPost2010PropOp46
 70
     1
102
RTVSPost2010Prop47
 90
       50
102
RTVSPost2010PropOp47
 70
     1
102
RTVSPost2010Prop48
 90
       50
102
RTVSPost2010PropOp48
 70
     1
102
RTVSPost2010Prop49
280
     0
102
RTVSPost2010PropOp49
 70
     1
102
RTVSPost2010Prop50
 90
       50
102
RTVSPost2010PropOp50
 70
     1
102
RTVSPost2010Prop51ColorIndex
 90
      256
102
RTVSPost2010Prop51ColorRGB
 90
-16777216
102
RTVSPost2010PropOp51
 70
     0
102
RTVSPost2010Prop52
140
1.0
102
RTVSPost2010PropOp52
 70
     0
102
RTVSPost2010Prop53
 90
        2
102
RTVSPost2010PropOp53
 70
     1
102
RTVSPost2010Prop54
  1
strokes_ogs.tif
102
RTVSPost2010PropOp54
 70
     1
102
RTVSPost2010Prop55
280
     0
102
RTVSPost2010PropOp55
 70
     1
102
RTVSPost2010Prop56
140
1.0
102
RTVSPost2010PropOp56
 70
     1
102
RTVSPost2010Prop57
140
1.0
102
RTVSPost2010PropOp57
 70
     1
102
RTVSPropertyOp0
 70
     1
102
RTVSPropertyOp1
 70
     1
102
RTVSPropertyOp2
 70
     1
102
RTVSPropertyOp3
 70
     1
102
RTVSPropertyOp4
 70
     1
102
RTVSPropertyOp5
 70
     1
102
RTVSPropertyOp6
 70
     1
102
RTVSPropertyOp7
 70
     1
102
RTVSPropertyOp8
 70
     1
102
RTVSPropertyOp9
 70
     1
102
RTVSPropertyOp10
 70
     1
102
RTVSPropertyOp11
 70
     1
102
RTVSPropertyOp12
 70
     1
102
RTVSPropertyOp13
 70
     1
102
RTVSPropertyOp14
 70
     1
102
RTVSPropertyOp15
 70
     1
102
RTVSPropertyOp16
 70
     1
102
RTVSPropertyOp17
 70
     1
102
RTVSPropertyOp18
 70
     1
102
RTVSPropertyOp19
 70
     1
102
RTVSPropertyOp20
 70
     1
102
RTVSPropertyOp21
 70
     1
102
RTVSPropertyOp22
 70
     1
102
RTVSPropertyOp23
 70
     1
102
RTVSPropertyOp24
 70
     1
102
RTVSPropertyOp25
 70
     1
102
RTVSPropertyOp26
 70
     1
102
RTVSPropertyOp27
 70
     1
102
RTVSPropertyOp28
 70
     1
102
RTVSPropertyOp29
 70
     1
102
RTVSPropertyOp30
 70
     1
102
RTVSPropertyOp31
 70
     1
102
RTVSPropertyOp32
 70
     1
102
RTVSPropertyOp33
 70
     1
102
RTVSPropertyOp34
 70
     1
102
RTVSPropertyOp35
 70
     1
102
RTVSPropertyOp36
 70
     1
102
RTVSPropertyOp37
 70
     1
102
RTVSPropertyOp38
 70
     1
102
RTVSPropertyOp39
 70
     1
102
RTVSPropertyOp40
 70
     1
102
RTVSPropertyOp41
 70
     1
102
RTVSPropertyOp42
 70
     1
102
RTVSPropertyOp43
 70
     1
102
RTVSPropertyOp44
 70
     1
102
RTVSPropertyOp45
 70
     1
102
RTVSPropertyOp46
 70
     1
102
RTVSPropertyOp47
 70
     1
102
RTVSPropertyOp48
 70
     1
102
RTVSPropertyOp49
 70
     1
102
RTVSPropertyOp50
 70
     1
102
RTVSPropertyOp51
 70
     0
102
RTVSPropertyOp52
 70
     0
102
RTVSPropertyOp53
 70
     1
102
RTVSPropertyOp54
 70
     1
102
RTVSPropertyOp55
 70
     1
102
RTVSPropertyOp56
 70
     1
102
RTVSPropertyOp57
 70
     1
102
RTVSPropertyOp58
 70
     1
102
RTVSPropertyOp59
 70
     1
102
RTVSPropertyOp60
 70
     1
102
RTVSPropertyOp61
 70
     1
102
RTVSPropertyOp62
 70
     1
  0
XRECORD
  5
84C8
102
{ACAD_REACTORS
330
84C7
102
}
330
84C7
100
AcDbXrecord
280
     1
102
RTVSPost2010Prop28
280
     0
102
RTVSPost2010PropOp28
 70
     1
102
RTVSPost2010Prop29
280
     1
102
RTVSPost2010PropOp29
 70
     1
102
RTVSPost2010Prop30
280
     1
102
RTVSPost2010PropOp30
 70
     1
102
RTVSPost2010Prop31
280
     0
102
RTVSPost2010PropOp31
 70
     1
102
RTVSPost2010Prop32
280
     0
102
RTVSPost2010PropOp32
 70
     1
102
RTVSPost2010Prop33
280
     0
102
RTVSPost2010PropOp33
 70
     1
102
RTVSPost2010Prop34
280
     0
102
RTVSPost2010PropOp34
 70
     1
102
RTVSPost2010Prop35
280
     0
102
RTVSPost2010PropOp35
 70
     1
102
RTVSPost2010Prop36
280
     0
102
RTVSPost2010PropOp36
 70
     1
102
RTVSPost2010Prop37
 90
       50
102
RTVSPost2010PropOp37
 70
     1
102
RTVSPost2010Prop38
140
0.0
102
RTVSPost2010PropOp38
 70
     1
102
RTVSPost2010Prop39
140
1.0
102
RTVSPost2010PropOp39
 70
     1
102
RTVSPost2010Prop40
 90
        0
102
RTVSPost2010PropOp40
 70
     1
102
RTVSPost2010Prop41ColorIndex
 90
       18
102
RTVSPost2010Prop41ColorRGB
 90
        0
102
RTVSPost2010PropOp41
 70
     1
102
RTVSPost2010Prop42
 90
       50
102
RTVSPost2010PropOp42
 70
     1
102
RTVSPost2010Prop43
 90
        3
102
RTVSPost2010PropOp43
 70
     1
102
RTVSPost2010Prop44ColorIndex
 90
        5
102
RTVSPost2010Prop44ColorRGB
 90
      255
102
RTVSPost2010PropOp44
 70
     1
102
RTVSPost2010Prop45
280
     0
102
RTVSPost2010PropOp45
 70
     1
102
RTVSPost2010Prop46
 90
       50
102
RTVSPost2010PropOp46
 70
     1
102
RTVSPost2010Prop47
 90
       50
102
RTVSPost2010PropOp47
 70
     1
102
RTVSPost2010Prop48
 90
       50
102
RTVSPost2010PropOp48
 70
     1
102
RTVSPost2010Prop49
280
     0
102
RTVSPost2010PropOp49
 70
     1
102
RTVSPost2010Prop50
 90
       50
102
RTVSPost2010PropOp50
 70
     1
102
RTVSPost2010Prop51ColorIndex
 90
      256
102
RTVSPost2010Prop51ColorRGB
 90
-16777216
102
RTVSPost2010PropOp51
 70
     0
102
RTVSPost2010Prop52
140
1.0
102
RTVSPost2010PropOp52
 70
     0
102
RTVSPost2010Prop53
 90
        2
102
RTVSPost2010PropOp53
 70
     1
102
RTVSPost2010Prop54
  1
strokes_ogs.tif
102
RTVSPost2010PropOp54
 70
     1
102
RTVSPost2010Prop55
280
     0
102
RTVSPost2010PropOp55
 70
     1
102
RTVSPost2010Prop56
140
1.0
102
RTVSPost2010PropOp56
 70
     1
102
RTVSPost2010Prop57
140
1.0
102
RTVSPost2010PropOp57
 70
     1
102
RTVSPropertyOp0
 70
     1
102
RTVSPropertyOp1
 70
     1
102
RTVSPropertyOp2
 70
     1
102
RTVSPropertyOp3
 70
     1
102
RTVSPropertyOp4
 70
     1
102
RTVSPropertyOp5
 70
     1
102
RTVSPropertyOp6
 70
     1
102
RTVSPropertyOp7
 70
     1
102
RTVSPropertyOp8
 70
     1
102
RTVSPropertyOp9
 70
     1
102
RTVSPropertyOp10
 70
     1
102
RTVSPropertyOp11
 70
     1
102
RTVSPropertyOp12
 70
     1
102
RTVSPropertyOp13
 70
     1
102
RTVSPropertyOp14
 70
     1
102
RTVSPropertyOp15
 70
     1
102
RTVSPropertyOp16
 70
     1
102
RTVSPropertyOp17
 70
     1
102
RTVSPropertyOp18
 70
     1
102
RTVSPropertyOp19
 70
     1
102
RTVSPropertyOp20
 70
     1
102
RTVSPropertyOp21
 70
     1
102
RTVSPropertyOp22
 70
     1
102
RTVSPropertyOp23
 70
     1
102
RTVSPropertyOp24
 70
     1
102
RTVSPropertyOp25
 70
     1
102
RTVSPropertyOp26
 70
     1
102
RTVSPropertyOp27
 70
     1
102
RTVSPropertyOp28
 70
     1
102
RTVSPropertyOp29
 70
     1
102
RTVSPropertyOp30
 70
     1
102
RTVSPropertyOp31
 70
     1
102
RTVSPropertyOp32
 70
     1
102
RTVSPropertyOp33
 70
     1
102
RTVSPropertyOp34
 70
     1
102
RTVSPropertyOp35
 70
     1
102
RTVSPropertyOp36
 70
     1
102
RTVSPropertyOp37
 70
     1
102
RTVSPropertyOp38
 70
     1
102
RTVSPropertyOp39
 70
     1
102
RTVSPropertyOp40
 70
     1
102
RTVSPropertyOp41
 70
     1
102
RTVSPropertyOp42
 70
     1
102
RTVSPropertyOp43
 70
     1
102
RTVSPropertyOp44
 70
     1
102
RTVSPropertyOp45
 70
     1
102
RTVSPropertyOp46
 70
     1
102
RTVSPropertyOp47
 70
     1
102
RTVSPropertyOp48
 70
     1
102
RTVSPropertyOp49
 70
     1
102
RTVSPropertyOp50
 70
     1
102
RTVSPropertyOp51
 70
     0
102
RTVSPropertyOp52
 70
     0
102
RTVSPropertyOp53
 70
     1
102
RTVSPropertyOp54
 70
     1
102
RTVSPropertyOp55
 70
     1
102
RTVSPropertyOp56
 70
     1
102
RTVSPropertyOp57
 70
     1
102
RTVSPropertyOp58
 70
     1
102
RTVSPropertyOp59
 70
     1
102
RTVSPropertyOp60
 70
     1
102
RTVSPropertyOp61
 70
     1
102
RTVSPropertyOp62
 70
     1
  0
XRECORD
  5
84C6
102
{ACAD_REACTORS
330
84C5
102
}
330
84C5
100
AcDbXrecord
280
     1
102
RTVSPost2010Prop28
280
     0
102
RTVSPost2010PropOp28
 70
     1
102
RTVSPost2010Prop29
280
     1
102
RTVSPost2010PropOp29
 70
     1
102
RTVSPost2010Prop30
280
     1
102
RTVSPost2010PropOp30
 70
     1
102
RTVSPost2010Prop31
280
     0
102
RTVSPost2010PropOp31
 70
     1
102
RTVSPost2010Prop32
280
     0
102
RTVSPost2010PropOp32
 70
     1
102
RTVSPost2010Prop33
280
     0
102
RTVSPost2010PropOp33
 70
     1
102
RTVSPost2010Prop34
280
     0
102
RTVSPost2010PropOp34
 70
     1
102
RTVSPost2010Prop35
280
     0
102
RTVSPost2010PropOp35
 70
     1
102
RTVSPost2010Prop36
280
     0
102
RTVSPost2010PropOp36
 70
     1
102
RTVSPost2010Prop37
 90
       50
102
RTVSPost2010PropOp37
 70
     1
102
RTVSPost2010Prop38
140
0.0
102
RTVSPost2010PropOp38
 70
     1
102
RTVSPost2010Prop39
140
1.0
102
RTVSPost2010PropOp39
 70
     1
102
RTVSPost2010Prop40
 90
        0
102
RTVSPost2010PropOp40
 70
     1
102
RTVSPost2010Prop41ColorIndex
 90
       18
102
RTVSPost2010Prop41ColorRGB
 90
        0
102
RTVSPost2010PropOp41
 70
     1
102
RTVSPost2010Prop42
 90
       50
102
RTVSPost2010PropOp42
 70
     1
102
RTVSPost2010Prop43
 90
        3
102
RTVSPost2010PropOp43
 70
     1
102
RTVSPost2010Prop44ColorIndex
 90
        5
102
RTVSPost2010Prop44ColorRGB
 90
      255
102
RTVSPost2010PropOp44
 70
     1
102
RTVSPost2010Prop45
280
     0
102
RTVSPost2010PropOp45
 70
     1
102
RTVSPost2010Prop46
 90
       50
102
RTVSPost2010PropOp46
 70
     1
102
RTVSPost2010Prop47
 90
       50
102
RTVSPost2010PropOp47
 70
     1
102
RTVSPost2010Prop48
 90
       50
102
RTVSPost2010PropOp48
 70
     1
102
RTVSPost2010Prop49
280
     0
102
RTVSPost2010PropOp49
 70
     1
102
RTVSPost2010Prop50
 90
       50
102
RTVSPost2010PropOp50
 70
     1
102
RTVSPost2010Prop51ColorIndex
 90
      256
102
RTVSPost2010Prop51ColorRGB
 90
-16777216
102
RTVSPost2010PropOp51
 70
     0
102
RTVSPost2010Prop52
140
1.0
102
RTVSPost2010PropOp52
 70
     0
102
RTVSPost2010Prop53
 90
        2
102
RTVSPost2010PropOp53
 70
     1
102
RTVSPost2010Prop54
  1
strokes_ogs.tif
102
RTVSPost2010PropOp54
 70
     1
102
RTVSPost2010Prop55
280
     0
102
RTVSPost2010PropOp55
 70
     1
102
RTVSPost2010Prop56
140
1.0
102
RTVSPost2010PropOp56
 70
     1
102
RTVSPost2010Prop57
140
1.0
102
RTVSPost2010PropOp57
 70
     1
102
RTVSPropertyOp0
 70
     1
102
RTVSPropertyOp1
 70
     1
102
RTVSPropertyOp2
 70
     1
102
RTVSPropertyOp3
 70
     1
102
RTVSPropertyOp4
 70
     1
102
RTVSPropertyOp5
 70
     1
102
RTVSPropertyOp6
 70
     1
102
RTVSPropertyOp7
 70
     1
102
RTVSPropertyOp8
 70
     1
102
RTVSPropertyOp9
 70
     1
102
RTVSPropertyOp10
 70
     1
102
RTVSPropertyOp11
 70
     1
102
RTVSPropertyOp12
 70
     1
102
RTVSPropertyOp13
 70
     1
102
RTVSPropertyOp14
 70
     1
102
RTVSPropertyOp15
 70
     1
102
RTVSPropertyOp16
 70
     1
102
RTVSPropertyOp17
 70
     1
102
RTVSPropertyOp18
 70
     1
102
RTVSPropertyOp19
 70
     1
102
RTVSPropertyOp20
 70
     1
102
RTVSPropertyOp21
 70
     1
102
RTVSPropertyOp22
 70
     1
102
RTVSPropertyOp23
 70
     1
102
RTVSPropertyOp24
 70
     1
102
RTVSPropertyOp25
 70
     1
102
RTVSPropertyOp26
 70
     1
102
RTVSPropertyOp27
 70
     1
102
RTVSPropertyOp28
 70
     1
102
RTVSPropertyOp29
 70
     1
102
RTVSPropertyOp30
 70
     1
102
RTVSPropertyOp31
 70
     1
102
RTVSPropertyOp32
 70
     1
102
RTVSPropertyOp33
 70
     1
102
RTVSPropertyOp34
 70
     1
102
RTVSPropertyOp35
 70
     1
102
RTVSPropertyOp36
 70
     1
102
RTVSPropertyOp37
 70
     1
102
RTVSPropertyOp38
 70
     1
102
RTVSPropertyOp39
 70
     1
102
RTVSPropertyOp40
 70
     1
102
RTVSPropertyOp41
 70
     1
102
RTVSPropertyOp42
 70
     1
102
RTVSPropertyOp43
 70
     1
102
RTVSPropertyOp44
 70
     1
102
RTVSPropertyOp45
 70
     1
102
RTVSPropertyOp46
 70
     1
102
RTVSPropertyOp47
 70
     1
102
RTVSPropertyOp48
 70
     1
102
RTVSPropertyOp49
 70
     1
102
RTVSPropertyOp50
 70
     1
102
RTVSPropertyOp51
 70
     0
102
RTVSPropertyOp52
 70
     0
102
RTVSPropertyOp53
 70
     1
102
RTVSPropertyOp54
 70
     1
102
RTVSPropertyOp55
 70
     1
102
RTVSPropertyOp56
 70
     1
102
RTVSPropertyOp57
 70
     1
102
RTVSPropertyOp58
 70
     1
102
RTVSPropertyOp59
 70
     1
102
RTVSPropertyOp60
 70
     1
102
RTVSPropertyOp61
 70
     1
102
RTVSPropertyOp62
 70
     1
  0
XRECORD
  5
84C0
102
{ACAD_REACTORS
330
84BF
102
}
330
84BF
100
AcDbXrecord
280
     1
102
RTVSPost2010Prop28
280
     0
102
RTVSPost2010PropOp28
 70
     1
102
RTVSPost2010Prop29
280
     1
102
RTVSPost2010PropOp29
 70
     1
102
RTVSPost2010Prop30
280
     1
102
RTVSPost2010PropOp30
 70
     1
102
RTVSPost2010Prop31
280
     0
102
RTVSPost2010PropOp31
 70
     1
102
RTVSPost2010Prop32
280
     0
102
RTVSPost2010PropOp32
 70
     1
102
RTVSPost2010Prop33
280
     0
102
RTVSPost2010PropOp33
 70
     1
102
RTVSPost2010Prop34
280
     0
102
RTVSPost2010PropOp34
 70
     1
102
RTVSPost2010Prop35
280
     0
102
RTVSPost2010PropOp35
 70
     1
102
RTVSPost2010Prop36
280
     0
102
RTVSPost2010PropOp36
 70
     1
102
RTVSPost2010Prop37
 90
       50
102
RTVSPost2010PropOp37
 70
     1
102
RTVSPost2010Prop38
140
0.0
102
RTVSPost2010PropOp38
 70
     1
102
RTVSPost2010Prop39
140
1.0
102
RTVSPost2010PropOp39
 70
     1
102
RTVSPost2010Prop40
 90
        0
102
RTVSPost2010PropOp40
 70
     1
102
RTVSPost2010Prop41ColorIndex
 90
       18
102
RTVSPost2010Prop41ColorRGB
 90
        0
102
RTVSPost2010PropOp41
 70
     1
102
RTVSPost2010Prop42
 90
       50
102
RTVSPost2010PropOp42
 70
     1
102
RTVSPost2010Prop43
 90
        3
102
RTVSPost2010PropOp43
 70
     1
102
RTVSPost2010Prop44ColorIndex
 90
        5
102
RTVSPost2010Prop44ColorRGB
 90
      255
102
RTVSPost2010PropOp44
 70
     1
102
RTVSPost2010Prop45
280
     0
102
RTVSPost2010PropOp45
 70
     1
102
RTVSPost2010Prop46
 90
       50
102
RTVSPost2010PropOp46
 70
     1
102
RTVSPost2010Prop47
 90
       50
102
RTVSPost2010PropOp47
 70
     1
102
RTVSPost2010Prop48
 90
       50
102
RTVSPost2010PropOp48
 70
     1
102
RTVSPost2010Prop49
280
     0
102
RTVSPost2010PropOp49
 70
     1
102
RTVSPost2010Prop50
 90
       50
102
RTVSPost2010PropOp50
 70
     1
102
RTVSPost2010Prop51ColorIndex
 90
      256
102
RTVSPost2010Prop51ColorRGB
 90
-16777216
102
RTVSPost2010PropOp51
 70
     0
102
RTVSPost2010Prop52
140
1.0
102
RTVSPost2010PropOp52
 70
     0
102
RTVSPost2010Prop53
 90
        2
102
RTVSPost2010PropOp53
 70
     1
102
RTVSPost2010Prop54
  1
strokes_ogs.tif
102
RTVSPost2010PropOp54
 70
     1
102
RTVSPost2010Prop55
280
     0
102
RTVSPost2010PropOp55
 70
     1
102
RTVSPost2010Prop56
140
1.0
102
RTVSPost2010PropOp56
 70
     1
102
RTVSPost2010Prop57
140
1.0
102
RTVSPost2010PropOp57
 70
     1
102
RTVSPropertyOp0
 70
     1
102
RTVSPropertyOp1
 70
     1
102
RTVSPropertyOp2
 70
     1
102
RTVSPropertyOp3
 70
     1
102
RTVSPropertyOp4
 70
     1
102
RTVSPropertyOp5
 70
     1
102
RTVSPropertyOp6
 70
     1
102
RTVSPropertyOp7
 70
     1
102
RTVSPropertyOp8
 70
     1
102
RTVSPropertyOp9
 70
     1
102
RTVSPropertyOp10
 70
     1
102
RTVSPropertyOp11
 70
     1
102
RTVSPropertyOp12
 70
     1
102
RTVSPropertyOp13
 70
     1
102
RTVSPropertyOp14
 70
     1
102
RTVSPropertyOp15
 70
     1
102
RTVSPropertyOp16
 70
     1
102
RTVSPropertyOp17
 70
     1
102
RTVSPropertyOp18
 70
     1
102
RTVSPropertyOp19
 70
     1
102
RTVSPropertyOp20
 70
     1
102
RTVSPropertyOp21
 70
     1
102
RTVSPropertyOp22
 70
     1
102
RTVSPropertyOp23
 70
     1
102
RTVSPropertyOp24
 70
     1
102
RTVSPropertyOp25
 70
     1
102
RTVSPropertyOp26
 70
     1
102
RTVSPropertyOp27
 70
     1
102
RTVSPropertyOp28
 70
     1
102
RTVSPropertyOp29
 70
     1
102
RTVSPropertyOp30
 70
     1
102
RTVSPropertyOp31
 70
     1
102
RTVSPropertyOp32
 70
     1
102
RTVSPropertyOp33
 70
     1
102
RTVSPropertyOp34
 70
     1
102
RTVSPropertyOp35
 70
     1
102
RTVSPropertyOp36
 70
     1
102
RTVSPropertyOp37
 70
     1
102
RTVSPropertyOp38
 70
     1
102
RTVSPropertyOp39
 70
     1
102
RTVSPropertyOp40
 70
     1
102
RTVSPropertyOp41
 70
     1
102
RTVSPropertyOp42
 70
     1
102
RTVSPropertyOp43
 70
     1
102
RTVSPropertyOp44
 70
     1
102
RTVSPropertyOp45
 70
     1
102
RTVSPropertyOp46
 70
     1
102
RTVSPropertyOp47
 70
     1
102
RTVSPropertyOp48
 70
     1
102
RTVSPropertyOp49
 70
     1
102
RTVSPropertyOp50
 70
     1
102
RTVSPropertyOp51
 70
     0
102
RTVSPropertyOp52
 70
     0
102
RTVSPropertyOp53
 70
     1
102
RTVSPropertyOp54
 70
     1
102
RTVSPropertyOp55
 70
     1
102
RTVSPropertyOp56
 70
     1
102
RTVSPropertyOp57
 70
     1
102
RTVSPropertyOp58
 70
     1
102
RTVSPropertyOp59
 70
     1
102
RTVSPropertyOp60
 70
     1
102
RTVSPropertyOp61
 70
     1
102
RTVSPropertyOp62
 70
     1
  0
XRECORD
  5
84C2
102
{ACAD_REACTORS
330
84C1
102
}
330
84C1
100
AcDbXrecord
280
     1
102
RTVSPost2010Prop28
280
     0
102
RTVSPost2010PropOp28
 70
     1
102
RTVSPost2010Prop29
280
     1
102
RTVSPost2010PropOp29
 70
     1
102
RTVSPost2010Prop30
280
     1
102
RTVSPost2010PropOp30
 70
     1
102
RTVSPost2010Prop31
280
     0
102
RTVSPost2010PropOp31
 70
     1
102
RTVSPost2010Prop32
280
     0
102
RTVSPost2010PropOp32
 70
     1
102
RTVSPost2010Prop33
280
     0
102
RTVSPost2010PropOp33
 70
     1
102
RTVSPost2010Prop34
280
     0
102
RTVSPost2010PropOp34
 70
     1
102
RTVSPost2010Prop35
280
     0
102
RTVSPost2010PropOp35
 70
     1
102
RTVSPost2010Prop36
280
     0
102
RTVSPost2010PropOp36
 70
     1
102
RTVSPost2010Prop37
 90
       50
102
RTVSPost2010PropOp37
 70
     1
102
RTVSPost2010Prop38
140
0.0
102
RTVSPost2010PropOp38
 70
     1
102
RTVSPost2010Prop39
140
1.0
102
RTVSPost2010PropOp39
 70
     1
102
RTVSPost2010Prop40
 90
        0
102
RTVSPost2010PropOp40
 70
     1
102
RTVSPost2010Prop41ColorIndex
 90
       18
102
RTVSPost2010Prop41ColorRGB
 90
        0
102
RTVSPost2010PropOp41
 70
     1
102
RTVSPost2010Prop42
 90
       50
102
RTVSPost2010PropOp42
 70
     1
102
RTVSPost2010Prop43
 90
        3
102
RTVSPost2010PropOp43
 70
     1
102
RTVSPost2010Prop44ColorIndex
 90
        5
102
RTVSPost2010Prop44ColorRGB
 90
      255
102
RTVSPost2010PropOp44
 70
     1
102
RTVSPost2010Prop45
280
     0
102
RTVSPost2010PropOp45
 70
     1
102
RTVSPost2010Prop46
 90
       50
102
RTVSPost2010PropOp46
 70
     1
102
RTVSPost2010Prop47
 90
       50
102
RTVSPost2010PropOp47
 70
     1
102
RTVSPost2010Prop48
 90
       50
102
RTVSPost2010PropOp48
 70
     1
102
RTVSPost2010Prop49
280
     0
102
RTVSPost2010PropOp49
 70
     1
102
RTVSPost2010Prop50
 90
       50
102
RTVSPost2010PropOp50
 70
     1
102
RTVSPost2010Prop51ColorIndex
 90
      256
102
RTVSPost2010Prop51ColorRGB
 90
-16777216
102
RTVSPost2010PropOp51
 70
     0
102
RTVSPost2010Prop52
140
1.0
102
RTVSPost2010PropOp52
 70
     0
102
RTVSPost2010Prop53
 90
        2
102
RTVSPost2010PropOp53
 70
     1
102
RTVSPost2010Prop54
  1
strokes_ogs.tif
102
RTVSPost2010PropOp54
 70
     1
102
RTVSPost2010Prop55
280
     0
102
RTVSPost2010PropOp55
 70
     1
102
RTVSPost2010Prop56
140
1.0
102
RTVSPost2010PropOp56
 70
     1
102
RTVSPost2010Prop57
140
1.0
102
RTVSPost2010PropOp57
 70
     1
102
RTVSPropertyOp0
 70
     1
102
RTVSPropertyOp1
 70
     1
102
RTVSPropertyOp2
 70
     1
102
RTVSPropertyOp3
 70
     1
102
RTVSPropertyOp4
 70
     1
102
RTVSPropertyOp5
 70
     1
102
RTVSPropertyOp6
 70
     1
102
RTVSPropertyOp7
 70
     1
102
RTVSPropertyOp8
 70
     1
102
RTVSPropertyOp9
 70
     1
102
RTVSPropertyOp10
 70
     1
102
RTVSPropertyOp11
 70
     1
102
RTVSPropertyOp12
 70
     1
102
RTVSPropertyOp13
 70
     1
102
RTVSPropertyOp14
 70
     1
102
RTVSPropertyOp15
 70
     1
102
RTVSPropertyOp16
 70
     1
102
RTVSPropertyOp17
 70
     1
102
RTVSPropertyOp18
 70
     1
102
RTVSPropertyOp19
 70
     1
102
RTVSPropertyOp20
 70
     1
102
RTVSPropertyOp21
 70
     1
102
RTVSPropertyOp22
 70
     1
102
RTVSPropertyOp23
 70
     1
102
RTVSPropertyOp24
 70
     1
102
RTVSPropertyOp25
 70
     1
102
RTVSPropertyOp26
 70
     1
102
RTVSPropertyOp27
 70
     1
102
RTVSPropertyOp28
 70
     1
102
RTVSPropertyOp29
 70
     1
102
RTVSPropertyOp30
 70
     1
102
RTVSPropertyOp31
 70
     1
102
RTVSPropertyOp32
 70
     1
102
RTVSPropertyOp33
 70
     1
102
RTVSPropertyOp34
 70
     1
102
RTVSPropertyOp35
 70
     1
102
RTVSPropertyOp36
 70
     1
102
RTVSPropertyOp37
 70
     1
102
RTVSPropertyOp38
 70
     1
102
RTVSPropertyOp39
 70
     1
102
RTVSPropertyOp40
 70
     1
102
RTVSPropertyOp41
 70
     1
102
RTVSPropertyOp42
 70
     1
102
RTVSPropertyOp43
 70
     1
102
RTVSPropertyOp44
 70
     1
102
RTVSPropertyOp45
 70
     1
102
RTVSPropertyOp46
 70
     1
102
RTVSPropertyOp47
 70
     1
102
RTVSPropertyOp48
 70
     1
102
RTVSPropertyOp49
 70
     1
102
RTVSPropertyOp50
 70
     1
102
RTVSPropertyOp51
 70
     0
102
RTVSPropertyOp52
 70
     0
102
RTVSPropertyOp53
 70
     1
102
RTVSPropertyOp54
 70
     1
102
RTVSPropertyOp55
 70
     1
102
RTVSPropertyOp56
 70
     1
102
RTVSPropertyOp57
 70
     1
102
RTVSPropertyOp58
 70
     1
102
RTVSPropertyOp59
 70
     1
102
RTVSPropertyOp60
 70
     1
102
RTVSPropertyOp61
 70
     1
102
RTVSPropertyOp62
 70
     1
  0
XRECORD
  5
84B8
102
{ACAD_REACTORS
330
84B7
102
}
330
84B7
100
AcDbXrecord
280
     1
102
RTVSPost2010Prop28
280
     0
102
RTVSPost2010PropOp28
 70
     1
102
RTVSPost2010Prop29
280
     1
102
RTVSPost2010PropOp29
 70
     1
102
RTVSPost2010Prop30
280
     1
102
RTVSPost2010PropOp30
 70
     1
102
RTVSPost2010Prop31
280
     0
102
RTVSPost2010PropOp31
 70
     1
102
RTVSPost2010Prop32
280
     0
102
RTVSPost2010PropOp32
 70
     1
102
RTVSPost2010Prop33
280
     0
102
RTVSPost2010PropOp33
 70
     1
102
RTVSPost2010Prop34
280
     0
102
RTVSPost2010PropOp34
 70
     1
102
RTVSPost2010Prop35
280
     0
102
RTVSPost2010PropOp35
 70
     1
102
RTVSPost2010Prop36
280
     0
102
RTVSPost2010PropOp36
 70
     1
102
RTVSPost2010Prop37
 90
       50
102
RTVSPost2010PropOp37
 70
     1
102
RTVSPost2010Prop38
140
0.0
102
RTVSPost2010PropOp38
 70
     1
102
RTVSPost2010Prop39
140
1.0
102
RTVSPost2010PropOp39
 70
     1
102
RTVSPost2010Prop40
 90
        0
102
RTVSPost2010PropOp40
 70
     1
102
RTVSPost2010Prop41ColorIndex
 90
       18
102
RTVSPost2010Prop41ColorRGB
 90
        0
102
RTVSPost2010PropOp41
 70
     1
102
RTVSPost2010Prop42
 90
       50
102
RTVSPost2010PropOp42
 70
     1
102
RTVSPost2010Prop43
 90
        3
102
RTVSPost2010PropOp43
 70
     1
102
RTVSPost2010Prop44ColorIndex
 90
        5
102
RTVSPost2010Prop44ColorRGB
 90
      255
102
RTVSPost2010PropOp44
 70
     1
102
RTVSPost2010Prop45
280
     0
102
RTVSPost2010PropOp45
 70
     1
102
RTVSPost2010Prop46
 90
       50
102
RTVSPost2010PropOp46
 70
     1
102
RTVSPost2010Prop47
 90
       50
102
RTVSPost2010PropOp47
 70
     1
102
RTVSPost2010Prop48
 90
       50
102
RTVSPost2010PropOp48
 70
     1
102
RTVSPost2010Prop49
280
     0
102
RTVSPost2010PropOp49
 70
     1
102
RTVSPost2010Prop50
 90
       50
102
RTVSPost2010PropOp50
 70
     1
102
RTVSPost2010Prop51ColorIndex
 90
      256
102
RTVSPost2010Prop51ColorRGB
 90
-16777216
102
RTVSPost2010PropOp51
 70
     0
102
RTVSPost2010Prop52
140
1.0
102
RTVSPost2010PropOp52
 70
     0
102
RTVSPost2010Prop53
 90
        2
102
RTVSPost2010PropOp53
 70
     1
102
RTVSPost2010Prop54
  1
strokes_ogs.tif
102
RTVSPost2010PropOp54
 70
     1
102
RTVSPost2010Prop55
280
     0
102
RTVSPost2010PropOp55
 70
     1
102
RTVSPost2010Prop56
140
1.0
102
RTVSPost2010PropOp56
 70
     1
102
RTVSPost2010Prop57
140
1.0
102
RTVSPost2010PropOp57
 70
     1
102
RTVSPropertyOp0
 70
     1
102
RTVSPropertyOp1
 70
     1
102
RTVSPropertyOp2
 70
     1
102
RTVSPropertyOp3
 70
     1
102
RTVSPropertyOp4
 70
     1
102
RTVSPropertyOp5
 70
     1
102
RTVSPropertyOp6
 70
     1
102
RTVSPropertyOp7
 70
     1
102
RTVSPropertyOp8
 70
     1
102
RTVSPropertyOp9
 70
     1
102
RTVSPropertyOp10
 70
     1
102
RTVSPropertyOp11
 70
     1
102
RTVSPropertyOp12
 70
     1
102
RTVSPropertyOp13
 70
     1
102
RTVSPropertyOp14
 70
     1
102
RTVSPropertyOp15
 70
     1
102
RTVSPropertyOp16
 70
     1
102
RTVSPropertyOp17
 70
     1
102
RTVSPropertyOp18
 70
     1
102
RTVSPropertyOp19
 70
     1
102
RTVSPropertyOp20
 70
     1
102
RTVSPropertyOp21
 70
     1
102
RTVSPropertyOp22
 70
     1
102
RTVSPropertyOp23
 70
     1
102
RTVSPropertyOp24
 70
     1
102
RTVSPropertyOp25
 70
     1
102
RTVSPropertyOp26
 70
     1
102
RTVSPropertyOp27
 70
     1
102
RTVSPropertyOp28
 70
     1
102
RTVSPropertyOp29
 70
     1
102
RTVSPropertyOp30
 70
     1
102
RTVSPropertyOp31
 70
     1
102
RTVSPropertyOp32
 70
     1
102
RTVSPropertyOp33
 70
     1
102
RTVSPropertyOp34
 70
     1
102
RTVSPropertyOp35
 70
     1
102
RTVSPropertyOp36
 70
     1
102
RTVSPropertyOp37
 70
     1
102
RTVSPropertyOp38
 70
     1
102
RTVSPropertyOp39
 70
     1
102
RTVSPropertyOp40
 70
     1
102
RTVSPropertyOp41
 70
     1
102
RTVSPropertyOp42
 70
     1
102
RTVSPropertyOp43
 70
     1
102
RTVSPropertyOp44
 70
     1
102
RTVSPropertyOp45
 70
     1
102
RTVSPropertyOp46
 70
     1
102
RTVSPropertyOp47
 70
     1
102
RTVSPropertyOp48
 70
     1
102
RTVSPropertyOp49
 70
     1
102
RTVSPropertyOp50
 70
     1
102
RTVSPropertyOp51
 70
     0
102
RTVSPropertyOp52
 70
     0
102
RTVSPropertyOp53
 70
     1
102
RTVSPropertyOp54
 70
     1
102
RTVSPropertyOp55
 70
     1
102
RTVSPropertyOp56
 70
     1
102
RTVSPropertyOp57
 70
     1
102
RTVSPropertyOp58
 70
     1
102
RTVSPropertyOp59
 70
     1
102
RTVSPropertyOp60
 70
     1
102
RTVSPropertyOp61
 70
     1
102
RTVSPropertyOp62
 70
     1
  0
XRECORD
  5
84AC
102
{ACAD_REACTORS
330
84AB
102
}
330
84AB
100
AcDbXrecord
280
     1
102
RTVSPost2010Prop28
280
     0
102
RTVSPost2010PropOp28
 70
     1
102
RTVSPost2010Prop29
280
     1
102
RTVSPost2010PropOp29
 70
     1
102
RTVSPost2010Prop30
280
     1
102
RTVSPost2010PropOp30
 70
     1
102
RTVSPost2010Prop31
280
     0
102
RTVSPost2010PropOp31
 70
     1
102
RTVSPost2010Prop32
280
     0
102
RTVSPost2010PropOp32
 70
     1
102
RTVSPost2010Prop33
280
     0
102
RTVSPost2010PropOp33
 70
     1
102
RTVSPost2010Prop34
280
     0
102
RTVSPost2010PropOp34
 70
     1
102
RTVSPost2010Prop35
280
     0
102
RTVSPost2010PropOp35
 70
     1
102
RTVSPost2010Prop36
280
     0
102
RTVSPost2010PropOp36
 70
     1
102
RTVSPost2010Prop37
 90
       50
102
RTVSPost2010PropOp37
 70
     1
102
RTVSPost2010Prop38
140
0.0
102
RTVSPost2010PropOp38
 70
     1
102
RTVSPost2010Prop39
140
1.0
102
RTVSPost2010PropOp39
 70
     1
102
RTVSPost2010Prop40
 90
        0
102
RTVSPost2010PropOp40
 70
     1
102
RTVSPost2010Prop41ColorIndex
 90
       18
102
RTVSPost2010Prop41ColorRGB
 90
        0
102
RTVSPost2010PropOp41
 70
     1
102
RTVSPost2010Prop42
 90
       50
102
RTVSPost2010PropOp42
 70
     1
102
RTVSPost2010Prop43
 90
        3
102
RTVSPost2010PropOp43
 70
     1
102
RTVSPost2010Prop44ColorIndex
 90
        5
102
RTVSPost2010Prop44ColorRGB
 90
      255
102
RTVSPost2010PropOp44
 70
     1
102
RTVSPost2010Prop45
280
     0
102
RTVSPost2010PropOp45
 70
     1
102
RTVSPost2010Prop46
 90
       50
102
RTVSPost2010PropOp46
 70
     1
102
RTVSPost2010Prop47
 90
       50
102
RTVSPost2010PropOp47
 70
     1
102
RTVSPost2010Prop48
 90
       50
102
RTVSPost2010PropOp48
 70
     1
102
RTVSPost2010Prop49
280
     0
102
RTVSPost2010PropOp49
 70
     1
102
RTVSPost2010Prop50
 90
       50
102
RTVSPost2010PropOp50
 70
     1
102
RTVSPost2010Prop51ColorIndex
 90
      256
102
RTVSPost2010Prop51ColorRGB
 90
-16777216
102
RTVSPost2010PropOp51
 70
     0
102
RTVSPost2010Prop52
140
1.0
102
RTVSPost2010PropOp52
 70
     0
102
RTVSPost2010Prop53
 90
        2
102
RTVSPost2010PropOp53
 70
     1
102
RTVSPost2010Prop54
  1
strokes_ogs.tif
102
RTVSPost2010PropOp54
 70
     1
102
RTVSPost2010Prop55
280
     0
102
RTVSPost2010PropOp55
 70
     1
102
RTVSPost2010Prop56
140
1.0
102
RTVSPost2010PropOp56
 70
     1
102
RTVSPost2010Prop57
140
1.0
102
RTVSPost2010PropOp57
 70
     1
102
RTVSPropertyOp0
 70
     1
102
RTVSPropertyOp1
 70
     1
102
RTVSPropertyOp2
 70
     1
102
RTVSPropertyOp3
 70
     1
102
RTVSPropertyOp4
 70
     1
102
RTVSPropertyOp5
 70
     1
102
RTVSPropertyOp6
 70
     1
102
RTVSPropertyOp7
 70
     1
102
RTVSPropertyOp8
 70
     1
102
RTVSPropertyOp9
 70
     1
102
RTVSPropertyOp10
 70
     1
102
RTVSPropertyOp11
 70
     1
102
RTVSPropertyOp12
 70
     1
102
RTVSPropertyOp13
 70
     1
102
RTVSPropertyOp14
 70
     1
102
RTVSPropertyOp15
 70
     1
102
RTVSPropertyOp16
 70
     1
102
RTVSPropertyOp17
 70
     1
102
RTVSPropertyOp18
 70
     1
102
RTVSPropertyOp19
 70
     1
102
RTVSPropertyOp20
 70
     1
102
RTVSPropertyOp21
 70
     1
102
RTVSPropertyOp22
 70
     1
102
RTVSPropertyOp23
 70
     1
102
RTVSPropertyOp24
 70
     1
102
RTVSPropertyOp25
 70
     1
102
RTVSPropertyOp26
 70
     1
102
RTVSPropertyOp27
 70
     1
102
RTVSPropertyOp28
 70
     1
102
RTVSPropertyOp29
 70
     1
102
RTVSPropertyOp30
 70
     1
102
RTVSPropertyOp31
 70
     1
102
RTVSPropertyOp32
 70
     1
102
RTVSPropertyOp33
 70
     1
102
RTVSPropertyOp34
 70
     1
102
RTVSPropertyOp35
 70
     1
102
RTVSPropertyOp36
 70
     1
102
RTVSPropertyOp37
 70
     1
102
RTVSPropertyOp38
 70
     1
102
RTVSPropertyOp39
 70
     1
102
RTVSPropertyOp40
 70
     1
102
RTVSPropertyOp41
 70
     1
102
RTVSPropertyOp42
 70
     1
102
RTVSPropertyOp43
 70
     1
102
RTVSPropertyOp44
 70
     1
102
RTVSPropertyOp45
 70
     1
102
RTVSPropertyOp46
 70
     1
102
RTVSPropertyOp47
 70
     1
102
RTVSPropertyOp48
 70
     1
102
RTVSPropertyOp49
 70
     1
102
RTVSPropertyOp50
 70
     1
102
RTVSPropertyOp51
 70
     0
102
RTVSPropertyOp52
 70
     0
102
RTVSPropertyOp53
 70
     1
102
RTVSPropertyOp54
 70
     1
102
RTVSPropertyOp55
 70
     1
102
RTVSPropertyOp56
 70
     1
102
RTVSPropertyOp57
 70
     1
102
RTVSPropertyOp58
 70
     1
102
RTVSPropertyOp59
 70
     1
102
RTVSPropertyOp60
 70
     1
102
RTVSPropertyOp61
 70
     1
102
RTVSPropertyOp62
 70
     1
  0
XRECORD
  5
84C4
102
{ACAD_REACTORS
330
84C3
102
}
330
84C3
100
AcDbXrecord
280
     1
102
RTVSPost2010Prop28
280
     0
102
RTVSPost2010PropOp28
 70
     1
102
RTVSPost2010Prop29
280
     1
102
RTVSPost2010PropOp29
 70
     1
102
RTVSPost2010Prop30
280
     1
102
RTVSPost2010PropOp30
 70
     1
102
RTVSPost2010Prop31
280
     0
102
RTVSPost2010PropOp31
 70
     1
102
RTVSPost2010Prop32
280
     0
102
RTVSPost2010PropOp32
 70
     1
102
RTVSPost2010Prop33
280
     0
102
RTVSPost2010PropOp33
 70
     1
102
RTVSPost2010Prop34
280
     0
102
RTVSPost2010PropOp34
 70
     1
102
RTVSPost2010Prop35
280
     0
102
RTVSPost2010PropOp35
 70
     1
102
RTVSPost2010Prop36
280
     0
102
RTVSPost2010PropOp36
 70
     1
102
RTVSPost2010Prop37
 90
       50
102
RTVSPost2010PropOp37
 70
     1
102
RTVSPost2010Prop38
140
0.0
102
RTVSPost2010PropOp38
 70
     1
102
RTVSPost2010Prop39
140
1.0
102
RTVSPost2010PropOp39
 70
     1
102
RTVSPost2010Prop40
 90
        0
102
RTVSPost2010PropOp40
 70
     1
102
RTVSPost2010Prop41ColorIndex
 90
       18
102
RTVSPost2010Prop41ColorRGB
 90
        0
102
RTVSPost2010PropOp41
 70
     1
102
RTVSPost2010Prop42
 90
       50
102
RTVSPost2010PropOp42
 70
     1
102
RTVSPost2010Prop43
 90
        3
102
RTVSPost2010PropOp43
 70
     1
102
RTVSPost2010Prop44ColorIndex
 90
        5
102
RTVSPost2010Prop44ColorRGB
 90
      255
102
RTVSPost2010PropOp44
 70
     1
102
RTVSPost2010Prop45
280
     0
102
RTVSPost2010PropOp45
 70
     1
102
RTVSPost2010Prop46
 90
       50
102
RTVSPost2010PropOp46
 70
     1
102
RTVSPost2010Prop47
 90
       50
102
RTVSPost2010PropOp47
 70
     1
102
RTVSPost2010Prop48
 90
       50
102
RTVSPost2010PropOp48
 70
     1
102
RTVSPost2010Prop49
280
     0
102
RTVSPost2010PropOp49
 70
     1
102
RTVSPost2010Prop50
 90
       50
102
RTVSPost2010PropOp50
 70
     1
102
RTVSPost2010Prop51ColorIndex
 90
      256
102
RTVSPost2010Prop51ColorRGB
 90
-16777216
102
RTVSPost2010PropOp51
 70
     0
102
RTVSPost2010Prop52
140
1.0
102
RTVSPost2010PropOp52
 70
     0
102
RTVSPost2010Prop53
 90
        2
102
RTVSPost2010PropOp53
 70
     1
102
RTVSPost2010Prop54
  1
strokes_ogs.tif
102
RTVSPost2010PropOp54
 70
     1
102
RTVSPost2010Prop55
280
     0
102
RTVSPost2010PropOp55
 70
     1
102
RTVSPost2010Prop56
140
1.0
102
RTVSPost2010PropOp56
 70
     1
102
RTVSPost2010Prop57
140
1.0
102
RTVSPost2010PropOp57
 70
     1
102
RTVSPropertyOp0
 70
     1
102
RTVSPropertyOp1
 70
     1
102
RTVSPropertyOp2
 70
     1
102
RTVSPropertyOp3
 70
     1
102
RTVSPropertyOp4
 70
     1
102
RTVSPropertyOp5
 70
     1
102
RTVSPropertyOp6
 70
     1
102
RTVSPropertyOp7
 70
     1
102
RTVSPropertyOp8
 70
     1
102
RTVSPropertyOp9
 70
     1
102
RTVSPropertyOp10
 70
     1
102
RTVSPropertyOp11
 70
     1
102
RTVSPropertyOp12
 70
     1
102
RTVSPropertyOp13
 70
     1
102
RTVSPropertyOp14
 70
     1
102
RTVSPropertyOp15
 70
     1
102
RTVSPropertyOp16
 70
     1
102
RTVSPropertyOp17
 70
     1
102
RTVSPropertyOp18
 70
     1
102
RTVSPropertyOp19
 70
     1
102
RTVSPropertyOp20
 70
     1
102
RTVSPropertyOp21
 70
     1
102
RTVSPropertyOp22
 70
     1
102
RTVSPropertyOp23
 70
     1
102
RTVSPropertyOp24
 70
     1
102
RTVSPropertyOp25
 70
     1
102
RTVSPropertyOp26
 70
     1
102
RTVSPropertyOp27
 70
     1
102
RTVSPropertyOp28
 70
     1
102
RTVSPropertyOp29
 70
     1
102
RTVSPropertyOp30
 70
     1
102
RTVSPropertyOp31
 70
     1
102
RTVSPropertyOp32
 70
     1
102
RTVSPropertyOp33
 70
     1
102
RTVSPropertyOp34
 70
     1
102
RTVSPropertyOp35
 70
     1
102
RTVSPropertyOp36
 70
     1
102
RTVSPropertyOp37
 70
     1
102
RTVSPropertyOp38
 70
     1
102
RTVSPropertyOp39
 70
     1
102
RTVSPropertyOp40
 70
     1
102
RTVSPropertyOp41
 70
     1
102
RTVSPropertyOp42
 70
     1
102
RTVSPropertyOp43
 70
     1
102
RTVSPropertyOp44
 70
     1
102
RTVSPropertyOp45
 70
     1
102
RTVSPropertyOp46
 70
     1
102
RTVSPropertyOp47
 70
     1
102
RTVSPropertyOp48
 70
     1
102
RTVSPropertyOp49
 70
     1
102
RTVSPropertyOp50
 70
     1
102
RTVSPropertyOp51
 70
     0
102
RTVSPropertyOp52
 70
     0
102
RTVSPropertyOp53
 70
     1
102
RTVSPropertyOp54
 70
     1
102
RTVSPropertyOp55
 70
     1
102
RTVSPropertyOp56
 70
     1
102
RTVSPropertyOp57
 70
     1
102
RTVSPropertyOp58
 70
     1
102
RTVSPropertyOp59
 70
     1
102
RTVSPropertyOp60
 70
     1
102
RTVSPropertyOp61
 70
     1
102
RTVSPropertyOp62
 70
     1
  0
ENDSEC
  0
EOF
