  0
SECTION
  2
HEADER
  9
$ACADVER
  1
AC1015
  9
$ACADMAINTVER
 70
    20
  9
$DWGCODEPAGE
  3
ANSI_932
  9
$INSBASE
 10
0.0
 20
0.0
 30
0.0
  9
$EXTMIN
 10
-0.1281640493871237
 20
-0.1800399741405272
 30
-0.0015258207003583
  9
$EXTMAX
 10
4200.128183607161
 20
5900.180067448153
 30
0.0000000349246037
  9
$LIMMIN
 10
0.0
 20
0.0
  9
$LIMMAX
 10
297.0
 20
210.0
  9
$ORTHOMODE
 70
     1
  9
$REGENMODE
 70
     1
  9
$FILLMODE
 70
     0
  9
$QTEXTMODE
 70
     0
  9
$MIRRTEXT
 70
     1
  9
$LTSCALE
 40
100.0
  9
$ATTMODE
 70
     1
  9
$TEXTSIZE
 40
180.0
  9
$TRACEWID
 40
0.05
  9
$TEXTSTYLE
  7
STANDARD
  9
$CLAYER
  8
3
  9
$CELTYPE
  6
ByLayer
  9
$CECOLOR
 62
   256
  9
$CELTSCALE
 40
1.0
  9
$DISPSILH
 70
     0
  9
$DIMSCALE
 40
20.0
  9
$DIMASZ
 40
2.0
  9
$DIMEXO
 40
1.0
  9
$DIMDLI
 40
10.0
  9
$DIMRND
 40
0.0
  9
$DIMDLE
 40
0.0
  9
$DIMEXE
 40
1.0
  9
$DIMTP
 40
1.0
  9
$DIMTM
 40
1.0
  9
$DIMTXT
 40
3.0
  9
$DIMCEN
 40
0.0
  9
$DIMTSZ
 40
0.0
  9
$DIMTOL
 70
     0
  9
$DIMLIM
 70
     0
  9
$DIMTIH
 70
     0
  9
$DIMTOH
 70
     0
  9
$DIMSE1
 70
     0
  9
$DIMSE2
 70
     0
  9
$DIMTAD
 70
     1
  9
$DIMZIN
 70
     8
  9
$DIMBLK
  1

  9
$DIMASO
 70
     1
  9
$DIMSHO
 70
     1
  9
$DIMPOST
  1

  9
$DIMAPOST
  1

  9
$DIMALT
 70
     0
  9
$DIMALTD
 70
     2
  9
$DIMALTF
 40
0.039
  9
$DIMLFAC
 40
1.0
  9
$DIMTOFL
 70
     1
  9
$DIMTVP
 40
0.0
  9
$DIMTIX
 70
     0
  9
$DIMSOXD
 70
     0
  9
$DIMSAH
 70
     1
  9
$DIMBLK1
  1
OPEN
  9
$DIMBLK2
  1
OPEN
  9
$DIMSTYLE
  2
IGA
  9
$DIMCLRD
 70
     0
  9
$DIMCLRE
 70
     0
  9
$DIMCLRT
 70
     0
  9
$DIMTFAC
 40
10.0
  9
$DIMGAP
 40
1.0
  9
$DIMJUST
 70
     0
  9
$DIMSD1
 70
     0
  9
$DIMSD2
 70
     0
  9
$DIMTOLJ
 70
     1
  9
$DIMTZIN
 70
     0
  9
$DIMALTZ
 70
     0
  9
$DIMALTTZ
 70
     0
  9
$DIMUPT
 70
     0
  9
$DIMDEC
 70
     4
  9
$DIMTDEC
 70
     4
  9
$DIMALTU
 70
     2
  9
$DIMALTTD
 70
     2
  9
$DIMTXSTY
  7
STANDARD
  9
$DIMAUNIT
 70
     0
  9
$DIMADEC
 70
     0
  9
$DIMALTRND
 40
0.0
  9
$DIMAZIN
 70
     0
  9
$DIMDSEP
 70
    46
  9
$DIMATFIT
 70
     3
  9
$DIMFRAC
 70
     0
  9
$DIMLDRBLK
  1
OPEN
  9
$DIMLUNIT
 70
     2
  9
$DIMLWD
 70
    -2
  9
$DIMLWE
 70
    -2
  9
$DIMTMOVE
 70
     0
  9
$LUNITS
 70
     2
  9
$LUPREC
 70
     3
  9
$SKETCHINC
 40
0.1
  9
$FILLETRAD
 40
50.0
  9
$AUNITS
 70
     0
  9
$AUPREC
 70
     0
  9
$MENU
  1
acad
  9
$ELEVATION
 40
0.0
  9
$PELEVATION
 40
0.0
  9
$THICKNESS
 40
0.0
  9
$LIMCHECK
 70
     0
  9
$CHAMFERA
 40
0.5
  9
$CHAMFERB
 40
0.5
  9
$CHAMFERC
 40
0.0
  9
$CHAMFERD
 40
0.0
  9
$SKPOLY
 70
     0
  9
$TDCREATE
 40
2451387.483285764
  9
$TDUCREATE
 40
2451387.108285764
  9
$TDUPDATE
 40
2460262.648726806
  9
$TDUUPDATE
 40
2460262.273726806
  9
$TDINDWG
 40
0.0161714815
  9
$TDUSRTIMER
 40
0.0161714583
  9
$USRTIMER
 70
     1
  9
$ANGBASE
 50
0.0
  9
$ANGDIR
 70
     0
  9
$PDMODE
 70
     0
  9
$PDSIZE
 40
0.0
  9
$PLINEWID
 40
0.0
  9
$SPLFRAME
 70
     0
  9
$SPLINETYPE
 70
     6
  9
$SPLINESEGS
 70
     8
  9
$HANDSEED
  5
842E
  9
$SURFTAB1
 70
     6
  9
$SURFTAB2
 70
     6
  9
$SURFTYPE
 70
     6
  9
$SURFU
 70
     6
  9
$SURFV
 70
     6
  9
$UCSBASE
  2

  9
$UCSNAME
  2

  9
$UCSORG
 10
0.0
 20
0.0
 30
0.0
  9
$UCSXDIR
 10
1.0
 20
0.0
 30
0.0
  9
$UCSYDIR
 10
0.0
 20
1.0
 30
0.0
  9
$UCSORTHOREF
  2

  9
$UCSORTHOVIEW
 70
     0
  9
$UCSORGTOP
 10
0.0
 20
0.0
 30
0.0
  9
$UCSORGBOTTOM
 10
0.0
 20
0.0
 30
0.0
  9
$UCSORGLEFT
 10
0.0
 20
0.0
 30
0.0
  9
$UCSORGRIGHT
 10
0.0
 20
0.0
 30
0.0
  9
$UCSORGFRONT
 10
0.0
 20
0.0
 30
0.0
  9
$UCSORGBACK
 10
0.0
 20
0.0
 30
0.0
  9
$PUCSBASE
  2

  9
$PUCSNAME
  2

  9
$PUCSORG
 10
0.0
 20
0.0
 30
0.0
  9
$PUCSXDIR
 10
1.0
 20
0.0
 30
0.0
  9
$PUCSYDIR
 10
0.0
 20
1.0
 30
0.0
  9
$PUCSORTHOREF
  2

  9
$PUCSORTHOVIEW
 70
     0
  9
$PUCSORGTOP
 10
0.0
 20
0.0
 30
0.0
  9
$PUCSORGBOTTOM
 10
0.0
 20
0.0
 30
0.0
  9
$PUCSORGLEFT
 10
0.0
 20
0.0
 30
0.0
  9
$PUCSORGRIGHT
 10
0.0
 20
0.0
 30
0.0
  9
$PUCSORGFRONT
 10
0.0
 20
0.0
 30
0.0
  9
$PUCSORGBACK
 10
0.0
 20
0.0
 30
0.0
  9
$USERI1
 70
     0
  9
$USERI2
 70
     0
  9
$USERI3
 70
     0
  9
$USERI4
 70
     0
  9
$USERI5
 70
     0
  9
$USERR1
 40
0.0
  9
$USERR2
 40
0.0
  9
$USERR3
 40
0.0
  9
$USERR4
 40
0.0
  9
$USERR5
 40
0.0
  9
$WORLDVIEW
 70
     1
  9
$SHADEDGE
 70
     3
  9
$SHADEDIF
 70
    70
  9
$TILEMODE
 70
     1
  9
$MAXACTVP
 70
    16
  9
$PINSBASE
 10
0.0
 20
0.0
 30
0.0
  9
$PLIMCHECK
 70
     0
  9
$PEXTMIN
 10
1.000000000000000E+20
 20
1.000000000000000E+20
 30
1.000000000000000E+20
  9
$PEXTMAX
 10
-1.000000000000000E+20
 20
-1.000000000000000E+20
 30
-1.000000000000000E+20
  9
$PLIMMIN
 10
0.0
 20
0.0
  9
$PLIMMAX
 10
12.0
 20
9.0
  9
$UNITMODE
 70
     0
  9
$VISRETAIN
 70
     0
  9
$PLINEGEN
 70
     0
  9
$PSLTSCALE
 70
     1
  9
$TREEDEPTH
 70
  3020
  9
$CMLSTYLE
  2
Standard
  9
$CMLJUST
 70
     0
  9
$CMLSCALE
 40
1.0
  9
$PROXYGRAPHICS
 70
     1
  9
$MEASUREMENT
 70
     0
  9
$CELWEIGHT
370
    -1
  9
$ENDCAPS
280
     0
  9
$JOINSTYLE
280
     0
  9
$LWDISPLAY
290
     0
  9
$INSUNITS
 70
     0
  9
$HYPERLINKBASE
  1

  9
$STYLESHEET
  1

  9
$XEDIT
290
     1
  9
$CEPSNTYPE
380
     0
  9
$PSTYLEMODE
290
     1
  9
$FINGERPRINTGUID
  2
{CC693EE2-9ABB-48E6-8D70-12A959F7E293}
  9
$VERSIONGUID
  2
{9C740DD7-25A0-4422-8F9D-C53358A14316}
  9
$EXTNAMES
290
     1
  9
$PSVPSCALE
 40
0.0
  9
$OLESTARTUP
290
     0
  0
ENDSEC
  0
SECTION
  2
CLASSES
  0
CLASS
  1
ACDBDICTIONARYWDFLT
  2
AcDbDictionaryWithDefault
  3
ObjectDBX Classes
 90
        0
280
     0
281
     0
  0
CLASS
  1
MATERIAL
  2
AcDbMaterial
  3
ObjectDBX Classes
 90
     1153
280
     0
281
     0
  0
CLASS
  1
VISUALSTYLE
  2
AcDbVisualStyle
  3
ObjectDBX Classes
 90
     4095
280
     0
281
     0
  0
CLASS
  1
SCALE
  2
AcDbScale
  3
ObjectDBX Classes
 90
     1153
280
     0
281
     0
  0
CLASS
  1
TABLESTYLE
  2
AcDbTableStyle
  3
ObjectDBX Classes
 90
     4095
280
     0
281
     0
  0
CLASS
  1
MLEADERSTYLE
  2
AcDbMLeaderStyle
  3
ACDB_MLEADERSTYLE_CLASS
 90
     4095
280
     0
281
     0
  0
CLASS
  1
ACDBSECTIONVIEWSTYLE
  2
AcDbSectionViewStyle
  3
ObjectDBX Classes
 90
     1025
280
     0
281
     0
  0
CLASS
  1
ACDBDETAILVIEWSTYLE
  2
AcDbDetailViewStyle
  3
ObjectDBX Classes
 90
     1025
280
     0
281
     0
  0
CLASS
  1
SORTENTSTABLE
  2
AcDbSortentsTable
  3
ObjectDBX Classes
 90
        0
280
     0
281
     0
  0
CLASS
  1
DICTIONARYVAR
  2
AcDbDictionaryVar
  3
ObjectDBX Classes
 90
        0
280
     0
281
     0
  0
CLASS
  1
CELLSTYLEMAP
  2
AcDbCellStyleMap
  3
ObjectDBX Classes
 90
     1152
280
     0
281
     0
  0
CLASS
  1
ACDBPLACEHOLDER
  2
AcDbPlaceHolder
  3
ObjectDBX Classes
 90
        0
280
     0
281
     0
  0
CLASS
  1
LAYOUT
  2
AcDbLayout
  3
ObjectDBX Classes
 90
        0
280
     0
281
     0
  0
ENDSEC
  0
SECTION
  2
TABLES
  0
TABLE
  2
VPORT
  5
813A
330
0
100
AcDbSymbolTable
 70
     1
  0
VPORT
  5
81A6
330
813A
100
AcDbSymbolTableRecord
100
AcDbViewportTableRecord
  2
*ACTIVE
 70
     0
 10
0.0
 20
0.0
 11
1.0
 21
1.0
 12
2100.000009778887
 22
2950.000013737006
 13
0.0
 23
0.0
 14
10.0
 24
10.0
 15
10.0
 25
10.0
 16
0.0
 26
0.0
 36
1.0
 17
0.0
 27
0.0
 37
0.0
 40
5938.142562752639
 41
2.050213675213675
 42
50.0
 43
0.0
 44
0.0
 50
0.0
 51
0.0
 71
     0
 72
   100
 73
     1
 74
     0
 75
     0
 76
     0
 77
     0
 78
     0
281
     0
 65
     1
110
0.0
120
0.0
130
0.0
111
1.0
121
0.0
131
0.0
112
0.0
122
1.0
132
0.0
 79
     0
146
0.0
1001
ACAD_NAV_VCDISPLAY
1070
     3
  0
ENDTAB
  0
TABLE
  2
LTYPE
  5
8137
330
0
100
AcDbSymbolTable
 70
     3
  0
LTYPE
  5
818C
330
8137
100
AcDbSymbolTableRecord
100
AcDbLinetypeTableRecord
  2
ByBlock
 70
     0
  3

 72
    65
 73
     0
 40
0.0
  0
LTYPE
  5
818D
330
8137
100
AcDbSymbolTableRecord
100
AcDbLinetypeTableRecord
  2
ByLayer
 70
     0
  3

 72
    65
 73
     0
 40
0.0
  0
LTYPE
  5
818E
330
8137
100
AcDbSymbolTableRecord
100
AcDbLinetypeTableRecord
  2
CONTINUOUS
 70
     0
  3
Solid line
 72
    65
 73
     0
 40
0.0
  0
LTYPE
  5
81A7
330
8137
100
AcDbSymbolTableRecord
100
AcDbLinetypeTableRecord
  2
CENTER
 70
     0
  3
____ _ ____ _ ____ _ ____ _ ____ _ ____ _ ____ 
 72
    65
 73
     4
 40
2.0
 49
1.25
 74
     0
 49
-0.25
 74
     0
 49
0.25
 74
     0
 49
-0.25
 74
     0
  0
ENDTAB
  0
TABLE
  2
LAYER
  5
8134
330
0
100
AcDbSymbolTable
 70
     6
  0
LAYER
  5
8186
102
{ACAD_XDICTIONARY
360
83D8
102
}
330
8134
100
AcDbSymbolTableRecord
100
AcDbLayerTableRecord
  2
0
 70
     0
 62
     7
  6
CONTINUOUS
370
    -3
390
8141
  0
LAYER
  5
81A5
102
{ACAD_XDICTIONARY
360
83DA
102
}
330
8134
100
AcDbSymbolTableRecord
100
AcDbLayerTableRecord
  2
3
 70
     0
 62
     2
  6
CONTINUOUS
370
    -3
390
8141
  0
LAYER
  5
81A8
102
{ACAD_XDICTIONARY
360
83DC
102
}
330
8134
100
AcDbSymbolTableRecord
100
AcDbLayerTableRecord
  2
2
 70
     0
 62
     3
  6
CENTER
370
    -3
390
8141
  0
LAYER
  5
81A9
102
{ACAD_XDICTIONARY
360
83DE
102
}
330
8134
100
AcDbSymbolTableRecord
100
AcDbLayerTableRecord
  2
1
 70
     0
 62
     4
  6
CONTINUOUS
370
    -3
390
8141
  0
LAYER
  5
81AA
102
{ACAD_XDICTIONARY
360
83E0
102
}
330
8134
100
AcDbSymbolTableRecord
100
AcDbLayerTableRecord
  2
4
 70
     0
 62
     7
  6
CONTINUOUS
370
    -3
390
8141
  0
LAYER
  5
81AB
330
8134
100
AcDbSymbolTableRecord
100
AcDbLayerTableRecord
  2
DEFPOINTS
 70
     0
 62
     7
  6
CONTINUOUS
290
     0
370
    -3
390
8141
  0
ENDTAB
  0
TABLE
  2
STYLE
  5
8135
330
0
100
AcDbSymbolTable
 70
     2
  0
STYLE
  5
8187
330
8135
100
AcDbSymbolTableRecord
100
AcDbTextStyleTableRecord
  2
STANDARD
 70
     0
 40
0.0
 41
1.0
 50
0.0
 71
     0
 42
180.0
  3
simplex.shx
  4
extfont.shx
  0
STYLE
  5
818B
330
8135
100
AcDbSymbolTableRecord
100
AcDbTextStyleTableRecord
  2
Annotative
 70
     0
 40
0.0
 41
1.0
 50
0.0
 71
     0
 42
0.2
  3
txt
  4

1001
AcadAnnotative
1000
AnnotativeData
1002
{
1070
     1
1070
     1
1002
}
  0
ENDTAB
  0
TABLE
  2
VIEW
  5
8138
330
0
100
AcDbSymbolTable
 70
     0
  0
ENDTAB
  0
TABLE
  2
UCS
  5
8139
330
0
100
AcDbSymbolTable
 70
     0
  0
ENDTAB
  0
TABLE
  2
APPID
  5
813B
330
0
100
AcDbSymbolTable
 70
     8
  0
APPID
  5
8188
330
813B
100
AcDbSymbolTableRecord
100
AcDbRegAppTableRecord
  2
ACAD
 70
     0
  0
APPID
  5
818F
330
813B
100
AcDbSymbolTableRecord
100
AcDbRegAppTableRecord
  2
AcadAnnotative
 70
     0
  0
APPID
  5
81ED
330
813B
100
AcDbSymbolTableRecord
100
AcDbRegAppTableRecord
  2
ACAD_DSTYLE_DIMJAG
 70
     0
  0
APPID
  5
81EE
330
813B
100
AcDbSymbolTableRecord
100
AcDbRegAppTableRecord
  2
ACAD_DSTYLE_DIMTALN
 70
     0
  0
APPID
  5
8209
330
813B
100
AcDbSymbolTableRecord
100
AcDbRegAppTableRecord
  2
AcadAnnoMonitorAlertIconDisabled
 70
     0
  0
APPID
  5
820A
330
813B
100
AcDbSymbolTableRecord
100
AcDbRegAppTableRecord
  2
ACAD_EXEMPT_FROM_CAD_STANDARDS
 70
     0
  0
APPID
  5
83EC
330
813B
100
AcDbSymbolTableRecord
100
AcDbRegAppTableRecord
  2
ACAD_NAV_VCDISPLAY
 70
     0
  0
APPID
  5
8425
330
813B
100
AcDbSymbolTableRecord
100
AcDbRegAppTableRecord
  2
ACAD_MLEADERVER
 70
     0
  0
ENDTAB
  0
TABLE
  2
DIMSTYLE
  5
813C
330
0
100
AcDbSymbolTable
 70
     4
100
AcDbDimStyleTable
 71
     1
340
81AC
  0
DIMSTYLE
105
8189
102
{ACAD_REACTORS
330
7C2A
330
7C2B
330
7C88
330
7C89
330
7C8A
330
7C90
330
7CA0
330
7CA2
330
7CA5
330
8032
330
803F
330
8084
102
}
330
813C
100
AcDbSymbolTableRecord
100
AcDbDimStyleTableRecord
  2
Standard
 70
     0
340
8187
  0
DIMSTYLE
105
818A
330
813C
100
AcDbSymbolTableRecord
100
AcDbDimStyleTableRecord
  2
Annotative
 70
     0
340
8187
1001
AcadAnnotative
1000
AnnotativeData
1002
{
1070
     1
1070
     1
1002
}
  0
DIMSTYLE
105
81AC
102
{ACAD_REACTORS
330
81EF
330
81FC
330
829A
330
82A7
330
82B4
330
82C5
330
82E4
330
82F1
330
8307
330
831D
330
832A
102
}
330
813C
100
AcDbSymbolTableRecord
100
AcDbDimStyleTableRecord
  2
IGA
 70
     0
 40
2.0
 41
2.0
 42
0.5
 43
10.0
 44
1.0
 47
1.0
 48
1.0
 73
     0
 74
     0
 77
     1
 78
     8
140
3.0
141
0.0
143
0.03937
146
10.0
147
1.0
173
     1
271
     3
272
     3
279
     2
284
     8
285
     8
286
     8
340
8187
  0
DIMSTYLE
105
81AD
330
813C
100
AcDbSymbolTableRecord
100
AcDbDimStyleTableRecord
  2
MATSU
 70
     0
 41
2.0
 42
1.0
 43
10.0
 44
1.0
 73
     0
 74
     0
 77
     1
 78
     8
140
3.0
141
0.0
143
0.03937
147
0.5
172
     1
173
     1
176
   256
177
   256
178
   256
271
     3
272
     3
279
     2
284
     8
285
     8
286
     8
340
8187
  0
ENDTAB
  0
TABLE
  2
BLOCK_RECORD
  5
8133
330
0
100
AcDbSymbolTable
 70
    45
  0
BLOCK_RECORD
  5
81A1
102
{ACAD_XDICTIONARY
360
82C2
102
}
330
8133
100
AcDbSymbolTableRecord
100
AcDbBlockTableRecord
  2
*Model_Space
340
81A4
  0
BLOCK_RECORD
  5
819D
330
8133
100
AcDbSymbolTableRecord
100
AcDbBlockTableRecord
  2
*Paper_Space
340
81A0
  0
BLOCK_RECORD
  5
81B1
330
8133
100
AcDbSymbolTableRecord
100
AcDbBlockTableRecord
  2
$MODEL_SPACE
340
0
  0
BLOCK_RECORD
  5
81B3
330
8133
100
AcDbSymbolTableRecord
100
AcDbBlockTableRecord
  2
$PAPER_SPACE
340
0
  0
BLOCK_RECORD
  5
81B5
330
8133
100
AcDbSymbolTableRecord
100
AcDbBlockTableRecord
  2
_OPEN
340
0
102
{BLKREFS
331
83D3
331
7DEA
331
7DEB
331
7DF5
331
7DF6
331
7F46
331
7F47
331
7E21
331
7E22
331
7E37
331
7E38
331
7F66
331
7F67
331
7F5B
331
7F5C
331
7E58
331
7E59
331
7F26
331
7F27
331
8017
331
8018
331
8100
331
8101
331
8108
331
8109
331
8317
331
8318
331
8366
331
8367
331
82A1
331
82A2
331
82AE
331
82AF
331
82BB
331
82BC
331
82DE
331
82DF
331
82EB
331
82EC
331
8301
331
8302
331
7F06
331
7F07
331
8110
331
8111
331
828B
331
828C
331
8294
331
8295
331
8052
331
8053
331
807D
331
807E
331
7EB8
331
7EB9
331
8119
331
811A
331
8125
331
802B
331
802C
331
8038
331
8039
331
8045
331
8046
102
}
  0
BLOCK_RECORD
  5
81B7
330
8133
100
AcDbSymbolTableRecord
100
AcDbBlockTableRecord
  2
YA_N
340
0
102
{BLKREFS
331
7BFC
331
7C11
102
}
  0
BLOCK_RECORD
  5
81B9
330
8133
100
AcDbSymbolTableRecord
100
AcDbBlockTableRecord
  2
*D4
340
0
  0
BLOCK_RECORD
  5
81BB
330
8133
100
AcDbSymbolTableRecord
100
AcDbBlockTableRecord
  2
*D5
340
0
  0
BLOCK_RECORD
  5
81BD
330
8133
100
AcDbSymbolTableRecord
100
AcDbBlockTableRecord
  2
*D6
340
0
  0
BLOCK_RECORD
  5
81BF
330
8133
100
AcDbSymbolTableRecord
100
AcDbBlockTableRecord
  2
*D7
340
0
  0
BLOCK_RECORD
  5
81C1
330
8133
100
AcDbSymbolTableRecord
100
AcDbBlockTableRecord
  2
*D8
340
0
  0
BLOCK_RECORD
  5
81C3
330
8133
100
AcDbSymbolTableRecord
100
AcDbBlockTableRecord
  2
*D9
340
0
  0
BLOCK_RECORD
  5
81C5
330
8133
100
AcDbSymbolTableRecord
100
AcDbBlockTableRecord
  2
*D10
340
0
  0
BLOCK_RECORD
  5
81C7
330
8133
100
AcDbSymbolTableRecord
100
AcDbBlockTableRecord
  2
*D11
340
0
  0
BLOCK_RECORD
  5
81C9
330
8133
100
AcDbSymbolTableRecord
100
AcDbBlockTableRecord
  2
*D12
340
0
  0
BLOCK_RECORD
  5
81CB
330
8133
100
AcDbSymbolTableRecord
100
AcDbBlockTableRecord
  2
*D13
340
0
  0
BLOCK_RECORD
  5
81CD
330
8133
100
AcDbSymbolTableRecord
100
AcDbBlockTableRecord
  2
*D14
340
0
  0
BLOCK_RECORD
  5
81CF
330
8133
100
AcDbSymbolTableRecord
100
AcDbBlockTableRecord
  2
*D15
340
0
  0
BLOCK_RECORD
  5
81D1
330
8133
100
AcDbSymbolTableRecord
100
AcDbBlockTableRecord
  2
*D16
340
0
  0
BLOCK_RECORD
  5
81D3
330
8133
100
AcDbSymbolTableRecord
100
AcDbBlockTableRecord
  2
*D17
340
0
  0
BLOCK_RECORD
  5
81D5
330
8133
100
AcDbSymbolTableRecord
100
AcDbBlockTableRecord
  2
*D18
340
0
  0
BLOCK_RECORD
  5
81D7
330
8133
100
AcDbSymbolTableRecord
100
AcDbBlockTableRecord
  2
*D19
340
0
  0
BLOCK_RECORD
  5
81D9
330
8133
100
AcDbSymbolTableRecord
100
AcDbBlockTableRecord
  2
*D20
340
0
  0
BLOCK_RECORD
  5
81DB
330
8133
100
AcDbSymbolTableRecord
100
AcDbBlockTableRecord
  2
_DOT
340
0
102
{BLKREFS
331
8124
102
}
  0
BLOCK_RECORD
  5
81DD
330
8133
100
AcDbSymbolTableRecord
100
AcDbBlockTableRecord
  2
*D22
340
0
  0
BLOCK_RECORD
  5
81DF
330
8133
100
AcDbSymbolTableRecord
100
AcDbBlockTableRecord
  2
*D23
340
0
  0
BLOCK_RECORD
  5
81E1
330
8133
100
AcDbSymbolTableRecord
100
AcDbBlockTableRecord
  2
*D24
340
0
  0
BLOCK_RECORD
  5
81E3
330
8133
100
AcDbSymbolTableRecord
100
AcDbBlockTableRecord
  2
*D25
340
0
  0
BLOCK_RECORD
  5
81E5
330
8133
100
AcDbSymbolTableRecord
100
AcDbBlockTableRecord
  2
_NONE
340
0
  0
BLOCK_RECORD
  5
81E7
330
8133
100
AcDbSymbolTableRecord
100
AcDbBlockTableRecord
  2
*D27
340
0
  0
BLOCK_RECORD
  5
81E9
330
8133
100
AcDbSymbolTableRecord
100
AcDbBlockTableRecord
  2
*D28
340
0
  0
BLOCK_RECORD
  5
81F0
330
8133
100
AcDbSymbolTableRecord
100
AcDbBlockTableRecord
  2
*D29
340
0
  0
BLOCK_RECORD
  5
81FD
330
8133
100
AcDbSymbolTableRecord
100
AcDbBlockTableRecord
  2
*D30
340
0
  0
BLOCK_RECORD
  5
8254
330
8133
100
AcDbSymbolTableRecord
100
AcDbBlockTableRecord
  2
*D31
340
0
  0
BLOCK_RECORD
  5
8261
330
8133
100
AcDbSymbolTableRecord
100
AcDbBlockTableRecord
  2
*D32
340
0
  0
BLOCK_RECORD
  5
826E
330
8133
100
AcDbSymbolTableRecord
100
AcDbBlockTableRecord
  2
*D33
340
0
  0
BLOCK_RECORD
  5
827B
330
8133
100
AcDbSymbolTableRecord
100
AcDbBlockTableRecord
  2
*D34
340
0
  0
BLOCK_RECORD
  5
829B
330
8133
100
AcDbSymbolTableRecord
100
AcDbBlockTableRecord
  2
*D35
340
0
  0
BLOCK_RECORD
  5
82A8
330
8133
100
AcDbSymbolTableRecord
100
AcDbBlockTableRecord
  2
*D36
340
0
  0
BLOCK_RECORD
  5
82B5
330
8133
100
AcDbSymbolTableRecord
100
AcDbBlockTableRecord
  2
*D37
340
0
  0
BLOCK_RECORD
  5
82C6
330
8133
100
AcDbSymbolTableRecord
100
AcDbBlockTableRecord
  2
*D38
340
0
  0
BLOCK_RECORD
  5
82E5
330
8133
100
AcDbSymbolTableRecord
100
AcDbBlockTableRecord
  2
*D39
340
0
  0
BLOCK_RECORD
  5
82F2
330
8133
100
AcDbSymbolTableRecord
100
AcDbBlockTableRecord
  2
*D40
340
0
  0
BLOCK_RECORD
  5
8308
330
8133
100
AcDbSymbolTableRecord
100
AcDbBlockTableRecord
  2
*D41
340
0
  0
BLOCK_RECORD
  5
831E
330
8133
100
AcDbSymbolTableRecord
100
AcDbBlockTableRecord
  2
*D42
340
0
  0
BLOCK_RECORD
  5
832B
330
8133
100
AcDbSymbolTableRecord
100
AcDbBlockTableRecord
  2
*D43
340
0
  0
BLOCK_RECORD
  5
83C9
330
8133
100
AcDbSymbolTableRecord
100
AcDbBlockTableRecord
  2
_DotSmall
340
0
102
{BLKREFS
331
83D4
102
}
  0
ENDTAB
  0
ENDSEC
  0
SECTION
  2
BLOCKS
  0
BLOCK
  5
81A2
330
81A1
100
AcDbEntity
  8
0
100
AcDbBlockBegin
  2
*Model_Space
 70
     0
 10
0.0
 20
0.0
 30
0.0
  3
*Model_Space
  1

  0
ENDBLK
  5
81A3
330
81A1
100
AcDbEntity
  8
0
100
AcDbBlockEnd
  0
BLOCK
  5
819E
330
819D
100
AcDbEntity
 67
     1
  8
0
100
AcDbBlockBegin
  2
*Paper_Space
 70
     0
 10
0.0
 20
0.0
 30
0.0
  3
*Paper_Space
  1

  0
ENDBLK
  5
819F
330
819D
100
AcDbEntity
 67
     1
  8
0
100
AcDbBlockEnd
  0
BLOCK
  5
81B2
330
81B1
100
AcDbEntity
  8
0
100
AcDbBlockBegin
  2
$MODEL_SPACE
 70
     0
 10
0.0
 20
0.0
 30
0.0
  3
$MODEL_SPACE
  1

  0
ENDBLK
  5
1B
330
81B1
100
AcDbEntity
  8
0
100
AcDbBlockEnd
  0
BLOCK
  5
81B4
330
81B3
100
AcDbEntity
  8
0
100
AcDbBlockBegin
  2
$PAPER_SPACE
 70
     0
 10
0.0
 20
0.0
 30
0.0
  3
$PAPER_SPACE
  1

  0
ENDBLK
  5
18
330
81B3
100
AcDbEntity
  8
0
100
AcDbBlockEnd
  0
BLOCK
  5
81B6
330
81B5
100
AcDbEntity
  8
0
100
AcDbBlockBegin
  2
_OPEN
 70
     0
 10
0.0
 20
0.0
 30
0.0
  3
_OPEN
  1

  0
LINE
  5
79FD
330
81B5
100
AcDbEntity
  8
0
  6
ByBlock
 62
     0
100
AcDbLine
 10
-1.0
 20
0.1666666666666666
 30
0.0
 11
0.0
 21
0.0
 31
0.0
  0
LINE
  5
79FE
330
81B5
100
AcDbEntity
  8
0
  6
ByBlock
 62
     0
100
AcDbLine
 10
0.0
 20
0.0
 30
0.0
 11
-1.0
 21
-0.1666666666666666
 31
0.0
  0
LINE
  5
79FF
330
81B5
100
AcDbEntity
  8
0
  6
ByBlock
 62
     0
100
AcDbLine
 10
0.0
 20
0.0
 30
0.0
 11
-1.0
 21
0.0
 31
0.0
  0
ENDBLK
  5
7A01
330
81B5
100
AcDbEntity
  8
0
100
AcDbBlockEnd
  0
BLOCK
  5
81B8
330
81B7
100
AcDbEntity
  8
0
100
AcDbBlockBegin
  2
YA_N
 70
     0
 10
0.0
 20
0.0
 30
0.0
  3
YA_N
  1

  0
ENDBLK
  5
7A0C
330
81B7
100
AcDbEntity
  8
0
100
AcDbBlockEnd
  0
BLOCK
  5
81BA
330
81B9
100
AcDbEntity
  8
0
100
AcDbBlockBegin
  2
*D4
 70
     1
 10
0.0
 20
0.0
 30
0.0
  3
*D4
  1

  0
LINE
  5
7DE7
330
81B9
100
AcDbEntity
  8
0
  6
ByBlock
100
AcDbLine
 10
-327.9612595271856
 20
-109.9023735498794
 30
0.0
 11
-456.5227942337424
 21
-109.9023735498794
 31
0.0
  0
LINE
  5
7DE8
330
81B9
100
AcDbEntity
  8
0
  6
ByBlock
100
AcDbLine
 10
-327.9612595271856
 20
540.0976264501204
 30
0.0
 11
-456.5227942337424
 21
540.0976264501204
 31
0.0
  0
LINE
  5
7DE9
330
81B9
100
AcDbEntity
  8
0
  6
ByBlock
100
AcDbLine
 10
-436.5227942337424
 20
-69.9023735498795
 30
0.0
 11
-436.5227942337424
 21
500.0976264501204
 31
0.0
  0
INSERT
  5
7DEA
330
81B9
100
AcDbEntity
  8
0
  6
ByBlock
100
AcDbBlockReference
  2
_OPEN
 10
-436.5227942337424
 20
-109.9023735498794
 30
0.0
 41
40.0
 42
40.0
 43
40.0
 50
270.0
  0
INSERT
  5
7DEB
330
81B9
100
AcDbEntity
  8
0
  6
ByBlock
100
AcDbBlockReference
  2
_OPEN
 10
-436.5227942337424
 20
540.0976264501204
 30
0.0
 41
40.0
 42
40.0
 43
40.0
 50
90.0
  0
TEXT
  5
7DEC
330
81B9
100
AcDbEntity
  8
3
100
AcDbText
 10
-446.5227942337422
 20
137.9547693072633
 30
0.0
 40
60.0
  1
650
 50
90.0
100
AcDbText
  0
POINT
  5
7DED
330
81B9
100
AcDbEntity
  8
DEFPOINTS
  6
ByBlock
 62
     0
100
AcDbPoint
 10
-307.9612595271855
 20
-109.9023735498794
 30
0.0
  0
POINT
  5
7DEE
330
81B9
100
AcDbEntity
  8
DEFPOINTS
  6
ByBlock
 62
     0
100
AcDbPoint
 10
-307.9612595271855
 20
540.0976264501204
 30
0.0
  0
POINT
  5
7DEF
330
81B9
100
AcDbEntity
  8
DEFPOINTS
  6
ByBlock
 62
     0
100
AcDbPoint
 10
-436.5227942337424
 20
540.0976264501204
 30
0.0
  0
ENDBLK
  5
7DF0
330
81B9
100
AcDbEntity
  8
0
100
AcDbBlockEnd
  0
BLOCK
  5
81BC
330
81BB
100
AcDbEntity
  8
0
100
AcDbBlockBegin
  2
*D5
 70
     1
 10
0.0
 20
0.0
 30
0.0
  3
*D5
  1

  0
LINE
  5
7DF2
330
81BB
100
AcDbEntity
  8
0
  6
ByBlock
100
AcDbLine
 10
-327.9612595271856
 20
-109.9023735498794
 30
0.0
 11
-576.1118528099395
 21
-109.9023735498794
 31
0.0
  0
LINE
  5
7DF3
330
81BB
100
AcDbEntity
  8
0
  6
ByBlock
100
AcDbLine
 10
-374.8542326301812
 20
568.0976264501205
 30
0.0
 11
-576.1118528099395
 21
568.0976264501205
 31
0.0
  0
LINE
  5
7DF4
330
81BB
100
AcDbEntity
  8
0
  6
ByBlock
100
AcDbLine
 10
-556.1118528099394
 20
-69.9023735498795
 30
0.0
 11
-556.1118528099394
 21
528.0976264501203
 31
0.0
  0
INSERT
  5
7DF5
330
81BB
100
AcDbEntity
  8
0
  6
ByBlock
100
AcDbBlockReference
  2
_OPEN
 10
-556.1118528099394
 20
-109.9023735498794
 30
0.0
 41
40.0
 42
40.0
 43
40.0
 50
270.0
  0
INSERT
  5
7DF6
330
81BB
100
AcDbEntity
  8
0
  6
ByBlock
100
AcDbBlockReference
  2
_OPEN
 10
-556.1118528099394
 20
568.0976264501205
 30
0.0
 41
40.0
 42
40.0
 43
40.0
 50
90.0
  0
TEXT
  5
7DF7
330
81BB
100
AcDbEntity
  8
3
100
AcDbText
 10
-566.1118528099397
 20
151.9547693072633
 30
0.0
 40
60.0
  1
678
 50
90.0
100
AcDbText
  0
POINT
  5
7DF8
330
81BB
100
AcDbEntity
  8
DEFPOINTS
  6
ByBlock
 62
     0
100
AcDbPoint
 10
-307.9612595271855
 20
-109.9023735498794
 30
0.0
  0
POINT
  5
7DF9
330
81BB
100
AcDbEntity
  8
DEFPOINTS
  6
ByBlock
 62
     0
100
AcDbPoint
 10
-354.8542326301812
 20
568.0976264501205
 30
0.0
  0
POINT
  5
7DFA
330
81BB
100
AcDbEntity
  8
DEFPOINTS
  6
ByBlock
 62
     0
100
AcDbPoint
 10
-556.1118528099394
 20
568.0976264501205
 30
0.0
  0
ENDBLK
  5
7DFB
330
81BB
100
AcDbEntity
  8
0
100
AcDbBlockEnd
  0
BLOCK
  5
81BE
330
81BD
100
AcDbEntity
  8
0
100
AcDbBlockBegin
  2
*D6
 70
     1
 10
0.0
 20
0.0
 30
0.0
  3
*D6
  1

  0
LINE
  5
7F43
330
81BD
100
AcDbEntity
  8
0
  6
ByBlock
100
AcDbLine
 10
3668.964424613871
 20
2654.660298728197
 30
0.0
 11
3917.001458184535
 21
2654.660298728197
 31
0.0
  0
LINE
  5
7F44
330
81BD
100
AcDbEntity
  8
0
  6
ByBlock
100
AcDbLine
 10
3668.964424613871
 20
1984.660298728196
 30
0.0
 11
3917.001458184535
 21
1984.660298728196
 31
0.0
  0
LINE
  5
7F45
330
81BD
100
AcDbEntity
  8
0
  6
ByBlock
100
AcDbLine
 10
3897.001458184535
 20
2614.660298728197
 30
0.0
 11
3897.001458184535
 21
2024.660298728196
 31
0.0
  0
INSERT
  5
7F46
330
81BD
100
AcDbEntity
  8
0
  6
ByBlock
100
AcDbBlockReference
  2
_OPEN
 10
3897.001458184535
 20
2654.660298728197
 30
0.0
 41
40.0
 42
40.0
 43
40.0
 50
90.0
  0
INSERT
  5
7F47
330
81BD
100
AcDbEntity
  8
0
  6
ByBlock
100
AcDbBlockReference
  2
_OPEN
 10
3897.001458184535
 20
1984.660298728196
 30
0.0
 41
40.0
 42
40.0
 43
40.0
 50
270.0
  0
TEXT
  5
7F48
330
81BD
100
AcDbEntity
  8
3
100
AcDbText
 10
3887.001458184535
 20
2212.517441585339
 30
0.0
 40
60.0
  1
\U+03C6670
 50
90.0
100
AcDbText
  0
POINT
  5
7F49
330
81BD
100
AcDbEntity
  8
DEFPOINTS
  6
ByBlock
 62
     0
100
AcDbPoint
 10
3648.964424613871
 20
2654.660298728197
 30
0.0
  0
POINT
  5
7F4A
330
81BD
100
AcDbEntity
  8
DEFPOINTS
  6
ByBlock
 62
     0
100
AcDbPoint
 10
3648.964424613871
 20
1984.660298728196
 30
0.0
  0
POINT
  5
7F4B
330
81BD
100
AcDbEntity
  8
DEFPOINTS
  6
ByBlock
 62
     0
100
AcDbPoint
 10
3897.001458184535
 20
1984.660298728196
 30
0.0
  0
ENDBLK
  5
7F4C
330
81BD
100
AcDbEntity
  8
0
100
AcDbBlockEnd
  0
BLOCK
  5
81C0
330
81BF
100
AcDbEntity
  8
0
100
AcDbBlockBegin
  2
*D7
 70
     1
 10
0.0
 20
0.0
 30
0.0
  3
*D7
  1

  0
LINE
  5
7E1E
330
81BF
100
AcDbEntity
  8
0
  6
ByBlock
100
AcDbLine
 10
2167.296193483282
 20
1018.497617330824
 30
0.0
 11
2167.296193483282
 21
1113.682524828345
 31
0.0
  0
LINE
  5
7E1F
330
81BF
100
AcDbEntity
  8
0
  6
ByBlock
100
AcDbLine
 10
2967.296193483282
 20
1018.497617330824
 30
0.0
 11
2967.296193483282
 21
1113.682524828345
 31
0.0
  0
LINE
  5
7E20
330
81BF
100
AcDbEntity
  8
0
  6
ByBlock
100
AcDbLine
 10
2207.296193483281
 20
1093.682524828345
 30
0.0
 11
2927.296193483282
 21
1093.682524828345
 31
0.0
  0
INSERT
  5
7E21
330
81BF
100
AcDbEntity
  8
0
  6
ByBlock
100
AcDbBlockReference
  2
_OPEN
 10
2167.296193483282
 20
1093.682524828345
 30
0.0
 41
40.0
 42
40.0
 43
40.0
 50
180.0
  0
INSERT
  5
7E22
330
81BF
100
AcDbEntity
  8
0
  6
ByBlock
100
AcDbBlockReference
  2
_OPEN
 10
2967.296193483282
 20
1093.682524828345
 30
0.0
 41
40.0
 42
40.0
 43
40.0
  0
TEXT
  5
7E23
330
81BF
100
AcDbEntity
  8
3
100
AcDbText
 10
2490.153336340425
 20
1103.682524828345
 30
0.0
 40
60.0
  1
800
100
AcDbText
  0
POINT
  5
7E24
330
81BF
100
AcDbEntity
  8
DEFPOINTS
  6
ByBlock
 62
     0
100
AcDbPoint
 10
2167.296193483282
 20
998.4976173308242
 30
0.0
  0
POINT
  5
7E25
330
81BF
100
AcDbEntity
  8
DEFPOINTS
  6
ByBlock
 62
     0
100
AcDbPoint
 10
2967.296193483282
 20
998.4976173308238
 30
0.0
  0
POINT
  5
7E26
330
81BF
100
AcDbEntity
  8
DEFPOINTS
  6
ByBlock
 62
     0
100
AcDbPoint
 10
2967.296193483282
 20
1093.682524828345
 30
0.0
  0
ENDBLK
  5
7E27
330
81BF
100
AcDbEntity
  8
0
100
AcDbBlockEnd
  0
BLOCK
  5
81C2
330
81C1
100
AcDbEntity
  8
0
100
AcDbBlockBegin
  2
*D8
 70
     1
 10
0.0
 20
0.0
 30
0.0
  3
*D8
  1

  0
LINE
  5
7E34
330
81C1
100
AcDbEntity
  8
0
  6
ByBlock
100
AcDbLine
 10
1202.038740472814
 20
1858.357209896735
 30
0.0
 11
1202.038740472814
 21
1582.955611777533
 31
0.0
  0
LINE
  5
7E35
330
81C1
100
AcDbEntity
  8
0
  6
ByBlock
100
AcDbLine
 10
-247.9612595271855
 20
1858.357209896736
 30
0.0
 11
-247.9612595271855
 21
1582.955611777533
 31
0.0
  0
LINE
  5
7E36
330
81C1
100
AcDbEntity
  8
0
  6
ByBlock
100
AcDbLine
 10
1162.038740472814
 20
1602.955611777533
 30
0.0
 11
-207.9612595271855
 21
1602.955611777533
 31
0.0
  0
INSERT
  5
7E37
330
81C1
100
AcDbEntity
  8
0
  6
ByBlock
100
AcDbBlockReference
  2
_OPEN
 10
1202.038740472814
 20
1602.955611777533
 30
0.0
 41
40.0
 42
40.0
 43
40.0
  0
INSERT
  5
7E38
330
81C1
100
AcDbEntity
  8
0
  6
ByBlock
100
AcDbBlockReference
  2
_OPEN
 10
-247.9612595271855
 20
1602.955611777533
 30
0.0
 41
40.0
 42
40.0
 43
40.0
 50
180.0
  0
TEXT
  5
7E39
330
81C1
100
AcDbEntity
  8
3
100
AcDbText
 10
377.0387404728144
 20
1612.955611777533
 30
0.0
 40
60.0
  1
1450
100
AcDbText
  0
POINT
  5
7E3A
330
81C1
100
AcDbEntity
  8
DEFPOINTS
  6
ByBlock
 62
     0
100
AcDbPoint
 10
1202.038740472814
 20
1878.357209896735
 30
0.0
  0
POINT
  5
7E3B
330
81C1
100
AcDbEntity
  8
DEFPOINTS
  6
ByBlock
 62
     0
100
AcDbPoint
 10
-247.9612595271855
 20
1878.357209896736
 30
0.0
  0
POINT
  5
7E3C
330
81C1
100
AcDbEntity
  8
DEFPOINTS
  6
ByBlock
 62
     0
100
AcDbPoint
 10
-247.9612595271855
 20
1602.955611777533
 30
0.0
  0
ENDBLK
  5
7E3D
330
81C1
100
AcDbEntity
  8
0
100
AcDbBlockEnd
  0
BLOCK
  5
81C4
330
81C3
100
AcDbEntity
  8
0
100
AcDbBlockBegin
  2
*D9
 70
     1
 10
0.0
 20
0.0
 30
0.0
  3
*D9
  1

  0
LINE
  5
7F63
330
81C3
100
AcDbEntity
  8
0
  6
ByBlock
100
AcDbLine
 10
746.1549378146927
 20
3492.710584264269
 30
0.0
 11
537.3629668160848
 21
3492.710584264269
 31
0.0
  0
LINE
  5
7F64
330
81C3
100
AcDbEntity
  8
0
  6
ByBlock
100
AcDbLine
 10
746.1549378146919
 20
4498.71058426427
 30
0.0
 11
537.3629668160848
 21
4498.71058426427
 31
0.0
  0
LINE
  5
7F65
330
81C3
100
AcDbEntity
  8
0
  6
ByBlock
100
AcDbLine
 10
557.3629668160848
 20
3532.710584264269
 30
0.0
 11
557.3629668160848
 21
4458.71058426427
 31
0.0
  0
INSERT
  5
7F66
330
81C3
100
AcDbEntity
  8
0
  6
ByBlock
100
AcDbBlockReference
  2
_OPEN
 10
557.3629668160848
 20
3492.710584264269
 30
0.0
 41
40.0
 42
40.0
 43
40.0
 50
270.0
  0
INSERT
  5
7F67
330
81C3
100
AcDbEntity
  8
0
  6
ByBlock
100
AcDbBlockReference
  2
_OPEN
 10
557.3629668160848
 20
4498.71058426427
 30
0.0
 41
40.0
 42
40.0
 43
40.0
 50
90.0
  0
TEXT
  5
7F68
330
81C3
100
AcDbEntity
  8
3
100
AcDbText
 10
547.3629668160848
 20
3897.13915569284
 30
0.0
 40
60.0
  1
1006
 50
90.0
100
AcDbText
  0
POINT
  5
7F69
330
81C3
100
AcDbEntity
  8
DEFPOINTS
  6
ByBlock
 62
     0
100
AcDbPoint
 10
766.1549378146927
 20
3492.710584264269
 30
0.0
  0
POINT
  5
7F6A
330
81C3
100
AcDbEntity
  8
DEFPOINTS
  6
ByBlock
 62
     0
100
AcDbPoint
 10
766.1549378146919
 20
4498.71058426427
 30
0.0
  0
POINT
  5
7F6B
330
81C3
100
AcDbEntity
  8
DEFPOINTS
  6
ByBlock
 62
     0
100
AcDbPoint
 10
557.3629668160848
 20
4498.71058426427
 30
0.0
  0
ENDBLK
  5
7F6C
330
81C3
100
AcDbEntity
  8
0
100
AcDbBlockEnd
  0
BLOCK
  5
81C6
330
81C5
100
AcDbEntity
  8
0
100
AcDbBlockBegin
  2
*D10
 70
     1
 10
0.0
 20
0.0
 30
0.0
  3
*D10
  1

  0
LINE
  5
7F58
330
81C5
100
AcDbEntity
  8
0
  6
ByBlock
100
AcDbLine
 10
1566.154937814693
 20
4518.710584264268
 30
0.0
 11
1566.154937814693
 21
4614.543070233767
 31
0.0
  0
LINE
  5
7F59
330
81C5
100
AcDbEntity
  8
0
  6
ByBlock
100
AcDbLine
 10
766.1549378146919
 20
4518.710584264272
 30
0.0
 11
766.1549378146919
 21
4614.543070233767
 31
0.0
  0
LINE
  5
7F5A
330
81C5
100
AcDbEntity
  8
0
  6
ByBlock
100
AcDbLine
 10
1526.154937814693
 20
4594.543070233767
 30
0.0
 11
806.1549378146919
 21
4594.543070233767
 31
0.0
  0
INSERT
  5
7F5B
330
81C5
100
AcDbEntity
  8
0
  6
ByBlock
100
AcDbBlockReference
  2
_OPEN
 10
1566.154937814693
 20
4594.543070233767
 30
0.0
 41
40.0
 42
40.0
 43
40.0
  0
INSERT
  5
7F5C
330
81C5
100
AcDbEntity
  8
0
  6
ByBlock
100
AcDbBlockReference
  2
_OPEN
 10
766.1549378146919
 20
4594.543070233767
 30
0.0
 41
40.0
 42
40.0
 43
40.0
 50
180.0
  0
TEXT
  5
7F5D
330
81C5
100
AcDbEntity
  8
3
100
AcDbText
 10
1089.012080671835
 20
4604.543070233767
 30
0.0
 40
60.0
  1
800
100
AcDbText
  0
POINT
  5
7F5E
330
81C5
100
AcDbEntity
  8
DEFPOINTS
  6
ByBlock
 62
     0
100
AcDbPoint
 10
1566.154937814693
 20
4498.710584264268
 30
0.0
  0
POINT
  5
7F5F
330
81C5
100
AcDbEntity
  8
DEFPOINTS
  6
ByBlock
 62
     0
100
AcDbPoint
 10
766.1549378146919
 20
4498.71058426427
 30
0.0
  0
POINT
  5
7F60
330
81C5
100
AcDbEntity
  8
DEFPOINTS
  6
ByBlock
 62
     0
100
AcDbPoint
 10
766.1549378146919
 20
4594.543070233767
 30
0.0
  0
ENDBLK
  5
7F61
330
81C5
100
AcDbEntity
  8
0
100
AcDbBlockEnd
  0
BLOCK
  5
81C8
330
81C7
100
AcDbEntity
  8
0
100
AcDbBlockBegin
  2
*D11
 70
     1
 10
0.0
 20
0.0
 30
0.0
  3
*D11
  1

  0
LINE
  5
7E55
330
81C7
100
AcDbEntity
  8
0
  6
ByBlock
100
AcDbLine
 10
1222.038740472814
 20
2478.357209896735
 30
0.0
 11
1372.466324348095
 21
2478.357209896735
 31
0.0
  0
LINE
  5
7E56
330
81C7
100
AcDbEntity
  8
0
  6
ByBlock
100
AcDbLine
 10
1222.038740472814
 20
1878.357209896735
 30
0.0
 11
1372.466324348095
 21
1878.357209896735
 31
0.0
  0
LINE
  5
7E57
330
81C7
100
AcDbEntity
  8
0
  6
ByBlock
100
AcDbLine
 10
1352.466324348095
 20
2438.357209896735
 30
0.0
 11
1352.466324348095
 21
1918.357209896735
 31
0.0
  0
INSERT
  5
7E58
330
81C7
100
AcDbEntity
  8
0
  6
ByBlock
100
AcDbBlockReference
  2
_OPEN
 10
1352.466324348095
 20
2478.357209896735
 30
0.0
 41
40.0
 42
40.0
 43
40.0
 50
90.0
  0
INSERT
  5
7E59
330
81C7
100
AcDbEntity
  8
0
  6
ByBlock
100
AcDbBlockReference
  2
_OPEN
 10
1352.466324348095
 20
1878.357209896735
 30
0.0
 41
40.0
 42
40.0
 43
40.0
 50
270.0
  0
TEXT
  5
7E5A
330
81C7
100
AcDbEntity
  8
3
100
AcDbText
 10
1342.466324348095
 20
2101.214352753876
 30
0.0
 40
60.0
  1
600
 50
90.0
100
AcDbText
  0
POINT
  5
7E5B
330
81C7
100
AcDbEntity
  8
DEFPOINTS
  6
ByBlock
 62
     0
100
AcDbPoint
 10
1202.038740472814
 20
2478.357209896735
 30
0.0
  0
POINT
  5
7E5C
330
81C7
100
AcDbEntity
  8
DEFPOINTS
  6
ByBlock
 62
     0
100
AcDbPoint
 10
1202.038740472814
 20
1878.357209896735
 30
0.0
  0
POINT
  5
7E5D
330
81C7
100
AcDbEntity
  8
DEFPOINTS
  6
ByBlock
 62
     0
100
AcDbPoint
 10
1352.466324348095
 20
1878.357209896735
 30
0.0
  0
ENDBLK
  5
7E5E
330
81C7
100
AcDbEntity
  8
0
100
AcDbBlockEnd
  0
BLOCK
  5
81CA
330
81C9
100
AcDbEntity
  8
0
100
AcDbBlockBegin
  2
*D12
 70
     1
 10
0.0
 20
0.0
 30
0.0
  3
*D12
  1

  0
LINE
  5
7F23
330
81C9
100
AcDbEntity
  8
0
  6
ByBlock
100
AcDbLine
 10
2216.154937814692
 20
1742.987676433646
 30
0.0
 11
2216.154937814692
 21
3123.034868643582
 31
0.0
  0
LINE
  5
7F24
330
81C9
100
AcDbEntity
  8
0
  6
ByBlock
100
AcDbLine
 10
706.1549378146927
 20
2383.152369081682
 30
0.0
 11
706.1549378146927
 21
3123.034868643582
 31
0.0
  0
LINE
  5
7F25
330
81C9
100
AcDbEntity
  8
0
  6
ByBlock
100
AcDbLine
 10
2176.154937814692
 20
3103.034868643582
 30
0.0
 11
746.1549378146927
 21
3103.034868643582
 31
0.0
  0
INSERT
  5
7F26
330
81C9
100
AcDbEntity
  8
0
  6
ByBlock
100
AcDbBlockReference
  2
_OPEN
 10
2216.154937814692
 20
3103.034868643582
 30
0.0
 41
40.0
 42
40.0
 43
40.0
  0
INSERT
  5
7F27
330
81C9
100
AcDbEntity
  8
0
  6
ByBlock
100
AcDbBlockReference
  2
_OPEN
 10
706.1549378146927
 20
3103.034868643582
 30
0.0
 41
40.0
 42
40.0
 43
40.0
 50
180.0
  0
TEXT
  5
7F28
330
81C9
100
AcDbEntity
  8
3
100
AcDbText
 10
1366.869223528978
 20
3113.034868643581
 30
0.0
 40
60.0
  1
1510
100
AcDbText
  0
POINT
  5
7F29
330
81C9
100
AcDbEntity
  8
DEFPOINTS
  6
ByBlock
 62
     0
100
AcDbPoint
 10
2216.154937814692
 20
1722.987676433645
 30
0.0
  0
POINT
  5
7F2A
330
81C9
100
AcDbEntity
  8
DEFPOINTS
  6
ByBlock
 62
     0
100
AcDbPoint
 10
706.1549378146927
 20
2363.152369081683
 30
0.0
  0
POINT
  5
7F2B
330
81C9
100
AcDbEntity
  8
DEFPOINTS
  6
ByBlock
 62
     0
100
AcDbPoint
 10
706.1549378146927
 20
3103.034868643582
 30
0.0
  0
ENDBLK
  5
7F2C
330
81C9
100
AcDbEntity
  8
0
100
AcDbBlockEnd
  0
BLOCK
  5
81CC
330
81CB
100
AcDbEntity
  8
0
100
AcDbBlockBegin
  2
*D13
 70
     1
 10
0.0
 20
0.0
 30
0.0
  3
*D13
  1

  0
LINE
  5
8014
330
81CB
100
AcDbEntity
  8
0
  6
ByBlock
100
AcDbLine
 10
3743.464424613871
 20
2309.660298728196
 30
0.0
 11
3743.464424613871
 21
3011.096369271985
 31
0.0
  0
LINE
  5
8015
330
81CB
100
AcDbEntity
  8
0
  6
ByBlock
100
AcDbLine
 10
3243.464424613871
 20
2927.011009353422
 30
0.0
 11
3243.464424613871
 21
3011.096369271985
 31
0.0
  0
LINE
  5
8016
330
81CB
100
AcDbEntity
  8
0
  6
ByBlock
100
AcDbLine
 10
3703.464424613871
 20
2991.096369271985
 30
0.0
 11
3283.464424613871
 21
2991.096369271985
 31
0.0
  0
INSERT
  5
8017
330
81CB
100
AcDbEntity
  8
0
  6
ByBlock
100
AcDbBlockReference
  2
_OPEN
 10
3743.464424613871
 20
2991.096369271985
 30
0.0
 41
40.0
 42
40.0
 43
40.0
  0
INSERT
  5
8018
330
81CB
100
AcDbEntity
  8
0
  6
ByBlock
100
AcDbBlockReference
  2
_OPEN
 10
3243.464424613871
 20
2991.096369271985
 30
0.0
 41
40.0
 42
40.0
 43
40.0
 50
180.0
  0
TEXT
  5
8019
330
81CB
100
AcDbEntity
  8
3
100
AcDbText
 10
3383.464424613871
 20
3026.810654986271
 30
0.0
 40
60.0
  1
(510)
100
AcDbText
  0
POINT
  5
801A
330
81CB
100
AcDbEntity
  8
DEFPOINTS
  6
ByBlock
 62
     0
100
AcDbPoint
 10
3743.464424613871
 20
2289.660298728196
 30
0.0
  0
POINT
  5
801B
330
81CB
100
AcDbEntity
  8
DEFPOINTS
  6
ByBlock
 62
     0
100
AcDbPoint
 10
3243.464424613871
 20
2907.011009353422
 30
0.0
  0
POINT
  5
801C
330
81CB
100
AcDbEntity
  8
DEFPOINTS
  6
ByBlock
 62
     0
100
AcDbPoint
 10
3243.464424613871
 20
2991.096369271985
 30
0.0
  0
ENDBLK
  5
801D
330
81CB
100
AcDbEntity
  8
0
100
AcDbBlockEnd
  0
BLOCK
  5
81CE
330
81CD
100
AcDbEntity
  8
0
100
AcDbBlockBegin
  2
*D14
 70
     1
 10
0.0
 20
0.0
 30
0.0
  3
*D14
  1

  0
LINE
  5
80FE
330
81CD
100
AcDbEntity
  8
3
100
AcDbLine
 10
2563.464424613871
 20
2489.660298728197
 30
0.0
 11
2563.464424613871
 21
3011.096369271985
 31
0.0
  0
LINE
  5
80FF
330
81CD
100
AcDbEntity
  8
3
100
AcDbLine
 10
3203.464424613871
 20
2991.096369271985
 30
0.0
 11
2603.464424613871
 21
2991.096369271985
 31
0.0
  0
INSERT
  5
8100
330
81CD
100
AcDbEntity
  8
3
100
AcDbBlockReference
  2
_OPEN
 10
3243.464424613871
 20
2991.096369271985
 30
0.0
 41
40.0
 42
40.0
 43
40.0
  0
INSERT
  5
8101
330
81CD
100
AcDbEntity
  8
3
100
AcDbBlockReference
  2
_OPEN
 10
2563.464424613871
 20
2991.096369271985
 30
0.0
 41
40.0
 42
40.0
 43
40.0
 50
180.0
  0
TEXT
  5
812D
330
81CD
100
AcDbEntity
  8
3
100
AcDbText
 10
2783.46
 20
2974.9
 30
0.0
 40
60.0
  1
MAX
100
AcDbText
  0
TEXT
  5
812E
330
81CD
100
AcDbEntity
  8
3
100
AcDbText
 10
2783.46
 20
2896.9
 30
0.0
 40
60.0
  1
710
100
AcDbText
  0
POINT
  5
8103
330
81CD
100
AcDbEntity
  8
DEFPOINTS
 62
     0
100
AcDbPoint
 10
3243.464424613871
 20
2907.011009353422
 30
0.0
  0
POINT
  5
8104
330
81CD
100
AcDbEntity
  8
DEFPOINTS
 62
     0
100
AcDbPoint
 10
2563.464424613871
 20
2469.660298728197
 30
0.0
  0
POINT
  5
8105
330
81CD
100
AcDbEntity
  8
DEFPOINTS
 62
     0
100
AcDbPoint
 10
2563.464424613871
 20
2991.096369271985
 30
0.0
  0
ENDBLK
  5
8012
330
81CD
100
AcDbEntity
  8
0
100
AcDbBlockEnd
  0
BLOCK
  5
81D0
330
81CF
100
AcDbEntity
  8
0
100
AcDbBlockBegin
  2
*D15
 70
     1
 10
0.0
 20
0.0
 30
0.0
  3
*D15
  1

  0
LINE
  5
8106
330
81CF
100
AcDbEntity
  8
3
100
AcDbLine
 10
2459.055040675533
 20
4112.710584264267
 30
0.0
 11
2459.055040675533
 21
4614.543070233767
 31
0.0
  0
LINE
  5
8107
330
81CF
100
AcDbEntity
  8
3
100
AcDbLine
 10
1849.055040675533
 20
4594.543070233767
 30
0.0
 11
2419.055040675532
 21
4594.543070233767
 31
0.0
  0
INSERT
  5
8108
330
81CF
100
AcDbEntity
  8
3
100
AcDbBlockReference
  2
_OPEN
 10
1809.055040675533
 20
4594.543070233767
 30
0.0
 41
40.0
 42
40.0
 43
40.0
 50
180.0
  0
INSERT
  5
8109
330
81CF
100
AcDbEntity
  8
3
100
AcDbBlockReference
  2
_OPEN
 10
2459.055040675533
 20
4594.543070233767
 30
0.0
 41
40.0
 42
40.0
 43
40.0
  0
TEXT
  5
812F
330
81CF
100
AcDbEntity
  8
3
100
AcDbText
 10
2014.06
 20
4528.34
 30
0.0
 40
60.0
  1
650
100
AcDbText
  0
POINT
  5
810B
330
81CF
100
AcDbEntity
  8
DEFPOINTS
 62
     0
100
AcDbPoint
 10
1809.055040675533
 20
4498.710584264268
 30
0.0
  0
POINT
  5
810C
330
81CF
100
AcDbEntity
  8
DEFPOINTS
 62
     0
100
AcDbPoint
 10
2459.055040675533
 20
4092.710584264266
 30
0.0
  0
POINT
  5
810D
330
81CF
100
AcDbEntity
  8
DEFPOINTS
 62
     0
100
AcDbPoint
 10
2459.055040675533
 20
4594.543070233767
 30
0.0
  0
ENDBLK
  5
7F56
330
81CF
100
AcDbEntity
  8
0
100
AcDbBlockEnd
  0
BLOCK
  5
81D2
330
81D1
100
AcDbEntity
  8
0
100
AcDbBlockBegin
  2
*D16
 70
     1
 10
0.0
 20
0.0
 30
0.0
  3
*D16
  1

  0
LINE
  5
7F03
330
81D1
100
AcDbEntity
  8
0
  6
ByBlock
100
AcDbLine
 10
706.1549378146927
 20
2402.987676433645
 30
0.0
 11
706.1549378146927
 21
2992.206601340543
 31
0.0
  0
LINE
  5
7F04
330
81D1
100
AcDbEntity
  8
0
  6
ByBlock
100
AcDbLine
 10
1166.154937814692
 20
2858.70588540751
 30
0.0
 11
1166.154937814692
 21
2992.206601340543
 31
0.0
  0
LINE
  5
7F05
330
81D1
100
AcDbEntity
  8
0
  6
ByBlock
100
AcDbLine
 10
746.1549378146927
 20
2972.206601340543
 30
0.0
 11
1126.154937814692
 21
2972.206601340543
 31
0.0
  0
INSERT
  5
7F06
330
81D1
100
AcDbEntity
  8
0
  6
ByBlock
100
AcDbBlockReference
  2
_OPEN
 10
706.1549378146927
 20
2972.206601340543
 30
0.0
 41
40.0
 42
40.0
 43
40.0
 50
180.0
  0
INSERT
  5
7F07
330
81D1
100
AcDbEntity
  8
0
  6
ByBlock
100
AcDbBlockReference
  2
_OPEN
 10
1166.154937814692
 20
2972.206601340543
 30
0.0
 41
40.0
 42
40.0
 43
40.0
  0
TEXT
  5
7F08
330
81D1
100
AcDbEntity
  8
3
100
AcDbText
 10
859.0120806718356
 20
2982.206601340543
 30
0.0
 40
60.0
  1
460
100
AcDbText
  0
POINT
  5
7F09
330
81D1
100
AcDbEntity
  8
DEFPOINTS
  6
ByBlock
 62
     0
100
AcDbPoint
 10
706.1549378146927
 20
2382.987676433645
 30
0.0
  0
POINT
  5
7F0A
330
81D1
100
AcDbEntity
  8
DEFPOINTS
  6
ByBlock
 62
     0
100
AcDbPoint
 10
1166.154937814692
 20
2838.70588540751
 30
0.0
  0
POINT
  5
7F0B
330
81D1
100
AcDbEntity
  8
DEFPOINTS
  6
ByBlock
 62
     0
100
AcDbPoint
 10
1166.154937814692
 20
2972.206601340543
 30
0.0
  0
ENDBLK
  5
7F0C
330
81D1
100
AcDbEntity
  8
0
100
AcDbBlockEnd
  0
BLOCK
  5
81D4
330
81D3
100
AcDbEntity
  8
0
100
AcDbBlockBegin
  2
*D17
 70
     1
 10
0.0
 20
0.0
 30
0.0
  3
*D17
  1

  0
LINE
  5
810E
330
81D3
100
AcDbEntity
  8
3
100
AcDbLine
 10
1957.055040675532
 20
2292.660298728196
 30
0.0
 11
1957.055040675532
 21
2928.879223635093
 31
0.0
  0
LINE
  5
810F
330
81D3
100
AcDbEntity
  8
3
100
AcDbLine
 10
1449.055040675532
 20
2908.879223635093
 30
0.0
 11
1917.055040675532
 21
2908.879223635093
 31
0.0
  0
INSERT
  5
8110
330
81D3
100
AcDbEntity
  8
3
100
AcDbBlockReference
  2
_OPEN
 10
1409.055040675532
 20
2908.879223635093
 30
0.0
 41
40.0
 42
40.0
 43
40.0
 50
180.0
  0
INSERT
  5
8111
330
81D3
100
AcDbEntity
  8
3
100
AcDbBlockReference
  2
_OPEN
 10
1957.055040675532
 20
2908.879223635093
 30
0.0
 41
40.0
 42
40.0
 43
40.0
  0
TEXT
  5
8130
330
81D3
100
AcDbEntity
  8
3
100
AcDbText
 10
1563.06
 20
2842.68
 30
0.0
 40
60.0
  1
548
100
AcDbText
  0
POINT
  5
8113
330
81D3
100
AcDbEntity
  8
DEFPOINTS
 62
     0
100
AcDbPoint
 10
1409.055040675532
 20
2775.378507702062
 30
0.0
  0
POINT
  5
8114
330
81D3
100
AcDbEntity
  8
DEFPOINTS
 62
     0
100
AcDbPoint
 10
1957.055040675532
 20
2272.660298728196
 30
0.0
  0
POINT
  5
8115
330
81D3
100
AcDbEntity
  8
DEFPOINTS
 62
     0
100
AcDbPoint
 10
1957.055040675532
 20
2908.879223635093
 30
0.0
  0
ENDBLK
  5
7EF6
330
81D3
100
AcDbEntity
  8
0
100
AcDbBlockEnd
  0
BLOCK
  5
81D6
330
81D5
100
AcDbEntity
  8
0
100
AcDbBlockBegin
  2
*D18
 70
     1
 10
0.0
 20
0.0
 30
0.0
  3
*D18
  1

  0
LINE
  5
7EB5
330
81D5
100
AcDbEntity
  8
0
  6
ByBlock
100
AcDbLine
 10
179.0387404728144
 20
1022.09762645012
 30
0.0
 11
-683.540011941328
 21
1022.09762645012
 31
0.0
  0
LINE
  5
7EB6
330
81D5
100
AcDbEntity
  8
0
  6
ByBlock
100
AcDbLine
 10
-394.8542326301812
 20
568.0976264501205
 30
0.0
 11
-683.540011941328
 21
568.0976264501205
 31
0.0
  0
LINE
  5
7EB7
330
81D5
100
AcDbEntity
  8
0
  6
ByBlock
100
AcDbLine
 10
-663.5400119413279
 20
982.0976264501204
 30
0.0
 11
-663.5400119413279
 21
608.0976264501205
 31
0.0
  0
INSERT
  5
7EB8
330
81D5
100
AcDbEntity
  8
0
  6
ByBlock
100
AcDbBlockReference
  2
_OPEN
 10
-663.5400119413279
 20
1022.09762645012
 30
0.0
 41
40.0
 42
40.0
 43
40.0
 50
90.0
  0
INSERT
  5
7EB9
330
81D5
100
AcDbEntity
  8
0
  6
ByBlock
100
AcDbBlockReference
  2
_OPEN
 10
-663.5400119413279
 20
568.0976264501205
 30
0.0
 41
40.0
 42
40.0
 43
40.0
 50
270.0
  0
TEXT
  5
7EBA
330
81D5
100
AcDbEntity
  8
3
100
AcDbText
 10
-673.5400119413278
 20
716.526197878692
 30
0.0
 40
60.0
  1
454
 50
90.0
100
AcDbText
  0
POINT
  5
7EBB
330
81D5
100
AcDbEntity
  8
DEFPOINTS
  6
ByBlock
 62
     0
100
AcDbPoint
 10
199.0387404728144
 20
1022.09762645012
 30
0.0
  0
POINT
  5
7EBC
330
81D5
100
AcDbEntity
  8
DEFPOINTS
  6
ByBlock
 62
     0
100
AcDbPoint
 10
-374.8542326301812
 20
568.0976264501205
 30
0.0
  0
POINT
  5
7EBD
330
81D5
100
AcDbEntity
  8
DEFPOINTS
  6
ByBlock
 62
     0
100
AcDbPoint
 10
-663.5400119413279
 20
568.0976264501205
 30
0.0
  0
ENDBLK
  5
7EBE
330
81D5
100
AcDbEntity
  8
0
100
AcDbBlockEnd
  0
BLOCK
  5
81D8
330
81D7
100
AcDbEntity
  8
0
100
AcDbBlockBegin
  2
*D19
 70
     1
 10
0.0
 20
0.0
 30
0.0
  3
*D19
  1

  0
LINE
  5
8116
330
81D7
100
AcDbEntity
  8
3
 62
     0
100
AcDbLine
 10
872.1620675725372
 20
2319.660298728196
 30
0.0
 11
573.4762882613905
 21
2319.660298728196
 31
0.0
  0
LINE
  5
8117
330
81D7
100
AcDbEntity
  8
3
 62
     0
100
AcDbLine
 10
999.0550406755327
 20
1519.660298728196
 30
0.0
 11
573.4762882613904
 21
1519.660298728196
 31
0.0
  0
LINE
  5
8118
330
81D7
100
AcDbEntity
  8
3
 62
     0
100
AcDbLine
 10
593.4762882613905
 20
2279.660298728197
 30
0.0
 11
593.4762882613904
 21
1559.660298728196
 31
0.0
  0
INSERT
  5
8119
330
81D7
100
AcDbEntity
  8
3
 62
     0
100
AcDbBlockReference
  2
_OPEN
 10
593.4762882613905
 20
2319.660298728196
 30
0.0
 41
40.0
 42
40.0
 43
40.0
 50
90.0
  0
INSERT
  5
811A
330
81D7
100
AcDbEntity
  8
3
 62
     0
100
AcDbBlockReference
  2
_OPEN
 10
593.4762882613904
 20
1519.660298728196
 30
0.0
 41
40.0
 42
40.0
 43
40.0
 50
270.0
  0
TEXT
  5
8131
330
81D7
100
AcDbEntity
  8
3
 62
     0
100
AcDbText
 10
423.4759999999999
 20
1813.46
 30
0.0
 40
60.0
  1
800
100
AcDbText
  0
POINT
  5
811C
330
81D7
100
AcDbEntity
  8
DEFPOINTS
 62
     0
100
AcDbPoint
 10
882.1620675725371
 20
2319.660298728196
 30
0.0
  0
POINT
  5
811D
330
81D7
100
AcDbEntity
  8
DEFPOINTS
 62
     0
100
AcDbPoint
 10
1009.055040675532
 20
1519.660298728196
 30
0.0
  0
POINT
  5
811E
330
81D7
100
AcDbEntity
  8
DEFPOINTS
 62
     0
100
AcDbPoint
 10
593.4762882613904
 20
1519.660298728196
 30
0.0
  0
ENDBLK
  5
7FAE
330
81D7
100
AcDbEntity
  8
0
100
AcDbBlockEnd
  0
BLOCK
  5
81DA
330
81D9
100
AcDbEntity
  8
0
100
AcDbBlockBegin
  2
*D20
 70
     1
 10
0.0
 20
0.0
 30
0.0
  3
*D20
  1

  0
LINE
  5
811F
330
81D9
100
AcDbEntity
  8
3
 62
     0
100
AcDbLine
 10
999.0550406755327
 20
1492.660298728196
 30
0.0
 11
573.4762882613904
 21
1492.660298728196
 31
0.0
  0
LINE
  5
8120
330
81D9
100
AcDbEntity
  8
3
 62
     0
100
AcDbLine
 10
999.0550406755327
 20
1392.660298728196
 30
0.0
 11
573.4762882613904
 21
1392.660298728196
 31
0.0
  0
LINE
  5
8121
330
81D9
100
AcDbEntity
  8
3
 62
     0
100
AcDbLine
 10
593.4762882613904
 20
1532.660298728196
 30
0.0
 11
593.4762882613904
 21
1572.660298728196
 31
0.0
  0
LINE
  5
8122
330
81D9
100
AcDbEntity
  8
3
 62
     0
100
AcDbLine
 10
593.4762882613904
 20
1352.660298728196
 30
0.0
 11
593.4762882613902
 21
1129.803155871052
 31
0.0
  0
LINE
  5
8123
330
81D9
100
AcDbEntity
  8
3
 62
     0
100
AcDbLine
 10
593.4762882613904
 20
1492.660298728196
 30
0.0
 11
593.4762882613904
 21
1392.660298728196
 31
0.0
  0
INSERT
  5
8124
330
81D9
100
AcDbEntity
  8
3
 62
     0
100
AcDbBlockReference
  2
_DOT
 10
593.4762882613904
 20
1492.660298728196
 30
0.0
 41
40.0
 42
40.0
 43
40.0
 50
270.0
  0
INSERT
  5
8125
330
81D9
100
AcDbEntity
  8
3
 62
     0
100
AcDbBlockReference
  2
_OPEN
 10
593.4762882613904
 20
1392.660298728196
 30
0.0
 41
40.0
 42
40.0
 43
40.0
 50
90.0
  0
TEXT
  5
8132
330
81D9
100
AcDbEntity
  8
3
 62
     0
100
AcDbText
 10
423.4759999999999
 20
1115.03
 30
0.0
 40
60.0
  1
100
100
AcDbText
  0
POINT
  5
8127
330
81D9
100
AcDbEntity
  8
DEFPOINTS
 62
     0
100
AcDbPoint
 10
1009.055040675532
 20
1492.660298728196
 30
0.0
  0
POINT
  5
8128
330
81D9
100
AcDbEntity
  8
DEFPOINTS
 62
     0
100
AcDbPoint
 10
1009.055040675532
 20
1392.660298728196
 30
0.0
  0
POINT
  5
8129
330
81D9
100
AcDbEntity
  8
DEFPOINTS
 62
     0
100
AcDbPoint
 10
593.4762882613904
 20
1392.660298728196
 30
0.0
  0
ENDBLK
  5
7FF7
330
81D9
100
AcDbEntity
  8
0
100
AcDbBlockEnd
  0
BLOCK
  5
81DC
330
81DB
100
AcDbEntity
  8
0
100
AcDbBlockBegin
  2
_DOT
 70
     0
 10
0.0
 20
0.0
 30
0.0
  3
_DOT
  1

  0
LWPOLYLINE
  5
7FFA
330
81DB
100
AcDbEntity
  8
0
  6
ByBlock
 62
     0
100
AcDbPolyline
 90
        2
 70
     1
 43
0.25
 10
-0.125
 20
0.0
 42
1.0
 10
0.125
 20
0.0
 42
1.0
  0
LINE
  5
7FFE
330
81DB
100
AcDbEntity
  8
0
  6
ByBlock
 62
     0
100
AcDbLine
 10
-0.25
 20
0.0
 30
0.0
 11
-1.0
 21
0.0
 31
0.0
  0
ENDBLK
  5
7FDD
330
81DB
100
AcDbEntity
  8
0
100
AcDbBlockEnd
  0
BLOCK
  5
81DE
330
81DD
100
AcDbEntity
  8
0
100
AcDbBlockBegin
  2
*D22
 70
     1
 10
0.0
 20
0.0
 30
0.0
  3
*D22
  1

  0
LINE
  5
8028
330
81DD
100
AcDbEntity
  8
0
  6
ByBlock
 62
     0
100
AcDbLine
 10
1009.055040675532
 20
1372.660298728196
 30
0.0
 11
1009.055040675532
 21
1228.490184055159
 31
0.0
  0
LINE
  5
8029
330
81DD
100
AcDbEntity
  8
0
  6
ByBlock
 62
     0
100
AcDbLine
 10
1409.055040675533
 20
1372.660298728196
 30
0.0
 11
1409.055040675533
 21
1228.490184055159
 31
0.0
  0
LINE
  5
802A
330
81DD
100
AcDbEntity
  8
0
  6
ByBlock
 62
     0
100
AcDbLine
 10
1049.055040675533
 20
1248.490184055159
 30
0.0
 11
1369.055040675533
 21
1248.490184055159
 31
0.0
  0
INSERT
  5
802B
330
81DD
100
AcDbEntity
  8
0
  6
ByBlock
 62
     0
100
AcDbBlockReference
  2
_OPEN
 10
1009.055040675532
 20
1248.490184055159
 30
0.0
 41
40.0
 42
40.0
 43
40.0
 50
180.0
  0
INSERT
  5
802C
330
81DD
100
AcDbEntity
  8
0
  6
ByBlock
 62
     0
100
AcDbBlockReference
  2
_OPEN
 10
1409.055040675533
 20
1248.490184055159
 30
0.0
 41
40.0
 42
40.0
 43
40.0
  0
TEXT
  5
802D
330
81DD
100
AcDbEntity
  8
3
 62
     0
100
AcDbText
 10
1131.912183532675
 20
1268.490184055159
 30
0.0
 40
60.0
  1
400
100
AcDbText
  0
POINT
  5
802E
330
81DD
100
AcDbEntity
  8
DEFPOINTS
  6
ByBlock
 62
     0
100
AcDbPoint
 10
1009.055040675532
 20
1392.660298728196
 30
0.0
  0
POINT
  5
802F
330
81DD
100
AcDbEntity
  8
DEFPOINTS
  6
ByBlock
 62
     0
100
AcDbPoint
 10
1409.055040675533
 20
1392.660298728196
 30
0.0
  0
POINT
  5
8030
330
81DD
100
AcDbEntity
  8
DEFPOINTS
  6
ByBlock
 62
     0
100
AcDbPoint
 10
1409.055040675533
 20
1248.490184055159
 30
0.0
  0
ENDBLK
  5
8031
330
81DD
100
AcDbEntity
  8
0
100
AcDbBlockEnd
  0
BLOCK
  5
81E0
330
81DF
100
AcDbEntity
  8
0
100
AcDbBlockBegin
  2
*D23
 70
     1
 10
0.0
 20
0.0
 30
0.0
  3
*D23
  1

  0
LINE
  5
8035
330
81DF
100
AcDbEntity
  8
0
  6
ByBlock
 62
     0
100
AcDbLine
 10
1409.055040675533
 20
1372.660298728196
 30
0.0
 11
1409.055040675533
 21
1228.490184055159
 31
0.0
  0
LINE
  5
8036
330
81DF
100
AcDbEntity
  8
0
  6
ByBlock
 62
     0
100
AcDbLine
 10
2459.055040675533
 20
1372.660298728196
 30
0.0
 11
2459.055040675533
 21
1228.490184055159
 31
0.0
  0
LINE
  5
8037
330
81DF
100
AcDbEntity
  8
0
  6
ByBlock
 62
     0
100
AcDbLine
 10
1449.055040675533
 20
1248.490184055159
 30
0.0
 11
2419.055040675532
 21
1248.490184055159
 31
0.0
  0
INSERT
  5
8038
330
81DF
100
AcDbEntity
  8
0
  6
ByBlock
 62
     0
100
AcDbBlockReference
  2
_OPEN
 10
1409.055040675533
 20
1248.490184055159
 30
0.0
 41
40.0
 42
40.0
 43
40.0
 50
180.0
  0
INSERT
  5
8039
330
81DF
100
AcDbEntity
  8
0
  6
ByBlock
 62
     0
100
AcDbBlockReference
  2
_OPEN
 10
2459.055040675533
 20
1248.490184055159
 30
0.0
 41
40.0
 42
40.0
 43
40.0
  0
TEXT
  5
803A
330
81DF
100
AcDbEntity
  8
3
 62
     0
100
AcDbText
 10
1834.055040675533
 20
1268.490184055159
 30
0.0
 40
60.0
  1
1050
100
AcDbText
  0
POINT
  5
803B
330
81DF
100
AcDbEntity
  8
DEFPOINTS
  6
ByBlock
 62
     0
100
AcDbPoint
 10
1409.055040675533
 20
1392.660298728196
 30
0.0
  0
POINT
  5
803C
330
81DF
100
AcDbEntity
  8
DEFPOINTS
  6
ByBlock
 62
     0
100
AcDbPoint
 10
2459.055040675533
 20
1392.660298728196
 30
0.0
  0
POINT
  5
803D
330
81DF
100
AcDbEntity
  8
DEFPOINTS
  6
ByBlock
 62
     0
100
AcDbPoint
 10
2459.055040675533
 20
1248.490184055159
 30
0.0
  0
ENDBLK
  5
803E
330
81DF
100
AcDbEntity
  8
0
100
AcDbBlockEnd
  0
BLOCK
  5
81E2
330
81E1
100
AcDbEntity
  8
0
100
AcDbBlockBegin
  2
*D24
 70
     1
 10
0.0
 20
0.0
 30
0.0
  3
*D24
  1

  0
LINE
  5
8042
330
81E1
100
AcDbEntity
  8
0
  6
ByBlock
 62
     0
100
AcDbLine
 10
2690.464424613871
 20
1372.660298728196
 30
0.0
 11
2690.464424613871
 21
1228.490184055159
 31
0.0
  0
LINE
  5
8043
330
81E1
100
AcDbEntity
  8
0
  6
ByBlock
 62
     0
100
AcDbLine
 10
3243.464424613871
 20
1372.660298728196
 30
0.0
 11
3243.464424613871
 21
1228.490184055159
 31
0.0
  0
LINE
  5
8044
330
81E1
100
AcDbEntity
  8
0
  6
ByBlock
 62
     0
100
AcDbLine
 10
2730.464424613871
 20
1248.490184055159
 30
0.0
 11
3203.464424613871
 21
1248.490184055159
 31
0.0
  0
INSERT
  5
8045
330
81E1
100
AcDbEntity
  8
0
  6
ByBlock
 62
     0
100
AcDbBlockReference
  2
_OPEN
 10
2690.464424613871
 20
1248.490184055159
 30
0.0
 41
40.0
 42
40.0
 43
40.0
 50
180.0
  0
INSERT
  5
8046
330
81E1
100
AcDbEntity
  8
0
  6
ByBlock
 62
     0
100
AcDbBlockReference
  2
_OPEN
 10
3243.464424613871
 20
1248.490184055159
 30
0.0
 41
40.0
 42
40.0
 43
40.0
  0
TEXT
  5
8047
330
81E1
100
AcDbEntity
  8
3
 62
     0
100
AcDbText
 10
2889.821567471014
 20
1268.490184055159
 30
0.0
 40
60.0
  1
553
100
AcDbText
  0
POINT
  5
8048
330
81E1
100
AcDbEntity
  8
DEFPOINTS
  6
ByBlock
 62
     0
100
AcDbPoint
 10
2690.464424613871
 20
1392.660298728196
 30
0.0
  0
POINT
  5
8049
330
81E1
100
AcDbEntity
  8
DEFPOINTS
  6
ByBlock
 62
     0
100
AcDbPoint
 10
3243.464424613871
 20
1392.660298728196
 30
0.0
  0
POINT
  5
804A
330
81E1
100
AcDbEntity
  8
DEFPOINTS
  6
ByBlock
 62
     0
100
AcDbPoint
 10
3243.464424613871
 20
1248.490184055159
 30
0.0
  0
ENDBLK
  5
804B
330
81E1
100
AcDbEntity
  8
0
100
AcDbBlockEnd
  0
BLOCK
  5
81E4
330
81E3
100
AcDbEntity
  8
0
100
AcDbBlockBegin
  2
*D25
 70
     1
 10
0.0
 20
0.0
 30
0.0
  3
*D25
  1

  0
LINE
  5
804F
330
81E3
100
AcDbEntity
  8
0
  6
ByBlock
 62
     0
100
AcDbLine
 10
3243.464424613871
 20
1372.660298728196
 30
0.0
 11
3243.464424613871
 21
1228.490184055159
 31
0.0
  0
LINE
  5
8050
330
81E3
100
AcDbEntity
  8
0
  6
ByBlock
 62
     0
100
AcDbLine
 10
3696.464424613871
 20
1372.660298728196
 30
0.0
 11
3696.464424613871
 21
1228.490184055159
 31
0.0
  0
LINE
  5
8051
330
81E3
100
AcDbEntity
  8
0
  6
ByBlock
 62
     0
100
AcDbLine
 10
3283.464424613871
 20
1248.490184055159
 30
0.0
 11
3656.464424613871
 21
1248.490184055159
 31
0.0
  0
INSERT
  5
8052
330
81E3
100
AcDbEntity
  8
0
  6
ByBlock
 62
     0
100
AcDbBlockReference
  2
_OPEN
 10
3243.464424613871
 20
1248.490184055159
 30
0.0
 41
40.0
 42
40.0
 43
40.0
 50
180.0
  0
INSERT
  5
8053
330
81E3
100
AcDbEntity
  8
0
  6
ByBlock
 62
     0
100
AcDbBlockReference
  2
_OPEN
 10
3696.464424613871
 20
1248.490184055159
 30
0.0
 41
40.0
 42
40.0
 43
40.0
  0
TEXT
  5
8054
330
81E3
100
AcDbEntity
  8
3
 62
     0
100
AcDbText
 10
3392.821567471013
 20
1268.490184055159
 30
0.0
 40
60.0
  1
453
100
AcDbText
  0
POINT
  5
8055
330
81E3
100
AcDbEntity
  8
DEFPOINTS
  6
ByBlock
 62
     0
100
AcDbPoint
 10
3243.464424613871
 20
1392.660298728196
 30
0.0
  0
POINT
  5
8056
330
81E3
100
AcDbEntity
  8
DEFPOINTS
  6
ByBlock
 62
     0
100
AcDbPoint
 10
3696.464424613871
 20
1392.660298728196
 30
0.0
  0
POINT
  5
8057
330
81E3
100
AcDbEntity
  8
DEFPOINTS
  6
ByBlock
 62
     0
100
AcDbPoint
 10
3696.464424613871
 20
1248.490184055159
 30
0.0
  0
ENDBLK
  5
8058
330
81E3
100
AcDbEntity
  8
0
100
AcDbBlockEnd
  0
BLOCK
  5
81E6
330
81E5
100
AcDbEntity
  8
0
100
AcDbBlockBegin
  2
_NONE
 70
     0
 10
0.0
 20
0.0
 30
0.0
  3
_NONE
  1

  0
CIRCLE
  5
806B
330
81E5
100
AcDbEntity
  8
0
  6
ByBlock
 62
     0
100
AcDbCircle
 10
0.0
 20
0.0
 30
0.0
 40
0.25
  0
ENDBLK
  5
806C
330
81E5
100
AcDbEntity
  8
0
100
AcDbBlockEnd
  0
BLOCK
  5
81E8
330
81E7
100
AcDbEntity
  8
0
100
AcDbBlockBegin
  2
*D27
 70
     1
 10
0.0
 20
0.0
 30
0.0
  3
*D27
  1

  0
LINE
  5
806F
330
81E7
100
AcDbEntity
  8
0
  6
ByBlock
 62
     0
100
AcDbLine
 10
592.2948864322789
 20
1492.660298728196
 30
0.0
 11
592.2948864322789
 21
1492.660298728196
 31
0.0
  0
LINE
  5
8070
330
81E7
100
AcDbEntity
  8
0
  6
ByBlock
 62
     0
100
AcDbLine
 10
592.2948864322789
 20
1519.660298728196
 30
0.0
 11
592.2948864322789
 21
1599.660298728196
 31
0.0
  0
TEXT
  5
8071
330
81E7
100
AcDbEntity
  8
3
 62
     0
100
AcDbText
 10
516.5806007179931
 20
1419.017441585339
 30
0.0
 40
60.0
  1
(27)
 50
90.0
100
AcDbText
  0
LINE
  5
8072
330
81E7
100
AcDbEntity
  8
0
  6
ByBlock
 62
     0
100
AcDbLine
 10
592.2948864322789
 20
1492.660298728196
 30
0.0
 11
592.2948864322789
 21
1519.660298728196
 31
0.0
  0
POINT
  5
8073
330
81E7
100
AcDbEntity
  8
DEFPOINTS
  6
ByBlock
 62
     0
100
AcDbPoint
 10
1009.055040675532
 20
1492.660298728196
 30
0.0
  0
POINT
  5
8074
330
81E7
100
AcDbEntity
  8
DEFPOINTS
  6
ByBlock
 62
     0
100
AcDbPoint
 10
1009.055040675532
 20
1519.660298728196
 30
0.0
  0
POINT
  5
8075
330
81E7
100
AcDbEntity
  8
DEFPOINTS
  6
ByBlock
 62
     0
100
AcDbPoint
 10
592.2948864322789
 20
1519.660298728196
 30
0.0
  0
ENDBLK
  5
8076
330
81E7
100
AcDbEntity
  8
0
100
AcDbBlockEnd
  0
BLOCK
  5
81EA
330
81E9
100
AcDbEntity
  8
0
100
AcDbBlockBegin
  2
*D28
 70
     1
 10
0.0
 20
0.0
 30
0.0
  3
*D28
  1

  0
LINE
  5
807A
330
81E9
100
AcDbEntity
  8
0
  6
ByBlock
 62
     0
100
AcDbLine
 10
989.0550406755327
 20
1392.660298728196
 30
0.0
 11
395.5830748515218
 21
1392.660298728196
 31
0.0
  0
LINE
  5
807B
330
81E9
100
AcDbEntity
  8
0
  6
ByBlock
 62
     0
100
AcDbLine
 10
1416.055040675533
 20
2773.660298728197
 30
0.0
 11
395.5830748515218
 21
2773.660298728197
 31
0.0
  0
LINE
  5
807C
330
81E9
100
AcDbEntity
  8
0
  6
ByBlock
 62
     0
100
AcDbLine
 10
415.5830748515217
 20
1432.660298728196
 30
0.0
 11
415.5830748515217
 21
2733.660298728196
 31
0.0
  0
INSERT
  5
807D
330
81E9
100
AcDbEntity
  8
0
  6
ByBlock
 62
     0
100
AcDbBlockReference
  2
_OPEN
 10
415.5830748515217
 20
1392.660298728196
 30
0.0
 41
40.0
 42
40.0
 43
40.0
 50
270.0
  0
INSERT
  5
807E
330
81E9
100
AcDbEntity
  8
0
  6
ByBlock
 62
     0
100
AcDbBlockReference
  2
_OPEN
 10
415.5830748515217
 20
2773.660298728197
 30
0.0
 41
40.0
 42
40.0
 43
40.0
 50
90.0
  0
TEXT
  5
807F
330
81E9
100
AcDbEntity
  8
3
 62
     0
100
AcDbText
 10
369.868789137236
 20
1950.303155871053
 30
0.0
 40
60.0
  1
(1381)
 50
90.0
100
AcDbText
  0
POINT
  5
8080
330
81E9
100
AcDbEntity
  8
DEFPOINTS
  6
ByBlock
 62
     0
100
AcDbPoint
 10
1009.055040675532
 20
1392.660298728196
 30
0.0
  0
POINT
  5
8081
330
81E9
100
AcDbEntity
  8
DEFPOINTS
  6
ByBlock
 62
     0
100
AcDbPoint
 10
1436.055040675532
 20
2773.660298728197
 30
0.0
  0
POINT
  5
8082
330
81E9
100
AcDbEntity
  8
DEFPOINTS
  6
ByBlock
 62
     0
100
AcDbPoint
 10
415.5830748515217
 20
2773.660298728197
 30
0.0
  0
ENDBLK
  5
8083
330
81E9
100
AcDbEntity
  8
0
100
AcDbBlockEnd
  0
BLOCK
  5
81F1
330
81F0
100
AcDbEntity
  8
0
100
AcDbBlockBegin
  2
*D29
 70
     1
 10
0.0
 20
0.0
 30
0.0
  3
*D29
  1

  0
LINE
  5
8288
330
81F0
100
AcDbEntity
  8
3
 62
     0
370
    -2
100
AcDbLine
 10
2558.875662898936
 20
2489.660298728197
 30
0.0
 11
2558.875662898936
 21
3046.768866631725
 31
0.0
  0
LINE
  5
8289
330
81F0
100
AcDbEntity
  8
3
 62
     0
370
    -2
100
AcDbLine
 10
3338.875662898936
 20
2935.245197106421
 30
0.0
 11
3338.875662898936
 21
3046.768866631725
 31
0.0
  0
LINE
  5
828A
330
81F0
100
AcDbEntity
  8
3
 62
     0
370
    -2
100
AcDbLine
 10
2598.875662898937
 20
3026.768866631725
 30
0.0
 11
3298.875662898936
 21
3026.768866631725
 31
0.0
  0
INSERT
  5
828B
330
81F0
100
AcDbEntity
  8
3
 62
     0
370
    -2
100
AcDbBlockReference
  2
_OPEN
 10
2558.875662898936
 20
3026.768866631725
 30
0.0
 41
40.0
 42
40.0
 43
40.0
 50
180.0
  0
INSERT
  5
828C
330
81F0
100
AcDbEntity
  8
3
 62
     0
370
    -2
100
AcDbBlockReference
  2
_OPEN
 10
3338.875662898936
 20
3026.768866631725
 30
0.0
 41
40.0
 42
40.0
 43
40.0
  0
MTEXT
  5
828D
330
81F0
100
AcDbEntity
  8
3
 62
     0
100
AcDbMText
 10
2948.875662898937
 20
3092.483152346011
 30
0.0
 40
60.0
 41
0.0
 71
     5
 72
     1
  1
\A1;(780)
 73
     1
 44
1.0
1001
ACAD
1000
MTEXTBEGIN
1070
    73
1070
     1
1070
    44
1040
1.0
1070
    74
1070
     0
1000
MTEXTEND
  0
POINT
  5
828E
330
81F0
100
AcDbEntity
  8
DEFPOINTS
 62
     0
100
AcDbPoint
 10
2558.875662898936
 20
2469.660298728197
 30
0.0
  0
POINT
  5
828F
330
81F0
100
AcDbEntity
  8
DEFPOINTS
 62
     0
100
AcDbPoint
 10
3338.875662898936
 20
2915.245197106421
 30
0.0
  0
POINT
  5
8290
330
81F0
100
AcDbEntity
  8
DEFPOINTS
 62
     0
100
AcDbPoint
 10
3338.875662898936
 20
3026.768866631725
 30
0.0
  0
ENDBLK
  5
81F2
330
81F0
100
AcDbEntity
  8
0
100
AcDbBlockEnd
  0
BLOCK
  5
81FE
330
81FD
100
AcDbEntity
  8
0
100
AcDbBlockBegin
  2
*D30
 70
     1
 10
0.0
 20
0.0
 30
0.0
  3
*D30
  1

  0
LINE
  5
8291
330
81FD
100
AcDbEntity
  8
3
 62
     0
370
    -2
100
AcDbLine
 10
3338.875662898936
 20
2935.245197106421
 30
0.0
 11
3338.875662898936
 21
3046.768866631725
 31
0.0
  0
LINE
  5
8292
330
81FD
100
AcDbEntity
  8
3
 62
     0
370
    -2
100
AcDbLine
 10
3848.875662898937
 20
2309.660298728196
 30
0.0
 11
3848.875662898937
 21
3046.768866631725
 31
0.0
  0
LINE
  5
8293
330
81FD
100
AcDbEntity
  8
3
 62
     0
370
    -2
100
AcDbLine
 10
3378.875662898936
 20
3026.768866631725
 30
0.0
 11
3808.875662898937
 21
3026.768866631725
 31
0.0
  0
INSERT
  5
8294
330
81FD
100
AcDbEntity
  8
3
 62
     0
370
    -2
100
AcDbBlockReference
  2
_OPEN
 10
3338.875662898936
 20
3026.768866631725
 30
0.0
 41
40.0
 42
40.0
 43
40.0
 50
180.0
  0
INSERT
  5
8295
330
81FD
100
AcDbEntity
  8
3
 62
     0
370
    -2
100
AcDbBlockReference
  2
_OPEN
 10
3848.875662898937
 20
3026.768866631725
 30
0.0
 41
40.0
 42
40.0
 43
40.0
  0
MTEXT
  5
8296
330
81FD
100
AcDbEntity
  8
3
 62
     0
100
AcDbMText
 10
3593.875662898937
 20
3092.483152346011
 30
0.0
 40
60.0
 41
0.0
 71
     5
 72
     1
  1
\A1;(510)
 73
     1
 44
1.0
1001
ACAD
1000
MTEXTBEGIN
1070
    73
1070
     1
1070
    44
1040
1.0
1070
    74
1070
     0
1000
MTEXTEND
  0
POINT
  5
8297
330
81FD
100
AcDbEntity
  8
DEFPOINTS
 62
     0
100
AcDbPoint
 10
3338.875662898936
 20
2915.245197106421
 30
0.0
  0
POINT
  5
8298
330
81FD
100
AcDbEntity
  8
DEFPOINTS
 62
     0
100
AcDbPoint
 10
3848.875662898937
 20
2289.660298728196
 30
0.0
  0
POINT
  5
8299
330
81FD
100
AcDbEntity
  8
DEFPOINTS
 62
     0
100
AcDbPoint
 10
3848.875662898937
 20
3026.768866631725
 30
0.0
  0
ENDBLK
  5
81FF
330
81FD
100
AcDbEntity
  8
0
100
AcDbBlockEnd
  0
BLOCK
  5
8255
330
8254
100
AcDbEntity
  8
0
100
AcDbBlockBegin
  2
*D31
 70
     1
 10
0.0
 20
0.0
 30
0.0
  3
*D31
  1

  0
LINE
  5
8257
330
8254
100
AcDbEntity
  8
3
 62
     0
370
    -2
100
AcDbLine
 10
3745.625662898937
 20
2654.660298728197
 30
0.0
 11
3996.0126964696
 21
2654.660298728197
 31
0.0
  0
LINE
  5
8258
330
8254
100
AcDbEntity
  8
3
 62
     0
370
    -2
100
AcDbLine
 10
3745.625662898937
 20
1984.660298728196
 30
0.0
 11
3996.0126964696
 21
1984.660298728196
 31
0.0
  0
LINE
  5
8259
330
8254
100
AcDbEntity
  8
3
 62
     0
370
    -2
100
AcDbLine
 10
3992.4126964696
 20
2651.060298728197
 30
0.0
 11
3992.4126964696
 21
2323.260298728197
 31
0.0
  0
LINE
  5
825A
330
8254
100
AcDbEntity
  8
3
 62
     0
370
    -2
100
AcDbLine
 10
3992.4126964696
 20
1988.260298728196
 30
0.0
 11
3992.4126964696
 21
2316.060298728197
 31
0.0
  0
SOLID
  5
825B
330
8254
100
AcDbEntity
  8
3
 62
     0
100
AcDbTrace
 10
3991.8126964696
 20
2651.060298728197
 30
0.0
 11
3993.0126964696
 21
2651.060298728197
 31
0.0
 12
3992.4126964696
 22
2654.660298728197
 32
0.0
 13
3992.4126964696
 23
2654.660298728197
 33
0.0
  0
SOLID
  5
825C
330
8254
100
AcDbEntity
  8
3
 62
     0
100
AcDbTrace
 10
3991.8126964696
 20
1988.260298728196
 30
0.0
 11
3993.0126964696
 21
1988.260298728196
 31
0.0
 12
3992.4126964696
 22
1984.660298728196
 32
0.0
 13
3992.4126964696
 23
1984.660298728196
 33
0.0
  0
MTEXT
  5
825D
330
8254
100
AcDbEntity
  8
3
 62
     0
100
AcDbMText
 10
3992.4126964696
 20
2319.660298728198
 30
0.0
 40
3.599999999999999
 41
0.0
 71
     5
 72
     1
  1
\A1;\U+03C6670.0000
 73
     1
 44
1.0
1001
ACAD
1000
MTEXTBEGIN
1070
    73
1070
     1
1070
    44
1040
1.0
1070
    74
1070
     0
1000
MTEXTEND
  0
POINT
  5
825E
330
8254
100
AcDbEntity
  8
DEFPOINTS
 62
     0
100
AcDbPoint
 10
3744.375662898936
 20
2654.660298728197
 30
0.0
  0
POINT
  5
825F
330
8254
100
AcDbEntity
  8
DEFPOINTS
 62
     0
100
AcDbPoint
 10
3744.375662898936
 20
1984.660298728196
 30
0.0
  0
POINT
  5
8260
330
8254
100
AcDbEntity
  8
DEFPOINTS
 62
     0
100
AcDbPoint
 10
3992.4126964696
 20
1984.660298728196
 30
0.0
  0
ENDBLK
  5
8256
330
8254
100
AcDbEntity
  8
0
100
AcDbBlockEnd
  0
BLOCK
  5
8262
330
8261
100
AcDbEntity
  8
0
100
AcDbBlockBegin
  2
*D32
 70
     1
 10
0.0
 20
0.0
 30
0.0
  3
*D32
  1

  0
LINE
  5
8264
330
8261
100
AcDbEntity
  8
3
 62
     0
370
    -2
100
AcDbLine
 10
2938.875662898936
 20
2751.310289608901
 30
0.0
 11
2938.875662898936
 21
2848.845197106422
 31
0.0
  0
LINE
  5
8265
330
8261
100
AcDbEntity
  8
3
 62
     0
370
    -2
100
AcDbLine
 10
3738.875662898936
 20
2751.310289608901
 30
0.0
 11
3738.875662898936
 21
2848.845197106422
 31
0.0
  0
LINE
  5
8266
330
8261
100
AcDbEntity
  8
3
 62
     0
370
    -2
100
AcDbLine
 10
2942.475662898936
 20
2845.245197106422
 30
0.0
 11
3324.732805756078
 21
2845.245197106422
 31
0.0
  0
LINE
  5
8267
330
8261
100
AcDbEntity
  8
3
 62
     0
370
    -2
100
AcDbLine
 10
3735.275662898935
 20
2845.245197106422
 30
0.0
 11
3353.018520041793
 21
2845.245197106422
 31
0.0
  0
SOLID
  5
8268
330
8261
100
AcDbEntity
  8
3
 62
     0
100
AcDbTrace
 10
2942.475662898936
 20
2845.845197106422
 30
0.0
 11
2942.475662898936
 21
2844.645197106422
 31
0.0
 12
2938.875662898936
 22
2845.245197106422
 32
0.0
 13
2938.875662898936
 23
2845.245197106422
 33
0.0
  0
SOLID
  5
8269
330
8261
100
AcDbEntity
  8
3
 62
     0
100
AcDbTrace
 10
3735.275662898935
 20
2845.845197106422
 30
0.0
 11
3735.275662898935
 21
2844.645197106422
 31
0.0
 12
3738.875662898936
 22
2845.245197106422
 32
0.0
 13
3738.875662898936
 23
2845.245197106422
 33
0.0
  0
MTEXT
  5
826A
330
8261
100
AcDbEntity
  8
3
 62
     0
100
AcDbMText
 10
3338.875662898936
 20
2845.245197106422
 30
0.0
 40
3.599999999999999
 41
0.0
 71
     5
 72
     1
  1
\A1;800.0000
 73
     1
 44
1.0
1001
ACAD
1000
MTEXTBEGIN
1070
    73
1070
     1
1070
    44
1040
1.0
1070
    74
1070
     0
1000
MTEXTEND
  0
POINT
  5
826B
330
8261
100
AcDbEntity
  8
DEFPOINTS
 62
     0
100
AcDbPoint
 10
2938.875662898936
 20
2750.0602896089
 30
0.0
  0
POINT
  5
826C
330
8261
100
AcDbEntity
  8
DEFPOINTS
 62
     0
100
AcDbPoint
 10
3738.875662898936
 20
2750.0602896089
 30
0.0
  0
POINT
  5
826D
330
8261
100
AcDbEntity
  8
DEFPOINTS
 62
     0
100
AcDbPoint
 10
3738.875662898936
 20
2845.245197106422
 30
0.0
  0
ENDBLK
  5
8263
330
8261
100
AcDbEntity
  8
0
100
AcDbBlockEnd
  0
BLOCK
  5
826F
330
826E
100
AcDbEntity
  8
0
100
AcDbBlockBegin
  2
*D33
 70
     1
 10
0.0
 20
0.0
 30
0.0
  3
*D33
  1

  0
LINE
  5
8271
330
826E
100
AcDbEntity
  8
3
 62
     0
370
    -2
100
AcDbLine
 10
2785.875662898936
 20
1372.660298728196
 30
0.0
 11
2785.875662898936
 21
1244.890184055159
 31
0.0
  0
LINE
  5
8272
330
826E
100
AcDbEntity
  8
3
 62
     0
370
    -2
100
AcDbLine
 10
3338.875662898936
 20
1372.660298728196
 30
0.0
 11
3338.875662898936
 21
1244.890184055159
 31
0.0
  0
LINE
  5
8273
330
826E
100
AcDbEntity
  8
3
 62
     0
370
    -2
100
AcDbLine
 10
2789.475662898937
 20
1248.490184055159
 30
0.0
 11
3055.947091470365
 21
1248.490184055159
 31
0.0
  0
LINE
  5
8274
330
826E
100
AcDbEntity
  8
3
 62
     0
370
    -2
100
AcDbLine
 10
3335.275662898936
 20
1248.490184055159
 30
0.0
 11
3068.804234327508
 21
1248.490184055159
 31
0.0
  0
SOLID
  5
8275
330
826E
100
AcDbEntity
  8
3
 62
     0
100
AcDbTrace
 10
2789.475662898937
 20
1249.090184055159
 30
0.0
 11
2789.475662898937
 21
1247.890184055159
 31
0.0
 12
2785.875662898936
 22
1248.490184055159
 32
0.0
 13
2785.875662898936
 23
1248.490184055159
 33
0.0
  0
SOLID
  5
8276
330
826E
100
AcDbEntity
  8
3
 62
     0
100
AcDbTrace
 10
3335.275662898936
 20
1249.090184055159
 30
0.0
 11
3335.275662898936
 21
1247.890184055159
 31
0.0
 12
3338.875662898936
 22
1248.490184055159
 32
0.0
 13
3338.875662898936
 23
1248.490184055159
 33
0.0
  0
MTEXT
  5
8277
330
826E
100
AcDbEntity
  8
3
 62
     0
100
AcDbMText
 10
3062.375662898936
 20
1248.490184055159
 30
0.0
 40
3.599999999999999
 41
0.0
 71
     5
 72
     1
  1
\A1;553
 73
     1
 44
1.0
1001
ACAD
1000
MTEXTBEGIN
1070
    73
1070
     1
1070
    44
1040
1.0
1070
    74
1070
     0
1000
MTEXTEND
  0
POINT
  5
8278
330
826E
100
AcDbEntity
  8
DEFPOINTS
 62
     0
100
AcDbPoint
 10
2785.875662898936
 20
1392.660298728196
 30
0.0
  0
POINT
  5
8279
330
826E
100
AcDbEntity
  8
DEFPOINTS
 62
     0
100
AcDbPoint
 10
3338.875662898936
 20
1392.660298728196
 30
0.0
  0
POINT
  5
827A
330
826E
100
AcDbEntity
  8
DEFPOINTS
 62
     0
100
AcDbPoint
 10
3338.875662898936
 20
1248.490184055159
 30
0.0
  0
ENDBLK
  5
8270
330
826E
100
AcDbEntity
  8
0
100
AcDbBlockEnd
  0
BLOCK
  5
827C
330
827B
100
AcDbEntity
  8
0
100
AcDbBlockBegin
  2
*D34
 70
     1
 10
0.0
 20
0.0
 30
0.0
  3
*D34
  1

  0
LINE
  5
827E
330
827B
100
AcDbEntity
  8
3
 62
     0
370
    -2
100
AcDbLine
 10
3338.875662898936
 20
1372.660298728196
 30
0.0
 11
3338.875662898936
 21
1244.890184055159
 31
0.0
  0
LINE
  5
827F
330
827B
100
AcDbEntity
  8
3
 62
     0
370
    -2
100
AcDbLine
 10
3791.875662898937
 20
1372.660298728196
 30
0.0
 11
3791.875662898937
 21
1244.890184055159
 31
0.0
  0
LINE
  5
8280
330
827B
100
AcDbEntity
  8
3
 62
     0
370
    -2
100
AcDbLine
 10
3342.475662898936
 20
1248.490184055159
 30
0.0
 11
3558.947091470365
 21
1248.490184055159
 31
0.0
  0
LINE
  5
8281
330
827B
100
AcDbEntity
  8
3
 62
     0
370
    -2
100
AcDbLine
 10
3788.275662898936
 20
1248.490184055159
 30
0.0
 11
3571.804234327508
 21
1248.490184055159
 31
0.0
  0
SOLID
  5
8282
330
827B
100
AcDbEntity
  8
3
 62
     0
100
AcDbTrace
 10
3342.475662898936
 20
1249.090184055159
 30
0.0
 11
3342.475662898936
 21
1247.890184055159
 31
0.0
 12
3338.875662898936
 22
1248.490184055159
 32
0.0
 13
3338.875662898936
 23
1248.490184055159
 33
0.0
  0
SOLID
  5
8283
330
827B
100
AcDbEntity
  8
3
 62
     0
100
AcDbTrace
 10
3788.275662898936
 20
1249.090184055159
 30
0.0
 11
3788.275662898936
 21
1247.890184055159
 31
0.0
 12
3791.875662898937
 22
1248.490184055159
 32
0.0
 13
3791.875662898937
 23
1248.490184055159
 33
0.0
  0
MTEXT
  5
8284
330
827B
100
AcDbEntity
  8
3
 62
     0
100
AcDbMText
 10
3565.375662898937
 20
1248.490184055159
 30
0.0
 40
3.599999999999999
 41
0.0
 71
     5
 72
     1
  1
\A1;453
 73
     1
 44
1.0
1001
ACAD
1000
MTEXTBEGIN
1070
    73
1070
     1
1070
    44
1040
1.0
1070
    74
1070
     0
1000
MTEXTEND
  0
POINT
  5
8285
330
827B
100
AcDbEntity
  8
DEFPOINTS
 62
     0
100
AcDbPoint
 10
3338.875662898936
 20
1392.660298728196
 30
0.0
  0
POINT
  5
8286
330
827B
100
AcDbEntity
  8
DEFPOINTS
 62
     0
100
AcDbPoint
 10
3791.875662898937
 20
1392.660298728196
 30
0.0
  0
POINT
  5
8287
330
827B
100
AcDbEntity
  8
DEFPOINTS
 62
     0
100
AcDbPoint
 10
3791.875662898937
 20
1248.490184055159
 30
0.0
  0
ENDBLK
  5
827D
330
827B
100
AcDbEntity
  8
0
100
AcDbBlockEnd
  0
BLOCK
  5
829C
330
829B
100
AcDbEntity
  8
0
100
AcDbBlockBegin
  2
*D35
 70
     1
 10
0.0
 20
0.0
 30
0.0
  3
*D35
  1

  0
LINE
  5
829E
330
829B
100
AcDbEntity
  8
3
 62
     0
370
    -2
100
AcDbLine
 10
2785.875662898936
 20
1372.660298728196
 30
0.0
 11
2785.875662898936
 21
1238.782042702301
 31
0.0
  0
LINE
  5
829F
330
829B
100
AcDbEntity
  8
3
 62
     0
370
    -2
100
AcDbLine
 10
3338.875662898936
 20
1372.660298728196
 30
0.0
 11
3338.875662898936
 21
1238.782042702301
 31
0.0
  0
LINE
  5
82A0
330
829B
100
AcDbEntity
  8
3
 62
     0
370
    -2
100
AcDbLine
 10
2825.875662898937
 20
1258.782042702301
 30
0.0
 11
3298.875662898936
 21
1258.782042702301
 31
0.0
  0
INSERT
  5
82A1
330
829B
100
AcDbEntity
  8
3
 62
     0
370
    -2
100
AcDbBlockReference
  2
_OPEN
 10
2785.875662898936
 20
1258.782042702301
 30
0.0
 41
40.0
 42
40.0
 43
40.0
 50
180.0
  0
INSERT
  5
82A2
330
829B
100
AcDbEntity
  8
3
 62
     0
370
    -2
100
AcDbBlockReference
  2
_OPEN
 10
3338.875662898936
 20
1258.782042702301
 30
0.0
 41
40.0
 42
40.0
 43
40.0
  0
MTEXT
  5
82A3
330
829B
100
AcDbEntity
  8
3
 62
     0
100
AcDbMText
 10
3062.375662898936
 20
1308.782042702302
 30
0.0
 40
60.0
 41
0.0
 71
     5
 72
     1
  1
\A1;553
 73
     1
 44
1.0
1001
ACAD
1000
MTEXTBEGIN
1070
    73
1070
     1
1070
    44
1040
1.0
1070
    74
1070
     0
1000
MTEXTEND
  0
POINT
  5
82A4
330
829B
100
AcDbEntity
  8
DEFPOINTS
 62
     0
100
AcDbPoint
 10
2785.875662898936
 20
1392.660298728196
 30
0.0
  0
POINT
  5
82A5
330
829B
100
AcDbEntity
  8
DEFPOINTS
 62
     0
100
AcDbPoint
 10
3338.875662898936
 20
1392.660298728196
 30
0.0
  0
POINT
  5
82A6
330
829B
100
AcDbEntity
  8
DEFPOINTS
 62
     0
100
AcDbPoint
 10
3338.875662898936
 20
1258.782042702301
 30
0.0
  0
ENDBLK
  5
829D
330
829B
100
AcDbEntity
  8
0
100
AcDbBlockEnd
  0
BLOCK
  5
82A9
330
82A8
100
AcDbEntity
  8
0
100
AcDbBlockBegin
  2
*D36
 70
     1
 10
0.0
 20
0.0
 30
0.0
  3
*D36
  1

  0
LINE
  5
82AB
330
82A8
100
AcDbEntity
  8
3
 62
     0
370
    -2
100
AcDbLine
 10
3338.875662898936
 20
1372.660298728196
 30
0.0
 11
3338.875662898936
 21
1238.782042702301
 31
0.0
  0
LINE
  5
82AC
330
82A8
100
AcDbEntity
  8
3
 62
     0
370
    -2
100
AcDbLine
 10
3791.875662898937
 20
1372.660298728196
 30
0.0
 11
3791.875662898937
 21
1238.782042702301
 31
0.0
  0
LINE
  5
82AD
330
82A8
100
AcDbEntity
  8
3
 62
     0
370
    -2
100
AcDbLine
 10
3378.875662898936
 20
1258.782042702301
 30
0.0
 11
3751.875662898937
 21
1258.782042702301
 31
0.0
  0
INSERT
  5
82AE
330
82A8
100
AcDbEntity
  8
3
 62
     0
370
    -2
100
AcDbBlockReference
  2
_OPEN
 10
3338.875662898936
 20
1258.782042702301
 30
0.0
 41
40.0
 42
40.0
 43
40.0
 50
180.0
  0
INSERT
  5
82AF
330
82A8
100
AcDbEntity
  8
3
 62
     0
370
    -2
100
AcDbBlockReference
  2
_OPEN
 10
3791.875662898937
 20
1258.782042702301
 30
0.0
 41
40.0
 42
40.0
 43
40.0
  0
MTEXT
  5
82B0
330
82A8
100
AcDbEntity
  8
3
 62
     0
100
AcDbMText
 10
3565.375662898937
 20
1308.782042702302
 30
0.0
 40
60.0
 41
0.0
 71
     5
 72
     1
  1
\A1;453
 73
     1
 44
1.0
1001
ACAD
1000
MTEXTBEGIN
1070
    73
1070
     1
1070
    44
1040
1.0
1070
    74
1070
     0
1000
MTEXTEND
  0
POINT
  5
82B1
330
82A8
100
AcDbEntity
  8
DEFPOINTS
 62
     0
100
AcDbPoint
 10
3338.875662898936
 20
1392.660298728196
 30
0.0
  0
POINT
  5
82B2
330
82A8
100
AcDbEntity
  8
DEFPOINTS
 62
     0
100
AcDbPoint
 10
3791.875662898937
 20
1392.660298728196
 30
0.0
  0
POINT
  5
82B3
330
82A8
100
AcDbEntity
  8
DEFPOINTS
 62
     0
100
AcDbPoint
 10
3791.875662898937
 20
1258.782042702301
 30
0.0
  0
ENDBLK
  5
82AA
330
82A8
100
AcDbEntity
  8
0
100
AcDbBlockEnd
  0
BLOCK
  5
82B6
330
82B5
100
AcDbEntity
  8
0
100
AcDbBlockBegin
  2
*D37
 70
     1
 10
0.0
 20
0.0
 30
0.0
  3
*D37
  1

  0
LINE
  5
82B8
330
82B5
100
AcDbEntity
  8
3
 62
     0
370
    -2
100
AcDbLine
 10
2938.875662898936
 20
2793.660298728197
 30
0.0
 11
2938.875662898936
 21
2861.291408169125
 31
0.0
  0
LINE
  5
82B9
330
82B5
100
AcDbEntity
  8
3
 62
     0
370
    -2
100
AcDbLine
 10
3738.875662898936
 20
2793.660298728197
 30
0.0
 11
3738.875662898936
 21
2861.291408169125
 31
0.0
  0
LINE
  5
82BA
330
82B5
100
AcDbEntity
  8
3
 62
     0
370
    -2
100
AcDbLine
 10
2978.875662898936
 20
2841.291408169125
 30
0.0
 11
3698.875662898937
 21
2841.291408169125
 31
0.0
  0
INSERT
  5
82BB
330
82B5
100
AcDbEntity
  8
3
 62
     0
370
    -2
100
AcDbBlockReference
  2
_OPEN
 10
2938.875662898936
 20
2841.291408169125
 30
0.0
 41
40.0
 42
40.0
 43
40.0
 50
180.0
  0
INSERT
  5
82BC
330
82B5
100
AcDbEntity
  8
3
 62
     0
370
    -2
100
AcDbBlockReference
  2
_OPEN
 10
3738.875662898936
 20
2841.291408169125
 30
0.0
 41
40.0
 42
40.0
 43
40.0
  0
MTEXT
  5
82BD
330
82B5
100
AcDbEntity
  8
3
 62
     0
100
AcDbMText
 10
3338.875662898936
 20
2891.291408169125
 30
0.0
 40
60.0
 41
0.0
 71
     5
 72
     1
  1
\A1;800
 73
     1
 44
1.0
1001
ACAD
1000
MTEXTBEGIN
1070
    73
1070
     1
1070
    44
1040
1.0
1070
    74
1070
     0
1000
MTEXTEND
  0
POINT
  5
82BE
330
82B5
100
AcDbEntity
  8
DEFPOINTS
 62
     0
100
AcDbPoint
 10
2938.875662898936
 20
2773.660298728197
 30
0.0
  0
POINT
  5
82BF
330
82B5
100
AcDbEntity
  8
DEFPOINTS
 62
     0
100
AcDbPoint
 10
3738.875662898936
 20
2773.660298728197
 30
0.0
  0
POINT
  5
82C0
330
82B5
100
AcDbEntity
  8
DEFPOINTS
 62
     0
100
AcDbPoint
 10
3738.875662898936
 20
2841.291408169125
 30
0.0
  0
ENDBLK
  5
82B7
330
82B5
100
AcDbEntity
  8
0
100
AcDbBlockEnd
  0
BLOCK
  5
82C7
330
82C6
100
AcDbEntity
  8
0
100
AcDbBlockBegin
  2
*D38
 70
     1
 10
0.0
 20
0.0
 30
0.0
  3
*D38
  1

  0
LINE
  5
82DB
330
82C6
100
AcDbEntity
  8
3
 62
     0
370
    -2
100
AcDbLine
 10
3758.875662898936
 20
2654.660298728197
 30
0.0
 11
4000.729859673054
 21
2654.660298728197
 31
0.0
  0
LINE
  5
82DC
330
82C6
100
AcDbEntity
  8
3
 62
     0
370
    -2
100
AcDbLine
 10
3758.875662898936
 20
1984.660298728196
 30
0.0
 11
4000.729859673054
 21
1984.660298728196
 31
0.0
  0
LINE
  5
82DD
330
82C6
100
AcDbEntity
  8
3
 62
     0
370
    -2
100
AcDbLine
 10
3980.729859673055
 20
2614.660298728197
 30
0.0
 11
3980.729859673055
 21
2024.660298728196
 31
0.0
  0
INSERT
  5
82DE
330
82C6
100
AcDbEntity
  8
3
 62
     0
370
    -2
100
AcDbBlockReference
  2
_OPEN
 10
3980.729859673055
 20
2654.660298728197
 30
0.0
 41
40.0
 42
40.0
 43
40.0
 50
90.0
  0
INSERT
  5
82DF
330
82C6
100
AcDbEntity
  8
3
 62
     0
370
    -2
100
AcDbBlockReference
  2
_OPEN
 10
3980.729859673055
 20
1984.660298728196
 30
0.0
 41
40.0
 42
40.0
 43
40.0
 50
270.0
  0
MTEXT
  5
82E0
330
82C6
100
AcDbEntity
  8
3
 62
     0
100
AcDbMText
 10
3930.729859673054
 20
2319.660298728197
 30
0.0
 40
60.0
 41
0.0
 71
     5
 72
     1
  1
\A1;\U+03C6670
 11
0.0000000000000001
 21
1.0
 31
0.0
 73
     1
 44
1.0
1001
ACAD
1000
MTEXTBEGIN
1070
    73
1070
     1
1070
    44
1040
1.0
1070
    74
1070
     0
1000
MTEXTEND
  0
POINT
  5
82E1
330
82C6
100
AcDbEntity
  8
DEFPOINTS
 62
     0
100
AcDbPoint
 10
3738.875662898936
 20
2654.660298728197
 30
0.0
  0
POINT
  5
82E2
330
82C6
100
AcDbEntity
  8
DEFPOINTS
 62
     0
100
AcDbPoint
 10
3738.875662898936
 20
1984.660298728196
 30
0.0
  0
POINT
  5
82E3
330
82C6
100
AcDbEntity
  8
DEFPOINTS
 62
     0
100
AcDbPoint
 10
3980.729859673055
 20
1984.660298728196
 30
0.0
  0
ENDBLK
  5
82C8
330
82C6
100
AcDbEntity
  8
0
100
AcDbBlockEnd
  0
BLOCK
  5
82E6
330
82E5
100
AcDbEntity
  8
0
100
AcDbBlockBegin
  2
*D39
 70
     1
 10
0.0
 20
0.0
 30
0.0
  3
*D39
  1

  0
LINE
  5
82E8
330
82E5
100
AcDbEntity
  8
3
 62
     0
370
    -2
100
AcDbLine
 10
1009.055040675532
 20
3472.710584264269
 30
0.0
 11
1009.055040675532
 21
3133.650532191836
 31
0.0
  0
LINE
  5
82E9
330
82E5
100
AcDbEntity
  8
3
 62
     0
370
    -2
100
AcDbLine
 10
2459.055040675533
 20
3472.710584264268
 30
0.0
 11
2459.055040675533
 21
3133.650532191836
 31
0.0
  0
LINE
  5
82EA
330
82E5
100
AcDbEntity
  8
3
 62
     0
370
    -2
100
AcDbLine
 10
1049.055040675532
 20
3153.650532191836
 30
0.0
 11
2419.055040675534
 21
3153.650532191836
 31
0.0
  0
INSERT
  5
82EB
330
82E5
100
AcDbEntity
  8
3
 62
     0
370
    -2
100
AcDbBlockReference
  2
_OPEN
 10
1009.055040675532
 20
3153.650532191836
 30
0.0
 41
40.0
 42
40.0
 43
40.0
 50
180.0
  0
INSERT
  5
82EC
330
82E5
100
AcDbEntity
  8
3
 62
     0
370
    -2
100
AcDbBlockReference
  2
_OPEN
 10
2459.055040675533
 20
3153.650532191836
 30
0.0
 41
40.0
 42
40.0
 43
40.0
  0
MTEXT
  5
82ED
330
82E5
100
AcDbEntity
  8
3
 62
     0
100
AcDbMText
 10
1734.055040675533
 20
3203.650532191836
 30
0.0
 40
60.0
 41
0.0
 71
     5
 72
     1
  1
\A1;1450
 73
     1
 44
1.0
1001
ACAD
1000
MTEXTBEGIN
1070
    73
1070
     1
1070
    44
1040
1.0
1070
    74
1070
     0
1000
MTEXTEND
  0
POINT
  5
82EE
330
82E5
100
AcDbEntity
  8
DEFPOINTS
 62
     0
100
AcDbPoint
 10
1009.055040675532
 20
3492.710584264269
 30
0.0
  0
POINT
  5
82EF
330
82E5
100
AcDbEntity
  8
DEFPOINTS
 62
     0
100
AcDbPoint
 10
2459.055040675533
 20
3492.710584264268
 30
0.0
  0
POINT
  5
82F0
330
82E5
100
AcDbEntity
  8
DEFPOINTS
 62
     0
100
AcDbPoint
 10
2459.055040675533
 20
3153.650532191836
 30
0.0
  0
ENDBLK
  5
82E7
330
82E5
100
AcDbEntity
  8
0
100
AcDbBlockEnd
  0
BLOCK
  5
82F3
330
82F2
100
AcDbEntity
  8
0
100
AcDbBlockBegin
  2
*D40
 70
     1
 10
0.0
 20
0.0
 30
0.0
  3
*D40
  1

  0
LINE
  5
82FE
330
82F2
100
AcDbEntity
  8
3
 62
     0
370
    -2
100
AcDbLine
 10
1809.055040675533
 20
4518.710584264268
 30
0.0
 11
1809.055040675533
 21
4614.543070233767
 31
0.0
  0
LINE
  5
82FF
330
82F2
100
AcDbEntity
  8
3
 62
     0
370
    -2
100
AcDbLine
 10
2459.055040675533
 20
4112.710584264267
 30
0.0
 11
2459.055040675533
 21
4614.543070233767
 31
0.0
  0
LINE
  5
8300
330
82F2
100
AcDbEntity
  8
3
 62
     0
370
    -2
100
AcDbLine
 10
1849.055040675533
 20
4594.543070233767
 30
0.0
 11
2419.055040675534
 21
4594.543070233767
 31
0.0
  0
INSERT
  5
8301
330
82F2
100
AcDbEntity
  8
3
 62
     0
370
    -2
100
AcDbBlockReference
  2
_OPEN
 10
1809.055040675533
 20
4594.543070233767
 30
0.0
 41
40.0
 42
40.0
 43
40.0
 50
180.0
  0
INSERT
  5
8302
330
82F2
100
AcDbEntity
  8
3
 62
     0
370
    -2
100
AcDbBlockReference
  2
_OPEN
 10
2459.055040675533
 20
4594.543070233767
 30
0.0
 41
40.0
 42
40.0
 43
40.0
  0
MTEXT
  5
8303
330
82F2
100
AcDbEntity
  8
3
 62
     0
100
AcDbMText
 10
2134.055040675533
 20
4644.543070233767
 30
0.0
 40
60.0
 41
0.0
 71
     5
 72
     1
  1
\A1;650
 73
     1
 44
1.0
1001
ACAD
1000
MTEXTBEGIN
1070
    73
1070
     1
1070
    44
1040
1.0
1070
    74
1070
     0
1000
MTEXTEND
  0
POINT
  5
8304
330
82F2
100
AcDbEntity
  8
DEFPOINTS
 62
     0
100
AcDbPoint
 10
1809.055040675533
 20
4498.710584264268
 30
0.0
  0
POINT
  5
8305
330
82F2
100
AcDbEntity
  8
DEFPOINTS
 62
     0
100
AcDbPoint
 10
2459.055040675533
 20
4092.710584264266
 30
0.0
  0
POINT
  5
8306
330
82F2
100
AcDbEntity
  8
DEFPOINTS
 62
     0
100
AcDbPoint
 10
2459.055040675533
 20
4594.543070233767
 30
0.0
  0
ENDBLK
  5
82F4
330
82F2
100
AcDbEntity
  8
0
100
AcDbBlockEnd
  0
BLOCK
  5
8309
330
8308
100
AcDbEntity
  8
0
100
AcDbBlockBegin
  2
*D41
 70
     1
 10
0.0
 20
0.0
 30
0.0
  3
*D41
  1

  0
LINE
  5
8314
330
8308
100
AcDbEntity
  8
3
 62
     0
370
    -2
100
AcDbLine
 10
1409.055040675532
 20
2795.378507702061
 30
0.0
 11
1409.055040675532
 21
2928.879223635095
 31
0.0
  0
LINE
  5
8315
330
8308
100
AcDbEntity
  8
3
 62
     0
370
    -2
100
AcDbLine
 10
1957.055040675532
 20
2292.660298728196
 30
0.0
 11
1957.055040675532
 21
2928.879223635095
 31
0.0
  0
LINE
  5
8316
330
8308
100
AcDbEntity
  8
3
 62
     0
370
    -2
100
AcDbLine
 10
1449.055040675532
 20
2908.879223635094
 30
0.0
 11
1917.055040675532
 21
2908.879223635094
 31
0.0
  0
INSERT
  5
8317
330
8308
100
AcDbEntity
  8
3
 62
     0
370
    -2
100
AcDbBlockReference
  2
_OPEN
 10
1409.055040675532
 20
2908.879223635094
 30
0.0
 41
40.0
 42
40.0
 43
40.0
 50
180.0
  0
INSERT
  5
8318
330
8308
100
AcDbEntity
  8
3
 62
     0
370
    -2
100
AcDbBlockReference
  2
_OPEN
 10
1957.055040675532
 20
2908.879223635094
 30
0.0
 41
40.0
 42
40.0
 43
40.0
  0
MTEXT
  5
8319
330
8308
100
AcDbEntity
  8
3
 62
     0
100
AcDbMText
 10
1683.055040675531
 20
2958.879223635094
 30
0.0
 40
60.0
 41
0.0
 71
     5
 72
     1
  1
\A1;548
 73
     1
 44
1.0
1001
ACAD
1000
MTEXTBEGIN
1070
    73
1070
     1
1070
    44
1040
1.0
1070
    74
1070
     0
1000
MTEXTEND
  0
POINT
  5
831A
330
8308
100
AcDbEntity
  8
DEFPOINTS
 62
     0
100
AcDbPoint
 10
1409.055040675532
 20
2775.378507702062
 30
0.0
  0
POINT
  5
831B
330
8308
100
AcDbEntity
  8
DEFPOINTS
 62
     0
100
AcDbPoint
 10
1957.055040675532
 20
2272.660298728196
 30
0.0
  0
POINT
  5
831C
330
8308
100
AcDbEntity
  8
DEFPOINTS
 62
     0
100
AcDbPoint
 10
1957.055040675532
 20
2908.879223635094
 30
0.0
  0
ENDBLK
  5
830A
330
8308
100
AcDbEntity
  8
0
100
AcDbBlockEnd
  0
BLOCK
  5
831F
330
831E
100
AcDbEntity
  8
0
100
AcDbBlockBegin
  2
*D42
 70
     1
 10
0.0
 20
0.0
 30
0.0
  3
*D42
  1

  0
LINE
  5
8363
330
831E
100
AcDbEntity
  8
3
 62
     0
370
    -2
100
AcDbLine
 10
882.1620675725371
 20
2319.660298728196
 30
0.0
 11
573.4762882613904
 21
2319.660298728196
 31
0.0
  0
LINE
  5
8364
330
831E
100
AcDbEntity
  8
3
 62
     0
370
    -2
100
AcDbLine
 10
989.055040675532
 20
1519.660298728196
 30
0.0
 11
573.4762882613901
 21
1519.660298728196
 31
0.0
  0
LINE
  5
8365
330
831E
100
AcDbEntity
  8
3
 62
     0
370
    -2
100
AcDbLine
 10
593.4762882613902
 20
2279.660298728197
 30
0.0
 11
593.4762882613902
 21
1559.660298728196
 31
0.0
  0
INSERT
  5
8366
330
831E
100
AcDbEntity
  8
3
 62
     0
370
    -2
100
AcDbBlockReference
  2
_OPEN
 10
593.4762882613904
 20
2319.660298728196
 30
0.0
 41
40.0
 42
40.0
 43
40.0
 50
90.0
  0
INSERT
  5
8367
330
831E
100
AcDbEntity
  8
3
 62
     0
370
    -2
100
AcDbBlockReference
  2
_OPEN
 10
593.4762882613902
 20
1519.660298728196
 30
0.0
 41
40.0
 42
40.0
 43
40.0
 50
270.0
  0
MTEXT
  5
8368
330
831E
100
AcDbEntity
  8
3
 62
     0
100
AcDbMText
 10
543.47628826139
 20
1919.660298728196
 30
0.0
 40
60.0
 41
0.0
 71
     5
 72
     1
  1
\A1;800
 11
0.0000000000000001
 21
1.0
 31
0.0
 73
     1
 44
1.0
1001
ACAD
1000
MTEXTBEGIN
1070
    73
1070
     1
1070
    44
1040
1.0
1070
    74
1070
     0
1000
MTEXTEND
  0
POINT
  5
8369
330
831E
100
AcDbEntity
  8
DEFPOINTS
 62
     0
100
AcDbPoint
 10
902.1620675725372
 20
2319.660298728196
 30
0.0
  0
POINT
  5
836A
330
831E
100
AcDbEntity
  8
DEFPOINTS
 62
     0
100
AcDbPoint
 10
1009.055040675532
 20
1519.660298728196
 30
0.0
  0
POINT
  5
836B
330
831E
100
AcDbEntity
  8
DEFPOINTS
 62
     0
100
AcDbPoint
 10
593.4762882613902
 20
1519.660298728196
 30
0.0
  0
ENDBLK
  5
8320
330
831E
100
AcDbEntity
  8
0
100
AcDbBlockEnd
  0
BLOCK
  5
832C
330
832B
100
AcDbEntity
  8
0
100
AcDbBlockBegin
  2
*D43
 70
     1
 10
0.0
 20
0.0
 30
0.0
  3
*D43
  1

  0
LINE
  5
83CD
330
832B
100
AcDbEntity
  8
3
 62
     0
370
    -2
100
AcDbLine
 10
989.055040675532
 20
1519.660298728196
 30
0.0
 11
573.4762882613901
 21
1519.660298728196
 31
0.0
  0
LINE
  5
83CE
330
832B
100
AcDbEntity
  8
3
 62
     0
370
    -2
100
AcDbLine
 10
989.055040675532
 20
1492.660298728196
 30
0.0
 11
573.4762882613901
 21
1492.660298728196
 31
0.0
  0
LINE
  5
83CF
330
832B
100
AcDbEntity
  8
3
 62
     0
370
    -2
100
AcDbLine
 10
593.4762882613902
 20
1559.660298728196
 30
0.0
 11
593.4762882613902
 21
1599.660298728196
 31
0.0
  0
LINE
  5
83D0
330
832B
100
AcDbEntity
  8
3
 62
     0
370
    -2
100
AcDbLine
 10
593.4762882613902
 20
1492.660298728196
 30
0.0
 11
593.4762882613902
 21
1452.660298728196
 31
0.0
  0
MTEXT
  5
83D1
330
832B
100
AcDbEntity
  8
3
 62
     0
100
AcDbMText
 10
510.2779261060462
 20
1506.160298728196
 30
0.0
 40
60.0
 41
0.0
 71
     5
 72
     1
  1
\A1;(27)
 11
0.0000000000000001
 21
1.0
 31
0.0
 73
     1
 44
1.0
1001
ACAD
1000
MTEXTBEGIN
1070
    73
1070
     1
1070
    44
1040
1.0
1070
    74
1070
     0
1000
MTEXTEND
  0
LINE
  5
83D2
330
832B
100
AcDbEntity
  8
3
 62
     0
370
    -2
100
AcDbLine
 10
593.4762882613902
 20
1519.660298728196
 30
0.0
 11
593.4762882613902
 21
1492.660298728196
 31
0.0
  0
INSERT
  5
83D3
330
832B
100
AcDbEntity
  8
3
 62
     0
370
    -2
100
AcDbBlockReference
  2
_OPEN
 10
593.4762882613902
 20
1519.660298728196
 30
0.0
 41
40.0
 42
40.0
 43
40.0
 50
270.0
  0
INSERT
  5
83D4
330
832B
100
AcDbEntity
  8
3
 62
     0
370
    -2
100
AcDbBlockReference
  2
_DotSmall
 10
593.4762882613902
 20
1492.660298728196
 30
0.0
 41
40.0
 42
40.0
 43
40.0
 50
90.0
  0
POINT
  5
83D5
330
832B
100
AcDbEntity
  8
DEFPOINTS
 62
     0
100
AcDbPoint
 10
1009.055040675532
 20
1519.660298728196
 30
0.0
  0
POINT
  5
83D6
330
832B
100
AcDbEntity
  8
DEFPOINTS
 62
     0
100
AcDbPoint
 10
1009.055040675532
 20
1492.660298728196
 30
0.0
  0
POINT
  5
83D7
330
832B
100
AcDbEntity
  8
DEFPOINTS
 62
     0
100
AcDbPoint
 10
593.4762882613902
 20
1492.660298728196
 30
0.0
  0
ENDBLK
  5
832D
330
832B
100
AcDbEntity
  8
0
100
AcDbBlockEnd
  0
BLOCK
  5
83CB
330
83C9
100
AcDbEntity
  8
0
100
AcDbBlockBegin
  2
_DotSmall
 70
     0
 10
0.0
 20
0.0
 30
0.0
  3
_DotSmall
  1

  0
LWPOLYLINE
  5
83CA
330
83C9
100
AcDbEntity
  8
0
  6
ByBlock
 62
     0
100
AcDbPolyline
 90
        2
 70
     1
 43
0.5
 10
-0.0625
 20
0.0
 42
1.0
 10
0.0625
 20
0.0
 42
1.0
  0
ENDBLK
  5
83CC
330
83C9
100
AcDbEntity
  8
0
100
AcDbBlockEnd
  0
ENDSEC
  0
SECTION
  2
ENTITIES
  0
INSERT
  5
7BFC
330
81A1
100
AcDbEntity
  8
0
100
AcDbBlockReference
  2
YA_N
 10
6.0
 20
5.0
 30
0.0
  0
LINE
  5
7BFE
330
81A1
100
AcDbEntity
  8
2
100
AcDbLine
 10
2020.308782981459
 20
2319.660298728196
 30
0.0
 11
902.1620675725372
 21
2319.660298728196
 31
0.0
  0
LINE
  5
7BFF
330
81A1
100
AcDbEntity
  8
2
100
AcDbLine
 10
1409.055040675532
 20
2775.378507702062
 30
0.0
 11
1409.055040675533
 21
1392.660298728196
 31
0.0
  0
ARC
  5
7C00
330
81A1
100
AcDbEntity
  8
1
100
AcDbCircle
 10
1362.055040675532
 20
2272.660298728196
 30
0.0
 40
595.0
100
AcDbArc
 50
274.5306050426826
 51
4.530605042682608
  0
ARC
  5
7C01
330
81A1
100
AcDbEntity
  8
1
100
AcDbCircle
 10
1456.055040675533
 20
2272.660298728196
 30
0.0
 40
501.0
100
AcDbArc
 50
5.382968649881314
 51
95.38296864988129
  0
ARC
  5
7C02
330
81A1
100
AcDbEntity
  8
1
100
AcDbCircle
 10
1447.055040675532
 20
2357.660298728196
 30
0.0
 40
416.0
100
AcDbArc
 50
95.2410550612967
 51
185.2410550612967
  0
LINE
  5
7C03
330
81A1
100
AcDbEntity
  8
1
100
AcDbLine
 10
949.0550406755327
 20
1599.660298728196
 30
0.0
 11
949.0550406755327
 21
2333.660298728196
 31
0.0
  0
LINE
  5
7C04
330
81A1
100
AcDbEntity
  8
1
100
AcDbLine
 10
949.0550406755327
 20
1641.660298728196
 30
0.0
 11
1409.055040675532
 21
1679.51950599851
 31
0.0
  0
LINE
  5
7C05
330
81A1
100
AcDbEntity
  8
1
100
AcDbLine
 10
1032.093504176117
 20
2291.660298728197
 30
0.0
 11
949.0550406755327
 21
2291.660298728197
 31
0.0
  0
LINE
  5
7C06
330
81A1
100
AcDbEntity
  8
1
100
AcDbLine
 10
989.0550406755327
 20
1644.952403708223
 30
0.0
 11
989.0550406755327
 21
2291.660298728197
 31
0.0
  0
LINE
  5
7C07
330
81A1
100
AcDbEntity
  8
1
100
AcDbLine
 10
952.0550406755328
 20
1599.660298728196
 30
0.0
 11
949.0550406755327
 21
1599.660298728196
 31
0.0
  0
LINE
  5
7C08
330
81A1
100
AcDbEntity
  8
1
100
AcDbLine
 10
952.0550406755328
 20
2333.660298728196
 30
0.0
 11
949.0550406755327
 21
2333.660298728196
 31
0.0
  0
LINE
  5
7C09
330
81A1
100
AcDbEntity
  8
1
100
AcDbLine
 10
952.0550406755328
 20
1599.660298728196
 30
0.0
 11
952.0550406755328
 21
2333.660298728196
 31
0.0
  0
LINE
  5
7C0A
330
81A1
100
AcDbEntity
  8
2
100
AcDbLine
 10
3338.875662898936
 20
2828.773054748349
 30
0.0
 11
3338.875662898936
 21
1392.660298728196
 31
0.0
  0
LINE
  5
7C0B
330
81A1
100
AcDbEntity
  8
2
100
AcDbLine
 10
2556.875662898935
 20
2319.660298728196
 30
0.0
 11
3844.547337521085
 21
2319.660298728196
 31
0.0
  0
LINE
  5
7C0C
330
81A1
100
AcDbEntity
  8
1
100
AcDbLine
 10
3791.875662898937
 20
1619.660298728196
 30
0.0
 11
3791.875662898937
 21
1614.19016751501
 31
0.0
  0
LINE
  5
7C0D
330
81A1
100
AcDbEntity
  8
1
100
AcDbLine
 10
3738.875662898936
 20
2773.660298728197
 30
0.0
 11
3738.875662898936
 21
2347.660298728197
 31
0.0
  0
LINE
  5
7C0E
330
81A1
100
AcDbEntity
  8
1
100
AcDbLine
 10
3738.875662898936
 20
2347.660298728197
 30
0.0
 11
3738.875662898936
 21
1641.660298728196
 31
0.0
  0
LINE
  5
7C0F
330
81A1
100
AcDbEntity
  8
2
100
AcDbLine
 10
1409.055040675532
 20
4526.508670769092
 30
0.0
 11
1409.055040675532
 21
3242.157300992572
 31
0.0
  0
LINE
  5
7C10
330
81A1
100
AcDbEntity
  8
2
100
AcDbLine
 10
2010.902890374351
 20
4045.710584264269
 30
0.0
 11
899.5445059917091
 21
4045.710584264269
 31
0.0
  0
INSERT
  5
7C11
330
81A1
100
AcDbEntity
  8
0
100
AcDbBlockReference
  2
YA_N
 10
-1221.011981710642
 20
-542.7332483964637
 30
0.0
 41
15.0
 42
15.0
 43
15.0
  0
LINE
  5
7C13
330
81A1
100
AcDbEntity
  8
1
100
AcDbLine
 10
2459.055040675533
 20
1392.660298728196
 30
0.0
 11
1009.055040675532
 21
1392.660298728196
 31
0.0
  0
LINE
  5
7C14
330
81A1
100
AcDbEntity
  8
1
100
AcDbLine
 10
2459.055040675533
 20
1492.660298728196
 30
0.0
 11
1009.055040675532
 21
1492.660298728196
 31
0.0
1001
ACAD
1000
ASC_BOUNDS
1002
{
1070
    19
1005
0
1005
0
1002
}
  0
LINE
  5
7C15
330
81A1
100
AcDbEntity
  8
1
100
AcDbLine
 10
2459.055040675533
 20
1492.660298728196
 30
0.0
 11
2459.055040675533
 21
1392.660298728196
 31
0.0
  0
LINE
  5
7C16
330
81A1
100
AcDbEntity
  8
1
100
AcDbLine
 10
1009.055040675532
 20
1492.660298728196
 30
0.0
 11
1009.055040675532
 21
1392.660298728196
 31
0.0
  0
ARC
  5
7C17
330
81A1
100
AcDbEntity
  8
1
100
AcDbCircle
 10
2259.055040675534
 20
1836.660298728197
 30
0.0
 40
142.5
100
AcDbArc
 50
180.0
 51
213.0338076719878
  0
ARC
  5
7C18
330
81A1
100
AcDbEntity
  8
1
100
AcDbCircle
 10
2259.055040675534
 20
1836.660298728197
 30
0.0
 40
142.5
100
AcDbArc
 50
326.9661316176382
 51
180.0
  0
LINE
  5
7C19
330
81A1
100
AcDbEntity
  8
2
100
AcDbLine
 10
2259.055040675534
 20
1998.259039845455
 30
0.0
 11
2259.055040675534
 21
1392.660298728196
 31
0.0
  0
LINE
  5
7C1A
330
81A1
100
AcDbEntity
  8
1
100
AcDbLine
 10
2378.519698684455
 20
1758.978605345449
 30
0.0
 11
2389.055040675532
 21
1719.660298728196
 31
0.0
  0
LINE
  5
7C1B
330
81A1
100
AcDbEntity
  8
1
100
AcDbLine
 10
2389.055040675532
 20
1719.462898728196
 30
0.0
 11
2389.055040675532
 21
1704.660298728196
 31
0.0
  0
LINE
  5
7C1C
330
81A1
100
AcDbEntity
  8
1
100
AcDbLine
 10
2139.590300355472
 20
1758.978731929756
 30
0.0
 11
2129.055040675532
 21
1719.660298728196
 31
0.0
  0
LINE
  5
7C1D
330
81A1
100
AcDbEntity
  8
1
100
AcDbLine
 10
2129.055040675532
 20
1719.462898728196
 30
0.0
 11
2129.055040675532
 21
1704.660298728196
 31
0.0
  0
LINE
  5
7C1E
330
81A1
100
AcDbEntity
  8
2
100
AcDbLine
 10
2429.592605491123
 20
1836.660298728197
 30
0.0
 11
2090.554275149872
 21
1836.660298728197
 31
0.0
  0
LINE
  5
7C1F
330
81A1
100
AcDbEntity
  8
1
100
AcDbLine
 10
2059.055040675533
 20
1659.660298728196
 30
0.0
 11
2059.055040675533
 21
1619.660298728196
 31
0.0
  0
LINE
  5
7C20
330
81A1
100
AcDbEntity
  8
1
100
AcDbLine
 10
2459.055040675533
 20
1659.660298728196
 30
0.0
 11
2459.055040675533
 21
1619.660298728196
 31
0.0
  0
LINE
  5
7C22
330
81A1
100
AcDbEntity
  8
1
100
AcDbLine
 10
2422.890697289327
 20
1704.660298728196
 30
0.0
 11
2096.432529284205
 21
1704.660298728196
 31
0.0
  0
LINE
  5
7C23
330
81A1
100
AcDbEntity
  8
1
100
AcDbLine
 10
2434.055040675533
 20
1659.660298728196
 30
0.0
 11
2422.890697289327
 21
1704.660298728196
 31
0.0
  0
LINE
  5
7C24
330
81A1
100
AcDbEntity
  8
1
100
AcDbLine
 10
2084.055040675532
 20
1659.660298728196
 30
0.0
 11
2096.432529284205
 21
1704.660298728196
 31
0.0
  0
LINE
  5
7C25
330
81A1
100
AcDbEntity
  8
1
100
AcDbLine
 10
2785.875662898936
 20
1492.660298728196
 30
0.0
 11
3791.875662898937
 21
1492.660298728196
 31
0.0
1001
ACAD
1000
ASC_BOUNDS
1002
{
1070
    19
1002
}
  0
LINE
  5
7C26
330
81A1
100
AcDbEntity
  8
1
100
AcDbLine
 10
2785.875662898936
 20
1392.660298728196
 30
0.0
 11
3791.875662898937
 21
1392.660298728196
 31
0.0
  0
LINE
  5
7C27
330
81A1
100
AcDbEntity
  8
1
100
AcDbLine
 10
2785.875662898936
 20
1492.660298728196
 30
0.0
 11
2785.875662898936
 21
1392.660298728196
 31
0.0
  0
LINE
  5
7C28
330
81A1
100
AcDbEntity
  8
1
100
AcDbLine
 10
3791.875662898937
 20
1492.660298728196
 30
0.0
 11
3791.875662898937
 21
1392.660298728196
 31
0.0
  0
DIMENSION
  5
7C2A
330
81A1
100
AcDbEntity
  8
3
100
AcDbDimension
  2
*D4
 10
820.4935059689757
 20
2291.660298728197
 30
0.0
 11
780.493505968976
 21
2029.987676433646
 31
0.0
 12
1257.016300202718
 22
1751.562672278076
 32
0.0
 71
     5
 42
-1.0
  3
Standard
100
AcDbAlignedDimension
 13
949.0550406755327
 23
1641.660298728196
 33
0.0
 14
949.0550406755327
 24
2291.660298728197
 34
0.0
 50
270.0
100
AcDbRotatedDimension
1001
ACAD
1000
DSTYLE
1002
{
1070
    40
1040
20.0
1002
}
  0
DIMENSION
  5
7C2B
330
81A1
100
AcDbEntity
  8
3
100
AcDbDimension
  2
*D5
 10
700.9044473927787
 20
2319.660298728196
 30
0.0
 11
660.9044473927788
 21
2043.987676433645
 31
0.0
 12
1257.016300202718
 22
1751.562672278076
 32
0.0
 71
     5
 42
-1.0
  3
Standard
100
AcDbAlignedDimension
 13
949.0550406755327
 23
1641.660298728196
 33
0.0
 14
902.1620675725372
 24
2319.660298728196
 34
0.0
 50
270.0
100
AcDbRotatedDimension
1001
ACAD
1000
DSTYLE
1002
{
1070
    40
1040
20.0
1002
}
  0
POINT
  5
7C2C
330
81A1
100
AcDbEntity
  8
1
100
AcDbPoint
 10
1009.055040675532
 20
1392.660298728196
 30
0.0
  0
LINE
  5
7C2D
330
81A1
100
AcDbEntity
  8
2
100
AcDbLine
 10
2556.875662898935
 20
1836.660298728197
 30
0.0
 11
3280.781501543112
 21
1836.660298728197
 31
0.0
  0
LINE
  5
7C2F
330
81A1
100
AcDbEntity
  8
1
100
AcDbLine
 10
2938.875662898936
 20
2773.660298728197
 30
0.0
 11
2938.875662898936
 21
2347.660298728197
 31
0.0
  0
LINE
  5
7C30
330
81A1
100
AcDbEntity
  8
1
100
AcDbLine
 10
2938.875662898936
 20
2347.660298728197
 30
0.0
 11
2938.875662898936
 21
1979.160298728197
 31
0.0
  0
LINE
  5
7C31
330
81A1
100
AcDbEntity
  8
1
100
AcDbLine
 10
3848.875662898937
 20
2289.660298728196
 30
0.0
 11
3848.875662898937
 21
2189.660298728196
 31
0.0
  0
ARC
  5
7C32
330
81A1
100
AcDbEntity
  8
1
100
AcDbCircle
 10
3838.875662898936
 20
2289.660298728196
 30
0.0
 40
10.0
100
AcDbArc
 50
0.0
 51
90.0
  0
ARC
  5
7C33
330
81A1
100
AcDbEntity
  8
1
100
AcDbCircle
 10
3838.875662898936
 20
2189.660298728196
 30
0.0
 40
10.0
100
AcDbArc
 50
270.0
 51
0.0
  0
LINE
  5
7C34
330
81A1
100
AcDbEntity
  8
1
100
AcDbLine
 10
3738.875662898936
 20
2179.660298728196
 30
0.0
 11
3838.875662898936
 21
2179.660298728196
 31
0.0
  0
LINE
  5
7C35
330
81A1
100
AcDbEntity
  8
1
100
AcDbLine
 10
3738.875662898936
 20
2299.660298728197
 30
0.0
 11
3838.875662898936
 21
2299.660298728197
 31
0.0
  0
CIRCLE
  5
7C36
330
81A1
100
AcDbEntity
  8
1
100
AcDbCircle
 10
2259.055040675534
 20
1836.660298728197
 30
0.0
 40
79.0
  0
CIRCLE
  5
7C37
330
81A1
100
AcDbEntity
  8
1
100
AcDbCircle
 10
1409.055040675532
 20
2319.660298728196
 30
0.0
 40
88.9
  0
ARC
  5
7C38
330
81A1
100
AcDbEntity
  8
1
100
AcDbCircle
 10
1409.055040675532
 20
2319.660298728196
 30
0.0
 40
150.0
100
AcDbArc
 50
77.52830244339076
 51
257.5283024433907
  0
ARC
  5
7C39
330
81A1
100
AcDbEntity
  8
1
100
AcDbCircle
 10
2259.055040675534
 20
1836.660298728197
 30
0.0
 40
150.0
100
AcDbArc
 50
257.5283024433907
 51
77.52830244339076
  0
LINE
  5
7C3A
330
81A1
100
AcDbEntity
  8
1
100
AcDbLine
 10
1441.448639546832
 20
2466.120719156943
 30
0.0
 11
2291.448639546831
 21
1983.120719156943
 31
0.0
  0
LINE
  5
7C3B
330
81A1
100
AcDbEntity
  8
1
100
AcDbLine
 10
1429.239539342421
 20
2406.238563977428
 30
0.0
 11
2276.991771774341
 21
1913.597114866433
 31
0.0
  0
LINE
  5
7C3C
330
81A1
100
AcDbEntity
  8
1
100
AcDbLine
 10
1390.844809799904
 20
2232.645371896897
 30
0.0
 11
2242.872720774805
 21
1759.335448113206
 31
0.0
  0
LINE
  5
7C3D
330
81A1
100
AcDbEntity
  8
1
100
AcDbLine
 10
1376.661441804232
 20
2173.199878299449
 30
0.0
 11
2226.661441804233
 21
1690.199878299449
 31
0.0
  0
LINE
  5
7C3E
330
81A1
100
AcDbEntity
  8
1
100
AcDbLine
 10
2686.875662898936
 20
2408.560298728197
 30
0.0
 11
2686.875662898936
 21
2230.760298728196
 31
0.0
  0
LINE
  5
7C3F
330
81A1
100
AcDbEntity
  8
1
100
AcDbLine
 10
2768.875662898937
 20
2408.560298728197
 30
0.0
 11
2768.875662898935
 21
2230.760298728197
 31
0.0
  0
LINE
  5
7C40
330
81A1
100
AcDbEntity
  8
1
100
AcDbLine
 10
2686.875662898936
 20
2408.560298728197
 30
0.0
 11
2768.875662898937
 21
2408.560298728197
 31
0.0
  0
LINE
  5
7C41
330
81A1
100
AcDbEntity
  8
1
100
AcDbLine
 10
2686.875662898936
 20
2230.760298728196
 30
0.0
 11
2768.875662898935
 21
2230.760298728197
 31
0.0
  0
LINE
  5
7C42
330
81A1
100
AcDbEntity
  8
1
100
AcDbLine
 10
2686.875662898936
 20
1915.660298728196
 30
0.0
 11
2768.875662898935
 21
1915.660298728196
 31
0.0
  0
LINE
  5
7C43
330
81A1
100
AcDbEntity
  8
1
100
AcDbLine
 10
2686.875662898934
 20
1757.660298728197
 30
0.0
 11
2768.875662898935
 21
1757.660298728197
 31
0.0
  0
LINE
  5
7C44
330
81A1
100
AcDbEntity
  8
1
100
AcDbLine
 10
2558.875662898936
 20
2469.660298728197
 30
0.0
 11
2558.875662898934
 21
1686.660298728196
 31
0.0
  0
LINE
  5
7C45
330
81A1
100
AcDbEntity
  8
1
100
AcDbLine
 10
2818.875662898936
 20
2469.660298728197
 30
0.0
 11
2818.875662898936
 21
2449.660298728197
 31
0.0
  0
LINE
  5
7C46
330
81A1
100
AcDbEntity
  8
1
100
AcDbLine
 10
2558.875662898937
 20
2469.660298728197
 30
0.0
 11
2818.875662898936
 21
2469.660298728197
 31
0.0
  0
LINE
  5
7C47
330
81A1
100
AcDbEntity
  8
1
100
AcDbLine
 10
2558.875662898934
 20
1686.660298728196
 30
0.0
 11
2818.875662898935
 21
1686.660298728196
 31
0.0
  0
LINE
  5
7C48
330
81A1
100
AcDbEntity
  8
1
100
AcDbLine
 10
2818.875662898935
 20
1694.160298728196
 30
0.0
 11
2818.875662898935
 21
1686.660298728196
 31
0.0
  0
LINE
  5
7C49
330
81A1
100
AcDbEntity
  8
1
100
AcDbLine
 10
1809.055040675533
 20
4498.710584264268
 30
0.0
 11
1009.055040675532
 21
4498.71058426427
 31
0.0
  0
LINE
  5
7C4A
330
81A1
100
AcDbEntity
  8
1
100
AcDbLine
 10
2459.055040675533
 20
3492.710584264268
 30
0.0
 11
1009.055040675532
 21
3492.710584264269
 31
0.0
  0
LINE
  5
7C4B
330
81A1
100
AcDbEntity
  8
1
100
AcDbLine
 10
1009.055040675532
 20
4498.710584264268
 30
0.0
 11
1009.055040675532
 21
4445.710584264269
 31
0.0
  0
LINE
  5
7C4C
330
81A1
100
AcDbEntity
  8
1
100
AcDbLine
 10
1809.055040675533
 20
4498.710584264268
 30
0.0
 11
1809.055040675533
 21
4445.710584264269
 31
0.0
  0
LINE
  5
7C4D
330
81A1
100
AcDbEntity
  8
1
100
AcDbLine
 10
2459.055040675533
 20
4092.710584264266
 30
0.0
 11
2459.055040675533
 21
3492.710584264268
 31
0.0
  0
LINE
  5
7C4E
330
81A1
100
AcDbEntity
  8
1
100
AcDbLine
 10
2459.055040675533
 20
4092.710584264266
 30
0.0
 11
1957.055040675532
 21
4092.710584264266
 31
0.0
  0
POINT
  5
7C4F
330
81A1
100
AcDbEntity
  8
1
100
AcDbPoint
 10
1009.055040675532
 20
1492.660298728196
 30
0.0
  0
POINT
  5
7C50
330
81A1
100
AcDbEntity
  8
1
100
AcDbPoint
 10
1009.055040675532
 20
1392.660298728196
 30
0.0
  0
POINT
  5
7C51
330
81A1
100
AcDbEntity
  8
1
100
AcDbPoint
 10
1009.055040675532
 20
1492.660298728196
 30
0.0
  0
ARC
  5
7C56
330
81A1
100
AcDbEntity
  8
1
100
AcDbCircle
 10
2846.375662898936
 20
2286.460298728196
 30
0.0
 40
10.0
100
AcDbArc
 50
90.0
 51
180.0
  0
ARC
  5
7C57
330
81A1
100
AcDbEntity
  8
1
100
AcDbCircle
 10
2846.375662898936
 20
2186.460298728196
 30
0.0
 40
10.0
100
AcDbArc
 50
180.0
 51
270.0
  0
LINE
  5
7C58
330
81A1
100
AcDbEntity
  8
1
100
AcDbLine
 10
2938.875662898936
 20
2176.460298728196
 30
0.0
 11
2846.375662898936
 21
2176.460298728196
 31
0.0
  0
LINE
  5
7C59
330
81A1
100
AcDbEntity
  8
1
100
AcDbLine
 10
2938.875662898936
 20
2296.460298728196
 30
0.0
 11
2846.375662898936
 21
2296.460298728196
 31
0.0
  0
LINE
  5
7C5A
330
81A1
100
AcDbEntity
  8
1
100
AcDbLine
 10
2836.375662898936
 20
2286.460298728196
 30
0.0
 11
2836.375662898936
 21
2186.460298728196
 31
0.0
  0
LINE
  5
7C5B
330
81A1
100
AcDbEntity
  8
1
100
AcDbLine
 10
2768.875662898935
 20
2294.660298728196
 30
0.0
 11
2840.775662898936
 21
2294.660298728196
 31
0.0
  0
LINE
  5
7C5D
330
81A1
100
AcDbEntity
  8
1
100
AcDbLine
 10
1009.055040675532
 20
1619.660298728196
 30
0.0
 11
1009.055040675532
 21
1519.660298728196
 31
0.0
  0
LINE
  5
7C5E
330
81A1
100
AcDbEntity
  8
1
100
AcDbLine
 10
2459.055040675533
 20
1619.660298728196
 30
0.0
 11
1009.055040675532
 21
1619.660298728196
 31
0.0
1001
ACAD
1000
ASC_BOUNDS
1002
{
1070
    19
1005
0
1005
0
1002
}
  0
LINE
  5
7C5F
330
81A1
100
AcDbEntity
  8
1
100
AcDbLine
 10
2459.055040675533
 20
1519.660298728196
 30
0.0
 11
1009.055040675532
 21
1519.660298728196
 31
0.0
  0
LINE
  5
7C60
330
81A1
100
AcDbEntity
  8
1
100
AcDbLine
 10
2459.055040675533
 20
1619.660298728196
 30
0.0
 11
2459.055040675533
 21
1519.660298728196
 31
0.0
  0
LINE
  5
7C61
330
81A1
100
AcDbEntity
  8
1
100
AcDbLine
 10
2785.875662898936
 20
1619.660298728196
 30
0.0
 11
3791.175662898937
 21
1619.660298728196
 31
0.0
1001
ACAD
1000
ASC_BOUNDS
1002
{
1070
    19
1002
}
  0
LINE
  5
7C62
330
81A1
100
AcDbEntity
  8
1
100
AcDbLine
 10
2785.875662898936
 20
1619.660298728196
 30
0.0
 11
2785.875662898936
 21
1519.660298728196
 31
0.0
  0
LINE
  5
7C63
330
81A1
100
AcDbEntity
  8
1
100
AcDbLine
 10
2785.875662898936
 20
1519.660298728196
 30
0.0
 11
3791.875662898936
 21
1519.660298728196
 31
0.0
  0
LINE
  5
7C64
330
81A1
100
AcDbEntity
  8
1
100
AcDbLine
 10
3791.875662898937
 20
1619.660298728196
 30
0.0
 11
3791.875662898937
 21
1519.660298728196
 31
0.0
  0
ARC
  5
7C65
330
81A1
100
AcDbEntity
  8
1
100
AcDbCircle
 10
1409.055040675532
 20
2319.660298728196
 30
0.0
 40
378.0
100
AcDbArc
 50
180.0
 51
184.2480226667285
  0
LINE
  5
7C66
330
81A1
100
AcDbEntity
  8
1
100
AcDbLine
 10
1957.055040675532
 20
4445.710584264269
 30
0.0
 11
949.0550406755327
 21
4445.710584264269
 31
0.0
  0
LINE
  5
7C67
330
81A1
100
AcDbEntity
  8
1
100
AcDbLine
 10
1957.055040675532
 20
3645.71058426427
 30
0.0
 11
949.0550406755327
 21
3645.71058426427
 31
0.0
  0
LINE
  5
7C68
330
81A1
100
AcDbEntity
  8
1
100
AcDbLine
 10
949.0550406755327
 20
4485.710584264269
 30
0.0
 11
949.0550406755327
 21
3605.71058426427
 31
0.0
  0
LINE
  5
7C69
330
81A1
100
AcDbEntity
  8
1
100
AcDbLine
 10
1957.055040675532
 20
4445.710584264269
 30
0.0
 11
1957.055040675532
 21
3645.71058426427
 31
0.0
  0
LINE
  5
7C6A
330
81A1
100
AcDbEntity
  8
1
100
AcDbLine
 10
989.0550406755336
 20
4445.710584264269
 30
0.0
 11
989.0550406755327
 21
3645.71058426427
 31
0.0
  0
LINE
  5
7C6B
330
81A1
100
AcDbEntity
  8
1
100
AcDbLine
 10
1009.055040675532
 20
3645.71058426427
 30
0.0
 11
1009.055040675532
 21
3492.710584264269
 31
0.0
  0
LINE
  5
7C6C
330
81A1
100
AcDbEntity
  8
1
100
AcDbLine
 10
2338.055040675532
 20
3393.710584264268
 30
0.0
 11
2180.055040675533
 21
3393.710584264268
 31
0.0
  0
LINE
  5
7C6D
330
81A1
100
AcDbEntity
  8
1
100
AcDbLine
 10
2338.055040675532
 20
3475.710584264269
 30
0.0
 11
2180.055040675533
 21
3475.710584264269
 31
0.0
  0
LINE
  5
7C6E
330
81A1
100
AcDbEntity
  8
1
100
AcDbLine
 10
1320.155040675532
 20
3475.710584264269
 30
0.0
 11
1320.155040675532
 21
3393.710584264269
 31
0.0
  0
LINE
  5
7C6F
330
81A1
100
AcDbEntity
  8
1
100
AcDbLine
 10
1497.955040675533
 20
3475.710584264269
 30
0.0
 11
1497.955040675533
 21
3393.710584264269
 31
0.0
  0
LINE
  5
7C70
330
81A1
100
AcDbEntity
  8
1
100
AcDbLine
 10
2180.055040675533
 20
3475.710584264269
 30
0.0
 11
2180.055040675533
 21
3393.710584264268
 31
0.0
  0
LINE
  5
7C71
330
81A1
100
AcDbEntity
  8
1
100
AcDbLine
 10
2338.055040675532
 20
3475.710584264269
 30
0.0
 11
2338.055040675532
 21
3393.710584264268
 31
0.0
  0
LINE
  5
7C72
330
81A1
100
AcDbEntity
  8
1
100
AcDbLine
 10
2409.055040675533
 20
3265.710584264268
 30
0.0
 11
1259.055040675532
 21
3265.710584264269
 31
0.0
  0
LINE
  5
7C73
330
81A1
100
AcDbEntity
  8
1
100
AcDbLine
 10
1259.055040675532
 20
3525.710584264269
 30
0.0
 11
1259.055040675532
 21
3265.710584264269
 31
0.0
  0
LINE
  5
7C74
330
81A1
100
AcDbEntity
  8
1
100
AcDbLine
 10
2409.055040675533
 20
3525.710584264268
 30
0.0
 11
2409.055040675533
 21
3265.710584264268
 31
0.0
  0
LINE
  5
7C75
330
81A1
100
AcDbEntity
  8
1
100
AcDbLine
 10
2409.055040675533
 20
3525.710584264268
 30
0.0
 11
1259.055040675532
 21
3525.710584264269
 31
0.0
  0
LINE
  5
7C76
330
81A1
100
AcDbEntity
  8
1
100
AcDbLine
 10
1497.955040675533
 20
3475.710584264269
 30
0.0
 11
1320.155040675532
 21
3475.710584264269
 31
0.0
  0
LINE
  5
7C77
330
81A1
100
AcDbEntity
  8
1
100
AcDbLine
 10
1497.955040675533
 20
3393.710584264269
 30
0.0
 11
1320.155040675532
 21
3393.710584264269
 31
0.0
  0
LINE
  5
7C78
330
81A1
100
AcDbEntity
  8
2
100
AcDbLine
 10
2259.055040675534
 20
3954.301477430891
 30
0.0
 11
2259.055040675534
 21
3242.157300992572
 31
0.0
  0
LINE
  5
7C79
330
81A1
100
AcDbEntity
  8
1
100
AcDbLine
 10
2116.555040675533
 20
3912.710284264269
 30
0.0
 11
2401.555040675532
 21
3912.710284264269
 31
0.0
  0
LINE
  5
7C7A
330
81A1
100
AcDbEntity
  8
1
100
AcDbLine
 10
2116.555040675533
 20
3522.710584264268
 30
0.0
 11
2401.555040675532
 21
3522.710584264269
 31
0.0
  0
LINE
  5
7C7B
330
81A1
100
AcDbEntity
  8
1
100
AcDbLine
 10
2278.055040675532
 20
3522.710584264268
 30
0.0
 11
2278.055040675532
 21
3475.710584264269
 31
0.0
  0
LINE
  5
7C7C
330
81A1
100
AcDbEntity
  8
1
100
AcDbLine
 10
2240.055040675533
 20
3522.710584264268
 30
0.0
 11
2240.055040675533
 21
3475.710584264269
 31
0.0
  0
LINE
  5
7C7D
330
81A1
100
AcDbEntity
  8
1
100
AcDbLine
 10
2401.555040675532
 20
3912.710284264269
 30
0.0
 11
2401.555040675532
 21
3522.710584264269
 31
0.0
  0
LINE
  5
7C7E
330
81A1
100
AcDbEntity
  8
1
100
AcDbLine
 10
2116.555040675533
 20
3912.710284264269
 30
0.0
 11
2116.555040675533
 21
3522.710584264268
 31
0.0
  0
LINE
  5
7C7F
330
81A1
100
AcDbEntity
  8
1
100
AcDbLine
 10
1384.055040675532
 20
3645.71058426427
 30
0.0
 11
1384.055040675532
 21
3475.710584264269
 31
0.0
  0
LINE
  5
7C80
330
81A1
100
AcDbEntity
  8
1
100
AcDbLine
 10
1434.055040675533
 20
3645.71058426427
 30
0.0
 11
1434.055040675533
 21
3475.710584264269
 31
0.0
  0
LINE
  5
7C81
330
81A1
100
AcDbEntity
  8
1
100
AcDbLine
 10
2768.875662898937
 20
2344.660298728197
 30
0.0
 11
2938.875662898936
 21
2344.660298728197
 31
0.0
  0
CIRCLE
  5
7C82
330
81A1
100
AcDbEntity
  8
1
100
AcDbCircle
 10
1409.055040675532
 20
2319.660298728196
 30
0.0
 40
335.0
  0
CIRCLE
  5
7C83
330
81A1
100
AcDbEntity
  8
1
100
AcDbCircle
 10
1409.055040675532
 20
2319.660298728196
 30
0.0
 40
375.0
  0
LINE
  5
7C84
330
81A1
100
AcDbEntity
  8
1
100
AcDbLine
 10
2459.055040675532
 20
1659.660298728196
 30
0.0
 11
2059.055040675533
 21
1659.660298728196
 31
0.0
  0
POINT
  5
7C85
330
81A1
100
AcDbEntity
  8
1
100
AcDbPoint
 10
3848.875662898937
 20
2289.660298728196
 30
0.0
  0
POINT
  5
7C86
330
81A1
100
AcDbEntity
  8
1
100
AcDbPoint
 10
2558.875662898936
 20
2469.660298728197
 30
0.0
  0
DIMENSION
  5
7C88
330
81A1
100
AcDbEntity
  8
3
100
AcDbDimension
  2
*D9
 10
800.2630696769246
 20
4498.71058426427
 30
0.0
 11
760.2630696769246
 21
3995.710584264269
 31
0.0
 12
242.90010286084
 22
0.0
 32
0.0
 71
     5
 42
-1.0
  3
Standard
100
AcDbAlignedDimension
 13
1009.055040675532
 23
3492.710584264269
 33
0.0
 14
1009.055040675532
 24
4498.71058426427
 34
0.0
 50
270.0
100
AcDbRotatedDimension
1001
ACAD
1000
DSTYLE
1002
{
1070
    40
1040
20.0
1002
}
  0
DIMENSION
  5
7C89
330
81A1
100
AcDbEntity
  8
3
100
AcDbDimension
  2
*D10
 10
1009.055040675532
 20
4594.543070233767
 30
0.0
 11
1409.055040675532
 21
4634.543070233767
 31
0.0
 12
242.90010286084
 22
0.0
 32
0.0
 71
     5
 42
-1.0
  3
Standard
100
AcDbAlignedDimension
 13
1809.055040675533
 23
4498.710584264268
 33
0.0
 14
1009.055040675532
 24
4498.71058426427
 34
0.0
100
AcDbRotatedDimension
1001
ACAD
1000
DSTYLE
1002
{
1070
    40
1040
20.0
1002
}
  0
DIMENSION
  5
7C8A
330
81A1
100
AcDbEntity
  8
3
100
AcDbDimension
  2
*D11
 10
2609.482624550814
 20
3492.710584264268
 30
0.0
 11
2569.482624550813
 21
3845.483388793175
 31
0.0
 12
1257.016300202718
 22
1614.353374367532
 32
0.0
 71
     5
 42
-1.0
  3
Standard
100
AcDbAlignedDimension
 13
2459.055040675533
 23
4092.710584264266
 33
0.0
 14
2459.055040675533
 24
3492.710584264268
 34
0.0
 50
270.0
100
AcDbRotatedDimension
1001
ACAD
1000
DSTYLE
1002
{
1070
    40
1040
20.0
1002
}
  0
DIMENSION
  5
7C90
330
81A1
100
AcDbEntity
  8
3
100
AcDbDimension
  2
*D12
 10
949.0550406755327
 20
3039.707490938132
 30
0.0
 11
1704.055040675533
 21
3143.034868643582
 31
0.0
 12
242.90010286084
 22
-63.32737770544918
 32
0.0
 71
     5
 42
-1.0
  3
Standard
100
AcDbAlignedDimension
 13
2459.055040675533
 23
1659.660298728196
 33
0.0
 14
949.0550406755327
 24
2299.824991376233
 34
0.0
100
AcDbRotatedDimension
1001
ACAD
1000
DSTYLE
1002
{
1070
    40
1040
20.0
1002
}
  0
LINE
  5
7C91
330
81A1
100
AcDbEntity
  8
1
100
AcDbLine
 10
2815.875662898936
 20
1694.160298728196
 30
0.0
 11
2815.875662898936
 21
1979.160298728197
 31
0.0
  0
LINE
  5
7C92
330
81A1
100
AcDbEntity
  8
1
100
AcDbLine
 10
3205.875662898936
 20
1979.160298728197
 30
0.0
 11
2815.875662898936
 21
1979.160298728197
 31
0.0
  0
LINE
  5
7C93
330
81A1
100
AcDbEntity
  8
1
100
AcDbLine
 10
2815.875662898936
 20
1817.660298728196
 30
0.0
 11
2768.875662898937
 21
1817.660298728196
 31
0.0
  0
LINE
  5
7C94
330
81A1
100
AcDbEntity
  8
1
100
AcDbLine
 10
2815.875662898936
 20
1855.660298728196
 30
0.0
 11
2768.875662898937
 21
1855.660298728196
 31
0.0
  0
LINE
  5
7C95
330
81A1
100
AcDbEntity
  8
1
100
AcDbLine
 10
3205.875662898935
 20
1694.160298728196
 30
0.0
 11
2815.875662898936
 21
1694.160298728196
 31
0.0
  0
POINT
  5
7C96
330
81A1
100
AcDbEntity
  8
1
100
AcDbPoint
 10
1009.055040675532
 20
1492.660298728196
 30
0.0
  0
POINT
  5
7C97
330
81A1
100
AcDbEntity
  8
1
100
AcDbPoint
 10
1009.055040675532
 20
1519.660298728196
 30
0.0
  0
LINE
  5
7C98
330
81A1
100
AcDbEntity
  8
1
100
AcDbLine
 10
2768.875662898933
 20
1915.660298728196
 30
0.0
 11
2768.875662898933
 21
1757.660298728197
 31
0.0
  0
LINE
  5
7C99
330
81A1
100
AcDbEntity
  8
1
100
AcDbLine
 10
2686.875662898934
 20
1915.660298728196
 30
0.0
 11
2686.875662898933
 21
1757.660298728197
 31
0.0
  0
DIMENSION
  5
7CA0
330
81A1
100
AcDbEntity
  8
3
100
AcDbDimension
  2
*D16
 10
1409.055040675532
 20
2908.879223635093
 30
0.0
 11
1179.055040675532
 21
3012.206601340543
 31
0.0
 12
242.90010286084
 22
-63.32737770544918
 32
0.0
 71
     5
 42
-1.0
  3
Standard
100
AcDbAlignedDimension
 13
949.0550406755327
 23
2319.660298728196
 33
0.0
 14
1409.055040675532
 24
2775.378507702062
 34
0.0
100
AcDbRotatedDimension
1001
ACAD
1000
DSTYLE
1002
{
1070
    40
1040
20.0
1002
}
  0
DIMENSION
  5
7CA2
330
81A1
100
AcDbEntity
  8
3
100
AcDbDimension
  2
*D18
 10
593.4762882613904
 20
2319.660298728196
 30
0.0
 11
553.4762882613904
 21
2609.987676433645
 31
0.0
 12
1257.016300202718
 22
1751.562672278076
 32
0.0
 71
     5
 42
-1.0
  3
Standard
100
AcDbAlignedDimension
 13
1456.055040675533
 23
2773.660298728197
 33
0.0
 14
882.1620675725371
 24
2319.660298728196
 34
0.0
 50
270.0
100
AcDbRotatedDimension
1001
ACAD
1000
DSTYLE
1002
{
1070
    40
1040
20.0
1002
}
  0
DIMENSION
  5
7CA5
330
81A1
100
AcDbEntity
  8
3
100
AcDbDimension
  2
*D20
 10
593.4762882613904
 20
1392.660298728196
 30
0.0
 11
543.4762882613902
 21
1221.231727299624
 31
0.0
 71
     5
 42
-1.0
  3
Standard
100
AcDbAlignedDimension
 13
1009.055040675532
 23
1492.660298728196
 33
0.0
 14
1009.055040675532
 24
1392.660298728196
 34
0.0
 50
270.0
100
AcDbRotatedDimension
1001
ACAD
1000
DSTYLE
1002
{
1070
   287
1070
     3
1070
   287
1070
     3
1070
    40
1040
20.0
1070
   143
1040
0.039
1070
   172
1070
     1
1070
   271
1070
     0
1070
   279
1070
     0
1070
   288
1070
     1
1070
     6
1000
DOT
1002
}
  0
LINE
  5
7CA6
330
81A1
100
AcDbEntity
  8
1
100
AcDbLine
 10
2938.875662898936
 20
2773.660298728197
 30
0.0
 11
3738.875662898936
 21
2773.660298728197
 31
0.0
  0
LINE
  5
7CA7
330
81A1
100
AcDbEntity
  8
1
100
AcDbLine
 10
3159.306569184435
 20
1641.660298728196
 30
0.0
 11
3738.875662898936
 21
1641.660298728196
 31
0.0
  0
LINE
  5
7CAC
330
81A1
100
AcDbEntity
  8
1
100
AcDbLine
 10
3205.875662898936
 20
1694.160298728196
 30
0.0
 11
3205.875662898936
 21
1979.160298728196
 31
0.0
  0
LINE
  5
7CAD
330
81A1
100
AcDbEntity
  8
1
100
AcDbLine
 10
3159.306569184435
 20
1694.160298728196
 30
0.0
 11
3159.306569184435
 21
1619.660298728196
 31
0.0
  0
LINE
  5
7CAE
330
81A1
100
AcDbEntity
  8
1
100
AcDbLine
 10
2883.201377645026
 20
1694.160298728196
 30
0.0
 11
2883.201377645026
 21
1619.660298728196
 31
0.0
  0
LINE
  5
7CAF
330
81A1
100
AcDbEntity
  8
1
100
AcDbLine
 10
2883.201377645026
 20
1659.660298728196
 30
0.0
 11
3159.306569184435
 21
1659.660298728196
 31
0.0
  0
LINE
  5
7F6D
330
81A1
100
AcDbEntity
  8
4
100
AcDbLine
 10
3700.0
 20
1000.0
 30
0.0
 11
3700.0
 21
600.0
 31
0.0
  0
LINE
  5
7F6E
330
81A1
100
AcDbEntity
  8
4
100
AcDbLine
 10
2300.0
 20
1000.0
 30
0.0
 11
2300.0
 21
600.0
 31
0.0
  0
LINE
  5
7F6F
330
81A1
100
AcDbEntity
  8
4
100
AcDbLine
 10
1300.0
 20
1000.0
 30
0.0
 11
1300.0
 21
600.0
 31
0.0
  0
LINE
  5
7F72
330
81A1
100
AcDbEntity
  8
4
100
AcDbLine
 10
1300.0
 20
600.0
 30
0.0
 11
3700.0
 21
600.0
 31
0.0
  0
LINE
  5
7F73
330
81A1
100
AcDbEntity
  8
4
100
AcDbLine
 10
1300.0
 20
800.0
 30
0.0
 11
3700.0
 21
800.0
 31
0.0
  0
TEXT
  5
7F74
330
81A1
100
AcDbEntity
  8
4
100
AcDbText
 10
1377.004161693803
 20
863.0860517332255
 30
0.0
 40
100.0
  1
機器名称
100
AcDbText
  0
TEXT
  5
7F75
330
81A1
100
AcDbEntity
  8
4
100
AcDbText
 10
1372.516212049595
 20
643.2903134640219
 30
0.0
 40
100.0
  1
機器型番
100
AcDbText
  0
TEXT
  5
7F76
330
81A1
100
AcDbEntity
  8
4
100
AcDbText
 10
2355.357490975329
 20
845.1435379151371
 30
0.0
 40
100.0
  1
ミツヤ多翼送風機
100
AcDbText
  0
TEXT
  5
7F77
330
81A1
100
AcDbEntity
  8
4
100
AcDbText
 10
2373.308991170961
 20
634.3191685598867
 30
0.0
 40
100.0
  1
MF#4-5
100
AcDbText
  0
TEXT
  5
7F79
330
81A1
100
AcDbEntity
  8
4
100
AcDbText
 10
1608.914910157378
 20
4766.857682665031
 30
0.0
 40
107.9999999999999
  1
床置防振ベット
100
AcDbText
  0
TEXT
  5
7F7A
330
81A1
100
AcDbEntity
  8
4
100
AcDbText
 10
632.3351866588928
 20
5067.761952398596
 30
0.0
 40
144.0
  1
遠心式両吸込両持多翼ファン
100
AcDbText
  0
LINE
  5
7F7B
330
81A1
100
AcDbEntity
  8
4
100
AcDbLine
 10
500.0
 20
4938.817508529609
 30
0.0
 11
3700.0
 21
4938.817508529609
 31
0.0
  0
LINE
  5
7F7C
330
81A1
100
AcDbEntity
  8
4
100
AcDbLine
 10
500.0
 20
5338.81750852961
 30
0.0
 11
3700.0
 21
5338.81750852961
 31
0.0
  0
LINE
  5
7F7D
330
81A1
100
AcDbEntity
  8
4
100
AcDbLine
 10
1300.0
 20
1000.0
 30
0.0
 11
3700.0
 21
1000.0
 31
0.0
  0
LINE
  5
7F7E
330
81A1
100
AcDbEntity
  8
4
100
AcDbLine
 10
500.0
 20
5338.81750852961
 30
0.0
 11
500.0
 21
4938.817508529609
 31
0.0
  0
TEXT
  5
7F7F
330
81A1
100
AcDbEntity
  8
4
100
AcDbText
 10
737.1972456719738
 20
4764.638955092687
 30
0.0
 40
107.9999999999999
  1
右回転左横向
100
AcDbText
  0
TEXT
  5
7F80
330
81A1
100
AcDbEntity
  8
4
100
AcDbText
 10
2937.939118498579
 20
5412.122162990619
 30
0.0
 40
112.0
  1
No.
100
AcDbText
  0
TEXT
  5
7F81
330
81A1
100
AcDbEntity
  8
4
100
AcDbText
 10
2622.592125200027
 20
4766.857682665031
 30
0.0
 40
107.9999999999999
  1
縮尺：1/20
100
AcDbText
  0
LINE
  5
7F82
330
81A1
100
AcDbEntity
  8
4
100
AcDbLine
 10
3700.0
 20
5338.81750852961
 30
0.0
 11
3700.0
 21
4938.817508529609
 31
0.0
  0
LINE
  5
7F83
330
81A1
100
AcDbEntity
  8
4
100
AcDbLine
 10
4200.0
 20
5900.0
 30
0.0
 11
4200.0
 21
5900.0
 31
0.0
  0
LINE
  5
7F84
330
81A1
100
AcDbEntity
  8
4
100
AcDbLine
 10
2881.234844719729
 20
5362.527166250802
 30
0.0
 11
2881.234844719729
 21
5573.304523099504
 31
0.0
  0
LINE
  5
7F85
330
81A1
100
AcDbEntity
  8
4
100
AcDbLine
 10
2881.234844719729
 20
5573.304523099504
 30
0.0
 11
3700.0
 21
5573.304523099504
 31
0.0
  0
LINE
  5
7F86
330
81A1
100
AcDbEntity
  8
4
100
AcDbLine
 10
3700.0
 20
5573.304523099504
 30
0.0
 11
3700.0
 21
5362.527166250802
 31
0.0
  0
LINE
  5
7F87
330
81A1
100
AcDbEntity
  8
4
100
AcDbLine
 10
3700.0
 20
5362.527166250802
 30
0.0
 11
2881.234844719729
 21
5362.527166250802
 31
0.0
  0
LINE
  5
7F88
330
81A1
100
AcDbEntity
  8
4
100
AcDbLine
 10
0.0
 20
0.0
 30
0.0
 11
0.0
 21
5900.0
 31
0.0
  0
LINE
  5
7F89
330
81A1
100
AcDbEntity
  8
4
100
AcDbLine
 10
0.0
 20
5900.0
 30
0.0
 11
4200.0
 21
5900.0
 31
0.0
  0
LINE
  5
7F8A
330
81A1
100
AcDbEntity
  8
4
100
AcDbLine
 10
4200.0
 20
5900.0
 30
0.0
 11
4200.0
 21
0.0
 31
0.0
  0
LINE
  5
7F8B
330
81A1
100
AcDbEntity
  8
4
100
AcDbLine
 10
4200.0
 20
0.0
 30
0.0
 11
0.0
 21
0.0
 31
0.0
  0
DIMENSION
  5
8032
330
81A1
100
AcDbEntity
  8
3
100
AcDbDimension
  2
*D22
 10
1409.055040675533
 20
1248.490184055159
 30
0.0
 11
1209.055040675532
 21
1298.490184055159
 31
0.0
 71
     5
 42
-1.0
  3
Standard
100
AcDbAlignedDimension
 13
1009.055040675532
 23
1392.660298728196
 33
0.0
 14
1409.055040675533
 24
1392.660298728196
 34
0.0
100
AcDbRotatedDimension
1001
ACAD
1000
DSTYLE
1002
{
1070
   172
1070
     1
1070
    40
1040
20.0
1070
    42
1040
1.0
1070
   271
1070
     0
1070
   143
1040
0.039
1002
}
  0
DIMENSION
  5
803F
330
81A1
100
AcDbEntity
  8
3
100
AcDbDimension
  2
*D23
 10
2459.055040675533
 20
1248.490184055159
 30
0.0
 11
1934.055040675533
 21
1298.490184055159
 31
0.0
 71
     5
 42
-1.0
  3
Standard
100
AcDbAlignedDimension
 13
1409.055040675533
 23
1392.660298728196
 33
0.0
 14
2459.055040675533
 24
1392.660298728196
 34
0.0
100
AcDbRotatedDimension
1001
ACAD
1000
DSTYLE
1002
{
1070
   172
1070
     1
1070
    40
1040
20.0
1070
    42
1040
1.0
1070
   271
1070
     0
1070
   143
1040
0.039
1002
}
  0
DIMENSION
  5
8084
330
81A1
100
AcDbEntity
  8
3
100
AcDbDimension
  2
*D28
 10
415.5830748515217
 20
2773.660298728197
 30
0.0
 11
349.8687891372361
 21
2083.160298728197
 31
0.0
 71
     5
 42
-1.0
  3
Standard
100
AcDbAlignedDimension
 13
1009.055040675532
 23
1392.660298728196
 33
0.0
 14
1436.055040675532
 24
2773.660298728197
 34
0.0
 50
90.0
100
AcDbRotatedDimension
1001
ACAD
1000
DSTYLE
1002
{
1070
   172
1070
     1
1070
    40
1040
20.0
1070
     3
1000
(<>)
1070
    42
1040
1.0
1070
   271
1070
     0
1070
   143
1040
0.039
1002
}
  0
DIMENSION
  5
81EF
330
81A1
100
AcDbEntity
  8
3
100
AcDbDimension
  2
*D29
 10
3338.875662898936
 20
3026.768866631725
 30
0.0
 11
2948.875662898937
 21
3092.483152346011
 31
0.0
 70
    32
  1
(<>)
 71
     5
 42
780.0
  3
IGA
100
AcDbAlignedDimension
 13
2558.875662898936
 23
2469.660298728197
 33
0.0
 14
3338.875662898936
 24
2915.245197106421
 34
0.0
100
AcDbRotatedDimension
1001
ACAD
1000
DSTYLE
1002
{
1070
    40
1040
20.0
1070
    42
1040
1.0
1070
   143
1040
0.039
1070
   172
1070
     1
1070
   271
1070
     4
1070
   272
1070
     4
1070
   279
1070
     0
1070
   284
1070
     0
1070
   285
1070
     0
1070
   286
1070
     0
1070
   341
1005
81B5
1070
   343
1005
81B5
1070
   344
1005
81B5
1002
}
  0
DIMENSION
  5
81FC
330
81A1
100
AcDbEntity
  8
3
100
AcDbDimension
  2
*D30
 10
3848.875662898937
 20
3026.768866631725
 30
0.0
 11
3593.875662898937
 21
3092.483152346011
 31
0.0
 70
    32
  1
(<>)
 71
     5
 42
510.0
  3
IGA
100
AcDbAlignedDimension
 13
3338.875662898936
 23
2915.245197106421
 33
0.0
 14
3848.875662898937
 24
2289.660298728196
 34
0.0
100
AcDbRotatedDimension
1001
ACAD
1000
DSTYLE
1002
{
1070
    40
1040
20.0
1070
    42
1040
1.0
1070
   143
1040
0.039
1070
   172
1070
     1
1070
   271
1070
     4
1070
   272
1070
     4
1070
   279
1070
     1
1070
   284
1070
     0
1070
   285
1070
     0
1070
   286
1070
     0
1070
   341
1005
81B5
1070
   343
1005
81B5
1070
   344
1005
81B5
1002
}
  0
DIMENSION
  5
829A
330
81A1
100
AcDbEntity
  8
3
100
AcDbDimension
  2
*D35
 10
3338.875662898936
 20
1258.782042702301
 30
0.0
 11
3062.375662898936
 21
1308.782042702302
 31
0.0
 70
    32
 71
     5
 42
553.0
  3
IGA
100
AcDbAlignedDimension
 13
2785.875662898936
 23
1392.660298728196
 33
0.0
 14
3338.875662898936
 24
1392.660298728196
 34
0.0
100
AcDbRotatedDimension
1001
ACAD
1000
DSTYLE
1002
{
1070
    40
1040
20.0
1070
    42
1040
1.0
1070
   143
1040
0.039
1070
   172
1070
     1
1070
   271
1070
     4
1070
   272
1070
     4
1070
   279
1070
     0
1070
   284
1070
     0
1070
   285
1070
     0
1070
   286
1070
     0
1070
   341
1005
81B5
1070
   343
1005
81B5
1070
   344
1005
81B5
1002
}
  0
DIMENSION
  5
82A7
330
81A1
100
AcDbEntity
  8
3
100
AcDbDimension
  2
*D36
 10
3791.875662898937
 20
1258.782042702301
 30
0.0
 11
3565.375662898937
 21
1308.782042702302
 31
0.0
 70
    32
 71
     5
 42
453.0
  3
IGA
100
AcDbAlignedDimension
 13
3338.875662898936
 23
1392.660298728196
 33
0.0
 14
3791.875662898937
 24
1392.660298728196
 34
0.0
100
AcDbRotatedDimension
1001
ACAD
1000
DSTYLE
1002
{
1070
    40
1040
20.0
1070
    42
1040
1.0
1070
   143
1040
0.039
1070
   172
1070
     1
1070
   271
1070
     4
1070
   272
1070
     4
1070
   279
1070
     1
1070
   284
1070
     0
1070
   285
1070
     0
1070
   286
1070
     0
1070
   341
1005
81B5
1070
   343
1005
81B5
1070
   344
1005
81B5
1002
}
  0
DIMENSION
  5
82B4
330
81A1
100
AcDbEntity
  8
3
100
AcDbDimension
  2
*D37
 10
3738.875662898936
 20
2841.291408169125
 30
0.0
 11
3338.875662898936
 21
2891.291408169125
 31
0.0
 70
    32
 71
     5
 42
800.0000000000008
  3
IGA
100
AcDbAlignedDimension
 13
2938.875662898936
 23
2773.660298728197
 33
0.0
 14
3738.875662898936
 24
2773.660298728197
 34
0.0
100
AcDbRotatedDimension
1001
ACAD
1000
DSTYLE
1002
{
1070
    40
1040
20.0
1070
    42
1040
1.0
1070
   143
1040
0.039
1070
   172
1070
     1
1070
   271
1070
     4
1070
   272
1070
     4
1070
   279
1070
     0
1070
   284
1070
     0
1070
   285
1070
     0
1070
   286
1070
     0
1070
   341
1005
81B5
1070
   343
1005
81B5
1070
   344
1005
81B5
1002
}
  0
DIMENSION
  5
82C5
330
81A1
100
AcDbEntity
  8
3
100
AcDbDimension
  2
*D38
 10
3980.729859673055
 20
1984.660298728196
 30
0.0
 11
3930.729859673054
 21
2319.660298728197
 31
0.0
 70
    32
  1
\U+03C6<>
 71
     5
 42
670.0
  3
IGA
100
AcDbAlignedDimension
 13
3738.875662898936
 23
2654.660298728197
 33
0.0
 14
3738.875662898936
 24
1984.660298728196
 34
0.0
 50
90.0
100
AcDbRotatedDimension
1001
ACAD
1000
DSTYLE
1002
{
1070
    40
1040
20.0
1070
    42
1040
1.0
1070
   143
1040
0.039
1070
   172
1070
     1
1070
   271
1070
     4
1070
   272
1070
     4
1070
   279
1070
     0
1070
   284
1070
     0
1070
   285
1070
     0
1070
   286
1070
     0
1070
   341
1005
81B5
1070
   343
1005
81B5
1070
   344
1005
81B5
1002
}
  0
DIMENSION
  5
82E4
330
81A1
100
AcDbEntity
  8
3
100
AcDbDimension
  2
*D39
 10
2459.055040675533
 20
3153.650532191836
 30
0.0
 11
1734.055040675533
 21
3203.650532191836
 31
0.0
 70
    32
 71
     5
 42
1450.000000000001
  3
IGA
100
AcDbAlignedDimension
 13
1009.055040675532
 23
3492.710584264269
 33
0.0
 14
2459.055040675533
 24
3492.710584264268
 34
0.0
100
AcDbRotatedDimension
1001
ACAD
1000
DSTYLE
1002
{
1070
    40
1040
20.0
1070
    42
1040
1.0
1070
   143
1040
0.039
1070
   172
1070
     1
1070
   271
1070
     4
1070
   272
1070
     4
1070
   279
1070
     0
1070
   284
1070
     0
1070
   285
1070
     0
1070
   286
1070
     0
1070
   341
1005
81B5
1070
   343
1005
81B5
1070
   344
1005
81B5
1002
}
  0
DIMENSION
  5
82F1
330
81A1
100
AcDbEntity
  8
3
100
AcDbDimension
  2
*D40
 10
2459.055040675533
 20
4594.543070233767
 30
0.0
 11
2134.055040675533
 21
4644.543070233767
 31
0.0
 70
    32
 71
     5
 42
650.0000000000004
  3
IGA
100
AcDbAlignedDimension
 13
1809.055040675533
 23
4498.710584264268
 33
0.0
 14
2459.055040675533
 24
4092.710584264266
 34
0.0
100
AcDbRotatedDimension
1001
ACAD
1000
DSTYLE
1002
{
1070
    40
1040
20.0
1070
    42
1040
1.0
1070
   143
1040
0.039
1070
   172
1070
     1
1070
   271
1070
     4
1070
   272
1070
     4
1070
   279
1070
     0
1070
   284
1070
     0
1070
   285
1070
     0
1070
   286
1070
     0
1070
   341
1005
81B5
1070
   343
1005
81B5
1070
   344
1005
81B5
1002
}
  0
DIMENSION
  5
8307
330
81A1
100
AcDbEntity
  8
3
100
AcDbDimension
  2
*D41
 10
1957.055040675532
 20
2908.879223635094
 30
0.0
 11
1683.055040675531
 21
2958.879223635094
 31
0.0
 70
    32
 71
     5
 42
548.0000000000002
  3
IGA
100
AcDbAlignedDimension
 13
1409.055040675532
 23
2775.378507702062
 33
0.0
 14
1957.055040675532
 24
2272.660298728196
 34
0.0
100
AcDbRotatedDimension
1001
ACAD
1000
DSTYLE
1002
{
1070
    40
1040
20.0
1070
    42
1040
1.0
1070
   143
1040
0.039
1070
   172
1070
     1
1070
   271
1070
     4
1070
   272
1070
     4
1070
   279
1070
     0
1070
   284
1070
     0
1070
   285
1070
     0
1070
   286
1070
     0
1070
   341
1005
81B5
1070
   343
1005
81B5
1070
   344
1005
81B5
1002
}
  0
DIMENSION
  5
831D
330
81A1
100
AcDbEntity
  8
3
100
AcDbDimension
  2
*D42
 10
593.4762882613902
 20
1519.660298728196
 30
0.0
 11
543.47628826139
 21
1919.660298728196
 31
0.0
 70
    32
 71
     5
 42
800.0
  3
IGA
100
AcDbAlignedDimension
 13
902.1620675725372
 23
2319.660298728196
 33
0.0
 14
1009.055040675532
 24
1519.660298728196
 34
0.0
 50
90.0
100
AcDbRotatedDimension
1001
ACAD
1000
DSTYLE
1002
{
1070
    40
1040
20.0
1070
    42
1040
1.0
1070
   143
1040
0.039
1070
   172
1070
     1
1070
   271
1070
     4
1070
   272
1070
     4
1070
   279
1070
     0
1070
   284
1070
     0
1070
   285
1070
     0
1070
   286
1070
     0
1070
   341
1005
81B5
1070
   343
1005
81B5
1070
   344
1005
81B5
1002
}
  0
DIMENSION
  5
832A
330
81A1
100
AcDbEntity
  8
3
100
AcDbDimension
  2
*D43
 10
593.4762882613902
 20
1492.660298728196
 30
0.0
 11
575.992211820332
 21
1506.160298728196
 31
0.0
 70
   160
  1
(<>)
 71
     5
 42
27.0
  3
IGA
100
AcDbAlignedDimension
 13
1009.055040675532
 23
1519.660298728196
 33
0.0
 14
1009.055040675532
 24
1492.660298728196
 34
0.0
 50
90.0
100
AcDbRotatedDimension
1001
ACAD
1000
DSTYLE
1002
{
1070
    40
1040
20.0
1070
    42
1040
1.0
1070
   143
1040
0.039
1070
   172
1070
     1
1070
   271
1070
     4
1070
   272
1070
     4
1070
   279
1070
     1
1070
   284
1070
     0
1070
   285
1070
     0
1070
   286
1070
     0
1070
   341
1005
81B5
1070
   343
1005
81B5
1070
   344
1005
83C9
1002
}
  0
ENDSEC
  0
SECTION
  2
OBJECTS
  0
DICTIONARY
  5
813E
330
0
100
AcDbDictionary
281
     1
  3
ACAD_CIP_PREVIOUS_PRODUCT_INFO
350
81EB
  3
ACAD_COLOR
350
8194
  3
ACAD_DETAILVIEWSTYLE
350
819B
  3
ACAD_GROUP
350
813F
  3
ACAD_LAYOUT
350
8193
  3
ACAD_MATERIAL
350
8142
  3
ACAD_MLEADERSTYLE
350
8197
  3
ACAD_MLINESTYLE
350
8190
  3
ACAD_PLOTSETTINGS
350
8192
  3
ACAD_PLOTSTYLENAME
350
8140
  3
ACAD_SCALELIST
350
8174
  3
ACAD_SECTIONVIEWSTYLE
350
8199
  3
ACAD_TABLESTYLE
350
8195
  3
ACAD_VISUALSTYLE
350
815B
  3
ACDB_RECOMPOSE_DATA
350
83EF
  3
AcDbVariableDictionary
350
83E2
  3
DWGPROPS
350
83F0
  0
DICTIONARY
  5
83D8
330
8186
100
AcDbDictionary
280
     1
281
     1
  3
ADSK_XREC_LAYER_RECONCILED
360
83D9
  0
DICTIONARY
  5
83DA
330
81A5
100
AcDbDictionary
280
     1
281
     1
  3
ADSK_XREC_LAYER_RECONCILED
360
83DB
  0
DICTIONARY
  5
83DC
330
81A8
100
AcDbDictionary
280
     1
281
     1
  3
ADSK_XREC_LAYER_RECONCILED
360
83DD
  0
DICTIONARY
  5
83DE
330
81A9
100
AcDbDictionary
280
     1
281
     1
  3
ADSK_XREC_LAYER_RECONCILED
360
83DF
  0
DICTIONARY
  5
83E0
330
81AA
100
AcDbDictionary
280
     1
281
     1
  3
ADSK_XREC_LAYER_RECONCILED
360
83E1
  0
DICTIONARY
  5
82C2
330
81A1
100
AcDbDictionary
280
     1
281
     1
  3
ACAD_SORTENTS
360
82C3
  0
XRECORD
  5
81EB
102
{ACAD_REACTORS
330
813E
102
}
330
813E
100
AcDbXrecord
280
     1
300
ACDLT
300
2015
300
INVLTS_F_S
  0
DICTIONARY
  5
8194
102
{ACAD_REACTORS
330
813E
102
}
330
813E
100
AcDbDictionary
281
     1
  0
DICTIONARY
  5
819B
102
{ACAD_REACTORS
330
813E
102
}
330
813E
100
AcDbDictionary
281
     1
  3
Imperial24
350
819C
  0
DICTIONARY
  5
813F
102
{ACAD_REACTORS
330
813E
102
}
330
813E
100
AcDbDictionary
281
     1
  0
DICTIONARY
  5
8193
102
{ACAD_REACTORS
330
813E
102
}
330
813E
100
AcDbDictionary
281
     1
  3
Model
350
81A4
  3
レイアウト1
350
81A0
  0
DICTIONARY
  5
8142
102
{ACAD_REACTORS
330
813E
102
}
330
813E
100
AcDbDictionary
281
     1
  3
ByBlock
350
814B
  3
ByLayer
350
8143
  3
Global
350
8153
  0
DICTIONARY
  5
8197
102
{ACAD_REACTORS
330
813E
102
}
330
813E
100
AcDbDictionary
281
     1
  3
Standard
350
8198
  0
DICTIONARY
  5
8190
102
{ACAD_REACTORS
330
813E
102
}
330
813E
100
AcDbDictionary
281
     1
  3
Standard
350
8191
  0
DICTIONARY
  5
8192
102
{ACAD_REACTORS
330
813E
102
}
330
813E
100
AcDbDictionary
281
     1
  0
ACDBDICTIONARYWDFLT
  5
8140
102
{ACAD_REACTORS
330
813E
102
}
330
813E
100
AcDbDictionary
281
     1
  3
Normal
350
8141
100
AcDbDictionaryWithDefault
340
8141
  0
DICTIONARY
  5
8174
102
{ACAD_REACTORS
330
813E
102
}
330
813E
100
AcDbDictionary
281
     1
  3
A0
350
8175
  3
A1
350
8176
  3
A2
350
8177
  3
A3
350
8178
  3
A4
350
8179
  3
A5
350
817A
  3
A6
350
817B
  3
A7
350
817C
  3
A8
350
817D
  3
A9
350
817E
  3
B0
350
817F
  3
B1
350
8180
  3
B2
350
8181
  3
B3
350
8182
  3
B4
350
8183
  3
B5
350
8184
  3
B6
350
8185
  0
DICTIONARY
  5
8199
102
{ACAD_REACTORS
330
813E
102
}
330
813E
100
AcDbDictionary
281
     1
  3
Imperial24
350
819A
  0
DICTIONARY
  5
8195
102
{ACAD_REACTORS
330
813E
102
}
330
813E
100
AcDbDictionary
281
     1
  3
Standard
350
8196
  0
DICTIONARY
  5
815B
102
{ACAD_REACTORS
330
813E
102
}
330
813E
100
AcDbDictionary
281
     1
  3
2dWireframe
350
8161
  3
Basic
350
8160
  3
Brighten
350
8167
  3
ColorChange
350
816B
  3
Conceptual
350
8164
  3
Dim
350
8166
  3
EdgeColorOff
350
8173
  3
Facepattern
350
816A
  3
Flat
350
815C
  3
FlatWithEdges
350
815D
  3
Gouraud
350
815E
  3
GouraudWithEdges
350
815F
  3
Hidden
350
8163
  3
JitterOff
350
8171
  3
Linepattern
350
8169
  3
OverhangOff
350
8172
  3
Realistic
350
8165
  3
Shaded
350
8170
  3
Shaded with edges
350
816F
  3
Shades of Gray
350
816C
  3
Sketchy
350
816D
  3
Thicken
350
8168
  3
Wireframe
350
8162
  3
X-Ray
350
816E
  0
XRECORD
  5
83EF
102
{ACAD_REACTORS
330
813E
102
}
330
813E
100
AcDbXrecord
280
     1
 90
        1
330
8196
  0
DICTIONARY
  5
83E2
102
{ACAD_REACTORS
330
813E
102
}
330
813E
100
AcDbDictionary
281
     1
  3
CANNOSCALE
350
83E7
  3
CMLEADERSTYLE
350
83E4
  3
CTABLESTYLE
350
83E3
  3
CVIEWDETAILSTYLE
350
83E5
  3
CVIEWSECTIONSTYLE
350
83E6
  3
DIMASSOC
350
83EA
  3
INDEXCTL
350
83E9
  3
SORTENTS
350
83E8
  3
XCLIPFRAME
350
83EB
  0
XRECORD
  5
83F0
102
{ACAD_REACTORS
330
813E
102
}
330
813E
100
AcDbXrecord
280
     1
  1
DWGPROPS COOKIE
  2

  3

  4

  6

  7

  8
yasukiyo.ogawa
  9

300
=
301
=
302
=
303
=
304
=
305
=
306
=
307
=
308
=
309
=
 40
0.0161705902777778
 41
2451387.483285764
 42
2460262.648726806
  1

 90
        0
  0
XRECORD
  5
83D9
102
{ACAD_REACTORS
330
83D8
102
}
330
83D8
100
AcDbXrecord
280
     1
290
     1
  0
XRECORD
  5
83DB
102
{ACAD_REACTORS
330
83DA
102
}
330
83DA
100
AcDbXrecord
280
     1
290
     1
  0
XRECORD
  5
83DD
102
{ACAD_REACTORS
330
83DC
102
}
330
83DC
100
AcDbXrecord
280
     1
290
     1
  0
XRECORD
  5
83DF
102
{ACAD_REACTORS
330
83DE
102
}
330
83DE
100
AcDbXrecord
280
     1
290
     1
  0
XRECORD
  5
83E1
102
{ACAD_REACTORS
330
83E0
102
}
330
83E0
100
AcDbXrecord
280
     1
290
     1
  0
SORTENTSTABLE
  5
82C3
102
{ACAD_REACTORS
330
82C2
102
}
330
82C2
100
AcDbSortentsTable
330
81A1
331
7F82
  5
7F84
331
7CA0
  5
7CA2
331
7C7E
  5
7C80
331
7C64
  5
7C66
331
7C42
  5
7C44
331
7C31
  5
7C33
331
7C20
  5
7C23
331
7C0F
  5
7C11
331
7BFE
  5
7BFE
331
7F83
  5
7F85
331
7F72
  5
7F74
331
7C90
  5
7C92
331
7C7F
  5
7C81
331
7C65
  5
7C67
331
7C43
  5
7C45
331
7C32
  5
7C34
331
7C10
  5
7C13
331
7BFF
  5
7BFF
331
7F84
  5
7F86
331
7F73
  5
7F75
331
7CA2
  5
7CA5
331
7C91
  5
7C93
331
7C80
  5
7C82
331
7F6D
  5
7F6F
331
7C66
  5
7C68
331
7C44
  5
7C46
331
7C33
  5
7C35
331
7C22
  5
7C24
331
7C11
  5
7C14
331
7C00
  5
7C00
331
7F85
  5
7F87
331
7F74
  5
7F76
331
7C92
  5
7C94
331
7C81
  5
7C83
331
7C70
  5
7C72
331
7F6E
  5
7F72
331
7C67
  5
7C69
331
7C56
  5
7C58
331
7C45
  5
7C47
331
7C34
  5
7C36
331
7C23
  5
7C25
331
7C01
  5
7C01
331
7F86
  5
7F88
331
7F75
  5
7F77
331
7C93
  5
7C95
331
7C82
  5
7C84
331
7C71
  5
7C73
331
7C68
  5
7C6A
331
7F6F
  5
7F73
331
7C57
  5
7C59
331
7C46
  5
7C48
331
7C35
  5
7C37
331
7C24
  5
7C26
331
7C13
  5
7C15
331
7C02
  5
7C02
331
829A
  5
82B4
331
7C69
  5
7C6B
331
7C58
  5
7C5A
331
7F87
  5
7F89
331
7F76
  5
7F79
331
7CA5
  5
7CA7
331
7C94
  5
7C96
331
7C83
  5
7C85
331
7C72
  5
7C74
331
7C47
  5
7C49
331
7C36
  5
7C38
331
7C25
  5
7C27
331
7C14
  5
7C16
331
7C03
  5
7C03
331
7F88
  5
7F8A
331
7F77
  5
7F7A
331
7CA6
  5
7CAC
331
7C95
  5
7C97
331
7C84
  5
7C86
331
7C73
  5
7C75
331
7C6A
  5
7C6C
331
7C59
  5
7C5B
331
7C48
  5
7C4A
331
7C37
  5
7C39
331
7C26
  5
7C28
331
7C15
  5
7C17
331
7C04
  5
7C04
331
7F89
  5
7F8B
331
7CA7
  5
7CAD
331
7C96
  5
7C98
331
7C85
  5
7C87
331
7C74
  5
7C76
331
7C6B
  5
7C6D
331
7C5A
  5
7C5D
331
7C49
  5
7C4B
331
7C38
  5
7C3A
331
7C27
  5
7C2A
331
7C16
  5
7C18
331
7C05
  5
7C05
331
81EF
  5
829A
331
7C86
  5
7C88
331
7C75
  5
7C77
331
7C6C
  5
7C6E
331
7C5B
  5
7C5E
331
7C4A
  5
7C4C
331
7C39
  5
7C3B
331
7C28
  5
7C2B
331
7C97
  5
7C99
331
7F8A
  5
8032
331
7F79
  5
7F7B
331
7C17
  5
7C19
331
7C06
  5
7C06
331
8032
  5
8077
331
7C18
  5
7C1A
331
81FC
  5
82A7
331
7F8B
  5
803F
331
7F7A
  5
7F7C
331
7C98
  5
7C9F
331
7C76
  5
7C78
331
7C6D
  5
7C6F
331
7C4B
  5
7C4D
331
7C3A
  5
7C3C
331
7C07
  5
7C07
331
7F7B
  5
7F7D
331
7C99
  5
7CA0
331
7C88
  5
7C8A
331
7C77
  5
7C79
331
7C6E
  5
7C70
331
7C5D
  5
7C5F
331
7C4C
  5
7C4E
331
7C3B
  5
7C3D
331
7C2A
  5
7C2C
331
7C19
  5
7C1B
331
7C08
  5
7C08
331
7C89
  5
7C90
331
7C78
  5
7C7A
331
7C6F
  5
7C71
331
7C5E
  5
7C60
331
7C4D
  5
7C4F
331
7C3C
  5
7C3E
331
7C2B
  5
7C2D
331
7C1A
  5
7C1C
331
7F7C
  5
7F7E
331
7C09
  5
7C09
331
82B4
  5
82C4
331
7C8A
  5
7C91
331
7C79
  5
7C7B
331
7C5F
  5
7C61
331
7C4E
  5
7C50
331
7C3D
  5
7C3F
331
7C2C
  5
7C2F
331
7C1B
  5
7C1D
331
8084
  5
81FC
331
7F7D
  5
7F7F
331
7CAC
  5
7CAE
331
7C0A
  5
7C0A
331
803F
  5
8084
331
7C3E
  5
7C40
331
7C2D
  5
7C30
331
7C1C
  5
7C1E
331
7F7E
  5
7F80
331
7CAD
  5
7CAF
331
7C7A
  5
7C7C
331
7C60
  5
7C62
331
7C4F
  5
7C51
331
7C0B
  5
7C0B
331
7F7F
  5
7F81
331
7CAE
  5
7F6D
331
7C7B
  5
7C7D
331
7C61
  5
7C63
331
7C50
  5
7C52
331
7C3F
  5
7C41
331
7C1D
  5
7C1F
331
7C0C
  5
7C0E
331
7F80
  5
7F82
331
7CAF
  5
7F6E
331
7C7C
  5
7C7E
331
7C62
  5
7C64
331
7C51
  5
7C56
331
7C40
  5
7C42
331
7C2F
  5
7C31
331
7C1E
  5
7C20
331
7C0D
  5
7C0F
331
7BFC
  5
7BFC
331
7F81
  5
7F83
331
82A7
  5
82C1
331
7C7D
  5
7C7F
331
7C63
  5
7C65
331
7C41
  5
7C43
331
7C30
  5
7C32
331
7C1F
  5
7C22
331
7C0E
  5
7C10
  0
ACDBDETAILVIEWSTYLE
  5
819C
102
{ACAD_XDICTIONARY
360
8428
102
}
102
{ACAD_REACTORS
330
819B
102
}
330
819B
100
AcDbModelDocViewStyle
 70
     0
  3
Imperial24
290
     0
100
AcDbDetailViewStyle
 70
     0
 71
     0
 90
        3
 71
     1
340
8187
 40
0.24
340
0
 40
0.24
300

 40
0.36
280
     3
 71
     2
340
818E
 90
       25
 71
     3
340
8187
 40
0.24
 90
        1
 40
0.75
 90
        1
300
%<\AcVar ViewType \f "%tc1">% %<\AcVar ViewDetailId>%\PSCALE %<\AcVar ViewScale \f "%sn">%
 71
     4
340
818E
 90
       25
340
818E
 90
       25
280
     0
  0
LAYOUT
  5
81A4
102
{ACAD_XDICTIONARY
360
842C
102
}
102
{ACAD_REACTORS
330
8193
102
}
330
8193
100
AcDbPlotSettings
  1

  2
RICOH imagio MP W3600 RPCS
  4

  6

 40
0.0
 41
0.0
 42
0.0
 43
0.0
 44
0.0
 45
0.0
 46
0.0
 47
0.0
 48
0.0
 49
0.0
140
0.0
141
0.0
142
1.0
143
1.0
 70
  1712
 72
     0
 73
     0
 74
     0
  7

 75
     0
147
1.0
148
0.0
149
0.0
100
AcDbLayout
  1
Model
 70
     1
 71
     0
 10
0.0
 20
0.0
 11
12.0
 21
9.0
 12
0.0
 22
0.0
 32
0.0
 14
0.0
 24
0.0
 34
0.0
 15
0.0
 25
0.0
 35
0.0
146
0.0
 13
0.0
 23
0.0
 33
0.0
 16
1.0
 26
0.0
 36
0.0
 17
0.0
 27
1.0
 37
0.0
 76
     0
330
81A1
331
81A6
  0
LAYOUT
  5
81A0
102
{ACAD_XDICTIONARY
360
842A
102
}
102
{ACAD_REACTORS
330
8193
102
}
330
8193
100
AcDbPlotSettings
  1

  2
RICOH imagio MP W3600 RPCS
  4

  6

 40
0.0
 41
0.0
 42
0.0
 43
0.0
 44
0.0
 45
0.0
 46
0.0
 47
0.0
 48
0.0
 49
0.0
140
0.0
141
0.0
142
1.0
143
1.0
 70
   688
 72
     0
 73
     0
 74
     5
  7

 75
    16
147
1.0
148
0.0
149
0.0
100
AcDbLayout
  1
レイアウト1
 70
     1
 71
     1
 10
0.0
 20
0.0
 11
12.0
 21
9.0
 12
0.0
 22
0.0
 32
0.0
 14
1.000000000000000E+20
 24
1.000000000000000E+20
 34
1.000000000000000E+20
 15
-1.000000000000000E+20
 25
-1.000000000000000E+20
 35
-1.000000000000000E+20
146
0.0
 13
0.0
 23
0.0
 33
0.0
 16
1.0
 26
0.0
 36
0.0
 17
0.0
 27
1.0
 37
0.0
 76
     0
330
819D
  0
MATERIAL
  5
814B
102
{ACAD_XDICTIONARY
360
814C
102
}
102
{ACAD_REACTORS
330
8142
102
}
330
8142
100
AcDbMaterial
  1
ByBlock
 72
     0
 43
0.0208333333333333
 43
0.0
 43
0.0
 43
0.0
 43
0.0
 43
0.0208333333333333
 43
0.0
 43
0.0
 43
0.0
 43
0.0
 43
1.0
 43
0.0
 43
0.0
 43
0.0
 43
0.0
 43
1.0
 77
     0
 47
0.0208333333333333
 47
0.0
 47
0.0
 47
0.0
 47
0.0
 47
0.0208333333333333
 47
0.0
 47
0.0
 47
0.0
 47
0.0
 47
1.0
 47
0.0
 47
0.0
 47
0.0
 47
0.0
 47
1.0
171
     0
 49
0.0208333333333333
 49
0.0
 49
0.0
 49
0.0
 49
0.0
 49
0.0208333333333333
 49
0.0
 49
0.0
 49
0.0
 49
0.0
 49
1.0
 49
0.0
 49
0.0
 49
0.0
 49
0.0
 49
1.0
175
     0
142
0.0208333333333333
142
0.0
142
0.0
142
0.0
142
0.0
142
0.0208333333333333
142
0.0
142
0.0
142
0.0
142
0.0
142
1.0
142
0.0
142
0.0
142
0.0
142
0.0
142
1.0
179
     0
144
0.0208333333333333
144
0.0
144
0.0
144
0.0
144
0.0
144
0.0208333333333333
144
0.0
144
0.0
144
0.0
144
0.0
144
1.0
144
0.0
144
0.0
144
0.0
144
0.0
144
1.0
147
0.0208333333333333
147
0.0
147
0.0
147
0.0
147
0.0
147
0.0208333333333333
147
0.0
147
0.0
147
0.0
147
0.0
147
1.0
147
0.0
147
0.0
147
0.0
147
0.0
147
1.0
  0
MATERIAL
  5
8143
102
{ACAD_XDICTIONARY
360
8144
102
}
102
{ACAD_REACTORS
330
8142
102
}
330
8142
100
AcDbMaterial
  1
ByLayer
 72
     0
 43
0.0208333333333333
 43
0.0
 43
0.0
 43
0.0
 43
0.0
 43
0.0208333333333333
 43
0.0
 43
0.0
 43
0.0
 43
0.0
 43
1.0
 43
0.0
 43
0.0
 43
0.0
 43
0.0
 43
1.0
 77
     0
 47
0.0208333333333333
 47
0.0
 47
0.0
 47
0.0
 47
0.0
 47
0.0208333333333333
 47
0.0
 47
0.0
 47
0.0
 47
0.0
 47
1.0
 47
0.0
 47
0.0
 47
0.0
 47
0.0
 47
1.0
171
     0
 49
0.0208333333333333
 49
0.0
 49
0.0
 49
0.0
 49
0.0
 49
0.0208333333333333
 49
0.0
 49
0.0
 49
0.0
 49
0.0
 49
1.0
 49
0.0
 49
0.0
 49
0.0
 49
0.0
 49
1.0
175
     0
142
0.0208333333333333
142
0.0
142
0.0
142
0.0
142
0.0
142
0.0208333333333333
142
0.0
142
0.0
142
0.0
142
0.0
142
1.0
142
0.0
142
0.0
142
0.0
142
0.0
142
1.0
179
     0
144
0.0208333333333333
144
0.0
144
0.0
144
0.0
144
0.0
144
0.0208333333333333
144
0.0
144
0.0
144
0.0
144
0.0
144
1.0
144
0.0
144
0.0
144
0.0
144
0.0
144
1.0
147
0.0208333333333333
147
0.0
147
0.0
147
0.0
147
0.0
147
0.0208333333333333
147
0.0
147
0.0
147
0.0
147
0.0
147
1.0
147
0.0
147
0.0
147
0.0
147
0.0
147
1.0
  0
MATERIAL
  5
8153
102
{ACAD_XDICTIONARY
360
8154
102
}
102
{ACAD_REACTORS
330
8142
102
}
330
8142
100
AcDbMaterial
  1
Global
 72
     0
 43
0.0208333333333333
 43
0.0
 43
0.0
 43
0.0
 43
0.0
 43
0.0208333333333333
 43
0.0
 43
0.0
 43
0.0
 43
0.0
 43
1.0
 43
0.0
 43
0.0
 43
0.0
 43
0.0
 43
1.0
 77
     0
 47
0.0208333333333333
 47
0.0
 47
0.0
 47
0.0
 47
0.0
 47
0.0208333333333333
 47
0.0
 47
0.0
 47
0.0
 47
0.0
 47
1.0
 47
0.0
 47
0.0
 47
0.0
 47
0.0
 47
1.0
171
     0
 49
0.0208333333333333
 49
0.0
 49
0.0
 49
0.0
 49
0.0
 49
0.0208333333333333
 49
0.0
 49
0.0
 49
0.0
 49
0.0
 49
1.0
 49
0.0
 49
0.0
 49
0.0
 49
0.0
 49
1.0
175
     0
142
0.0208333333333333
142
0.0
142
0.0
142
0.0
142
0.0
142
0.0208333333333333
142
0.0
142
0.0
142
0.0
142
0.0
142
1.0
142
0.0
142
0.0
142
0.0
142
0.0
142
1.0
179
     0
144
0.0208333333333333
144
0.0
144
0.0
144
0.0
144
0.0
144
0.0208333333333333
144
0.0
144
0.0
144
0.0
144
0.0
144
1.0
144
0.0
144
0.0
144
0.0
144
0.0
144
1.0
147
0.0208333333333333
147
0.0
147
0.0
147
0.0
147
0.0
147
0.0208333333333333
147
0.0
147
0.0
147
0.0
147
0.0
147
1.0
147
0.0
147
0.0
147
0.0
147
0.0
147
1.0
  0
MLEADERSTYLE
  5
8198
102
{ACAD_REACTORS
330
8197
102
}
330
8197
100
AcDbMLeaderStyle
170
     2
171
     1
172
     0
 90
        2
 40
0.0
 41
0.0
173
     1
 91
-1056964608
340
818C
 92
       -2
290
     1
 42
0.09
291
     1
 43
0.36
  3
Standard
 44
0.18
300

342
8187
174
     1
178
     6
175
     1
176
     0
 93
-1056964608
 45
0.18
292
     0
297
     0
 46
0.18
 94
-1056964608
 47
1.0
 49
1.0
140
1.0
293
     1
141
0.0
294
     1
177
     0
142
1.0
295
     0
296
     0
143
0.125
1001
ACAD_MLEADERVER
1070
     2
  0
MLINESTYLE
  5
8191
102
{ACAD_REACTORS
330
8190
102
}
330
8190
100
AcDbMlineStyle
  2
STANDARD
 70
     0
  3

 62
   256
 51
90.0
 52
90.0
 71
     2
 49
0.5
 62
   256
  6
BYLAYER
 49
-0.5
 62
   256
  6
BYLAYER
  0
ACDBPLACEHOLDER
  5
8141
102
{ACAD_REACTORS
330
8140
102
}
330
8140
  0
SCALE
  5
8175
102
{ACAD_REACTORS
330
8174
102
}
330
8174
100
AcDbScale
 70
     0
300
1:1
140
1.0
141
1.0
290
     1
  0
SCALE
  5
8176
102
{ACAD_REACTORS
330
8174
102
}
330
8174
100
AcDbScale
 70
     0
300
1/128" = 1'-0"
140
0.0078125
141
12.0
290
     0
  0
SCALE
  5
8177
102
{ACAD_REACTORS
330
8174
102
}
330
8174
100
AcDbScale
 70
     0
300
1/64" = 1'-0"
140
0.015625
141
12.0
290
     0
  0
SCALE
  5
8178
102
{ACAD_REACTORS
330
8174
102
}
330
8174
100
AcDbScale
 70
     0
300
1/32" = 1'-0"
140
0.03125
141
12.0
290
     0
  0
SCALE
  5
8179
102
{ACAD_REACTORS
330
8174
102
}
330
8174
100
AcDbScale
 70
     0
300
1/16" = 1'-0"
140
0.0625
141
12.0
290
     0
  0
SCALE
  5
817A
102
{ACAD_REACTORS
330
8174
102
}
330
8174
100
AcDbScale
 70
     0
300
3/32" = 1'-0"
140
0.09375
141
12.0
290
     0
  0
SCALE
  5
817B
102
{ACAD_REACTORS
330
8174
102
}
330
8174
100
AcDbScale
 70
     0
300
1/8" = 1'-0"
140
0.125
141
12.0
290
     0
  0
SCALE
  5
817C
102
{ACAD_REACTORS
330
8174
102
}
330
8174
100
AcDbScale
 70
     0
300
3/16" = 1'-0"
140
0.1875
141
12.0
290
     0
  0
SCALE
  5
817D
102
{ACAD_REACTORS
330
8174
102
}
330
8174
100
AcDbScale
 70
     0
300
1/4" = 1'-0"
140
0.25
141
12.0
290
     0
  0
SCALE
  5
817E
102
{ACAD_REACTORS
330
8174
102
}
330
8174
100
AcDbScale
 70
     0
300
3/8" = 1'-0"
140
0.375
141
12.0
290
     0
  0
SCALE
  5
817F
102
{ACAD_REACTORS
330
8174
102
}
330
8174
100
AcDbScale
 70
     0
300
1/2" = 1'-0"
140
0.5
141
12.0
290
     0
  0
SCALE
  5
8180
102
{ACAD_REACTORS
330
8174
102
}
330
8174
100
AcDbScale
 70
     0
300
3/4" = 1'-0"
140
0.75
141
12.0
290
     0
  0
SCALE
  5
8181
102
{ACAD_REACTORS
330
8174
102
}
330
8174
100
AcDbScale
 70
     0
300
1" = 1'-0"
140
1.0
141
12.0
290
     0
  0
SCALE
  5
8182
102
{ACAD_REACTORS
330
8174
102
}
330
8174
100
AcDbScale
 70
     0
300
1-1/2" = 1'-0"
140
1.5
141
12.0
290
     0
  0
SCALE
  5
8183
102
{ACAD_REACTORS
330
8174
102
}
330
8174
100
AcDbScale
 70
     0
300
3" = 1'-0"
140
3.0
141
12.0
290
     0
  0
SCALE
  5
8184
102
{ACAD_REACTORS
330
8174
102
}
330
8174
100
AcDbScale
 70
     0
300
6" = 1'-0"
140
6.0
141
12.0
290
     0
  0
SCALE
  5
8185
102
{ACAD_REACTORS
330
8174
102
}
330
8174
100
AcDbScale
 70
     0
300
1'-0" = 1'-0"
140
12.0
141
12.0
290
     0
  0
ACDBSECTIONVIEWSTYLE
  5
819A
102
{ACAD_XDICTIONARY
360
8426
102
}
102
{ACAD_REACTORS
330
8199
102
}
330
8199
100
AcDbModelDocViewStyle
 70
     0
  3
Imperial24
290
     0
100
AcDbSectionViewStyle
 70
     0
 71
     0
 90
       78
 71
     1
340
8187
 40
0.24
340
0
340
0
 40
0.24
300
I, O, Q, S, X, Z
 40
0.48
 90
        3
 40
0.18
 90
        1
 71
     2
340
818E
 90
       25
340
818E
 90
       50
 40
0.24
 40
0.0
 40
0.24
 71
     3
340
8187
 40
0.24
 90
        1
 40
0.75
 90
        1
300
%<\AcVar ViewType \f "%tc1">% %<\AcVar ViewSectionStartId>%-%<\AcVar ViewSectionEndId>%\PSCALE %<\AcVar ViewScale \f "%sn">%
 71
     4
300
ANSI31
 40
1.0
 90
        0
290
     0
290
     0
 90
        6
 40
0.0
 40
1.570796326794896
 40
0.2617993877991494
 40
1.308996938995747
 40
-0.2617993877991494
 40
1.832595714594046
  0
TABLESTYLE
  5
8196
102
{ACAD_XDICTIONARY
360
83ED
102
}
102
{ACAD_REACTORS
330
8195
102
}
330
8195
100
AcDbTableStyle
  3
Standard
 70
     0
 71
     0
 40
0.06
 41
0.06
280
     0
281
     0
  7
STANDARD
140
0.18
170
     2
 62
     0
 63
     7
283
     0
274
    -2
284
     1
 64
     0
275
    -2
285
     1
 65
     0
276
    -2
286
     1
 66
     0
277
    -2
287
     1
 67
     0
278
    -2
288
     1
 68
     0
279
    -2
289
     1
 69
     0
  7
STANDARD
140
0.25
170
     5
 62
     0
 63
     7
283
     0
274
    -2
284
     1
 64
     0
275
    -2
285
     1
 65
     0
276
    -2
286
     1
 66
     0
277
    -2
287
     1
 67
     0
278
    -2
288
     1
 68
     0
279
    -2
289
     1
 69
     0
  7
STANDARD
140
0.18
170
     5
 62
     0
 63
     7
283
     0
274
    -2
284
     1
 64
     0
275
    -2
285
     1
 65
     0
276
    -2
286
     1
 66
     0
277
    -2
287
     1
 67
     0
278
    -2
288
     1
 68
     0
279
    -2
289
     1
 69
     0
  0
VISUALSTYLE
  5
8161
102
{ACAD_XDICTIONARY
360
83FE
102
}
102
{ACAD_REACTORS
330
815B
102
}
330
815B
100
AcDbVisualStyle
  2
2dWireframe
 70
     4
 71
     0
 72
     2
 73
     0
 90
        0
 40
-0.6
 41
-30.0
 62
     5
 63
     7
 74
     1
 91
        4
 64
     7
 65
   257
 75
     1
175
     1
 42
1.0
 92
        0
 66
   257
 43
1.0
 76
     1
 77
     6
 78
     2
 67
     7
 79
     5
170
     0
171
     0
290
     0
174
     0
 93
        1
 44
0.0
173
     0
291
     0
 45
0.0
1001
ACAD
1000
AcDbSavedByObjectVersion
1070
     0
  0
VISUALSTYLE
  5
8160
102
{ACAD_XDICTIONARY
360
83FC
102
}
102
{ACAD_REACTORS
330
815B
102
}
330
815B
100
AcDbVisualStyle
  2
Basic
 70
     7
 71
     1
 72
     0
 73
     1
 90
        0
 40
-0.6
 41
-30.0
 62
     5
 63
     7
 74
     0
 91
        4
 64
     7
 65
   257
 75
     1
175
     1
 42
1.0
 92
        8
 66
     7
 43
1.0
 76
     1
 77
     6
 78
     2
 67
     7
 79
     5
170
     0
171
     0
290
     0
174
     0
 93
        1
 44
0.0
173
     0
291
     1
 45
0.0
1001
ACAD
1000
AcDbSavedByObjectVersion
1070
     0
  0
VISUALSTYLE
  5
8167
102
{ACAD_XDICTIONARY
360
840A
102
}
102
{ACAD_REACTORS
330
815B
102
}
330
815B
100
AcDbVisualStyle
  2
Brighten
 70
    12
 71
     2
 72
     2
 73
     0
 90
        0
 40
-0.6
 41
-30.0
 62
     5
 63
     7
 74
     1
 91
        4
 64
     7
 65
   257
 75
     1
175
     1
 42
1.0
 92
        8
 66
     7
 43
1.0
 76
     1
 77
     6
 78
     2
 67
     7
 79
     5
170
     0
171
     0
290
     0
174
     0
 93
        1
 44
50.0
173
     0
291
     1
 45
0.0
1001
ACAD
1000
AcDbSavedByObjectVersion
1070
     0
  0
VISUALSTYLE
  5
816B
102
{ACAD_XDICTIONARY
360
8412
102
}
102
{ACAD_REACTORS
330
815B
102
}
330
815B
100
AcDbVisualStyle
  2
ColorChange
 70
    16
 71
     2
 72
     2
 73
     3
 90
        0
 40
-0.6
 41
-30.0
 62
     5
 63
     8
 74
     1
 91
        4
 64
     7
 65
   257
 75
     1
175
     1
 42
1.0
 92
        8
 66
     8
 43
1.0
 76
     1
 77
     6
 78
     2
 67
     7
 79
     5
170
     0
171
     0
290
     0
174
     0
 93
        1
 44
0.0
173
     0
291
     1
 45
0.0
1001
ACAD
1000
AcDbSavedByObjectVersion
1070
     0
  0
VISUALSTYLE
  5
8164
102
{ACAD_XDICTIONARY
360
8404
102
}
102
{ACAD_REACTORS
330
815B
102
}
330
815B
100
AcDbVisualStyle
  2
Conceptual
 70
     9
 71
     3
 72
     2
 73
     0
 90
        0
 40
-0.6
 41
-30.0
 62
     5
 63
     7
 74
     2
 91
        2
 64
     7
 65
   257
 75
     1
175
     1
 42
179.0
 92
        8
 66
     7
 43
1.0
 76
     1
 77
     6
 78
     2
 67
     7
 79
     3
170
     0
171
     0
290
     0
174
     0
 93
        1
 44
0.0
173
     0
291
     0
 45
0.0
1001
ACAD
1000
AcDbSavedByObjectVersion
1070
     0
  0
VISUALSTYLE
  5
8166
102
{ACAD_XDICTIONARY
360
8408
102
}
102
{ACAD_REACTORS
330
815B
102
}
330
815B
100
AcDbVisualStyle
  2
Dim
 70
    11
 71
     2
 72
     2
 73
     0
 90
        0
 40
-0.6
 41
-30.0
 62
     5
 63
     7
 74
     1
 91
        4
 64
     7
 65
   257
 75
     1
175
     1
 42
1.0
 92
        8
 66
     7
 43
1.0
 76
     1
 77
     6
 78
     2
 67
     7
 79
     5
170
     0
171
     0
290
     0
174
     0
 93
        1
 44
-50.0
173
     0
291
     1
 45
0.0
1001
ACAD
1000
AcDbSavedByObjectVersion
1070
     0
  0
VISUALSTYLE
  5
8173
102
{ACAD_XDICTIONARY
360
8422
102
}
102
{ACAD_REACTORS
330
815B
102
}
330
815B
100
AcDbVisualStyle
  2
EdgeColorOff
 70
    22
 71
     2
 72
     2
 73
     0
 90
        0
 40
-0.6
 41
-30.0
 62
     5
 63
     7
 74
     1
 91
        4
 64
     7
 65
   257
 75
     1
175
     1
 42
1.0
 92
        8
 66
     7
 43
1.0
 76
     1
 77
     6
 78
     2
 67
     7
 79
     5
170
     0
171
     0
290
     0
174
     0
 93
        1
 44
0.0
173
     0
291
     1
 45
0.0
1001
ACAD
1000
AcDbSavedByObjectVersion
1070
     0
  0
VISUALSTYLE
  5
816A
102
{ACAD_XDICTIONARY
360
8410
102
}
102
{ACAD_REACTORS
330
815B
102
}
330
815B
100
AcDbVisualStyle
  2
Facepattern
 70
    15
 71
     2
 72
     2
 73
     0
 90
        0
 40
-0.6
 41
-30.0
 62
     5
 63
     7
 74
     1
 91
        4
 64
     7
 65
   257
 75
     1
175
     1
 42
1.0
 92
        8
 66
     7
 43
1.0
 76
     1
 77
     6
 78
     2
 67
     7
 79
     5
170
     0
171
     0
290
     0
174
     0
 93
        1
 44
0.0
173
     0
291
     1
 45
0.0
1001
ACAD
1000
AcDbSavedByObjectVersion
1070
     0
  0
VISUALSTYLE
  5
815C
102
{ACAD_XDICTIONARY
360
83F4
102
}
102
{ACAD_REACTORS
330
815B
102
}
330
815B
100
AcDbVisualStyle
  2
Flat
 70
     0
 71
     2
 72
     1
 73
     1
 90
        2
 40
-0.6
 41
30.0
 62
     5
 63
     7
 74
     0
 91
        0
 64
     7
 65
   257
 75
     1
175
     1
 42
1.0
 92
        8
 66
     7
 43
1.0
 76
     1
 77
     6
 78
     2
 67
     7
 79
     5
170
     0
171
     0
290
     0
174
     0
 93
       13
 44
0.0
173
     0
291
     1
 45
0.0
1001
ACAD
1000
AcDbSavedByObjectVersion
1070
     0
  0
VISUALSTYLE
  5
815D
102
{ACAD_XDICTIONARY
360
83F6
102
}
102
{ACAD_REACTORS
330
815B
102
}
330
815B
100
AcDbVisualStyle
  2
FlatWithEdges
 70
     1
 71
     2
 72
     1
 73
     1
 90
        2
 40
-0.6
 41
30.0
 62
     5
 63
     7
 74
     1
 91
        0
 64
     7
 65
   257
 75
     1
175
     1
 42
1.0
 92
        0
 66
   257
 43
1.0
 76
     1
 77
     6
 78
     2
 67
     7
 79
     5
170
     0
171
     0
290
     0
174
     0
 93
       13
 44
0.0
173
     0
291
     1
 45
0.0
1001
ACAD
1000
AcDbSavedByObjectVersion
1070
     0
  0
VISUALSTYLE
  5
815E
102
{ACAD_XDICTIONARY
360
83F8
102
}
102
{ACAD_REACTORS
330
815B
102
}
330
815B
100
AcDbVisualStyle
  2
Gouraud
 70
     2
 71
     2
 72
     2
 73
     1
 90
        2
 40
-0.6
 41
30.0
 62
     5
 63
     7
 74
     0
 91
        0
 64
     7
 65
   257
 75
     1
175
     1
 42
1.0
 92
        0
 66
     7
 43
1.0
 76
     1
 77
     6
 78
     2
 67
     7
 79
     5
170
     0
171
     0
290
     0
174
     0
 93
       13
 44
0.0
173
     0
291
     1
 45
0.0
1001
ACAD
1000
AcDbSavedByObjectVersion
1070
     0
  0
VISUALSTYLE
  5
815F
102
{ACAD_XDICTIONARY
360
83FA
102
}
102
{ACAD_REACTORS
330
815B
102
}
330
815B
100
AcDbVisualStyle
  2
GouraudWithEdges
 70
     3
 71
     2
 72
     2
 73
     1
 90
        2
 40
-0.6
 41
30.0
 62
     5
 63
     7
 74
     1
 91
        0
 64
     7
 65
   257
 75
     1
175
     1
 42
1.0
 92
        0
 66
   257
 43
1.0
 76
     1
 77
     6
 78
     2
 67
     7
 79
     5
170
     0
171
     0
290
     0
174
     0
 93
       13
 44
0.0
173
     0
291
     1
 45
0.0
1001
ACAD
1000
AcDbSavedByObjectVersion
1070
     0
  0
VISUALSTYLE
  5
8163
102
{ACAD_XDICTIONARY
360
8402
102
}
102
{ACAD_REACTORS
330
815B
102
}
330
815B
100
AcDbVisualStyle
  2
Hidden
 70
     6
 71
     1
 72
     2
 73
     2
 90
        0
 40
-0.6
 41
-30.0
 62
     5
 63
     7
 74
     2
 91
        2
 64
     7
 65
   257
 75
     2
175
     1
 42
40.0
 92
        0
 66
   257
 43
1.0
 76
     1
 77
     6
 78
     2
 67
     7
 79
     3
170
     0
171
     0
290
     0
174
     0
 93
        1
 44
0.0
173
     0
291
     0
 45
0.0
1001
ACAD
1000
AcDbSavedByObjectVersion
1070
     0
  0
VISUALSTYLE
  5
8171
102
{ACAD_XDICTIONARY
360
841E
102
}
102
{ACAD_REACTORS
330
815B
102
}
330
815B
100
AcDbVisualStyle
  2
JitterOff
 70
    20
 71
     2
 72
     2
 73
     0
 90
        0
 40
-0.6
 41
-30.0
 62
     5
 63
     7
 74
     1
 91
        4
 64
     7
 65
   257
 75
     1
175
     1
 42
1.0
 92
       10
 66
     7
 43
1.0
 76
     1
 77
     6
 78
     2
 67
     7
 79
     5
170
     0
171
     0
290
     0
174
     0
 93
        1
 44
0.0
173
     0
291
     1
 45
0.0
1001
ACAD
1000
AcDbSavedByObjectVersion
1070
     0
  0
VISUALSTYLE
  5
8169
102
{ACAD_XDICTIONARY
360
840E
102
}
102
{ACAD_REACTORS
330
815B
102
}
330
815B
100
AcDbVisualStyle
  2
Linepattern
 70
    14
 71
     2
 72
     2
 73
     0
 90
        0
 40
-0.6
 41
-30.0
 62
     5
 63
     7
 74
     1
 91
        4
 64
     7
 65
   257
 75
     7
175
     7
 42
1.0
 92
        8
 66
     7
 43
1.0
 76
     1
 77
     6
 78
     2
 67
     7
 79
     5
170
     0
171
     0
290
     0
174
     0
 93
        1
 44
0.0
173
     0
291
     1
 45
0.0
1001
ACAD
1000
AcDbSavedByObjectVersion
1070
     0
  0
VISUALSTYLE
  5
8172
102
{ACAD_XDICTIONARY
360
8420
102
}
102
{ACAD_REACTORS
330
815B
102
}
330
815B
100
AcDbVisualStyle
  2
OverhangOff
 70
    21
 71
     2
 72
     2
 73
     0
 90
        0
 40
-0.6
 41
-30.0
 62
     5
 63
     7
 74
     1
 91
        4
 64
     7
 65
   257
 75
     1
175
     1
 42
1.0
 92
        9
 66
     7
 43
1.0
 76
     1
 77
     6
 78
     2
 67
     7
 79
     5
170
     0
171
     0
290
     0
174
     0
 93
        1
 44
0.0
173
     0
291
     1
 45
0.0
1001
ACAD
1000
AcDbSavedByObjectVersion
1070
     0
  0
VISUALSTYLE
  5
8165
102
{ACAD_XDICTIONARY
360
8406
102
}
102
{ACAD_REACTORS
330
815B
102
}
330
815B
100
AcDbVisualStyle
  2
Realistic
 70
     8
 71
     2
 72
     3
 73
     0
 90
        2
 40
-0.6
 41
30.0
 62
     5
 63
     7
 74
     0
 91
        0
 64
     7
 65
   257
 75
     1
175
     1
 42
1.0
 92
        8
 66
   257
 43
1.0
 76
     1
 77
     6
 78
     2
 67
     7
 79
     3
170
     0
171
     0
290
     0
174
     0
 93
       13
 44
0.0
173
     0
291
     0
 45
0.0
1001
ACAD
1000
AcDbSavedByObjectVersion
1070
     0
  0
VISUALSTYLE
  5
8170
102
{ACAD_XDICTIONARY
360
841C
102
}
102
{ACAD_REACTORS
330
815B
102
}
330
815B
100
AcDbVisualStyle
  2
Shaded
 70
    27
 71
     2
 72
     2
 73
     1
 90
        2
 40
-0.6
 41
30.0
 62
     5
 63
     7
 74
     0
 91
        4
 64
     7
 65
   257
 75
     1
175
     1
 42
1.0
 92
        8
 66
   257
 43
1.0
 76
     1
 77
     6
 78
     2
 67
     8
 79
     3
170
     0
171
     0
290
     0
174
     0
 93
        5
 44
0.0
173
     0
291
     0
 45
0.0
1001
ACAD
1000
AcDbSavedByObjectVersion
1070
     0
  0
VISUALSTYLE
  5
816F
102
{ACAD_XDICTIONARY
360
841A
102
}
102
{ACAD_REACTORS
330
815B
102
}
330
815B
100
AcDbVisualStyle
  2
Shaded with edges
 70
    26
 71
     2
 72
     2
 73
     1
 90
        2
 40
-0.6
 41
30.0
 62
     5
 63
     7
 74
     1
 91
       10
 64
     7
 65
   257
 75
     2
175
     1
 42
1.0
 92
        8
 66
   257
 43
1.0
 76
     1
 77
     6
 78
     2
 67
     7
 79
     3
170
     0
171
     0
290
     0
174
     0
 93
        5
 44
0.0
173
     0
291
     0
 45
0.0
1001
ACAD
1000
AcDbSavedByObjectVersion
1070
     0
  0
VISUALSTYLE
  5
816C
102
{ACAD_XDICTIONARY
360
8414
102
}
102
{ACAD_REACTORS
330
815B
102
}
330
815B
100
AcDbVisualStyle
  2
Shades of Gray
 70
    23
 71
     2
 72
     2
 73
     3
 90
        0
 40
-0.6
 41
-30.0
 62
     5
 63
     7
 74
     2
 91
        2
 64
     7
 65
     7
 75
     1
175
     1
 42
40.0
 92
        8
 66
     7
 43
1.0
 76
     1
 77
     6
 78
     2
 67
     7
 79
     3
170
     0
171
     0
290
     0
174
     0
 93
        1
 44
0.0
173
     0
291
     0
 45
0.0
1001
ACAD
1000
AcDbSavedByObjectVersion
1070
     0
  0
VISUALSTYLE
  5
816D
102
{ACAD_XDICTIONARY
360
8416
102
}
102
{ACAD_REACTORS
330
815B
102
}
330
815B
100
AcDbVisualStyle
  2
Sketchy
 70
    24
 71
     1
 72
     2
 73
     2
 90
        0
 40
-0.6
 41
-30.0
 62
     5
 63
     7
 74
     2
 91
        2
 64
     7
 65
     7
 75
     1
175
     1
 42
40.0
 92
       11
 66
     7
 43
1.0
 76
     1
 77
     6
 78
     2
 67
     7
 79
     6
170
     0
171
     0
290
     0
174
     0
 93
        1
 44
0.0
173
     0
291
     0
 45
0.0
1001
ACAD
1000
AcDbSavedByObjectVersion
1070
     0
  0
VISUALSTYLE
  5
8168
102
{ACAD_XDICTIONARY
360
840C
102
}
102
{ACAD_REACTORS
330
815B
102
}
330
815B
100
AcDbVisualStyle
  2
Thicken
 70
    13
 71
     2
 72
     2
 73
     0
 90
        0
 40
-0.6
 41
-30.0
 62
     5
 63
     7
 74
     1
 91
        4
 64
     7
 65
   257
 75
     1
175
     1
 42
1.0
 92
       12
 66
     7
 43
1.0
 76
     1
 77
     6
 78
     2
 67
     7
 79
     5
170
     0
171
     0
290
     0
174
     0
 93
        1
 44
0.0
173
     0
291
     1
 45
0.0
1001
ACAD
1000
AcDbSavedByObjectVersion
1070
     0
  0
VISUALSTYLE
  5
8162
102
{ACAD_XDICTIONARY
360
8400
102
}
102
{ACAD_REACTORS
330
815B
102
}
330
815B
100
AcDbVisualStyle
  2
Wireframe
 70
     5
 71
     0
 72
     2
 73
     0
 90
        0
 40
-0.6
 41
-30.0
 62
     5
 63
     7
 74
     1
 91
        4
 64
     7
 65
   257
 75
     1
175
     1
 42
1.0
 92
        0
 66
   257
 43
1.0
 76
     1
 77
     6
 78
     2
 67
     7
 79
     3
170
     0
171
     0
290
     0
174
     0
 93
        1
 44
0.0
173
     0
291
     0
 45
0.0
1001
ACAD
1000
AcDbSavedByObjectVersion
1070
     0
  0
VISUALSTYLE
  5
816E
102
{ACAD_XDICTIONARY
360
8418
102
}
102
{ACAD_REACTORS
330
815B
102
}
330
815B
100
AcDbVisualStyle
  2
X-Ray
 70
    25
 71
     2
 72
     2
 73
     1
 90
        1
 40
0.5
 41
-30.0
 62
     5
 63
     7
 74
     1
 91
        0
 64
     7
 65
   257
 75
     1
175
     1
 42
1.0
 92
        8
 66
     7
 43
1.0
 76
     1
 77
     6
 78
     2
 67
     7
 79
     3
170
     0
171
     0
290
     0
174
     0
 93
       13
 44
0.0
173
     0
291
     0
 45
0.0
1001
ACAD
1000
AcDbSavedByObjectVersion
1070
     0
  0
DICTIONARYVAR
  5
83E7
102
{ACAD_REACTORS
330
83E2
102
}
330
83E2
100
DictionaryVariables
280
     0
  1
1:1
  0
DICTIONARYVAR
  5
83E4
102
{ACAD_REACTORS
330
83E2
102
}
330
83E2
100
DictionaryVariables
280
     0
  1
STANDARD
  0
DICTIONARYVAR
  5
83E3
102
{ACAD_REACTORS
330
83E2
102
}
330
83E2
100
DictionaryVariables
280
     0
  1
STANDARD
  0
DICTIONARYVAR
  5
83E5
102
{ACAD_REACTORS
330
83E2
102
}
330
83E2
100
DictionaryVariables
280
     0
  1
Imperial24
  0
DICTIONARYVAR
  5
83E6
102
{ACAD_REACTORS
330
83E2
102
}
330
83E2
100
DictionaryVariables
280
     0
  1
Imperial24
  0
DICTIONARYVAR
  5
83EA
102
{ACAD_REACTORS
330
83E2
102
}
330
83E2
100
DictionaryVariables
280
     0
  1
1
  0
DICTIONARYVAR
  5
83E9
102
{ACAD_REACTORS
330
83E2
102
}
330
83E2
100
DictionaryVariables
280
     0
  1
0
  0
DICTIONARYVAR
  5
83E8
102
{ACAD_REACTORS
330
83E2
102
}
330
83E2
100
DictionaryVariables
280
     0
  1
127
  0
DICTIONARYVAR
  5
83EB
102
{ACAD_REACTORS
330
83E2
102
}
330
83E2
100
DictionaryVariables
280
     0
  1
2
  0
DICTIONARY
  5
8428
330
819C
100
AcDbDictionary
280
     1
281
     1
  3
ACAD_XREC_ROUNDTRIP
360
8429
  0
DICTIONARY
  5
842C
330
81A4
100
AcDbDictionary
280
     1
281
     1
  3
ACAD_XREC_ROUNDTRIP
360
842D
  0
DICTIONARY
  5
842A
330
81A0
100
AcDbDictionary
280
     1
281
     1
  3
ACAD_XREC_ROUNDTRIP
360
842B
  0
DICTIONARY
  5
814C
330
814B
100
AcDbDictionary
280
     1
281
     1
  3
ACAD_XREC_ROUNDTRIP
360
83F2
  3
BUMPTILE
360
814E
  3
DIFFUSETILE
360
814D
  3
OPACITYTILE
360
8151
  3
REFLECTIONTILE
360
8150
  3
REFRACTIONTILE
360
8152
  3
SPECULARTILE
360
814F
  0
DICTIONARY
  5
8144
330
8143
100
AcDbDictionary
280
     1
281
     1
  3
ACAD_XREC_ROUNDTRIP
360
83F1
  3
BUMPTILE
360
8146
  3
DIFFUSETILE
360
8145
  3
OPACITYTILE
360
8149
  3
REFLECTIONTILE
360
8148
  3
REFRACTIONTILE
360
814A
  3
SPECULARTILE
360
8147
  0
DICTIONARY
  5
8154
330
8153
100
AcDbDictionary
280
     1
281
     1
  3
ACAD_XREC_ROUNDTRIP
360
83F3
  3
BUMPTILE
360
8156
  3
DIFFUSETILE
360
8155
  3
FBXASSET
360
81EC
  3
OPACITYTILE
360
8159
  3
REFLECTIONTILE
360
8158
  3
REFRACTIONTILE
360
815A
  3
SPECULARTILE
360
8157
  0
DICTIONARY
  5
8426
330
819A
100
AcDbDictionary
280
     1
281
     1
  3
ACAD_XREC_ROUNDTRIP
360
8427
  0
DICTIONARY
  5
83ED
330
8196
100
AcDbDictionary
280
     1
281
     1
  3
ACAD_ROUNDTRIP_2008_TABLESTYLE_CELLSTYLEMAP
360
83EE
  3
ACAD_XREC_ROUNDTRIP
360
8424
  0
DICTIONARY
  5
83FE
330
8161
100
AcDbDictionary
280
     1
281
     1
  3
ACAD_XREC_ROUNDTRIP
360
83FF
  0
DICTIONARY
  5
83FC
330
8160
100
AcDbDictionary
280
     1
281
     1
  3
ACAD_XREC_ROUNDTRIP
360
83FD
  0
DICTIONARY
  5
840A
330
8167
100
AcDbDictionary
280
     1
281
     1
  3
ACAD_XREC_ROUNDTRIP
360
840B
  0
DICTIONARY
  5
8412
330
816B
100
AcDbDictionary
280
     1
281
     1
  3
ACAD_XREC_ROUNDTRIP
360
8413
  0
DICTIONARY
  5
8404
330
8164
100
AcDbDictionary
280
     1
281
     1
  3
ACAD_XREC_ROUNDTRIP
360
8405
  0
DICTIONARY
  5
8408
330
8166
100
AcDbDictionary
280
     1
281
     1
  3
ACAD_XREC_ROUNDTRIP
360
8409
  0
DICTIONARY
  5
8422
330
8173
100
AcDbDictionary
280
     1
281
     1
  3
ACAD_XREC_ROUNDTRIP
360
8423
  0
DICTIONARY
  5
8410
330
816A
100
AcDbDictionary
280
     1
281
     1
  3
ACAD_XREC_ROUNDTRIP
360
8411
  0
DICTIONARY
  5
83F4
330
815C
100
AcDbDictionary
280
     1
281
     1
  3
ACAD_XREC_ROUNDTRIP
360
83F5
  0
DICTIONARY
  5
83F6
330
815D
100
AcDbDictionary
280
     1
281
     1
  3
ACAD_XREC_ROUNDTRIP
360
83F7
  0
DICTIONARY
  5
83F8
330
815E
100
AcDbDictionary
280
     1
281
     1
  3
ACAD_XREC_ROUNDTRIP
360
83F9
  0
DICTIONARY
  5
83FA
330
815F
100
AcDbDictionary
280
     1
281
     1
  3
ACAD_XREC_ROUNDTRIP
360
83FB
  0
DICTIONARY
  5
8402
330
8163
100
AcDbDictionary
280
     1
281
     1
  3
ACAD_XREC_ROUNDTRIP
360
8403
  0
DICTIONARY
  5
841E
330
8171
100
AcDbDictionary
280
     1
281
     1
  3
ACAD_XREC_ROUNDTRIP
360
841F
  0
DICTIONARY
  5
840E
330
8169
100
AcDbDictionary
280
     1
281
     1
  3
ACAD_XREC_ROUNDTRIP
360
840F
  0
DICTIONARY
  5
8420
330
8172
100
AcDbDictionary
280
     1
281
     1
  3
ACAD_XREC_ROUNDTRIP
360
8421
  0
DICTIONARY
  5
8406
330
8165
100
AcDbDictionary
280
     1
281
     1
  3
ACAD_XREC_ROUNDTRIP
360
8407
  0
DICTIONARY
  5
841C
330
8170
100
AcDbDictionary
280
     1
281
     1
  3
ACAD_XREC_ROUNDTRIP
360
841D
  0
DICTIONARY
  5
841A
330
816F
100
AcDbDictionary
280
     1
281
     1
  3
ACAD_XREC_ROUNDTRIP
360
841B
  0
DICTIONARY
  5
8414
330
816C
100
AcDbDictionary
280
     1
281
     1
  3
ACAD_XREC_ROUNDTRIP
360
8415
  0
DICTIONARY
  5
8416
330
816D
100
AcDbDictionary
280
     1
281
     1
  3
ACAD_XREC_ROUNDTRIP
360
8417
  0
DICTIONARY
  5
840C
330
8168
100
AcDbDictionary
280
     1
281
     1
  3
ACAD_XREC_ROUNDTRIP
360
840D
  0
DICTIONARY
  5
8400
330
8162
100
AcDbDictionary
280
     1
281
     1
  3
ACAD_XREC_ROUNDTRIP
360
8401
  0
DICTIONARY
  5
8418
330
816E
100
AcDbDictionary
280
     1
281
     1
  3
ACAD_XREC_ROUNDTRIP
360
8419
  0
XRECORD
  5
8429
102
{ACAD_REACTORS
330
8428
102
}
330
8428
100
AcDbXrecord
280
     1
102
DISPLAYNAME
  1
Imperial24
102
FLAGS
 90
        0
  0
XRECORD
  5
842D
102
{ACAD_REACTORS
330
842C
102
}
330
842C
100
AcDbXrecord
280
     1
102
SHADEPLOT
 70
     0
102
SHADEPLOTRESLEVEL
 70
     2
102
SHADEPLOTCUSTOMDPI
 70
   300
  0
XRECORD
  5
842B
102
{ACAD_REACTORS
330
842A
102
}
330
842A
100
AcDbXrecord
280
     1
102
SHADEPLOT
 70
     0
102
SHADEPLOTRESLEVEL
 70
     2
102
SHADEPLOTCUSTOMDPI
 70
   300
  0
XRECORD
  5
83F2
102
{ACAD_REACTORS
330
814C
102
}
330
814C
100
AcDbXrecord
280
     1
102
MATERIAL
148
0.0
149
0.0
149
0.0
 93
        0
 94
      127
282
     0
 72
     0
 77
     0
171
     0
175
     0
179
     0
273
     0
  0
XRECORD
  5
814E
102
{ACAD_REACTORS
330
814C
102
}
330
814C
100
AcDbXrecord
280
     1
270
     1
271
     1
  0
XRECORD
  5
814D
102
{ACAD_REACTORS
330
814C
102
}
330
814C
100
AcDbXrecord
280
     1
270
     1
271
     1
  0
XRECORD
  5
8151
102
{ACAD_REACTORS
330
814C
102
}
330
814C
100
AcDbXrecord
280
     1
270
     1
271
     1
  0
XRECORD
  5
8150
102
{ACAD_REACTORS
330
814C
102
}
330
814C
100
AcDbXrecord
280
     1
270
     1
271
     1
  0
XRECORD
  5
8152
102
{ACAD_REACTORS
330
814C
102
}
330
814C
100
AcDbXrecord
280
     1
270
     1
271
     1
  0
XRECORD
  5
814F
102
{ACAD_REACTORS
330
814C
102
}
330
814C
100
AcDbXrecord
280
     1
270
     1
271
     1
  0
XRECORD
  5
83F1
102
{ACAD_REACTORS
330
8144
102
}
330
8144
100
AcDbXrecord
280
     1
102
MATERIAL
148
0.0
149
0.0
149
0.0
 93
        0
 94
      127
282
     0
 72
     0
 77
     0
171
     0
175
     0
179
     0
273
     0
  0
XRECORD
  5
8146
102
{ACAD_REACTORS
330
8144
102
}
330
8144
100
AcDbXrecord
280
     1
270
     1
271
     1
  0
XRECORD
  5
8145
102
{ACAD_REACTORS
330
8144
102
}
330
8144
100
AcDbXrecord
280
     1
270
     1
271
     1
  0
XRECORD
  5
8149
102
{ACAD_REACTORS
330
8144
102
}
330
8144
100
AcDbXrecord
280
     1
270
     1
271
     1
  0
XRECORD
  5
8148
102
{ACAD_REACTORS
330
8144
102
}
330
8144
100
AcDbXrecord
280
     1
270
     1
271
     1
  0
XRECORD
  5
814A
102
{ACAD_REACTORS
330
8144
102
}
330
8144
100
AcDbXrecord
280
     1
270
     1
271
     1
  0
XRECORD
  5
8147
102
{ACAD_REACTORS
330
8144
102
}
330
8144
100
AcDbXrecord
280
     1
270
     1
271
     1
  0
XRECORD
  5
83F3
102
{ACAD_REACTORS
330
8154
102
}
330
8154
100
AcDbXrecord
280
     1
102
MATERIAL
148
0.0
149
0.0
149
0.0
 93
        0
 94
      127
282
     0
 72
     0
 77
     0
171
     0
175
     0
179
     0
273
     0
  0
XRECORD
  5
8156
102
{ACAD_REACTORS
330
8154
102
}
330
8154
100
AcDbXrecord
280
     1
270
     1
271
     1
  0
XRECORD
  5
8155
102
{ACAD_REACTORS
330
8154
102
}
330
8154
100
AcDbXrecord
280
     1
270
     1
271
     1
  0
XRECORD
  5
81EC
102
{ACAD_REACTORS
330
8154
102
}
330
8154
100
AcDbXrecord
280
     1
 70
     1
 90
1959938040
 71
     1
  1
2EF88C9B-0E3D-4639-B14F-DA3BDACD6963
311
504B0304140006080800937B6D57DE24DD97D7000000200100004F00000038333846304537382D414445372D343034432D423435332D3339374633323838414434382F4173736574446174612F446566696E6974696F6E4974657261746F7250726F706572746965732E62696EEB606060F80F0540260323103700495E20ED
311
9E9A975A94991C9C9C919A9BC8C00612C9C94F4ACC6147C831019920AE4B6A5A62694E0948976F6671726A4E4E625E6A7E69B12042A9426E6209D0B8C41C3D90264E20860914834C48875806B2DF0F88414E02D189290556F689C5C5A925B6FA694915FA864E9646A66606C6BA46CE6696BA262EC64EBA8E8626AEBACE16AE
311
E6C6CE2E66CEC686A6FA45A9C5F9A545C9A9C5FA46FA06F15093E30BF2D283221DEB0C19188280D6B330BCDF77326CA76B4E3877851ED02297F4E6989D063337019948601F00504B0304140006080800937B6D57D7D1EAB2EB000000300200004500000038333846304537382D414445372D343034432D423435332D333937
311
4633323838414434382F4173736574446174612F496E7374616E636550726F706572746965732E62696EEB606060F80F0540260323103700495E20ED9E9A975A94991C9C9C919A9BA80214307275B3B070B674D235703576D1353133B6D475323471D3757134767271747631B33433664768046931363471713532B5D43535
311
3131066A3132D475727372D13534373670367376B67474B5042A03DBCBA019D37FE8ABC6157B20CD04146B0062181F4C03F940F0C11EA29A8141C08141002C0426541C106CAC2CA046088033B02A030AC2157C6006F21A8018AAF50194E6010A610250382264E08660284CD9E98021862280A91564B406929A0FF62C401E28
311
B6F88038B83CB1243943D7A928312F25350524432B0000504B0304140006080800937B6D5728BB58AF800100009E0500003D00000038333846304537382D414445372D343034432D423435332D3339374633323838414434382F536368656D61732F436F6D6D6F6E536368656D612E786D6CBD544D4FC23018BEFB2B96DE15
311
493C78601010A34B880709DEDFB52FD0D8B54BD70DF6EFED3AC0B12E6442E2716BFB3CEFF3D18E26FB440405EA8C2B1992E1C323095052C5B8DC842437EBFB673219DF8DA659866649B798C078B48AE6410122242F2A4994AC7F93815DF85C049C8564CA0A901499DD886B2EB9B1E02448F358701A9235880C49A0119892A2
311
0C89D1B9FD768815CAD268CB5E0355B40B1E47F3E37A2020464BED06AA57CE8FCC20C3C3446D46761A2632A8C1283D07031EFF2AE7CCB1BFEEE916E406DFAC8E36FFD99A9D60A6944090EEDC3B670C7DC13DE86B6B2C5C240D6E503BB85ACD579D513F1B9F9A69DC9CC22AFA80C426D40AF0B21EA168559156B6276F0F726A
311
6BFF04DCD513A87A62CAD41FB24FCB2858B3952E3D852084DA25B9303C15687973CC8E8AAE11DF2836C38C6A9E765E8C1BA1BFB1DC29CDFE518C8B5A7655A4ED7E77291ABEB80DBD82EC866ADE1B8D05AF9E35CF09D7A061F38A986D9EC412B8F0F65E5D81534D9B231D1E5A8FE577A241F3A5FD01504B0304140006080800
311
937B6D572CCEBD668A040000E01200003E00000038333846304537382D414445372D343034432D423435332D3339374633323838414434382F536368656D61732F47656E65726963536368656D612E786D6CD5586D6FDB380CFE7EBF42F0F7A649B70E1B90744856B4970F450FCD7A5F05459613EDE4174872DADCAF3F522F
311
8ED3B88D2F1D06AC4050DBA2493EE4438AF2F8EB73AEC8466823CB62928C06C384888297A92C5693A4B6D9D9E7E4EBD51FE3A931C22EF85AE4EC6AFC38BF261BA626C9AD288496DC3F4FCEAFC63366845F7A10452AF41DB320C0D44EC26EAB20918735565582695670811A6A49643A49A6E9069FA4604A64B29016DC4B4855
311
2F95E4932463CA888468C1D2B250DB4962750DF7CE273069CE8363F1FF4EDB00E0A21999574AE4A2B00C353B93F3BD4777B8A61ED8F604ABFEDD79CE56A2B7BDFBDBC50996E0ADDE16FED26223C5D30956C29BDF4A55EA686E5E58B112DA45CE67F76F4FA27EFA3FB672FD7372FC388FAECDCA5209E693CAD167BADCD272F9
311
43701B3812F8A3D852008B1D2E32DB927B2F833C6EA95879925356D254582695095A3CE982924720BE5774A3CB9CDCDB350427D2DF20DA1B5532EBE2D5D6288D75D4F7E4FD9890A0EF8E3D93EBB8F8BA4758158EF6FB90A6F9520281C93DE7AAC6D24607DA296BB96018123F821A7D6A5C5884050C475DA4865442732C8B95
311
684A50165CBB3A32F25F783A4A480ED59AD7F924B968AEA50131F46303223E6A397B0E52976030DC1DCA81D7E7C1EDEEA42C19FF27635C505E2BD5198A599020DF50A2330FCB3AAF28CB0124108429553EF1B228802E2265D8F7CC2401042B155BCC7070F1E5C55F13B4A9577362CCCE46C32174E010C3C378C44841A4BDA0
311
0FE3A12006CE11EE6AEC59894D3526DDE1CD59D503ECC324017F8061B7F162162FA62EDD81AE3308617770796DCBDAD2B2625C5AE8A63DE20B2C8AA5E95E76E5730823955956E33E705425A2187C185D36489A1B44D3DCEC2172F6BA2105C3546287A7194B2331768EBBE64F6E70A9930ABE0ADEA89E9E2C38523B810287AD
311
67A54A039C1606EAFE68F8304610BB9093DBDDABC0B2AE4E290DCDA15376D7E39F72B556F0B32EAB5D3D498B4C41ABADEC3A1434C422D87E8025A84BDCB2B1417ED750FAE4DA8976863974C577C7F902D3F156AD354DEA3540DE6BEAE2BEA52F7A2EB4CA43802ECE5BF2CE2EDC9347179FFB023CE412E60BE16DA0BE29B374
311
988A553F561DC04615DD35F7D2C8979F60E5955CE93DF29DED8AFA1EE6642D53418086C03C47C377910F75F7E8F5EF665F70B60FFB22AEDF897D119E8423C773E819A3C1E55E550599EE6EDCA34D0C86FD72057DF2CD46F16A470682471C164E4346D5306BF12D7D12D82CFF673D41636C347443FEB51B50D72EA171A8E4A5
311
8623A4A16E0FA2B8B10A0D23268D87C33896EE8FB73305A74BF224EDBADFA0BD674AB354D63DB7BD5D83426761C077DE767728235446A552754EB93B755891C3C4CC6CADE37CF0E912A7BB38DBA010F9DE1282EDF470CA69A9CDA482E334C4A6EA4107987980B17E72F31730EBF88BBD39E7C629F56797A3C0009C2C5AE795
311
1D9A05A02773440F02EEB4DE396A3B6A570C72CCFBCD823B0B8ED3F1D5CEDDFED772FA70236C83FB7D86C385D570B87107535572A60A96035F8F7C6A7192F13007246BBE0521855E6AC46F3E27689CEE7D186A6FD679D98CDCAD13333E04EBE7ED6F55FF01504B0304140006080800937B6D576180134D5F0100006B030000
311
4500000038333846304537382D414445372D343034432D423435332D3339374633323838414434382F536368656D61732F52656E6465724D6174657269616C536368656D612E786D6CA5934D6FC2300C86EFFB1551EEE343DBA41D1A103009551ADAD40EAE28A4A68D9426284961FCFBE5A340113B2071746D3F765EBF4DC6
311
BFB5407BD0862B49F0B037C0082453059725C18DDD3EBFE3F1E829991803366715D474942CD30FB4A782E00C64017A412D684E454CE3FE28995203B162A6EA5AC94B66997D225E109CD63B0135484BAD1B3C07E9080CA35DB3119C11BCA5C200461A68A1A438126C75E3E230D40FF81FB3F03C91D1E3A3A0AF79FE28E25BC3
311
9EC3E17E4C2A2D94A0833A51AF55BCCA7D88572FCBAC529C4140B020FC3AAFA886621DCED7EAD7664CC86024E806DC297DA1BB393E4156543457A4537DB8817349A70F8ACBF09B3EEE2CB2F33E91B65D60786E4E3B39B77E3FEEEF5650424525DA657FB8B46BE6BF064646F0A0F7327C0BC1BC1B4CBBC1C419FA3CCB235000
311
07872A2580CAAE5461865565294E4EDB4617B62FF579DF9A5B2F54E834076A597573A020912FED777F9B3F504B0304140006080800937B6D573CC3D38151000000570000004700000038333846304537382D414445372D343034432D423435332D3339374633323838414434382F4173736574446174612F41737365745461
311
626C654F66436F6E74656E74732E62696E53616060307275B3B070B674D235703576D1353133B6D475323471D3757134767271747631B334331602AACB4D2C492DCA4CCC492C28484D2C4ACC4B4E050A82012F90744FCD03CA26072767A4E6260200504B0304140006080800937B6D57F86583405800000068000000450000
311
0038333846304537382D414445372D343034432D423435332D3339374633323838414434382F4173736574446174612F53747265616D56657273696F6E5461626C652E696E66558CBD0A80300C06F73E4B117FB66E451741D041DC5BF98480A492E4FDD18EAEC7DD4555D89EF28DF51A0B1BD8340C4DE7DD848B988C0ACF06
311
49566493F2408C508DDEBB99D5129FF8F1AF8CF5B9503E20FAE5A16B5AF702504B0304140006080800937B6D5748E0DBA3340100009A0400003600000038333846304537382D414445372D343034432D423435332D3339374633323838414434382F4173736574446174612F636E782E786D6CCD94314FC3301085FF4AE43D
311
76920AA9AA1C5708964E205131B05D9D4BB1EAD8917D41F0EFB19B0CA022A60E5DCFEFCECF9FFC4E6E3F075B7C6088C6BB96D5BC62053AED3BE38E2D9BA82FD7ACD82A19BCA71F32563818B065B9CC943C063F8D4BA9C31E269BABD6B8D352BC8F11690F078B4FFD8377848E222BB485185B16F53B0EC06122DF613CF10E08
311
78CD03463F058D6912990197493A2010764C3555B32AEBBAAC57FBFA6ED3AC37ABF59B1459A9E4C17BBBE84DBA2CF8B1D0F3AD4C5552E46325A760164D7E0B537F79E407E3A4484A252385C464E9A0AF3175C0385AA381123AE135219549843048318B951499C12F128FD81B6772CB2E1903F2E139D9C340066F8EC87F5EAF
311
4F66E72281D378BB3C2E1D5E9FC2CBF907BDCE813C27E6D67272E9901BD75F2125E2BC465268F25651DF504B0304140006080800937B6D5744DD7C70080100004F0300003400000038333846304537382D414445372D343034432D423435332D3339374633323838414434382F536368656D61732F636E782E786D6CCD93BD
311
4E042114855F6542BFC3FCC464B261D8C2C2CA46ADEC10EEAE6419EEE40246DF5E182976133B2DB683C31772CEE1220E9F8B6B3E8082453FB3BEED58035EA3B1FE34B3148FBB8935072908315E60ACF16A819915994971224C6B950C1C55724575D69FAB788FCB82FE59BFC3A258A39D0A616661DBB62A453410CEAD5151B5
311
7D4B103091867C43B40BD41B34818A60981CBA61DCF5FDAE1F5FFABBFD30EDC7E955F0424AF186E82A6F7D04C2B5D198173EDBE9042FC75224B295291998BCF4D6E63604CF84142152EEA092F16BCDA45A5767B58AB92ABE813F8C14BC44BD0AFC001EC8EADB4C7C65EEDF223F8137408FF995C82A779BC97FF3F8B702F836
311
FB7904CA5790DF504B0304140006080800937B6D57410A3D5871000000A40000002C00000038333846304537382D414445372D343034432D423435332D3339374633323838414434382F636E782E786D6C55CC4D0E82301086E1AB34B31774E7A22D31F1069E60020334B633A63FC6E34B0909B07DDE2F9FEE7EC1AB2FC5E4
311
840DDC9A2B28E25E06C7938192C7CB1D54677514C9871928C640062A83D55394F2D968A0118BAFEA1DBF377CA444F98919176EAB9FEAAB9F2960DA5BBB1E2ED3FA6FFF504B0304140006080800937B6D572B83AC557E000000A300000007000000636E782E786D6C4D8CD10E822018465F85FDF714058DBF0D7096FA1E2ED1
311
39111A49EBF183E64557DF76F69DA3AACFEAC8DBC6D71CBC86D38101B1FE1186D94F1AD236520452191543D8FE6E407CBF5A0D058351530CE9B9A3C18E7D7285BAD92F3B448E1D6B25D2BA6925154CDCE94D5C38E557D9F13362DD08CCC6B128797EBDBC256FBE504B0304140006080800937B6D5716E99B5DA60000003501
311
0000130000005B436F6E74656E745F54797065735D2E786D6C9590410E82301045AFD2740F4517C6180A0BF5065E60AC53688469D30E066F6F91AD9AB89CF9FFFD3F99BA9DC7413C3026E749CB4D59498164FCCD51A7E5C4B6D84BD136F5E5193089ECA5A465CF1C0E4A25D3E308A9F401292BD6C711388FB15301CC1D3A54
311
DBAADA29E38991B8E0254336F5092D4C038BF39CD76B6FC6A538AEBEA54A4B08617006389FA516557DE4AE8E7E70DE30729138228C5F021CD93F02D4FB0DCD0B504B0304140006080800937B6D573DEE336E64000000790000001B0000006175746F6465736B2D64657369676E2D7061636B6167652E786D6C35CBC10E8320
311
0C00D05F21DCA56CA76D41FC96062B120735B69A7DBE268BB7777961F8D5AF396893C2ADB70FE7ADA196782C2DF776D7A97B5933C430F15651E5469C55D70F80A4992A3ADC954792C525AE70A1E4D6AD9816CC044FEFDF01FE3FDE907802504B0304140006080800937B6D57120EECA9F80000009601000037000000383338
311
46304537382D414445372D343034432D423435332D3339374633323838414434382F4173736574446174612F636F72652E786D6C8550CB6EC32010FC156BEFD80697C48930519B862FE8A93784898B1283C5A3EAE71762576A4F3DED6A76667677D8E96BBE579FDA07E3EC00B86EA1D256B9D1D8698014AFA887EAC499772E
311
FEA24165E5AC07283070367997960D52CE466D0B6ADDA8375086A02354EA9E9B0182FAD0B3AC658A99116EF522D54D4EBAC6F5CAE32C25336E523366377335DA03BF1C7682EC7702898338A3278A317AA1E282E89908D276B8DD53CA9A22E62C9AF967BBF25A463D02272DE95016E1EE0DD323E98F5DFFCE9AC2E42C449F7F
311
DE9696EF803F97AB5F6594AC59A77F5CD332FEEF9A8C8D1DD95C5745008EF3918F01674D4929974784B99644F937504B0304140006080800937B6D57C1979F31F6000000940100003500000038333846304537382D414445372D343034432D423435332D3339374633323838414434382F536368656D61732F636F72652E78
311
6D6C8550CB6EC32010FC156BEFD80697BC8489D428FC407BEA0D61E2A0C460F1A8FAF905DB95DA534FBB9A9D99DD1D76FE9A9ED5A7F6C138DB03AE5BA8B4556E3076EC21C51B3A4075E6CC3B177FD1A0B272D23D1418381BBD4BF3062967A3B605B56ED01B2843D0112AF5CC4D0F41DDF5246B99626684473D4BF590A3AE71
311
BDF2384BC90C9BD40CD9CDDC8CF6C0AFC79D20FB9D40E2282EE885628C5EA9B8227A2182B41D6EF794B2A688398B66FAD9AEBC96510FC0494B3A9445B87BC7F4440EA7EEF0C19AC2E42C449F7FDE9696EF80BF2D7706D6ACB33F9E691EFEF74CC6C68E6C9EAB2200C7F9C465C0595332CA650930D79227FF06504B03041400
311
06080800937B6D579DB1459101010000D70100002D00000038333846304537382D414445372D343034432D423435332D3339374633323838414434382F636F72652E786D6C9591C172832010865FC5D93B2AA223CD2099B4499EA0A7DEA86C0C93080E60A78F5FAC76DADEDA13CCCFF7EFF2EF8AFDFB78CFDED007E36C0734
311
2F2143DB3B6DECD0C11C2F8443B697C23B177F6090593562078B0C520CDECDD326F5CE46B48B6A9DC64D54216084ACBFA74B07A1BFE2A87235C744845B3EA9FEA606CC69BE725244337E597B8F2AA206599515239412CA9E69B3ABF88EF117512CA414B3B191555B331C5F51676E8A2912C84614EB6BA266A337C6E8F44773
311
31E84172C6CFE5A9E5E4703CB5A42EEB27F258378CB087F6CC2ACE0FC79AA722C92C45883E4D662BB2CCE0AFF6D5F82BD93CE97F265B1D0124FD0E552C6396A2F8DC413A9795C80F504B0304140006080800937B6D5754B4687706010000B201000008000000636F72652E786D6C8D50C96EC32010FD1534772FE092381126
311
52A3F80B7AEA8D1AE2A0D860B144EDDF1762576A6F3D0D7ACBBCC7B0D3E73CA187725E5BD3012E6B40CA0C566A337610C3B568019D3873D6865F324046CCAA830C0367A3B371D9A0C19AA04C468D956A0385F72A001AA6F4E8C00F37358B52C49014FE5E2E62B88B5195B85C759C053DFF5807A744501238A94953605CE0E6
311
0DD323698F4DFBCEAAACE42C462DB7282D53BABE6AE5805F0EBB9EEC777DD11FFA73F14293FB95F697829E494FEA06D77B4A5995CD9CF9E0D29FB725A967405E3C722EAB568AB30F6BA74D904A4964CDF405BC665526FE948E8BFC47696D4243B685ABC303C7A9D09348C1F982693CCF9B66BE36FF06504B01021400140006
311
080800937B6D57DE24DD97D7000000200100004F000000000000000000000000000000000038333846304537382D414445372D343034432D423435332D3339374633323838414434382F4173736574446174612F446566696E6974696F6E4974657261746F7250726F706572746965732E62696E504B010214001400060808
311
00937B6D57D7D1EAB2EB0000003002000045000000000000000000000000004401000038333846304537382D414445372D343034432D423435332D3339374633323838414434382F4173736574446174612F496E7374616E636550726F706572746965732E62696E504B01021400140006080800937B6D5728BB58AF800100
311
009E0500003D000000000000000000000000009202000038333846304537382D414445372D343034432D423435332D3339374633323838414434382F536368656D61732F436F6D6D6F6E536368656D612E786D6C504B01021400140006080800937B6D572CCEBD668A040000E01200003E000000000000000000000000006D
311
04000038333846304537382D414445372D343034432D423435332D3339374633323838414434382F536368656D61732F47656E65726963536368656D612E786D6C504B01021400140006080800937B6D576180134D5F0100006B03000045000000000000000000000000005309000038333846304537382D414445372D3430
311
34432D423435332D3339374633323838414434382F536368656D61732F52656E6465724D6174657269616C536368656D612E786D6C504B01021400140006080800937B6D573CC3D38151000000570000004700000000000000000000000000150B000038333846304537382D414445372D343034432D423435332D33393746
311
33323838414434382F4173736574446174612F41737365745461626C654F66436F6E74656E74732E62696E504B01021400140006080800937B6D57F865834058000000680000004500000000000000000000000000CB0B000038333846304537382D414445372D343034432D423435332D3339374633323838414434382F41
311
73736574446174612F53747265616D56657273696F6E5461626C652E696E66504B01021400140006080800937B6D5748E0DBA3340100009A0400003600000000000000000000000000860C000038333846304537382D414445372D343034432D423435332D3339374633323838414434382F4173736574446174612F636E78
311
2E786D6C504B01021400140006080800937B6D5744DD7C70080100004F03000034000000000000000000000000000E0E000038333846304537382D414445372D343034432D423435332D3339374633323838414434382F536368656D61732F636E782E786D6C504B01021400140006080800937B6D57410A3D5871000000A4
311
0000002C00000000000000000000000000680F000038333846304537382D414445372D343034432D423435332D3339374633323838414434382F636E782E786D6C504B01021400140006080800937B6D572B83AC557E000000A3000000070000000000000000000000000023100000636E782E786D6C504B01021400140006
311
080800937B6D5716E99B5DA6000000350100001300000000000000000000000000C61000005B436F6E74656E745F54797065735D2E786D6C504B01021400140006080800937B6D573DEE336E64000000790000001B000000000000000000000000009D1100006175746F6465736B2D64657369676E2D7061636B6167652E78
311
6D6C504B01021400140006080800937B6D57120EECA9F80000009601000037000000000000000000000000003A12000038333846304537382D414445372D343034432D423435332D3339374633323838414434382F4173736574446174612F636F72652E786D6C504B01021400140006080800937B6D57C1979F31F6000000
311
9401000035000000000000000000000000008713000038333846304537382D414445372D343034432D423435332D3339374633323838414434382F536368656D61732F636F72652E786D6C504B01021400140006080800937B6D579DB1459101010000D70100002D00000000000000000000000000D0140000383338463045
311
37382D414445372D343034432D423435332D3339374633323838414434382F636F72652E786D6C504B01021400140006080800937B6D5754B4687706010000B201000008000000000000000000000000001C160000636F72652E786D6C504B050600000000110011005A060000481700000000
310
504B0304140006080800937B6D57000000000000000000000000370000006662782F38373442323530422D344236322D343839382D424246352D3231373439373746444242432F617474726962757465732E62696E504B0304140006080800937B6D57000000000000000000000000350000006662782F3837344232353042
310
2D344236322D343839382D424246352D3231373439373746444242432F76657274696365732E62696E504B0304140006080800937B6D57F270F1330600000004000000360000006662782F38373442323530422D344236322D343839382D424246352D3231373439373746444242432F747269616E676C65732E62696E6366
310
60600000504B0304140006080800937B6D5751464CB48900000043010000360000006662782F38373442323530422D344236322D343839382D424246352D3231373439373746444242432F6469726563746F72792E786D6C9D8F310EC2300C45AF127987122606C71DD918B841D4B851A43646695A717C52A85029031293A5
310
A76FBF6FACEF7DA7264E43906840EF0FA03836E242F406C6DCEE4EA06AC22492573150D1F66C60C640E8938CB705396EEDD86DE9B5042FE27813D640EA63BB001C722AF6E55CB61E4863F58284D5D3F53DD715CE1C3985E63FD7F1B7EBDD617E9F1E504B0304140006080800937B6D57B0D03D5537070000201C0000340000
310
006662782F38373442323530422D344236322D343839382D424246352D3231373439373746444242432F6F626A656374732E786D6CDD596D6FE23810FE2B56EECBDD87BC11606105AC0AB42BB4EAEE6AD19EEE5B6482A1BEE64D76D2D2FBF53776EC908400696F575A5D2BB5D475C633CFCC3C339E4C3E1CA2103D11C66912
310
4F0DD7720C44E220D9D2783F35F26C678E0CF46186262C49B2CA3E03C5382253432C1BB3C99E2579AA96B66487F3B0B97A37FF0BF180C4C4404188399F1A3C782011B6709E255BC21FAD2DCEB0B5DF1D2CD72A36D6C5EE194E1F1A47A59891380355613D06294A03B7FE279864CF26B6D850DBD6EBB6CDBBB0CD9686D715A5
310
31CF701C9C68D590D3EBA695E7F697B7BDC1D81CF4FB9ED91FF65C737E375F9AEE3BCF590C178BF1CDEDD840B3C92649C2D2012989B7E0C51763E64E6CF19FD27C85429BDE4112C7245068B66DD812259712DEC4A406AC2B4DAB38A4B0B5B2E07534FECCB64EA0D454AAA1AD8DD3BFABD19B6CFE0610789728659C8828E719
310
035F2BEC8B7C702676B15AF30BE528C21961148728A41B86193808B6160EAA8911D92244218199F4A29657D51502FB7A2EB569B9CBC350E4AF319399E6433E928C4BCDE83F841DB5AF9E063A81B5398DB39132367B4941C47862CBC5E27F5E4FFDB30012ED42BC87680133C526AFD7C06B21B860B534669FEE3687B5E087F6
310
C35396A4846522F26432ABBCD31EAC8416045F07500A5CEBBE3BA2F20DA0FF0CC897BAA009788ED143FFD0D7B6331CF35DC222F00E7290E9C00F07898F279F2676F9F00CA11A579EC314D2F607615A33A3767605D2D9E409823E619E326E1DE01062FA9EC622CF21505098C012F0FD6E7330662B20535884A77008D6C3F7C4
310
161F11FC2AE400DF343CD446BF1D1CA513A69967475F7D84986134285D55B3F11CBE831F82EFCD72FD699DB31D0EC8BD4AEC25D9D19866504CDB15AA815E4BF9EFABCF32234FECA9ED0AE09C7D2288A3C52F6BE517241D03AA883A5CB846AEDC5348F730C4314972AED6DB882A48C284F99B17BFC8E1D6B3FED441501C06F9
310
2D22A095CCA0BA078CA6021463A6CC2B99D03AE224785005E0BE70AABFC1C1A380D70F80B1DEA207442D664DA17994FA384AF258D0F76978374DB33C477EB9EEB8E78C7BA3F1501BCBA5789D3D9A1A4AE5C539114ECF1CB2A8794BB186965CE4511FD8B2CD82007AA63CF3931407346B8F8586112A4301EC8B2A6FE96E9773
310
20F556581A1A5B9E3B404EE56779C865EDD5213E8DF09EF83B2C2A5CEB7935804AE1DA825664F661C2398D09971DCA09733550712C2082226EB5D49620A4DC8F4886DF127FB2E435C28F915DE8432F95896EF67AF4690555F53C2751746E49EC4BFB5F7C8EA3342CBAB46B18B8BDC609ADB80AA5C5114F106F3ECE7C674B64
310
D37D4D7AC90B1ADF4ED2C76F167F061E867F3A3CFA080AAD37D4C8EB9E75AD813B165F232095E1C0F5DE69475CC34A1F95891E24CCA16B0A5EFC6742F70FDD08ADD3399C843B9F86611EF9453DC848042D18CE72D6295F8703E7C4F98A171A09513969474368903B93A6EC3D74F70156C9E6E31C69568E01A3680C77B44E86
310
9C58D11AC2D217F23E2AAE5DD7BDFF7AA9FF992FABF79447F2F29CB06DABA6F536427760BA611074A92A5C194752F26C524DBE485E5CAEE3D0D74214BF15B70415218C3C5131989037A0D6FB037FC6590044BA96BFCD3964C4966C8F3D454D9C1A73183338544BD37D6AF5A6036427CA47ADF15A09428D60DA8005CFDE8B0F
310
E1370CAE86CE8FDBAAABB18BF595286C160C568E7A5C90F5E5E3BA2105563A3FFD5560449E1B12D4EA42347217447D5F1DFBD5860465D1F7D585C7B3873CDAC4988ACA28C2026FD3F71FE45D726AC345C176E7E3DE60E878666F311C9BFDA537376FDCFEADB918DDBEF316CBE1021A089B119EE42C20DCEED98EAF7BA734DE
310
EBC028A0EB72A380A9C2F5AB9F8EE7A683FFC7378A30D9E073B1F8AB5E28CA764F34648D5CEC7AA16825EACDEBBA7FF784A8DB8BD8AB3AE76256A003FC72D90232D2F5BE7B6BA145EB4EA25DE74A457C65E13D7B5BF9E935A646E8ADF5A1B6A38DF2EB5C0CB3A7962AA56FB792D77AB777A3D1623C379D5B6F0933586F6CCE
310
DDFE9DB9BCF1E6CB1B20B2F1D02B1157B5B06B5DF92538542B5B19A3C13498272185A13CD9A23D49E0060453870EFCCA22C2E5CD061A0055C6F51B810E4F3F1533D50C6F42FD74F08061301DAA8A9C073014855BC7D450EBE83718838A49A41C4E598F507854B41B2867746A40086414EA8BB58171961C1E4AE98D7125B80D
310
C77B71672A9E2AFF3E3E26D0815839DA55EEE9828BB2AC169D301C48E57B02603BDD90BCDD74AD0EC2197CDCE45969CC71E1688D0241BF10288C83A9DFA382F700C473D92ED7927B6A90749ACC5F8C8342AA9961B697E3F50ADE37CBAFB6988CAFBEA034CCF7C29D97EA7D4D9229FA8C302F865013080C65668AC53D7CF1DE
310
FECA1278C514A13B0A41807E3F8C867FD88B248A92B858B26FD48B2AB47E80D74E5B5B8FFCA07171A08F917D8F1AEBC3DC8A130B6FF9232C806B1915B3D102E25A0094F4540900ED11E10B78ACB67FB544AA08545AD86AEB2AE091337D048924DEE588B4A96EA80C20211740AB624E5B7ED00B139BC1107CF62F504B030414
310
0006080800937B6D571B4F7C083E01000046050000300000006662782F38373442323530422D344236322D343839382D424246352D3231373439373746444242432F636E782E786D6CCD94C16AC3300C865F25F81EA7491994E2B8B0C39E6087B19BE3A89957C70AB632D6B79FDDB9DDC6E8D8A1D0DE8CFC0BFE4FFA91D8BC
310
8FB678031F0CBA96D57CC10A701A7BE38696CDB42D57ACD848E111E99B8C154E8DD0B25466520C1EE729977AD8AAD9A6AA356E978B8AC89B6E2608ACD05685D0B2A05F60545CCD843D841DEF15295E730F0167AF21F6931921F76B0F8AA067B25934CBB2AECB7AF958DFAD9BD57AB97A1655524AD121DAAC378EC0E354688C
310
0F17CD2C4495BEA598BDC99A44C0E49733DE1927AAF82F45886EDD9075B49F926E9AACD18AE2982AD404544611A851549F6229AAC4FB83FAE1FEE9E8A0E88D074DE8F7571A407D6E0027633C26E17FFC07E1DFD8D8BD46DC6B6DFB2C6CB67531D4635A438CEBEFFDC7142937D8DB0BFDC9D8E5331F4F09197D7BC8475F1722
310
AE0E272F2E3D5D40F901504B0304140006080800937B6D57D1EE81287E000000A30000000B0000006662782F636E782E786D6C4D8CD10AC22018465F45FE7B6B13970ED4C15FEC3D467343721A36A3C74F63175D7D70F8CE51C367F3E46DD3CBC5A0A13D35406CB8C7D9855543DE172A810C46A518F7BF1B90306D5643C560
310
D49A627E1E68B6CB947DA5DE85C701A5E0C8BA0629C70BA35CF692228E1D65ADE0BD10E30DF15A8C7355CAFC7A656BDE7C01504B0304140006080800937B6D57A6D797065F0000008200000007000000636E782E786D6C4DCB3B0E80201045D1AD90E9FD7516806B51190811670C8A61F982B1B0BAC9C97B72CA7B1037C6D3
310
332918DA1E04D2CAC69353902EDB8C20262D23F3F59B81A079470595414B17391D1F19B4730A5583A7ED43BBE4025D9592775E5ADFFA01504B0304140006080800937B6D574FEB6A7CA0000000F4000000130000005B436F6E74656E745F54797065735D2E786D6C7D8F4B0EC2300C44AF1279DFA6B0400835ED02B8011730
310
C16D239A8F121795DB93D02D6269CFBC19BBED573B8B17C564BC53B0AB1B10E4B47F18372A5878A88E20FAAEBDBD032591BD2E299898C349CAA427B2986A1FC86565F0D122E7318E32A07EE24872DF3407A9BD63725C71C980AEBDD080CBCCE2BAE6F5D69B7110E7CD57AA146008B3D1C8F92C5954F993BB1BF787F39A89AB
310
C491D09600F9FDA2FB00504B0304140006080800937B6D573DEE336E64000000790000001B0000006175746F6465736B2D64657369676E2D7061636B6167652E786D6C35CBC10E83200C00D05F21DCA56CA76D41FC96062B120735B69A7DBE268BB7777961F8D5AF396893C2ADB70FE7ADA196782C2DF776D7A97B5933C430
310
F15651E5469C55D70F80A4992A3ADC954792C525AE70A1E4D6AD9816CC044FEFDF01FE3FDE907802504B0304140006080800937B6D573C21076BF7000000960100003B0000006662782F38373442323530422D344236322D343839382D424246352D3231373439373746444242432F7265736F75726365732F636F72652E78
310
6D6C8550CB6EC32010FC158B3B76803AA51126AADCE40B7AEA0DC1C64189C1E251F5F30BB12BB5A79E76353B33BB3BE2F835DF9B4F08D17A3720D2EE50034E7B63DD34A09C2E98A3E62845F03EFDA2A1C6A91906546124C5147C5E36487B97C055D479031BA86284841A7D2FCD80A2BEC2AC5A955361C45BBB287D5313B4A4
310
5D7952E46CCD26B5A6B8D98B858024A574FF329E3866E4F58C9FC8C8307FEE29EECF8C503A9EDEF89E89AE8AA54876FED9AE03A804A6E8779461423061EFA43F507E60FC43749529454CA1FCBC2DADDF211920FA1C3444D1ADD33FAE7931FFBB66EB12A39BEBAA88489272E463204557532AE51161A93551F90D504B030414
310
0006080800937B6D5773FF002EF2000000B1010000310000006662782F38373442323530422D344236322D343839382D424246352D3231373439373746444242432F636F72652E786D6C8D50CB6EC32010FC156BEFD801DB3589309168952FE8A93764888B1283C5A3EAE71762576A6F392D9A9D6166879DBF977BF5A57D30
310
CE8E80EB0354DA4E4E193B8F90E21551A8CE9C79E7E21F1A54562E7A84020367B37769DDA1C9D9A86D41AD537A0765083A4235DDF36384307DEA45D632C5CC08B77A95D34DCEBAC6F5C6E32C9AE5573A792DA356C0C981B4086384DB77DC9F083DB5F4833585C9594A46ED564665777335DA03A74327487F10A8132F0475F4
310
489110971E113C74C761B8BC09F1CA9A22E62C449F6FDE3F29D73D2BDF84FF32A7553D91D9D8D892DD705304E038E7792C386B4A81793CDACDB394CD7F00504B0304140006080800937B6D57F113F09D52010000DD0200000C0000006662782F636F72652E786D6C8D52CB6EC32010FC158B3B76802475234C54A5C917F4D4
310
1BC1C445B1C1C260E5F30B7EC8F5A1696509A3D99DD9D911F4F868EAA497B653461700A51B90482D4CA9745500EF6E3007C991516B8CFBD10612CD1B59800803462B6B7C3B41C268277544B529E504F2AE930E24A20E970274E24B363CE5DE858EEE9EB65CDC792553948E7D8C7AAFCA89AACAA0A66E4A5AC030C6FBD7D339
310
8704BD5DE0169D08CC5F7618EE2E04617C3ABFE77B42B34866D4A9669E2EACE44E9681BFC104220411F940BB03CE0F24FFA459EC64B47336EC3C0D8DDB0176BB3E6836E22B3DDF967FEB79A51DC193DEC8E80043C1DE5060348BF984DF10DE3AC33038E4E7F8B59E57B807A897C219BB0D95D2F8A5D4F3DACB20BD49868F66
310
6335280F02BFE9E0273ACF3542505C57C11A77E17AF52E4E5F7B6AA585BD7B24DAD886D78BB9D1E2722E83562BCD74616A63FFC39E579DC3CCE2C364DF504B0304140006080800937B6D57C7350EA805010000B201000008000000636F72652E786D6C8D504B6EC32014BC0A628F1DA04E6984892A37394157DD51435C141B
310
2C3E517BFB424CA576D7D543F379333C7EFC5C6670D33E18677B889B1D04DA8E4E193BF530C50B62101C05F7CEC55F3208AC5C740F0B0C059FBC4B6B854667A3B605B54EE90ACA107484609CF3A38761FCD08B6C648A5911AECD2AC7AB9C74839B4D277834CB8F75F45A46ADA0203B4211C608D357DC1D083B50F6C6DBA214
310
3C25A36A945139DD5C8CF6D942C8FE69383144F1F3193DE08122F6D811D49D29266438BDB03DE56D310B1EA2CF7FAE4B72CF0882BC955CDE6E94E0EFCECD55904B29E0ECFC05C58EB785F8533AADEA1FA58D8D94D4859B23408173A13B9183CB05F3B89F37CF726DF10D504B01021400140006080800937B6D570000000000
310
000000000000003700000000000000000000000000000000006662782F38373442323530422D344236322D343839382D424246352D3231373439373746444242432F617474726962757465732E62696E504B01021400140006080800937B6D5700000000000000000000000035000000000000000000000000005500000066
310
62782F38373442323530422D344236322D343839382D424246352D3231373439373746444242432F76657274696365732E62696E504B01021400140006080800937B6D57F270F13306000000040000003600000000000000000000000000A80000006662782F38373442323530422D344236322D343839382D424246352D32
310
31373439373746444242432F747269616E676C65732E62696E504B01021400140006080800937B6D5751464CB489000000430100003600000000000000000000000000020100006662782F38373442323530422D344236322D343839382D424246352D3231373439373746444242432F6469726563746F72792E786D6C504B
310
01021400140006080800937B6D57B0D03D5537070000201C00003400000000000000000000000000DF0100006662782F38373442323530422D344236322D343839382D424246352D3231373439373746444242432F6F626A656374732E786D6C504B01021400140006080800937B6D571B4F7C083E01000046050000300000
310
0000000000000000000000680900006662782F38373442323530422D344236322D343839382D424246352D3231373439373746444242432F636E782E786D6C504B01021400140006080800937B6D57D1EE81287E000000A30000000B00000000000000000000000000F40A00006662782F636E782E786D6C504B0102140014
310
0006080800937B6D57A6D797065F0000008200000007000000000000000000000000009B0B0000636E782E786D6C504B01021400140006080800937B6D574FEB6A7CA0000000F400000013000000000000000000000000001F0C00005B436F6E74656E745F54797065735D2E786D6C504B01021400140006080800937B6D57
310
3DEE336E64000000790000001B00000000000000000000000000F00C00006175746F6465736B2D64657369676E2D7061636B6167652E786D6C504B01021400140006080800937B6D573C21076BF7000000960100003B000000000000000000000000008D0D00006662782F38373442323530422D344236322D343839382D42
310
4246352D3231373439373746444242432F7265736F75726365732F636F72652E786D6C504B01021400140006080800937B6D5773FF002EF2000000B10100003100000000000000000000000000DD0E00006662782F38373442323530422D344236322D343839382D424246352D3231373439373746444242432F636F72652E
310
786D6C504B01021400140006080800937B6D57F113F09D52010000DD0200000C000000000000000000000000001E1000006662782F636F72652E786D6C504B01021400140006080800937B6D57C7350EA805010000B201000008000000000000000000000000009A110000636F72652E786D6C504B0506000000000E000E00
310
80040000C51200000000
  0
XRECORD
  5
8159
102
{ACAD_REACTORS
330
8154
102
}
330
8154
100
AcDbXrecord
280
     1
270
     1
271
     1
  0
XRECORD
  5
8158
102
{ACAD_REACTORS
330
8154
102
}
330
8154
100
AcDbXrecord
280
     1
270
     1
271
     1
  0
XRECORD
  5
815A
102
{ACAD_REACTORS
330
8154
102
}
330
8154
100
AcDbXrecord
280
     1
270
     1
271
     1
  0
XRECORD
  5
8157
102
{ACAD_REACTORS
330
8154
102
}
330
8154
100
AcDbXrecord
280
     1
270
     1
271
     1
  0
XRECORD
  5
8427
102
{ACAD_REACTORS
330
8426
102
}
330
8426
100
AcDbXrecord
280
     1
102
DISPLAYNAME
  1
Imperial24
102
FLAGS
 90
        0
  0
CELLSTYLEMAP
  5
83EE
102
{ACAD_REACTORS
330
83ED
102
}
330
83ED
100
AcDbCellStyleMap
 90
        3
300
CELLSTYLE
  1
TABLEFORMAT_BEGIN
 90
        5
170
     1
 91
        0
 92
    32768
 62
   257
 93
        1
300
CONTENTFORMAT
  1
CONTENTFORMAT_BEGIN
 90
        0
 91
        0
 92
      512
 93
        0
300

 40
0.0
140
1.0
 94
        5
 62
     0
340
8187
144
0.25
309
CONTENTFORMAT_END
171
     0
 94
        0
309
TABLEFORMAT_END
  1
CELLSTYLE_BEGIN
 90
        1
 91
        1
300
_TITLE
309
CELLSTYLE_END
300
CELLSTYLE
  1
TABLEFORMAT_BEGIN
 90
        5
170
     1
 91
        0
 92
        0
 62
   257
 93
        1
300
CONTENTFORMAT
  1
CONTENTFORMAT_BEGIN
 90
        0
 91
        0
 92
      512
 93
        0
300

 40
0.0
140
1.0
 94
        5
 62
     0
340
8187
144
0.18
309
CONTENTFORMAT_END
171
     0
 94
        0
309
TABLEFORMAT_END
  1
CELLSTYLE_BEGIN
 90
        2
 91
        1
300
_HEADER
309
CELLSTYLE_END
300
CELLSTYLE
  1
TABLEFORMAT_BEGIN
 90
        5
170
     1
 91
        0
 92
        0
 62
   257
 93
        1
300
CONTENTFORMAT
  1
CONTENTFORMAT_BEGIN
 90
        0
 91
        0
 92
      512
 93
        0
300

 40
0.0
140
1.0
 94
        2
 62
     0
340
8187
144
0.18
309
CONTENTFORMAT_END
171
     0
 94
        0
309
TABLEFORMAT_END
  1
CELLSTYLE_BEGIN
 90
        3
 91
        2
300
_DATA
309
CELLSTYLE_END
  0
XRECORD
  5
8424
102
{ACAD_REACTORS
330
83ED
102
}
330
83ED
100
AcDbXrecord
280
     1
102
ACAD_ROUNDTRIP_PRE2007_TABLESTYLE
 90
      512
 91
        0
  1

 92
      512
 93
        0
  2

 94
      512
 95
        0
  3

  0
XRECORD
  5
83FF
102
{ACAD_REACTORS
330
83FE
102
}
330
83FE
100
AcDbXrecord
280
     1
102
RTVSPost2010Prop28
280
     1
102
RTVSPost2010PropOp28
 70
     1
102
RTVSPost2010Prop29
280
     1
102
RTVSPost2010PropOp29
 70
     1
102
RTVSPost2010Prop30
280
     0
102
RTVSPost2010PropOp30
 70
     1
102
RTVSPost2010Prop31
280
     0
102
RTVSPost2010PropOp31
 70
     1
102
RTVSPost2010Prop32
280
     0
102
RTVSPost2010PropOp32
 70
     1
102
RTVSPost2010Prop33
280
     0
102
RTVSPost2010PropOp33
 70
     1
102
RTVSPost2010Prop34
280
     0
102
RTVSPost2010PropOp34
 70
     1
102
RTVSPost2010Prop35
280
     0
102
RTVSPost2010PropOp35
 70
     1
102
RTVSPost2010Prop36
280
     0
102
RTVSPost2010PropOp36
 70
     1
102
RTVSPost2010Prop37
 90
       50
102
RTVSPost2010PropOp37
 70
     1
102
RTVSPost2010Prop38
140
0.0
102
RTVSPost2010PropOp38
 70
     1
102
RTVSPost2010Prop39
140
1.0
102
RTVSPost2010PropOp39
 70
     1
102
RTVSPost2010Prop40
 90
        0
102
RTVSPost2010PropOp40
 70
     1
102
RTVSPost2010Prop41ColorIndex
 90
       18
102
RTVSPost2010Prop41ColorRGB
 90
        0
102
RTVSPost2010PropOp41
 70
     1
102
RTVSPost2010Prop42
 90
       50
102
RTVSPost2010PropOp42
 70
     1
102
RTVSPost2010Prop43
 90
        3
102
RTVSPost2010PropOp43
 70
     1
102
RTVSPost2010Prop44ColorIndex
 90
        5
102
RTVSPost2010Prop44ColorRGB
 90
      255
102
RTVSPost2010PropOp44
 70
     1
102
RTVSPost2010Prop45
280
     0
102
RTVSPost2010PropOp45
 70
     1
102
RTVSPost2010Prop46
 90
       50
102
RTVSPost2010PropOp46
 70
     1
102
RTVSPost2010Prop47
 90
       50
102
RTVSPost2010PropOp47
 70
     1
102
RTVSPost2010Prop48
 90
       50
102
RTVSPost2010PropOp48
 70
     1
102
RTVSPost2010Prop49
280
     0
102
RTVSPost2010PropOp49
 70
     1
102
RTVSPost2010Prop50
 90
       50
102
RTVSPost2010PropOp50
 70
     1
102
RTVSPost2010Prop51ColorIndex
 90
      256
102
RTVSPost2010Prop51ColorRGB
 90
-16777216
102
RTVSPost2010PropOp51
 70
     0
102
RTVSPost2010Prop52
140
1.0
102
RTVSPost2010PropOp52
 70
     0
102
RTVSPost2010Prop53
 90
        2
102
RTVSPost2010PropOp53
 70
     1
102
RTVSPost2010Prop54
  1
strokes_ogs.tif
102
RTVSPost2010PropOp54
 70
     1
102
RTVSPost2010Prop55
280
     0
102
RTVSPost2010PropOp55
 70
     1
102
RTVSPost2010Prop56
140
1.0
102
RTVSPost2010PropOp56
 70
     1
102
RTVSPost2010Prop57
140
1.0
102
RTVSPost2010PropOp57
 70
     1
102
RTVSPropertyOp0
 70
     1
102
RTVSPropertyOp1
 70
     1
102
RTVSPropertyOp2
 70
     1
102
RTVSPropertyOp3
 70
     1
102
RTVSPropertyOp4
 70
     1
102
RTVSPropertyOp5
 70
     1
102
RTVSPropertyOp6
 70
     1
102
RTVSPropertyOp7
 70
     1
102
RTVSPropertyOp8
 70
     1
102
RTVSPropertyOp9
 70
     1
102
RTVSPropertyOp10
 70
     1
102
RTVSPropertyOp11
 70
     1
102
RTVSPropertyOp12
 70
     1
102
RTVSPropertyOp13
 70
     1
102
RTVSPropertyOp14
 70
     1
102
RTVSPropertyOp15
 70
     1
102
RTVSPropertyOp16
 70
     1
102
RTVSPropertyOp17
 70
     1
102
RTVSPropertyOp18
 70
     1
102
RTVSPropertyOp19
 70
     1
102
RTVSPropertyOp20
 70
     1
102
RTVSPropertyOp21
 70
     1
102
RTVSPropertyOp22
 70
     1
102
RTVSPropertyOp23
 70
     1
102
RTVSPropertyOp24
 70
     1
102
RTVSPropertyOp25
 70
     1
102
RTVSPropertyOp26
 70
     1
102
RTVSPropertyOp27
 70
     1
102
RTVSPropertyOp28
 70
     1
102
RTVSPropertyOp29
 70
     1
102
RTVSPropertyOp30
 70
     1
102
RTVSPropertyOp31
 70
     1
102
RTVSPropertyOp32
 70
     1
102
RTVSPropertyOp33
 70
     1
102
RTVSPropertyOp34
 70
     1
102
RTVSPropertyOp35
 70
     1
102
RTVSPropertyOp36
 70
     1
102
RTVSPropertyOp37
 70
     1
102
RTVSPropertyOp38
 70
     1
102
RTVSPropertyOp39
 70
     1
102
RTVSPropertyOp40
 70
     1
102
RTVSPropertyOp41
 70
     1
102
RTVSPropertyOp42
 70
     1
102
RTVSPropertyOp43
 70
     1
102
RTVSPropertyOp44
 70
     1
102
RTVSPropertyOp45
 70
     1
102
RTVSPropertyOp46
 70
     1
102
RTVSPropertyOp47
 70
     1
102
RTVSPropertyOp48
 70
     1
102
RTVSPropertyOp49
 70
     1
102
RTVSPropertyOp50
 70
     1
102
RTVSPropertyOp51
 70
     0
102
RTVSPropertyOp52
 70
     0
102
RTVSPropertyOp53
 70
     1
102
RTVSPropertyOp54
 70
     1
102
RTVSPropertyOp55
 70
     1
102
RTVSPropertyOp56
 70
     1
102
RTVSPropertyOp57
 70
     1
102
RTVSPropertyOp58
 70
     1
102
RTVSPropertyOp59
 70
     1
102
RTVSPropertyOp60
 70
     1
102
RTVSPropertyOp61
 70
     1
102
RTVSPropertyOp62
 70
     1
  0
XRECORD
  5
83FD
102
{ACAD_REACTORS
330
83FC
102
}
330
83FC
100
AcDbXrecord
280
     1
102
RTVSPost2010Prop28
280
     0
102
RTVSPost2010PropOp28
 70
     1
102
RTVSPost2010Prop29
280
     1
102
RTVSPost2010PropOp29
 70
     1
102
RTVSPost2010Prop30
280
     1
102
RTVSPost2010PropOp30
 70
     1
102
RTVSPost2010Prop31
280
     0
102
RTVSPost2010PropOp31
 70
     1
102
RTVSPost2010Prop32
280
     0
102
RTVSPost2010PropOp32
 70
     1
102
RTVSPost2010Prop33
280
     0
102
RTVSPost2010PropOp33
 70
     1
102
RTVSPost2010Prop34
280
     0
102
RTVSPost2010PropOp34
 70
     1
102
RTVSPost2010Prop35
280
     0
102
RTVSPost2010PropOp35
 70
     1
102
RTVSPost2010Prop36
280
     0
102
RTVSPost2010PropOp36
 70
     1
102
RTVSPost2010Prop37
 90
       50
102
RTVSPost2010PropOp37
 70
     1
102
RTVSPost2010Prop38
140
0.0
102
RTVSPost2010PropOp38
 70
     1
102
RTVSPost2010Prop39
140
1.0
102
RTVSPost2010PropOp39
 70
     1
102
RTVSPost2010Prop40
 90
        0
102
RTVSPost2010PropOp40
 70
     1
102
RTVSPost2010Prop41ColorIndex
 90
       18
102
RTVSPost2010Prop41ColorRGB
 90
        0
102
RTVSPost2010PropOp41
 70
     1
102
RTVSPost2010Prop42
 90
       50
102
RTVSPost2010PropOp42
 70
     1
102
RTVSPost2010Prop43
 90
        3
102
RTVSPost2010PropOp43
 70
     1
102
RTVSPost2010Prop44ColorIndex
 90
        5
102
RTVSPost2010Prop44ColorRGB
 90
      255
102
RTVSPost2010PropOp44
 70
     1
102
RTVSPost2010Prop45
280
     0
102
RTVSPost2010PropOp45
 70
     1
102
RTVSPost2010Prop46
 90
       50
102
RTVSPost2010PropOp46
 70
     1
102
RTVSPost2010Prop47
 90
       50
102
RTVSPost2010PropOp47
 70
     1
102
RTVSPost2010Prop48
 90
       50
102
RTVSPost2010PropOp48
 70
     1
102
RTVSPost2010Prop49
280
     0
102
RTVSPost2010PropOp49
 70
     1
102
RTVSPost2010Prop50
 90
       50
102
RTVSPost2010PropOp50
 70
     1
102
RTVSPost2010Prop51ColorIndex
 90
      256
102
RTVSPost2010Prop51ColorRGB
 90
-16777216
102
RTVSPost2010PropOp51
 70
     0
102
RTVSPost2010Prop52
140
1.0
102
RTVSPost2010PropOp52
 70
     0
102
RTVSPost2010Prop53
 90
        2
102
RTVSPost2010PropOp53
 70
     1
102
RTVSPost2010Prop54
  1
strokes_ogs.tif
102
RTVSPost2010PropOp54
 70
     1
102
RTVSPost2010Prop55
280
     0
102
RTVSPost2010PropOp55
 70
     1
102
RTVSPost2010Prop56
140
1.0
102
RTVSPost2010PropOp56
 70
     1
102
RTVSPost2010Prop57
140
1.0
102
RTVSPost2010PropOp57
 70
     1
102
RTVSPropertyOp0
 70
     1
102
RTVSPropertyOp1
 70
     1
102
RTVSPropertyOp2
 70
     1
102
RTVSPropertyOp3
 70
     1
102
RTVSPropertyOp4
 70
     1
102
RTVSPropertyOp5
 70
     1
102
RTVSPropertyOp6
 70
     1
102
RTVSPropertyOp7
 70
     1
102
RTVSPropertyOp8
 70
     1
102
RTVSPropertyOp9
 70
     1
102
RTVSPropertyOp10
 70
     1
102
RTVSPropertyOp11
 70
     1
102
RTVSPropertyOp12
 70
     1
102
RTVSPropertyOp13
 70
     1
102
RTVSPropertyOp14
 70
     1
102
RTVSPropertyOp15
 70
     1
102
RTVSPropertyOp16
 70
     1
102
RTVSPropertyOp17
 70
     1
102
RTVSPropertyOp18
 70
     1
102
RTVSPropertyOp19
 70
     1
102
RTVSPropertyOp20
 70
     1
102
RTVSPropertyOp21
 70
     1
102
RTVSPropertyOp22
 70
     1
102
RTVSPropertyOp23
 70
     1
102
RTVSPropertyOp24
 70
     1
102
RTVSPropertyOp25
 70
     1
102
RTVSPropertyOp26
 70
     1
102
RTVSPropertyOp27
 70
     1
102
RTVSPropertyOp28
 70
     1
102
RTVSPropertyOp29
 70
     1
102
RTVSPropertyOp30
 70
     1
102
RTVSPropertyOp31
 70
     1
102
RTVSPropertyOp32
 70
     1
102
RTVSPropertyOp33
 70
     1
102
RTVSPropertyOp34
 70
     1
102
RTVSPropertyOp35
 70
     1
102
RTVSPropertyOp36
 70
     1
102
RTVSPropertyOp37
 70
     1
102
RTVSPropertyOp38
 70
     1
102
RTVSPropertyOp39
 70
     1
102
RTVSPropertyOp40
 70
     1
102
RTVSPropertyOp41
 70
     1
102
RTVSPropertyOp42
 70
     1
102
RTVSPropertyOp43
 70
     1
102
RTVSPropertyOp44
 70
     1
102
RTVSPropertyOp45
 70
     1
102
RTVSPropertyOp46
 70
     1
102
RTVSPropertyOp47
 70
     1
102
RTVSPropertyOp48
 70
     1
102
RTVSPropertyOp49
 70
     1
102
RTVSPropertyOp50
 70
     1
102
RTVSPropertyOp51
 70
     0
102
RTVSPropertyOp52
 70
     0
102
RTVSPropertyOp53
 70
     1
102
RTVSPropertyOp54
 70
     1
102
RTVSPropertyOp55
 70
     1
102
RTVSPropertyOp56
 70
     1
102
RTVSPropertyOp57
 70
     1
102
RTVSPropertyOp58
 70
     1
102
RTVSPropertyOp59
 70
     1
102
RTVSPropertyOp60
 70
     1
102
RTVSPropertyOp61
 70
     1
102
RTVSPropertyOp62
 70
     1
  0
XRECORD
  5
840B
102
{ACAD_REACTORS
330
840A
102
}
330
840A
100
AcDbXrecord
280
     1
102
RTVSPost2010Prop28
280
     0
102
RTVSPost2010PropOp28
 70
     1
102
RTVSPost2010Prop29
280
     1
102
RTVSPost2010PropOp29
 70
     1
102
RTVSPost2010Prop30
280
     1
102
RTVSPost2010PropOp30
 70
     1
102
RTVSPost2010Prop31
280
     0
102
RTVSPost2010PropOp31
 70
     1
102
RTVSPost2010Prop32
280
     0
102
RTVSPost2010PropOp32
 70
     1
102
RTVSPost2010Prop33
280
     0
102
RTVSPost2010PropOp33
 70
     1
102
RTVSPost2010Prop34
280
     0
102
RTVSPost2010PropOp34
 70
     1
102
RTVSPost2010Prop35
280
     0
102
RTVSPost2010PropOp35
 70
     1
102
RTVSPost2010Prop36
280
     0
102
RTVSPost2010PropOp36
 70
     1
102
RTVSPost2010Prop37
 90
       50
102
RTVSPost2010PropOp37
 70
     1
102
RTVSPost2010Prop38
140
0.0
102
RTVSPost2010PropOp38
 70
     1
102
RTVSPost2010Prop39
140
1.0
102
RTVSPost2010PropOp39
 70
     1
102
RTVSPost2010Prop40
 90
        0
102
RTVSPost2010PropOp40
 70
     1
102
RTVSPost2010Prop41ColorIndex
 90
       18
102
RTVSPost2010Prop41ColorRGB
 90
        0
102
RTVSPost2010PropOp41
 70
     1
102
RTVSPost2010Prop42
 90
       50
102
RTVSPost2010PropOp42
 70
     1
102
RTVSPost2010Prop43
 90
        3
102
RTVSPost2010PropOp43
 70
     1
102
RTVSPost2010Prop44ColorIndex
 90
        5
102
RTVSPost2010Prop44ColorRGB
 90
      255
102
RTVSPost2010PropOp44
 70
     1
102
RTVSPost2010Prop45
280
     0
102
RTVSPost2010PropOp45
 70
     1
102
RTVSPost2010Prop46
 90
       50
102
RTVSPost2010PropOp46
 70
     1
102
RTVSPost2010Prop47
 90
       50
102
RTVSPost2010PropOp47
 70
     1
102
RTVSPost2010Prop48
 90
       50
102
RTVSPost2010PropOp48
 70
     1
102
RTVSPost2010Prop49
280
     0
102
RTVSPost2010PropOp49
 70
     1
102
RTVSPost2010Prop50
 90
       50
102
RTVSPost2010PropOp50
 70
     1
102
RTVSPost2010Prop51ColorIndex
 90
      256
102
RTVSPost2010Prop51ColorRGB
 90
-16777216
102
RTVSPost2010PropOp51
 70
     0
102
RTVSPost2010Prop52
140
1.0
102
RTVSPost2010PropOp52
 70
     0
102
RTVSPost2010Prop53
 90
        2
102
RTVSPost2010PropOp53
 70
     1
102
RTVSPost2010Prop54
  1
strokes_ogs.tif
102
RTVSPost2010PropOp54
 70
     1
102
RTVSPost2010Prop55
280
     0
102
RTVSPost2010PropOp55
 70
     1
102
RTVSPost2010Prop56
140
1.0
102
RTVSPost2010PropOp56
 70
     1
102
RTVSPost2010Prop57
140
1.0
102
RTVSPost2010PropOp57
 70
     1
102
RTVSPropertyOp0
 70
     1
102
RTVSPropertyOp1
 70
     1
102
RTVSPropertyOp2
 70
     1
102
RTVSPropertyOp3
 70
     1
102
RTVSPropertyOp4
 70
     1
102
RTVSPropertyOp5
 70
     1
102
RTVSPropertyOp6
 70
     1
102
RTVSPropertyOp7
 70
     1
102
RTVSPropertyOp8
 70
     1
102
RTVSPropertyOp9
 70
     1
102
RTVSPropertyOp10
 70
     1
102
RTVSPropertyOp11
 70
     1
102
RTVSPropertyOp12
 70
     1
102
RTVSPropertyOp13
 70
     1
102
RTVSPropertyOp14
 70
     1
102
RTVSPropertyOp15
 70
     1
102
RTVSPropertyOp16
 70
     1
102
RTVSPropertyOp17
 70
     1
102
RTVSPropertyOp18
 70
     1
102
RTVSPropertyOp19
 70
     1
102
RTVSPropertyOp20
 70
     1
102
RTVSPropertyOp21
 70
     1
102
RTVSPropertyOp22
 70
     1
102
RTVSPropertyOp23
 70
     1
102
RTVSPropertyOp24
 70
     1
102
RTVSPropertyOp25
 70
     1
102
RTVSPropertyOp26
 70
     1
102
RTVSPropertyOp27
 70
     1
102
RTVSPropertyOp28
 70
     1
102
RTVSPropertyOp29
 70
     1
102
RTVSPropertyOp30
 70
     1
102
RTVSPropertyOp31
 70
     1
102
RTVSPropertyOp32
 70
     1
102
RTVSPropertyOp33
 70
     1
102
RTVSPropertyOp34
 70
     1
102
RTVSPropertyOp35
 70
     1
102
RTVSPropertyOp36
 70
     1
102
RTVSPropertyOp37
 70
     1
102
RTVSPropertyOp38
 70
     1
102
RTVSPropertyOp39
 70
     1
102
RTVSPropertyOp40
 70
     1
102
RTVSPropertyOp41
 70
     1
102
RTVSPropertyOp42
 70
     1
102
RTVSPropertyOp43
 70
     1
102
RTVSPropertyOp44
 70
     1
102
RTVSPropertyOp45
 70
     1
102
RTVSPropertyOp46
 70
     1
102
RTVSPropertyOp47
 70
     1
102
RTVSPropertyOp48
 70
     1
102
RTVSPropertyOp49
 70
     1
102
RTVSPropertyOp50
 70
     1
102
RTVSPropertyOp51
 70
     0
102
RTVSPropertyOp52
 70
     0
102
RTVSPropertyOp53
 70
     1
102
RTVSPropertyOp54
 70
     1
102
RTVSPropertyOp55
 70
     1
102
RTVSPropertyOp56
 70
     1
102
RTVSPropertyOp57
 70
     1
102
RTVSPropertyOp58
 70
     1
102
RTVSPropertyOp59
 70
     1
102
RTVSPropertyOp60
 70
     1
102
RTVSPropertyOp61
 70
     1
102
RTVSPropertyOp62
 70
     1
  0
XRECORD
  5
8413
102
{ACAD_REACTORS
330
8412
102
}
330
8412
100
AcDbXrecord
280
     1
102
RTVSPost2010Prop28
280
     0
102
RTVSPost2010PropOp28
 70
     1
102
RTVSPost2010Prop29
280
     1
102
RTVSPost2010PropOp29
 70
     1
102
RTVSPost2010Prop30
280
     1
102
RTVSPost2010PropOp30
 70
     1
102
RTVSPost2010Prop31
280
     0
102
RTVSPost2010PropOp31
 70
     1
102
RTVSPost2010Prop32
280
     0
102
RTVSPost2010PropOp32
 70
     1
102
RTVSPost2010Prop33
280
     0
102
RTVSPost2010PropOp33
 70
     1
102
RTVSPost2010Prop34
280
     0
102
RTVSPost2010PropOp34
 70
     1
102
RTVSPost2010Prop35
280
     0
102
RTVSPost2010PropOp35
 70
     1
102
RTVSPost2010Prop36
280
     0
102
RTVSPost2010PropOp36
 70
     1
102
RTVSPost2010Prop37
 90
       50
102
RTVSPost2010PropOp37
 70
     1
102
RTVSPost2010Prop38
140
0.0
102
RTVSPost2010PropOp38
 70
     1
102
RTVSPost2010Prop39
140
1.0
102
RTVSPost2010PropOp39
 70
     1
102
RTVSPost2010Prop40
 90
        0
102
RTVSPost2010PropOp40
 70
     1
102
RTVSPost2010Prop41ColorIndex
 90
       18
102
RTVSPost2010Prop41ColorRGB
 90
        0
102
RTVSPost2010PropOp41
 70
     1
102
RTVSPost2010Prop42
 90
       50
102
RTVSPost2010PropOp42
 70
     1
102
RTVSPost2010Prop43
 90
        3
102
RTVSPost2010PropOp43
 70
     1
102
RTVSPost2010Prop44ColorIndex
 90
        5
102
RTVSPost2010Prop44ColorRGB
 90
      255
102
RTVSPost2010PropOp44
 70
     1
102
RTVSPost2010Prop45
280
     0
102
RTVSPost2010PropOp45
 70
     1
102
RTVSPost2010Prop46
 90
       50
102
RTVSPost2010PropOp46
 70
     1
102
RTVSPost2010Prop47
 90
       50
102
RTVSPost2010PropOp47
 70
     1
102
RTVSPost2010Prop48
 90
       50
102
RTVSPost2010PropOp48
 70
     1
102
RTVSPost2010Prop49
280
     0
102
RTVSPost2010PropOp49
 70
     1
102
RTVSPost2010Prop50
 90
       50
102
RTVSPost2010PropOp50
 70
     1
102
RTVSPost2010Prop51ColorIndex
 90
      256
102
RTVSPost2010Prop51ColorRGB
 90
-16777216
102
RTVSPost2010PropOp51
 70
     0
102
RTVSPost2010Prop52
140
1.0
102
RTVSPost2010PropOp52
 70
     0
102
RTVSPost2010Prop53
 90
        2
102
RTVSPost2010PropOp53
 70
     1
102
RTVSPost2010Prop54
  1
strokes_ogs.tif
102
RTVSPost2010PropOp54
 70
     1
102
RTVSPost2010Prop55
280
     0
102
RTVSPost2010PropOp55
 70
     1
102
RTVSPost2010Prop56
140
1.0
102
RTVSPost2010PropOp56
 70
     1
102
RTVSPost2010Prop57
140
1.0
102
RTVSPost2010PropOp57
 70
     1
102
RTVSPropertyOp0
 70
     1
102
RTVSPropertyOp1
 70
     1
102
RTVSPropertyOp2
 70
     1
102
RTVSPropertyOp3
 70
     1
102
RTVSPropertyOp4
 70
     1
102
RTVSPropertyOp5
 70
     1
102
RTVSPropertyOp6
 70
     1
102
RTVSPropertyOp7
 70
     1
102
RTVSPropertyOp8
 70
     1
102
RTVSPropertyOp9
 70
     1
102
RTVSPropertyOp10
 70
     1
102
RTVSPropertyOp11
 70
     1
102
RTVSPropertyOp12
 70
     1
102
RTVSPropertyOp13
 70
     1
102
RTVSPropertyOp14
 70
     1
102
RTVSPropertyOp15
 70
     1
102
RTVSPropertyOp16
 70
     1
102
RTVSPropertyOp17
 70
     1
102
RTVSPropertyOp18
 70
     1
102
RTVSPropertyOp19
 70
     1
102
RTVSPropertyOp20
 70
     1
102
RTVSPropertyOp21
 70
     1
102
RTVSPropertyOp22
 70
     1
102
RTVSPropertyOp23
 70
     1
102
RTVSPropertyOp24
 70
     1
102
RTVSPropertyOp25
 70
     1
102
RTVSPropertyOp26
 70
     1
102
RTVSPropertyOp27
 70
     1
102
RTVSPropertyOp28
 70
     1
102
RTVSPropertyOp29
 70
     1
102
RTVSPropertyOp30
 70
     1
102
RTVSPropertyOp31
 70
     1
102
RTVSPropertyOp32
 70
     1
102
RTVSPropertyOp33
 70
     1
102
RTVSPropertyOp34
 70
     1
102
RTVSPropertyOp35
 70
     1
102
RTVSPropertyOp36
 70
     1
102
RTVSPropertyOp37
 70
     1
102
RTVSPropertyOp38
 70
     1
102
RTVSPropertyOp39
 70
     1
102
RTVSPropertyOp40
 70
     1
102
RTVSPropertyOp41
 70
     1
102
RTVSPropertyOp42
 70
     1
102
RTVSPropertyOp43
 70
     1
102
RTVSPropertyOp44
 70
     1
102
RTVSPropertyOp45
 70
     1
102
RTVSPropertyOp46
 70
     1
102
RTVSPropertyOp47
 70
     1
102
RTVSPropertyOp48
 70
     1
102
RTVSPropertyOp49
 70
     1
102
RTVSPropertyOp50
 70
     1
102
RTVSPropertyOp51
 70
     0
102
RTVSPropertyOp52
 70
     0
102
RTVSPropertyOp53
 70
     1
102
RTVSPropertyOp54
 70
     1
102
RTVSPropertyOp55
 70
     1
102
RTVSPropertyOp56
 70
     1
102
RTVSPropertyOp57
 70
     1
102
RTVSPropertyOp58
 70
     1
102
RTVSPropertyOp59
 70
     1
102
RTVSPropertyOp60
 70
     1
102
RTVSPropertyOp61
 70
     1
102
RTVSPropertyOp62
 70
     1
  0
XRECORD
  5
8405
102
{ACAD_REACTORS
330
8404
102
}
330
8404
100
AcDbXrecord
280
     1
102
RTVSPost2010Prop28
280
     0
102
RTVSPost2010PropOp28
 70
     1
102
RTVSPost2010Prop29
280
     1
102
RTVSPost2010PropOp29
 70
     1
102
RTVSPost2010Prop30
280
     1
102
RTVSPost2010PropOp30
 70
     1
102
RTVSPost2010Prop31
280
     0
102
RTVSPost2010PropOp31
 70
     1
102
RTVSPost2010Prop32
280
     0
102
RTVSPost2010PropOp32
 70
     1
102
RTVSPost2010Prop33
280
     0
102
RTVSPost2010PropOp33
 70
     1
102
RTVSPost2010Prop34
280
     0
102
RTVSPost2010PropOp34
 70
     1
102
RTVSPost2010Prop35
280
     0
102
RTVSPost2010PropOp35
 70
     1
102
RTVSPost2010Prop36
280
     0
102
RTVSPost2010PropOp36
 70
     1
102
RTVSPost2010Prop37
 90
       50
102
RTVSPost2010PropOp37
 70
     1
102
RTVSPost2010Prop38
140
0.0
102
RTVSPost2010PropOp38
 70
     1
102
RTVSPost2010Prop39
140
1.0
102
RTVSPost2010PropOp39
 70
     1
102
RTVSPost2010Prop40
 90
        0
102
RTVSPost2010PropOp40
 70
     1
102
RTVSPost2010Prop41ColorIndex
 90
       18
102
RTVSPost2010Prop41ColorRGB
 90
        0
102
RTVSPost2010PropOp41
 70
     1
102
RTVSPost2010Prop42
 90
       50
102
RTVSPost2010PropOp42
 70
     1
102
RTVSPost2010Prop43
 90
        3
102
RTVSPost2010PropOp43
 70
     1
102
RTVSPost2010Prop44ColorIndex
 90
        5
102
RTVSPost2010Prop44ColorRGB
 90
      255
102
RTVSPost2010PropOp44
 70
     1
102
RTVSPost2010Prop45
280
     0
102
RTVSPost2010PropOp45
 70
     1
102
RTVSPost2010Prop46
 90
       50
102
RTVSPost2010PropOp46
 70
     1
102
RTVSPost2010Prop47
 90
       50
102
RTVSPost2010PropOp47
 70
     1
102
RTVSPost2010Prop48
 90
       50
102
RTVSPost2010PropOp48
 70
     1
102
RTVSPost2010Prop49
280
     0
102
RTVSPost2010PropOp49
 70
     1
102
RTVSPost2010Prop50
 90
       50
102
RTVSPost2010PropOp50
 70
     1
102
RTVSPost2010Prop51ColorIndex
 90
      256
102
RTVSPost2010Prop51ColorRGB
 90
-16777216
102
RTVSPost2010PropOp51
 70
     0
102
RTVSPost2010Prop52
140
1.0
102
RTVSPost2010PropOp52
 70
     0
102
RTVSPost2010Prop53
 90
        2
102
RTVSPost2010PropOp53
 70
     1
102
RTVSPost2010Prop54
  1
strokes_ogs.tif
102
RTVSPost2010PropOp54
 70
     1
102
RTVSPost2010Prop55
280
     0
102
RTVSPost2010PropOp55
 70
     1
102
RTVSPost2010Prop56
140
1.0
102
RTVSPost2010PropOp56
 70
     1
102
RTVSPost2010Prop57
140
1.0
102
RTVSPost2010PropOp57
 70
     1
102
RTVSPropertyOp0
 70
     1
102
RTVSPropertyOp1
 70
     1
102
RTVSPropertyOp2
 70
     1
102
RTVSPropertyOp3
 70
     1
102
RTVSPropertyOp4
 70
     1
102
RTVSPropertyOp5
 70
     1
102
RTVSPropertyOp6
 70
     1
102
RTVSPropertyOp7
 70
     1
102
RTVSPropertyOp8
 70
     1
102
RTVSPropertyOp9
 70
     1
102
RTVSPropertyOp10
 70
     1
102
RTVSPropertyOp11
 70
     1
102
RTVSPropertyOp12
 70
     1
102
RTVSPropertyOp13
 70
     1
102
RTVSPropertyOp14
 70
     1
102
RTVSPropertyOp15
 70
     1
102
RTVSPropertyOp16
 70
     1
102
RTVSPropertyOp17
 70
     1
102
RTVSPropertyOp18
 70
     1
102
RTVSPropertyOp19
 70
     1
102
RTVSPropertyOp20
 70
     1
102
RTVSPropertyOp21
 70
     1
102
RTVSPropertyOp22
 70
     1
102
RTVSPropertyOp23
 70
     1
102
RTVSPropertyOp24
 70
     1
102
RTVSPropertyOp25
 70
     1
102
RTVSPropertyOp26
 70
     1
102
RTVSPropertyOp27
 70
     1
102
RTVSPropertyOp28
 70
     1
102
RTVSPropertyOp29
 70
     1
102
RTVSPropertyOp30
 70
     1
102
RTVSPropertyOp31
 70
     1
102
RTVSPropertyOp32
 70
     1
102
RTVSPropertyOp33
 70
     1
102
RTVSPropertyOp34
 70
     1
102
RTVSPropertyOp35
 70
     1
102
RTVSPropertyOp36
 70
     1
102
RTVSPropertyOp37
 70
     1
102
RTVSPropertyOp38
 70
     1
102
RTVSPropertyOp39
 70
     1
102
RTVSPropertyOp40
 70
     1
102
RTVSPropertyOp41
 70
     1
102
RTVSPropertyOp42
 70
     1
102
RTVSPropertyOp43
 70
     1
102
RTVSPropertyOp44
 70
     1
102
RTVSPropertyOp45
 70
     1
102
RTVSPropertyOp46
 70
     1
102
RTVSPropertyOp47
 70
     1
102
RTVSPropertyOp48
 70
     1
102
RTVSPropertyOp49
 70
     1
102
RTVSPropertyOp50
 70
     1
102
RTVSPropertyOp51
 70
     0
102
RTVSPropertyOp52
 70
     0
102
RTVSPropertyOp53
 70
     1
102
RTVSPropertyOp54
 70
     1
102
RTVSPropertyOp55
 70
     1
102
RTVSPropertyOp56
 70
     1
102
RTVSPropertyOp57
 70
     1
102
RTVSPropertyOp58
 70
     1
102
RTVSPropertyOp59
 70
     1
102
RTVSPropertyOp60
 70
     1
102
RTVSPropertyOp61
 70
     1
102
RTVSPropertyOp62
 70
     1
  0
XRECORD
  5
8409
102
{ACAD_REACTORS
330
8408
102
}
330
8408
100
AcDbXrecord
280
     1
102
RTVSPost2010Prop28
280
     0
102
RTVSPost2010PropOp28
 70
     1
102
RTVSPost2010Prop29
280
     1
102
RTVSPost2010PropOp29
 70
     1
102
RTVSPost2010Prop30
280
     1
102
RTVSPost2010PropOp30
 70
     1
102
RTVSPost2010Prop31
280
     0
102
RTVSPost2010PropOp31
 70
     1
102
RTVSPost2010Prop32
280
     0
102
RTVSPost2010PropOp32
 70
     1
102
RTVSPost2010Prop33
280
     0
102
RTVSPost2010PropOp33
 70
     1
102
RTVSPost2010Prop34
280
     0
102
RTVSPost2010PropOp34
 70
     1
102
RTVSPost2010Prop35
280
     0
102
RTVSPost2010PropOp35
 70
     1
102
RTVSPost2010Prop36
280
     0
102
RTVSPost2010PropOp36
 70
     1
102
RTVSPost2010Prop37
 90
       50
102
RTVSPost2010PropOp37
 70
     1
102
RTVSPost2010Prop38
140
0.0
102
RTVSPost2010PropOp38
 70
     1
102
RTVSPost2010Prop39
140
1.0
102
RTVSPost2010PropOp39
 70
     1
102
RTVSPost2010Prop40
 90
        0
102
RTVSPost2010PropOp40
 70
     1
102
RTVSPost2010Prop41ColorIndex
 90
       18
102
RTVSPost2010Prop41ColorRGB
 90
        0
102
RTVSPost2010PropOp41
 70
     1
102
RTVSPost2010Prop42
 90
       50
102
RTVSPost2010PropOp42
 70
     1
102
RTVSPost2010Prop43
 90
        3
102
RTVSPost2010PropOp43
 70
     1
102
RTVSPost2010Prop44ColorIndex
 90
        5
102
RTVSPost2010Prop44ColorRGB
 90
      255
102
RTVSPost2010PropOp44
 70
     1
102
RTVSPost2010Prop45
280
     0
102
RTVSPost2010PropOp45
 70
     1
102
RTVSPost2010Prop46
 90
       50
102
RTVSPost2010PropOp46
 70
     1
102
RTVSPost2010Prop47
 90
       50
102
RTVSPost2010PropOp47
 70
     1
102
RTVSPost2010Prop48
 90
       50
102
RTVSPost2010PropOp48
 70
     1
102
RTVSPost2010Prop49
280
     0
102
RTVSPost2010PropOp49
 70
     1
102
RTVSPost2010Prop50
 90
       50
102
RTVSPost2010PropOp50
 70
     1
102
RTVSPost2010Prop51ColorIndex
 90
      256
102
RTVSPost2010Prop51ColorRGB
 90
-16777216
102
RTVSPost2010PropOp51
 70
     0
102
RTVSPost2010Prop52
140
1.0
102
RTVSPost2010PropOp52
 70
     0
102
RTVSPost2010Prop53
 90
        2
102
RTVSPost2010PropOp53
 70
     1
102
RTVSPost2010Prop54
  1
strokes_ogs.tif
102
RTVSPost2010PropOp54
 70
     1
102
RTVSPost2010Prop55
280
     0
102
RTVSPost2010PropOp55
 70
     1
102
RTVSPost2010Prop56
140
1.0
102
RTVSPost2010PropOp56
 70
     1
102
RTVSPost2010Prop57
140
1.0
102
RTVSPost2010PropOp57
 70
     1
102
RTVSPropertyOp0
 70
     1
102
RTVSPropertyOp1
 70
     1
102
RTVSPropertyOp2
 70
     1
102
RTVSPropertyOp3
 70
     1
102
RTVSPropertyOp4
 70
     1
102
RTVSPropertyOp5
 70
     1
102
RTVSPropertyOp6
 70
     1
102
RTVSPropertyOp7
 70
     1
102
RTVSPropertyOp8
 70
     1
102
RTVSPropertyOp9
 70
     1
102
RTVSPropertyOp10
 70
     1
102
RTVSPropertyOp11
 70
     1
102
RTVSPropertyOp12
 70
     1
102
RTVSPropertyOp13
 70
     1
102
RTVSPropertyOp14
 70
     1
102
RTVSPropertyOp15
 70
     1
102
RTVSPropertyOp16
 70
     1
102
RTVSPropertyOp17
 70
     1
102
RTVSPropertyOp18
 70
     1
102
RTVSPropertyOp19
 70
     1
102
RTVSPropertyOp20
 70
     1
102
RTVSPropertyOp21
 70
     1
102
RTVSPropertyOp22
 70
     1
102
RTVSPropertyOp23
 70
     1
102
RTVSPropertyOp24
 70
     1
102
RTVSPropertyOp25
 70
     1
102
RTVSPropertyOp26
 70
     1
102
RTVSPropertyOp27
 70
     1
102
RTVSPropertyOp28
 70
     1
102
RTVSPropertyOp29
 70
     1
102
RTVSPropertyOp30
 70
     1
102
RTVSPropertyOp31
 70
     1
102
RTVSPropertyOp32
 70
     1
102
RTVSPropertyOp33
 70
     1
102
RTVSPropertyOp34
 70
     1
102
RTVSPropertyOp35
 70
     1
102
RTVSPropertyOp36
 70
     1
102
RTVSPropertyOp37
 70
     1
102
RTVSPropertyOp38
 70
     1
102
RTVSPropertyOp39
 70
     1
102
RTVSPropertyOp40
 70
     1
102
RTVSPropertyOp41
 70
     1
102
RTVSPropertyOp42
 70
     1
102
RTVSPropertyOp43
 70
     1
102
RTVSPropertyOp44
 70
     1
102
RTVSPropertyOp45
 70
     1
102
RTVSPropertyOp46
 70
     1
102
RTVSPropertyOp47
 70
     1
102
RTVSPropertyOp48
 70
     1
102
RTVSPropertyOp49
 70
     1
102
RTVSPropertyOp50
 70
     1
102
RTVSPropertyOp51
 70
     0
102
RTVSPropertyOp52
 70
     0
102
RTVSPropertyOp53
 70
     1
102
RTVSPropertyOp54
 70
     1
102
RTVSPropertyOp55
 70
     1
102
RTVSPropertyOp56
 70
     1
102
RTVSPropertyOp57
 70
     1
102
RTVSPropertyOp58
 70
     1
102
RTVSPropertyOp59
 70
     1
102
RTVSPropertyOp60
 70
     1
102
RTVSPropertyOp61
 70
     1
102
RTVSPropertyOp62
 70
     1
  0
XRECORD
  5
8423
102
{ACAD_REACTORS
330
8422
102
}
330
8422
100
AcDbXrecord
280
     1
102
RTVSPost2010Prop28
280
     0
102
RTVSPost2010PropOp28
 70
     1
102
RTVSPost2010Prop29
280
     1
102
RTVSPost2010PropOp29
 70
     1
102
RTVSPost2010Prop30
280
     1
102
RTVSPost2010PropOp30
 70
     1
102
RTVSPost2010Prop31
280
     0
102
RTVSPost2010PropOp31
 70
     1
102
RTVSPost2010Prop32
280
     0
102
RTVSPost2010PropOp32
 70
     1
102
RTVSPost2010Prop33
280
     0
102
RTVSPost2010PropOp33
 70
     1
102
RTVSPost2010Prop34
280
     0
102
RTVSPost2010PropOp34
 70
     1
102
RTVSPost2010Prop35
280
     0
102
RTVSPost2010PropOp35
 70
     1
102
RTVSPost2010Prop36
280
     0
102
RTVSPost2010PropOp36
 70
     1
102
RTVSPost2010Prop37
 90
       50
102
RTVSPost2010PropOp37
 70
     0
102
RTVSPost2010Prop38
140
0.0
102
RTVSPost2010PropOp38
 70
     0
102
RTVSPost2010Prop39
140
1.0
102
RTVSPost2010PropOp39
 70
     0
102
RTVSPost2010Prop40
 90
        0
102
RTVSPost2010PropOp40
 70
     0
102
RTVSPost2010Prop41ColorIndex
 90
       18
102
RTVSPost2010Prop41ColorRGB
 90
        0
102
RTVSPost2010PropOp41
 70
     0
102
RTVSPost2010Prop42
 90
       50
102
RTVSPost2010PropOp42
 70
     0
102
RTVSPost2010Prop43
 90
        3
102
RTVSPost2010PropOp43
 70
     0
102
RTVSPost2010Prop44ColorIndex
 90
        5
102
RTVSPost2010Prop44ColorRGB
 90
      255
102
RTVSPost2010PropOp44
 70
     0
102
RTVSPost2010Prop45
280
     0
102
RTVSPost2010PropOp45
 70
     1
102
RTVSPost2010Prop46
 90
       50
102
RTVSPost2010PropOp46
 70
     0
102
RTVSPost2010Prop47
 90
       50
102
RTVSPost2010PropOp47
 70
     0
102
RTVSPost2010Prop48
 90
       50
102
RTVSPost2010PropOp48
 70
     0
102
RTVSPost2010Prop49
280
     0
102
RTVSPost2010PropOp49
 70
     1
102
RTVSPost2010Prop50
 90
       50
102
RTVSPost2010PropOp50
 70
     0
102
RTVSPost2010Prop51ColorIndex
 90
      256
102
RTVSPost2010Prop51ColorRGB
 90
-16777216
102
RTVSPost2010PropOp51
 70
     0
102
RTVSPost2010Prop52
140
1.0
102
RTVSPost2010PropOp52
 70
     0
102
RTVSPost2010Prop53
 90
        2
102
RTVSPost2010PropOp53
 70
     0
102
RTVSPost2010Prop54
  1
strokes_ogs.tif
102
RTVSPost2010PropOp54
 70
     0
102
RTVSPost2010Prop55
280
     0
102
RTVSPost2010PropOp55
 70
     1
102
RTVSPost2010Prop56
140
1.0
102
RTVSPost2010PropOp56
 70
     0
102
RTVSPost2010Prop57
140
1.0
102
RTVSPost2010PropOp57
 70
     0
102
RTVSPropertyOp0
 70
     0
102
RTVSPropertyOp1
 70
     0
102
RTVSPropertyOp2
 70
     0
102
RTVSPropertyOp3
 70
     0
102
RTVSPropertyOp4
 70
     0
102
RTVSPropertyOp5
 70
     0
102
RTVSPropertyOp6
 70
     0
102
RTVSPropertyOp7
 70
     0
102
RTVSPropertyOp8
 70
     0
102
RTVSPropertyOp9
 70
     0
102
RTVSPropertyOp10
 70
     0
102
RTVSPropertyOp11
 70
     0
102
RTVSPropertyOp12
 70
     0
102
RTVSPropertyOp13
 70
     0
102
RTVSPropertyOp14
 70
     2
102
RTVSPropertyOp15
 70
     0
102
RTVSPropertyOp16
 70
     0
102
RTVSPropertyOp17
 70
     0
102
RTVSPropertyOp18
 70
     0
102
RTVSPropertyOp19
 70
     0
102
RTVSPropertyOp20
 70
     0
102
RTVSPropertyOp21
 70
     0
102
RTVSPropertyOp22
 70
     0
102
RTVSPropertyOp23
 70
     0
102
RTVSPropertyOp24
 70
     0
102
RTVSPropertyOp25
 70
     0
102
RTVSPropertyOp26
 70
     0
102
RTVSPropertyOp27
 70
     0
102
RTVSPropertyOp28
 70
     1
102
RTVSPropertyOp29
 70
     1
102
RTVSPropertyOp30
 70
     1
102
RTVSPropertyOp31
 70
     1
102
RTVSPropertyOp32
 70
     1
102
RTVSPropertyOp33
 70
     1
102
RTVSPropertyOp34
 70
     1
102
RTVSPropertyOp35
 70
     1
102
RTVSPropertyOp36
 70
     1
102
RTVSPropertyOp37
 70
     0
102
RTVSPropertyOp38
 70
     0
102
RTVSPropertyOp39
 70
     0
102
RTVSPropertyOp40
 70
     0
102
RTVSPropertyOp41
 70
     0
102
RTVSPropertyOp42
 70
     0
102
RTVSPropertyOp43
 70
     0
102
RTVSPropertyOp44
 70
     0
102
RTVSPropertyOp45
 70
     1
102
RTVSPropertyOp46
 70
     0
102
RTVSPropertyOp47
 70
     0
102
RTVSPropertyOp48
 70
     0
102
RTVSPropertyOp49
 70
     1
102
RTVSPropertyOp50
 70
     0
102
RTVSPropertyOp51
 70
     0
102
RTVSPropertyOp52
 70
     0
102
RTVSPropertyOp53
 70
     0
102
RTVSPropertyOp54
 70
     0
102
RTVSPropertyOp55
 70
     1
102
RTVSPropertyOp56
 70
     0
102
RTVSPropertyOp57
 70
     0
102
RTVSPropertyOp58
 70
     0
102
RTVSPropertyOp59
 70
     0
102
RTVSPropertyOp60
 70
     0
102
RTVSPropertyOp61
 70
     0
102
RTVSPropertyOp62
 70
     0
  0
XRECORD
  5
8411
102
{ACAD_REACTORS
330
8410
102
}
330
8410
100
AcDbXrecord
280
     1
102
RTVSPost2010Prop28
280
     0
102
RTVSPost2010PropOp28
 70
     1
102
RTVSPost2010Prop29
280
     1
102
RTVSPost2010PropOp29
 70
     1
102
RTVSPost2010Prop30
280
     1
102
RTVSPost2010PropOp30
 70
     1
102
RTVSPost2010Prop31
280
     0
102
RTVSPost2010PropOp31
 70
     1
102
RTVSPost2010Prop32
280
     0
102
RTVSPost2010PropOp32
 70
     1
102
RTVSPost2010Prop33
280
     0
102
RTVSPost2010PropOp33
 70
     1
102
RTVSPost2010Prop34
280
     0
102
RTVSPost2010PropOp34
 70
     1
102
RTVSPost2010Prop35
280
     0
102
RTVSPost2010PropOp35
 70
     1
102
RTVSPost2010Prop36
280
     0
102
RTVSPost2010PropOp36
 70
     1
102
RTVSPost2010Prop37
 90
       50
102
RTVSPost2010PropOp37
 70
     1
102
RTVSPost2010Prop38
140
0.0
102
RTVSPost2010PropOp38
 70
     1
102
RTVSPost2010Prop39
140
1.0
102
RTVSPost2010PropOp39
 70
     1
102
RTVSPost2010Prop40
 90
        0
102
RTVSPost2010PropOp40
 70
     1
102
RTVSPost2010Prop41ColorIndex
 90
       18
102
RTVSPost2010Prop41ColorRGB
 90
        0
102
RTVSPost2010PropOp41
 70
     1
102
RTVSPost2010Prop42
 90
       50
102
RTVSPost2010PropOp42
 70
     1
102
RTVSPost2010Prop43
 90
        3
102
RTVSPost2010PropOp43
 70
     1
102
RTVSPost2010Prop44ColorIndex
 90
        5
102
RTVSPost2010Prop44ColorRGB
 90
      255
102
RTVSPost2010PropOp44
 70
     1
102
RTVSPost2010Prop45
280
     0
102
RTVSPost2010PropOp45
 70
     1
102
RTVSPost2010Prop46
 90
       50
102
RTVSPost2010PropOp46
 70
     1
102
RTVSPost2010Prop47
 90
       50
102
RTVSPost2010PropOp47
 70
     1
102
RTVSPost2010Prop48
 90
       50
102
RTVSPost2010PropOp48
 70
     1
102
RTVSPost2010Prop49
280
     0
102
RTVSPost2010PropOp49
 70
     1
102
RTVSPost2010Prop50
 90
       50
102
RTVSPost2010PropOp50
 70
     1
102
RTVSPost2010Prop51ColorIndex
 90
      256
102
RTVSPost2010Prop51ColorRGB
 90
-16777216
102
RTVSPost2010PropOp51
 70
     0
102
RTVSPost2010Prop52
140
1.0
102
RTVSPost2010PropOp52
 70
     0
102
RTVSPost2010Prop53
 90
        2
102
RTVSPost2010PropOp53
 70
     1
102
RTVSPost2010Prop54
  1
strokes_ogs.tif
102
RTVSPost2010PropOp54
 70
     1
102
RTVSPost2010Prop55
280
     0
102
RTVSPost2010PropOp55
 70
     1
102
RTVSPost2010Prop56
140
1.0
102
RTVSPost2010PropOp56
 70
     1
102
RTVSPost2010Prop57
140
1.0
102
RTVSPost2010PropOp57
 70
     1
102
RTVSPropertyOp0
 70
     1
102
RTVSPropertyOp1
 70
     1
102
RTVSPropertyOp2
 70
     1
102
RTVSPropertyOp3
 70
     1
102
RTVSPropertyOp4
 70
     1
102
RTVSPropertyOp5
 70
     1
102
RTVSPropertyOp6
 70
     1
102
RTVSPropertyOp7
 70
     1
102
RTVSPropertyOp8
 70
     1
102
RTVSPropertyOp9
 70
     1
102
RTVSPropertyOp10
 70
     1
102
RTVSPropertyOp11
 70
     1
102
RTVSPropertyOp12
 70
     1
102
RTVSPropertyOp13
 70
     1
102
RTVSPropertyOp14
 70
     1
102
RTVSPropertyOp15
 70
     1
102
RTVSPropertyOp16
 70
     1
102
RTVSPropertyOp17
 70
     1
102
RTVSPropertyOp18
 70
     1
102
RTVSPropertyOp19
 70
     1
102
RTVSPropertyOp20
 70
     1
102
RTVSPropertyOp21
 70
     1
102
RTVSPropertyOp22
 70
     1
102
RTVSPropertyOp23
 70
     1
102
RTVSPropertyOp24
 70
     1
102
RTVSPropertyOp25
 70
     1
102
RTVSPropertyOp26
 70
     1
102
RTVSPropertyOp27
 70
     1
102
RTVSPropertyOp28
 70
     1
102
RTVSPropertyOp29
 70
     1
102
RTVSPropertyOp30
 70
     1
102
RTVSPropertyOp31
 70
     1
102
RTVSPropertyOp32
 70
     1
102
RTVSPropertyOp33
 70
     1
102
RTVSPropertyOp34
 70
     1
102
RTVSPropertyOp35
 70
     1
102
RTVSPropertyOp36
 70
     1
102
RTVSPropertyOp37
 70
     1
102
RTVSPropertyOp38
 70
     1
102
RTVSPropertyOp39
 70
     1
102
RTVSPropertyOp40
 70
     1
102
RTVSPropertyOp41
 70
     1
102
RTVSPropertyOp42
 70
     1
102
RTVSPropertyOp43
 70
     1
102
RTVSPropertyOp44
 70
     1
102
RTVSPropertyOp45
 70
     1
102
RTVSPropertyOp46
 70
     1
102
RTVSPropertyOp47
 70
     1
102
RTVSPropertyOp48
 70
     1
102
RTVSPropertyOp49
 70
     1
102
RTVSPropertyOp50
 70
     1
102
RTVSPropertyOp51
 70
     0
102
RTVSPropertyOp52
 70
     0
102
RTVSPropertyOp53
 70
     1
102
RTVSPropertyOp54
 70
     1
102
RTVSPropertyOp55
 70
     1
102
RTVSPropertyOp56
 70
     1
102
RTVSPropertyOp57
 70
     1
102
RTVSPropertyOp58
 70
     1
102
RTVSPropertyOp59
 70
     1
102
RTVSPropertyOp60
 70
     1
102
RTVSPropertyOp61
 70
     1
102
RTVSPropertyOp62
 70
     1
  0
XRECORD
  5
83F5
102
{ACAD_REACTORS
330
83F4
102
}
330
83F4
100
AcDbXrecord
280
     1
102
RTVSPost2010Prop28
280
     0
102
RTVSPost2010PropOp28
 70
     1
102
RTVSPost2010Prop29
280
     1
102
RTVSPost2010PropOp29
 70
     1
102
RTVSPost2010Prop30
280
     1
102
RTVSPost2010PropOp30
 70
     1
102
RTVSPost2010Prop31
280
     0
102
RTVSPost2010PropOp31
 70
     1
102
RTVSPost2010Prop32
280
     0
102
RTVSPost2010PropOp32
 70
     1
102
RTVSPost2010Prop33
280
     0
102
RTVSPost2010PropOp33
 70
     1
102
RTVSPost2010Prop34
280
     0
102
RTVSPost2010PropOp34
 70
     1
102
RTVSPost2010Prop35
280
     0
102
RTVSPost2010PropOp35
 70
     1
102
RTVSPost2010Prop36
280
     0
102
RTVSPost2010PropOp36
 70
     1
102
RTVSPost2010Prop37
 90
       50
102
RTVSPost2010PropOp37
 70
     1
102
RTVSPost2010Prop38
140
0.0
102
RTVSPost2010PropOp38
 70
     1
102
RTVSPost2010Prop39
140
1.0
102
RTVSPost2010PropOp39
 70
     1
102
RTVSPost2010Prop40
 90
        0
102
RTVSPost2010PropOp40
 70
     1
102
RTVSPost2010Prop41ColorIndex
 90
       18
102
RTVSPost2010Prop41ColorRGB
 90
        0
102
RTVSPost2010PropOp41
 70
     1
102
RTVSPost2010Prop42
 90
       50
102
RTVSPost2010PropOp42
 70
     1
102
RTVSPost2010Prop43
 90
        3
102
RTVSPost2010PropOp43
 70
     1
102
RTVSPost2010Prop44ColorIndex
 90
        5
102
RTVSPost2010Prop44ColorRGB
 90
      255
102
RTVSPost2010PropOp44
 70
     1
102
RTVSPost2010Prop45
280
     0
102
RTVSPost2010PropOp45
 70
     1
102
RTVSPost2010Prop46
 90
       50
102
RTVSPost2010PropOp46
 70
     1
102
RTVSPost2010Prop47
 90
       50
102
RTVSPost2010PropOp47
 70
     1
102
RTVSPost2010Prop48
 90
       50
102
RTVSPost2010PropOp48
 70
     1
102
RTVSPost2010Prop49
280
     0
102
RTVSPost2010PropOp49
 70
     1
102
RTVSPost2010Prop50
 90
       50
102
RTVSPost2010PropOp50
 70
     1
102
RTVSPost2010Prop51ColorIndex
 90
      256
102
RTVSPost2010Prop51ColorRGB
 90
-16777216
102
RTVSPost2010PropOp51
 70
     0
102
RTVSPost2010Prop52
140
1.0
102
RTVSPost2010PropOp52
 70
     0
102
RTVSPost2010Prop53
 90
        2
102
RTVSPost2010PropOp53
 70
     1
102
RTVSPost2010Prop54
  1
strokes_ogs.tif
102
RTVSPost2010PropOp54
 70
     1
102
RTVSPost2010Prop55
280
     0
102
RTVSPost2010PropOp55
 70
     1
102
RTVSPost2010Prop56
140
1.0
102
RTVSPost2010PropOp56
 70
     1
102
RTVSPost2010Prop57
140
1.0
102
RTVSPost2010PropOp57
 70
     1
102
RTVSPropertyOp0
 70
     1
102
RTVSPropertyOp1
 70
     1
102
RTVSPropertyOp2
 70
     1
102
RTVSPropertyOp3
 70
     1
102
RTVSPropertyOp4
 70
     1
102
RTVSPropertyOp5
 70
     1
102
RTVSPropertyOp6
 70
     1
102
RTVSPropertyOp7
 70
     1
102
RTVSPropertyOp8
 70
     1
102
RTVSPropertyOp9
 70
     1
102
RTVSPropertyOp10
 70
     1
102
RTVSPropertyOp11
 70
     1
102
RTVSPropertyOp12
 70
     1
102
RTVSPropertyOp13
 70
     1
102
RTVSPropertyOp14
 70
     1
102
RTVSPropertyOp15
 70
     1
102
RTVSPropertyOp16
 70
     1
102
RTVSPropertyOp17
 70
     1
102
RTVSPropertyOp18
 70
     1
102
RTVSPropertyOp19
 70
     1
102
RTVSPropertyOp20
 70
     1
102
RTVSPropertyOp21
 70
     1
102
RTVSPropertyOp22
 70
     1
102
RTVSPropertyOp23
 70
     1
102
RTVSPropertyOp24
 70
     1
102
RTVSPropertyOp25
 70
     1
102
RTVSPropertyOp26
 70
     1
102
RTVSPropertyOp27
 70
     1
102
RTVSPropertyOp28
 70
     1
102
RTVSPropertyOp29
 70
     1
102
RTVSPropertyOp30
 70
     1
102
RTVSPropertyOp31
 70
     1
102
RTVSPropertyOp32
 70
     1
102
RTVSPropertyOp33
 70
     1
102
RTVSPropertyOp34
 70
     1
102
RTVSPropertyOp35
 70
     1
102
RTVSPropertyOp36
 70
     1
102
RTVSPropertyOp37
 70
     1
102
RTVSPropertyOp38
 70
     1
102
RTVSPropertyOp39
 70
     1
102
RTVSPropertyOp40
 70
     1
102
RTVSPropertyOp41
 70
     1
102
RTVSPropertyOp42
 70
     1
102
RTVSPropertyOp43
 70
     1
102
RTVSPropertyOp44
 70
     1
102
RTVSPropertyOp45
 70
     1
102
RTVSPropertyOp46
 70
     1
102
RTVSPropertyOp47
 70
     1
102
RTVSPropertyOp48
 70
     1
102
RTVSPropertyOp49
 70
     1
102
RTVSPropertyOp50
 70
     1
102
RTVSPropertyOp51
 70
     0
102
RTVSPropertyOp52
 70
     0
102
RTVSPropertyOp53
 70
     1
102
RTVSPropertyOp54
 70
     1
102
RTVSPropertyOp55
 70
     1
102
RTVSPropertyOp56
 70
     1
102
RTVSPropertyOp57
 70
     1
102
RTVSPropertyOp58
 70
     1
102
RTVSPropertyOp59
 70
     1
102
RTVSPropertyOp60
 70
     1
102
RTVSPropertyOp61
 70
     1
102
RTVSPropertyOp62
 70
     1
  0
XRECORD
  5
83F7
102
{ACAD_REACTORS
330
83F6
102
}
330
83F6
100
AcDbXrecord
280
     1
102
RTVSPost2010Prop28
280
     0
102
RTVSPost2010PropOp28
 70
     1
102
RTVSPost2010Prop29
280
     1
102
RTVSPost2010PropOp29
 70
     1
102
RTVSPost2010Prop30
280
     1
102
RTVSPost2010PropOp30
 70
     1
102
RTVSPost2010Prop31
280
     0
102
RTVSPost2010PropOp31
 70
     1
102
RTVSPost2010Prop32
280
     0
102
RTVSPost2010PropOp32
 70
     1
102
RTVSPost2010Prop33
280
     0
102
RTVSPost2010PropOp33
 70
     1
102
RTVSPost2010Prop34
280
     0
102
RTVSPost2010PropOp34
 70
     1
102
RTVSPost2010Prop35
280
     0
102
RTVSPost2010PropOp35
 70
     1
102
RTVSPost2010Prop36
280
     0
102
RTVSPost2010PropOp36
 70
     1
102
RTVSPost2010Prop37
 90
       50
102
RTVSPost2010PropOp37
 70
     1
102
RTVSPost2010Prop38
140
0.0
102
RTVSPost2010PropOp38
 70
     1
102
RTVSPost2010Prop39
140
1.0
102
RTVSPost2010PropOp39
 70
     1
102
RTVSPost2010Prop40
 90
        0
102
RTVSPost2010PropOp40
 70
     1
102
RTVSPost2010Prop41ColorIndex
 90
       18
102
RTVSPost2010Prop41ColorRGB
 90
        0
102
RTVSPost2010PropOp41
 70
     1
102
RTVSPost2010Prop42
 90
       50
102
RTVSPost2010PropOp42
 70
     1
102
RTVSPost2010Prop43
 90
        3
102
RTVSPost2010PropOp43
 70
     1
102
RTVSPost2010Prop44ColorIndex
 90
        5
102
RTVSPost2010Prop44ColorRGB
 90
      255
102
RTVSPost2010PropOp44
 70
     1
102
RTVSPost2010Prop45
280
     0
102
RTVSPost2010PropOp45
 70
     1
102
RTVSPost2010Prop46
 90
       50
102
RTVSPost2010PropOp46
 70
     1
102
RTVSPost2010Prop47
 90
       50
102
RTVSPost2010PropOp47
 70
     1
102
RTVSPost2010Prop48
 90
       50
102
RTVSPost2010PropOp48
 70
     1
102
RTVSPost2010Prop49
280
     0
102
RTVSPost2010PropOp49
 70
     1
102
RTVSPost2010Prop50
 90
       50
102
RTVSPost2010PropOp50
 70
     1
102
RTVSPost2010Prop51ColorIndex
 90
      256
102
RTVSPost2010Prop51ColorRGB
 90
-16777216
102
RTVSPost2010PropOp51
 70
     0
102
RTVSPost2010Prop52
140
1.0
102
RTVSPost2010PropOp52
 70
     0
102
RTVSPost2010Prop53
 90
        2
102
RTVSPost2010PropOp53
 70
     1
102
RTVSPost2010Prop54
  1
strokes_ogs.tif
102
RTVSPost2010PropOp54
 70
     1
102
RTVSPost2010Prop55
280
     0
102
RTVSPost2010PropOp55
 70
     1
102
RTVSPost2010Prop56
140
1.0
102
RTVSPost2010PropOp56
 70
     1
102
RTVSPost2010Prop57
140
1.0
102
RTVSPost2010PropOp57
 70
     1
102
RTVSPropertyOp0
 70
     1
102
RTVSPropertyOp1
 70
     1
102
RTVSPropertyOp2
 70
     1
102
RTVSPropertyOp3
 70
     1
102
RTVSPropertyOp4
 70
     1
102
RTVSPropertyOp5
 70
     1
102
RTVSPropertyOp6
 70
     1
102
RTVSPropertyOp7
 70
     1
102
RTVSPropertyOp8
 70
     1
102
RTVSPropertyOp9
 70
     1
102
RTVSPropertyOp10
 70
     1
102
RTVSPropertyOp11
 70
     1
102
RTVSPropertyOp12
 70
     1
102
RTVSPropertyOp13
 70
     1
102
RTVSPropertyOp14
 70
     1
102
RTVSPropertyOp15
 70
     1
102
RTVSPropertyOp16
 70
     1
102
RTVSPropertyOp17
 70
     1
102
RTVSPropertyOp18
 70
     1
102
RTVSPropertyOp19
 70
     1
102
RTVSPropertyOp20
 70
     1
102
RTVSPropertyOp21
 70
     1
102
RTVSPropertyOp22
 70
     1
102
RTVSPropertyOp23
 70
     1
102
RTVSPropertyOp24
 70
     1
102
RTVSPropertyOp25
 70
     1
102
RTVSPropertyOp26
 70
     1
102
RTVSPropertyOp27
 70
     1
102
RTVSPropertyOp28
 70
     1
102
RTVSPropertyOp29
 70
     1
102
RTVSPropertyOp30
 70
     1
102
RTVSPropertyOp31
 70
     1
102
RTVSPropertyOp32
 70
     1
102
RTVSPropertyOp33
 70
     1
102
RTVSPropertyOp34
 70
     1
102
RTVSPropertyOp35
 70
     1
102
RTVSPropertyOp36
 70
     1
102
RTVSPropertyOp37
 70
     1
102
RTVSPropertyOp38
 70
     1
102
RTVSPropertyOp39
 70
     1
102
RTVSPropertyOp40
 70
     1
102
RTVSPropertyOp41
 70
     1
102
RTVSPropertyOp42
 70
     1
102
RTVSPropertyOp43
 70
     1
102
RTVSPropertyOp44
 70
     1
102
RTVSPropertyOp45
 70
     1
102
RTVSPropertyOp46
 70
     1
102
RTVSPropertyOp47
 70
     1
102
RTVSPropertyOp48
 70
     1
102
RTVSPropertyOp49
 70
     1
102
RTVSPropertyOp50
 70
     1
102
RTVSPropertyOp51
 70
     0
102
RTVSPropertyOp52
 70
     0
102
RTVSPropertyOp53
 70
     1
102
RTVSPropertyOp54
 70
     1
102
RTVSPropertyOp55
 70
     1
102
RTVSPropertyOp56
 70
     1
102
RTVSPropertyOp57
 70
     1
102
RTVSPropertyOp58
 70
     1
102
RTVSPropertyOp59
 70
     1
102
RTVSPropertyOp60
 70
     1
102
RTVSPropertyOp61
 70
     1
102
RTVSPropertyOp62
 70
     1
  0
XRECORD
  5
83F9
102
{ACAD_REACTORS
330
83F8
102
}
330
83F8
100
AcDbXrecord
280
     1
102
RTVSPost2010Prop28
280
     0
102
RTVSPost2010PropOp28
 70
     1
102
RTVSPost2010Prop29
280
     1
102
RTVSPost2010PropOp29
 70
     1
102
RTVSPost2010Prop30
280
     1
102
RTVSPost2010PropOp30
 70
     1
102
RTVSPost2010Prop31
280
     0
102
RTVSPost2010PropOp31
 70
     1
102
RTVSPost2010Prop32
280
     0
102
RTVSPost2010PropOp32
 70
     1
102
RTVSPost2010Prop33
280
     0
102
RTVSPost2010PropOp33
 70
     1
102
RTVSPost2010Prop34
280
     0
102
RTVSPost2010PropOp34
 70
     1
102
RTVSPost2010Prop35
280
     0
102
RTVSPost2010PropOp35
 70
     1
102
RTVSPost2010Prop36
280
     0
102
RTVSPost2010PropOp36
 70
     1
102
RTVSPost2010Prop37
 90
       50
102
RTVSPost2010PropOp37
 70
     1
102
RTVSPost2010Prop38
140
0.0
102
RTVSPost2010PropOp38
 70
     1
102
RTVSPost2010Prop39
140
1.0
102
RTVSPost2010PropOp39
 70
     1
102
RTVSPost2010Prop40
 90
        0
102
RTVSPost2010PropOp40
 70
     1
102
RTVSPost2010Prop41ColorIndex
 90
       18
102
RTVSPost2010Prop41ColorRGB
 90
        0
102
RTVSPost2010PropOp41
 70
     1
102
RTVSPost2010Prop42
 90
       50
102
RTVSPost2010PropOp42
 70
     1
102
RTVSPost2010Prop43
 90
        3
102
RTVSPost2010PropOp43
 70
     1
102
RTVSPost2010Prop44ColorIndex
 90
        5
102
RTVSPost2010Prop44ColorRGB
 90
      255
102
RTVSPost2010PropOp44
 70
     1
102
RTVSPost2010Prop45
280
     0
102
RTVSPost2010PropOp45
 70
     1
102
RTVSPost2010Prop46
 90
       50
102
RTVSPost2010PropOp46
 70
     1
102
RTVSPost2010Prop47
 90
       50
102
RTVSPost2010PropOp47
 70
     1
102
RTVSPost2010Prop48
 90
       50
102
RTVSPost2010PropOp48
 70
     1
102
RTVSPost2010Prop49
280
     0
102
RTVSPost2010PropOp49
 70
     1
102
RTVSPost2010Prop50
 90
       50
102
RTVSPost2010PropOp50
 70
     1
102
RTVSPost2010Prop51ColorIndex
 90
      256
102
RTVSPost2010Prop51ColorRGB
 90
-16777216
102
RTVSPost2010PropOp51
 70
     0
102
RTVSPost2010Prop52
140
1.0
102
RTVSPost2010PropOp52
 70
     0
102
RTVSPost2010Prop53
 90
        2
102
RTVSPost2010PropOp53
 70
     1
102
RTVSPost2010Prop54
  1
strokes_ogs.tif
102
RTVSPost2010PropOp54
 70
     1
102
RTVSPost2010Prop55
280
     0
102
RTVSPost2010PropOp55
 70
     1
102
RTVSPost2010Prop56
140
1.0
102
RTVSPost2010PropOp56
 70
     1
102
RTVSPost2010Prop57
140
1.0
102
RTVSPost2010PropOp57
 70
     1
102
RTVSPropertyOp0
 70
     1
102
RTVSPropertyOp1
 70
     1
102
RTVSPropertyOp2
 70
     1
102
RTVSPropertyOp3
 70
     1
102
RTVSPropertyOp4
 70
     1
102
RTVSPropertyOp5
 70
     1
102
RTVSPropertyOp6
 70
     1
102
RTVSPropertyOp7
 70
     1
102
RTVSPropertyOp8
 70
     1
102
RTVSPropertyOp9
 70
     1
102
RTVSPropertyOp10
 70
     1
102
RTVSPropertyOp11
 70
     1
102
RTVSPropertyOp12
 70
     1
102
RTVSPropertyOp13
 70
     1
102
RTVSPropertyOp14
 70
     1
102
RTVSPropertyOp15
 70
     1
102
RTVSPropertyOp16
 70
     1
102
RTVSPropertyOp17
 70
     1
102
RTVSPropertyOp18
 70
     1
102
RTVSPropertyOp19
 70
     1
102
RTVSPropertyOp20
 70
     1
102
RTVSPropertyOp21
 70
     1
102
RTVSPropertyOp22
 70
     1
102
RTVSPropertyOp23
 70
     1
102
RTVSPropertyOp24
 70
     1
102
RTVSPropertyOp25
 70
     1
102
RTVSPropertyOp26
 70
     1
102
RTVSPropertyOp27
 70
     1
102
RTVSPropertyOp28
 70
     1
102
RTVSPropertyOp29
 70
     1
102
RTVSPropertyOp30
 70
     1
102
RTVSPropertyOp31
 70
     1
102
RTVSPropertyOp32
 70
     1
102
RTVSPropertyOp33
 70
     1
102
RTVSPropertyOp34
 70
     1
102
RTVSPropertyOp35
 70
     1
102
RTVSPropertyOp36
 70
     1
102
RTVSPropertyOp37
 70
     1
102
RTVSPropertyOp38
 70
     1
102
RTVSPropertyOp39
 70
     1
102
RTVSPropertyOp40
 70
     1
102
RTVSPropertyOp41
 70
     1
102
RTVSPropertyOp42
 70
     1
102
RTVSPropertyOp43
 70
     1
102
RTVSPropertyOp44
 70
     1
102
RTVSPropertyOp45
 70
     1
102
RTVSPropertyOp46
 70
     1
102
RTVSPropertyOp47
 70
     1
102
RTVSPropertyOp48
 70
     1
102
RTVSPropertyOp49
 70
     1
102
RTVSPropertyOp50
 70
     1
102
RTVSPropertyOp51
 70
     0
102
RTVSPropertyOp52
 70
     0
102
RTVSPropertyOp53
 70
     1
102
RTVSPropertyOp54
 70
     1
102
RTVSPropertyOp55
 70
     1
102
RTVSPropertyOp56
 70
     1
102
RTVSPropertyOp57
 70
     1
102
RTVSPropertyOp58
 70
     1
102
RTVSPropertyOp59
 70
     1
102
RTVSPropertyOp60
 70
     1
102
RTVSPropertyOp61
 70
     1
102
RTVSPropertyOp62
 70
     1
  0
XRECORD
  5
83FB
102
{ACAD_REACTORS
330
83FA
102
}
330
83FA
100
AcDbXrecord
280
     1
102
RTVSPost2010Prop28
280
     0
102
RTVSPost2010PropOp28
 70
     1
102
RTVSPost2010Prop29
280
     1
102
RTVSPost2010PropOp29
 70
     1
102
RTVSPost2010Prop30
280
     1
102
RTVSPost2010PropOp30
 70
     1
102
RTVSPost2010Prop31
280
     0
102
RTVSPost2010PropOp31
 70
     1
102
RTVSPost2010Prop32
280
     0
102
RTVSPost2010PropOp32
 70
     1
102
RTVSPost2010Prop33
280
     0
102
RTVSPost2010PropOp33
 70
     1
102
RTVSPost2010Prop34
280
     0
102
RTVSPost2010PropOp34
 70
     1
102
RTVSPost2010Prop35
280
     0
102
RTVSPost2010PropOp35
 70
     1
102
RTVSPost2010Prop36
280
     0
102
RTVSPost2010PropOp36
 70
     1
102
RTVSPost2010Prop37
 90
       50
102
RTVSPost2010PropOp37
 70
     1
102
RTVSPost2010Prop38
140
0.0
102
RTVSPost2010PropOp38
 70
     1
102
RTVSPost2010Prop39
140
1.0
102
RTVSPost2010PropOp39
 70
     1
102
RTVSPost2010Prop40
 90
        0
102
RTVSPost2010PropOp40
 70
     1
102
RTVSPost2010Prop41ColorIndex
 90
       18
102
RTVSPost2010Prop41ColorRGB
 90
        0
102
RTVSPost2010PropOp41
 70
     1
102
RTVSPost2010Prop42
 90
       50
102
RTVSPost2010PropOp42
 70
     1
102
RTVSPost2010Prop43
 90
        3
102
RTVSPost2010PropOp43
 70
     1
102
RTVSPost2010Prop44ColorIndex
 90
        5
102
RTVSPost2010Prop44ColorRGB
 90
      255
102
RTVSPost2010PropOp44
 70
     1
102
RTVSPost2010Prop45
280
     0
102
RTVSPost2010PropOp45
 70
     1
102
RTVSPost2010Prop46
 90
       50
102
RTVSPost2010PropOp46
 70
     1
102
RTVSPost2010Prop47
 90
       50
102
RTVSPost2010PropOp47
 70
     1
102
RTVSPost2010Prop48
 90
       50
102
RTVSPost2010PropOp48
 70
     1
102
RTVSPost2010Prop49
280
     0
102
RTVSPost2010PropOp49
 70
     1
102
RTVSPost2010Prop50
 90
       50
102
RTVSPost2010PropOp50
 70
     1
102
RTVSPost2010Prop51ColorIndex
 90
      256
102
RTVSPost2010Prop51ColorRGB
 90
-16777216
102
RTVSPost2010PropOp51
 70
     0
102
RTVSPost2010Prop52
140
1.0
102
RTVSPost2010PropOp52
 70
     0
102
RTVSPost2010Prop53
 90
        2
102
RTVSPost2010PropOp53
 70
     1
102
RTVSPost2010Prop54
  1
strokes_ogs.tif
102
RTVSPost2010PropOp54
 70
     1
102
RTVSPost2010Prop55
280
     0
102
RTVSPost2010PropOp55
 70
     1
102
RTVSPost2010Prop56
140
1.0
102
RTVSPost2010PropOp56
 70
     1
102
RTVSPost2010Prop57
140
1.0
102
RTVSPost2010PropOp57
 70
     1
102
RTVSPropertyOp0
 70
     1
102
RTVSPropertyOp1
 70
     1
102
RTVSPropertyOp2
 70
     1
102
RTVSPropertyOp3
 70
     1
102
RTVSPropertyOp4
 70
     1
102
RTVSPropertyOp5
 70
     1
102
RTVSPropertyOp6
 70
     1
102
RTVSPropertyOp7
 70
     1
102
RTVSPropertyOp8
 70
     1
102
RTVSPropertyOp9
 70
     1
102
RTVSPropertyOp10
 70
     1
102
RTVSPropertyOp11
 70
     1
102
RTVSPropertyOp12
 70
     1
102
RTVSPropertyOp13
 70
     1
102
RTVSPropertyOp14
 70
     1
102
RTVSPropertyOp15
 70
     1
102
RTVSPropertyOp16
 70
     1
102
RTVSPropertyOp17
 70
     1
102
RTVSPropertyOp18
 70
     1
102
RTVSPropertyOp19
 70
     1
102
RTVSPropertyOp20
 70
     1
102
RTVSPropertyOp21
 70
     1
102
RTVSPropertyOp22
 70
     1
102
RTVSPropertyOp23
 70
     1
102
RTVSPropertyOp24
 70
     1
102
RTVSPropertyOp25
 70
     1
102
RTVSPropertyOp26
 70
     1
102
RTVSPropertyOp27
 70
     1
102
RTVSPropertyOp28
 70
     1
102
RTVSPropertyOp29
 70
     1
102
RTVSPropertyOp30
 70
     1
102
RTVSPropertyOp31
 70
     1
102
RTVSPropertyOp32
 70
     1
102
RTVSPropertyOp33
 70
     1
102
RTVSPropertyOp34
 70
     1
102
RTVSPropertyOp35
 70
     1
102
RTVSPropertyOp36
 70
     1
102
RTVSPropertyOp37
 70
     1
102
RTVSPropertyOp38
 70
     1
102
RTVSPropertyOp39
 70
     1
102
RTVSPropertyOp40
 70
     1
102
RTVSPropertyOp41
 70
     1
102
RTVSPropertyOp42
 70
     1
102
RTVSPropertyOp43
 70
     1
102
RTVSPropertyOp44
 70
     1
102
RTVSPropertyOp45
 70
     1
102
RTVSPropertyOp46
 70
     1
102
RTVSPropertyOp47
 70
     1
102
RTVSPropertyOp48
 70
     1
102
RTVSPropertyOp49
 70
     1
102
RTVSPropertyOp50
 70
     1
102
RTVSPropertyOp51
 70
     0
102
RTVSPropertyOp52
 70
     0
102
RTVSPropertyOp53
 70
     1
102
RTVSPropertyOp54
 70
     1
102
RTVSPropertyOp55
 70
     1
102
RTVSPropertyOp56
 70
     1
102
RTVSPropertyOp57
 70
     1
102
RTVSPropertyOp58
 70
     1
102
RTVSPropertyOp59
 70
     1
102
RTVSPropertyOp60
 70
     1
102
RTVSPropertyOp61
 70
     1
102
RTVSPropertyOp62
 70
     1
  0
XRECORD
  5
8403
102
{ACAD_REACTORS
330
8402
102
}
330
8402
100
AcDbXrecord
280
     1
102
RTVSPost2010Prop28
280
     0
102
RTVSPost2010PropOp28
 70
     1
102
RTVSPost2010Prop29
280
     1
102
RTVSPost2010PropOp29
 70
     1
102
RTVSPost2010Prop30
280
     1
102
RTVSPost2010PropOp30
 70
     1
102
RTVSPost2010Prop31
280
     0
102
RTVSPost2010PropOp31
 70
     1
102
RTVSPost2010Prop32
280
     0
102
RTVSPost2010PropOp32
 70
     1
102
RTVSPost2010Prop33
280
     0
102
RTVSPost2010PropOp33
 70
     1
102
RTVSPost2010Prop34
280
     0
102
RTVSPost2010PropOp34
 70
     1
102
RTVSPost2010Prop35
280
     0
102
RTVSPost2010PropOp35
 70
     1
102
RTVSPost2010Prop36
280
     0
102
RTVSPost2010PropOp36
 70
     1
102
RTVSPost2010Prop37
 90
       50
102
RTVSPost2010PropOp37
 70
     1
102
RTVSPost2010Prop38
140
0.0
102
RTVSPost2010PropOp38
 70
     1
102
RTVSPost2010Prop39
140
1.0
102
RTVSPost2010PropOp39
 70
     1
102
RTVSPost2010Prop40
 90
        0
102
RTVSPost2010PropOp40
 70
     1
102
RTVSPost2010Prop41ColorIndex
 90
       18
102
RTVSPost2010Prop41ColorRGB
 90
        0
102
RTVSPost2010PropOp41
 70
     1
102
RTVSPost2010Prop42
 90
       50
102
RTVSPost2010PropOp42
 70
     1
102
RTVSPost2010Prop43
 90
        3
102
RTVSPost2010PropOp43
 70
     1
102
RTVSPost2010Prop44ColorIndex
 90
        5
102
RTVSPost2010Prop44ColorRGB
 90
      255
102
RTVSPost2010PropOp44
 70
     1
102
RTVSPost2010Prop45
280
     0
102
RTVSPost2010PropOp45
 70
     1
102
RTVSPost2010Prop46
 90
       50
102
RTVSPost2010PropOp46
 70
     1
102
RTVSPost2010Prop47
 90
       50
102
RTVSPost2010PropOp47
 70
     1
102
RTVSPost2010Prop48
 90
       50
102
RTVSPost2010PropOp48
 70
     1
102
RTVSPost2010Prop49
280
     0
102
RTVSPost2010PropOp49
 70
     1
102
RTVSPost2010Prop50
 90
       50
102
RTVSPost2010PropOp50
 70
     1
102
RTVSPost2010Prop51ColorIndex
 90
      256
102
RTVSPost2010Prop51ColorRGB
 90
-16777216
102
RTVSPost2010PropOp51
 70
     0
102
RTVSPost2010Prop52
140
1.0
102
RTVSPost2010PropOp52
 70
     0
102
RTVSPost2010Prop53
 90
        2
102
RTVSPost2010PropOp53
 70
     1
102
RTVSPost2010Prop54
  1
strokes_ogs.tif
102
RTVSPost2010PropOp54
 70
     1
102
RTVSPost2010Prop55
280
     0
102
RTVSPost2010PropOp55
 70
     1
102
RTVSPost2010Prop56
140
1.0
102
RTVSPost2010PropOp56
 70
     1
102
RTVSPost2010Prop57
140
1.0
102
RTVSPost2010PropOp57
 70
     1
102
RTVSPropertyOp0
 70
     1
102
RTVSPropertyOp1
 70
     1
102
RTVSPropertyOp2
 70
     1
102
RTVSPropertyOp3
 70
     1
102
RTVSPropertyOp4
 70
     1
102
RTVSPropertyOp5
 70
     1
102
RTVSPropertyOp6
 70
     1
102
RTVSPropertyOp7
 70
     1
102
RTVSPropertyOp8
 70
     1
102
RTVSPropertyOp9
 70
     1
102
RTVSPropertyOp10
 70
     1
102
RTVSPropertyOp11
 70
     1
102
RTVSPropertyOp12
 70
     1
102
RTVSPropertyOp13
 70
     1
102
RTVSPropertyOp14
 70
     1
102
RTVSPropertyOp15
 70
     1
102
RTVSPropertyOp16
 70
     1
102
RTVSPropertyOp17
 70
     1
102
RTVSPropertyOp18
 70
     1
102
RTVSPropertyOp19
 70
     1
102
RTVSPropertyOp20
 70
     1
102
RTVSPropertyOp21
 70
     1
102
RTVSPropertyOp22
 70
     1
102
RTVSPropertyOp23
 70
     1
102
RTVSPropertyOp24
 70
     1
102
RTVSPropertyOp25
 70
     1
102
RTVSPropertyOp26
 70
     1
102
RTVSPropertyOp27
 70
     1
102
RTVSPropertyOp28
 70
     1
102
RTVSPropertyOp29
 70
     1
102
RTVSPropertyOp30
 70
     1
102
RTVSPropertyOp31
 70
     1
102
RTVSPropertyOp32
 70
     1
102
RTVSPropertyOp33
 70
     1
102
RTVSPropertyOp34
 70
     1
102
RTVSPropertyOp35
 70
     1
102
RTVSPropertyOp36
 70
     1
102
RTVSPropertyOp37
 70
     1
102
RTVSPropertyOp38
 70
     1
102
RTVSPropertyOp39
 70
     1
102
RTVSPropertyOp40
 70
     1
102
RTVSPropertyOp41
 70
     1
102
RTVSPropertyOp42
 70
     1
102
RTVSPropertyOp43
 70
     1
102
RTVSPropertyOp44
 70
     1
102
RTVSPropertyOp45
 70
     1
102
RTVSPropertyOp46
 70
     1
102
RTVSPropertyOp47
 70
     1
102
RTVSPropertyOp48
 70
     1
102
RTVSPropertyOp49
 70
     1
102
RTVSPropertyOp50
 70
     1
102
RTVSPropertyOp51
 70
     0
102
RTVSPropertyOp52
 70
     0
102
RTVSPropertyOp53
 70
     1
102
RTVSPropertyOp54
 70
     1
102
RTVSPropertyOp55
 70
     1
102
RTVSPropertyOp56
 70
     1
102
RTVSPropertyOp57
 70
     1
102
RTVSPropertyOp58
 70
     1
102
RTVSPropertyOp59
 70
     1
102
RTVSPropertyOp60
 70
     1
102
RTVSPropertyOp61
 70
     1
102
RTVSPropertyOp62
 70
     1
  0
XRECORD
  5
841F
102
{ACAD_REACTORS
330
841E
102
}
330
841E
100
AcDbXrecord
280
     1
102
RTVSPost2010Prop28
280
     0
102
RTVSPost2010PropOp28
 70
     1
102
RTVSPost2010Prop29
280
     1
102
RTVSPost2010PropOp29
 70
     1
102
RTVSPost2010Prop30
280
     1
102
RTVSPost2010PropOp30
 70
     1
102
RTVSPost2010Prop31
280
     0
102
RTVSPost2010PropOp31
 70
     1
102
RTVSPost2010Prop32
280
     0
102
RTVSPost2010PropOp32
 70
     1
102
RTVSPost2010Prop33
280
     0
102
RTVSPost2010PropOp33
 70
     1
102
RTVSPost2010Prop34
280
     0
102
RTVSPost2010PropOp34
 70
     1
102
RTVSPost2010Prop35
280
     0
102
RTVSPost2010PropOp35
 70
     1
102
RTVSPost2010Prop36
280
     0
102
RTVSPost2010PropOp36
 70
     1
102
RTVSPost2010Prop37
 90
       50
102
RTVSPost2010PropOp37
 70
     0
102
RTVSPost2010Prop38
140
0.0
102
RTVSPost2010PropOp38
 70
     0
102
RTVSPost2010Prop39
140
1.0
102
RTVSPost2010PropOp39
 70
     0
102
RTVSPost2010Prop40
 90
        0
102
RTVSPost2010PropOp40
 70
     0
102
RTVSPost2010Prop41ColorIndex
 90
       18
102
RTVSPost2010Prop41ColorRGB
 90
        0
102
RTVSPost2010PropOp41
 70
     0
102
RTVSPost2010Prop42
 90
       50
102
RTVSPost2010PropOp42
 70
     0
102
RTVSPost2010Prop43
 90
        3
102
RTVSPost2010PropOp43
 70
     0
102
RTVSPost2010Prop44ColorIndex
 90
        5
102
RTVSPost2010Prop44ColorRGB
 90
      255
102
RTVSPost2010PropOp44
 70
     0
102
RTVSPost2010Prop45
280
     0
102
RTVSPost2010PropOp45
 70
     1
102
RTVSPost2010Prop46
 90
       50
102
RTVSPost2010PropOp46
 70
     0
102
RTVSPost2010Prop47
 90
       50
102
RTVSPost2010PropOp47
 70
     0
102
RTVSPost2010Prop48
 90
       50
102
RTVSPost2010PropOp48
 70
     0
102
RTVSPost2010Prop49
280
     0
102
RTVSPost2010PropOp49
 70
     1
102
RTVSPost2010Prop50
 90
       50
102
RTVSPost2010PropOp50
 70
     0
102
RTVSPost2010Prop51ColorIndex
 90
      256
102
RTVSPost2010Prop51ColorRGB
 90
-16777216
102
RTVSPost2010PropOp51
 70
     0
102
RTVSPost2010Prop52
140
1.0
102
RTVSPost2010PropOp52
 70
     0
102
RTVSPost2010Prop53
 90
        2
102
RTVSPost2010PropOp53
 70
     0
102
RTVSPost2010Prop54
  1
strokes_ogs.tif
102
RTVSPost2010PropOp54
 70
     0
102
RTVSPost2010Prop55
280
     0
102
RTVSPost2010PropOp55
 70
     1
102
RTVSPost2010Prop56
140
1.0
102
RTVSPost2010PropOp56
 70
     0
102
RTVSPost2010Prop57
140
1.0
102
RTVSPost2010PropOp57
 70
     0
102
RTVSPropertyOp0
 70
     0
102
RTVSPropertyOp1
 70
     0
102
RTVSPropertyOp2
 70
     0
102
RTVSPropertyOp3
 70
     0
102
RTVSPropertyOp4
 70
     0
102
RTVSPropertyOp5
 70
     0
102
RTVSPropertyOp6
 70
     0
102
RTVSPropertyOp7
 70
     0
102
RTVSPropertyOp8
 70
     0
102
RTVSPropertyOp9
 70
     0
102
RTVSPropertyOp10
 70
     0
102
RTVSPropertyOp11
 70
     0
102
RTVSPropertyOp12
 70
     0
102
RTVSPropertyOp13
 70
     0
102
RTVSPropertyOp14
 70
     2
102
RTVSPropertyOp15
 70
     0
102
RTVSPropertyOp16
 70
     0
102
RTVSPropertyOp17
 70
     0
102
RTVSPropertyOp18
 70
     0
102
RTVSPropertyOp19
 70
     0
102
RTVSPropertyOp20
 70
     0
102
RTVSPropertyOp21
 70
     0
102
RTVSPropertyOp22
 70
     0
102
RTVSPropertyOp23
 70
     0
102
RTVSPropertyOp24
 70
     0
102
RTVSPropertyOp25
 70
     0
102
RTVSPropertyOp26
 70
     0
102
RTVSPropertyOp27
 70
     0
102
RTVSPropertyOp28
 70
     1
102
RTVSPropertyOp29
 70
     1
102
RTVSPropertyOp30
 70
     1
102
RTVSPropertyOp31
 70
     1
102
RTVSPropertyOp32
 70
     1
102
RTVSPropertyOp33
 70
     1
102
RTVSPropertyOp34
 70
     1
102
RTVSPropertyOp35
 70
     1
102
RTVSPropertyOp36
 70
     1
102
RTVSPropertyOp37
 70
     0
102
RTVSPropertyOp38
 70
     0
102
RTVSPropertyOp39
 70
     0
102
RTVSPropertyOp40
 70
     0
102
RTVSPropertyOp41
 70
     0
102
RTVSPropertyOp42
 70
     0
102
RTVSPropertyOp43
 70
     0
102
RTVSPropertyOp44
 70
     0
102
RTVSPropertyOp45
 70
     1
102
RTVSPropertyOp46
 70
     0
102
RTVSPropertyOp47
 70
     0
102
RTVSPropertyOp48
 70
     0
102
RTVSPropertyOp49
 70
     1
102
RTVSPropertyOp50
 70
     0
102
RTVSPropertyOp51
 70
     0
102
RTVSPropertyOp52
 70
     0
102
RTVSPropertyOp53
 70
     0
102
RTVSPropertyOp54
 70
     0
102
RTVSPropertyOp55
 70
     1
102
RTVSPropertyOp56
 70
     0
102
RTVSPropertyOp57
 70
     0
102
RTVSPropertyOp58
 70
     0
102
RTVSPropertyOp59
 70
     0
102
RTVSPropertyOp60
 70
     0
102
RTVSPropertyOp61
 70
     0
102
RTVSPropertyOp62
 70
     0
  0
XRECORD
  5
840F
102
{ACAD_REACTORS
330
840E
102
}
330
840E
100
AcDbXrecord
280
     1
102
RTVSPost2010Prop28
280
     0
102
RTVSPost2010PropOp28
 70
     1
102
RTVSPost2010Prop29
280
     1
102
RTVSPost2010PropOp29
 70
     1
102
RTVSPost2010Prop30
280
     1
102
RTVSPost2010PropOp30
 70
     1
102
RTVSPost2010Prop31
280
     0
102
RTVSPost2010PropOp31
 70
     1
102
RTVSPost2010Prop32
280
     0
102
RTVSPost2010PropOp32
 70
     1
102
RTVSPost2010Prop33
280
     0
102
RTVSPost2010PropOp33
 70
     1
102
RTVSPost2010Prop34
280
     0
102
RTVSPost2010PropOp34
 70
     1
102
RTVSPost2010Prop35
280
     0
102
RTVSPost2010PropOp35
 70
     1
102
RTVSPost2010Prop36
280
     0
102
RTVSPost2010PropOp36
 70
     1
102
RTVSPost2010Prop37
 90
       50
102
RTVSPost2010PropOp37
 70
     1
102
RTVSPost2010Prop38
140
0.0
102
RTVSPost2010PropOp38
 70
     1
102
RTVSPost2010Prop39
140
1.0
102
RTVSPost2010PropOp39
 70
     1
102
RTVSPost2010Prop40
 90
        0
102
RTVSPost2010PropOp40
 70
     1
102
RTVSPost2010Prop41ColorIndex
 90
       18
102
RTVSPost2010Prop41ColorRGB
 90
        0
102
RTVSPost2010PropOp41
 70
     1
102
RTVSPost2010Prop42
 90
       50
102
RTVSPost2010PropOp42
 70
     1
102
RTVSPost2010Prop43
 90
        3
102
RTVSPost2010PropOp43
 70
     1
102
RTVSPost2010Prop44ColorIndex
 90
        5
102
RTVSPost2010Prop44ColorRGB
 90
      255
102
RTVSPost2010PropOp44
 70
     1
102
RTVSPost2010Prop45
280
     0
102
RTVSPost2010PropOp45
 70
     1
102
RTVSPost2010Prop46
 90
       50
102
RTVSPost2010PropOp46
 70
     1
102
RTVSPost2010Prop47
 90
       50
102
RTVSPost2010PropOp47
 70
     1
102
RTVSPost2010Prop48
 90
       50
102
RTVSPost2010PropOp48
 70
     1
102
RTVSPost2010Prop49
280
     0
102
RTVSPost2010PropOp49
 70
     1
102
RTVSPost2010Prop50
 90
       50
102
RTVSPost2010PropOp50
 70
     1
102
RTVSPost2010Prop51ColorIndex
 90
      256
102
RTVSPost2010Prop51ColorRGB
 90
-16777216
102
RTVSPost2010PropOp51
 70
     0
102
RTVSPost2010Prop52
140
1.0
102
RTVSPost2010PropOp52
 70
     0
102
RTVSPost2010Prop53
 90
        2
102
RTVSPost2010PropOp53
 70
     1
102
RTVSPost2010Prop54
  1
strokes_ogs.tif
102
RTVSPost2010PropOp54
 70
     1
102
RTVSPost2010Prop55
280
     0
102
RTVSPost2010PropOp55
 70
     1
102
RTVSPost2010Prop56
140
1.0
102
RTVSPost2010PropOp56
 70
     1
102
RTVSPost2010Prop57
140
1.0
102
RTVSPost2010PropOp57
 70
     1
102
RTVSPropertyOp0
 70
     1
102
RTVSPropertyOp1
 70
     1
102
RTVSPropertyOp2
 70
     1
102
RTVSPropertyOp3
 70
     1
102
RTVSPropertyOp4
 70
     1
102
RTVSPropertyOp5
 70
     1
102
RTVSPropertyOp6
 70
     1
102
RTVSPropertyOp7
 70
     1
102
RTVSPropertyOp8
 70
     1
102
RTVSPropertyOp9
 70
     1
102
RTVSPropertyOp10
 70
     1
102
RTVSPropertyOp11
 70
     1
102
RTVSPropertyOp12
 70
     1
102
RTVSPropertyOp13
 70
     1
102
RTVSPropertyOp14
 70
     1
102
RTVSPropertyOp15
 70
     1
102
RTVSPropertyOp16
 70
     1
102
RTVSPropertyOp17
 70
     1
102
RTVSPropertyOp18
 70
     1
102
RTVSPropertyOp19
 70
     1
102
RTVSPropertyOp20
 70
     1
102
RTVSPropertyOp21
 70
     1
102
RTVSPropertyOp22
 70
     1
102
RTVSPropertyOp23
 70
     1
102
RTVSPropertyOp24
 70
     1
102
RTVSPropertyOp25
 70
     1
102
RTVSPropertyOp26
 70
     1
102
RTVSPropertyOp27
 70
     1
102
RTVSPropertyOp28
 70
     1
102
RTVSPropertyOp29
 70
     1
102
RTVSPropertyOp30
 70
     1
102
RTVSPropertyOp31
 70
     1
102
RTVSPropertyOp32
 70
     1
102
RTVSPropertyOp33
 70
     1
102
RTVSPropertyOp34
 70
     1
102
RTVSPropertyOp35
 70
     1
102
RTVSPropertyOp36
 70
     1
102
RTVSPropertyOp37
 70
     1
102
RTVSPropertyOp38
 70
     1
102
RTVSPropertyOp39
 70
     1
102
RTVSPropertyOp40
 70
     1
102
RTVSPropertyOp41
 70
     1
102
RTVSPropertyOp42
 70
     1
102
RTVSPropertyOp43
 70
     1
102
RTVSPropertyOp44
 70
     1
102
RTVSPropertyOp45
 70
     1
102
RTVSPropertyOp46
 70
     1
102
RTVSPropertyOp47
 70
     1
102
RTVSPropertyOp48
 70
     1
102
RTVSPropertyOp49
 70
     1
102
RTVSPropertyOp50
 70
     1
102
RTVSPropertyOp51
 70
     0
102
RTVSPropertyOp52
 70
     0
102
RTVSPropertyOp53
 70
     1
102
RTVSPropertyOp54
 70
     1
102
RTVSPropertyOp55
 70
     1
102
RTVSPropertyOp56
 70
     1
102
RTVSPropertyOp57
 70
     1
102
RTVSPropertyOp58
 70
     1
102
RTVSPropertyOp59
 70
     1
102
RTVSPropertyOp60
 70
     1
102
RTVSPropertyOp61
 70
     1
102
RTVSPropertyOp62
 70
     1
  0
XRECORD
  5
8421
102
{ACAD_REACTORS
330
8420
102
}
330
8420
100
AcDbXrecord
280
     1
102
RTVSPost2010Prop28
280
     0
102
RTVSPost2010PropOp28
 70
     1
102
RTVSPost2010Prop29
280
     1
102
RTVSPost2010PropOp29
 70
     1
102
RTVSPost2010Prop30
280
     1
102
RTVSPost2010PropOp30
 70
     1
102
RTVSPost2010Prop31
280
     0
102
RTVSPost2010PropOp31
 70
     1
102
RTVSPost2010Prop32
280
     0
102
RTVSPost2010PropOp32
 70
     1
102
RTVSPost2010Prop33
280
     0
102
RTVSPost2010PropOp33
 70
     1
102
RTVSPost2010Prop34
280
     0
102
RTVSPost2010PropOp34
 70
     1
102
RTVSPost2010Prop35
280
     0
102
RTVSPost2010PropOp35
 70
     1
102
RTVSPost2010Prop36
280
     0
102
RTVSPost2010PropOp36
 70
     1
102
RTVSPost2010Prop37
 90
       50
102
RTVSPost2010PropOp37
 70
     0
102
RTVSPost2010Prop38
140
0.0
102
RTVSPost2010PropOp38
 70
     0
102
RTVSPost2010Prop39
140
1.0
102
RTVSPost2010PropOp39
 70
     0
102
RTVSPost2010Prop40
 90
        0
102
RTVSPost2010PropOp40
 70
     0
102
RTVSPost2010Prop41ColorIndex
 90
       18
102
RTVSPost2010Prop41ColorRGB
 90
        0
102
RTVSPost2010PropOp41
 70
     0
102
RTVSPost2010Prop42
 90
       50
102
RTVSPost2010PropOp42
 70
     0
102
RTVSPost2010Prop43
 90
        3
102
RTVSPost2010PropOp43
 70
     0
102
RTVSPost2010Prop44ColorIndex
 90
        5
102
RTVSPost2010Prop44ColorRGB
 90
      255
102
RTVSPost2010PropOp44
 70
     0
102
RTVSPost2010Prop45
280
     0
102
RTVSPost2010PropOp45
 70
     1
102
RTVSPost2010Prop46
 90
       50
102
RTVSPost2010PropOp46
 70
     0
102
RTVSPost2010Prop47
 90
       50
102
RTVSPost2010PropOp47
 70
     0
102
RTVSPost2010Prop48
 90
       50
102
RTVSPost2010PropOp48
 70
     0
102
RTVSPost2010Prop49
280
     0
102
RTVSPost2010PropOp49
 70
     1
102
RTVSPost2010Prop50
 90
       50
102
RTVSPost2010PropOp50
 70
     0
102
RTVSPost2010Prop51ColorIndex
 90
      256
102
RTVSPost2010Prop51ColorRGB
 90
-16777216
102
RTVSPost2010PropOp51
 70
     0
102
RTVSPost2010Prop52
140
1.0
102
RTVSPost2010PropOp52
 70
     0
102
RTVSPost2010Prop53
 90
        2
102
RTVSPost2010PropOp53
 70
     0
102
RTVSPost2010Prop54
  1
strokes_ogs.tif
102
RTVSPost2010PropOp54
 70
     0
102
RTVSPost2010Prop55
280
     0
102
RTVSPost2010PropOp55
 70
     1
102
RTVSPost2010Prop56
140
1.0
102
RTVSPost2010PropOp56
 70
     0
102
RTVSPost2010Prop57
140
1.0
102
RTVSPost2010PropOp57
 70
     0
102
RTVSPropertyOp0
 70
     0
102
RTVSPropertyOp1
 70
     0
102
RTVSPropertyOp2
 70
     0
102
RTVSPropertyOp3
 70
     0
102
RTVSPropertyOp4
 70
     0
102
RTVSPropertyOp5
 70
     0
102
RTVSPropertyOp6
 70
     0
102
RTVSPropertyOp7
 70
     0
102
RTVSPropertyOp8
 70
     0
102
RTVSPropertyOp9
 70
     0
102
RTVSPropertyOp10
 70
     0
102
RTVSPropertyOp11
 70
     0
102
RTVSPropertyOp12
 70
     0
102
RTVSPropertyOp13
 70
     0
102
RTVSPropertyOp14
 70
     2
102
RTVSPropertyOp15
 70
     0
102
RTVSPropertyOp16
 70
     0
102
RTVSPropertyOp17
 70
     0
102
RTVSPropertyOp18
 70
     0
102
RTVSPropertyOp19
 70
     0
102
RTVSPropertyOp20
 70
     0
102
RTVSPropertyOp21
 70
     0
102
RTVSPropertyOp22
 70
     0
102
RTVSPropertyOp23
 70
     0
102
RTVSPropertyOp24
 70
     0
102
RTVSPropertyOp25
 70
     0
102
RTVSPropertyOp26
 70
     0
102
RTVSPropertyOp27
 70
     0
102
RTVSPropertyOp28
 70
     1
102
RTVSPropertyOp29
 70
     1
102
RTVSPropertyOp30
 70
     1
102
RTVSPropertyOp31
 70
     1
102
RTVSPropertyOp32
 70
     1
102
RTVSPropertyOp33
 70
     1
102
RTVSPropertyOp34
 70
     1
102
RTVSPropertyOp35
 70
     1
102
RTVSPropertyOp36
 70
     1
102
RTVSPropertyOp37
 70
     0
102
RTVSPropertyOp38
 70
     0
102
RTVSPropertyOp39
 70
     0
102
RTVSPropertyOp40
 70
     0
102
RTVSPropertyOp41
 70
     0
102
RTVSPropertyOp42
 70
     0
102
RTVSPropertyOp43
 70
     0
102
RTVSPropertyOp44
 70
     0
102
RTVSPropertyOp45
 70
     1
102
RTVSPropertyOp46
 70
     0
102
RTVSPropertyOp47
 70
     0
102
RTVSPropertyOp48
 70
     0
102
RTVSPropertyOp49
 70
     1
102
RTVSPropertyOp50
 70
     0
102
RTVSPropertyOp51
 70
     0
102
RTVSPropertyOp52
 70
     0
102
RTVSPropertyOp53
 70
     0
102
RTVSPropertyOp54
 70
     0
102
RTVSPropertyOp55
 70
     1
102
RTVSPropertyOp56
 70
     0
102
RTVSPropertyOp57
 70
     0
102
RTVSPropertyOp58
 70
     0
102
RTVSPropertyOp59
 70
     0
102
RTVSPropertyOp60
 70
     0
102
RTVSPropertyOp61
 70
     0
102
RTVSPropertyOp62
 70
     0
  0
XRECORD
  5
8407
102
{ACAD_REACTORS
330
8406
102
}
330
8406
100
AcDbXrecord
280
     1
102
RTVSPost2010Prop28
280
     0
102
RTVSPost2010PropOp28
 70
     1
102
RTVSPost2010Prop29
280
     1
102
RTVSPost2010PropOp29
 70
     1
102
RTVSPost2010Prop30
280
     1
102
RTVSPost2010PropOp30
 70
     1
102
RTVSPost2010Prop31
280
     0
102
RTVSPost2010PropOp31
 70
     1
102
RTVSPost2010Prop32
280
     0
102
RTVSPost2010PropOp32
 70
     1
102
RTVSPost2010Prop33
280
     0
102
RTVSPost2010PropOp33
 70
     1
102
RTVSPost2010Prop34
280
     0
102
RTVSPost2010PropOp34
 70
     1
102
RTVSPost2010Prop35
280
     0
102
RTVSPost2010PropOp35
 70
     1
102
RTVSPost2010Prop36
280
     0
102
RTVSPost2010PropOp36
 70
     1
102
RTVSPost2010Prop37
 90
       50
102
RTVSPost2010PropOp37
 70
     1
102
RTVSPost2010Prop38
140
0.0
102
RTVSPost2010PropOp38
 70
     1
102
RTVSPost2010Prop39
140
1.0
102
RTVSPost2010PropOp39
 70
     1
102
RTVSPost2010Prop40
 90
        0
102
RTVSPost2010PropOp40
 70
     1
102
RTVSPost2010Prop41ColorIndex
 90
       18
102
RTVSPost2010Prop41ColorRGB
 90
        0
102
RTVSPost2010PropOp41
 70
     1
102
RTVSPost2010Prop42
 90
       50
102
RTVSPost2010PropOp42
 70
     1
102
RTVSPost2010Prop43
 90
        3
102
RTVSPost2010PropOp43
 70
     1
102
RTVSPost2010Prop44ColorIndex
 90
        5
102
RTVSPost2010Prop44ColorRGB
 90
      255
102
RTVSPost2010PropOp44
 70
     1
102
RTVSPost2010Prop45
280
     0
102
RTVSPost2010PropOp45
 70
     1
102
RTVSPost2010Prop46
 90
       50
102
RTVSPost2010PropOp46
 70
     1
102
RTVSPost2010Prop47
 90
       50
102
RTVSPost2010PropOp47
 70
     1
102
RTVSPost2010Prop48
 90
       50
102
RTVSPost2010PropOp48
 70
     1
102
RTVSPost2010Prop49
280
     0
102
RTVSPost2010PropOp49
 70
     1
102
RTVSPost2010Prop50
 90
       50
102
RTVSPost2010PropOp50
 70
     1
102
RTVSPost2010Prop51ColorIndex
 90
      256
102
RTVSPost2010Prop51ColorRGB
 90
-16777216
102
RTVSPost2010PropOp51
 70
     0
102
RTVSPost2010Prop52
140
1.0
102
RTVSPost2010PropOp52
 70
     0
102
RTVSPost2010Prop53
 90
        2
102
RTVSPost2010PropOp53
 70
     1
102
RTVSPost2010Prop54
  1
strokes_ogs.tif
102
RTVSPost2010PropOp54
 70
     1
102
RTVSPost2010Prop55
280
     0
102
RTVSPost2010PropOp55
 70
     1
102
RTVSPost2010Prop56
140
1.0
102
RTVSPost2010PropOp56
 70
     1
102
RTVSPost2010Prop57
140
1.0
102
RTVSPost2010PropOp57
 70
     1
102
RTVSPropertyOp0
 70
     1
102
RTVSPropertyOp1
 70
     1
102
RTVSPropertyOp2
 70
     1
102
RTVSPropertyOp3
 70
     1
102
RTVSPropertyOp4
 70
     1
102
RTVSPropertyOp5
 70
     1
102
RTVSPropertyOp6
 70
     1
102
RTVSPropertyOp7
 70
     1
102
RTVSPropertyOp8
 70
     1
102
RTVSPropertyOp9
 70
     1
102
RTVSPropertyOp10
 70
     1
102
RTVSPropertyOp11
 70
     1
102
RTVSPropertyOp12
 70
     1
102
RTVSPropertyOp13
 70
     1
102
RTVSPropertyOp14
 70
     1
102
RTVSPropertyOp15
 70
     1
102
RTVSPropertyOp16
 70
     1
102
RTVSPropertyOp17
 70
     1
102
RTVSPropertyOp18
 70
     1
102
RTVSPropertyOp19
 70
     1
102
RTVSPropertyOp20
 70
     1
102
RTVSPropertyOp21
 70
     1
102
RTVSPropertyOp22
 70
     1
102
RTVSPropertyOp23
 70
     1
102
RTVSPropertyOp24
 70
     1
102
RTVSPropertyOp25
 70
     1
102
RTVSPropertyOp26
 70
     1
102
RTVSPropertyOp27
 70
     1
102
RTVSPropertyOp28
 70
     1
102
RTVSPropertyOp29
 70
     1
102
RTVSPropertyOp30
 70
     1
102
RTVSPropertyOp31
 70
     1
102
RTVSPropertyOp32
 70
     1
102
RTVSPropertyOp33
 70
     1
102
RTVSPropertyOp34
 70
     1
102
RTVSPropertyOp35
 70
     1
102
RTVSPropertyOp36
 70
     1
102
RTVSPropertyOp37
 70
     1
102
RTVSPropertyOp38
 70
     1
102
RTVSPropertyOp39
 70
     1
102
RTVSPropertyOp40
 70
     1
102
RTVSPropertyOp41
 70
     1
102
RTVSPropertyOp42
 70
     1
102
RTVSPropertyOp43
 70
     1
102
RTVSPropertyOp44
 70
     1
102
RTVSPropertyOp45
 70
     1
102
RTVSPropertyOp46
 70
     1
102
RTVSPropertyOp47
 70
     1
102
RTVSPropertyOp48
 70
     1
102
RTVSPropertyOp49
 70
     1
102
RTVSPropertyOp50
 70
     1
102
RTVSPropertyOp51
 70
     0
102
RTVSPropertyOp52
 70
     0
102
RTVSPropertyOp53
 70
     1
102
RTVSPropertyOp54
 70
     1
102
RTVSPropertyOp55
 70
     1
102
RTVSPropertyOp56
 70
     1
102
RTVSPropertyOp57
 70
     1
102
RTVSPropertyOp58
 70
     1
102
RTVSPropertyOp59
 70
     1
102
RTVSPropertyOp60
 70
     1
102
RTVSPropertyOp61
 70
     1
102
RTVSPropertyOp62
 70
     1
  0
XRECORD
  5
841D
102
{ACAD_REACTORS
330
841C
102
}
330
841C
100
AcDbXrecord
280
     1
102
RTVSPost2010Prop28
280
     0
102
RTVSPost2010PropOp28
 70
     1
102
RTVSPost2010Prop29
280
     1
102
RTVSPost2010PropOp29
 70
     1
102
RTVSPost2010Prop30
280
     1
102
RTVSPost2010PropOp30
 70
     1
102
RTVSPost2010Prop31
280
     0
102
RTVSPost2010PropOp31
 70
     1
102
RTVSPost2010Prop32
280
     0
102
RTVSPost2010PropOp32
 70
     1
102
RTVSPost2010Prop33
280
     0
102
RTVSPost2010PropOp33
 70
     1
102
RTVSPost2010Prop34
280
     0
102
RTVSPost2010PropOp34
 70
     1
102
RTVSPost2010Prop35
280
     0
102
RTVSPost2010PropOp35
 70
     1
102
RTVSPost2010Prop36
280
     0
102
RTVSPost2010PropOp36
 70
     1
102
RTVSPost2010Prop37
 90
       50
102
RTVSPost2010PropOp37
 70
     1
102
RTVSPost2010Prop38
140
0.0
102
RTVSPost2010PropOp38
 70
     1
102
RTVSPost2010Prop39
140
1.0
102
RTVSPost2010PropOp39
 70
     1
102
RTVSPost2010Prop40
 90
        0
102
RTVSPost2010PropOp40
 70
     1
102
RTVSPost2010Prop41ColorIndex
 90
       18
102
RTVSPost2010Prop41ColorRGB
 90
        0
102
RTVSPost2010PropOp41
 70
     1
102
RTVSPost2010Prop42
 90
       50
102
RTVSPost2010PropOp42
 70
     1
102
RTVSPost2010Prop43
 90
        3
102
RTVSPost2010PropOp43
 70
     1
102
RTVSPost2010Prop44ColorIndex
 90
        5
102
RTVSPost2010Prop44ColorRGB
 90
      255
102
RTVSPost2010PropOp44
 70
     1
102
RTVSPost2010Prop45
280
     0
102
RTVSPost2010PropOp45
 70
     1
102
RTVSPost2010Prop46
 90
       50
102
RTVSPost2010PropOp46
 70
     1
102
RTVSPost2010Prop47
 90
       50
102
RTVSPost2010PropOp47
 70
     1
102
RTVSPost2010Prop48
 90
       50
102
RTVSPost2010PropOp48
 70
     1
102
RTVSPost2010Prop49
280
     0
102
RTVSPost2010PropOp49
 70
     1
102
RTVSPost2010Prop50
 90
       50
102
RTVSPost2010PropOp50
 70
     1
102
RTVSPost2010Prop51ColorIndex
 90
      256
102
RTVSPost2010Prop51ColorRGB
 90
-16777216
102
RTVSPost2010PropOp51
 70
     0
102
RTVSPost2010Prop52
140
1.0
102
RTVSPost2010PropOp52
 70
     0
102
RTVSPost2010Prop53
 90
        2
102
RTVSPost2010PropOp53
 70
     1
102
RTVSPost2010Prop54
  1
strokes_ogs.tif
102
RTVSPost2010PropOp54
 70
     1
102
RTVSPost2010Prop55
280
     0
102
RTVSPost2010PropOp55
 70
     1
102
RTVSPost2010Prop56
140
1.0
102
RTVSPost2010PropOp56
 70
     1
102
RTVSPost2010Prop57
140
1.0
102
RTVSPost2010PropOp57
 70
     1
102
RTVSPropertyOp0
 70
     1
102
RTVSPropertyOp1
 70
     1
102
RTVSPropertyOp2
 70
     1
102
RTVSPropertyOp3
 70
     1
102
RTVSPropertyOp4
 70
     1
102
RTVSPropertyOp5
 70
     1
102
RTVSPropertyOp6
 70
     1
102
RTVSPropertyOp7
 70
     1
102
RTVSPropertyOp8
 70
     1
102
RTVSPropertyOp9
 70
     1
102
RTVSPropertyOp10
 70
     1
102
RTVSPropertyOp11
 70
     1
102
RTVSPropertyOp12
 70
     1
102
RTVSPropertyOp13
 70
     1
102
RTVSPropertyOp14
 70
     1
102
RTVSPropertyOp15
 70
     1
102
RTVSPropertyOp16
 70
     1
102
RTVSPropertyOp17
 70
     1
102
RTVSPropertyOp18
 70
     1
102
RTVSPropertyOp19
 70
     1
102
RTVSPropertyOp20
 70
     1
102
RTVSPropertyOp21
 70
     1
102
RTVSPropertyOp22
 70
     1
102
RTVSPropertyOp23
 70
     1
102
RTVSPropertyOp24
 70
     1
102
RTVSPropertyOp25
 70
     1
102
RTVSPropertyOp26
 70
     1
102
RTVSPropertyOp27
 70
     1
102
RTVSPropertyOp28
 70
     1
102
RTVSPropertyOp29
 70
     1
102
RTVSPropertyOp30
 70
     1
102
RTVSPropertyOp31
 70
     1
102
RTVSPropertyOp32
 70
     1
102
RTVSPropertyOp33
 70
     1
102
RTVSPropertyOp34
 70
     1
102
RTVSPropertyOp35
 70
     1
102
RTVSPropertyOp36
 70
     1
102
RTVSPropertyOp37
 70
     1
102
RTVSPropertyOp38
 70
     1
102
RTVSPropertyOp39
 70
     1
102
RTVSPropertyOp40
 70
     1
102
RTVSPropertyOp41
 70
     1
102
RTVSPropertyOp42
 70
     1
102
RTVSPropertyOp43
 70
     1
102
RTVSPropertyOp44
 70
     1
102
RTVSPropertyOp45
 70
     1
102
RTVSPropertyOp46
 70
     1
102
RTVSPropertyOp47
 70
     1
102
RTVSPropertyOp48
 70
     1
102
RTVSPropertyOp49
 70
     1
102
RTVSPropertyOp50
 70
     1
102
RTVSPropertyOp51
 70
     0
102
RTVSPropertyOp52
 70
     0
102
RTVSPropertyOp53
 70
     1
102
RTVSPropertyOp54
 70
     1
102
RTVSPropertyOp55
 70
     1
102
RTVSPropertyOp56
 70
     1
102
RTVSPropertyOp57
 70
     1
102
RTVSPropertyOp58
 70
     1
102
RTVSPropertyOp59
 70
     1
102
RTVSPropertyOp60
 70
     1
102
RTVSPropertyOp61
 70
     1
102
RTVSPropertyOp62
 70
     1
  0
XRECORD
  5
841B
102
{ACAD_REACTORS
330
841A
102
}
330
841A
100
AcDbXrecord
280
     1
102
RTVSPost2010Prop28
280
     0
102
RTVSPost2010PropOp28
 70
     1
102
RTVSPost2010Prop29
280
     1
102
RTVSPost2010PropOp29
 70
     1
102
RTVSPost2010Prop30
280
     1
102
RTVSPost2010PropOp30
 70
     1
102
RTVSPost2010Prop31
280
     0
102
RTVSPost2010PropOp31
 70
     1
102
RTVSPost2010Prop32
280
     0
102
RTVSPost2010PropOp32
 70
     1
102
RTVSPost2010Prop33
280
     0
102
RTVSPost2010PropOp33
 70
     1
102
RTVSPost2010Prop34
280
     0
102
RTVSPost2010PropOp34
 70
     1
102
RTVSPost2010Prop35
280
     0
102
RTVSPost2010PropOp35
 70
     1
102
RTVSPost2010Prop36
280
     0
102
RTVSPost2010PropOp36
 70
     1
102
RTVSPost2010Prop37
 90
       50
102
RTVSPost2010PropOp37
 70
     1
102
RTVSPost2010Prop38
140
0.0
102
RTVSPost2010PropOp38
 70
     1
102
RTVSPost2010Prop39
140
1.0
102
RTVSPost2010PropOp39
 70
     1
102
RTVSPost2010Prop40
 90
        0
102
RTVSPost2010PropOp40
 70
     1
102
RTVSPost2010Prop41ColorIndex
 90
       18
102
RTVSPost2010Prop41ColorRGB
 90
        0
102
RTVSPost2010PropOp41
 70
     1
102
RTVSPost2010Prop42
 90
       50
102
RTVSPost2010PropOp42
 70
     1
102
RTVSPost2010Prop43
 90
        3
102
RTVSPost2010PropOp43
 70
     1
102
RTVSPost2010Prop44ColorIndex
 90
        5
102
RTVSPost2010Prop44ColorRGB
 90
      255
102
RTVSPost2010PropOp44
 70
     1
102
RTVSPost2010Prop45
280
     0
102
RTVSPost2010PropOp45
 70
     1
102
RTVSPost2010Prop46
 90
       50
102
RTVSPost2010PropOp46
 70
     1
102
RTVSPost2010Prop47
 90
       50
102
RTVSPost2010PropOp47
 70
     1
102
RTVSPost2010Prop48
 90
       50
102
RTVSPost2010PropOp48
 70
     1
102
RTVSPost2010Prop49
280
     0
102
RTVSPost2010PropOp49
 70
     1
102
RTVSPost2010Prop50
 90
       50
102
RTVSPost2010PropOp50
 70
     1
102
RTVSPost2010Prop51ColorIndex
 90
      256
102
RTVSPost2010Prop51ColorRGB
 90
-16777216
102
RTVSPost2010PropOp51
 70
     0
102
RTVSPost2010Prop52
140
1.0
102
RTVSPost2010PropOp52
 70
     0
102
RTVSPost2010Prop53
 90
        2
102
RTVSPost2010PropOp53
 70
     1
102
RTVSPost2010Prop54
  1
strokes_ogs.tif
102
RTVSPost2010PropOp54
 70
     1
102
RTVSPost2010Prop55
280
     0
102
RTVSPost2010PropOp55
 70
     1
102
RTVSPost2010Prop56
140
1.0
102
RTVSPost2010PropOp56
 70
     1
102
RTVSPost2010Prop57
140
1.0
102
RTVSPost2010PropOp57
 70
     1
102
RTVSPropertyOp0
 70
     1
102
RTVSPropertyOp1
 70
     1
102
RTVSPropertyOp2
 70
     1
102
RTVSPropertyOp3
 70
     1
102
RTVSPropertyOp4
 70
     1
102
RTVSPropertyOp5
 70
     1
102
RTVSPropertyOp6
 70
     1
102
RTVSPropertyOp7
 70
     1
102
RTVSPropertyOp8
 70
     1
102
RTVSPropertyOp9
 70
     1
102
RTVSPropertyOp10
 70
     1
102
RTVSPropertyOp11
 70
     1
102
RTVSPropertyOp12
 70
     1
102
RTVSPropertyOp13
 70
     1
102
RTVSPropertyOp14
 70
     1
102
RTVSPropertyOp15
 70
     1
102
RTVSPropertyOp16
 70
     1
102
RTVSPropertyOp17
 70
     1
102
RTVSPropertyOp18
 70
     1
102
RTVSPropertyOp19
 70
     1
102
RTVSPropertyOp20
 70
     1
102
RTVSPropertyOp21
 70
     1
102
RTVSPropertyOp22
 70
     1
102
RTVSPropertyOp23
 70
     1
102
RTVSPropertyOp24
 70
     1
102
RTVSPropertyOp25
 70
     1
102
RTVSPropertyOp26
 70
     1
102
RTVSPropertyOp27
 70
     1
102
RTVSPropertyOp28
 70
     1
102
RTVSPropertyOp29
 70
     1
102
RTVSPropertyOp30
 70
     1
102
RTVSPropertyOp31
 70
     1
102
RTVSPropertyOp32
 70
     1
102
RTVSPropertyOp33
 70
     1
102
RTVSPropertyOp34
 70
     1
102
RTVSPropertyOp35
 70
     1
102
RTVSPropertyOp36
 70
     1
102
RTVSPropertyOp37
 70
     1
102
RTVSPropertyOp38
 70
     1
102
RTVSPropertyOp39
 70
     1
102
RTVSPropertyOp40
 70
     1
102
RTVSPropertyOp41
 70
     1
102
RTVSPropertyOp42
 70
     1
102
RTVSPropertyOp43
 70
     1
102
RTVSPropertyOp44
 70
     1
102
RTVSPropertyOp45
 70
     1
102
RTVSPropertyOp46
 70
     1
102
RTVSPropertyOp47
 70
     1
102
RTVSPropertyOp48
 70
     1
102
RTVSPropertyOp49
 70
     1
102
RTVSPropertyOp50
 70
     1
102
RTVSPropertyOp51
 70
     0
102
RTVSPropertyOp52
 70
     0
102
RTVSPropertyOp53
 70
     1
102
RTVSPropertyOp54
 70
     1
102
RTVSPropertyOp55
 70
     1
102
RTVSPropertyOp56
 70
     1
102
RTVSPropertyOp57
 70
     1
102
RTVSPropertyOp58
 70
     1
102
RTVSPropertyOp59
 70
     1
102
RTVSPropertyOp60
 70
     1
102
RTVSPropertyOp61
 70
     1
102
RTVSPropertyOp62
 70
     1
  0
XRECORD
  5
8415
102
{ACAD_REACTORS
330
8414
102
}
330
8414
100
AcDbXrecord
280
     1
102
RTVSPost2010Prop28
280
     0
102
RTVSPost2010PropOp28
 70
     1
102
RTVSPost2010Prop29
280
     1
102
RTVSPost2010PropOp29
 70
     1
102
RTVSPost2010Prop30
280
     1
102
RTVSPost2010PropOp30
 70
     1
102
RTVSPost2010Prop31
280
     0
102
RTVSPost2010PropOp31
 70
     1
102
RTVSPost2010Prop32
280
     0
102
RTVSPost2010PropOp32
 70
     1
102
RTVSPost2010Prop33
280
     0
102
RTVSPost2010PropOp33
 70
     1
102
RTVSPost2010Prop34
280
     0
102
RTVSPost2010PropOp34
 70
     1
102
RTVSPost2010Prop35
280
     0
102
RTVSPost2010PropOp35
 70
     1
102
RTVSPost2010Prop36
280
     0
102
RTVSPost2010PropOp36
 70
     1
102
RTVSPost2010Prop37
 90
       50
102
RTVSPost2010PropOp37
 70
     1
102
RTVSPost2010Prop38
140
0.0
102
RTVSPost2010PropOp38
 70
     1
102
RTVSPost2010Prop39
140
1.0
102
RTVSPost2010PropOp39
 70
     1
102
RTVSPost2010Prop40
 90
        0
102
RTVSPost2010PropOp40
 70
     1
102
RTVSPost2010Prop41ColorIndex
 90
       18
102
RTVSPost2010Prop41ColorRGB
 90
        0
102
RTVSPost2010PropOp41
 70
     1
102
RTVSPost2010Prop42
 90
       50
102
RTVSPost2010PropOp42
 70
     1
102
RTVSPost2010Prop43
 90
        3
102
RTVSPost2010PropOp43
 70
     1
102
RTVSPost2010Prop44ColorIndex
 90
        5
102
RTVSPost2010Prop44ColorRGB
 90
      255
102
RTVSPost2010PropOp44
 70
     1
102
RTVSPost2010Prop45
280
     0
102
RTVSPost2010PropOp45
 70
     1
102
RTVSPost2010Prop46
 90
       50
102
RTVSPost2010PropOp46
 70
     1
102
RTVSPost2010Prop47
 90
       50
102
RTVSPost2010PropOp47
 70
     1
102
RTVSPost2010Prop48
 90
       50
102
RTVSPost2010PropOp48
 70
     1
102
RTVSPost2010Prop49
280
     0
102
RTVSPost2010PropOp49
 70
     1
102
RTVSPost2010Prop50
 90
       50
102
RTVSPost2010PropOp50
 70
     1
102
RTVSPost2010Prop51ColorIndex
 90
      256
102
RTVSPost2010Prop51ColorRGB
 90
-16777216
102
RTVSPost2010PropOp51
 70
     0
102
RTVSPost2010Prop52
140
1.0
102
RTVSPost2010PropOp52
 70
     0
102
RTVSPost2010Prop53
 90
        2
102
RTVSPost2010PropOp53
 70
     1
102
RTVSPost2010Prop54
  1
strokes_ogs.tif
102
RTVSPost2010PropOp54
 70
     1
102
RTVSPost2010Prop55
280
     0
102
RTVSPost2010PropOp55
 70
     1
102
RTVSPost2010Prop56
140
1.0
102
RTVSPost2010PropOp56
 70
     1
102
RTVSPost2010Prop57
140
1.0
102
RTVSPost2010PropOp57
 70
     1
102
RTVSPropertyOp0
 70
     1
102
RTVSPropertyOp1
 70
     1
102
RTVSPropertyOp2
 70
     1
102
RTVSPropertyOp3
 70
     1
102
RTVSPropertyOp4
 70
     1
102
RTVSPropertyOp5
 70
     1
102
RTVSPropertyOp6
 70
     1
102
RTVSPropertyOp7
 70
     1
102
RTVSPropertyOp8
 70
     1
102
RTVSPropertyOp9
 70
     1
102
RTVSPropertyOp10
 70
     1
102
RTVSPropertyOp11
 70
     1
102
RTVSPropertyOp12
 70
     1
102
RTVSPropertyOp13
 70
     1
102
RTVSPropertyOp14
 70
     1
102
RTVSPropertyOp15
 70
     1
102
RTVSPropertyOp16
 70
     1
102
RTVSPropertyOp17
 70
     1
102
RTVSPropertyOp18
 70
     1
102
RTVSPropertyOp19
 70
     1
102
RTVSPropertyOp20
 70
     1
102
RTVSPropertyOp21
 70
     1
102
RTVSPropertyOp22
 70
     1
102
RTVSPropertyOp23
 70
     1
102
RTVSPropertyOp24
 70
     1
102
RTVSPropertyOp25
 70
     1
102
RTVSPropertyOp26
 70
     1
102
RTVSPropertyOp27
 70
     1
102
RTVSPropertyOp28
 70
     1
102
RTVSPropertyOp29
 70
     1
102
RTVSPropertyOp30
 70
     1
102
RTVSPropertyOp31
 70
     1
102
RTVSPropertyOp32
 70
     1
102
RTVSPropertyOp33
 70
     1
102
RTVSPropertyOp34
 70
     1
102
RTVSPropertyOp35
 70
     1
102
RTVSPropertyOp36
 70
     1
102
RTVSPropertyOp37
 70
     1
102
RTVSPropertyOp38
 70
     1
102
RTVSPropertyOp39
 70
     1
102
RTVSPropertyOp40
 70
     1
102
RTVSPropertyOp41
 70
     1
102
RTVSPropertyOp42
 70
     1
102
RTVSPropertyOp43
 70
     1
102
RTVSPropertyOp44
 70
     1
102
RTVSPropertyOp45
 70
     1
102
RTVSPropertyOp46
 70
     1
102
RTVSPropertyOp47
 70
     1
102
RTVSPropertyOp48
 70
     1
102
RTVSPropertyOp49
 70
     1
102
RTVSPropertyOp50
 70
     1
102
RTVSPropertyOp51
 70
     0
102
RTVSPropertyOp52
 70
     0
102
RTVSPropertyOp53
 70
     1
102
RTVSPropertyOp54
 70
     1
102
RTVSPropertyOp55
 70
     1
102
RTVSPropertyOp56
 70
     1
102
RTVSPropertyOp57
 70
     1
102
RTVSPropertyOp58
 70
     1
102
RTVSPropertyOp59
 70
     1
102
RTVSPropertyOp60
 70
     1
102
RTVSPropertyOp61
 70
     1
102
RTVSPropertyOp62
 70
     1
  0
XRECORD
  5
8417
102
{ACAD_REACTORS
330
8416
102
}
330
8416
100
AcDbXrecord
280
     1
102
RTVSPost2010Prop28
280
     0
102
RTVSPost2010PropOp28
 70
     1
102
RTVSPost2010Prop29
280
     1
102
RTVSPost2010PropOp29
 70
     1
102
RTVSPost2010Prop30
280
     1
102
RTVSPost2010PropOp30
 70
     1
102
RTVSPost2010Prop31
280
     0
102
RTVSPost2010PropOp31
 70
     1
102
RTVSPost2010Prop32
280
     0
102
RTVSPost2010PropOp32
 70
     1
102
RTVSPost2010Prop33
280
     0
102
RTVSPost2010PropOp33
 70
     1
102
RTVSPost2010Prop34
280
     0
102
RTVSPost2010PropOp34
 70
     1
102
RTVSPost2010Prop35
280
     0
102
RTVSPost2010PropOp35
 70
     1
102
RTVSPost2010Prop36
280
     0
102
RTVSPost2010PropOp36
 70
     1
102
RTVSPost2010Prop37
 90
       50
102
RTVSPost2010PropOp37
 70
     1
102
RTVSPost2010Prop38
140
0.0
102
RTVSPost2010PropOp38
 70
     1
102
RTVSPost2010Prop39
140
1.0
102
RTVSPost2010PropOp39
 70
     1
102
RTVSPost2010Prop40
 90
        0
102
RTVSPost2010PropOp40
 70
     1
102
RTVSPost2010Prop41ColorIndex
 90
       18
102
RTVSPost2010Prop41ColorRGB
 90
        0
102
RTVSPost2010PropOp41
 70
     1
102
RTVSPost2010Prop42
 90
       50
102
RTVSPost2010PropOp42
 70
     1
102
RTVSPost2010Prop43
 90
        3
102
RTVSPost2010PropOp43
 70
     1
102
RTVSPost2010Prop44ColorIndex
 90
        5
102
RTVSPost2010Prop44ColorRGB
 90
      255
102
RTVSPost2010PropOp44
 70
     1
102
RTVSPost2010Prop45
280
     0
102
RTVSPost2010PropOp45
 70
     1
102
RTVSPost2010Prop46
 90
       50
102
RTVSPost2010PropOp46
 70
     1
102
RTVSPost2010Prop47
 90
       50
102
RTVSPost2010PropOp47
 70
     1
102
RTVSPost2010Prop48
 90
       50
102
RTVSPost2010PropOp48
 70
     1
102
RTVSPost2010Prop49
280
     0
102
RTVSPost2010PropOp49
 70
     1
102
RTVSPost2010Prop50
 90
       50
102
RTVSPost2010PropOp50
 70
     1
102
RTVSPost2010Prop51ColorIndex
 90
      256
102
RTVSPost2010Prop51ColorRGB
 90
-16777216
102
RTVSPost2010PropOp51
 70
     0
102
RTVSPost2010Prop52
140
1.0
102
RTVSPost2010PropOp52
 70
     0
102
RTVSPost2010Prop53
 90
        2
102
RTVSPost2010PropOp53
 70
     1
102
RTVSPost2010Prop54
  1
strokes_ogs.tif
102
RTVSPost2010PropOp54
 70
     1
102
RTVSPost2010Prop55
280
     0
102
RTVSPost2010PropOp55
 70
     1
102
RTVSPost2010Prop56
140
1.0
102
RTVSPost2010PropOp56
 70
     1
102
RTVSPost2010Prop57
140
1.0
102
RTVSPost2010PropOp57
 70
     1
102
RTVSPropertyOp0
 70
     1
102
RTVSPropertyOp1
 70
     1
102
RTVSPropertyOp2
 70
     1
102
RTVSPropertyOp3
 70
     1
102
RTVSPropertyOp4
 70
     1
102
RTVSPropertyOp5
 70
     1
102
RTVSPropertyOp6
 70
     1
102
RTVSPropertyOp7
 70
     1
102
RTVSPropertyOp8
 70
     1
102
RTVSPropertyOp9
 70
     1
102
RTVSPropertyOp10
 70
     1
102
RTVSPropertyOp11
 70
     1
102
RTVSPropertyOp12
 70
     1
102
RTVSPropertyOp13
 70
     1
102
RTVSPropertyOp14
 70
     1
102
RTVSPropertyOp15
 70
     1
102
RTVSPropertyOp16
 70
     1
102
RTVSPropertyOp17
 70
     1
102
RTVSPropertyOp18
 70
     1
102
RTVSPropertyOp19
 70
     1
102
RTVSPropertyOp20
 70
     1
102
RTVSPropertyOp21
 70
     1
102
RTVSPropertyOp22
 70
     1
102
RTVSPropertyOp23
 70
     1
102
RTVSPropertyOp24
 70
     1
102
RTVSPropertyOp25
 70
     1
102
RTVSPropertyOp26
 70
     1
102
RTVSPropertyOp27
 70
     1
102
RTVSPropertyOp28
 70
     1
102
RTVSPropertyOp29
 70
     1
102
RTVSPropertyOp30
 70
     1
102
RTVSPropertyOp31
 70
     1
102
RTVSPropertyOp32
 70
     1
102
RTVSPropertyOp33
 70
     1
102
RTVSPropertyOp34
 70
     1
102
RTVSPropertyOp35
 70
     1
102
RTVSPropertyOp36
 70
     1
102
RTVSPropertyOp37
 70
     1
102
RTVSPropertyOp38
 70
     1
102
RTVSPropertyOp39
 70
     1
102
RTVSPropertyOp40
 70
     1
102
RTVSPropertyOp41
 70
     1
102
RTVSPropertyOp42
 70
     1
102
RTVSPropertyOp43
 70
     1
102
RTVSPropertyOp44
 70
     1
102
RTVSPropertyOp45
 70
     1
102
RTVSPropertyOp46
 70
     1
102
RTVSPropertyOp47
 70
     1
102
RTVSPropertyOp48
 70
     1
102
RTVSPropertyOp49
 70
     1
102
RTVSPropertyOp50
 70
     1
102
RTVSPropertyOp51
 70
     0
102
RTVSPropertyOp52
 70
     0
102
RTVSPropertyOp53
 70
     1
102
RTVSPropertyOp54
 70
     1
102
RTVSPropertyOp55
 70
     1
102
RTVSPropertyOp56
 70
     1
102
RTVSPropertyOp57
 70
     1
102
RTVSPropertyOp58
 70
     1
102
RTVSPropertyOp59
 70
     1
102
RTVSPropertyOp60
 70
     1
102
RTVSPropertyOp61
 70
     1
102
RTVSPropertyOp62
 70
     1
  0
XRECORD
  5
840D
102
{ACAD_REACTORS
330
840C
102
}
330
840C
100
AcDbXrecord
280
     1
102
RTVSPost2010Prop28
280
     0
102
RTVSPost2010PropOp28
 70
     1
102
RTVSPost2010Prop29
280
     1
102
RTVSPost2010PropOp29
 70
     1
102
RTVSPost2010Prop30
280
     1
102
RTVSPost2010PropOp30
 70
     1
102
RTVSPost2010Prop31
280
     0
102
RTVSPost2010PropOp31
 70
     1
102
RTVSPost2010Prop32
280
     0
102
RTVSPost2010PropOp32
 70
     1
102
RTVSPost2010Prop33
280
     0
102
RTVSPost2010PropOp33
 70
     1
102
RTVSPost2010Prop34
280
     0
102
RTVSPost2010PropOp34
 70
     1
102
RTVSPost2010Prop35
280
     0
102
RTVSPost2010PropOp35
 70
     1
102
RTVSPost2010Prop36
280
     0
102
RTVSPost2010PropOp36
 70
     1
102
RTVSPost2010Prop37
 90
       50
102
RTVSPost2010PropOp37
 70
     1
102
RTVSPost2010Prop38
140
0.0
102
RTVSPost2010PropOp38
 70
     1
102
RTVSPost2010Prop39
140
1.0
102
RTVSPost2010PropOp39
 70
     1
102
RTVSPost2010Prop40
 90
        0
102
RTVSPost2010PropOp40
 70
     1
102
RTVSPost2010Prop41ColorIndex
 90
       18
102
RTVSPost2010Prop41ColorRGB
 90
        0
102
RTVSPost2010PropOp41
 70
     1
102
RTVSPost2010Prop42
 90
       50
102
RTVSPost2010PropOp42
 70
     1
102
RTVSPost2010Prop43
 90
        3
102
RTVSPost2010PropOp43
 70
     1
102
RTVSPost2010Prop44ColorIndex
 90
        5
102
RTVSPost2010Prop44ColorRGB
 90
      255
102
RTVSPost2010PropOp44
 70
     1
102
RTVSPost2010Prop45
280
     0
102
RTVSPost2010PropOp45
 70
     1
102
RTVSPost2010Prop46
 90
       50
102
RTVSPost2010PropOp46
 70
     1
102
RTVSPost2010Prop47
 90
       50
102
RTVSPost2010PropOp47
 70
     1
102
RTVSPost2010Prop48
 90
       50
102
RTVSPost2010PropOp48
 70
     1
102
RTVSPost2010Prop49
280
     0
102
RTVSPost2010PropOp49
 70
     1
102
RTVSPost2010Prop50
 90
       50
102
RTVSPost2010PropOp50
 70
     1
102
RTVSPost2010Prop51ColorIndex
 90
      256
102
RTVSPost2010Prop51ColorRGB
 90
-16777216
102
RTVSPost2010PropOp51
 70
     0
102
RTVSPost2010Prop52
140
1.0
102
RTVSPost2010PropOp52
 70
     0
102
RTVSPost2010Prop53
 90
        2
102
RTVSPost2010PropOp53
 70
     1
102
RTVSPost2010Prop54
  1
strokes_ogs.tif
102
RTVSPost2010PropOp54
 70
     1
102
RTVSPost2010Prop55
280
     0
102
RTVSPost2010PropOp55
 70
     1
102
RTVSPost2010Prop56
140
1.0
102
RTVSPost2010PropOp56
 70
     1
102
RTVSPost2010Prop57
140
1.0
102
RTVSPost2010PropOp57
 70
     1
102
RTVSPropertyOp0
 70
     1
102
RTVSPropertyOp1
 70
     1
102
RTVSPropertyOp2
 70
     1
102
RTVSPropertyOp3
 70
     1
102
RTVSPropertyOp4
 70
     1
102
RTVSPropertyOp5
 70
     1
102
RTVSPropertyOp6
 70
     1
102
RTVSPropertyOp7
 70
     1
102
RTVSPropertyOp8
 70
     1
102
RTVSPropertyOp9
 70
     1
102
RTVSPropertyOp10
 70
     1
102
RTVSPropertyOp11
 70
     1
102
RTVSPropertyOp12
 70
     1
102
RTVSPropertyOp13
 70
     1
102
RTVSPropertyOp14
 70
     1
102
RTVSPropertyOp15
 70
     1
102
RTVSPropertyOp16
 70
     1
102
RTVSPropertyOp17
 70
     1
102
RTVSPropertyOp18
 70
     1
102
RTVSPropertyOp19
 70
     1
102
RTVSPropertyOp20
 70
     1
102
RTVSPropertyOp21
 70
     1
102
RTVSPropertyOp22
 70
     1
102
RTVSPropertyOp23
 70
     1
102
RTVSPropertyOp24
 70
     1
102
RTVSPropertyOp25
 70
     1
102
RTVSPropertyOp26
 70
     1
102
RTVSPropertyOp27
 70
     1
102
RTVSPropertyOp28
 70
     1
102
RTVSPropertyOp29
 70
     1
102
RTVSPropertyOp30
 70
     1
102
RTVSPropertyOp31
 70
     1
102
RTVSPropertyOp32
 70
     1
102
RTVSPropertyOp33
 70
     1
102
RTVSPropertyOp34
 70
     1
102
RTVSPropertyOp35
 70
     1
102
RTVSPropertyOp36
 70
     1
102
RTVSPropertyOp37
 70
     1
102
RTVSPropertyOp38
 70
     1
102
RTVSPropertyOp39
 70
     1
102
RTVSPropertyOp40
 70
     1
102
RTVSPropertyOp41
 70
     1
102
RTVSPropertyOp42
 70
     1
102
RTVSPropertyOp43
 70
     1
102
RTVSPropertyOp44
 70
     1
102
RTVSPropertyOp45
 70
     1
102
RTVSPropertyOp46
 70
     1
102
RTVSPropertyOp47
 70
     1
102
RTVSPropertyOp48
 70
     1
102
RTVSPropertyOp49
 70
     1
102
RTVSPropertyOp50
 70
     1
102
RTVSPropertyOp51
 70
     0
102
RTVSPropertyOp52
 70
     0
102
RTVSPropertyOp53
 70
     1
102
RTVSPropertyOp54
 70
     1
102
RTVSPropertyOp55
 70
     1
102
RTVSPropertyOp56
 70
     1
102
RTVSPropertyOp57
 70
     1
102
RTVSPropertyOp58
 70
     1
102
RTVSPropertyOp59
 70
     1
102
RTVSPropertyOp60
 70
     1
102
RTVSPropertyOp61
 70
     1
102
RTVSPropertyOp62
 70
     1
  0
XRECORD
  5
8401
102
{ACAD_REACTORS
330
8400
102
}
330
8400
100
AcDbXrecord
280
     1
102
RTVSPost2010Prop28
280
     0
102
RTVSPost2010PropOp28
 70
     1
102
RTVSPost2010Prop29
280
     1
102
RTVSPost2010PropOp29
 70
     1
102
RTVSPost2010Prop30
280
     1
102
RTVSPost2010PropOp30
 70
     1
102
RTVSPost2010Prop31
280
     0
102
RTVSPost2010PropOp31
 70
     1
102
RTVSPost2010Prop32
280
     0
102
RTVSPost2010PropOp32
 70
     1
102
RTVSPost2010Prop33
280
     0
102
RTVSPost2010PropOp33
 70
     1
102
RTVSPost2010Prop34
280
     0
102
RTVSPost2010PropOp34
 70
     1
102
RTVSPost2010Prop35
280
     0
102
RTVSPost2010PropOp35
 70
     1
102
RTVSPost2010Prop36
280
     0
102
RTVSPost2010PropOp36
 70
     1
102
RTVSPost2010Prop37
 90
       50
102
RTVSPost2010PropOp37
 70
     1
102
RTVSPost2010Prop38
140
0.0
102
RTVSPost2010PropOp38
 70
     1
102
RTVSPost2010Prop39
140
1.0
102
RTVSPost2010PropOp39
 70
     1
102
RTVSPost2010Prop40
 90
        0
102
RTVSPost2010PropOp40
 70
     1
102
RTVSPost2010Prop41ColorIndex
 90
       18
102
RTVSPost2010Prop41ColorRGB
 90
        0
102
RTVSPost2010PropOp41
 70
     1
102
RTVSPost2010Prop42
 90
       50
102
RTVSPost2010PropOp42
 70
     1
102
RTVSPost2010Prop43
 90
        3
102
RTVSPost2010PropOp43
 70
     1
102
RTVSPost2010Prop44ColorIndex
 90
        5
102
RTVSPost2010Prop44ColorRGB
 90
      255
102
RTVSPost2010PropOp44
 70
     1
102
RTVSPost2010Prop45
280
     0
102
RTVSPost2010PropOp45
 70
     1
102
RTVSPost2010Prop46
 90
       50
102
RTVSPost2010PropOp46
 70
     1
102
RTVSPost2010Prop47
 90
       50
102
RTVSPost2010PropOp47
 70
     1
102
RTVSPost2010Prop48
 90
       50
102
RTVSPost2010PropOp48
 70
     1
102
RTVSPost2010Prop49
280
     0
102
RTVSPost2010PropOp49
 70
     1
102
RTVSPost2010Prop50
 90
       50
102
RTVSPost2010PropOp50
 70
     1
102
RTVSPost2010Prop51ColorIndex
 90
      256
102
RTVSPost2010Prop51ColorRGB
 90
-16777216
102
RTVSPost2010PropOp51
 70
     0
102
RTVSPost2010Prop52
140
1.0
102
RTVSPost2010PropOp52
 70
     0
102
RTVSPost2010Prop53
 90
        2
102
RTVSPost2010PropOp53
 70
     1
102
RTVSPost2010Prop54
  1
strokes_ogs.tif
102
RTVSPost2010PropOp54
 70
     1
102
RTVSPost2010Prop55
280
     0
102
RTVSPost2010PropOp55
 70
     1
102
RTVSPost2010Prop56
140
1.0
102
RTVSPost2010PropOp56
 70
     1
102
RTVSPost2010Prop57
140
1.0
102
RTVSPost2010PropOp57
 70
     1
102
RTVSPropertyOp0
 70
     1
102
RTVSPropertyOp1
 70
     1
102
RTVSPropertyOp2
 70
     1
102
RTVSPropertyOp3
 70
     1
102
RTVSPropertyOp4
 70
     1
102
RTVSPropertyOp5
 70
     1
102
RTVSPropertyOp6
 70
     1
102
RTVSPropertyOp7
 70
     1
102
RTVSPropertyOp8
 70
     1
102
RTVSPropertyOp9
 70
     1
102
RTVSPropertyOp10
 70
     1
102
RTVSPropertyOp11
 70
     1
102
RTVSPropertyOp12
 70
     1
102
RTVSPropertyOp13
 70
     1
102
RTVSPropertyOp14
 70
     1
102
RTVSPropertyOp15
 70
     1
102
RTVSPropertyOp16
 70
     1
102
RTVSPropertyOp17
 70
     1
102
RTVSPropertyOp18
 70
     1
102
RTVSPropertyOp19
 70
     1
102
RTVSPropertyOp20
 70
     1
102
RTVSPropertyOp21
 70
     1
102
RTVSPropertyOp22
 70
     1
102
RTVSPropertyOp23
 70
     1
102
RTVSPropertyOp24
 70
     1
102
RTVSPropertyOp25
 70
     1
102
RTVSPropertyOp26
 70
     1
102
RTVSPropertyOp27
 70
     1
102
RTVSPropertyOp28
 70
     1
102
RTVSPropertyOp29
 70
     1
102
RTVSPropertyOp30
 70
     1
102
RTVSPropertyOp31
 70
     1
102
RTVSPropertyOp32
 70
     1
102
RTVSPropertyOp33
 70
     1
102
RTVSPropertyOp34
 70
     1
102
RTVSPropertyOp35
 70
     1
102
RTVSPropertyOp36
 70
     1
102
RTVSPropertyOp37
 70
     1
102
RTVSPropertyOp38
 70
     1
102
RTVSPropertyOp39
 70
     1
102
RTVSPropertyOp40
 70
     1
102
RTVSPropertyOp41
 70
     1
102
RTVSPropertyOp42
 70
     1
102
RTVSPropertyOp43
 70
     1
102
RTVSPropertyOp44
 70
     1
102
RTVSPropertyOp45
 70
     1
102
RTVSPropertyOp46
 70
     1
102
RTVSPropertyOp47
 70
     1
102
RTVSPropertyOp48
 70
     1
102
RTVSPropertyOp49
 70
     1
102
RTVSPropertyOp50
 70
     1
102
RTVSPropertyOp51
 70
     0
102
RTVSPropertyOp52
 70
     0
102
RTVSPropertyOp53
 70
     1
102
RTVSPropertyOp54
 70
     1
102
RTVSPropertyOp55
 70
     1
102
RTVSPropertyOp56
 70
     1
102
RTVSPropertyOp57
 70
     1
102
RTVSPropertyOp58
 70
     1
102
RTVSPropertyOp59
 70
     1
102
RTVSPropertyOp60
 70
     1
102
RTVSPropertyOp61
 70
     1
102
RTVSPropertyOp62
 70
     1
  0
XRECORD
  5
8419
102
{ACAD_REACTORS
330
8418
102
}
330
8418
100
AcDbXrecord
280
     1
102
RTVSPost2010Prop28
280
     0
102
RTVSPost2010PropOp28
 70
     1
102
RTVSPost2010Prop29
280
     1
102
RTVSPost2010PropOp29
 70
     1
102
RTVSPost2010Prop30
280
     1
102
RTVSPost2010PropOp30
 70
     1
102
RTVSPost2010Prop31
280
     0
102
RTVSPost2010PropOp31
 70
     1
102
RTVSPost2010Prop32
280
     0
102
RTVSPost2010PropOp32
 70
     1
102
RTVSPost2010Prop33
280
     0
102
RTVSPost2010PropOp33
 70
     1
102
RTVSPost2010Prop34
280
     0
102
RTVSPost2010PropOp34
 70
     1
102
RTVSPost2010Prop35
280
     0
102
RTVSPost2010PropOp35
 70
     1
102
RTVSPost2010Prop36
280
     0
102
RTVSPost2010PropOp36
 70
     1
102
RTVSPost2010Prop37
 90
       50
102
RTVSPost2010PropOp37
 70
     1
102
RTVSPost2010Prop38
140
0.0
102
RTVSPost2010PropOp38
 70
     1
102
RTVSPost2010Prop39
140
1.0
102
RTVSPost2010PropOp39
 70
     1
102
RTVSPost2010Prop40
 90
        0
102
RTVSPost2010PropOp40
 70
     1
102
RTVSPost2010Prop41ColorIndex
 90
       18
102
RTVSPost2010Prop41ColorRGB
 90
        0
102
RTVSPost2010PropOp41
 70
     1
102
RTVSPost2010Prop42
 90
       50
102
RTVSPost2010PropOp42
 70
     1
102
RTVSPost2010Prop43
 90
        3
102
RTVSPost2010PropOp43
 70
     1
102
RTVSPost2010Prop44ColorIndex
 90
        5
102
RTVSPost2010Prop44ColorRGB
 90
      255
102
RTVSPost2010PropOp44
 70
     1
102
RTVSPost2010Prop45
280
     0
102
RTVSPost2010PropOp45
 70
     1
102
RTVSPost2010Prop46
 90
       50
102
RTVSPost2010PropOp46
 70
     1
102
RTVSPost2010Prop47
 90
       50
102
RTVSPost2010PropOp47
 70
     1
102
RTVSPost2010Prop48
 90
       50
102
RTVSPost2010PropOp48
 70
     1
102
RTVSPost2010Prop49
280
     0
102
RTVSPost2010PropOp49
 70
     1
102
RTVSPost2010Prop50
 90
       50
102
RTVSPost2010PropOp50
 70
     1
102
RTVSPost2010Prop51ColorIndex
 90
      256
102
RTVSPost2010Prop51ColorRGB
 90
-16777216
102
RTVSPost2010PropOp51
 70
     0
102
RTVSPost2010Prop52
140
1.0
102
RTVSPost2010PropOp52
 70
     0
102
RTVSPost2010Prop53
 90
        2
102
RTVSPost2010PropOp53
 70
     1
102
RTVSPost2010Prop54
  1
strokes_ogs.tif
102
RTVSPost2010PropOp54
 70
     1
102
RTVSPost2010Prop55
280
     0
102
RTVSPost2010PropOp55
 70
     1
102
RTVSPost2010Prop56
140
1.0
102
RTVSPost2010PropOp56
 70
     1
102
RTVSPost2010Prop57
140
1.0
102
RTVSPost2010PropOp57
 70
     1
102
RTVSPropertyOp0
 70
     1
102
RTVSPropertyOp1
 70
     1
102
RTVSPropertyOp2
 70
     1
102
RTVSPropertyOp3
 70
     1
102
RTVSPropertyOp4
 70
     1
102
RTVSPropertyOp5
 70
     1
102
RTVSPropertyOp6
 70
     1
102
RTVSPropertyOp7
 70
     1
102
RTVSPropertyOp8
 70
     1
102
RTVSPropertyOp9
 70
     1
102
RTVSPropertyOp10
 70
     1
102
RTVSPropertyOp11
 70
     1
102
RTVSPropertyOp12
 70
     1
102
RTVSPropertyOp13
 70
     1
102
RTVSPropertyOp14
 70
     1
102
RTVSPropertyOp15
 70
     1
102
RTVSPropertyOp16
 70
     1
102
RTVSPropertyOp17
 70
     1
102
RTVSPropertyOp18
 70
     1
102
RTVSPropertyOp19
 70
     1
102
RTVSPropertyOp20
 70
     1
102
RTVSPropertyOp21
 70
     1
102
RTVSPropertyOp22
 70
     1
102
RTVSPropertyOp23
 70
     1
102
RTVSPropertyOp24
 70
     1
102
RTVSPropertyOp25
 70
     1
102
RTVSPropertyOp26
 70
     1
102
RTVSPropertyOp27
 70
     1
102
RTVSPropertyOp28
 70
     1
102
RTVSPropertyOp29
 70
     1
102
RTVSPropertyOp30
 70
     1
102
RTVSPropertyOp31
 70
     1
102
RTVSPropertyOp32
 70
     1
102
RTVSPropertyOp33
 70
     1
102
RTVSPropertyOp34
 70
     1
102
RTVSPropertyOp35
 70
     1
102
RTVSPropertyOp36
 70
     1
102
RTVSPropertyOp37
 70
     1
102
RTVSPropertyOp38
 70
     1
102
RTVSPropertyOp39
 70
     1
102
RTVSPropertyOp40
 70
     1
102
RTVSPropertyOp41
 70
     1
102
RTVSPropertyOp42
 70
     1
102
RTVSPropertyOp43
 70
     1
102
RTVSPropertyOp44
 70
     1
102
RTVSPropertyOp45
 70
     1
102
RTVSPropertyOp46
 70
     1
102
RTVSPropertyOp47
 70
     1
102
RTVSPropertyOp48
 70
     1
102
RTVSPropertyOp49
 70
     1
102
RTVSPropertyOp50
 70
     1
102
RTVSPropertyOp51
 70
     0
102
RTVSPropertyOp52
 70
     0
102
RTVSPropertyOp53
 70
     1
102
RTVSPropertyOp54
 70
     1
102
RTVSPropertyOp55
 70
     1
102
RTVSPropertyOp56
 70
     1
102
RTVSPropertyOp57
 70
     1
102
RTVSPropertyOp58
 70
     1
102
RTVSPropertyOp59
 70
     1
102
RTVSPropertyOp60
 70
     1
102
RTVSPropertyOp61
 70
     1
102
RTVSPropertyOp62
 70
     1
  0
ENDSEC
  0
EOF
