  0
SECTION
  2
HEADER
  9
$ACADVER
  1
AC1015
  9
$ACADMAINTVER
 70
    20
  9
$DWGCODEPAGE
  3
ANSI_932
  9
$INSBASE
 10
0.0
 20
0.0
 30
0.0
  9
$EXTMIN
 10
-0.1281640493871237
 20
-0.1800399741405272
 30
-0.0015258207003583
  9
$EXTMAX
 10
4200.128183607161
 20
5900.180067448153
 30
0.0000000349246037
  9
$LIMMIN
 10
0.0
 20
0.0
  9
$LIMMAX
 10
297.0
 20
210.0
  9
$ORTHOMODE
 70
     1
  9
$REGENMODE
 70
     1
  9
$FILLMODE
 70
     0
  9
$QTEXTMODE
 70
     0
  9
$MIRRTEXT
 70
     1
  9
$LTSCALE
 40
100.0
  9
$ATTMODE
 70
     1
  9
$TEXTSIZE
 40
180.0
  9
$TRACEWID
 40
0.05
  9
$TEXTSTYLE
  7
STANDARD
  9
$CLAYER
  8
3
  9
$CELTYPE
  6
ByLayer
  9
$CECOLOR
 62
   256
  9
$CELTSCALE
 40
1.0
  9
$DISPSILH
 70
     0
  9
$DIMSCALE
 40
20.0
  9
$DIMASZ
 40
2.0
  9
$DIMEXO
 40
1.0
  9
$DIMDLI
 40
10.0
  9
$DIMRND
 40
0.0
  9
$DIMDLE
 40
0.0
  9
$DIMEXE
 40
1.0
  9
$DIMTP
 40
1.0
  9
$DIMTM
 40
1.0
  9
$DIMTXT
 40
3.0
  9
$DIMCEN
 40
0.0
  9
$DIMTSZ
 40
0.0
  9
$DIMTOL
 70
     0
  9
$DIMLIM
 70
     0
  9
$DIMTIH
 70
     0
  9
$DIMTOH
 70
     0
  9
$DIMSE1
 70
     0
  9
$DIMSE2
 70
     0
  9
$DIMTAD
 70
     1
  9
$DIMZIN
 70
     8
  9
$DIMBLK
  1

  9
$DIMASO
 70
     1
  9
$DIMSHO
 70
     1
  9
$DIMPOST
  1

  9
$DIMAPOST
  1

  9
$DIMALT
 70
     0
  9
$DIMALTD
 70
     2
  9
$DIMALTF
 40
0.039
  9
$DIMLFAC
 40
1.0
  9
$DIMTOFL
 70
     1
  9
$DIMTVP
 40
0.0
  9
$DIMTIX
 70
     0
  9
$DIMSOXD
 70
     0
  9
$DIMSAH
 70
     1
  9
$DIMBLK1
  1
OPEN
  9
$DIMBLK2
  1
OPEN
  9
$DIMSTYLE
  2
IGA
  9
$DIMCLRD
 70
     0
  9
$DIMCLRE
 70
     0
  9
$DIMCLRT
 70
     0
  9
$DIMTFAC
 40
10.0
  9
$DIMGAP
 40
1.0
  9
$DIMJUST
 70
     0
  9
$DIMSD1
 70
     0
  9
$DIMSD2
 70
     0
  9
$DIMTOLJ
 70
     1
  9
$DIMTZIN
 70
     0
  9
$DIMALTZ
 70
     0
  9
$DIMALTTZ
 70
     0
  9
$DIMUPT
 70
     0
  9
$DIMDEC
 70
     4
  9
$DIMTDEC
 70
     4
  9
$DIMALTU
 70
     2
  9
$DIMALTTD
 70
     2
  9
$DIMTXSTY
  7
STANDARD
  9
$DIMAUNIT
 70
     0
  9
$DIMADEC
 70
     0
  9
$DIMALTRND
 40
0.0
  9
$DIMAZIN
 70
     0
  9
$DIMDSEP
 70
    46
  9
$DIMATFIT
 70
     3
  9
$DIMFRAC
 70
     0
  9
$DIMLDRBLK
  1
OPEN
  9
$DIMLUNIT
 70
     2
  9
$DIMLWD
 70
    -2
  9
$DIMLWE
 70
    -2
  9
$DIMTMOVE
 70
     0
  9
$LUNITS
 70
     2
  9
$LUPREC
 70
     3
  9
$SKETCHINC
 40
0.1
  9
$FILLETRAD
 40
50.0
  9
$AUNITS
 70
     0
  9
$AUPREC
 70
     0
  9
$MENU
  1
acad
  9
$ELEVATION
 40
0.0
  9
$PELEVATION
 40
0.0
  9
$THICKNESS
 40
0.0
  9
$LIMCHECK
 70
     0
  9
$CHAMFERA
 40
0.5
  9
$CHAMFERB
 40
0.5
  9
$CHAMFERC
 40
0.0
  9
$CHAMFERD
 40
0.0
  9
$SKPOLY
 70
     0
  9
$TDCREATE
 40
2451387.477422685
  9
$TDUCREATE
 40
2451387.102422685
  9
$TDUPDATE
 40
2460262.644599873
  9
$TDUUPDATE
 40
2460262.269599873
  9
$TDINDWG
 40
0.0138710995
  9
$TDUSRTIMER
 40
0.0138710880
  9
$USRTIMER
 70
     1
  9
$ANGBASE
 50
0.0
  9
$ANGDIR
 70
     0
  9
$PDMODE
 70
     0
  9
$PDSIZE
 40
0.0
  9
$PLINEWID
 40
0.0
  9
$SPLFRAME
 70
     0
  9
$SPLINETYPE
 70
     6
  9
$SPLINESEGS
 70
     8
  9
$HANDSEED
  5
82BA
  9
$SURFTAB1
 70
     6
  9
$SURFTAB2
 70
     6
  9
$SURFTYPE
 70
     6
  9
$SURFU
 70
     6
  9
$SURFV
 70
     6
  9
$UCSBASE
  2

  9
$UCSNAME
  2

  9
$UCSORG
 10
0.0
 20
0.0
 30
0.0
  9
$UCSXDIR
 10
1.0
 20
0.0
 30
0.0
  9
$UCSYDIR
 10
0.0
 20
1.0
 30
0.0
  9
$UCSORTHOREF
  2

  9
$UCSORTHOVIEW
 70
     0
  9
$UCSORGTOP
 10
0.0
 20
0.0
 30
0.0
  9
$UCSORGBOTTOM
 10
0.0
 20
0.0
 30
0.0
  9
$UCSORGLEFT
 10
0.0
 20
0.0
 30
0.0
  9
$UCSORGRIGHT
 10
0.0
 20
0.0
 30
0.0
  9
$UCSORGFRONT
 10
0.0
 20
0.0
 30
0.0
  9
$UCSORGBACK
 10
0.0
 20
0.0
 30
0.0
  9
$PUCSBASE
  2

  9
$PUCSNAME
  2

  9
$PUCSORG
 10
0.0
 20
0.0
 30
0.0
  9
$PUCSXDIR
 10
1.0
 20
0.0
 30
0.0
  9
$PUCSYDIR
 10
0.0
 20
1.0
 30
0.0
  9
$PUCSORTHOREF
  2

  9
$PUCSORTHOVIEW
 70
     0
  9
$PUCSORGTOP
 10
0.0
 20
0.0
 30
0.0
  9
$PUCSORGBOTTOM
 10
0.0
 20
0.0
 30
0.0
  9
$PUCSORGLEFT
 10
0.0
 20
0.0
 30
0.0
  9
$PUCSORGRIGHT
 10
0.0
 20
0.0
 30
0.0
  9
$PUCSORGFRONT
 10
0.0
 20
0.0
 30
0.0
  9
$PUCSORGBACK
 10
0.0
 20
0.0
 30
0.0
  9
$USERI1
 70
     0
  9
$USERI2
 70
     0
  9
$USERI3
 70
     0
  9
$USERI4
 70
     0
  9
$USERI5
 70
     0
  9
$USERR1
 40
0.0
  9
$USERR2
 40
0.0
  9
$USERR3
 40
0.0
  9
$USERR4
 40
0.0
  9
$USERR5
 40
0.0
  9
$WORLDVIEW
 70
     1
  9
$SHADEDGE
 70
     3
  9
$SHADEDIF
 70
    70
  9
$TILEMODE
 70
     1
  9
$MAXACTVP
 70
    16
  9
$PINSBASE
 10
0.0
 20
0.0
 30
0.0
  9
$PLIMCHECK
 70
     0
  9
$PEXTMIN
 10
1.000000000000000E+20
 20
1.000000000000000E+20
 30
1.000000000000000E+20
  9
$PEXTMAX
 10
-1.000000000000000E+20
 20
-1.000000000000000E+20
 30
-1.000000000000000E+20
  9
$PLIMMIN
 10
0.0
 20
0.0
  9
$PLIMMAX
 10
12.0
 20
9.0
  9
$UNITMODE
 70
     0
  9
$VISRETAIN
 70
     0
  9
$PLINEGEN
 70
     0
  9
$PSLTSCALE
 70
     1
  9
$TREEDEPTH
 70
  3020
  9
$CMLSTYLE
  2
Standard
  9
$CMLJUST
 70
     0
  9
$CMLSCALE
 40
1.0
  9
$PROXYGRAPHICS
 70
     1
  9
$MEASUREMENT
 70
     0
  9
$CELWEIGHT
370
    -1
  9
$ENDCAPS
280
     0
  9
$JOINSTYLE
280
     0
  9
$LWDISPLAY
290
     0
  9
$INSUNITS
 70
     0
  9
$HYPERLINKBASE
  1

  9
$STYLESHEET
  1

  9
$XEDIT
290
     1
  9
$CEPSNTYPE
380
     0
  9
$PSTYLEMODE
290
     1
  9
$FINGERPRINTGUID
  2
{8417ED2C-6336-4B49-9ACB-0A9201670112}
  9
$VERSIONGUID
  2
{A2D9B825-3400-4228-8E17-F3291B4FD8A5}
  9
$EXTNAMES
290
     1
  9
$PSVPSCALE
 40
0.0
  9
$OLESTARTUP
290
     0
  0
ENDSEC
  0
SECTION
  2
CLASSES
  0
CLASS
  1
ACDBDICTIONARYWDFLT
  2
AcDbDictionaryWithDefault
  3
ObjectDBX Classes
 90
        0
280
     0
281
     0
  0
CLASS
  1
MATERIAL
  2
AcDbMaterial
  3
ObjectDBX Classes
 90
     1153
280
     0
281
     0
  0
CLASS
  1
VISUALSTYLE
  2
AcDbVisualStyle
  3
ObjectDBX Classes
 90
     4095
280
     0
281
     0
  0
CLASS
  1
SCALE
  2
AcDbScale
  3
ObjectDBX Classes
 90
     1153
280
     0
281
     0
  0
CLASS
  1
TABLESTYLE
  2
AcDbTableStyle
  3
ObjectDBX Classes
 90
     4095
280
     0
281
     0
  0
CLASS
  1
MLEADERSTYLE
  2
AcDbMLeaderStyle
  3
ACDB_MLEADERSTYLE_CLASS
 90
     4095
280
     0
281
     0
  0
CLASS
  1
ACDBSECTIONVIEWSTYLE
  2
AcDbSectionViewStyle
  3
ObjectDBX Classes
 90
     1025
280
     0
281
     0
  0
CLASS
  1
ACDBDETAILVIEWSTYLE
  2
AcDbDetailViewStyle
  3
ObjectDBX Classes
 90
     1025
280
     0
281
     0
  0
CLASS
  1
DICTIONARYVAR
  2
AcDbDictionaryVar
  3
ObjectDBX Classes
 90
        0
280
     0
281
     0
  0
CLASS
  1
CELLSTYLEMAP
  2
AcDbCellStyleMap
  3
ObjectDBX Classes
 90
     1152
280
     0
281
     0
  0
CLASS
  1
ACDBPLACEHOLDER
  2
AcDbPlaceHolder
  3
ObjectDBX Classes
 90
        0
280
     0
281
     0
  0
CLASS
  1
LAYOUT
  2
AcDbLayout
  3
ObjectDBX Classes
 90
        0
280
     0
281
     0
  0
ENDSEC
  0
SECTION
  2
TABLES
  0
TABLE
  2
VPORT
  5
802F
330
0
100
AcDbSymbolTable
 70
     1
  0
VPORT
  5
809B
330
802F
100
AcDbSymbolTableRecord
100
AcDbViewportTableRecord
  2
*ACTIVE
 70
     0
 10
0.0
 20
0.0
 11
1.0
 21
1.0
 12
2100.000009778887
 22
2950.000013737006
 13
0.0
 23
0.0
 14
10.0
 24
10.0
 15
10.0
 25
10.0
 16
0.0
 26
0.0
 36
1.0
 17
0.0
 27
0.0
 37
0.0
 40
5938.142562752639
 41
2.050213675213675
 42
50.0
 43
0.0
 44
0.0
 50
0.0
 51
0.0
 71
     0
 72
   100
 73
     1
 74
     0
 75
     0
 76
     0
 77
     0
 78
     0
281
     0
 65
     1
110
0.0
120
0.0
130
0.0
111
1.0
121
0.0
131
0.0
112
0.0
122
1.0
132
0.0
 79
     0
146
0.0
1001
ACAD_NAV_VCDISPLAY
1070
     3
  0
ENDTAB
  0
TABLE
  2
LTYPE
  5
802C
330
0
100
AcDbSymbolTable
 70
     4
  0
LTYPE
  5
8081
330
802C
100
AcDbSymbolTableRecord
100
AcDbLinetypeTableRecord
  2
ByBlock
 70
     0
  3

 72
    65
 73
     0
 40
0.0
  0
LTYPE
  5
8082
330
802C
100
AcDbSymbolTableRecord
100
AcDbLinetypeTableRecord
  2
ByLayer
 70
     0
  3

 72
    65
 73
     0
 40
0.0
  0
LTYPE
  5
8083
330
802C
100
AcDbSymbolTableRecord
100
AcDbLinetypeTableRecord
  2
CONTINUOUS
 70
     0
  3
Solid line
 72
    65
 73
     0
 40
0.0
  0
LTYPE
  5
809C
330
802C
100
AcDbSymbolTableRecord
100
AcDbLinetypeTableRecord
  2
CENTER
 70
     0
  3
____ _ ____ _ ____ _ ____ _ ____ _ ____ _ ____ 
 72
    65
 73
     4
 40
2.0
 49
1.25
 74
     0
 49
-0.25
 74
     0
 49
0.25
 74
     0
 49
-0.25
 74
     0
  0
ENDTAB
  0
TABLE
  2
LAYER
  5
8029
330
0
100
AcDbSymbolTable
 70
     6
  0
LAYER
  5
807B
102
{ACAD_XDICTIONARY
360
8264
102
}
330
8029
100
AcDbSymbolTableRecord
100
AcDbLayerTableRecord
  2
0
 70
     0
 62
     7
  6
CONTINUOUS
370
    -3
390
8036
  0
LAYER
  5
809A
102
{ACAD_XDICTIONARY
360
8266
102
}
330
8029
100
AcDbSymbolTableRecord
100
AcDbLayerTableRecord
  2
3
 70
     0
 62
     2
  6
CONTINUOUS
370
    -3
390
8036
  0
LAYER
  5
809D
102
{ACAD_XDICTIONARY
360
8268
102
}
330
8029
100
AcDbSymbolTableRecord
100
AcDbLayerTableRecord
  2
2
 70
     0
 62
     3
  6
CENTER
370
    -3
390
8036
  0
LAYER
  5
809E
102
{ACAD_XDICTIONARY
360
826A
102
}
330
8029
100
AcDbSymbolTableRecord
100
AcDbLayerTableRecord
  2
1
 70
     0
 62
     4
  6
CONTINUOUS
370
    -3
390
8036
  0
LAYER
  5
809F
102
{ACAD_XDICTIONARY
360
826C
102
}
330
8029
100
AcDbSymbolTableRecord
100
AcDbLayerTableRecord
  2
4
 70
     0
 62
     7
  6
CONTINUOUS
370
    -3
390
8036
  0
LAYER
  5
80A0
330
8029
100
AcDbSymbolTableRecord
100
AcDbLayerTableRecord
  2
DEFPOINTS
 70
     0
 62
     7
  6
CONTINUOUS
290
     0
370
    -3
390
8036
  0
ENDTAB
  0
TABLE
  2
STYLE
  5
802A
330
0
100
AcDbSymbolTable
 70
     2
  0
STYLE
  5
807C
330
802A
100
AcDbSymbolTableRecord
100
AcDbTextStyleTableRecord
  2
STANDARD
 70
     0
 40
0.0
 41
1.0
 50
0.0
 71
     0
 42
180.0
  3
simplex.shx
  4
extfont.shx
  0
STYLE
  5
8080
330
802A
100
AcDbSymbolTableRecord
100
AcDbTextStyleTableRecord
  2
Annotative
 70
     0
 40
0.0
 41
1.0
 50
0.0
 71
     0
 42
0.2
  3
txt
  4

1001
AcadAnnotative
1000
AnnotativeData
1002
{
1070
     1
1070
     1
1002
}
  0
ENDTAB
  0
TABLE
  2
VIEW
  5
802D
330
0
100
AcDbSymbolTable
 70
     0
  0
ENDTAB
  0
TABLE
  2
UCS
  5
802E
330
0
100
AcDbSymbolTable
 70
     0
  0
ENDTAB
  0
TABLE
  2
APPID
  5
8030
330
0
100
AcDbSymbolTable
 70
     8
  0
APPID
  5
807D
330
8030
100
AcDbSymbolTableRecord
100
AcDbRegAppTableRecord
  2
ACAD
 70
     0
  0
APPID
  5
8084
330
8030
100
AcDbSymbolTableRecord
100
AcDbRegAppTableRecord
  2
AcadAnnotative
 70
     0
  0
APPID
  5
80DE
330
8030
100
AcDbSymbolTableRecord
100
AcDbRegAppTableRecord
  2
ACAD_DSTYLE_DIMJAG
 70
     0
  0
APPID
  5
80DF
330
8030
100
AcDbSymbolTableRecord
100
AcDbRegAppTableRecord
  2
ACAD_DSTYLE_DIMTALN
 70
     0
  0
APPID
  5
810C
330
8030
100
AcDbSymbolTableRecord
100
AcDbRegAppTableRecord
  2
AcadAnnoMonitorAlertIconDisabled
 70
     0
  0
APPID
  5
810D
330
8030
100
AcDbSymbolTableRecord
100
AcDbRegAppTableRecord
  2
ACAD_EXEMPT_FROM_CAD_STANDARDS
 70
     0
  0
APPID
  5
8278
330
8030
100
AcDbSymbolTableRecord
100
AcDbRegAppTableRecord
  2
ACAD_NAV_VCDISPLAY
 70
     0
  0
APPID
  5
82B1
330
8030
100
AcDbSymbolTableRecord
100
AcDbRegAppTableRecord
  2
ACAD_MLEADERVER
 70
     0
  0
ENDTAB
  0
TABLE
  2
DIMSTYLE
  5
8031
330
0
100
AcDbSymbolTable
 70
     5
100
AcDbDimStyleTable
 71
     1
340
80A1
  0
DIMSTYLE
105
807E
102
{ACAD_REACTORS
330
7C1C
330
7C1D
330
7C44
330
7C47
330
7C77
330
7C78
330
7C79
330
7C8E
330
7C91
330
7C94
330
7F4A
330
7F57
330
7F64
330
7F71
330
7F8D
102
}
330
8031
100
AcDbSymbolTableRecord
100
AcDbDimStyleTableRecord
  2
Standard
 70
     0
340
807C
  0
DIMSTYLE
105
807F
330
8031
100
AcDbSymbolTableRecord
100
AcDbDimStyleTableRecord
  2
Annotative
 70
     0
340
807C
1001
AcadAnnotative
1000
AnnotativeData
1002
{
1070
     1
1070
     1
1002
}
  0
DIMSTYLE
105
80A1
102
{ACAD_REACTORS
330
80E0
330
80ED
330
8152
330
815F
330
8175
330
8182
330
824E
102
}
330
8031
100
AcDbSymbolTableRecord
100
AcDbDimStyleTableRecord
  2
IGA
 70
     0
 40
2.0
 41
2.0
 42
0.5
 43
10.0
 44
1.0
 47
1.0
 48
1.0
 73
     0
 74
     0
 77
     1
 78
     8
140
3.0
141
0.0
143
0.03937
146
10.0
147
1.0
173
     1
271
     3
272
     3
279
     2
284
     8
285
     8
286
     8
340
807C
  0
DIMSTYLE
105
80A2
330
8031
100
AcDbSymbolTableRecord
100
AcDbDimStyleTableRecord
  2
MATSU
 70
     0
 41
2.0
 42
1.0
 43
10.0
 44
1.0
 73
     0
 74
     0
 77
     1
 78
     8
140
3.0
141
0.0
143
0.03937
147
0.5
172
     1
173
     1
176
   256
177
   256
178
   256
271
     3
272
     3
279
     2
284
     8
285
     8
286
     8
340
807C
  0
ENDTAB
  0
TABLE
  2
BLOCK_RECORD
  5
8028
330
0
100
AcDbSymbolTable
 70
    37
  0
BLOCK_RECORD
  5
8096
330
8028
100
AcDbSymbolTableRecord
100
AcDbBlockTableRecord
  2
*Model_Space
340
8099
  0
BLOCK_RECORD
  5
8092
330
8028
100
AcDbSymbolTableRecord
100
AcDbBlockTableRecord
  2
*Paper_Space
340
8095
  0
BLOCK_RECORD
  5
80A6
330
8028
100
AcDbSymbolTableRecord
100
AcDbBlockTableRecord
  2
$MODEL_SPACE
340
0
  0
BLOCK_RECORD
  5
80A8
330
8028
100
AcDbSymbolTableRecord
100
AcDbBlockTableRecord
  2
$PAPER_SPACE
340
0
  0
BLOCK_RECORD
  5
80AA
330
8028
100
AcDbSymbolTableRecord
100
AcDbBlockTableRecord
  2
_OPEN
340
0
102
{BLKREFS
331
8136
331
8137
331
813F
331
8140
331
8159
331
815A
331
816F
331
8170
331
8197
331
8198
331
7DCC
331
7DCD
331
7DD7
331
7DD8
331
7DE2
331
7DE3
331
7F2E
331
7F2F
331
8012
331
8013
331
7F7A
331
7F7B
331
7F86
331
7F87
331
7E19
331
7E1A
331
7E24
331
7E25
331
7E2F
331
7E30
331
7E3A
331
7E3B
331
7F23
331
7F24
331
8002
331
8003
331
800A
331
800B
331
7E7A
331
7E7B
331
7E9F
331
801A
331
801B
331
7F0E
331
7F0F
331
7F43
331
7F44
331
7F50
331
7F51
331
7F5D
331
7F5E
331
7F6A
331
7F6B
331
8243
331
825E
331
825F
102
}
  0
BLOCK_RECORD
  5
80AC
330
8028
100
AcDbSymbolTableRecord
100
AcDbBlockTableRecord
  2
YA_N
340
0
102
{BLKREFS
331
7BED
331
7C03
102
}
  0
BLOCK_RECORD
  5
80AE
330
8028
100
AcDbSymbolTableRecord
100
AcDbBlockTableRecord
  2
_DOT
340
0
102
{BLKREFS
331
7E9E
102
}
  0
BLOCK_RECORD
  5
80B0
330
8028
100
AcDbSymbolTableRecord
100
AcDbBlockTableRecord
  2
*D5
340
0
  0
BLOCK_RECORD
  5
80B2
330
8028
100
AcDbSymbolTableRecord
100
AcDbBlockTableRecord
  2
*D6
340
0
  0
BLOCK_RECORD
  5
80B4
330
8028
100
AcDbSymbolTableRecord
100
AcDbBlockTableRecord
  2
*D7
340
0
  0
BLOCK_RECORD
  5
80B6
330
8028
100
AcDbSymbolTableRecord
100
AcDbBlockTableRecord
  2
*D8
340
0
  0
BLOCK_RECORD
  5
80B8
330
8028
100
AcDbSymbolTableRecord
100
AcDbBlockTableRecord
  2
*D9
340
0
  0
BLOCK_RECORD
  5
80BA
330
8028
100
AcDbSymbolTableRecord
100
AcDbBlockTableRecord
  2
*D10
340
0
  0
BLOCK_RECORD
  5
80BC
330
8028
100
AcDbSymbolTableRecord
100
AcDbBlockTableRecord
  2
*D11
340
0
  0
BLOCK_RECORD
  5
80BE
330
8028
100
AcDbSymbolTableRecord
100
AcDbBlockTableRecord
  2
*D12
340
0
  0
BLOCK_RECORD
  5
80C0
330
8028
100
AcDbSymbolTableRecord
100
AcDbBlockTableRecord
  2
*D13
340
0
  0
BLOCK_RECORD
  5
80C2
330
8028
100
AcDbSymbolTableRecord
100
AcDbBlockTableRecord
  2
*D14
340
0
  0
BLOCK_RECORD
  5
80C4
330
8028
100
AcDbSymbolTableRecord
100
AcDbBlockTableRecord
  2
*D15
340
0
  0
BLOCK_RECORD
  5
80C6
330
8028
100
AcDbSymbolTableRecord
100
AcDbBlockTableRecord
  2
*D16
340
0
  0
BLOCK_RECORD
  5
80C8
330
8028
100
AcDbSymbolTableRecord
100
AcDbBlockTableRecord
  2
*D17
340
0
  0
BLOCK_RECORD
  5
80CA
330
8028
100
AcDbSymbolTableRecord
100
AcDbBlockTableRecord
  2
*D18
340
0
  0
BLOCK_RECORD
  5
80CC
330
8028
100
AcDbSymbolTableRecord
100
AcDbBlockTableRecord
  2
*D19
340
0
  0
BLOCK_RECORD
  5
80CE
330
8028
100
AcDbSymbolTableRecord
100
AcDbBlockTableRecord
  2
*D20
340
0
  0
BLOCK_RECORD
  5
80D0
330
8028
100
AcDbSymbolTableRecord
100
AcDbBlockTableRecord
  2
*D21
340
0
  0
BLOCK_RECORD
  5
80D2
330
8028
100
AcDbSymbolTableRecord
100
AcDbBlockTableRecord
  2
*D22
340
0
  0
BLOCK_RECORD
  5
80D4
330
8028
100
AcDbSymbolTableRecord
100
AcDbBlockTableRecord
  2
*D23
340
0
  0
BLOCK_RECORD
  5
80D6
330
8028
100
AcDbSymbolTableRecord
100
AcDbBlockTableRecord
  2
*D24
340
0
  0
BLOCK_RECORD
  5
80D8
330
8028
100
AcDbSymbolTableRecord
100
AcDbBlockTableRecord
  2
*D25
340
0
  0
BLOCK_RECORD
  5
80DA
330
8028
100
AcDbSymbolTableRecord
100
AcDbBlockTableRecord
  2
*D26
340
0
  0
BLOCK_RECORD
  5
80E1
330
8028
100
AcDbSymbolTableRecord
100
AcDbBlockTableRecord
  2
*D27
340
0
  0
BLOCK_RECORD
  5
80EE
330
8028
100
AcDbSymbolTableRecord
100
AcDbBlockTableRecord
  2
*D28
340
0
  0
BLOCK_RECORD
  5
8145
330
8028
100
AcDbSymbolTableRecord
100
AcDbBlockTableRecord
  2
*D29
340
0
  0
BLOCK_RECORD
  5
8153
330
8028
100
AcDbSymbolTableRecord
100
AcDbBlockTableRecord
  2
*D30
340
0
  0
BLOCK_RECORD
  5
8160
330
8028
100
AcDbSymbolTableRecord
100
AcDbBlockTableRecord
  2
*D31
340
0
  0
BLOCK_RECORD
  5
8176
330
8028
100
AcDbSymbolTableRecord
100
AcDbBlockTableRecord
  2
*D32
340
0
  0
BLOCK_RECORD
  5
8183
330
8028
100
AcDbSymbolTableRecord
100
AcDbBlockTableRecord
  2
*D33
340
0
  0
BLOCK_RECORD
  5
8236
330
8028
100
AcDbSymbolTableRecord
100
AcDbBlockTableRecord
  2
_DotSmall
340
0
102
{BLKREFS
331
8244
102
}
  0
BLOCK_RECORD
  5
824F
330
8028
100
AcDbSymbolTableRecord
100
AcDbBlockTableRecord
  2
*D36
340
0
  0
ENDTAB
  0
ENDSEC
  0
SECTION
  2
BLOCKS
  0
BLOCK
  5
8097
330
8096
100
AcDbEntity
  8
0
100
AcDbBlockBegin
  2
*Model_Space
 70
     0
 10
0.0
 20
0.0
 30
0.0
  3
*Model_Space
  1

  0
ENDBLK
  5
8098
330
8096
100
AcDbEntity
  8
0
100
AcDbBlockEnd
  0
BLOCK
  5
8093
330
8092
100
AcDbEntity
 67
     1
  8
0
100
AcDbBlockBegin
  2
*Paper_Space
 70
     0
 10
0.0
 20
0.0
 30
0.0
  3
*Paper_Space
  1

  0
ENDBLK
  5
8094
330
8092
100
AcDbEntity
 67
     1
  8
0
100
AcDbBlockEnd
  0
BLOCK
  5
80A7
330
80A6
100
AcDbEntity
  8
0
100
AcDbBlockBegin
  2
$MODEL_SPACE
 70
     0
 10
0.0
 20
0.0
 30
0.0
  3
$MODEL_SPACE
  1

  0
ENDBLK
  5
1B
330
80A6
100
AcDbEntity
  8
0
100
AcDbBlockEnd
  0
BLOCK
  5
80A9
330
80A8
100
AcDbEntity
  8
0
100
AcDbBlockBegin
  2
$PAPER_SPACE
 70
     0
 10
0.0
 20
0.0
 30
0.0
  3
$PAPER_SPACE
  1

  0
ENDBLK
  5
18
330
80A8
100
AcDbEntity
  8
0
100
AcDbBlockEnd
  0
BLOCK
  5
80AB
330
80AA
100
AcDbEntity
  8
0
100
AcDbBlockBegin
  2
_OPEN
 70
     0
 10
0.0
 20
0.0
 30
0.0
  3
_OPEN
  1

  0
LINE
  5
79FD
330
80AA
100
AcDbEntity
  8
0
  6
ByBlock
 62
     0
100
AcDbLine
 10
-1.0
 20
0.1666666666666666
 30
0.0
 11
0.0
 21
0.0
 31
0.0
  0
LINE
  5
79FE
330
80AA
100
AcDbEntity
  8
0
  6
ByBlock
 62
     0
100
AcDbLine
 10
0.0
 20
0.0
 30
0.0
 11
-1.0
 21
-0.1666666666666666
 31
0.0
  0
LINE
  5
79FF
330
80AA
100
AcDbEntity
  8
0
  6
ByBlock
 62
     0
100
AcDbLine
 10
0.0
 20
0.0
 30
0.0
 11
-1.0
 21
0.0
 31
0.0
  0
ENDBLK
  5
7A01
330
80AA
100
AcDbEntity
  8
0
100
AcDbBlockEnd
  0
BLOCK
  5
80AD
330
80AC
100
AcDbEntity
  8
0
100
AcDbBlockBegin
  2
YA_N
 70
     0
 10
0.0
 20
0.0
 30
0.0
  3
YA_N
  1

  0
ENDBLK
  5
7A04
330
80AC
100
AcDbEntity
  8
0
100
AcDbBlockEnd
  0
BLOCK
  5
80AF
330
80AE
100
AcDbEntity
  8
0
100
AcDbBlockBegin
  2
_DOT
 70
     0
 10
0.0
 20
0.0
 30
0.0
  3
_DOT
  1

  0
LWPOLYLINE
  5
7EE6
330
80AE
100
AcDbEntity
  8
0
  6
ByBlock
 62
     0
100
AcDbPolyline
 90
        2
 70
     1
 43
0.25
 10
-0.125
 20
0.0
 42
1.0
 10
0.125
 20
0.0
 42
1.0
  0
LINE
  5
7EEA
330
80AE
100
AcDbEntity
  8
0
  6
ByBlock
 62
     0
100
AcDbLine
 10
-0.25
 20
0.0
 30
0.0
 11
-1.0
 21
0.0
 31
0.0
  0
ENDBLK
  5
7B30
330
80AE
100
AcDbEntity
  8
0
100
AcDbBlockEnd
  0
BLOCK
  5
80B1
330
80B0
100
AcDbEntity
  8
0
100
AcDbBlockBegin
  2
*D5
 70
     1
 10
0.0
 20
0.0
 30
0.0
  3
*D5
  1

  0
LINE
  5
7DC9
330
80B0
100
AcDbEntity
  8
0
  6
ByBlock
100
AcDbLine
 10
-98.34700360576155
 20
1048.09762645012
 30
0.0
 11
-98.34700360576155
 21
1198.05544836713
 31
0.0
  0
LINE
  5
7DCA
330
80B0
100
AcDbEntity
  8
0
  6
ByBlock
100
AcDbLine
 10
551.6529963942383
 20
1048.09762645012
 30
0.0
 11
551.6529963942383
 21
1198.05544836713
 31
0.0
  0
LINE
  5
7DCB
330
80B0
100
AcDbEntity
  8
0
  6
ByBlock
100
AcDbLine
 10
-58.34700360576153
 20
1178.05544836713
 30
0.0
 11
511.6529963942383
 21
1178.05544836713
 31
0.0
  0
INSERT
  5
7DCC
330
80B0
100
AcDbEntity
  8
0
  6
ByBlock
100
AcDbBlockReference
  2
_OPEN
 10
-98.34700360576155
 20
1178.05544836713
 30
0.0
 41
40.0
 42
40.0
 43
40.0
 50
180.0
  0
INSERT
  5
7DCD
330
80B0
100
AcDbEntity
  8
0
  6
ByBlock
100
AcDbBlockReference
  2
_OPEN
 10
551.6529963942383
 20
1178.05544836713
 30
0.0
 41
40.0
 42
40.0
 43
40.0
  0
TEXT
  5
7DCE
330
80B0
100
AcDbEntity
  8
3
100
AcDbText
 10
149.5101392513813
 20
1188.05544836713
 30
0.0
 40
60.0
  1
650
100
AcDbText
  0
POINT
  5
7DCF
330
80B0
100
AcDbEntity
  8
DEFPOINTS
  6
ByBlock
 62
     0
100
AcDbPoint
 10
-98.34700360576155
 20
1028.09762645012
 30
0.0
  0
POINT
  5
7DD0
330
80B0
100
AcDbEntity
  8
DEFPOINTS
  6
ByBlock
 62
     0
100
AcDbPoint
 10
551.6529963942383
 20
1028.09762645012
 30
0.0
  0
POINT
  5
7DD1
330
80B0
100
AcDbEntity
  8
DEFPOINTS
  6
ByBlock
 62
     0
100
AcDbPoint
 10
551.6529963942383
 20
1178.05544836713
 30
0.0
  0
ENDBLK
  5
7DD2
330
80B0
100
AcDbEntity
  8
0
100
AcDbBlockEnd
  0
BLOCK
  5
80B3
330
80B2
100
AcDbEntity
  8
0
100
AcDbBlockBegin
  2
*D6
 70
     1
 10
0.0
 20
0.0
 30
0.0
  3
*D6
  1

  0
LINE
  5
7DD4
330
80B2
100
AcDbEntity
  8
0
  6
ByBlock
100
AcDbLine
 10
-98.34700360576155
 20
1048.09762645012
 30
0.0
 11
-98.34700360576155
 21
1347.599292570813
 31
0.0
  0
LINE
  5
7DD5
330
80B2
100
AcDbEntity
  8
0
  6
ByBlock
100
AcDbLine
 10
579.6529963942385
 20
1094.990599553116
 30
0.0
 11
579.6529963942385
 21
1347.599292570813
 31
0.0
  0
LINE
  5
7DD6
330
80B2
100
AcDbEntity
  8
0
  6
ByBlock
100
AcDbLine
 10
-58.34700360576153
 20
1327.599292570813
 30
0.0
 11
539.6529963942383
 21
1327.599292570813
 31
0.0
  0
INSERT
  5
7DD7
330
80B2
100
AcDbEntity
  8
0
  6
ByBlock
100
AcDbBlockReference
  2
_OPEN
 10
-98.34700360576155
 20
1327.599292570813
 30
0.0
 41
40.0
 42
40.0
 43
40.0
 50
180.0
  0
INSERT
  5
7DD8
330
80B2
100
AcDbEntity
  8
0
  6
ByBlock
100
AcDbBlockReference
  2
_OPEN
 10
579.6529963942385
 20
1327.599292570813
 30
0.0
 41
40.0
 42
40.0
 43
40.0
  0
TEXT
  5
7DD9
330
80B2
100
AcDbEntity
  8
3
100
AcDbText
 10
163.5101392513813
 20
1337.599292570813
 30
0.0
 40
60.0
  1
678
100
AcDbText
  0
POINT
  5
7DDA
330
80B2
100
AcDbEntity
  8
DEFPOINTS
  6
ByBlock
 62
     0
100
AcDbPoint
 10
-98.34700360576155
 20
1028.09762645012
 30
0.0
  0
POINT
  5
7DDB
330
80B2
100
AcDbEntity
  8
DEFPOINTS
  6
ByBlock
 62
     0
100
AcDbPoint
 10
579.6529963942385
 20
1074.990599553116
 30
0.0
  0
POINT
  5
7DDC
330
80B2
100
AcDbEntity
  8
DEFPOINTS
  6
ByBlock
 62
     0
100
AcDbPoint
 10
579.6529963942385
 20
1327.599292570813
 30
0.0
  0
ENDBLK
  5
7DDD
330
80B2
100
AcDbEntity
  8
0
100
AcDbBlockEnd
  0
BLOCK
  5
80B5
330
80B4
100
AcDbEntity
  8
0
100
AcDbBlockBegin
  2
*D7
 70
     1
 10
0.0
 20
0.0
 30
0.0
  3
*D7
  1

  0
LINE
  5
7DDF
330
80B4
100
AcDbEntity
  8
0
  6
ByBlock
100
AcDbLine
 10
2992.796193483283
 20
903.0976264501203
 30
0.0
 11
3240.833227053947
 21
903.0976264501203
 31
0.0
  0
LINE
  5
7DE0
330
80B4
100
AcDbEntity
  8
0
  6
ByBlock
100
AcDbLine
 10
2992.796193483283
 20
233.0976264501205
 30
0.0
 11
3240.833227053947
 21
233.0976264501205
 31
0.0
  0
LINE
  5
7DE1
330
80B4
100
AcDbEntity
  8
0
  6
ByBlock
100
AcDbLine
 10
3220.833227053946
 20
863.0976264501205
 30
0.0
 11
3220.833227053946
 21
273.0976264501205
 31
0.0
  0
INSERT
  5
7DE2
330
80B4
100
AcDbEntity
  8
0
  6
ByBlock
100
AcDbBlockReference
  2
_OPEN
 10
3220.833227053946
 20
903.0976264501203
 30
0.0
 41
40.0
 42
40.0
 43
40.0
 50
90.0
  0
INSERT
  5
7DE3
330
80B4
100
AcDbEntity
  8
0
  6
ByBlock
100
AcDbBlockReference
  2
_OPEN
 10
3220.833227053946
 20
233.0976264501205
 30
0.0
 41
40.0
 42
40.0
 43
40.0
 50
270.0
  0
TEXT
  5
7DE4
330
80B4
100
AcDbEntity
  8
3
100
AcDbText
 10
3210.833227053947
 20
460.9547693072634
 30
0.0
 40
60.0
  1
\U+03C6670
 50
90.0
100
AcDbText
  0
POINT
  5
7DE5
330
80B4
100
AcDbEntity
  8
DEFPOINTS
  6
ByBlock
 62
     0
100
AcDbPoint
 10
2972.796193483283
 20
903.0976264501203
 30
0.0
  0
POINT
  5
7DE6
330
80B4
100
AcDbEntity
  8
DEFPOINTS
  6
ByBlock
 62
     0
100
AcDbPoint
 10
2972.796193483283
 20
233.0976264501205
 30
0.0
  0
POINT
  5
7DE7
330
80B4
100
AcDbEntity
  8
DEFPOINTS
  6
ByBlock
 62
     0
100
AcDbPoint
 10
3220.833227053946
 20
233.0976264501205
 30
0.0
  0
ENDBLK
  5
7DE8
330
80B4
100
AcDbEntity
  8
0
100
AcDbBlockEnd
  0
BLOCK
  5
80B7
330
80B6
100
AcDbEntity
  8
0
100
AcDbBlockBegin
  2
*D8
 70
     1
 10
0.0
 20
0.0
 30
0.0
  3
*D8
  1

  0
LINE
  5
7F2B
330
80B6
100
AcDbEntity
  8
0
  6
ByBlock
100
AcDbLine
 10
2847.329593074301
 20
2642.899274892485
 30
0.0
 11
2847.329593074301
 21
2774.56938158193
 31
0.0
  0
LINE
  5
7F2C
330
80B6
100
AcDbEntity
  8
0
  6
ByBlock
100
AcDbLine
 10
3647.3295930743
 20
2642.899274892485
 30
0.0
 11
3647.3295930743
 21
2774.56938158193
 31
0.0
  0
LINE
  5
7F2D
330
80B6
100
AcDbEntity
  8
0
  6
ByBlock
100
AcDbLine
 10
2887.329593074301
 20
2754.56938158193
 30
0.0
 11
3607.3295930743
 21
2754.56938158193
 31
0.0
  0
INSERT
  5
7F2E
330
80B6
100
AcDbEntity
  8
0
  6
ByBlock
100
AcDbBlockReference
  2
_OPEN
 10
2847.329593074301
 20
2754.56938158193
 30
0.0
 41
40.0
 42
40.0
 43
40.0
 50
180.0
  0
INSERT
  5
7F2F
330
80B6
100
AcDbEntity
  8
0
  6
ByBlock
100
AcDbBlockReference
  2
_OPEN
 10
3647.3295930743
 20
2754.56938158193
 30
0.0
 41
40.0
 42
40.0
 43
40.0
  0
TEXT
  5
7F30
330
80B6
100
AcDbEntity
  8
3
100
AcDbText
 10
3170.186735931443
 20
2764.56938158193
 30
0.0
 40
60.0
  1
800
100
AcDbText
  0
POINT
  5
7F31
330
80B6
100
AcDbEntity
  8
DEFPOINTS
  6
ByBlock
 62
     0
100
AcDbPoint
 10
2847.329593074301
 20
2622.899274892485
 30
0.0
  0
POINT
  5
7F32
330
80B6
100
AcDbEntity
  8
DEFPOINTS
  6
ByBlock
 62
     0
100
AcDbPoint
 10
3647.3295930743
 20
2622.899274892485
 30
0.0
  0
POINT
  5
7F33
330
80B6
100
AcDbEntity
  8
DEFPOINTS
  6
ByBlock
 62
     0
100
AcDbPoint
 10
3647.3295930743
 20
2754.56938158193
 30
0.0
  0
ENDBLK
  5
7F34
330
80B6
100
AcDbEntity
  8
0
100
AcDbBlockEnd
  0
BLOCK
  5
80B9
330
80B8
100
AcDbEntity
  8
0
100
AcDbBlockBegin
  2
*D9
 70
     1
 10
0.0
 20
0.0
 30
0.0
  3
*D9
  1

  0
LINE
  5
7E16
330
80B8
100
AcDbEntity
  8
0
  6
ByBlock
100
AcDbLine
 10
-470.3470036057614
 20
2138.414968530632
 30
0.0
 11
-470.3470036057614
 21
1863.01337041143
 31
0.0
  0
LINE
  5
7E17
330
80B8
100
AcDbEntity
  8
0
  6
ByBlock
100
AcDbLine
 10
979.6529963942385
 20
2138.414968530633
 30
0.0
 11
979.6529963942385
 21
1863.01337041143
 31
0.0
  0
LINE
  5
7E18
330
80B8
100
AcDbEntity
  8
0
  6
ByBlock
100
AcDbLine
 10
-430.3470036057614
 20
1883.01337041143
 30
0.0
 11
939.6529963942384
 21
1883.01337041143
 31
0.0
  0
INSERT
  5
7E19
330
80B8
100
AcDbEntity
  8
0
  6
ByBlock
100
AcDbBlockReference
  2
_OPEN
 10
-470.3470036057614
 20
1883.01337041143
 30
0.0
 41
40.0
 42
40.0
 43
40.0
 50
180.0
  0
INSERT
  5
7E1A
330
80B8
100
AcDbEntity
  8
0
  6
ByBlock
100
AcDbBlockReference
  2
_OPEN
 10
979.6529963942385
 20
1883.01337041143
 30
0.0
 41
40.0
 42
40.0
 43
40.0
  0
TEXT
  5
7E1B
330
80B8
100
AcDbEntity
  8
3
100
AcDbText
 10
154.6529963942385
 20
1893.01337041143
 30
0.0
 40
60.0
  1
1450
100
AcDbText
  0
POINT
  5
7E1C
330
80B8
100
AcDbEntity
  8
DEFPOINTS
  6
ByBlock
 62
     0
100
AcDbPoint
 10
-470.3470036057614
 20
2158.414968530632
 30
0.0
  0
POINT
  5
7E1D
330
80B8
100
AcDbEntity
  8
DEFPOINTS
  6
ByBlock
 62
     0
100
AcDbPoint
 10
979.6529963942385
 20
2158.414968530633
 30
0.0
  0
POINT
  5
7E1E
330
80B8
100
AcDbEntity
  8
DEFPOINTS
  6
ByBlock
 62
     0
100
AcDbPoint
 10
979.6529963942385
 20
1883.01337041143
 30
0.0
  0
ENDBLK
  5
7E1F
330
80B8
100
AcDbEntity
  8
0
100
AcDbBlockEnd
  0
BLOCK
  5
80BB
330
80BA
100
AcDbEntity
  8
0
100
AcDbBlockBegin
  2
*D10
 70
     1
 10
0.0
 20
0.0
 30
0.0
  3
*D10
  1

  0
LINE
  5
7E21
330
80BA
100
AcDbEntity
  8
0
  6
ByBlock
100
AcDbLine
 10
999.6529963942384
 20
2158.414968530633
 30
0.0
 11
1208.444967392846
 21
2158.414968530633
 31
0.0
  0
LINE
  5
7E22
330
80BA
100
AcDbEntity
  8
0
  6
ByBlock
100
AcDbLine
 10
999.6529963942387
 20
3164.414968530635
 30
0.0
 11
1208.444967392846
 21
3164.414968530635
 31
0.0
  0
LINE
  5
7E23
330
80BA
100
AcDbEntity
  8
0
  6
ByBlock
100
AcDbLine
 10
1188.444967392846
 20
2198.414968530633
 30
0.0
 11
1188.444967392846
 21
3124.414968530635
 31
0.0
  0
INSERT
  5
7E24
330
80BA
100
AcDbEntity
  8
0
  6
ByBlock
100
AcDbBlockReference
  2
_OPEN
 10
1188.444967392846
 20
2158.414968530633
 30
0.0
 41
40.0
 42
40.0
 43
40.0
 50
270.0
  0
INSERT
  5
7E25
330
80BA
100
AcDbEntity
  8
0
  6
ByBlock
100
AcDbBlockReference
  2
_OPEN
 10
1188.444967392846
 20
3164.414968530635
 30
0.0
 41
40.0
 42
40.0
 43
40.0
 50
90.0
  0
TEXT
  5
7E26
330
80BA
100
AcDbEntity
  8
3
100
AcDbText
 10
1178.444967392846
 20
2562.843539959205
 30
0.0
 40
60.0
  1
1006
 50
90.0
100
AcDbText
  0
POINT
  5
7E27
330
80BA
100
AcDbEntity
  8
DEFPOINTS
  6
ByBlock
 62
     0
100
AcDbPoint
 10
979.6529963942385
 20
2158.414968530633
 30
0.0
  0
POINT
  5
7E28
330
80BA
100
AcDbEntity
  8
DEFPOINTS
  6
ByBlock
 62
     0
100
AcDbPoint
 10
979.6529963942386
 20
3164.414968530635
 30
0.0
  0
POINT
  5
7E29
330
80BA
100
AcDbEntity
  8
DEFPOINTS
  6
ByBlock
 62
     0
100
AcDbPoint
 10
1188.444967392846
 20
3164.414968530635
 30
0.0
  0
ENDBLK
  5
7E2A
330
80BA
100
AcDbEntity
  8
0
100
AcDbBlockEnd
  0
BLOCK
  5
80BD
330
80BC
100
AcDbEntity
  8
0
100
AcDbBlockBegin
  2
*D11
 70
     1
 10
0.0
 20
0.0
 30
0.0
  3
*D11
  1

  0
LINE
  5
7E2C
330
80BC
100
AcDbEntity
  8
0
  6
ByBlock
100
AcDbLine
 10
179.6529963942384
 20
3184.414968530634
 30
0.0
 11
179.6529963942384
 21
3333.020259029039
 31
0.0
  0
LINE
  5
7E2D
330
80BC
100
AcDbEntity
  8
0
  6
ByBlock
100
AcDbLine
 10
979.6529963942386
 20
3184.414968530635
 30
0.0
 11
979.6529963942386
 21
3333.020259029039
 31
0.0
  0
LINE
  5
7E2E
330
80BC
100
AcDbEntity
  8
0
  6
ByBlock
100
AcDbLine
 10
219.6529963942384
 20
3313.020259029039
 30
0.0
 11
939.652996394239
 21
3313.020259029039
 31
0.0
  0
INSERT
  5
7E2F
330
80BC
100
AcDbEntity
  8
0
  6
ByBlock
100
AcDbBlockReference
  2
_OPEN
 10
179.6529963942384
 20
3313.020259029039
 30
0.0
 41
40.0
 42
40.0
 43
40.0
 50
180.0
  0
INSERT
  5
7E30
330
80BC
100
AcDbEntity
  8
0
  6
ByBlock
100
AcDbBlockReference
  2
_OPEN
 10
979.6529963942386
 20
3313.020259029039
 30
0.0
 41
40.0
 42
40.0
 43
40.0
  0
TEXT
  5
7E31
330
80BC
100
AcDbEntity
  8
3
100
AcDbText
 10
502.5101392513816
 20
3323.020259029039
 30
0.0
 40
60.0
  1
800
100
AcDbText
  0
POINT
  5
7E32
330
80BC
100
AcDbEntity
  8
DEFPOINTS
  6
ByBlock
 62
     0
100
AcDbPoint
 10
179.6529963942384
 20
3164.414968530634
 30
0.0
  0
POINT
  5
7E33
330
80BC
100
AcDbEntity
  8
DEFPOINTS
  6
ByBlock
 62
     0
100
AcDbPoint
 10
979.6529963942386
 20
3164.414968530635
 30
0.0
  0
POINT
  5
7E34
330
80BC
100
AcDbEntity
  8
DEFPOINTS
  6
ByBlock
 62
     0
100
AcDbPoint
 10
979.6529963942386
 20
3313.020259029039
 30
0.0
  0
ENDBLK
  5
7E35
330
80BC
100
AcDbEntity
  8
0
100
AcDbBlockEnd
  0
BLOCK
  5
80BF
330
80BE
100
AcDbEntity
  8
0
100
AcDbBlockBegin
  2
*D12
 70
     1
 10
0.0
 20
0.0
 30
0.0
  3
*D12
  1

  0
LINE
  5
7E37
330
80BE
100
AcDbEntity
  8
0
  6
ByBlock
100
AcDbLine
 10
-490.3470036057615
 20
2758.414968530632
 30
0.0
 11
-640.7745874810424
 21
2758.414968530632
 31
0.0
  0
LINE
  5
7E38
330
80BE
100
AcDbEntity
  8
0
  6
ByBlock
100
AcDbLine
 10
-490.3470036057615
 20
2158.414968530632
 30
0.0
 11
-640.7745874810424
 21
2158.414968530632
 31
0.0
  0
LINE
  5
7E39
330
80BE
100
AcDbEntity
  8
0
  6
ByBlock
100
AcDbLine
 10
-620.7745874810424
 20
2718.414968530632
 30
0.0
 11
-620.7745874810424
 21
2198.414968530632
 31
0.0
  0
INSERT
  5
7E3A
330
80BE
100
AcDbEntity
  8
0
  6
ByBlock
100
AcDbBlockReference
  2
_OPEN
 10
-620.7745874810424
 20
2758.414968530632
 30
0.0
 41
40.0
 42
40.0
 43
40.0
 50
90.0
  0
INSERT
  5
7E3B
330
80BE
100
AcDbEntity
  8
0
  6
ByBlock
100
AcDbBlockReference
  2
_OPEN
 10
-620.7745874810424
 20
2158.414968530632
 30
0.0
 41
40.0
 42
40.0
 43
40.0
 50
270.0
  0
TEXT
  5
7E3C
330
80BE
100
AcDbEntity
  8
3
100
AcDbText
 10
-630.7745874810424
 20
2381.272111387775
 30
0.0
 40
60.0
  1
600
 50
90.0
100
AcDbText
  0
POINT
  5
7E3D
330
80BE
100
AcDbEntity
  8
DEFPOINTS
  6
ByBlock
 62
     0
100
AcDbPoint
 10
-470.3470036057614
 20
2758.414968530632
 30
0.0
  0
POINT
  5
7E3E
330
80BE
100
AcDbEntity
  8
DEFPOINTS
  6
ByBlock
 62
     0
100
AcDbPoint
 10
-470.3470036057614
 20
2158.414968530632
 30
0.0
  0
POINT
  5
7E3F
330
80BE
100
AcDbEntity
  8
DEFPOINTS
  6
ByBlock
 62
     0
100
AcDbPoint
 10
-620.7745874810424
 20
2158.414968530632
 30
0.0
  0
ENDBLK
  5
7E40
330
80BE
100
AcDbEntity
  8
0
100
AcDbBlockEnd
  0
BLOCK
  5
80C1
330
80C0
100
AcDbEntity
  8
0
100
AcDbBlockBegin
  2
*D13
 70
     1
 10
0.0
 20
0.0
 30
0.0
  3
*D13
  1

  0
LINE
  5
7F20
330
80C0
100
AcDbEntity
  8
0
  6
ByBlock
100
AcDbLine
 10
3747.329593074301
 20
2152.899274892484
 30
0.0
 11
3747.329593074301
 21
2952.084242600219
 31
0.0
  0
LINE
  5
7F21
330
80C0
100
AcDbEntity
  8
0
  6
ByBlock
100
AcDbLine
 10
3247.329593074301
 20
2867.998882681656
 30
0.0
 11
3247.329593074301
 21
2952.084242600219
 31
0.0
  0
LINE
  5
7F22
330
80C0
100
AcDbEntity
  8
0
  6
ByBlock
100
AcDbLine
 10
3707.329593074302
 20
2932.084242600219
 30
0.0
 11
3287.329593074301
 21
2932.084242600219
 31
0.0
  0
INSERT
  5
7F23
330
80C0
100
AcDbEntity
  8
0
  6
ByBlock
100
AcDbBlockReference
  2
_OPEN
 10
3747.329593074301
 20
2932.084242600219
 30
0.0
 41
40.0
 42
40.0
 43
40.0
  0
INSERT
  5
7F24
330
80C0
100
AcDbEntity
  8
0
  6
ByBlock
100
AcDbBlockReference
  2
_OPEN
 10
3247.329593074301
 20
2932.084242600219
 30
0.0
 41
40.0
 42
40.0
 43
40.0
 50
180.0
  0
TEXT
  5
7F25
330
80C0
100
AcDbEntity
  8
3
100
AcDbText
 10
3387.329593074301
 20
2967.798528314504
 30
0.0
 40
60.0
  1
(510)
100
AcDbText
  0
POINT
  5
7F26
330
80C0
100
AcDbEntity
  8
DEFPOINTS
  6
ByBlock
 62
     0
100
AcDbPoint
 10
3747.329593074301
 20
2132.899274892484
 30
0.0
  0
POINT
  5
7F27
330
80C0
100
AcDbEntity
  8
DEFPOINTS
  6
ByBlock
 62
     0
100
AcDbPoint
 10
3247.329593074301
 20
2847.998882681655
 30
0.0
  0
POINT
  5
7F28
330
80C0
100
AcDbEntity
  8
DEFPOINTS
  6
ByBlock
 62
     0
100
AcDbPoint
 10
3247.329593074301
 20
2932.084242600219
 30
0.0
  0
ENDBLK
  5
7F29
330
80C0
100
AcDbEntity
  8
0
100
AcDbBlockEnd
  0
BLOCK
  5
80C3
330
80C2
100
AcDbEntity
  8
0
100
AcDbBlockBegin
  2
*D14
 70
     1
 10
0.0
 20
0.0
 30
0.0
  3
*D14
  1

  0
LINE
  5
8000
330
80C2
100
AcDbEntity
  8
3
100
AcDbLine
 10
2567.329593074302
 20
2332.899274892485
 30
0.0
 11
2567.329593074302
 21
2952.084242600219
 31
0.0
  0
LINE
  5
8001
330
80C2
100
AcDbEntity
  8
3
100
AcDbLine
 10
3207.329593074302
 20
2932.084242600219
 30
0.0
 11
2607.329593074301
 21
2932.084242600219
 31
0.0
  0
INSERT
  5
8002
330
80C2
100
AcDbEntity
  8
3
100
AcDbBlockReference
  2
_OPEN
 10
3247.329593074301
 20
2932.084242600219
 30
0.0
 41
40.0
 42
40.0
 43
40.0
  0
INSERT
  5
8003
330
80C2
100
AcDbEntity
  8
3
100
AcDbBlockReference
  2
_OPEN
 10
2567.329593074302
 20
2932.084242600219
 30
0.0
 41
40.0
 42
40.0
 43
40.0
 50
180.0
  0
TEXT
  5
8023
330
80C2
100
AcDbEntity
  8
3
100
AcDbText
 10
2787.33
 20
2915.880000000001
 30
0.0
 40
60.0
  1
MAX
100
AcDbText
  0
TEXT
  5
8024
330
80C2
100
AcDbEntity
  8
3
100
AcDbText
 10
2787.33
 20
2837.88
 30
0.0
 40
60.0
  1
710
100
AcDbText
  0
POINT
  5
8005
330
80C2
100
AcDbEntity
  8
DEFPOINTS
 62
     0
100
AcDbPoint
 10
3247.329593074301
 20
2847.998882681655
 30
0.0
  0
POINT
  5
8006
330
80C2
100
AcDbEntity
  8
DEFPOINTS
 62
     0
100
AcDbPoint
 10
2567.329593074302
 20
2312.899274892485
 30
0.0
  0
POINT
  5
8007
330
80C2
100
AcDbEntity
  8
DEFPOINTS
 62
     0
100
AcDbPoint
 10
2567.329593074302
 20
2932.084242600219
 30
0.0
  0
ENDBLK
  5
7F1E
330
80C2
100
AcDbEntity
  8
0
100
AcDbBlockEnd
  0
BLOCK
  5
80C5
330
80C4
100
AcDbEntity
  8
0
100
AcDbBlockBegin
  2
*D15
 70
     1
 10
0.0
 20
0.0
 30
0.0
  3
*D15
  1

  0
LINE
  5
8008
330
80C4
100
AcDbEntity
  8
3
100
AcDbLine
 10
558.1952238038911
 20
4088.243451059675
 30
0.0
 11
558.1952238038911
 21
4642.848741558082
 31
0.0
  0
LINE
  5
8009
330
80C4
100
AcDbEntity
  8
3
100
AcDbLine
 10
1168.19522380389
 20
4622.848741558082
 30
0.0
 11
598.1952238038911
 21
4622.848741558082
 31
0.0
  0
INSERT
  5
800A
330
80C4
100
AcDbEntity
  8
3
100
AcDbBlockReference
  2
_OPEN
 10
1208.195223803891
 20
4622.848741558082
 30
0.0
 41
40.0
 42
40.0
 43
40.0
  0
INSERT
  5
800B
330
80C4
100
AcDbEntity
  8
3
100
AcDbBlockReference
  2
_OPEN
 10
558.1952238038911
 20
4622.848741558082
 30
0.0
 41
40.0
 42
40.0
 43
40.0
 50
180.0
  0
TEXT
  5
8025
330
80C4
100
AcDbEntity
  8
3
100
AcDbText
 10
763.195
 20
4556.65
 30
0.0
 40
60.0
  1
650
100
AcDbText
  0
POINT
  5
800D
330
80C4
100
AcDbEntity
  8
DEFPOINTS
 62
     0
100
AcDbPoint
 10
1208.195223803891
 20
4474.243451059678
 30
0.0
  0
POINT
  5
800E
330
80C4
100
AcDbEntity
  8
DEFPOINTS
 62
     0
100
AcDbPoint
 10
558.1952238038911
 20
4068.243451059674
 30
0.0
  0
POINT
  5
800F
330
80C4
100
AcDbEntity
  8
DEFPOINTS
 62
     0
100
AcDbPoint
 10
558.1952238038911
 20
4622.848741558082
 30
0.0
  0
ENDBLK
  5
7E75
330
80C4
100
AcDbEntity
  8
0
100
AcDbBlockEnd
  0
BLOCK
  5
80C7
330
80C6
100
AcDbEntity
  8
0
100
AcDbBlockBegin
  2
*D16
 70
     1
 10
0.0
 20
0.0
 30
0.0
  3
*D16
  1

  0
LINE
  5
7E77
330
80C6
100
AcDbEntity
  8
0
  6
ByBlock
100
AcDbLine
 10
613.6529963942384
 20
1028.09762645012
 30
0.0
 11
1253.363290337445
 21
1028.09762645012
 31
0.0
  0
LINE
  5
7E78
330
80C6
100
AcDbEntity
  8
0
  6
ByBlock
100
AcDbLine
 10
1106.545969497234
 20
568.0976264501205
 30
0.0
 11
1253.363290337445
 21
568.0976264501205
 31
0.0
  0
LINE
  5
7E79
330
80C6
100
AcDbEntity
  8
0
  6
ByBlock
100
AcDbLine
 10
1233.363290337445
 20
988.0976264501203
 30
0.0
 11
1233.363290337445
 21
608.0976264501205
 31
0.0
  0
INSERT
  5
7E7A
330
80C6
100
AcDbEntity
  8
0
  6
ByBlock
100
AcDbBlockReference
  2
_OPEN
 10
1233.363290337445
 20
1028.09762645012
 30
0.0
 41
40.0
 42
40.0
 43
40.0
 50
90.0
  0
INSERT
  5
7E7B
330
80C6
100
AcDbEntity
  8
0
  6
ByBlock
100
AcDbBlockReference
  2
_OPEN
 10
1233.363290337445
 20
568.0976264501205
 30
0.0
 41
40.0
 42
40.0
 43
40.0
 50
270.0
  0
TEXT
  5
7E7C
330
80C6
100
AcDbEntity
  8
3
100
AcDbText
 10
1223.363290337445
 20
720.9547693072632
 30
0.0
 40
60.0
  1
460
 50
90.0
100
AcDbText
  0
POINT
  5
7E7D
330
80C6
100
AcDbEntity
  8
DEFPOINTS
  6
ByBlock
 62
     0
100
AcDbPoint
 10
593.6529963942383
 20
1028.09762645012
 30
0.0
  0
POINT
  5
7E7E
330
80C6
100
AcDbEntity
  8
DEFPOINTS
  6
ByBlock
 62
     0
100
AcDbPoint
 10
1086.545969497234
 20
568.0976264501205
 30
0.0
  0
POINT
  5
7E7F
330
80C6
100
AcDbEntity
  8
DEFPOINTS
  6
ByBlock
 62
     0
100
AcDbPoint
 10
1233.363290337445
 20
568.0976264501205
 30
0.0
  0
ENDBLK
  5
7E80
330
80C6
100
AcDbEntity
  8
0
100
AcDbBlockEnd
  0
BLOCK
  5
80C9
330
80C8
100
AcDbEntity
  8
0
100
AcDbBlockBegin
  2
*D17
 70
     1
 10
0.0
 20
0.0
 30
0.0
  3
*D17
  1

  0
LINE
  5
8010
330
80C8
100
AcDbEntity
  8
3
100
AcDbLine
 10
2028.195223803891
 20
1582.899274892485
 30
0.0
 11
2281.905517747098
 21
1582.899274892485
 31
0.0
  0
LINE
  5
8011
330
80C8
100
AcDbEntity
  8
3
100
AcDbLine
 10
2261.905517747099
 20
2122.899274892485
 30
0.0
 11
2261.905517747099
 21
1622.899274892485
 31
0.0
  0
INSERT
  5
8012
330
80C8
100
AcDbEntity
  8
3
100
AcDbBlockReference
  2
_OPEN
 10
2261.905517747099
 20
2162.899274892485
 30
0.0
 41
40.0
 42
40.0
 43
40.0
 50
90.0
  0
INSERT
  5
8013
330
80C8
100
AcDbEntity
  8
3
100
AcDbBlockReference
  2
_OPEN
 10
2261.905517747099
 20
1582.899274892485
 30
0.0
 41
40.0
 42
40.0
 43
40.0
 50
270.0
  0
TEXT
  5
8026
330
80C8
100
AcDbEntity
  8
3
100
AcDbText
 10
2101.91
 20
1766.7
 30
0.0
 40
60.0
  1
580
100
AcDbText
  0
POINT
  5
8015
330
80C8
100
AcDbEntity
  8
DEFPOINTS
 62
     0
100
AcDbPoint
 10
2115.088196906886
 20
2162.899274892485
 30
0.0
  0
POINT
  5
8016
330
80C8
100
AcDbEntity
  8
DEFPOINTS
 62
     0
100
AcDbPoint
 10
2008.195223803891
 20
1582.899274892485
 30
0.0
  0
POINT
  5
8017
330
80C8
100
AcDbEntity
  8
DEFPOINTS
 62
     0
100
AcDbPoint
 10
2261.905517747099
 20
1582.899274892485
 30
0.0
  0
ENDBLK
  5
7E8A
330
80C8
100
AcDbEntity
  8
0
100
AcDbBlockEnd
  0
BLOCK
  5
80CB
330
80CA
100
AcDbEntity
  8
0
100
AcDbBlockBegin
  2
*D18
 70
     1
 10
0.0
 20
0.0
 30
0.0
  3
*D18
  1

  0
LINE
  5
7E99
330
80CA
100
AcDbEntity
  8
0
  6
ByBlock
100
AcDbLine
 10
999.6529963942384
 20
-56.90237354987949
 30
0.0
 11
1253.363290337445
 21
-56.90237354987949
 31
0.0
  0
LINE
  5
7E9A
330
80CA
100
AcDbEntity
  8
0
  6
ByBlock
100
AcDbLine
 10
999.6529963942384
 20
-156.9023735498794
 30
0.0
 11
1253.363290337445
 21
-156.9023735498794
 31
0.0
  0
LINE
  5
7E9B
330
80CA
100
AcDbEntity
  8
0
  6
ByBlock
100
AcDbLine
 10
1233.363290337445
 20
-16.90237354987948
 30
0.0
 11
1233.363290337445
 21
23.09762645012051
 31
0.0
  0
LINE
  5
7E9C
330
80CA
100
AcDbEntity
  8
0
  6
ByBlock
100
AcDbLine
 10
1233.363290337445
 20
-196.9023735498794
 30
0.0
 11
1233.363290337445
 21
-399.7595164070223
 31
0.0
  0
LINE
  5
7E9D
330
80CA
100
AcDbEntity
  8
0
  6
ByBlock
100
AcDbLine
 10
1233.363290337445
 20
-56.90237354987949
 30
0.0
 11
1233.363290337445
 21
-156.9023735498794
 31
0.0
  0
INSERT
  5
7E9E
330
80CA
100
AcDbEntity
  8
0
  6
ByBlock
100
AcDbBlockReference
  2
_DOT
 10
1233.363290337445
 20
-56.90237354987949
 30
0.0
 41
40.0
 42
40.0
 43
40.0
 50
270.0
  0
INSERT
  5
7E9F
330
80CA
100
AcDbEntity
  8
0
  6
ByBlock
100
AcDbBlockReference
  2
_OPEN
 10
1233.363290337445
 20
-156.9023735498794
 30
0.0
 41
40.0
 42
40.0
 43
40.0
 50
90.0
  0
TEXT
  5
7EA0
330
80CA
100
AcDbEntity
  8
3
100
AcDbText
 10
1223.363290337445
 20
-389.7595164070223
 30
0.0
 40
60.0
  1
100
 50
90.0
100
AcDbText
  0
POINT
  5
7EA1
330
80CA
100
AcDbEntity
  8
DEFPOINTS
  6
ByBlock
 62
     0
100
AcDbPoint
 10
979.6529963942385
 20
-56.90237354987949
 30
0.0
  0
POINT
  5
7EA2
330
80CA
100
AcDbEntity
  8
DEFPOINTS
  6
ByBlock
 62
     0
100
AcDbPoint
 10
979.6529963942385
 20
-156.9023735498794
 30
0.0
  0
POINT
  5
7EA3
330
80CA
100
AcDbEntity
  8
DEFPOINTS
  6
ByBlock
 62
     0
100
AcDbPoint
 10
1233.363290337445
 20
-156.9023735498794
 30
0.0
  0
ENDBLK
  5
7EA4
330
80CA
100
AcDbEntity
  8
0
100
AcDbBlockEnd
  0
BLOCK
  5
80CD
330
80CC
100
AcDbEntity
  8
0
100
AcDbBlockBegin
  2
*D19
 70
     1
 10
0.0
 20
0.0
 30
0.0
  3
*D19
  1

  0
LINE
  5
8018
330
80CC
100
AcDbEntity
  8
3
100
AcDbLine
 10
2062.195223803891
 20
2135.899274892484
 30
0.0
 11
2062.195223803891
 21
2942.400941013177
 31
0.0
  0
LINE
  5
8019
330
80CC
100
AcDbEntity
  8
3
100
AcDbLine
 10
1648.195223803891
 20
2922.400941013177
 30
0.0
 11
2022.19522380389
 21
2922.400941013177
 31
0.0
  0
INSERT
  5
801A
330
80CC
100
AcDbEntity
  8
3
100
AcDbBlockReference
  2
_OPEN
 10
1608.195223803891
 20
2922.400941013177
 30
0.0
 41
40.0
 42
40.0
 43
40.0
 50
180.0
  0
INSERT
  5
801B
330
80CC
100
AcDbEntity
  8
3
100
AcDbBlockReference
  2
_OPEN
 10
2062.195223803891
 20
2922.400941013177
 30
0.0
 41
40.0
 42
40.0
 43
40.0
  0
TEXT
  5
8027
330
80CC
100
AcDbEntity
  8
3
100
AcDbText
 10
1715.2
 20
2856.2
 30
0.0
 40
60.0
  1
454
100
AcDbText
  0
POINT
  5
801D
330
80CC
100
AcDbEntity
  8
DEFPOINTS
 62
     0
100
AcDbPoint
 10
1608.195223803891
 20
2669.79224799548
 30
0.0
  0
POINT
  5
801E
330
80CC
100
AcDbEntity
  8
DEFPOINTS
 62
     0
100
AcDbPoint
 10
2062.195223803891
 20
2115.899274892484
 30
0.0
  0
POINT
  5
801F
330
80CC
100
AcDbEntity
  8
DEFPOINTS
 62
     0
100
AcDbPoint
 10
2062.195223803891
 20
2922.400941013177
 30
0.0
  0
ENDBLK
  5
7EB9
330
80CC
100
AcDbEntity
  8
0
100
AcDbBlockEnd
  0
BLOCK
  5
80CF
330
80CE
100
AcDbEntity
  8
0
100
AcDbBlockBegin
  2
*D20
 70
     1
 10
0.0
 20
0.0
 30
0.0
  3
*D20
  1

  0
LINE
  5
7F0B
330
80CE
100
AcDbEntity
  8
0
  6
ByBlock
100
AcDbLine
 10
2062.195223803891
 20
2135.899274892484
 30
0.0
 11
2062.195223803891
 21
3065.829449639409
 31
0.0
  0
LINE
  5
7F0C
330
80CE
100
AcDbEntity
  8
0
  6
ByBlock
100
AcDbLine
 10
558.1952238038911
 20
1742.899274892485
 30
0.0
 11
558.1952238038911
 21
3065.829449639409
 31
0.0
  0
LINE
  5
7F0D
330
80CE
100
AcDbEntity
  8
0
  6
ByBlock
100
AcDbLine
 10
2022.19522380389
 20
3045.82944963941
 30
0.0
 11
598.1952238038911
 21
3045.82944963941
 31
0.0
  0
INSERT
  5
7F0E
330
80CE
100
AcDbEntity
  8
0
  6
ByBlock
100
AcDbBlockReference
  2
_OPEN
 10
2062.195223803891
 20
3045.82944963941
 30
0.0
 41
40.0
 42
40.0
 43
40.0
  0
INSERT
  5
7F0F
330
80CE
100
AcDbEntity
  8
0
  6
ByBlock
100
AcDbBlockReference
  2
_OPEN
 10
558.1952238038911
 20
3045.82944963941
 30
0.0
 41
40.0
 42
40.0
 43
40.0
 50
180.0
  0
TEXT
  5
7F10
330
80CE
100
AcDbEntity
  8
3
100
AcDbText
 10
1208.766652375319
 20
3055.829449639409
 30
0.0
 40
60.0
  1
1504
100
AcDbText
  0
POINT
  5
7F11
330
80CE
100
AcDbEntity
  8
DEFPOINTS
  6
ByBlock
 62
     0
100
AcDbPoint
 10
2062.195223803891
 20
2115.899274892484
 30
0.0
  0
POINT
  5
7F12
330
80CE
100
AcDbEntity
  8
DEFPOINTS
  6
ByBlock
 62
     0
100
AcDbPoint
 10
558.1952238038911
 20
1722.899274892484
 30
0.0
  0
POINT
  5
7F13
330
80CE
100
AcDbEntity
  8
DEFPOINTS
  6
ByBlock
 62
     0
100
AcDbPoint
 10
558.1952238038911
 20
3045.82944963941
 30
0.0
  0
ENDBLK
  5
7F14
330
80CE
100
AcDbEntity
  8
0
100
AcDbBlockEnd
  0
BLOCK
  5
80D1
330
80D0
100
AcDbEntity
  8
0
100
AcDbBlockBegin
  2
*D21
 70
     1
 10
0.0
 20
0.0
 30
0.0
  3
*D21
  1

  0
LINE
  5
7F40
330
80D0
100
AcDbEntity
  8
0
  6
ByBlock
 62
     0
100
AcDbLine
 10
558.1952238038911
 20
1435.899274892484
 30
0.0
 11
558.1952238038911
 21
1283.503837695807
 31
0.0
  0
LINE
  5
7F41
330
80D0
100
AcDbEntity
  8
0
  6
ByBlock
 62
     0
100
AcDbLine
 10
1608.195223803891
 20
1435.899274892484
 30
0.0
 11
1608.195223803891
 21
1283.503837695807
 31
0.0
  0
LINE
  5
7F42
330
80D0
100
AcDbEntity
  8
0
  6
ByBlock
 62
     0
100
AcDbLine
 10
598.1952238038911
 20
1303.503837695807
 30
0.0
 11
1568.195223803891
 21
1303.503837695807
 31
0.0
  0
INSERT
  5
7F43
330
80D0
100
AcDbEntity
  8
0
  6
ByBlock
 62
     0
100
AcDbBlockReference
  2
_OPEN
 10
558.1952238038911
 20
1303.503837695807
 30
0.0
 41
40.0
 42
40.0
 43
40.0
 50
180.0
  0
INSERT
  5
7F44
330
80D0
100
AcDbEntity
  8
0
  6
ByBlock
 62
     0
100
AcDbBlockReference
  2
_OPEN
 10
1608.195223803891
 20
1303.503837695807
 30
0.0
 41
40.0
 42
40.0
 43
40.0
  0
TEXT
  5
7F45
330
80D0
100
AcDbEntity
  8
3
 62
     0
100
AcDbText
 10
983.1952238038912
 20
1323.503837695807
 30
0.0
 40
60.0
  1
1050
100
AcDbText
  0
POINT
  5
7F46
330
80D0
100
AcDbEntity
  8
DEFPOINTS
  6
ByBlock
 62
     0
100
AcDbPoint
 10
558.1952238038911
 20
1455.899274892484
 30
0.0
  0
POINT
  5
7F47
330
80D0
100
AcDbEntity
  8
DEFPOINTS
  6
ByBlock
 62
     0
100
AcDbPoint
 10
1608.195223803891
 20
1455.899274892484
 30
0.0
  0
POINT
  5
7F48
330
80D0
100
AcDbEntity
  8
DEFPOINTS
  6
ByBlock
 62
     0
100
AcDbPoint
 10
1608.195223803891
 20
1303.503837695807
 30
0.0
  0
ENDBLK
  5
7F49
330
80D0
100
AcDbEntity
  8
0
100
AcDbBlockEnd
  0
BLOCK
  5
80D3
330
80D2
100
AcDbEntity
  8
0
100
AcDbBlockBegin
  2
*D22
 70
     1
 10
0.0
 20
0.0
 30
0.0
  3
*D22
  1

  0
LINE
  5
7F4D
330
80D2
100
AcDbEntity
  8
0
  6
ByBlock
 62
     0
100
AcDbLine
 10
1608.195223803891
 20
1435.899274892484
 30
0.0
 11
1608.195223803891
 21
1283.503837695807
 31
0.0
  0
LINE
  5
7F4E
330
80D2
100
AcDbEntity
  8
0
  6
ByBlock
 62
     0
100
AcDbLine
 10
2008.195223803891
 20
1435.899274892484
 30
0.0
 11
2008.195223803891
 21
1283.503837695807
 31
0.0
  0
LINE
  5
7F4F
330
80D2
100
AcDbEntity
  8
0
  6
ByBlock
 62
     0
100
AcDbLine
 10
1648.195223803891
 20
1303.503837695807
 30
0.0
 11
1968.19522380389
 21
1303.503837695807
 31
0.0
  0
INSERT
  5
7F50
330
80D2
100
AcDbEntity
  8
0
  6
ByBlock
 62
     0
100
AcDbBlockReference
  2
_OPEN
 10
1608.195223803891
 20
1303.503837695807
 30
0.0
 41
40.0
 42
40.0
 43
40.0
 50
180.0
  0
INSERT
  5
7F51
330
80D2
100
AcDbEntity
  8
0
  6
ByBlock
 62
     0
100
AcDbBlockReference
  2
_OPEN
 10
2008.195223803891
 20
1303.503837695807
 30
0.0
 41
40.0
 42
40.0
 43
40.0
  0
TEXT
  5
7F52
330
80D2
100
AcDbEntity
  8
3
 62
     0
100
AcDbText
 10
1731.052366661034
 20
1323.503837695807
 30
0.0
 40
60.0
  1
400
100
AcDbText
  0
POINT
  5
7F53
330
80D2
100
AcDbEntity
  8
DEFPOINTS
  6
ByBlock
 62
     0
100
AcDbPoint
 10
1608.195223803891
 20
1455.899274892484
 30
0.0
  0
POINT
  5
7F54
330
80D2
100
AcDbEntity
  8
DEFPOINTS
  6
ByBlock
 62
     0
100
AcDbPoint
 10
2008.195223803891
 20
1455.899274892484
 30
0.0
  0
POINT
  5
7F55
330
80D2
100
AcDbEntity
  8
DEFPOINTS
  6
ByBlock
 62
     0
100
AcDbPoint
 10
2008.195223803891
 20
1303.503837695807
 30
0.0
  0
ENDBLK
  5
7F56
330
80D2
100
AcDbEntity
  8
0
100
AcDbBlockEnd
  0
BLOCK
  5
80D5
330
80D4
100
AcDbEntity
  8
0
100
AcDbBlockBegin
  2
*D23
 70
     1
 10
0.0
 20
0.0
 30
0.0
  3
*D23
  1

  0
LINE
  5
7F5A
330
80D4
100
AcDbEntity
  8
0
  6
ByBlock
 62
     0
100
AcDbLine
 10
2694.329593074301
 20
1435.899274892484
 30
0.0
 11
2694.329593074301
 21
1283.503837695807
 31
0.0
  0
LINE
  5
7F5B
330
80D4
100
AcDbEntity
  8
0
  6
ByBlock
 62
     0
100
AcDbLine
 10
3247.3295930743
 20
1435.899274892484
 30
0.0
 11
3247.3295930743
 21
1283.503837695807
 31
0.0
  0
LINE
  5
7F5C
330
80D4
100
AcDbEntity
  8
0
  6
ByBlock
 62
     0
100
AcDbLine
 10
2734.329593074301
 20
1303.503837695807
 30
0.0
 11
3207.3295930743
 21
1303.503837695807
 31
0.0
  0
INSERT
  5
7F5D
330
80D4
100
AcDbEntity
  8
0
  6
ByBlock
 62
     0
100
AcDbBlockReference
  2
_OPEN
 10
2694.329593074301
 20
1303.503837695807
 30
0.0
 41
40.0
 42
40.0
 43
40.0
 50
180.0
  0
INSERT
  5
7F5E
330
80D4
100
AcDbEntity
  8
0
  6
ByBlock
 62
     0
100
AcDbBlockReference
  2
_OPEN
 10
3247.3295930743
 20
1303.503837695807
 30
0.0
 41
40.0
 42
40.0
 43
40.0
  0
TEXT
  5
7F5F
330
80D4
100
AcDbEntity
  8
3
 62
     0
100
AcDbText
 10
2893.686735931443
 20
1323.503837695807
 30
0.0
 40
60.0
  1
553
100
AcDbText
  0
POINT
  5
7F60
330
80D4
100
AcDbEntity
  8
DEFPOINTS
  6
ByBlock
 62
     0
100
AcDbPoint
 10
2694.329593074301
 20
1455.899274892484
 30
0.0
  0
POINT
  5
7F61
330
80D4
100
AcDbEntity
  8
DEFPOINTS
  6
ByBlock
 62
     0
100
AcDbPoint
 10
3247.3295930743
 20
1455.899274892484
 30
0.0
  0
POINT
  5
7F62
330
80D4
100
AcDbEntity
  8
DEFPOINTS
  6
ByBlock
 62
     0
100
AcDbPoint
 10
3247.3295930743
 20
1303.503837695807
 30
0.0
  0
ENDBLK
  5
7F63
330
80D4
100
AcDbEntity
  8
0
100
AcDbBlockEnd
  0
BLOCK
  5
80D7
330
80D6
100
AcDbEntity
  8
0
100
AcDbBlockBegin
  2
*D24
 70
     1
 10
0.0
 20
0.0
 30
0.0
  3
*D24
  1

  0
LINE
  5
7F67
330
80D6
100
AcDbEntity
  8
0
  6
ByBlock
 62
     0
100
AcDbLine
 10
3247.3295930743
 20
1435.899274892484
 30
0.0
 11
3247.3295930743
 21
1283.503837695807
 31
0.0
  0
LINE
  5
7F68
330
80D6
100
AcDbEntity
  8
0
  6
ByBlock
 62
     0
100
AcDbLine
 10
3700.329593074302
 20
1435.899274892484
 30
0.0
 11
3700.329593074302
 21
1283.503837695807
 31
0.0
  0
LINE
  5
7F69
330
80D6
100
AcDbEntity
  8
0
  6
ByBlock
 62
     0
100
AcDbLine
 10
3287.3295930743
 20
1303.503837695807
 30
0.0
 11
3660.329593074301
 21
1303.503837695807
 31
0.0
  0
INSERT
  5
7F6A
330
80D6
100
AcDbEntity
  8
0
  6
ByBlock
 62
     0
100
AcDbBlockReference
  2
_OPEN
 10
3247.3295930743
 20
1303.503837695807
 30
0.0
 41
40.0
 42
40.0
 43
40.0
 50
180.0
  0
INSERT
  5
7F6B
330
80D6
100
AcDbEntity
  8
0
  6
ByBlock
 62
     0
100
AcDbBlockReference
  2
_OPEN
 10
3700.329593074302
 20
1303.503837695807
 30
0.0
 41
40.0
 42
40.0
 43
40.0
  0
TEXT
  5
7F6C
330
80D6
100
AcDbEntity
  8
3
 62
     0
100
AcDbText
 10
3396.686735931443
 20
1323.503837695807
 30
0.0
 40
60.0
  1
453
100
AcDbText
  0
POINT
  5
7F6D
330
80D6
100
AcDbEntity
  8
DEFPOINTS
  6
ByBlock
 62
     0
100
AcDbPoint
 10
3247.3295930743
 20
1455.899274892484
 30
0.0
  0
POINT
  5
7F6E
330
80D6
100
AcDbEntity
  8
DEFPOINTS
  6
ByBlock
 62
     0
100
AcDbPoint
 10
3700.329593074302
 20
1455.899274892484
 30
0.0
  0
POINT
  5
7F6F
330
80D6
100
AcDbEntity
  8
DEFPOINTS
  6
ByBlock
 62
     0
100
AcDbPoint
 10
3700.329593074302
 20
1303.503837695807
 30
0.0
  0
ENDBLK
  5
7F70
330
80D6
100
AcDbEntity
  8
0
100
AcDbBlockEnd
  0
BLOCK
  5
80D9
330
80D8
100
AcDbEntity
  8
0
100
AcDbBlockBegin
  2
*D25
 70
     1
 10
0.0
 20
0.0
 30
0.0
  3
*D25
  1

  0
LINE
  5
7F74
330
80D8
100
AcDbEntity
  8
0
  6
ByBlock
 62
     0
100
AcDbLine
 10
2028.195223803891
 20
1555.899274892484
 30
0.0
 11
2284.164422587531
 21
1555.899274892484
 31
0.0
  0
LINE
  5
7F75
330
80D8
100
AcDbEntity
  8
0
  6
ByBlock
 62
     0
100
AcDbLine
 10
2028.195223803891
 20
1582.899274892485
 30
0.0
 11
2284.164422587531
 21
1582.899274892485
 31
0.0
  0
LINE
  5
7F76
330
80D8
100
AcDbEntity
  8
0
  6
ByBlock
 62
     0
100
AcDbLine
 10
2264.164422587531
 20
1515.899274892484
 30
0.0
 11
2264.164422587531
 21
1475.899274892484
 31
0.0
  0
LINE
  5
7F77
330
80D8
100
AcDbEntity
  8
0
  6
ByBlock
 62
     0
100
AcDbLine
 10
2264.164422587531
 20
1622.899274892485
 30
0.0
 11
2264.164422587531
 21
1662.899274892484
 31
0.0
  0
TEXT
  5
7F78
330
80D8
100
AcDbEntity
  8
3
 62
     0
100
AcDbText
 10
2379.878708301817
 20
1482.256417749627
 30
0.0
 40
60.0
  1
(27)
 50
90.0
100
AcDbText
  0
LINE
  5
7F79
330
80D8
100
AcDbEntity
  8
0
  6
ByBlock
 62
     0
100
AcDbLine
 10
2264.164422587531
 20
1555.899274892484
 30
0.0
 11
2264.164422587531
 21
1582.899274892485
 31
0.0
  0
INSERT
  5
7F7A
330
80D8
100
AcDbEntity
  8
0
  6
ByBlock
 62
     0
100
AcDbBlockReference
  2
_OPEN
 10
2264.164422587531
 20
1555.899274892484
 30
0.0
 41
40.0
 42
40.0
 43
40.0
 50
90.0
  0
INSERT
  5
7F7B
330
80D8
100
AcDbEntity
  8
0
  6
ByBlock
 62
     0
100
AcDbBlockReference
  2
_OPEN
 10
2264.164422587531
 20
1582.899274892485
 30
0.0
 41
40.0
 42
40.0
 43
40.0
 50
270.0
  0
POINT
  5
7F7C
330
80D8
100
AcDbEntity
  8
DEFPOINTS
  6
ByBlock
 62
     0
100
AcDbPoint
 10
2008.195223803891
 20
1555.899274892484
 30
0.0
  0
POINT
  5
7F7D
330
80D8
100
AcDbEntity
  8
DEFPOINTS
  6
ByBlock
 62
     0
100
AcDbPoint
 10
2008.195223803891
 20
1582.899274892485
 30
0.0
  0
POINT
  5
7F7E
330
80D8
100
AcDbEntity
  8
DEFPOINTS
  6
ByBlock
 62
     0
100
AcDbPoint
 10
2264.164422587531
 20
1582.899274892485
 30
0.0
  0
ENDBLK
  5
7F7F
330
80D8
100
AcDbEntity
  8
0
100
AcDbBlockEnd
  0
BLOCK
  5
80DB
330
80DA
100
AcDbEntity
  8
0
100
AcDbBlockBegin
  2
*D26
 70
     1
 10
0.0
 20
0.0
 30
0.0
  3
*D26
  1

  0
LINE
  5
7F83
330
80DA
100
AcDbEntity
  8
0
  6
ByBlock
 62
     0
100
AcDbLine
 10
1642.195223803891
 20
2622.899274892485
 30
0.0
 11
2448.548924092166
 21
2622.899274892485
 31
0.0
  0
LINE
  5
7F84
330
80DA
100
AcDbEntity
  8
0
  6
ByBlock
 62
     0
100
AcDbLine
 10
2028.195223803891
 20
1455.899274892484
 30
0.0
 11
2448.548924092166
 21
1455.899274892484
 31
0.0
  0
LINE
  5
7F85
330
80DA
100
AcDbEntity
  8
0
  6
ByBlock
 62
     0
100
AcDbLine
 10
2428.548924092167
 20
2582.899274892485
 30
0.0
 11
2428.548924092167
 21
1495.899274892484
 31
0.0
  0
INSERT
  5
7F86
330
80DA
100
AcDbEntity
  8
0
  6
ByBlock
 62
     0
100
AcDbBlockReference
  2
_OPEN
 10
2428.548924092167
 20
2622.899274892485
 30
0.0
 41
40.0
 42
40.0
 43
40.0
 50
90.0
  0
INSERT
  5
7F87
330
80DA
100
AcDbEntity
  8
0
  6
ByBlock
 62
     0
100
AcDbBlockReference
  2
_OPEN
 10
2428.548924092167
 20
1455.899274892484
 30
0.0
 41
40.0
 42
40.0
 43
40.0
 50
270.0
  0
TEXT
  5
7F88
330
80DA
100
AcDbEntity
  8
3
 62
     0
100
AcDbText
 10
2382.834638377881
 20
1906.542132035341
 30
0.0
 40
60.0
  1
(1167)
 50
90.0
100
AcDbText
  0
POINT
  5
7F89
330
80DA
100
AcDbEntity
  8
DEFPOINTS
  6
ByBlock
 62
     0
100
AcDbPoint
 10
1622.19522380389
 20
2622.899274892485
 30
0.0
  0
POINT
  5
7F8A
330
80DA
100
AcDbEntity
  8
DEFPOINTS
  6
ByBlock
 62
     0
100
AcDbPoint
 10
2008.195223803891
 20
1455.899274892484
 30
0.0
  0
POINT
  5
7F8B
330
80DA
100
AcDbEntity
  8
DEFPOINTS
  6
ByBlock
 62
     0
100
AcDbPoint
 10
2428.548924092167
 20
1455.899274892484
 30
0.0
  0
ENDBLK
  5
7F8C
330
80DA
100
AcDbEntity
  8
0
100
AcDbBlockEnd
  0
BLOCK
  5
80E2
330
80E1
100
AcDbEntity
  8
0
100
AcDbBlockBegin
  2
*D27
 70
     1
 10
0.0
 20
0.0
 30
0.0
  3
*D27
  1

  0
LINE
  5
813C
330
80E1
100
AcDbEntity
  8
3
 62
     0
370
    -2
100
AcDbLine
 10
2467.329593074301
 20
2332.899274892485
 30
0.0
 11
2467.329593074301
 21
2923.622274626678
 31
0.0
  0
LINE
  5
813D
330
80E1
100
AcDbEntity
  8
3
 62
     0
370
    -2
100
AcDbLine
 10
3247.329593074301
 20
2844.56938158193
 30
0.0
 11
3247.329593074301
 21
2923.622274626678
 31
0.0
  0
LINE
  5
813E
330
80E1
100
AcDbEntity
  8
3
 62
     0
370
    -2
100
AcDbLine
 10
2507.329593074301
 20
2903.622274626678
 30
0.0
 11
3207.329593074302
 21
2903.622274626678
 31
0.0
  0
INSERT
  5
813F
330
80E1
100
AcDbEntity
  8
3
 62
     0
370
    -2
100
AcDbBlockReference
  2
_OPEN
 10
2467.329593074301
 20
2903.622274626678
 30
0.0
 41
40.0
 42
40.0
 43
40.0
 50
180.0
  0
INSERT
  5
8140
330
80E1
100
AcDbEntity
  8
3
 62
     0
370
    -2
100
AcDbBlockReference
  2
_OPEN
 10
3247.329593074301
 20
2903.622274626678
 30
0.0
 41
40.0
 42
40.0
 43
40.0
  0
MTEXT
  5
8141
330
80E1
100
AcDbEntity
  8
3
 62
     0
100
AcDbMText
 10
2857.329593074301
 20
2969.336560340964
 30
0.0
 40
60.0
 41
0.0
 71
     5
 72
     1
  1
\A1;(780)
 73
     1
 44
1.0
1001
ACAD
1000
MTEXTBEGIN
1070
    73
1070
     1
1070
    44
1040
1.0
1070
    74
1070
     0
1000
MTEXTEND
  0
POINT
  5
8142
330
80E1
100
AcDbEntity
  8
DEFPOINTS
 62
     0
100
AcDbPoint
 10
2467.329593074301
 20
2312.899274892485
 30
0.0
  0
POINT
  5
8143
330
80E1
100
AcDbEntity
  8
DEFPOINTS
 62
     0
100
AcDbPoint
 10
3247.329593074301
 20
2824.56938158193
 30
0.0
  0
POINT
  5
8144
330
80E1
100
AcDbEntity
  8
DEFPOINTS
 62
     0
100
AcDbPoint
 10
3247.329593074301
 20
2903.622274626678
 30
0.0
  0
ENDBLK
  5
80E3
330
80E1
100
AcDbEntity
  8
0
100
AcDbBlockEnd
  0
BLOCK
  5
80EF
330
80EE
100
AcDbEntity
  8
0
100
AcDbBlockBegin
  2
*D28
 70
     1
 10
0.0
 20
0.0
 30
0.0
  3
*D28
  1

  0
LINE
  5
8133
330
80EE
100
AcDbEntity
  8
3
 62
     0
370
    -2
100
AcDbLine
 10
3247.329593074301
 20
2844.56938158193
 30
0.0
 11
3247.329593074301
 21
2923.622274626678
 31
0.0
  0
LINE
  5
8134
330
80EE
100
AcDbEntity
  8
3
 62
     0
370
    -2
100
AcDbLine
 10
3757.329593074302
 20
2152.899274892484
 30
0.0
 11
3757.329593074302
 21
2923.622274626678
 31
0.0
  0
LINE
  5
8135
330
80EE
100
AcDbEntity
  8
3
 62
     0
370
    -2
100
AcDbLine
 10
3287.329593074301
 20
2903.622274626678
 30
0.0
 11
3717.329593074302
 21
2903.622274626678
 31
0.0
  0
INSERT
  5
8136
330
80EE
100
AcDbEntity
  8
3
 62
     0
370
    -2
100
AcDbBlockReference
  2
_OPEN
 10
3247.329593074301
 20
2903.622274626678
 30
0.0
 41
40.0
 42
40.0
 43
40.0
 50
180.0
  0
INSERT
  5
8137
330
80EE
100
AcDbEntity
  8
3
 62
     0
370
    -2
100
AcDbBlockReference
  2
_OPEN
 10
3757.329593074302
 20
2903.622274626678
 30
0.0
 41
40.0
 42
40.0
 43
40.0
  0
MTEXT
  5
8138
330
80EE
100
AcDbEntity
  8
3
 62
     0
100
AcDbMText
 10
3502.329593074302
 20
2969.336560340964
 30
0.0
 40
60.0
 41
0.0
 71
     5
 72
     1
  1
\A1;(510)
 73
     1
 44
1.0
1001
ACAD
1000
MTEXTBEGIN
1070
    73
1070
     1
1070
    44
1040
1.0
1070
    74
1070
     0
1000
MTEXTEND
  0
POINT
  5
8139
330
80EE
100
AcDbEntity
  8
DEFPOINTS
 62
     0
100
AcDbPoint
 10
3247.329593074301
 20
2824.56938158193
 30
0.0
  0
POINT
  5
813A
330
80EE
100
AcDbEntity
  8
DEFPOINTS
 62
     0
100
AcDbPoint
 10
3757.329593074302
 20
2132.899274892484
 30
0.0
  0
POINT
  5
813B
330
80EE
100
AcDbEntity
  8
DEFPOINTS
 62
     0
100
AcDbPoint
 10
3757.329593074302
 20
2903.622274626678
 30
0.0
  0
ENDBLK
  5
80F0
330
80EE
100
AcDbEntity
  8
0
100
AcDbBlockEnd
  0
BLOCK
  5
8146
330
8145
100
AcDbEntity
  8
0
100
AcDbBlockBegin
  2
*D29
 70
     1
 10
0.0
 20
0.0
 30
0.0
  3
*D29
  1

  0
LINE
  5
8148
330
8145
100
AcDbEntity
  8
3
 62
     0
370
    -2
100
AcDbLine
 10
558.1952238038911
 20
3466.993451059676
 30
0.0
 11
558.1952238038911
 21
3189.241852940473
 31
0.0
  0
LINE
  5
8149
330
8145
100
AcDbEntity
  8
3
 62
     0
370
    -2
100
AcDbLine
 10
2008.195223803891
 20
3466.993451059676
 30
0.0
 11
2008.195223803891
 21
3189.241852940473
 31
0.0
  0
LINE
  5
814A
330
8145
100
AcDbEntity
  8
3
 62
     0
370
    -2
100
AcDbLine
 10
561.7952238038911
 20
3192.841852940473
 30
0.0
 11
1267.680938089605
 21
3192.841852940473
 31
0.0
  0
LINE
  5
814B
330
8145
100
AcDbEntity
  8
3
 62
     0
370
    -2
100
AcDbLine
 10
2004.595223803891
 20
3192.841852940473
 30
0.0
 11
1298.709509518176
 21
3192.841852940473
 31
0.0
  0
SOLID
  5
814C
330
8145
100
AcDbEntity
  8
3
 62
     0
100
AcDbTrace
 10
561.7952238038911
 20
3193.441852940473
 30
0.0
 11
561.7952238038911
 21
3192.241852940473
 31
0.0
 12
558.1952238038911
 22
3192.841852940473
 32
0.0
 13
558.1952238038911
 23
3192.841852940473
 33
0.0
  0
SOLID
  5
814D
330
8145
100
AcDbEntity
  8
3
 62
     0
100
AcDbTrace
 10
2004.595223803891
 20
3193.441852940473
 30
0.0
 11
2004.595223803891
 21
3192.241852940473
 31
0.0
 12
2008.195223803891
 22
3192.841852940473
 32
0.0
 13
2008.195223803891
 23
3192.841852940473
 33
0.0
  0
MTEXT
  5
814E
330
8145
100
AcDbEntity
  8
3
 62
     0
100
AcDbMText
 10
1283.195223803891
 20
3192.841852940473
 30
0.0
 40
3.599999999999999
 41
0.0
 71
     5
 72
     1
  1
\A1;1450.0000
 73
     1
 44
1.0
1001
ACAD
1000
MTEXTBEGIN
1070
    73
1070
     1
1070
    44
1040
1.0
1070
    74
1070
     0
1000
MTEXTEND
  0
POINT
  5
814F
330
8145
100
AcDbEntity
  8
DEFPOINTS
 62
     0
100
AcDbPoint
 10
558.1952238038911
 20
3468.243451059676
 30
0.0
  0
POINT
  5
8150
330
8145
100
AcDbEntity
  8
DEFPOINTS
 62
     0
100
AcDbPoint
 10
2008.195223803891
 20
3468.243451059676
 30
0.0
  0
POINT
  5
8151
330
8145
100
AcDbEntity
  8
DEFPOINTS
 62
     0
100
AcDbPoint
 10
2008.195223803891
 20
3192.841852940473
 30
0.0
  0
ENDBLK
  5
8147
330
8145
100
AcDbEntity
  8
0
100
AcDbBlockEnd
  0
BLOCK
  5
8154
330
8153
100
AcDbEntity
  8
0
100
AcDbBlockBegin
  2
*D30
 70
     1
 10
0.0
 20
0.0
 30
0.0
  3
*D30
  1

  0
LINE
  5
8156
330
8153
100
AcDbEntity
  8
3
 62
     0
370
    -2
100
AcDbLine
 10
558.1952238038911
 20
3448.243451059676
 30
0.0
 11
558.1952238038911
 21
3119.339964565809
 31
0.0
  0
LINE
  5
8157
330
8153
100
AcDbEntity
  8
3
 62
     0
370
    -2
100
AcDbLine
 10
2008.195223803891
 20
3448.243451059676
 30
0.0
 11
2008.195223803891
 21
3119.339964565809
 31
0.0
  0
LINE
  5
8158
330
8153
100
AcDbEntity
  8
3
 62
     0
370
    -2
100
AcDbLine
 10
598.1952238038911
 20
3139.339964565808
 30
0.0
 11
1968.19522380389
 21
3139.339964565808
 31
0.0
  0
INSERT
  5
8159
330
8153
100
AcDbEntity
  8
3
 62
     0
370
    -2
100
AcDbBlockReference
  2
_OPEN
 10
558.1952238038911
 20
3139.339964565808
 30
0.0
 41
40.0
 42
40.0
 43
40.0
 50
180.0
  0
INSERT
  5
815A
330
8153
100
AcDbEntity
  8
3
 62
     0
370
    -2
100
AcDbBlockReference
  2
_OPEN
 10
2008.195223803891
 20
3139.339964565808
 30
0.0
 41
40.0
 42
40.0
 43
40.0
  0
MTEXT
  5
815B
330
8153
100
AcDbEntity
  8
3
 62
     0
100
AcDbMText
 10
1283.195223803891
 20
3189.339964565808
 30
0.0
 40
60.0
 41
0.0
 71
     5
 72
     1
  1
\A1;1450
 73
     1
 44
1.0
1001
ACAD
1000
MTEXTBEGIN
1070
    73
1070
     1
1070
    44
1040
1.0
1070
    74
1070
     0
1000
MTEXTEND
  0
POINT
  5
815C
330
8153
100
AcDbEntity
  8
DEFPOINTS
 62
     0
100
AcDbPoint
 10
558.1952238038911
 20
3468.243451059676
 30
0.0
  0
POINT
  5
815D
330
8153
100
AcDbEntity
  8
DEFPOINTS
 62
     0
100
AcDbPoint
 10
2008.195223803891
 20
3468.243451059676
 30
0.0
  0
POINT
  5
815E
330
8153
100
AcDbEntity
  8
DEFPOINTS
 62
     0
100
AcDbPoint
 10
2008.195223803891
 20
3139.339964565808
 30
0.0
  0
ENDBLK
  5
8155
330
8153
100
AcDbEntity
  8
0
100
AcDbBlockEnd
  0
BLOCK
  5
8161
330
8160
100
AcDbEntity
  8
0
100
AcDbBlockBegin
  2
*D31
 70
     1
 10
0.0
 20
0.0
 30
0.0
  3
*D31
  1

  0
LINE
  5
816C
330
8160
100
AcDbEntity
  8
3
 62
     0
370
    -2
100
AcDbLine
 10
558.1952238038911
 20
4088.243451059675
 30
0.0
 11
558.1952238038911
 21
4642.84874155808
 31
0.0
  0
LINE
  5
816D
330
8160
100
AcDbEntity
  8
3
 62
     0
370
    -2
100
AcDbLine
 10
1208.195223803891
 20
4494.243451059677
 30
0.0
 11
1208.195223803891
 21
4642.84874155808
 31
0.0
  0
LINE
  5
816E
330
8160
100
AcDbEntity
  8
3
 62
     0
370
    -2
100
AcDbLine
 10
598.1952238038911
 20
4622.84874155808
 30
0.0
 11
1168.19522380389
 21
4622.84874155808
 31
0.0
  0
INSERT
  5
816F
330
8160
100
AcDbEntity
  8
3
 62
     0
370
    -2
100
AcDbBlockReference
  2
_OPEN
 10
558.1952238038911
 20
4622.84874155808
 30
0.0
 41
40.0
 42
40.0
 43
40.0
 50
180.0
  0
INSERT
  5
8170
330
8160
100
AcDbEntity
  8
3
 62
     0
370
    -2
100
AcDbBlockReference
  2
_OPEN
 10
1208.195223803891
 20
4622.84874155808
 30
0.0
 41
40.0
 42
40.0
 43
40.0
  0
MTEXT
  5
8171
330
8160
100
AcDbEntity
  8
3
 62
     0
100
AcDbMText
 10
883.1952238038908
 20
4672.848741558079
 30
0.0
 40
60.0
 41
0.0
 71
     5
 72
     1
  1
\A1;650
 73
     1
 44
1.0
1001
ACAD
1000
MTEXTBEGIN
1070
    73
1070
     1
1070
    44
1040
1.0
1070
    74
1070
     0
1000
MTEXTEND
  0
POINT
  5
8172
330
8160
100
AcDbEntity
  8
DEFPOINTS
 62
     0
100
AcDbPoint
 10
558.1952238038911
 20
4068.243451059675
 30
0.0
  0
POINT
  5
8173
330
8160
100
AcDbEntity
  8
DEFPOINTS
 62
     0
100
AcDbPoint
 10
1208.195223803891
 20
4474.243451059678
 30
0.0
  0
POINT
  5
8174
330
8160
100
AcDbEntity
  8
DEFPOINTS
 62
     0
100
AcDbPoint
 10
1208.195223803891
 20
4622.84874155808
 30
0.0
  0
ENDBLK
  5
8162
330
8160
100
AcDbEntity
  8
0
100
AcDbBlockEnd
  0
BLOCK
  5
8177
330
8176
100
AcDbEntity
  8
0
100
AcDbBlockBegin
  2
*D32
 70
     1
 10
0.0
 20
0.0
 30
0.0
  3
*D32
  1

  0
LINE
  5
8194
330
8176
100
AcDbEntity
  8
3
 62
     0
370
    -2
100
AcDbLine
 10
2135.088196906886
 20
2162.899274892485
 30
0.0
 11
2281.905517747097
 21
2162.899274892485
 31
0.0
  0
LINE
  5
8195
330
8176
100
AcDbEntity
  8
3
 62
     0
370
    -2
100
AcDbLine
 10
2028.195223803891
 20
1582.899274892485
 30
0.0
 11
2281.905517747097
 21
1582.899274892485
 31
0.0
  0
LINE
  5
8196
330
8176
100
AcDbEntity
  8
3
 62
     0
370
    -2
100
AcDbLine
 10
2261.905517747097
 20
2122.899274892484
 30
0.0
 11
2261.905517747097
 21
1622.899274892485
 31
0.0
  0
INSERT
  5
8197
330
8176
100
AcDbEntity
  8
3
 62
     0
370
    -2
100
AcDbBlockReference
  2
_OPEN
 10
2261.905517747097
 20
2162.899274892485
 30
0.0
 41
40.0
 42
40.0
 43
40.0
 50
90.0
  0
INSERT
  5
8198
330
8176
100
AcDbEntity
  8
3
 62
     0
370
    -2
100
AcDbBlockReference
  2
_OPEN
 10
2261.905517747097
 20
1582.899274892485
 30
0.0
 41
40.0
 42
40.0
 43
40.0
 50
270.0
  0
MTEXT
  5
8199
330
8176
100
AcDbEntity
  8
3
 62
     0
100
AcDbMText
 10
2211.905517747097
 20
1872.899274892485
 30
0.0
 40
60.0
 41
0.0
 71
     5
 72
     1
  1
\A1;580
 11
0.0000000000000001
 21
1.0
 31
0.0
 73
     1
 44
1.0
1001
ACAD
1000
MTEXTBEGIN
1070
    73
1070
     1
1070
    44
1040
1.0
1070
    74
1070
     0
1000
MTEXTEND
  0
POINT
  5
819A
330
8176
100
AcDbEntity
  8
DEFPOINTS
 62
     0
100
AcDbPoint
 10
2115.088196906886
 20
2162.899274892485
 30
0.0
  0
POINT
  5
819B
330
8176
100
AcDbEntity
  8
DEFPOINTS
 62
     0
100
AcDbPoint
 10
2008.195223803891
 20
1582.899274892485
 30
0.0
  0
POINT
  5
819C
330
8176
100
AcDbEntity
  8
DEFPOINTS
 62
     0
100
AcDbPoint
 10
2261.905517747097
 20
1582.899274892485
 30
0.0
  0
ENDBLK
  5
8178
330
8176
100
AcDbEntity
  8
0
100
AcDbBlockEnd
  0
BLOCK
  5
8184
330
8183
100
AcDbEntity
  8
0
100
AcDbBlockBegin
  2
*D33
 70
     1
 10
0.0
 20
0.0
 30
0.0
  3
*D33
  1

  0
LINE
  5
823A
330
8183
100
AcDbEntity
  8
3
 62
     0
370
    -2
100
AcDbLine
 10
2028.195223803891
 20
1582.899274892485
 30
0.0
 11
2281.905517747097
 21
1582.899274892485
 31
0.0
  0
LINE
  5
823B
330
8183
100
AcDbEntity
  8
3
 62
     0
370
    -2
100
AcDbLine
 10
2028.195223803891
 20
1555.899274892484
 30
0.0
 11
2281.905517747097
 21
1555.899274892484
 31
0.0
  0
LINE
  5
823C
330
8183
100
AcDbEntity
  8
3
 62
     0
370
    -2
100
AcDbLine
 10
2261.905517747097
 20
1622.899274892485
 30
0.0
 11
2261.905517747097
 21
1662.899274892485
 31
0.0
  0
LINE
  5
823D
330
8183
100
AcDbEntity
  8
3
 62
     0
370
    -2
100
AcDbLine
 10
2261.905517747097
 20
1555.899274892484
 30
0.0
 11
2261.905517747097
 21
1515.899274892484
 31
0.0
  0
LINE
  5
823E
330
8183
100
AcDbEntity
  8
3
 62
     0
370
    -2
100
AcDbLine
 10
2261.905517747097
 20
1569.399274892484
 30
0.0
 11
2404.004670385294
 21
1625.542132035342
 31
0.0
  0
LINE
  5
823F
330
8183
100
AcDbEntity
  8
3
 62
     0
370
    -2
100
AcDbLine
 10
2404.004670385294
 20
1625.542132035342
 30
0.0
 11
2404.004670385294
 21
1839.827846321056
 31
0.0
  0
MTEXT
  5
8240
330
8183
100
AcDbEntity
  8
3
 62
     0
100
AcDbMText
 10
2338.290384671008
 20
1732.684989178199
 30
0.0
 40
60.0
 41
0.0
 71
     5
 72
     1
  1
\A1;(27)
 11
0.0000000000000001
 21
1.0
 31
0.0
 73
     1
 44
1.0
1001
ACAD
1000
MTEXTBEGIN
1070
    73
1070
     1
1070
    44
1040
1.0
1070
    74
1070
     0
1000
MTEXTEND
  0
LINE
  5
8241
330
8183
100
AcDbEntity
  8
3
 62
     0
370
    -2
100
AcDbLine
 10
2261.905517747097
 20
1582.899274892485
 30
0.0
 11
2261.905517747097
 21
1555.899274892484
 31
0.0
  0
LINE
  5
8242
330
8183
100
AcDbEntity
  8
3
 62
     0
370
    -2
100
AcDbLine
 10
2261.905517747097
 20
1582.899274892485
 30
0.0
 11
2261.905517747097
 21
1555.899274892484
 31
0.0
  0
INSERT
  5
8243
330
8183
100
AcDbEntity
  8
3
 62
     0
370
    -2
100
AcDbBlockReference
  2
_OPEN
 10
2261.905517747097
 20
1582.899274892485
 30
0.0
 41
40.0
 42
40.0
 43
40.0
 50
270.0
  0
INSERT
  5
8244
330
8183
100
AcDbEntity
  8
3
 62
     0
370
    -2
100
AcDbBlockReference
  2
_DotSmall
 10
2261.905517747097
 20
1555.899274892484
 30
0.0
 41
40.0
 42
40.0
 43
40.0
 50
90.0
  0
POINT
  5
8245
330
8183
100
AcDbEntity
  8
DEFPOINTS
 62
     0
100
AcDbPoint
 10
2008.195223803891
 20
1582.899274892485
 30
0.0
  0
POINT
  5
8246
330
8183
100
AcDbEntity
  8
DEFPOINTS
 62
     0
100
AcDbPoint
 10
2008.195223803891
 20
1555.899274892484
 30
0.0
  0
POINT
  5
8247
330
8183
100
AcDbEntity
  8
DEFPOINTS
 62
     0
100
AcDbPoint
 10
2261.905517747097
 20
1555.899274892484
 30
0.0
  0
ENDBLK
  5
8185
330
8183
100
AcDbEntity
  8
0
100
AcDbBlockEnd
  0
BLOCK
  5
8238
330
8236
100
AcDbEntity
  8
0
100
AcDbBlockBegin
  2
_DotSmall
 70
     0
 10
0.0
 20
0.0
 30
0.0
  3
_DotSmall
  1

  0
LWPOLYLINE
  5
8237
330
8236
100
AcDbEntity
  8
0
  6
ByBlock
 62
     0
100
AcDbPolyline
 90
        2
 70
     1
 43
0.5
 10
-0.0625
 20
0.0
 42
1.0
 10
0.0625
 20
0.0
 42
1.0
  0
ENDBLK
  5
8239
330
8236
100
AcDbEntity
  8
0
100
AcDbBlockEnd
  0
BLOCK
  5
8250
330
824F
100
AcDbEntity
  8
0
100
AcDbBlockBegin
  2
*D36
 70
     1
 10
0.0
 20
0.0
 30
0.0
  3
*D36
  1

  0
LINE
  5
825B
330
824F
100
AcDbEntity
  8
3
 62
     0
370
    -2
100
AcDbLine
 10
1608.195223803891
 20
2683.782286904674
 30
0.0
 11
1608.195223803891
 21
2942.400941013177
 31
0.0
  0
LINE
  5
825C
330
824F
100
AcDbEntity
  8
3
 62
     0
370
    -2
100
AcDbLine
 10
2062.195223803891
 20
2135.899274892484
 30
0.0
 11
2062.195223803891
 21
2942.400941013177
 31
0.0
  0
LINE
  5
825D
330
824F
100
AcDbEntity
  8
3
 62
     0
370
    -2
100
AcDbLine
 10
1648.195223803891
 20
2922.400941013177
 30
0.0
 11
2022.19522380389
 21
2922.400941013177
 31
0.0
  0
INSERT
  5
825E
330
824F
100
AcDbEntity
  8
3
 62
     0
370
    -2
100
AcDbBlockReference
  2
_OPEN
 10
1608.195223803891
 20
2922.400941013177
 30
0.0
 41
40.0
 42
40.0
 43
40.0
 50
180.0
  0
INSERT
  5
825F
330
824F
100
AcDbEntity
  8
3
 62
     0
370
    -2
100
AcDbBlockReference
  2
_OPEN
 10
2062.195223803891
 20
2922.400941013177
 30
0.0
 41
40.0
 42
40.0
 43
40.0
  0
MTEXT
  5
8260
330
824F
100
AcDbEntity
  8
3
 62
     0
100
AcDbMText
 10
1835.195223803891
 20
2972.400941013177
 30
0.0
 40
60.0
 41
0.0
 71
     5
 72
     1
  1
\A1;454
 73
     1
 44
1.0
1001
ACAD
1000
MTEXTBEGIN
1070
    73
1070
     1
1070
    44
1040
1.0
1070
    74
1070
     0
1000
MTEXTEND
  0
POINT
  5
8261
330
824F
100
AcDbEntity
  8
DEFPOINTS
 62
     0
100
AcDbPoint
 10
1608.195223803891
 20
2663.782286904674
 30
0.0
  0
POINT
  5
8262
330
824F
100
AcDbEntity
  8
DEFPOINTS
 62
     0
100
AcDbPoint
 10
2062.195223803891
 20
2115.899274892484
 30
0.0
  0
POINT
  5
8263
330
824F
100
AcDbEntity
  8
DEFPOINTS
 62
     0
100
AcDbPoint
 10
2062.195223803891
 20
2922.400941013177
 30
0.0
  0
ENDBLK
  5
8251
330
824F
100
AcDbEntity
  8
0
100
AcDbBlockEnd
  0
ENDSEC
  0
SECTION
  2
ENTITIES
  0
INSERT
  5
7BED
330
8096
100
AcDbEntity
  8
0
100
AcDbBlockReference
  2
YA_N
 10
6.0
 20
5.0
 30
0.0
  0
LINE
  5
7BEF
330
8096
100
AcDbEntity
  8
2
100
AcDbLine
 10
848.1727452196603
 20
2162.899274892485
 30
0.0
 11
2115.088196906886
 21
2162.899274892485
 31
0.0
  0
LINE
  5
7BF0
330
8096
100
AcDbEntity
  8
2
100
AcDbLine
 10
1608.195223803891
 20
2663.782286904674
 30
0.0
 11
1608.195223803891
 21
1455.899274892484
 31
0.0
  0
ARC
  5
7BF1
330
8096
100
AcDbEntity
  8
1
100
AcDbCircle
 10
1561.195223803891
 20
2209.899274892484
 30
0.0
 40
595.0
100
AcDbArc
 50
184.5306050426826
 51
242.3395501006991
  0
ARC
  5
7BF2
330
8096
100
AcDbEntity
  8
1
100
AcDbCircle
 10
1561.195223803891
 20
2115.899274892484
 30
0.0
 40
501.0
100
AcDbArc
 50
300.2003809902944
 51
5.382968649881329
  0
ARC
  5
7BF3
330
8096
100
AcDbEntity
  8
1
100
AcDbCircle
 10
1646.195223803891
 20
2124.899274892484
 30
0.0
 40
416.0
100
AcDbArc
 50
5.241055061296708
 51
95.2410550612967
  0
LINE
  5
7BF4
330
8096
100
AcDbEntity
  8
1
100
AcDbLine
 10
888.1952238038909
 20
2622.899274892485
 30
0.0
 11
1622.19522380389
 21
2622.899274892485
 31
0.0
  0
LINE
  5
7BF5
330
8096
100
AcDbEntity
  8
1
100
AcDbLine
 10
930.1952238038909
 20
2622.899274892485
 30
0.0
 11
968.054431074206
 21
2162.899274892485
 31
0.0
  0
LINE
  5
7BF6
330
8096
100
AcDbEntity
  8
1
100
AcDbLine
 10
1580.19522380389
 20
2539.8608113919
 30
0.0
 11
1580.19522380389
 21
2622.899274892485
 31
0.0
  0
LINE
  5
7BF7
330
8096
100
AcDbEntity
  8
1
100
AcDbLine
 10
933.4873287839183
 20
2582.899274892485
 30
0.0
 11
1580.19522380389
 21
2582.899274892485
 31
0.0
  0
LINE
  5
7BF8
330
8096
100
AcDbEntity
  8
1
100
AcDbLine
 10
888.1952238038909
 20
2619.899274892484
 30
0.0
 11
888.1952238038909
 21
2622.899274892485
 31
0.0
  0
LINE
  5
7BF9
330
8096
100
AcDbEntity
  8
1
100
AcDbLine
 10
1622.19522380389
 20
2619.899274892484
 30
0.0
 11
1622.19522380389
 21
2622.899274892485
 31
0.0
  0
LINE
  5
7BFA
330
8096
100
AcDbEntity
  8
1
100
AcDbLine
 10
888.1952238038909
 20
2619.899274892484
 30
0.0
 11
1622.19522380389
 21
2619.899274892484
 31
0.0
  0
LINE
  5
7BFB
330
8096
100
AcDbEntity
  8
2
100
AcDbLine
 10
3247.329593074301
 20
2738.097239223859
 30
0.0
 11
3247.3295930743
 21
1455.899274892484
 31
0.0
  0
LINE
  5
7BFC
330
8096
100
AcDbEntity
  8
2
100
AcDbLine
 10
2465.3295930743
 20
2162.899274892485
 30
0.0
 11
3753.001267696451
 21
2162.899274892485
 31
0.0
  0
LINE
  5
7BFD
330
8096
100
AcDbEntity
  8
1
100
AcDbLine
 10
3700.329593074302
 20
1682.899274892484
 30
0.0
 11
3700.329593074302
 21
1677.429143679298
 31
0.0
  0
LINE
  5
7BFE
330
8096
100
AcDbEntity
  8
1
100
AcDbLine
 10
3647.329593074302
 20
2622.899274892485
 30
0.0
 11
3647.329593074302
 21
2190.899274892485
 31
0.0
  0
LINE
  5
7BFF
330
8096
100
AcDbEntity
  8
1
100
AcDbLine
 10
2807.3295930743
 20
2622.899274892485
 30
0.0
 11
3687.3295930743
 21
2622.899274892485
 31
0.0
  0
LINE
  5
7C00
330
8096
100
AcDbEntity
  8
1
100
AcDbLine
 10
3647.3295930743
 20
2190.899274892485
 30
0.0
 11
3647.329593074302
 21
1682.899274892484
 31
0.0
  0
LINE
  5
7C01
330
8096
100
AcDbEntity
  8
2
100
AcDbLine
 10
1608.195223803891
 20
4502.041537564497
 30
0.0
 11
1608.195223803891
 21
3217.690167787979
 31
0.0
  0
LINE
  5
7C02
330
8096
100
AcDbEntity
  8
2
100
AcDbLine
 10
1006.347374105073
 20
4021.243451059675
 30
0.0
 11
2117.705758487713
 21
4021.243451059677
 31
0.0
  0
INSERT
  5
7C03
330
8096
100
AcDbEntity
  8
0
100
AcDbBlockReference
  2
YA_N
 10
-1221.011981710642
 20
-542.7332483964637
 30
0.0
 41
15.0
 42
15.0
 43
15.0
  0
LINE
  5
7C05
330
8096
100
AcDbEntity
  8
1
100
AcDbLine
 10
558.1952238038911
 20
1455.899274892484
 30
0.0
 11
2008.195223803891
 21
1455.899274892484
 31
0.0
  0
LINE
  5
7C06
330
8096
100
AcDbEntity
  8
1
100
AcDbLine
 10
558.1952238038911
 20
1555.899274892484
 30
0.0
 11
2008.195223803891
 21
1555.899274892484
 31
0.0
1001
ACAD
1000
ASC_BOUNDS
1002
{
1070
    19
1005
0
1005
0
1002
}
  0
LINE
  5
7C07
330
8096
100
AcDbEntity
  8
1
100
AcDbLine
 10
558.1952238038911
 20
1555.899274892484
 30
0.0
 11
558.1952238038911
 21
1455.899274892484
 31
0.0
  0
LINE
  5
7C08
330
8096
100
AcDbEntity
  8
1
100
AcDbLine
 10
2008.195223803891
 20
1555.899274892484
 30
0.0
 11
2008.195223803891
 21
1455.899274892484
 31
0.0
  0
ARC
  5
7C09
330
8096
100
AcDbEntity
  8
1
100
AcDbCircle
 10
758.1952238038909
 20
1899.899274892485
 30
0.0
 40
142.5
100
AcDbArc
 50
326.966192328012
 51
0.0
  0
ARC
  5
7C0A
330
8096
100
AcDbEntity
  8
1
100
AcDbCircle
 10
758.1952238038909
 20
1899.899274892485
 30
0.0
 40
142.5
100
AcDbArc
 50
0.0
 51
213.0338683823617
  0
LINE
  5
7C0B
330
8096
100
AcDbEntity
  8
2
100
AcDbLine
 10
758.1952238038909
 20
2061.498016009744
 30
0.0
 11
758.1952238038913
 21
1455.899274892485
 31
0.0
  0
LINE
  5
7C0C
330
8096
100
AcDbEntity
  8
1
100
AcDbLine
 10
638.7305657949681
 20
1822.217581509736
 30
0.0
 11
628.1952238038911
 21
1782.899274892484
 31
0.0
  0
LINE
  5
7C0D
330
8096
100
AcDbEntity
  8
1
100
AcDbLine
 10
628.1952238038911
 20
1782.701874892484
 30
0.0
 11
628.1952238038911
 21
1767.899274892484
 31
0.0
  0
LINE
  5
7C0E
330
8096
100
AcDbEntity
  8
1
100
AcDbLine
 10
877.6599641239515
 20
1822.217708094044
 30
0.0
 11
888.1952238038909
 21
1782.899274892484
 31
0.0
  0
LINE
  5
7C0F
330
8096
100
AcDbEntity
  8
1
100
AcDbLine
 10
888.1952238038909
 20
1782.701874892484
 30
0.0
 11
888.1952238038909
 21
1767.899274892484
 31
0.0
  0
LINE
  5
7C10
330
8096
100
AcDbEntity
  8
2
100
AcDbLine
 10
587.6576589883008
 20
1899.899274892485
 30
0.0
 11
926.6959893295513
 21
1899.899274892485
 31
0.0
  0
LINE
  5
7C11
330
8096
100
AcDbEntity
  8
1
100
AcDbLine
 10
958.1952238038912
 20
1722.899274892484
 30
0.0
 11
958.1952238038912
 21
1682.899274892484
 31
0.0
  0
LINE
  5
7C12
330
8096
100
AcDbEntity
  8
1
100
AcDbLine
 10
558.1952238038911
 20
1722.899274892484
 30
0.0
 11
558.1952238038911
 21
1682.899274892484
 31
0.0
  0
LINE
  5
7C13
330
8096
100
AcDbEntity
  8
1
100
AcDbLine
 10
558.1952238038911
 20
1722.899274892484
 30
0.0
 11
958.1952238038912
 21
1722.899274892484
 31
0.0
  0
LINE
  5
7C14
330
8096
100
AcDbEntity
  8
1
100
AcDbLine
 10
594.3595671900966
 20
1767.899274892484
 30
0.0
 11
920.8177351952182
 21
1767.899274892484
 31
0.0
  0
LINE
  5
7C15
330
8096
100
AcDbEntity
  8
1
100
AcDbLine
 10
583.1952238038911
 20
1722.899274892484
 30
0.0
 11
594.3595671900966
 21
1767.899274892484
 31
0.0
  0
LINE
  5
7C16
330
8096
100
AcDbEntity
  8
1
100
AcDbLine
 10
933.1952238038912
 20
1722.899274892484
 30
0.0
 11
920.8177351952182
 21
1767.899274892484
 31
0.0
  0
LINE
  5
7C17
330
8096
100
AcDbEntity
  8
1
100
AcDbLine
 10
2694.329593074301
 20
1555.899274892484
 30
0.0
 11
3700.329593074302
 21
1555.899274892484
 31
0.0
1001
ACAD
1000
ASC_BOUNDS
1002
{
1070
    19
1002
}
  0
LINE
  5
7C18
330
8096
100
AcDbEntity
  8
1
100
AcDbLine
 10
2694.329593074301
 20
1455.899274892484
 30
0.0
 11
3700.329593074302
 21
1455.899274892484
 31
0.0
  0
LINE
  5
7C19
330
8096
100
AcDbEntity
  8
1
100
AcDbLine
 10
2694.329593074301
 20
1555.899274892484
 30
0.0
 11
2694.329593074301
 21
1455.899274892484
 31
0.0
  0
LINE
  5
7C1A
330
8096
100
AcDbEntity
  8
1
100
AcDbLine
 10
3700.329593074302
 20
1555.899274892484
 30
0.0
 11
3700.329593074302
 21
1455.899274892484
 31
0.0
  0
DIMENSION
  5
7C1C
330
8096
100
AcDbEntity
  8
3
100
AcDbDimension
  2
*D5
 10
1580.19522380389
 20
2772.857096809494
 30
0.0
 11
1255.195223803891
 21
2812.857096809494
 31
0.0
 12
1028.542227409652
 22
1594.801648442364
 32
0.0
 71
     5
 42
-1.0
  3
Standard
100
AcDbAlignedDimension
 13
930.1952238038909
 23
2622.899274892485
 33
0.0
 14
1580.19522380389
 24
2622.899274892485
 34
0.0
 50
180.0
100
AcDbRotatedDimension
1001
ACAD
1000
DSTYLE
1002
{
1070
    40
1040
20.0
1002
}
  0
DIMENSION
  5
7C1D
330
8096
100
AcDbEntity
  8
3
100
AcDbDimension
  2
*D6
 10
1608.195223803891
 20
2922.400941013177
 30
0.0
 11
1269.195223803891
 21
2962.400941013177
 31
0.0
 12
1028.542227409652
 22
1594.801648442364
 32
0.0
 71
     5
 42
-1.0
  3
Standard
100
AcDbAlignedDimension
 13
930.1952238038909
 23
2622.899274892485
 33
0.0
 14
1608.195223803891
 24
2669.79224799548
 34
0.0
 50
180.0
100
AcDbRotatedDimension
1001
ACAD
1000
DSTYLE
1002
{
1070
    40
1040
20.0
1002
}
  0
POINT
  5
7C1E
330
8096
100
AcDbEntity
  8
1
100
AcDbPoint
 10
2008.195223803891
 20
1530.899274892484
 30
0.0
  0
LINE
  5
7C1F
330
8096
100
AcDbEntity
  8
2
100
AcDbLine
 10
2465.3295930743
 20
1899.899274892485
 30
0.0
 11
2847.329593074301
 21
1899.899274892485
 31
0.0
  0
LINE
  5
7C21
330
8096
100
AcDbEntity
  8
1
100
AcDbLine
 10
2847.329593074301
 20
2622.899274892485
 30
0.0
 11
2847.329593074301
 21
2190.899274892485
 31
0.0
  0
LINE
  5
7C22
330
8096
100
AcDbEntity
  8
1
100
AcDbLine
 10
2847.329593074301
 20
2190.899274892485
 30
0.0
 11
2847.329593074301
 21
1682.899274892484
 31
0.0
  0
LINE
  5
7C23
330
8096
100
AcDbEntity
  8
1
100
AcDbLine
 10
3757.329593074302
 20
2132.899274892484
 30
0.0
 11
3757.329593074302
 21
2032.899274892484
 31
0.0
  0
ARC
  5
7C24
330
8096
100
AcDbEntity
  8
1
100
AcDbCircle
 10
3747.329593074301
 20
2132.899274892484
 30
0.0
 40
10.0
100
AcDbArc
 50
0.0
 51
90.0
  0
ARC
  5
7C25
330
8096
100
AcDbEntity
  8
1
100
AcDbCircle
 10
3747.329593074301
 20
2032.899274892484
 30
0.0
 40
10.0
100
AcDbArc
 50
270.0
 51
0.0
  0
LINE
  5
7C26
330
8096
100
AcDbEntity
  8
1
100
AcDbLine
 10
3647.329593074302
 20
2022.899274892484
 30
0.0
 11
3747.329593074301
 21
2022.899274892484
 31
0.0
  0
LINE
  5
7C27
330
8096
100
AcDbEntity
  8
1
100
AcDbLine
 10
3647.329593074302
 20
2142.899274892485
 30
0.0
 11
3747.329593074301
 21
2142.899274892485
 31
0.0
  0
CIRCLE
  5
7C28
330
8096
100
AcDbEntity
  8
1
100
AcDbCircle
 10
758.1952238038909
 20
1899.899274892485
 30
0.0
 40
79.0
  0
CIRCLE
  5
7C29
330
8096
100
AcDbEntity
  8
1
100
AcDbCircle
 10
1608.195223803891
 20
2162.899274892485
 30
0.0
 40
88.9
  0
ARC
  5
7C2A
330
8096
100
AcDbEntity
  8
1
100
AcDbCircle
 10
1608.195223803891
 20
2162.899274892485
 30
0.0
 40
150.0
100
AcDbArc
 50
282.4716975566092
 51
102.4716975566092
  0
ARC
  5
7C2B
330
8096
100
AcDbEntity
  8
1
100
AcDbCircle
 10
758.1952238038909
 20
1899.899274892485
 30
0.0
 40
150.0
100
AcDbArc
 50
102.4716975566092
 51
282.4716975566092
  0
LINE
  5
7C2C
330
8096
100
AcDbEntity
  8
1
100
AcDbLine
 10
1575.801624932592
 20
2309.359695321231
 30
0.0
 11
725.8016249325918
 21
2046.359695321231
 31
0.0
  0
LINE
  5
7C2D
330
8096
100
AcDbEntity
  8
1
100
AcDbLine
 10
1588.010725137002
 20
2249.477540141716
 30
0.0
 11
740.2584927050811
 21
1976.836091030721
 31
0.0
  0
LINE
  5
7C2E
330
8096
100
AcDbEntity
  8
1
100
AcDbLine
 10
1626.405454679519
 20
2075.884348061185
 30
0.0
 11
774.3775437046187
 21
1822.574424277494
 31
0.0
  0
LINE
  5
7C2F
330
8096
100
AcDbEntity
  8
1
100
AcDbLine
 10
1640.58882267519
 20
2016.438854463737
 30
0.0
 11
790.5888226751904
 21
1753.438854463737
 31
0.0
  0
LINE
  5
7C30
330
8096
100
AcDbEntity
  8
1
100
AcDbLine
 10
2595.329593074302
 20
2251.799274892485
 30
0.0
 11
2595.3295930743
 21
2073.999274892484
 31
0.0
  0
LINE
  5
7C31
330
8096
100
AcDbEntity
  8
1
100
AcDbLine
 10
2677.329593074301
 20
2251.799274892485
 30
0.0
 11
2677.329593074301
 21
2073.999274892485
 31
0.0
  0
LINE
  5
7C32
330
8096
100
AcDbEntity
  8
1
100
AcDbLine
 10
2595.329593074302
 20
2251.799274892485
 30
0.0
 11
2677.329593074301
 21
2251.799274892485
 31
0.0
  0
LINE
  5
7C33
330
8096
100
AcDbEntity
  8
1
100
AcDbLine
 10
2595.3295930743
 20
2073.999274892484
 30
0.0
 11
2677.329593074301
 21
2073.999274892485
 31
0.0
  0
LINE
  5
7C34
330
8096
100
AcDbEntity
  8
1
100
AcDbLine
 10
2595.3295930743
 20
1978.899274892484
 30
0.0
 11
2677.329593074301
 21
1978.899274892484
 31
0.0
  0
LINE
  5
7C35
330
8096
100
AcDbEntity
  8
1
100
AcDbLine
 10
2595.329593074299
 20
1820.899274892484
 30
0.0
 11
2677.329593074299
 21
1820.899274892484
 31
0.0
  0
LINE
  5
7C36
330
8096
100
AcDbEntity
  8
1
100
AcDbLine
 10
2467.329593074301
 20
2312.899274892485
 30
0.0
 11
2467.329593074299
 21
1749.899274892484
 31
0.0
  0
LINE
  5
7C37
330
8096
100
AcDbEntity
  8
1
100
AcDbLine
 10
2727.329593074301
 20
2312.899274892485
 30
0.0
 11
2727.329593074302
 21
2292.899274892485
 31
0.0
  0
LINE
  5
7C38
330
8096
100
AcDbEntity
  8
1
100
AcDbLine
 10
2467.329593074302
 20
2312.899274892485
 30
0.0
 11
2727.329593074301
 21
2312.899274892485
 31
0.0
  0
LINE
  5
7C39
330
8096
100
AcDbEntity
  8
1
100
AcDbLine
 10
2467.329593074299
 20
1749.899274892484
 30
0.0
 11
2727.3295930743
 21
1749.899274892484
 31
0.0
  0
LINE
  5
7C3A
330
8096
100
AcDbEntity
  8
1
100
AcDbLine
 10
2727.3295930743
 20
1757.399274892484
 30
0.0
 11
2727.3295930743
 21
1749.899274892484
 31
0.0
  0
LINE
  5
7C3B
330
8096
100
AcDbEntity
  8
1
100
AcDbLine
 10
1208.195223803891
 20
4474.243451059678
 30
0.0
 11
2008.195223803892
 21
4474.243451059678
 31
0.0
  0
LINE
  5
7C3C
330
8096
100
AcDbEntity
  8
1
100
AcDbLine
 10
558.1952238038911
 20
3468.243451059676
 30
0.0
 11
2008.195223803891
 21
3468.243451059676
 31
0.0
  0
LINE
  5
7C3D
330
8096
100
AcDbEntity
  8
1
100
AcDbLine
 10
2008.195223803891
 20
4474.243451059678
 30
0.0
 11
2008.195223803891
 21
4421.243451059678
 31
0.0
  0
LINE
  5
7C3E
330
8096
100
AcDbEntity
  8
1
100
AcDbLine
 10
1208.195223803891
 20
4474.243451059678
 30
0.0
 11
1208.195223803891
 21
4421.243451059676
 31
0.0
  0
LINE
  5
7C3F
330
8096
100
AcDbEntity
  8
1
100
AcDbLine
 10
558.1952238038911
 20
4068.243451059675
 30
0.0
 11
558.1952238038911
 21
3468.243451059676
 31
0.0
  0
LINE
  5
7C40
330
8096
100
AcDbEntity
  8
1
100
AcDbLine
 10
558.1952238038911
 20
4068.243451059674
 30
0.0
 11
930.1952238038909
 21
4068.243451059675
 31
0.0
  0
POINT
  5
7C41
330
8096
100
AcDbEntity
  8
1
100
AcDbPoint
 10
2008.195223803891
 20
1612.899274892484
 30
0.0
  0
POINT
  5
7C42
330
8096
100
AcDbEntity
  8
1
100
AcDbPoint
 10
2008.195223803891
 20
1530.899274892484
 30
0.0
  0
POINT
  5
7C43
330
8096
100
AcDbEntity
  8
1
100
AcDbPoint
 10
2008.195223803891
 20
1612.899274892484
 30
0.0
  0
DIMENSION
  5
7C44
330
8096
100
AcDbEntity
  8
3
100
AcDbDimension
  2
*D7
 10
3900.866626644966
 20
1827.899274892484
 30
0.0
 11
3860.866626644965
 21
2162.899274892485
 31
0.0
 12
680.0333995910185
 22
1594.801648442364
 32
0.0
 71
     5
 42
-1.0
  3
Standard
100
AcDbAlignedDimension
 13
3652.829593074303
 23
2497.899274892485
 33
0.0
 14
3652.829593074303
 24
1827.899274892484
 34
0.0
 50
90.0
100
AcDbRotatedDimension
1001
ACAD
1000
DSTYLE
1002
{
1070
    40
1040
20.0
1070
     3
1000
\U+03C6<>
1002
}
  0
DIMENSION
  5
7C47
330
8096
100
AcDbEntity
  8
3
100
AcDbDimension
  2
*D8
 10
3647.3295930743
 20
2754.56938158193
 30
0.0
 11
3247.3295930743
 21
2794.56938158193
 31
0.0
 71
     5
 42
-1.0
  3
Standard
100
AcDbAlignedDimension
 13
2847.329593074301
 23
2622.899274892485
 33
0.0
 14
3647.3295930743
 24
2622.899274892485
 34
0.0
100
AcDbRotatedDimension
1001
ACAD
1000
DSTYLE
1002
{
1070
    40
1040
20.0
1002
}
  0
ARC
  5
7C48
330
8096
100
AcDbEntity
  8
1
100
AcDbCircle
 10
2754.8295930743
 20
2129.699274892484
 30
0.0
 40
10.0
100
AcDbArc
 50
90.0
 51
180.0
  0
ARC
  5
7C49
330
8096
100
AcDbEntity
  8
1
100
AcDbCircle
 10
2754.8295930743
 20
2029.699274892484
 30
0.0
 40
10.0
100
AcDbArc
 50
180.0
 51
270.0
  0
LINE
  5
7C4A
330
8096
100
AcDbEntity
  8
1
100
AcDbLine
 10
2847.329593074301
 20
2019.699274892484
 30
0.0
 11
2754.8295930743
 21
2019.699274892484
 31
0.0
  0
LINE
  5
7C4B
330
8096
100
AcDbEntity
  8
1
100
AcDbLine
 10
2847.329593074301
 20
2139.699274892484
 30
0.0
 11
2754.8295930743
 21
2139.699274892484
 31
0.0
  0
LINE
  5
7C4C
330
8096
100
AcDbEntity
  8
1
100
AcDbLine
 10
2744.8295930743
 20
2129.699274892484
 30
0.0
 11
2744.8295930743
 21
2029.699274892484
 31
0.0
  0
LINE
  5
7C4D
330
8096
100
AcDbEntity
  8
1
100
AcDbLine
 10
2677.329593074301
 20
2137.899274892484
 30
0.0
 11
2749.2295930743
 21
2137.899274892484
 31
0.0
  0
LINE
  5
7C4F
330
8096
100
AcDbEntity
  8
1
100
AcDbLine
 10
2008.195223803891
 20
1682.899274892484
 30
0.0
 11
2008.195223803891
 21
1582.899274892485
 31
0.0
  0
LINE
  5
7C50
330
8096
100
AcDbEntity
  8
1
100
AcDbLine
 10
558.1952238038911
 20
1682.899274892484
 30
0.0
 11
2008.195223803891
 21
1682.899274892484
 31
0.0
1001
ACAD
1000
ASC_BOUNDS
1002
{
1070
    19
1005
0
1005
0
1002
}
  0
LINE
  5
7C51
330
8096
100
AcDbEntity
  8
1
100
AcDbLine
 10
558.1952238038911
 20
1582.899274892485
 30
0.0
 11
2008.195223803891
 21
1582.899274892485
 31
0.0
  0
LINE
  5
7C52
330
8096
100
AcDbEntity
  8
1
100
AcDbLine
 10
558.1952238038911
 20
1682.899274892484
 30
0.0
 11
558.1952238038911
 21
1582.899274892485
 31
0.0
  0
LINE
  5
7C53
330
8096
100
AcDbEntity
  8
1
100
AcDbLine
 10
2694.329593074301
 20
1682.899274892484
 30
0.0
 11
3699.629593074302
 21
1682.899274892484
 31
0.0
1001
ACAD
1000
ASC_BOUNDS
1002
{
1070
    19
1002
}
  0
LINE
  5
7C54
330
8096
100
AcDbEntity
  8
1
100
AcDbLine
 10
2694.329593074301
 20
1682.899274892484
 30
0.0
 11
2694.329593074301
 21
1582.899274892485
 31
0.0
  0
LINE
  5
7C55
330
8096
100
AcDbEntity
  8
1
100
AcDbLine
 10
2694.329593074301
 20
1582.899274892485
 30
0.0
 11
3700.3295930743
 21
1582.899274892485
 31
0.0
  0
LINE
  5
7C56
330
8096
100
AcDbEntity
  8
1
100
AcDbLine
 10
3700.329593074302
 20
1682.899274892484
 30
0.0
 11
3700.329593074302
 21
1582.899274892485
 31
0.0
  0
ARC
  5
7C57
330
8096
100
AcDbEntity
  8
1
100
AcDbCircle
 10
1608.195223803891
 20
2162.899274892485
 30
0.0
 40
378.0
100
AcDbArc
 50
0.0
 51
4.248022666728545
  0
LINE
  5
7C58
330
8096
100
AcDbEntity
  8
1
100
AcDbLine
 10
930.1952238038909
 20
4421.243451059676
 30
0.0
 11
2062.195223803891
 21
4421.243451059678
 31
0.0
  0
LINE
  5
7C59
330
8096
100
AcDbEntity
  8
1
100
AcDbLine
 10
930.1952238038909
 20
3621.243451059676
 30
0.0
 11
2062.195223803891
 21
3621.243451059677
 31
0.0
  0
LINE
  5
7C5A
330
8096
100
AcDbEntity
  8
1
100
AcDbLine
 10
2008.195223803891
 20
3621.243451059676
 30
0.0
 11
2008.195223803891
 21
3468.243451059676
 31
0.0
  0
LINE
  5
7C5B
330
8096
100
AcDbEntity
  8
1
100
AcDbLine
 10
679.1952238038911
 20
3369.243451059676
 30
0.0
 11
837.1952238038909
 21
3369.243451059676
 31
0.0
  0
LINE
  5
7C5C
330
8096
100
AcDbEntity
  8
1
100
AcDbLine
 10
679.1952238038911
 20
3451.243451059678
 30
0.0
 11
837.1952238038909
 21
3451.243451059678
 31
0.0
  0
LINE
  5
7C5D
330
8096
100
AcDbEntity
  8
1
100
AcDbLine
 10
1697.095223803891
 20
3451.243451059677
 30
0.0
 11
1697.095223803891
 21
3369.243451059676
 31
0.0
  0
LINE
  5
7C5E
330
8096
100
AcDbEntity
  8
1
100
AcDbLine
 10
1519.29522380389
 20
3451.243451059677
 30
0.0
 11
1519.29522380389
 21
3369.243451059676
 31
0.0
  0
LINE
  5
7C5F
330
8096
100
AcDbEntity
  8
1
100
AcDbLine
 10
837.1952238038909
 20
3451.243451059677
 30
0.0
 11
837.1952238038909
 21
3369.243451059676
 31
0.0
  0
LINE
  5
7C60
330
8096
100
AcDbEntity
  8
1
100
AcDbLine
 10
679.1952238038911
 20
3451.243451059677
 30
0.0
 11
679.1952238038911
 21
3369.243451059676
 31
0.0
  0
LINE
  5
7C61
330
8096
100
AcDbEntity
  8
1
100
AcDbLine
 10
608.1952238038911
 20
3241.243451059676
 30
0.0
 11
1758.195223803891
 21
3241.243451059676
 31
0.0
  0
LINE
  5
7C62
330
8096
100
AcDbEntity
  8
1
100
AcDbLine
 10
1758.195223803891
 20
3501.243451059676
 30
0.0
 11
1758.195223803891
 21
3241.243451059676
 31
0.0
  0
LINE
  5
7C63
330
8096
100
AcDbEntity
  8
1
100
AcDbLine
 10
608.1952238038911
 20
3501.243451059675
 30
0.0
 11
608.1952238038911
 21
3241.243451059676
 31
0.0
  0
LINE
  5
7C64
330
8096
100
AcDbEntity
  8
1
100
AcDbLine
 10
608.1952238038911
 20
3501.243451059675
 30
0.0
 11
1758.195223803891
 21
3501.243451059676
 31
0.0
  0
LINE
  5
7C65
330
8096
100
AcDbEntity
  8
1
100
AcDbLine
 10
1519.295223803891
 20
3451.243451059677
 30
0.0
 11
1697.095223803891
 21
3451.243451059677
 31
0.0
  0
LINE
  5
7C66
330
8096
100
AcDbEntity
  8
1
100
AcDbLine
 10
1519.29522380389
 20
3369.243451059676
 30
0.0
 11
1697.095223803891
 21
3369.243451059678
 31
0.0
  0
LINE
  5
7C67
330
8096
100
AcDbEntity
  8
2
100
AcDbLine
 10
758.1952238038909
 20
3929.834344226298
 30
0.0
 11
758.1952238038909
 21
3217.690167787979
 31
0.0
  0
LINE
  5
7C68
330
8096
100
AcDbEntity
  8
1
100
AcDbLine
 10
900.6952238038909
 20
3888.243151059675
 30
0.0
 11
615.6952238038911
 21
3888.243151059675
 31
0.0
  0
LINE
  5
7C69
330
8096
100
AcDbEntity
  8
1
100
AcDbLine
 10
900.6952238038909
 20
3498.243451059676
 30
0.0
 11
615.6952238038911
 21
3498.243451059676
 31
0.0
  0
LINE
  5
7C6A
330
8096
100
AcDbEntity
  8
1
100
AcDbLine
 10
739.1952238038909
 20
3498.243451059676
 30
0.0
 11
739.1952238038909
 21
3451.243451059678
 31
0.0
  0
LINE
  5
7C6B
330
8096
100
AcDbEntity
  8
1
100
AcDbLine
 10
777.1952238038909
 20
3498.243451059676
 30
0.0
 11
777.1952238038909
 21
3451.243451059678
 31
0.0
  0
LINE
  5
7C6C
330
8096
100
AcDbEntity
  8
1
100
AcDbLine
 10
615.6952238038911
 20
3888.243151059675
 30
0.0
 11
615.6952238038911
 21
3498.243451059678
 31
0.0
  0
LINE
  5
7C6D
330
8096
100
AcDbEntity
  8
1
100
AcDbLine
 10
900.6952238038909
 20
3888.243151059675
 30
0.0
 11
900.6952238038909
 21
3498.243451059676
 31
0.0
  0
LINE
  5
7C6E
330
8096
100
AcDbEntity
  8
1
100
AcDbLine
 10
1633.195223803891
 20
3621.243451059676
 30
0.0
 11
1633.195223803891
 21
3451.243451059677
 31
0.0
  0
LINE
  5
7C6F
330
8096
100
AcDbEntity
  8
1
100
AcDbLine
 10
1583.195223803891
 20
3621.243451059676
 30
0.0
 11
1583.195223803891
 21
3451.243451059677
 31
0.0
  0
LINE
  5
7C70
330
8096
100
AcDbEntity
  8
1
100
AcDbLine
 10
2677.329593074301
 20
2187.899274892485
 30
0.0
 11
2847.329593074301
 21
2187.899274892485
 31
0.0
  0
CIRCLE
  5
7C71
330
8096
100
AcDbEntity
  8
1
100
AcDbCircle
 10
1608.195223803891
 20
2162.899274892485
 30
0.0
 40
335.0
  0
CIRCLE
  5
7C72
330
8096
100
AcDbEntity
  8
1
100
AcDbCircle
 10
1608.195223803891
 20
2162.899274892485
 30
0.0
 40
375.0
  0
POINT
  5
7C74
330
8096
100
AcDbEntity
  8
1
100
AcDbPoint
 10
3757.329593074302
 20
2132.899274892484
 30
0.0
  0
POINT
  5
7C75
330
8096
100
AcDbEntity
  8
1
100
AcDbPoint
 10
2467.329593074301
 20
2312.899274892485
 30
0.0
  0
DIMENSION
  5
7C77
330
8096
100
AcDbEntity
  8
3
100
AcDbDimension
  2
*D10
 10
2216.987194802499
 20
4474.243451059678
 30
0.0
 11
2176.987194802499
 21
3971.243451059677
 31
0.0
 12
1028.542227409652
 22
1309.828482529042
 32
0.0
 71
     5
 42
-1.0
  3
Standard
100
AcDbAlignedDimension
 13
2008.195223803891
 23
3468.243451059676
 33
0.0
 14
2008.195223803892
 24
4474.243451059678
 34
0.0
 50
90.0
100
AcDbRotatedDimension
1001
ACAD
1000
DSTYLE
1002
{
1070
    40
1040
20.0
1002
}
  0
DIMENSION
  5
7C78
330
8096
100
AcDbEntity
  8
3
100
AcDbDimension
  2
*D11
 10
2008.195223803892
 20
4622.848741558082
 30
0.0
 11
1608.195223803891
 21
4662.848741558081
 31
0.0
 12
1028.542227409652
 22
1309.828482529042
 32
0.0
 71
     5
 42
-1.0
  3
Standard
100
AcDbAlignedDimension
 13
1208.195223803891
 23
4474.243451059678
 33
0.0
 14
2008.195223803892
 24
4474.243451059678
 34
0.0
100
AcDbRotatedDimension
1001
ACAD
1000
DSTYLE
1002
{
1070
    40
1040
20.0
1002
}
  0
DIMENSION
  5
7C79
330
8096
100
AcDbEntity
  8
3
100
AcDbDimension
  2
*D12
 10
407.7676399286101
 20
3468.243451059676
 30
0.0
 11
367.7676399286101
 21
3768.243451059676
 31
0.0
 12
1028.542227409652
 22
1309.828482529042
 32
0.0
 71
     5
 42
-1.0
  3
Standard
100
AcDbAlignedDimension
 13
558.1952238038911
 23
4068.243451059675
 33
0.0
 14
558.1952238038911
 24
3468.243451059676
 34
0.0
 50
90.0
100
AcDbRotatedDimension
1001
ACAD
1000
DSTYLE
1002
{
1070
    40
1040
20.0
1002
}
  0
LINE
  5
7C7F
330
8096
100
AcDbEntity
  8
1
100
AcDbLine
 10
2724.3295930743
 20
1757.399274892484
 30
0.0
 11
2724.3295930743
 21
2042.399274892484
 31
0.0
  0
LINE
  5
7C80
330
8096
100
AcDbEntity
  8
1
100
AcDbLine
 10
2744.8295930743
 20
2042.399274892484
 30
0.0
 11
2724.329593074302
 21
2042.399274892484
 31
0.0
  0
LINE
  5
7C81
330
8096
100
AcDbEntity
  8
1
100
AcDbLine
 10
2724.3295930743
 20
1880.899274892484
 30
0.0
 11
2677.329593074301
 21
1880.899274892484
 31
0.0
  0
LINE
  5
7C82
330
8096
100
AcDbEntity
  8
1
100
AcDbLine
 10
2724.3295930743
 20
1918.899274892484
 30
0.0
 11
2677.329593074301
 21
1918.899274892484
 31
0.0
  0
LINE
  5
7C83
330
8096
100
AcDbEntity
  8
1
100
AcDbLine
 10
2847.329593074301
 20
1757.399274892484
 30
0.0
 11
2724.3295930743
 21
1757.399274892484
 31
0.0
  0
POINT
  5
7C84
330
8096
100
AcDbEntity
  8
1
100
AcDbPoint
 10
2008.195223803891
 20
1612.899274892484
 30
0.0
  0
POINT
  5
7C85
330
8096
100
AcDbEntity
  8
1
100
AcDbPoint
 10
2008.195223803891
 20
1657.899274892484
 30
0.0
  0
LINE
  5
7C86
330
8096
100
AcDbEntity
  8
1
100
AcDbLine
 10
2677.3295930743
 20
1978.899274892484
 30
0.0
 11
2677.329593074299
 21
1820.899274892484
 31
0.0
  0
LINE
  5
7C87
330
8096
100
AcDbEntity
  8
1
100
AcDbLine
 10
2595.3295930743
 20
1978.899274892484
 30
0.0
 11
2595.329593074299
 21
1820.899274892484
 31
0.0
  0
DIMENSION
  5
7C8E
330
8096
100
AcDbEntity
  8
3
100
AcDbDimension
  2
*D16
 10
2261.905517747099
 20
2162.899274892485
 30
0.0
 11
2221.905517747098
 21
2392.899274892485
 31
0.0
 12
1028.542227409652
 22
1594.801648442364
 32
0.0
 71
     5
 42
-1.0
  3
Standard
100
AcDbAlignedDimension
 13
1622.19522380389
 23
2622.899274892485
 33
0.0
 14
2115.088196906886
 24
2162.899274892485
 34
0.0
 50
90.0
100
AcDbRotatedDimension
1001
ACAD
1000
DSTYLE
1002
{
1070
    40
1040
20.0
1002
}
  0
DIMENSION
  5
7C91
330
8096
100
AcDbEntity
  8
3
100
AcDbDimension
  2
*D18
 10
2261.905517747099
 20
1455.899274892484
 30
0.0
 11
2221.905517747098
 21
1294.470703463913
 31
0.0
 12
1028.542227409652
 22
1612.801648442364
 32
0.0
 71
     5
 42
-1.0
  3
Standard
100
AcDbAlignedDimension
 13
2008.195223803891
 23
1555.899274892484
 33
0.0
 14
2008.195223803891
 24
1455.899274892484
 34
0.0
 50
90.0
100
AcDbRotatedDimension
1001
ACAD
1000
DSTYLE
1002
{
1070
    40
1040
20.0
1070
     6
1000
_DOT
1002
}
  0
DIMENSION
  5
7C94
330
8096
100
AcDbEntity
  8
3
100
AcDbDimension
  2
*D20
 10
558.1952238038911
 20
3045.82944963941
 30
0.0
 11
1310.19522380389
 21
3085.829449639409
 31
0.0
 71
     5
 42
-1.0
  3
Standard
100
AcDbAlignedDimension
 13
2062.195223803891
 23
2115.899274892484
 33
0.0
 14
558.1952238038911
 24
1722.899274892484
 34
0.0
100
AcDbRotatedDimension
1001
ACAD
1000
DSTYLE
1002
{
1070
    40
1040
20.0
1002
}
  0
LINE
  5
7C95
330
8096
100
AcDbEntity
  8
1
100
AcDbLine
 10
930.1952238038909
 20
4421.243451059676
 30
0.0
 11
930.1952238038909
 21
3621.243451059676
 31
0.0
  0
LINE
  5
7C96
330
8096
100
AcDbEntity
  8
1
100
AcDbLine
 10
2062.195223803891
 20
4421.243451059677
 30
0.0
 11
2062.195223803891
 21
3621.243451059676
 31
0.0
  0
LINE
  5
7C97
330
8096
100
AcDbEntity
  8
1
100
AcDbLine
 10
1580.19522380389
 20
4421.243451059676
 30
0.0
 11
1580.19522380389
 21
3621.243451059676
 31
0.0
  0
LINE
  5
7C98
330
8096
100
AcDbEntity
  8
1
100
AcDbLine
 10
1580.19522380389
 20
4421.243451059677
 30
0.0
 11
930.1952238038909
 21
3621.243451059676
 31
0.0
  0
LINE
  5
7C99
330
8096
100
AcDbEntity
  8
1
100
AcDbLine
 10
930.1952238038909
 20
4421.243451059676
 30
0.0
 11
1580.19522380389
 21
3621.243451059676
 31
0.0
  0
LINE
  5
7C9A
330
8096
100
AcDbEntity
  8
1
100
AcDbLine
 10
2807.3295930743
 20
2619.899274892484
 30
0.0
 11
3687.3295930743
 21
2619.899274892484
 31
0.0
  0
LINE
  5
7C9B
330
8096
100
AcDbEntity
  8
1
100
AcDbLine
 10
2807.3295930743
 20
2622.899274892485
 30
0.0
 11
2807.3295930743
 21
2619.899274892484
 31
0.0
  0
LINE
  5
7C9C
330
8096
100
AcDbEntity
  8
1
100
AcDbLine
 10
3687.329593074302
 20
2622.899274892485
 30
0.0
 11
3687.329593074302
 21
2619.899274892484
 31
0.0
  0
LINE
  5
7EC5
330
8096
100
AcDbEntity
  8
4
100
AcDbLine
 10
3700.0
 20
1000.0
 30
0.0
 11
3700.0
 21
600.0
 31
0.0
  0
LINE
  5
7EC6
330
8096
100
AcDbEntity
  8
4
100
AcDbLine
 10
2300.0
 20
1000.0
 30
0.0
 11
2300.0
 21
600.0
 31
0.0
  0
LINE
  5
7EC7
330
8096
100
AcDbEntity
  8
4
100
AcDbLine
 10
1300.0
 20
1000.0
 30
0.0
 11
1300.0
 21
600.0
 31
0.0
  0
LINE
  5
7ECA
330
8096
100
AcDbEntity
  8
4
100
AcDbLine
 10
1300.0
 20
600.0
 30
0.0
 11
3700.0
 21
600.0
 31
0.0
  0
LINE
  5
7ECB
330
8096
100
AcDbEntity
  8
4
100
AcDbLine
 10
1300.0
 20
800.0
 30
0.0
 11
3700.0
 21
800.0
 31
0.0
  0
TEXT
  5
7ECC
330
8096
100
AcDbEntity
  8
4
100
AcDbText
 10
1377.004161693803
 20
863.0860517332255
 30
0.0
 40
100.0
  1
機器名称
100
AcDbText
  0
TEXT
  5
7ECD
330
8096
100
AcDbEntity
  8
4
100
AcDbText
 10
1372.516212049595
 20
643.2903134640219
 30
0.0
 40
100.0
  1
機器型番
100
AcDbText
  0
TEXT
  5
7ECE
330
8096
100
AcDbEntity
  8
4
100
AcDbText
 10
2355.357490975329
 20
845.1435379151371
 30
0.0
 40
100.0
  1
ミツヤ多翼送風機
100
AcDbText
  0
TEXT
  5
7ECF
330
8096
100
AcDbEntity
  8
4
100
AcDbText
 10
2373.308991170961
 20
634.3191685598867
 30
0.0
 40
100.0
  1
MF#4-5
100
AcDbText
  0
TEXT
  5
7ED1
330
8096
100
AcDbEntity
  8
4
100
AcDbText
 10
1598.354034469477
 20
4766.857682665031
 30
0.0
 40
107.9999999999999
  1
床置防振ベット
100
AcDbText
  0
TEXT
  5
7ED2
330
8096
100
AcDbEntity
  8
4
100
AcDbText
 10
632.3351866588928
 20
5067.761952398596
 30
0.0
 40
144.0
  1
遠心式両吸込両持多翼ファン
100
AcDbText
  0
LINE
  5
7ED3
330
8096
100
AcDbEntity
  8
4
100
AcDbLine
 10
500.0
 20
4938.817508529609
 30
0.0
 11
3700.0
 21
4938.817508529609
 31
0.0
  0
LINE
  5
7ED4
330
8096
100
AcDbEntity
  8
4
100
AcDbLine
 10
500.0
 20
5338.81750852961
 30
0.0
 11
3700.0
 21
5338.81750852961
 31
0.0
  0
LINE
  5
7ED5
330
8096
100
AcDbEntity
  8
4
100
AcDbLine
 10
1300.0
 20
1000.0
 30
0.0
 11
3700.0
 21
1000.0
 31
0.0
  0
LINE
  5
7ED6
330
8096
100
AcDbEntity
  8
4
100
AcDbLine
 10
500.0
 20
5338.81750852961
 30
0.0
 11
500.0
 21
4938.817508529609
 31
0.0
  0
TEXT
  5
7ED7
330
8096
100
AcDbEntity
  8
4
100
AcDbText
 10
726.6363699840732
 20
4764.638955092687
 30
0.0
 40
107.9999999999999
  1
右回転上向
100
AcDbText
  0
TEXT
  5
7ED8
330
8096
100
AcDbEntity
  8
4
100
AcDbText
 10
2937.939118498579
 20
5412.122162990619
 30
0.0
 40
112.0
  1
No.
100
AcDbText
  0
TEXT
  5
7ED9
330
8096
100
AcDbEntity
  8
4
100
AcDbText
 10
2622.592125200027
 20
4766.857682665031
 30
0.0
 40
107.9999999999999
  1
縮尺：1/20
100
AcDbText
  0
LINE
  5
7EDA
330
8096
100
AcDbEntity
  8
4
100
AcDbLine
 10
3700.0
 20
5338.81750852961
 30
0.0
 11
3700.0
 21
4938.817508529609
 31
0.0
  0
LINE
  5
7EDB
330
8096
100
AcDbEntity
  8
4
100
AcDbLine
 10
4200.0
 20
5900.0
 30
0.0
 11
4200.0
 21
5900.0
 31
0.0
  0
LINE
  5
7EDC
330
8096
100
AcDbEntity
  8
4
100
AcDbLine
 10
2881.234844719729
 20
5362.527166250802
 30
0.0
 11
2881.234844719729
 21
5573.304523099504
 31
0.0
  0
LINE
  5
7EDD
330
8096
100
AcDbEntity
  8
4
100
AcDbLine
 10
2881.234844719729
 20
5573.304523099504
 30
0.0
 11
3700.0
 21
5573.304523099504
 31
0.0
  0
LINE
  5
7EDE
330
8096
100
AcDbEntity
  8
4
100
AcDbLine
 10
3700.0
 20
5573.304523099504
 30
0.0
 11
3700.0
 21
5362.527166250802
 31
0.0
  0
LINE
  5
7EDF
330
8096
100
AcDbEntity
  8
4
100
AcDbLine
 10
3700.0
 20
5362.527166250802
 30
0.0
 11
2881.234844719729
 21
5362.527166250802
 31
0.0
  0
LINE
  5
7EE0
330
8096
100
AcDbEntity
  8
4
100
AcDbLine
 10
0.0
 20
0.0
 30
0.0
 11
0.0
 21
5900.0
 31
0.0
  0
LINE
  5
7EE1
330
8096
100
AcDbEntity
  8
4
100
AcDbLine
 10
0.0
 20
5900.0
 30
0.0
 11
4200.0
 21
5900.0
 31
0.0
  0
LINE
  5
7EE2
330
8096
100
AcDbEntity
  8
4
100
AcDbLine
 10
4200.0
 20
5900.0
 30
0.0
 11
4200.0
 21
0.0
 31
0.0
  0
LINE
  5
7EE3
330
8096
100
AcDbEntity
  8
4
100
AcDbLine
 10
4200.0
 20
0.0
 30
0.0
 11
0.0
 21
0.0
 31
0.0
  0
DIMENSION
  5
7F4A
330
8096
100
AcDbEntity
  8
3
100
AcDbDimension
  2
*D21
 10
1608.195223803891
 20
1303.503837695807
 30
0.0
 11
1083.19522380389
 21
1353.503837695807
 31
0.0
 71
     5
 42
-1.0
  3
Standard
100
AcDbAlignedDimension
 13
558.1952238038911
 23
1455.899274892484
 33
0.0
 14
1608.195223803891
 24
1455.899274892484
 34
0.0
100
AcDbRotatedDimension
1001
ACAD
1000
DSTYLE
1002
{
1070
   172
1070
     1
1070
    40
1040
20.0
1070
    42
1040
1.0
1070
   271
1070
     0
1070
   143
1040
0.039
1002
}
  0
DIMENSION
  5
7F57
330
8096
100
AcDbEntity
  8
3
100
AcDbDimension
  2
*D22
 10
2008.195223803891
 20
1303.503837695807
 30
0.0
 11
1808.195223803891
 21
1353.503837695807
 31
0.0
 71
     5
 42
-1.0
  3
Standard
100
AcDbAlignedDimension
 13
1608.195223803891
 23
1455.899274892484
 33
0.0
 14
2008.195223803891
 24
1455.899274892484
 34
0.0
100
AcDbRotatedDimension
1001
ACAD
1000
DSTYLE
1002
{
1070
   172
1070
     1
1070
    40
1040
20.0
1070
    42
1040
1.0
1070
   271
1070
     0
1070
   143
1040
0.039
1002
}
  0
DIMENSION
  5
7F64
330
8096
100
AcDbEntity
  8
3
100
AcDbDimension
  2
*D23
 10
3247.3295930743
 20
1303.503837695807
 30
0.0
 11
2970.8295930743
 21
1353.503837695807
 31
0.0
 71
     5
 42
-1.0
  3
Standard
100
AcDbAlignedDimension
 13
2694.329593074301
 23
1455.899274892484
 33
0.0
 14
3247.3295930743
 24
1455.899274892484
 34
0.0
100
AcDbRotatedDimension
1001
ACAD
1000
DSTYLE
1002
{
1070
   172
1070
     1
1070
    40
1040
20.0
1070
    42
1040
1.0
1070
   271
1070
     0
1070
   143
1040
0.039
1002
}
  0
DIMENSION
  5
7F71
330
8096
100
AcDbEntity
  8
3
100
AcDbDimension
  2
*D24
 10
3700.329593074302
 20
1303.503837695807
 30
0.0
 11
3473.829593074301
 21
1353.503837695807
 31
0.0
 71
     5
 42
-1.0
  3
Standard
100
AcDbAlignedDimension
 13
3247.3295930743
 23
1455.899274892484
 33
0.0
 14
3700.329593074302
 24
1455.899274892484
 34
0.0
100
AcDbRotatedDimension
1001
ACAD
1000
DSTYLE
1002
{
1070
   172
1070
     1
1070
    40
1040
20.0
1070
    42
1040
1.0
1070
   271
1070
     0
1070
   143
1040
0.039
1002
}
  0
DIMENSION
  5
7F8D
330
8096
100
AcDbEntity
  8
3
100
AcDbDimension
  2
*D26
 10
2428.548924092167
 20
1455.899274892484
 30
0.0
 11
2362.834638377881
 21
2039.399274892484
 31
0.0
 71
     5
 42
-1.0
  3
Standard
100
AcDbAlignedDimension
 13
1622.19522380389
 23
2622.899274892485
 33
0.0
 14
2008.195223803891
 24
1455.899274892484
 34
0.0
 50
90.0
100
AcDbRotatedDimension
1001
ACAD
1000
DSTYLE
1002
{
1070
   172
1070
     1
1070
    40
1040
20.0
1070
     3
1000
(<>)
1070
    42
1040
1.0
1070
   271
1070
     0
1070
   143
1040
0.039
1002
}
  0
DIMENSION
  5
80E0
330
8096
100
AcDbEntity
  8
3
100
AcDbDimension
  2
*D27
 10
3247.329593074301
 20
2903.622274626678
 30
0.0
 11
2857.329593074301
 21
2969.336560340964
 31
0.0
 70
    32
  1
(<>)
 71
     5
 42
780.0
  3
IGA
100
AcDbAlignedDimension
 13
2467.329593074301
 23
2312.899274892485
 33
0.0
 14
3247.329593074301
 24
2824.56938158193
 34
0.0
100
AcDbRotatedDimension
1001
ACAD
1000
DSTYLE
1002
{
1070
    40
1040
20.0
1070
    42
1040
1.0
1070
   143
1040
0.039
1070
   172
1070
     1
1070
   271
1070
     4
1070
   272
1070
     4
1070
   279
1070
     0
1070
   284
1070
     0
1070
   285
1070
     0
1070
   286
1070
     0
1070
   341
1005
80AA
1070
   343
1005
80AA
1070
   344
1005
80AA
1002
}
  0
DIMENSION
  5
80ED
330
8096
100
AcDbEntity
  8
3
100
AcDbDimension
  2
*D28
 10
3757.329593074302
 20
2903.622274626678
 30
0.0
 11
3502.329593074302
 21
2969.336560340964
 31
0.0
 70
    32
  1
(<>)
 71
     5
 42
510.0000000000004
  3
IGA
100
AcDbAlignedDimension
 13
3247.329593074301
 23
2824.56938158193
 33
0.0
 14
3757.329593074302
 24
2132.899274892484
 34
0.0
100
AcDbRotatedDimension
1001
ACAD
1000
DSTYLE
1002
{
1070
    40
1040
20.0
1070
    42
1040
1.0
1070
   143
1040
0.039
1070
   172
1070
     1
1070
   271
1070
     4
1070
   272
1070
     4
1070
   279
1070
     1
1070
   284
1070
     0
1070
   285
1070
     0
1070
   286
1070
     0
1070
   341
1005
80AA
1070
   343
1005
80AA
1070
   344
1005
80AA
1002
}
  0
DIMENSION
  5
8152
330
8096
100
AcDbEntity
  8
3
100
AcDbDimension
  2
*D30
 10
2008.195223803891
 20
3139.339964565808
 30
0.0
 11
1283.195223803891
 21
3189.339964565808
 31
0.0
 70
    32
 71
     5
 42
1450.0
  3
IGA
100
AcDbAlignedDimension
 13
558.1952238038911
 23
3468.243451059676
 33
0.0
 14
2008.195223803891
 24
3468.243451059676
 34
0.0
100
AcDbRotatedDimension
1001
ACAD
1000
DSTYLE
1002
{
1070
    40
1040
20.0
1070
    42
1040
1.0
1070
   143
1040
0.039
1070
   172
1070
     1
1070
   271
1070
     4
1070
   272
1070
     4
1070
   279
1070
     0
1070
   284
1070
     0
1070
   285
1070
     0
1070
   286
1070
     0
1070
   341
1005
80AA
1070
   343
1005
80AA
1070
   344
1005
80AA
1002
}
  0
DIMENSION
  5
815F
330
8096
100
AcDbEntity
  8
3
100
AcDbDimension
  2
*D31
 10
1208.195223803891
 20
4622.84874155808
 30
0.0
 11
883.1952238038908
 21
4672.848741558079
 31
0.0
 70
    32
 71
     5
 42
649.9999999999995
  3
IGA
100
AcDbAlignedDimension
 13
558.1952238038911
 23
4068.243451059675
 33
0.0
 14
1208.195223803891
 24
4474.243451059678
 34
0.0
100
AcDbRotatedDimension
1001
ACAD
1000
DSTYLE
1002
{
1070
    40
1040
20.0
1070
    42
1040
1.0
1070
   143
1040
0.039
1070
   172
1070
     1
1070
   271
1070
     4
1070
   272
1070
     4
1070
   279
1070
     0
1070
   284
1070
     0
1070
   285
1070
     0
1070
   286
1070
     0
1070
   341
1005
80AA
1070
   343
1005
80AA
1070
   344
1005
80AA
1002
}
  0
DIMENSION
  5
8175
330
8096
100
AcDbEntity
  8
3
100
AcDbDimension
  2
*D32
 10
2261.905517747097
 20
1582.899274892485
 30
0.0
 11
2211.905517747097
 21
1872.899274892485
 31
0.0
 70
    32
 71
     5
 42
579.9999999999993
  3
IGA
100
AcDbAlignedDimension
 13
2115.088196906886
 23
2162.899274892485
 33
0.0
 14
2008.195223803891
 24
1582.899274892485
 34
0.0
 50
90.0
100
AcDbRotatedDimension
1001
ACAD
1000
DSTYLE
1002
{
1070
    40
1040
20.0
1070
    42
1040
1.0
1070
   143
1040
0.039
1070
   172
1070
     1
1070
   271
1070
     4
1070
   272
1070
     4
1070
   279
1070
     0
1070
   284
1070
     0
1070
   285
1070
     0
1070
   286
1070
     0
1070
   341
1005
80AA
1070
   343
1005
80AA
1070
   344
1005
80AA
1002
}
  0
DIMENSION
  5
8182
330
8096
100
AcDbEntity
  8
3
100
AcDbDimension
  2
*D33
 10
2261.905517747097
 20
1555.899274892484
 30
0.0
 11
2404.004670385293
 21
1645.542132035342
 31
0.0
 70
   160
  1
(<>)
 71
     5
 42
27.00000000000091
  3
IGA
100
AcDbAlignedDimension
 13
2008.195223803891
 23
1582.899274892485
 33
0.0
 14
2008.195223803891
 24
1555.899274892484
 34
0.0
 50
90.0
100
AcDbRotatedDimension
1001
ACAD
1000
DSTYLE
1002
{
1070
    40
1040
20.0
1070
    42
1040
1.0
1070
   143
1040
0.039
1070
   172
1070
     1
1070
   271
1070
     4
1070
   272
1070
     4
1070
   279
1070
     1
1070
   284
1070
     0
1070
   285
1070
     0
1070
   286
1070
     0
1070
   341
1005
80AA
1070
   343
1005
80AA
1070
   344
1005
8236
1002
}
  0
DIMENSION
  5
824E
330
8096
100
AcDbEntity
  8
3
100
AcDbDimension
  2
*D36
 10
2062.195223803891
 20
2922.400941013177
 30
0.0
 11
1835.195223803891
 21
2972.400941013177
 31
0.0
 70
    32
 71
     5
 42
454.0
  3
IGA
100
AcDbAlignedDimension
 13
1608.195223803891
 23
2663.782286904674
 33
0.0
 14
2062.195223803891
 24
2115.899274892484
 34
0.0
100
AcDbRotatedDimension
1001
ACAD
1000
DSTYLE
1002
{
1070
    40
1040
20.0
1070
    42
1040
1.0
1070
   143
1040
0.039
1070
   172
1070
     1
1070
   271
1070
     4
1070
   272
1070
     4
1070
   279
1070
     0
1070
   284
1070
     0
1070
   285
1070
     0
1070
   286
1070
     0
1070
   341
1005
80AA
1070
   343
1005
80AA
1070
   344
1005
80AA
1002
}
  0
ENDSEC
  0
SECTION
  2
OBJECTS
  0
DICTIONARY
  5
8033
330
0
100
AcDbDictionary
281
     1
  3
ACAD_CIP_PREVIOUS_PRODUCT_INFO
350
80DC
  3
ACAD_COLOR
350
8089
  3
ACAD_DETAILVIEWSTYLE
350
8090
  3
ACAD_GROUP
350
8034
  3
ACAD_LAYOUT
350
8088
  3
ACAD_MATERIAL
350
8037
  3
ACAD_MLEADERSTYLE
350
808C
  3
ACAD_MLINESTYLE
350
8085
  3
ACAD_PLOTSETTINGS
350
8087
  3
ACAD_PLOTSTYLENAME
350
8035
  3
ACAD_SCALELIST
350
8069
  3
ACAD_SECTIONVIEWSTYLE
350
808E
  3
ACAD_TABLESTYLE
350
808A
  3
ACAD_VISUALSTYLE
350
8050
  3
ACDB_RECOMPOSE_DATA
350
827B
  3
AcDbVariableDictionary
350
826E
  3
DWGPROPS
350
827C
  0
DICTIONARY
  5
8264
330
807B
100
AcDbDictionary
280
     1
281
     1
  3
ADSK_XREC_LAYER_RECONCILED
360
8265
  0
DICTIONARY
  5
8266
330
809A
100
AcDbDictionary
280
     1
281
     1
  3
ADSK_XREC_LAYER_RECONCILED
360
8267
  0
DICTIONARY
  5
8268
330
809D
100
AcDbDictionary
280
     1
281
     1
  3
ADSK_XREC_LAYER_RECONCILED
360
8269
  0
DICTIONARY
  5
826A
330
809E
100
AcDbDictionary
280
     1
281
     1
  3
ADSK_XREC_LAYER_RECONCILED
360
826B
  0
DICTIONARY
  5
826C
330
809F
100
AcDbDictionary
280
     1
281
     1
  3
ADSK_XREC_LAYER_RECONCILED
360
826D
  0
XRECORD
  5
80DC
102
{ACAD_REACTORS
330
8033
102
}
330
8033
100
AcDbXrecord
280
     1
300
ACDLT
300
2015
300
INVLTS_F_S
  0
DICTIONARY
  5
8089
102
{ACAD_REACTORS
330
8033
102
}
330
8033
100
AcDbDictionary
281
     1
  0
DICTIONARY
  5
8090
102
{ACAD_REACTORS
330
8033
102
}
330
8033
100
AcDbDictionary
281
     1
  3
Imperial24
350
8091
  0
DICTIONARY
  5
8034
102
{ACAD_REACTORS
330
8033
102
}
330
8033
100
AcDbDictionary
281
     1
  0
DICTIONARY
  5
8088
102
{ACAD_REACTORS
330
8033
102
}
330
8033
100
AcDbDictionary
281
     1
  3
Model
350
8099
  3
レイアウト1
350
8095
  0
DICTIONARY
  5
8037
102
{ACAD_REACTORS
330
8033
102
}
330
8033
100
AcDbDictionary
281
     1
  3
ByBlock
350
8040
  3
ByLayer
350
8038
  3
Global
350
8048
  0
DICTIONARY
  5
808C
102
{ACAD_REACTORS
330
8033
102
}
330
8033
100
AcDbDictionary
281
     1
  3
Standard
350
808D
  0
DICTIONARY
  5
8085
102
{ACAD_REACTORS
330
8033
102
}
330
8033
100
AcDbDictionary
281
     1
  3
Standard
350
8086
  0
DICTIONARY
  5
8087
102
{ACAD_REACTORS
330
8033
102
}
330
8033
100
AcDbDictionary
281
     1
  0
ACDBDICTIONARYWDFLT
  5
8035
102
{ACAD_REACTORS
330
8033
102
}
330
8033
100
AcDbDictionary
281
     1
  3
Normal
350
8036
100
AcDbDictionaryWithDefault
340
8036
  0
DICTIONARY
  5
8069
102
{ACAD_REACTORS
330
8033
102
}
330
8033
100
AcDbDictionary
281
     1
  3
A0
350
806A
  3
A1
350
806B
  3
A2
350
806C
  3
A3
350
806D
  3
A4
350
806E
  3
A5
350
806F
  3
A6
350
8070
  3
A7
350
8071
  3
A8
350
8072
  3
A9
350
8073
  3
B0
350
8074
  3
B1
350
8075
  3
B2
350
8076
  3
B3
350
8077
  3
B4
350
8078
  3
B5
350
8079
  3
B6
350
807A
  0
DICTIONARY
  5
808E
102
{ACAD_REACTORS
330
8033
102
}
330
8033
100
AcDbDictionary
281
     1
  3
Imperial24
350
808F
  0
DICTIONARY
  5
808A
102
{ACAD_REACTORS
330
8033
102
}
330
8033
100
AcDbDictionary
281
     1
  3
Standard
350
808B
  0
DICTIONARY
  5
8050
102
{ACAD_REACTORS
330
8033
102
}
330
8033
100
AcDbDictionary
281
     1
  3
2dWireframe
350
8056
  3
Basic
350
8055
  3
Brighten
350
805C
  3
ColorChange
350
8060
  3
Conceptual
350
8059
  3
Dim
350
805B
  3
EdgeColorOff
350
8068
  3
Facepattern
350
805F
  3
Flat
350
8051
  3
FlatWithEdges
350
8052
  3
Gouraud
350
8053
  3
GouraudWithEdges
350
8054
  3
Hidden
350
8058
  3
JitterOff
350
8066
  3
Linepattern
350
805E
  3
OverhangOff
350
8067
  3
Realistic
350
805A
  3
Shaded
350
8065
  3
Shaded with edges
350
8064
  3
Shades of Gray
350
8061
  3
Sketchy
350
8062
  3
Thicken
350
805D
  3
Wireframe
350
8057
  3
X-Ray
350
8063
  0
XRECORD
  5
827B
102
{ACAD_REACTORS
330
8033
102
}
330
8033
100
AcDbXrecord
280
     1
 90
        1
330
808B
  0
DICTIONARY
  5
826E
102
{ACAD_REACTORS
330
8033
102
}
330
8033
100
AcDbDictionary
281
     1
  3
CANNOSCALE
350
8273
  3
CMLEADERSTYLE
350
8270
  3
CTABLESTYLE
350
826F
  3
CVIEWDETAILSTYLE
350
8271
  3
CVIEWSECTIONSTYLE
350
8272
  3
DIMASSOC
350
8276
  3
INDEXCTL
350
8275
  3
SORTENTS
350
8274
  3
XCLIPFRAME
350
8277
  0
XRECORD
  5
827C
102
{ACAD_REACTORS
330
8033
102
}
330
8033
100
AcDbXrecord
280
     1
  1
DWGPROPS COOKIE
  2

  3

  4

  6

  7

  8
yasukiyo.ogawa
  9

300
=
301
=
302
=
303
=
304
=
305
=
306
=
307
=
308
=
309
=
 40
0.0138702430555556
 41
2451387.477422685
 42
2460262.644599873
  1

 90
        0
  0
XRECORD
  5
8265
102
{ACAD_REACTORS
330
8264
102
}
330
8264
100
AcDbXrecord
280
     1
290
     1
  0
XRECORD
  5
8267
102
{ACAD_REACTORS
330
8266
102
}
330
8266
100
AcDbXrecord
280
     1
290
     1
  0
XRECORD
  5
8269
102
{ACAD_REACTORS
330
8268
102
}
330
8268
100
AcDbXrecord
280
     1
290
     1
  0
XRECORD
  5
826B
102
{ACAD_REACTORS
330
826A
102
}
330
826A
100
AcDbXrecord
280
     1
290
     1
  0
XRECORD
  5
826D
102
{ACAD_REACTORS
330
826C
102
}
330
826C
100
AcDbXrecord
280
     1
290
     1
  0
ACDBDETAILVIEWSTYLE
  5
8091
102
{ACAD_XDICTIONARY
360
82B4
102
}
102
{ACAD_REACTORS
330
8090
102
}
330
8090
100
AcDbModelDocViewStyle
 70
     0
  3
Imperial24
290
     0
100
AcDbDetailViewStyle
 70
     0
 71
     0
 90
        3
 71
     1
340
807C
 40
0.24
340
0
 40
0.24
300

 40
0.36
280
     3
 71
     2
340
8083
 90
       25
 71
     3
340
807C
 40
0.24
 90
        1
 40
0.75
 90
        1
300
%<\AcVar ViewType \f "%tc1">% %<\AcVar ViewDetailId>%\PSCALE %<\AcVar ViewScale \f "%sn">%
 71
     4
340
8083
 90
       25
340
8083
 90
       25
280
     0
  0
LAYOUT
  5
8099
102
{ACAD_XDICTIONARY
360
82B8
102
}
102
{ACAD_REACTORS
330
8088
102
}
330
8088
100
AcDbPlotSettings
  1

  2
RICOH imagio MP W3600 RPCS
  4

  6

 40
0.0
 41
0.0
 42
0.0
 43
0.0
 44
0.0
 45
0.0
 46
0.0
 47
0.0
 48
0.0
 49
0.0
140
0.0
141
0.0
142
1.0
143
1.0
 70
  1712
 72
     0
 73
     0
 74
     0
  7

 75
     0
147
1.0
148
0.0
149
0.0
100
AcDbLayout
  1
Model
 70
     1
 71
     0
 10
0.0
 20
0.0
 11
12.0
 21
9.0
 12
0.0
 22
0.0
 32
0.0
 14
0.0
 24
0.0
 34
0.0
 15
0.0
 25
0.0
 35
0.0
146
0.0
 13
0.0
 23
0.0
 33
0.0
 16
1.0
 26
0.0
 36
0.0
 17
0.0
 27
1.0
 37
0.0
 76
     0
330
8096
331
809B
  0
LAYOUT
  5
8095
102
{ACAD_XDICTIONARY
360
82B6
102
}
102
{ACAD_REACTORS
330
8088
102
}
330
8088
100
AcDbPlotSettings
  1

  2
RICOH imagio MP W3600 RPCS
  4

  6

 40
0.0
 41
0.0
 42
0.0
 43
0.0
 44
0.0
 45
0.0
 46
0.0
 47
0.0
 48
0.0
 49
0.0
140
0.0
141
0.0
142
1.0
143
1.0
 70
   688
 72
     0
 73
     0
 74
     5
  7

 75
    16
147
1.0
148
0.0
149
0.0
100
AcDbLayout
  1
レイアウト1
 70
     1
 71
     1
 10
0.0
 20
0.0
 11
12.0
 21
9.0
 12
0.0
 22
0.0
 32
0.0
 14
1.000000000000000E+20
 24
1.000000000000000E+20
 34
1.000000000000000E+20
 15
-1.000000000000000E+20
 25
-1.000000000000000E+20
 35
-1.000000000000000E+20
146
0.0
 13
0.0
 23
0.0
 33
0.0
 16
1.0
 26
0.0
 36
0.0
 17
0.0
 27
1.0
 37
0.0
 76
     0
330
8092
  0
MATERIAL
  5
8040
102
{ACAD_XDICTIONARY
360
8041
102
}
102
{ACAD_REACTORS
330
8037
102
}
330
8037
100
AcDbMaterial
  1
ByBlock
 72
     0
 43
0.0208333333333333
 43
0.0
 43
0.0
 43
0.0
 43
0.0
 43
0.0208333333333333
 43
0.0
 43
0.0
 43
0.0
 43
0.0
 43
1.0
 43
0.0
 43
0.0
 43
0.0
 43
0.0
 43
1.0
 77
     0
 47
0.0208333333333333
 47
0.0
 47
0.0
 47
0.0
 47
0.0
 47
0.0208333333333333
 47
0.0
 47
0.0
 47
0.0
 47
0.0
 47
1.0
 47
0.0
 47
0.0
 47
0.0
 47
0.0
 47
1.0
171
     0
 49
0.0208333333333333
 49
0.0
 49
0.0
 49
0.0
 49
0.0
 49
0.0208333333333333
 49
0.0
 49
0.0
 49
0.0
 49
0.0
 49
1.0
 49
0.0
 49
0.0
 49
0.0
 49
0.0
 49
1.0
175
     0
142
0.0208333333333333
142
0.0
142
0.0
142
0.0
142
0.0
142
0.0208333333333333
142
0.0
142
0.0
142
0.0
142
0.0
142
1.0
142
0.0
142
0.0
142
0.0
142
0.0
142
1.0
179
     0
144
0.0208333333333333
144
0.0
144
0.0
144
0.0
144
0.0
144
0.0208333333333333
144
0.0
144
0.0
144
0.0
144
0.0
144
1.0
144
0.0
144
0.0
144
0.0
144
0.0
144
1.0
147
0.0208333333333333
147
0.0
147
0.0
147
0.0
147
0.0
147
0.0208333333333333
147
0.0
147
0.0
147
0.0
147
0.0
147
1.0
147
0.0
147
0.0
147
0.0
147
0.0
147
1.0
  0
MATERIAL
  5
8038
102
{ACAD_XDICTIONARY
360
8039
102
}
102
{ACAD_REACTORS
330
8037
102
}
330
8037
100
AcDbMaterial
  1
ByLayer
 72
     0
 43
0.0208333333333333
 43
0.0
 43
0.0
 43
0.0
 43
0.0
 43
0.0208333333333333
 43
0.0
 43
0.0
 43
0.0
 43
0.0
 43
1.0
 43
0.0
 43
0.0
 43
0.0
 43
0.0
 43
1.0
 77
     0
 47
0.0208333333333333
 47
0.0
 47
0.0
 47
0.0
 47
0.0
 47
0.0208333333333333
 47
0.0
 47
0.0
 47
0.0
 47
0.0
 47
1.0
 47
0.0
 47
0.0
 47
0.0
 47
0.0
 47
1.0
171
     0
 49
0.0208333333333333
 49
0.0
 49
0.0
 49
0.0
 49
0.0
 49
0.0208333333333333
 49
0.0
 49
0.0
 49
0.0
 49
0.0
 49
1.0
 49
0.0
 49
0.0
 49
0.0
 49
0.0
 49
1.0
175
     0
142
0.0208333333333333
142
0.0
142
0.0
142
0.0
142
0.0
142
0.0208333333333333
142
0.0
142
0.0
142
0.0
142
0.0
142
1.0
142
0.0
142
0.0
142
0.0
142
0.0
142
1.0
179
     0
144
0.0208333333333333
144
0.0
144
0.0
144
0.0
144
0.0
144
0.0208333333333333
144
0.0
144
0.0
144
0.0
144
0.0
144
1.0
144
0.0
144
0.0
144
0.0
144
0.0
144
1.0
147
0.0208333333333333
147
0.0
147
0.0
147
0.0
147
0.0
147
0.0208333333333333
147
0.0
147
0.0
147
0.0
147
0.0
147
1.0
147
0.0
147
0.0
147
0.0
147
0.0
147
1.0
  0
MATERIAL
  5
8048
102
{ACAD_XDICTIONARY
360
8049
102
}
102
{ACAD_REACTORS
330
8037
102
}
330
8037
100
AcDbMaterial
  1
Global
 72
     0
 43
0.0208333333333333
 43
0.0
 43
0.0
 43
0.0
 43
0.0
 43
0.0208333333333333
 43
0.0
 43
0.0
 43
0.0
 43
0.0
 43
1.0
 43
0.0
 43
0.0
 43
0.0
 43
0.0
 43
1.0
 77
     0
 47
0.0208333333333333
 47
0.0
 47
0.0
 47
0.0
 47
0.0
 47
0.0208333333333333
 47
0.0
 47
0.0
 47
0.0
 47
0.0
 47
1.0
 47
0.0
 47
0.0
 47
0.0
 47
0.0
 47
1.0
171
     0
 49
0.0208333333333333
 49
0.0
 49
0.0
 49
0.0
 49
0.0
 49
0.0208333333333333
 49
0.0
 49
0.0
 49
0.0
 49
0.0
 49
1.0
 49
0.0
 49
0.0
 49
0.0
 49
0.0
 49
1.0
175
     0
142
0.0208333333333333
142
0.0
142
0.0
142
0.0
142
0.0
142
0.0208333333333333
142
0.0
142
0.0
142
0.0
142
0.0
142
1.0
142
0.0
142
0.0
142
0.0
142
0.0
142
1.0
179
     0
144
0.0208333333333333
144
0.0
144
0.0
144
0.0
144
0.0
144
0.0208333333333333
144
0.0
144
0.0
144
0.0
144
0.0
144
1.0
144
0.0
144
0.0
144
0.0
144
0.0
144
1.0
147
0.0208333333333333
147
0.0
147
0.0
147
0.0
147
0.0
147
0.0208333333333333
147
0.0
147
0.0
147
0.0
147
0.0
147
1.0
147
0.0
147
0.0
147
0.0
147
0.0
147
1.0
  0
MLEADERSTYLE
  5
808D
102
{ACAD_REACTORS
330
808C
102
}
330
808C
100
AcDbMLeaderStyle
170
     2
171
     1
172
     0
 90
        2
 40
0.0
 41
0.0
173
     1
 91
-1056964608
340
8081
 92
       -2
290
     1
 42
0.09
291
     1
 43
0.36
  3
Standard
 44
0.18
300

342
807C
174
     1
178
     6
175
     1
176
     0
 93
-1056964608
 45
0.18
292
     0
297
     0
 46
0.18
 94
-1056964608
 47
1.0
 49
1.0
140
1.0
293
     1
141
0.0
294
     1
177
     0
142
1.0
295
     0
296
     0
143
0.125
1001
ACAD_MLEADERVER
1070
     2
  0
MLINESTYLE
  5
8086
102
{ACAD_REACTORS
330
8085
102
}
330
8085
100
AcDbMlineStyle
  2
STANDARD
 70
     0
  3

 62
   256
 51
90.0
 52
90.0
 71
     2
 49
0.5
 62
   256
  6
BYLAYER
 49
-0.5
 62
   256
  6
BYLAYER
  0
ACDBPLACEHOLDER
  5
8036
102
{ACAD_REACTORS
330
8035
102
}
330
8035
  0
SCALE
  5
806A
102
{ACAD_REACTORS
330
8069
102
}
330
8069
100
AcDbScale
 70
     0
300
1:1
140
1.0
141
1.0
290
     1
  0
SCALE
  5
806B
102
{ACAD_REACTORS
330
8069
102
}
330
8069
100
AcDbScale
 70
     0
300
1/128" = 1'-0"
140
0.0078125
141
12.0
290
     0
  0
SCALE
  5
806C
102
{ACAD_REACTORS
330
8069
102
}
330
8069
100
AcDbScale
 70
     0
300
1/64" = 1'-0"
140
0.015625
141
12.0
290
     0
  0
SCALE
  5
806D
102
{ACAD_REACTORS
330
8069
102
}
330
8069
100
AcDbScale
 70
     0
300
1/32" = 1'-0"
140
0.03125
141
12.0
290
     0
  0
SCALE
  5
806E
102
{ACAD_REACTORS
330
8069
102
}
330
8069
100
AcDbScale
 70
     0
300
1/16" = 1'-0"
140
0.0625
141
12.0
290
     0
  0
SCALE
  5
806F
102
{ACAD_REACTORS
330
8069
102
}
330
8069
100
AcDbScale
 70
     0
300
3/32" = 1'-0"
140
0.09375
141
12.0
290
     0
  0
SCALE
  5
8070
102
{ACAD_REACTORS
330
8069
102
}
330
8069
100
AcDbScale
 70
     0
300
1/8" = 1'-0"
140
0.125
141
12.0
290
     0
  0
SCALE
  5
8071
102
{ACAD_REACTORS
330
8069
102
}
330
8069
100
AcDbScale
 70
     0
300
3/16" = 1'-0"
140
0.1875
141
12.0
290
     0
  0
SCALE
  5
8072
102
{ACAD_REACTORS
330
8069
102
}
330
8069
100
AcDbScale
 70
     0
300
1/4" = 1'-0"
140
0.25
141
12.0
290
     0
  0
SCALE
  5
8073
102
{ACAD_REACTORS
330
8069
102
}
330
8069
100
AcDbScale
 70
     0
300
3/8" = 1'-0"
140
0.375
141
12.0
290
     0
  0
SCALE
  5
8074
102
{ACAD_REACTORS
330
8069
102
}
330
8069
100
AcDbScale
 70
     0
300
1/2" = 1'-0"
140
0.5
141
12.0
290
     0
  0
SCALE
  5
8075
102
{ACAD_REACTORS
330
8069
102
}
330
8069
100
AcDbScale
 70
     0
300
3/4" = 1'-0"
140
0.75
141
12.0
290
     0
  0
SCALE
  5
8076
102
{ACAD_REACTORS
330
8069
102
}
330
8069
100
AcDbScale
 70
     0
300
1" = 1'-0"
140
1.0
141
12.0
290
     0
  0
SCALE
  5
8077
102
{ACAD_REACTORS
330
8069
102
}
330
8069
100
AcDbScale
 70
     0
300
1-1/2" = 1'-0"
140
1.5
141
12.0
290
     0
  0
SCALE
  5
8078
102
{ACAD_REACTORS
330
8069
102
}
330
8069
100
AcDbScale
 70
     0
300
3" = 1'-0"
140
3.0
141
12.0
290
     0
  0
SCALE
  5
8079
102
{ACAD_REACTORS
330
8069
102
}
330
8069
100
AcDbScale
 70
     0
300
6" = 1'-0"
140
6.0
141
12.0
290
     0
  0
SCALE
  5
807A
102
{ACAD_REACTORS
330
8069
102
}
330
8069
100
AcDbScale
 70
     0
300
1'-0" = 1'-0"
140
12.0
141
12.0
290
     0
  0
ACDBSECTIONVIEWSTYLE
  5
808F
102
{ACAD_XDICTIONARY
360
82B2
102
}
102
{ACAD_REACTORS
330
808E
102
}
330
808E
100
AcDbModelDocViewStyle
 70
     0
  3
Imperial24
290
     0
100
AcDbSectionViewStyle
 70
     0
 71
     0
 90
       78
 71
     1
340
807C
 40
0.24
340
0
340
0
 40
0.24
300
I, O, Q, S, X, Z
 40
0.48
 90
        3
 40
0.18
 90
        1
 71
     2
340
8083
 90
       25
340
8083
 90
       50
 40
0.24
 40
0.0
 40
0.24
 71
     3
340
807C
 40
0.24
 90
        1
 40
0.75
 90
        1
300
%<\AcVar ViewType \f "%tc1">% %<\AcVar ViewSectionStartId>%-%<\AcVar ViewSectionEndId>%\PSCALE %<\AcVar ViewScale \f "%sn">%
 71
     4
300
ANSI31
 40
1.0
 90
        0
290
     0
290
     0
 90
        6
 40
0.0
 40
1.570796326794896
 40
0.2617993877991494
 40
1.308996938995747
 40
-0.2617993877991494
 40
1.832595714594046
  0
TABLESTYLE
  5
808B
102
{ACAD_XDICTIONARY
360
8279
102
}
102
{ACAD_REACTORS
330
808A
102
}
330
808A
100
AcDbTableStyle
  3
Standard
 70
     0
 71
     0
 40
0.06
 41
0.06
280
     0
281
     0
  7
STANDARD
140
0.18
170
     2
 62
     0
 63
     7
283
     0
274
    -2
284
     1
 64
     0
275
    -2
285
     1
 65
     0
276
    -2
286
     1
 66
     0
277
    -2
287
     1
 67
     0
278
    -2
288
     1
 68
     0
279
    -2
289
     1
 69
     0
  7
STANDARD
140
0.25
170
     5
 62
     0
 63
     7
283
     0
274
    -2
284
     1
 64
     0
275
    -2
285
     1
 65
     0
276
    -2
286
     1
 66
     0
277
    -2
287
     1
 67
     0
278
    -2
288
     1
 68
     0
279
    -2
289
     1
 69
     0
  7
STANDARD
140
0.18
170
     5
 62
     0
 63
     7
283
     0
274
    -2
284
     1
 64
     0
275
    -2
285
     1
 65
     0
276
    -2
286
     1
 66
     0
277
    -2
287
     1
 67
     0
278
    -2
288
     1
 68
     0
279
    -2
289
     1
 69
     0
  0
VISUALSTYLE
  5
8056
102
{ACAD_XDICTIONARY
360
828A
102
}
102
{ACAD_REACTORS
330
8050
102
}
330
8050
100
AcDbVisualStyle
  2
2dWireframe
 70
     4
 71
     0
 72
     2
 73
     0
 90
        0
 40
-0.6
 41
-30.0
 62
     5
 63
     7
 74
     1
 91
        4
 64
     7
 65
   257
 75
     1
175
     1
 42
1.0
 92
        0
 66
   257
 43
1.0
 76
     1
 77
     6
 78
     2
 67
     7
 79
     5
170
     0
171
     0
290
     0
174
     0
 93
        1
 44
0.0
173
     0
291
     0
 45
0.0
1001
ACAD
1000
AcDbSavedByObjectVersion
1070
     0
  0
VISUALSTYLE
  5
8055
102
{ACAD_XDICTIONARY
360
8288
102
}
102
{ACAD_REACTORS
330
8050
102
}
330
8050
100
AcDbVisualStyle
  2
Basic
 70
     7
 71
     1
 72
     0
 73
     1
 90
        0
 40
-0.6
 41
-30.0
 62
     5
 63
     7
 74
     0
 91
        4
 64
     7
 65
   257
 75
     1
175
     1
 42
1.0
 92
        8
 66
     7
 43
1.0
 76
     1
 77
     6
 78
     2
 67
     7
 79
     5
170
     0
171
     0
290
     0
174
     0
 93
        1
 44
0.0
173
     0
291
     1
 45
0.0
1001
ACAD
1000
AcDbSavedByObjectVersion
1070
     0
  0
VISUALSTYLE
  5
805C
102
{ACAD_XDICTIONARY
360
8296
102
}
102
{ACAD_REACTORS
330
8050
102
}
330
8050
100
AcDbVisualStyle
  2
Brighten
 70
    12
 71
     2
 72
     2
 73
     0
 90
        0
 40
-0.6
 41
-30.0
 62
     5
 63
     7
 74
     1
 91
        4
 64
     7
 65
   257
 75
     1
175
     1
 42
1.0
 92
        8
 66
     7
 43
1.0
 76
     1
 77
     6
 78
     2
 67
     7
 79
     5
170
     0
171
     0
290
     0
174
     0
 93
        1
 44
50.0
173
     0
291
     1
 45
0.0
1001
ACAD
1000
AcDbSavedByObjectVersion
1070
     0
  0
VISUALSTYLE
  5
8060
102
{ACAD_XDICTIONARY
360
829E
102
}
102
{ACAD_REACTORS
330
8050
102
}
330
8050
100
AcDbVisualStyle
  2
ColorChange
 70
    16
 71
     2
 72
     2
 73
     3
 90
        0
 40
-0.6
 41
-30.0
 62
     5
 63
     8
 74
     1
 91
        4
 64
     7
 65
   257
 75
     1
175
     1
 42
1.0
 92
        8
 66
     8
 43
1.0
 76
     1
 77
     6
 78
     2
 67
     7
 79
     5
170
     0
171
     0
290
     0
174
     0
 93
        1
 44
0.0
173
     0
291
     1
 45
0.0
1001
ACAD
1000
AcDbSavedByObjectVersion
1070
     0
  0
VISUALSTYLE
  5
8059
102
{ACAD_XDICTIONARY
360
8290
102
}
102
{ACAD_REACTORS
330
8050
102
}
330
8050
100
AcDbVisualStyle
  2
Conceptual
 70
     9
 71
     3
 72
     2
 73
     0
 90
        0
 40
-0.6
 41
-30.0
 62
     5
 63
     7
 74
     2
 91
        2
 64
     7
 65
   257
 75
     1
175
     1
 42
179.0
 92
        8
 66
     7
 43
1.0
 76
     1
 77
     6
 78
     2
 67
     7
 79
     3
170
     0
171
     0
290
     0
174
     0
 93
        1
 44
0.0
173
     0
291
     0
 45
0.0
1001
ACAD
1000
AcDbSavedByObjectVersion
1070
     0
  0
VISUALSTYLE
  5
805B
102
{ACAD_XDICTIONARY
360
8294
102
}
102
{ACAD_REACTORS
330
8050
102
}
330
8050
100
AcDbVisualStyle
  2
Dim
 70
    11
 71
     2
 72
     2
 73
     0
 90
        0
 40
-0.6
 41
-30.0
 62
     5
 63
     7
 74
     1
 91
        4
 64
     7
 65
   257
 75
     1
175
     1
 42
1.0
 92
        8
 66
     7
 43
1.0
 76
     1
 77
     6
 78
     2
 67
     7
 79
     5
170
     0
171
     0
290
     0
174
     0
 93
        1
 44
-50.0
173
     0
291
     1
 45
0.0
1001
ACAD
1000
AcDbSavedByObjectVersion
1070
     0
  0
VISUALSTYLE
  5
8068
102
{ACAD_XDICTIONARY
360
82AE
102
}
102
{ACAD_REACTORS
330
8050
102
}
330
8050
100
AcDbVisualStyle
  2
EdgeColorOff
 70
    22
 71
     2
 72
     2
 73
     0
 90
        0
 40
-0.6
 41
-30.0
 62
     5
 63
     7
 74
     1
 91
        4
 64
     7
 65
   257
 75
     1
175
     1
 42
1.0
 92
        8
 66
     7
 43
1.0
 76
     1
 77
     6
 78
     2
 67
     7
 79
     5
170
     0
171
     0
290
     0
174
     0
 93
        1
 44
0.0
173
     0
291
     1
 45
0.0
1001
ACAD
1000
AcDbSavedByObjectVersion
1070
     0
  0
VISUALSTYLE
  5
805F
102
{ACAD_XDICTIONARY
360
829C
102
}
102
{ACAD_REACTORS
330
8050
102
}
330
8050
100
AcDbVisualStyle
  2
Facepattern
 70
    15
 71
     2
 72
     2
 73
     0
 90
        0
 40
-0.6
 41
-30.0
 62
     5
 63
     7
 74
     1
 91
        4
 64
     7
 65
   257
 75
     1
175
     1
 42
1.0
 92
        8
 66
     7
 43
1.0
 76
     1
 77
     6
 78
     2
 67
     7
 79
     5
170
     0
171
     0
290
     0
174
     0
 93
        1
 44
0.0
173
     0
291
     1
 45
0.0
1001
ACAD
1000
AcDbSavedByObjectVersion
1070
     0
  0
VISUALSTYLE
  5
8051
102
{ACAD_XDICTIONARY
360
8280
102
}
102
{ACAD_REACTORS
330
8050
102
}
330
8050
100
AcDbVisualStyle
  2
Flat
 70
     0
 71
     2
 72
     1
 73
     1
 90
        2
 40
-0.6
 41
30.0
 62
     5
 63
     7
 74
     0
 91
        0
 64
     7
 65
   257
 75
     1
175
     1
 42
1.0
 92
        8
 66
     7
 43
1.0
 76
     1
 77
     6
 78
     2
 67
     7
 79
     5
170
     0
171
     0
290
     0
174
     0
 93
       13
 44
0.0
173
     0
291
     1
 45
0.0
1001
ACAD
1000
AcDbSavedByObjectVersion
1070
     0
  0
VISUALSTYLE
  5
8052
102
{ACAD_XDICTIONARY
360
8282
102
}
102
{ACAD_REACTORS
330
8050
102
}
330
8050
100
AcDbVisualStyle
  2
FlatWithEdges
 70
     1
 71
     2
 72
     1
 73
     1
 90
        2
 40
-0.6
 41
30.0
 62
     5
 63
     7
 74
     1
 91
        0
 64
     7
 65
   257
 75
     1
175
     1
 42
1.0
 92
        0
 66
   257
 43
1.0
 76
     1
 77
     6
 78
     2
 67
     7
 79
     5
170
     0
171
     0
290
     0
174
     0
 93
       13
 44
0.0
173
     0
291
     1
 45
0.0
1001
ACAD
1000
AcDbSavedByObjectVersion
1070
     0
  0
VISUALSTYLE
  5
8053
102
{ACAD_XDICTIONARY
360
8284
102
}
102
{ACAD_REACTORS
330
8050
102
}
330
8050
100
AcDbVisualStyle
  2
Gouraud
 70
     2
 71
     2
 72
     2
 73
     1
 90
        2
 40
-0.6
 41
30.0
 62
     5
 63
     7
 74
     0
 91
        0
 64
     7
 65
   257
 75
     1
175
     1
 42
1.0
 92
        0
 66
     7
 43
1.0
 76
     1
 77
     6
 78
     2
 67
     7
 79
     5
170
     0
171
     0
290
     0
174
     0
 93
       13
 44
0.0
173
     0
291
     1
 45
0.0
1001
ACAD
1000
AcDbSavedByObjectVersion
1070
     0
  0
VISUALSTYLE
  5
8054
102
{ACAD_XDICTIONARY
360
8286
102
}
102
{ACAD_REACTORS
330
8050
102
}
330
8050
100
AcDbVisualStyle
  2
GouraudWithEdges
 70
     3
 71
     2
 72
     2
 73
     1
 90
        2
 40
-0.6
 41
30.0
 62
     5
 63
     7
 74
     1
 91
        0
 64
     7
 65
   257
 75
     1
175
     1
 42
1.0
 92
        0
 66
   257
 43
1.0
 76
     1
 77
     6
 78
     2
 67
     7
 79
     5
170
     0
171
     0
290
     0
174
     0
 93
       13
 44
0.0
173
     0
291
     1
 45
0.0
1001
ACAD
1000
AcDbSavedByObjectVersion
1070
     0
  0
VISUALSTYLE
  5
8058
102
{ACAD_XDICTIONARY
360
828E
102
}
102
{ACAD_REACTORS
330
8050
102
}
330
8050
100
AcDbVisualStyle
  2
Hidden
 70
     6
 71
     1
 72
     2
 73
     2
 90
        0
 40
-0.6
 41
-30.0
 62
     5
 63
     7
 74
     2
 91
        2
 64
     7
 65
   257
 75
     2
175
     1
 42
40.0
 92
        0
 66
   257
 43
1.0
 76
     1
 77
     6
 78
     2
 67
     7
 79
     3
170
     0
171
     0
290
     0
174
     0
 93
        1
 44
0.0
173
     0
291
     0
 45
0.0
1001
ACAD
1000
AcDbSavedByObjectVersion
1070
     0
  0
VISUALSTYLE
  5
8066
102
{ACAD_XDICTIONARY
360
82AA
102
}
102
{ACAD_REACTORS
330
8050
102
}
330
8050
100
AcDbVisualStyle
  2
JitterOff
 70
    20
 71
     2
 72
     2
 73
     0
 90
        0
 40
-0.6
 41
-30.0
 62
     5
 63
     7
 74
     1
 91
        4
 64
     7
 65
   257
 75
     1
175
     1
 42
1.0
 92
       10
 66
     7
 43
1.0
 76
     1
 77
     6
 78
     2
 67
     7
 79
     5
170
     0
171
     0
290
     0
174
     0
 93
        1
 44
0.0
173
     0
291
     1
 45
0.0
1001
ACAD
1000
AcDbSavedByObjectVersion
1070
     0
  0
VISUALSTYLE
  5
805E
102
{ACAD_XDICTIONARY
360
829A
102
}
102
{ACAD_REACTORS
330
8050
102
}
330
8050
100
AcDbVisualStyle
  2
Linepattern
 70
    14
 71
     2
 72
     2
 73
     0
 90
        0
 40
-0.6
 41
-30.0
 62
     5
 63
     7
 74
     1
 91
        4
 64
     7
 65
   257
 75
     7
175
     7
 42
1.0
 92
        8
 66
     7
 43
1.0
 76
     1
 77
     6
 78
     2
 67
     7
 79
     5
170
     0
171
     0
290
     0
174
     0
 93
        1
 44
0.0
173
     0
291
     1
 45
0.0
1001
ACAD
1000
AcDbSavedByObjectVersion
1070
     0
  0
VISUALSTYLE
  5
8067
102
{ACAD_XDICTIONARY
360
82AC
102
}
102
{ACAD_REACTORS
330
8050
102
}
330
8050
100
AcDbVisualStyle
  2
OverhangOff
 70
    21
 71
     2
 72
     2
 73
     0
 90
        0
 40
-0.6
 41
-30.0
 62
     5
 63
     7
 74
     1
 91
        4
 64
     7
 65
   257
 75
     1
175
     1
 42
1.0
 92
        9
 66
     7
 43
1.0
 76
     1
 77
     6
 78
     2
 67
     7
 79
     5
170
     0
171
     0
290
     0
174
     0
 93
        1
 44
0.0
173
     0
291
     1
 45
0.0
1001
ACAD
1000
AcDbSavedByObjectVersion
1070
     0
  0
VISUALSTYLE
  5
805A
102
{ACAD_XDICTIONARY
360
8292
102
}
102
{ACAD_REACTORS
330
8050
102
}
330
8050
100
AcDbVisualStyle
  2
Realistic
 70
     8
 71
     2
 72
     3
 73
     0
 90
        2
 40
-0.6
 41
30.0
 62
     5
 63
     7
 74
     0
 91
        0
 64
     7
 65
   257
 75
     1
175
     1
 42
1.0
 92
        8
 66
   257
 43
1.0
 76
     1
 77
     6
 78
     2
 67
     7
 79
     3
170
     0
171
     0
290
     0
174
     0
 93
       13
 44
0.0
173
     0
291
     0
 45
0.0
1001
ACAD
1000
AcDbSavedByObjectVersion
1070
     0
  0
VISUALSTYLE
  5
8065
102
{ACAD_XDICTIONARY
360
82A8
102
}
102
{ACAD_REACTORS
330
8050
102
}
330
8050
100
AcDbVisualStyle
  2
Shaded
 70
    27
 71
     2
 72
     2
 73
     1
 90
        2
 40
-0.6
 41
30.0
 62
     5
 63
     7
 74
     0
 91
        4
 64
     7
 65
   257
 75
     1
175
     1
 42
1.0
 92
        8
 66
   257
 43
1.0
 76
     1
 77
     6
 78
     2
 67
     8
 79
     3
170
     0
171
     0
290
     0
174
     0
 93
        5
 44
0.0
173
     0
291
     0
 45
0.0
1001
ACAD
1000
AcDbSavedByObjectVersion
1070
     0
  0
VISUALSTYLE
  5
8064
102
{ACAD_XDICTIONARY
360
82A6
102
}
102
{ACAD_REACTORS
330
8050
102
}
330
8050
100
AcDbVisualStyle
  2
Shaded with edges
 70
    26
 71
     2
 72
     2
 73
     1
 90
        2
 40
-0.6
 41
30.0
 62
     5
 63
     7
 74
     1
 91
       10
 64
     7
 65
   257
 75
     2
175
     1
 42
1.0
 92
        8
 66
   257
 43
1.0
 76
     1
 77
     6
 78
     2
 67
     7
 79
     3
170
     0
171
     0
290
     0
174
     0
 93
        5
 44
0.0
173
     0
291
     0
 45
0.0
1001
ACAD
1000
AcDbSavedByObjectVersion
1070
     0
  0
VISUALSTYLE
  5
8061
102
{ACAD_XDICTIONARY
360
82A0
102
}
102
{ACAD_REACTORS
330
8050
102
}
330
8050
100
AcDbVisualStyle
  2
Shades of Gray
 70
    23
 71
     2
 72
     2
 73
     3
 90
        0
 40
-0.6
 41
-30.0
 62
     5
 63
     7
 74
     2
 91
        2
 64
     7
 65
     7
 75
     1
175
     1
 42
40.0
 92
        8
 66
     7
 43
1.0
 76
     1
 77
     6
 78
     2
 67
     7
 79
     3
170
     0
171
     0
290
     0
174
     0
 93
        1
 44
0.0
173
     0
291
     0
 45
0.0
1001
ACAD
1000
AcDbSavedByObjectVersion
1070
     0
  0
VISUALSTYLE
  5
8062
102
{ACAD_XDICTIONARY
360
82A2
102
}
102
{ACAD_REACTORS
330
8050
102
}
330
8050
100
AcDbVisualStyle
  2
Sketchy
 70
    24
 71
     1
 72
     2
 73
     2
 90
        0
 40
-0.6
 41
-30.0
 62
     5
 63
     7
 74
     2
 91
        2
 64
     7
 65
     7
 75
     1
175
     1
 42
40.0
 92
       11
 66
     7
 43
1.0
 76
     1
 77
     6
 78
     2
 67
     7
 79
     6
170
     0
171
     0
290
     0
174
     0
 93
        1
 44
0.0
173
     0
291
     0
 45
0.0
1001
ACAD
1000
AcDbSavedByObjectVersion
1070
     0
  0
VISUALSTYLE
  5
805D
102
{ACAD_XDICTIONARY
360
8298
102
}
102
{ACAD_REACTORS
330
8050
102
}
330
8050
100
AcDbVisualStyle
  2
Thicken
 70
    13
 71
     2
 72
     2
 73
     0
 90
        0
 40
-0.6
 41
-30.0
 62
     5
 63
     7
 74
     1
 91
        4
 64
     7
 65
   257
 75
     1
175
     1
 42
1.0
 92
       12
 66
     7
 43
1.0
 76
     1
 77
     6
 78
     2
 67
     7
 79
     5
170
     0
171
     0
290
     0
174
     0
 93
        1
 44
0.0
173
     0
291
     1
 45
0.0
1001
ACAD
1000
AcDbSavedByObjectVersion
1070
     0
  0
VISUALSTYLE
  5
8057
102
{ACAD_XDICTIONARY
360
828C
102
}
102
{ACAD_REACTORS
330
8050
102
}
330
8050
100
AcDbVisualStyle
  2
Wireframe
 70
     5
 71
     0
 72
     2
 73
     0
 90
        0
 40
-0.6
 41
-30.0
 62
     5
 63
     7
 74
     1
 91
        4
 64
     7
 65
   257
 75
     1
175
     1
 42
1.0
 92
        0
 66
   257
 43
1.0
 76
     1
 77
     6
 78
     2
 67
     7
 79
     3
170
     0
171
     0
290
     0
174
     0
 93
        1
 44
0.0
173
     0
291
     0
 45
0.0
1001
ACAD
1000
AcDbSavedByObjectVersion
1070
     0
  0
VISUALSTYLE
  5
8063
102
{ACAD_XDICTIONARY
360
82A4
102
}
102
{ACAD_REACTORS
330
8050
102
}
330
8050
100
AcDbVisualStyle
  2
X-Ray
 70
    25
 71
     2
 72
     2
 73
     1
 90
        1
 40
0.5
 41
-30.0
 62
     5
 63
     7
 74
     1
 91
        0
 64
     7
 65
   257
 75
     1
175
     1
 42
1.0
 92
        8
 66
     7
 43
1.0
 76
     1
 77
     6
 78
     2
 67
     7
 79
     3
170
     0
171
     0
290
     0
174
     0
 93
       13
 44
0.0
173
     0
291
     0
 45
0.0
1001
ACAD
1000
AcDbSavedByObjectVersion
1070
     0
  0
DICTIONARYVAR
  5
8273
102
{ACAD_REACTORS
330
826E
102
}
330
826E
100
DictionaryVariables
280
     0
  1
1:1
  0
DICTIONARYVAR
  5
8270
102
{ACAD_REACTORS
330
826E
102
}
330
826E
100
DictionaryVariables
280
     0
  1
STANDARD
  0
DICTIONARYVAR
  5
826F
102
{ACAD_REACTORS
330
826E
102
}
330
826E
100
DictionaryVariables
280
     0
  1
STANDARD
  0
DICTIONARYVAR
  5
8271
102
{ACAD_REACTORS
330
826E
102
}
330
826E
100
DictionaryVariables
280
     0
  1
Imperial24
  0
DICTIONARYVAR
  5
8272
102
{ACAD_REACTORS
330
826E
102
}
330
826E
100
DictionaryVariables
280
     0
  1
Imperial24
  0
DICTIONARYVAR
  5
8276
102
{ACAD_REACTORS
330
826E
102
}
330
826E
100
DictionaryVariables
280
     0
  1
1
  0
DICTIONARYVAR
  5
8275
102
{ACAD_REACTORS
330
826E
102
}
330
826E
100
DictionaryVariables
280
     0
  1
0
  0
DICTIONARYVAR
  5
8274
102
{ACAD_REACTORS
330
826E
102
}
330
826E
100
DictionaryVariables
280
     0
  1
127
  0
DICTIONARYVAR
  5
8277
102
{ACAD_REACTORS
330
826E
102
}
330
826E
100
DictionaryVariables
280
     0
  1
2
  0
DICTIONARY
  5
82B4
330
8091
100
AcDbDictionary
280
     1
281
     1
  3
ACAD_XREC_ROUNDTRIP
360
82B5
  0
DICTIONARY
  5
82B8
330
8099
100
AcDbDictionary
280
     1
281
     1
  3
ACAD_XREC_ROUNDTRIP
360
82B9
  0
DICTIONARY
  5
82B6
330
8095
100
AcDbDictionary
280
     1
281
     1
  3
ACAD_XREC_ROUNDTRIP
360
82B7
  0
DICTIONARY
  5
8041
330
8040
100
AcDbDictionary
280
     1
281
     1
  3
ACAD_XREC_ROUNDTRIP
360
827E
  3
BUMPTILE
360
8043
  3
DIFFUSETILE
360
8042
  3
OPACITYTILE
360
8046
  3
REFLECTIONTILE
360
8045
  3
REFRACTIONTILE
360
8047
  3
SPECULARTILE
360
8044
  0
DICTIONARY
  5
8039
330
8038
100
AcDbDictionary
280
     1
281
     1
  3
ACAD_XREC_ROUNDTRIP
360
827D
  3
BUMPTILE
360
803B
  3
DIFFUSETILE
360
803A
  3
OPACITYTILE
360
803E
  3
REFLECTIONTILE
360
803D
  3
REFRACTIONTILE
360
803F
  3
SPECULARTILE
360
803C
  0
DICTIONARY
  5
8049
330
8048
100
AcDbDictionary
280
     1
281
     1
  3
ACAD_XREC_ROUNDTRIP
360
827F
  3
BUMPTILE
360
804B
  3
DIFFUSETILE
360
804A
  3
FBXASSET
360
80DD
  3
OPACITYTILE
360
804E
  3
REFLECTIONTILE
360
804D
  3
REFRACTIONTILE
360
804F
  3
SPECULARTILE
360
804C
  0
DICTIONARY
  5
82B2
330
808F
100
AcDbDictionary
280
     1
281
     1
  3
ACAD_XREC_ROUNDTRIP
360
82B3
  0
DICTIONARY
  5
8279
330
808B
100
AcDbDictionary
280
     1
281
     1
  3
ACAD_ROUNDTRIP_2008_TABLESTYLE_CELLSTYLEMAP
360
827A
  3
ACAD_XREC_ROUNDTRIP
360
82B0
  0
DICTIONARY
  5
828A
330
8056
100
AcDbDictionary
280
     1
281
     1
  3
ACAD_XREC_ROUNDTRIP
360
828B
  0
DICTIONARY
  5
8288
330
8055
100
AcDbDictionary
280
     1
281
     1
  3
ACAD_XREC_ROUNDTRIP
360
8289
  0
DICTIONARY
  5
8296
330
805C
100
AcDbDictionary
280
     1
281
     1
  3
ACAD_XREC_ROUNDTRIP
360
8297
  0
DICTIONARY
  5
829E
330
8060
100
AcDbDictionary
280
     1
281
     1
  3
ACAD_XREC_ROUNDTRIP
360
829F
  0
DICTIONARY
  5
8290
330
8059
100
AcDbDictionary
280
     1
281
     1
  3
ACAD_XREC_ROUNDTRIP
360
8291
  0
DICTIONARY
  5
8294
330
805B
100
AcDbDictionary
280
     1
281
     1
  3
ACAD_XREC_ROUNDTRIP
360
8295
  0
DICTIONARY
  5
82AE
330
8068
100
AcDbDictionary
280
     1
281
     1
  3
ACAD_XREC_ROUNDTRIP
360
82AF
  0
DICTIONARY
  5
829C
330
805F
100
AcDbDictionary
280
     1
281
     1
  3
ACAD_XREC_ROUNDTRIP
360
829D
  0
DICTIONARY
  5
8280
330
8051
100
AcDbDictionary
280
     1
281
     1
  3
ACAD_XREC_ROUNDTRIP
360
8281
  0
DICTIONARY
  5
8282
330
8052
100
AcDbDictionary
280
     1
281
     1
  3
ACAD_XREC_ROUNDTRIP
360
8283
  0
DICTIONARY
  5
8284
330
8053
100
AcDbDictionary
280
     1
281
     1
  3
ACAD_XREC_ROUNDTRIP
360
8285
  0
DICTIONARY
  5
8286
330
8054
100
AcDbDictionary
280
     1
281
     1
  3
ACAD_XREC_ROUNDTRIP
360
8287
  0
DICTIONARY
  5
828E
330
8058
100
AcDbDictionary
280
     1
281
     1
  3
ACAD_XREC_ROUNDTRIP
360
828F
  0
DICTIONARY
  5
82AA
330
8066
100
AcDbDictionary
280
     1
281
     1
  3
ACAD_XREC_ROUNDTRIP
360
82AB
  0
DICTIONARY
  5
829A
330
805E
100
AcDbDictionary
280
     1
281
     1
  3
ACAD_XREC_ROUNDTRIP
360
829B
  0
DICTIONARY
  5
82AC
330
8067
100
AcDbDictionary
280
     1
281
     1
  3
ACAD_XREC_ROUNDTRIP
360
82AD
  0
DICTIONARY
  5
8292
330
805A
100
AcDbDictionary
280
     1
281
     1
  3
ACAD_XREC_ROUNDTRIP
360
8293
  0
DICTIONARY
  5
82A8
330
8065
100
AcDbDictionary
280
     1
281
     1
  3
ACAD_XREC_ROUNDTRIP
360
82A9
  0
DICTIONARY
  5
82A6
330
8064
100
AcDbDictionary
280
     1
281
     1
  3
ACAD_XREC_ROUNDTRIP
360
82A7
  0
DICTIONARY
  5
82A0
330
8061
100
AcDbDictionary
280
     1
281
     1
  3
ACAD_XREC_ROUNDTRIP
360
82A1
  0
DICTIONARY
  5
82A2
330
8062
100
AcDbDictionary
280
     1
281
     1
  3
ACAD_XREC_ROUNDTRIP
360
82A3
  0
DICTIONARY
  5
8298
330
805D
100
AcDbDictionary
280
     1
281
     1
  3
ACAD_XREC_ROUNDTRIP
360
8299
  0
DICTIONARY
  5
828C
330
8057
100
AcDbDictionary
280
     1
281
     1
  3
ACAD_XREC_ROUNDTRIP
360
828D
  0
DICTIONARY
  5
82A4
330
8063
100
AcDbDictionary
280
     1
281
     1
  3
ACAD_XREC_ROUNDTRIP
360
82A5
  0
XRECORD
  5
82B5
102
{ACAD_REACTORS
330
82B4
102
}
330
82B4
100
AcDbXrecord
280
     1
102
DISPLAYNAME
  1
Imperial24
102
FLAGS
 90
        0
  0
XRECORD
  5
82B9
102
{ACAD_REACTORS
330
82B8
102
}
330
82B8
100
AcDbXrecord
280
     1
102
SHADEPLOT
 70
     0
102
SHADEPLOTRESLEVEL
 70
     2
102
SHADEPLOTCUSTOMDPI
 70
   300
  0
XRECORD
  5
82B7
102
{ACAD_REACTORS
330
82B6
102
}
330
82B6
100
AcDbXrecord
280
     1
102
SHADEPLOT
 70
     0
102
SHADEPLOTRESLEVEL
 70
     2
102
SHADEPLOTCUSTOMDPI
 70
   300
  0
XRECORD
  5
827E
102
{ACAD_REACTORS
330
8041
102
}
330
8041
100
AcDbXrecord
280
     1
102
MATERIAL
148
0.0
149
0.0
149
0.0
 93
        0
 94
      127
282
     0
 72
     0
 77
     0
171
     0
175
     0
179
     0
273
     0
  0
XRECORD
  5
8043
102
{ACAD_REACTORS
330
8041
102
}
330
8041
100
AcDbXrecord
280
     1
270
     1
271
     1
  0
XRECORD
  5
8042
102
{ACAD_REACTORS
330
8041
102
}
330
8041
100
AcDbXrecord
280
     1
270
     1
271
     1
  0
XRECORD
  5
8046
102
{ACAD_REACTORS
330
8041
102
}
330
8041
100
AcDbXrecord
280
     1
270
     1
271
     1
  0
XRECORD
  5
8045
102
{ACAD_REACTORS
330
8041
102
}
330
8041
100
AcDbXrecord
280
     1
270
     1
271
     1
  0
XRECORD
  5
8047
102
{ACAD_REACTORS
330
8041
102
}
330
8041
100
AcDbXrecord
280
     1
270
     1
271
     1
  0
XRECORD
  5
8044
102
{ACAD_REACTORS
330
8041
102
}
330
8041
100
AcDbXrecord
280
     1
270
     1
271
     1
  0
XRECORD
  5
827D
102
{ACAD_REACTORS
330
8039
102
}
330
8039
100
AcDbXrecord
280
     1
102
MATERIAL
148
0.0
149
0.0
149
0.0
 93
        0
 94
      127
282
     0
 72
     0
 77
     0
171
     0
175
     0
179
     0
273
     0
  0
XRECORD
  5
803B
102
{ACAD_REACTORS
330
8039
102
}
330
8039
100
AcDbXrecord
280
     1
270
     1
271
     1
  0
XRECORD
  5
803A
102
{ACAD_REACTORS
330
8039
102
}
330
8039
100
AcDbXrecord
280
     1
270
     1
271
     1
  0
XRECORD
  5
803E
102
{ACAD_REACTORS
330
8039
102
}
330
8039
100
AcDbXrecord
280
     1
270
     1
271
     1
  0
XRECORD
  5
803D
102
{ACAD_REACTORS
330
8039
102
}
330
8039
100
AcDbXrecord
280
     1
270
     1
271
     1
  0
XRECORD
  5
803F
102
{ACAD_REACTORS
330
8039
102
}
330
8039
100
AcDbXrecord
280
     1
270
     1
271
     1
  0
XRECORD
  5
803C
102
{ACAD_REACTORS
330
8039
102
}
330
8039
100
AcDbXrecord
280
     1
270
     1
271
     1
  0
XRECORD
  5
827F
102
{ACAD_REACTORS
330
8049
102
}
330
8049
100
AcDbXrecord
280
     1
102
MATERIAL
148
0.0
149
0.0
149
0.0
 93
        0
 94
      127
282
     0
 72
     0
 77
     0
171
     0
175
     0
179
     0
273
     0
  0
XRECORD
  5
804B
102
{ACAD_REACTORS
330
8049
102
}
330
8049
100
AcDbXrecord
280
     1
270
     1
271
     1
  0
XRECORD
  5
804A
102
{ACAD_REACTORS
330
8049
102
}
330
8049
100
AcDbXrecord
280
     1
270
     1
271
     1
  0
XRECORD
  5
80DD
102
{ACAD_REACTORS
330
8049
102
}
330
8049
100
AcDbXrecord
280
     1
 70
     1
 90
1959938040
 71
     1
  1
BC50A92F-FF2A-45CC-9BA6-1DAE77416317
311
504B0304140006080800E67A6D57DE24DD97D7000000200100004F00000035454436393733372D443638382D343145322D383530442D4237383943453945303932432F4173736574446174612F446566696E6974696F6E4974657261746F7250726F706572746965732E62696EEB606060F80F0540260323103700495E20ED
311
9E9A975A94991C9C9C919A9BC8C00612C9C94F4ACC6147C831019920AE4B6A5A62694E0948976F6671726A4E4E625E6A7E69B12042A9426E6209D0B8C41C3D90264E20860914834C48875806B2DF0F88414E02D189290556F689C5C5A925B6FA694915FA864E9646A66606C6BA46CE6696BA262EC64EBA8E8626AEBACE16AE
311
E6C6CE2E66CEC686A6FA45A9C5F9A545C9A9C5FA46FA06F15093E30BF2D283221DEB0C19188280D6B330BCDF77326CA76B4E3877851ED02297F4E6989D063337019948601F00504B0304140006080800E67A6D57B2F54D1921010000300200004500000035454436393733372D443638382D343145322D383530442D423738
311
3943453945303932432F4173736574446174612F496E7374616E636550726F706572746965732E62696E6D513B4EC340147C094844FC940350418A502CCAFA2B57FE1BD1A04869692CDB222EE2C244D0BAA4E33CB49C2107E0086EA8CDAC6D6C22E749F33EB333BBDADD7722AADA404B23A040BE40BD4FB2244FA355B44E36
311
E10C84E3AA0BDB9002160492CD14D57599E1D81AE39EEDEBBAC23599EB27BD515864AE78BEA41A4C551499299AC49913381EE3BABC7035D7356CDF80AC3E976E9F3EBE7EE63B13750CAE00FEE6BA62469466A3269A5A34ADA93ACDACBE3FD8C1D844D71C9481EC04E511A60268ADDF6D3D07350CF18EFD4AB7C940187F5A03
311
6E8F185AC5D6F37F9AD23CC6247EEB1258BD85DB68CD9C3CCCE2246E56441671059CE2123713347770E04AC5F51986AAA2976D9E66CF44CBC7A597BCA651F2E0D1C4221A93508B4FD8B36F46BF504B0304140006080800E67A6D5728BB58AF800100009E0500003D00000035454436393733372D443638382D343145322D38
311
3530442D4237383943453945303932432F536368656D61732F436F6D6D6F6E536368656D612E786D6CBD544D4FC23018BEFB2B96DE15493C78601010A34B880709DEDFB52FD0D8B54BD70DF6EFED3AC0B12E6442E2716BFB3CEFF3D18E26FB440405EA8C2B1992E1C323095052C5B8DC842437EBFB673219DF8DA659866649
311
B798C078B48AE6410122242F2A4994AC7F93815DF85C049C8564CA0A901499DD886B2EB9B1E02448F358701A9235880C49A0119892A20C89D1B9FD768815CAD268CB5E0355B40B1E47F3E37A2020464BED06AA57CE8FCC20C3C3446D46761A2632A8C1283D07031EFF2AE7CCB1BFEEE916E406DFAC8E36FFD99A9D60A69440
311
90EEDC3B670C7DC13DE86B6B2C5C240D6E503BB85ACD579D513F1B9F9A69DC9CC22AFA80C426D40AF0B21EA168559156B6276F0F726A6BFF04DCD513A87A62CAD41FB24FCB2858B3952E3D852084DA25B9303C15687973CC8E8AAE11DF2836C38C6A9E765E8C1BA1BFB1DC29CDFE518C8B5A7655A4ED7E77291ABEB80DBD82
311
EC866ADE1B8D05AF9E35CF09D7A061F38A986D9EC412B8F0F65E5D81534D9B231D1E5A8FE577A241F3A5FD01504B0304140006080800E67A6D572CCEBD668A040000E01200003E00000035454436393733372D443638382D343145322D383530442D4237383943453945303932432F536368656D61732F47656E6572696353
311
6368656D612E786D6CD5586D6FDB380CFE7EBF42F0F7A649B70E1B90744856B4970F450FCD7A5F05459613EDE4174872DADCAF3F522F8ED3B88D2F1D06AC4050DBA2493EE4438AF2F8EB73AEC8466823CB62928C06C384888297A92C5693A4B6D9D9E7E4EBD51FE3A931C22EF85AE4EC6AFC38BF261BA626C9AD288496DC3F
311
4FCEAFC63366845F7A10452AF41DB320C0D44EC26EAB20918735565582695670811A6A49643A49A6E9069FA4604A64B29016DC4B48552F95E4932463CA888468C1D2B250DB4962750DF7CE273069CE8363F1FF4EDB00E0A21999574AE4A2B00C353B93F3BD4777B8A61ED8F604ABFEDD79CE56A2B7BDFBDBC50996E0ADDE16
311
FED26223C5D30956C29BDF4A55EA686E5E58B112DA45CE67F76F4FA27EFA3FB672FD7372FC388FAECDCA5209E693CAD167BADCD272F943701B3812F8A3D852008B1D2E32DB927B2F833C6EA95879925356D254582695095A3CE982924720BE5774A3CB9CDCDB350427D2DF20DA1B5532EBE2D5D6288D75D4F7E4FD9890A0EF
311
8E3D93EBB8F8BA4758158EF6FB90A6F9520281C93DE7AAC6D24607DA296BB96018123F821A7D6A5C5884050C475DA4865442732C8B95684A50165CBB3A32F25F783A4A480ED59AD7F924B968AEA50131F46303223E6A397B0E52976030DC1DCA81D7E7C1EDEEA42C19FF27635C505E2BD5198A599020DF50A2330FCB3AAF28
311
CB0124108429553EF1B228802E2265D8F7CC2401042B155BCC7070F1E5C55F13B4A9577362CCCE46C32174E010C3C378C44841A4BDA00FE3A12006CE11EE6AEC59894D3526DDE1CD59D503ECC324017F8061B7F162162FA62EDD81AE3308617770796DCBDAD2B2625C5AE8A63DE20B2C8AA5E95E76E5730823955956E33E70
311
5425A2187C185D36489A1B44D3DCEC2172F6BA2105C3546287A7194B2331768EBBE64F6E70A9930ABE0ADEA89E9E2C38523B810287AD67A54A039C1606EAFE68F8304610BB9093DBDDABC0B2AE4E290DCDA15376D7E39F72B556F0B32EAB5D3D498B4C41ABADEC3A1434C422D87E8025A84BDCB2B1417ED750FAE4DA897686
311
3974C577C7F902D3F156AD354DEA3540DE6BEAE2BEA52F7A2EB4CA43802ECE5BF2CE2EDC9347179FFB023CE412E60BE16DA0BE29B374988A553F561DC04615DD35F7D2C8979F60E5955CE93DF29DED8AFA1EE6642D53418086C03C47C377910F75F7E8F5EF665F70B60FFB22AEDF897D119E8423C773E819A3C1E55E550599
311
EE6EDCA34D0C86FD72057DF2CD46F16A470682471C164E4346D5306BF12D7D12D82CFF673D41636C347443FEB51B50D72EA171A8E4A58623A4A16E0FA2B8B10A0D23268D87C33896EE8FB73305A74BF224EDBADFA0BD674AB354D63DB7BD5D83426761C077DE767728235446A552754EB93B755891C3C4CC6CADE37CF0E912
311
A7BB38DBA010F9DE1282EDF470CA69A9CDA482E334C4A6EA4107987980B17E72F31730EBF88BBD39E7C629F56797A3C0009C2C5AE7951D9A05A02773440F02EEB4DE396A3B6A570C72CCFBCD823B0B8ED3F1D5CEDDFED772FA70236C83FB7D86C385D570B87107535572A60A96035F8F7C6A7192F13007246BBE0521855E6A
311
C46F3E27689CEE7D186A6FD679D98CDCAD13333E04EBE7ED6F55FF01504B0304140006080800E67A6D576180134D5F0100006B0300004500000035454436393733372D443638382D343145322D383530442D4237383943453945303932432F536368656D61732F52656E6465724D6174657269616C536368656D612E786D6C
311
A5934D6FC2300C86EFFB1551EEE343DBA41D1A103009551ADAD40EAE28A4A68D9426284961FCFBE5A340113B2071746D3F765EBF4DC6BFB5407BD0862B49F0B037C0082453059725C18DDD3EBFE3F1E829991803366715D474942CD30FB4A782E00C64017A412D684E454CE3FE28995203B162A6EA5AC94B66997D225E109C
311
D63B0135484BAD1B3C07E9080CA35DB3119C11BCA5C200461A68A1A438126C75E3E230D40FF81FB3F03C91D1E3A3A0AF79FE28E25BC39EC3E17E4C2A2D94A0833A51AF55BCCA7D88572FCBAC529C4140B020FC3AAFA886621DCED7EAD7664CC86024E806DC297DA1BB393E4156543457A4537DB8817349A70F8ACBF09B3EEE
311
2CB2F33E91B65D60786E4E3B39B77E3FEEEF5650424525DA657FB8B46BE6BF064646F0A0F7327C0BC1BC1B4CBBC1C419FA3CCB23500007872A2580CAAE5461865565294E4EDB4617B62FF579DF9A5B2F54E834076A597573A020912FED777F9B3F504B0304140006080800E67A6D5762B54291510000005700000047000000
311
35454436393733372D443638382D343145322D383530442D4237383943453945303932432F4173736574446174612F41737365745461626C654F66436F6E74656E74732E62696E536160607072363570B43472D375733372D435317576D6B5747234D33574717435373731343336341702AACB4D2C492DCA4CCC492C28484D
311
2C4ACC4B4E050A82012F90744FCD03CA26072767A4E6260200504B0304140006080800E67A6D57F865834058000000680000004500000035454436393733372D443638382D343145322D383530442D4237383943453945303932432F4173736574446174612F53747265616D56657273696F6E5461626C652E696E66558CBD
311
0A80300C06F73E4B117FB66E451741D041DC5BF98480A492E4FDD18EAEC7DD4555D89EF28DF51A0B1BD8340C4DE7DD848B988C0ACF0649566493F2408C508DDEBB99D5129FF8F1AF8CF5B9503E20FAE5A16B5AF702504B0304140006080800E67A6D57ADFD7C18340100009A0400003600000035454436393733372D443638
311
382D343145322D383530442D4237383943453945303932432F4173736574446174612F636E782E786D6CCD94316FC3201085FF8AC56E08B12A551126AADA25532B35EAD0ED82CF090A060BCE55FBEF0B898756A93A65C87ABC3B1E9F78A7D69F83AB3E30261B7CCB245FB00ABD099DF5FB964DD4D7F7AC5A6B1543A01F3256
311
7918B065A5CCB4DAC7308D73A9C31E2657AACEFAE35C7C4809690B3B87CFFD63F0849E12AB8C83945A96CC0107E03051E8301D7907045CF288294CD1609E4476C079928908841DD3CBC5B2A9A5AC65B39577AB65B392CDBB1245A9D52E0437EB6DBE2C86B132E75B995E28518EB59AA29D35E52D4CFFE591EFAC57222BB54A
311
143393B983BEC6DC01E3E8AC01CAE8443084546711C2A0C459AC95280C7E9178C2DE7A5B5A36D91850882FD91E46B2787344FEF37A7D321B9F08BCC1DBE571E9F0FA145E4F3FE8ED1CC853626E2D27970EB9F5FD1552224E6B2487A66C15FD0D504B0304140006080800E67A6D57323D4AFC080100004F0300003400000035
311
454436393733372D443638382D343145322D383530442D4237383943453945303932432F536368656D61732F636E782E786D6CCD93BD4E042114855F85D0CF0F3331311B862DB6B0B2512B3B84BB2B59E04E2E8CD1B717C62976133B2DB683C31772CEE122F79FC1B30FA0E4304E5CB43D67100D5A174F135FF2B1B9E76CAF
311
2421E60B8CB3A8034CBCCA5CC913E1326F9285A35E7C55BD8BE74D3C6008189FCD3B04CD99F13AA589A775DBEA25A385746EADCEBA152D41C2850C941BB20BB0DD60087406CBD5D00F63234423C61771B71BC69D185F65574925DF10FDC6BB9881706606CB22163BBDECEAB1920BB98DA919B8BAF4D696366457082553A6D2
311
C146E6AFB9907A9EBD333A97AABA15FC6194EC6AD4ABC00F10819CB9CDC457E6FE2DF213440BF4585E899CF6B799FC378F7F2BA05B67BF8C40FD0AEA1B504B0304140006080800E67A6D57410A3D5871000000A40000002C00000035454436393733372D443638382D343145322D383530442D423738394345394530393243
311
2F636E782E786D6C55CC4D0E82301086E1AB34B31774E7A22D31F1069E60020334B633A63FC6E34B0909B07DDE2F9FEE7EC1AB2FC5E4840DDC9A2B28E25E06C7938192C7CB1D54677514C9871928C640062A83D55394F2D968A0118BAFEA1DBF377CA444F98919176EAB9FEAAB9F2960DA5BBB1E2ED3FA6FFF504B03041400
311
06080800E67A6D570F347CB67E000000A300000007000000636E782E786D6C4D8CD10AC22018465F45FE7BCBAD3615D441D30719CD0DC969D88C1E3F8D5D74F5C1E13B470C9FCDA3B74D2F178384E64400D9708FB30BAB84BC2F98011A944831EE7F374061DAAC848A418935C5FC3CD06C9729FB4ABD0B8F037646F79C5E28
311
D63D63F8DA9816B38E687CA38C8F861BC2DBB118E7AA94F9F5CAD6BCFA02504B0304140006080800E67A6D5716E99B5DA600000035010000130000005B436F6E74656E745F54797065735D2E786D6C9590410E82301045AFD2740F4517C6180A0BF5065E60AC53688469D30E066F6F91AD9AB89CF9FFFD3F99BA9DC7413C30
311
26E749CB4D59498164FCCD51A7E5C4B6D84BD136F5E5193089ECA5A465CF1C0E4A25D3E308A9F401292BD6C711388FB15301CC1D3A54DBAADA29E38991B8E0254336F5092D4C038BF39CD76B6FC6A538AEBEA54A4B08617006389FA516557DE4AE8E7E70DE30729138228C5F021CD93F02D4FB0DCD0B504B03041400060808
311
00E67A6D573DEE336E64000000790000001B0000006175746F6465736B2D64657369676E2D7061636B6167652E786D6C35CBC10E83200C00D05F21DCA56CA76D41FC96062B120735B69A7DBE268BB7777961F8D5AF396893C2ADB70FE7ADA196782C2DF776D7A97B5933C430F15651E5469C55D70F80A4992A3ADC954792C5
311
25AE70A1E4D6AD9816CC044FEFDF01FE3FDE907802504B0304140006080800E67A6D57DD9B8588F8000000960100003700000035454436393733372D443638382D343145322D383530442D4237383943453945303932432F4173736574446174612F636F72652E786D6C8550CB6EC32010FC156BEFD860EA3A893091ABC45F
311
D0536F0888831283C5A3EAE71712576A4F3DED6A76667677D8F16BB9579FDA07E3EC00A4C650692B9D32761E20C50BDA4175E4CC3B177FD1A0B262D1031418389BBD4BEB064967A3B605B54EE90D1421E80895BCE7668020AF7A11B5483133C2AD5E85BC8959D7A47EF2384BC9A84D6A54763317A33DF07E8F49D7D3096142
311
087AC1A7098DE7738FA6768729EDF76FDDF8CA9A22E62C9AE567BBF45A44AD80B7B8A5282B097D27DDA1A507423F5853989C85E8F3CFDBD2F21DF0B15C7D1251B0E639FDE39A56F5BF6B3236D276737D2A0270928F7C0C386B4A4AB93C22CCB524CABF01504B0304140006080800E67A6D57EF4D8F04F60000009401000035
311
00000035454436393733372D443638382D343145322D383530442D4237383943453945303932432F536368656D61732F636F72652E786D6C8550CB6EC32010FC156BEFD860EA3A893051AAC63FD09E7A43401C94182C1E553FBFE0B8527BEA6957B333B3BBC38E5FF3BDFAD43E1867072035864A5BE994B1D300295ED00EAA
311
2367DEB9F88B069515B31EA0C0C0D9E45D5A36483A1BB52DA8754A6FA0084147A8E43D37030479D5B3A8458A99116EF522E44D4CBA26F583C7594A466D52A3B29BB918ED81F77B4CBA9E8E081342D0137E1DD1E97CEED1D8EE30A5FDFEA53B3DB3A688398B66FED92EBD16512BE02D6E29CA4A42DF497768E981D00FD61426
311
6721FAFCF3B6B47C07FC6DBD33B0E631FBE39916F5BF673236D276F37C280270924F5C079C3525A35CD600732D79F26F504B0304140006080800E67A6D57172EC0CA01010000D70100002D00000035454436393733372D443638382D343145322D383530442D4237383943453945303932432F636F72652E786D6C95914D6E
311
C3201085AF82D8631BBB4EEC0813A9B16FD0557714262E4A0C163F558F5FA85DB5DDB52BD0E37B33BC19767E5FEEE80D9CD7D60C9816154660A455DACC038EE14A3A8CCE9C396BC30F0C2323161870963167B3B371DD25694D0093556315ECA2F01E0246F29E2E03F6F2151651881812E16FC52AE44DCC50D062E3380B7AF9
311
B24A072280C2BCAEEA86504A68F344DB53DD9C68F3CCCA4C7216B5094DBD3783E50514B26B4891306F59B9BD262A6AB5335AA53FEAAB069788693CF4C7E648C643D791073AD5A46BAB913C1EBBFE32F553D5D79754249939F3C1A5C9EC45F20CFE6ADF8CBF92C555FD33D9E6F098D3EF50651E3367E5E70ED29957C23F0050
311
4B0304140006080800E67A6D57EA8FEF3806010000B201000008000000636F72652E786D6C8D50CB6EC32010FC15B477DB60EA3A893051AAC65FD0536FD41007C506CB40D4FE7D21A6527BEB69D13C768665C7CF794277B53A6D4D07A4C4809419ACD466EC20F84BB10374E46CB5D6FF92013262561D2418381B571B960C0D
311
D67865126AAC541914CE290F6898E2A303375CD52C4A117C54B85BB988E12646559272D371E6F5FC631D5625BC92C06B5CD3829082D037D21C6A7A20F49D5549C959085AE6282D63BABE68B5026FF798342DED0B4CA2F109BFF6C5E97C6E8BBEDE614ADBFD4B737A66553273E6FC1AFF9C97C49E1E39714FB9ACDA28CE3EAC
311
9DB2209692C89AE90B38665522FE940E8BFC47696D3CADF3C2CDE1809358E841C4E074C1381EE78D335D9B7F03504B01021400140006080800E67A6D57DE24DD97D7000000200100004F000000000000000000000000000000000035454436393733372D443638382D343145322D383530442D423738394345394530393243
311
2F4173736574446174612F446566696E6974696F6E4974657261746F7250726F706572746965732E62696E504B01021400140006080800E67A6D57B2F54D19210100003002000045000000000000000000000000004401000035454436393733372D443638382D343145322D383530442D4237383943453945303932432F41
311
73736574446174612F496E7374616E636550726F706572746965732E62696E504B01021400140006080800E67A6D5728BB58AF800100009E0500003D00000000000000000000000000C802000035454436393733372D443638382D343145322D383530442D4237383943453945303932432F536368656D61732F436F6D6D6F
311
6E536368656D612E786D6C504B01021400140006080800E67A6D572CCEBD668A040000E01200003E00000000000000000000000000A304000035454436393733372D443638382D343145322D383530442D4237383943453945303932432F536368656D61732F47656E65726963536368656D612E786D6C504B010214001400
311
06080800E67A6D576180134D5F0100006B03000045000000000000000000000000008909000035454436393733372D443638382D343145322D383530442D4237383943453945303932432F536368656D61732F52656E6465724D6174657269616C536368656D612E786D6C504B01021400140006080800E67A6D5762B54291
311
510000005700000047000000000000000000000000004B0B000035454436393733372D443638382D343145322D383530442D4237383943453945303932432F4173736574446174612F41737365745461626C654F66436F6E74656E74732E62696E504B01021400140006080800E67A6D57F865834058000000680000004500
311
000000000000000000000000010C000035454436393733372D443638382D343145322D383530442D4237383943453945303932432F4173736574446174612F53747265616D56657273696F6E5461626C652E696E66504B01021400140006080800E67A6D57ADFD7C18340100009A0400003600000000000000000000000000
311
BC0C000035454436393733372D443638382D343145322D383530442D4237383943453945303932432F4173736574446174612F636E782E786D6C504B01021400140006080800E67A6D57323D4AFC080100004F0300003400000000000000000000000000440E000035454436393733372D443638382D343145322D38353044
311
2D4237383943453945303932432F536368656D61732F636E782E786D6C504B01021400140006080800E67A6D57410A3D5871000000A40000002C000000000000000000000000009E0F000035454436393733372D443638382D343145322D383530442D4237383943453945303932432F636E782E786D6C504B010214001400
311
06080800E67A6D570F347CB67E000000A3000000070000000000000000000000000059100000636E782E786D6C504B01021400140006080800E67A6D5716E99B5DA6000000350100001300000000000000000000000000FC1000005B436F6E74656E745F54797065735D2E786D6C504B01021400140006080800E67A6D573D
311
EE336E64000000790000001B00000000000000000000000000D31100006175746F6465736B2D64657369676E2D7061636B6167652E786D6C504B01021400140006080800E67A6D57DD9B8588F80000009601000037000000000000000000000000007012000035454436393733372D443638382D343145322D383530442D42
311
37383943453945303932432F4173736574446174612F636F72652E786D6C504B01021400140006080800E67A6D57EF4D8F04F6000000940100003500000000000000000000000000BD13000035454436393733372D443638382D343145322D383530442D4237383943453945303932432F536368656D61732F636F72652E78
311
6D6C504B01021400140006080800E67A6D57172EC0CA01010000D70100002D000000000000000000000000000615000035454436393733372D443638382D343145322D383530442D4237383943453945303932432F636F72652E786D6C504B01021400140006080800E67A6D57EA8FEF3806010000B2010000080000000000
311
000000000000000052160000636F72652E786D6C504B050600000000110011005A0600007E1700000000
310
504B0304140006080800E67A6D57000000000000000000000000370000006662782F32324431433839342D333138432D344243452D423138332D4330444337303846423832362F617474726962757465732E62696E504B0304140006080800E67A6D57000000000000000000000000350000006662782F3232443143383934
310
2D333138432D344243452D423138332D4330444337303846423832362F76657274696365732E62696E504B0304140006080800E67A6D57F270F1330600000004000000360000006662782F32324431433839342D333138432D344243452D423138332D4330444337303846423832362F747269616E676C65732E62696E6366
310
60600000504B0304140006080800E67A6D5751464CB48900000043010000360000006662782F32324431433839342D333138432D344243452D423138332D4330444337303846423832362F6469726563746F72792E786D6C9D8F310EC2300C45AF127987122606C71DD918B841D4B851A43646695A717C52A85029031293A5
310
A76FBF6FACEF7DA7264E43906840EF0FA03836E242F406C6DCEE4EA06AC22492573150D1F66C60C640E8938CB705396EEDD86DE9B5042FE27813D640EA63BB001C722AF6E55CB61E4863F58284D5D3F53DD715CE1C3985E63FD7F1B7EBDD617E9F1E504B0304140006080800E67A6D57EB418BD038070000201C0000340000
310
006662782F32324431433839342D333138432D344243452D423138332D4330444337303846423832362F6F626A656374732E786D6CDD59DB6EDB3810FD1542FBB2FBA09B6F890BC5852F49611469831A5DEC9B40CBB4C38D6E20A5C4D9AFDF2145CA922CDB4AB6058A4D80C461A8E1CC999933C391F7711F85E899304E93F8
310
C6702DC740240E920D8D7737469E6DCD6B037D9C208F254956D967A01847E4C610CBC6C4DBB1244FD5D2866C711E3657EF667F211E909818280831E737060F1E49842D9C67C986F0276B83336CEDB67BCBB58A8D75B13B86D3C7C651296624CE4055588F418AD2C0ADFF0926D913CF161B6ADB7ADDB6F5CF6CB3A5E1754569
310
CC331C07475A35E4F4BA69D577078BDBDE706C0E0783BE3918F55C7376375B98EE55DF998FE6F3F1F4766CA089B74E92B074404AE20D78F1D598B89E2DFE539AAF5068D33B48E298040ACDB60D1BA2E452C29B98D48075A569158714B65616FA1D8D3FB1AD132835956A686BE3F4EF6AF426EBBF0104DE254A192722CA79C6
310
C0D70AFB221F1CCF2E566B7EA11C4538238CE2108574CD300307C1D6C2413531225B84282430935ED4F2AABA42605FCEA5362DB779188AFC352632D37CC8479271A919FD87B083F6D5D34027B036A77176AD8CCD5E531031F66CB958FCAFDF53FF2C8044DB10EF205AC04CB1A9DF6BE035175CB05C1893CF77EBFD4AF043FB
310
E1294B52C2321179329955DE690F56420B82AF032805AE75DF1D50F906D07F01E44B5D90079E63743FD80FB4ED0CC77C9BB008BC831C643AF0C341E2E3D127CF2E1F9E2054E3CA539842DAFE204C6B66D4CEAE403AF19E21E813D657C6AD021C424CDFD358E439040A0A135802BEDFAEF7C66409640A8BF0140EC17AF8F66C
310
F111C1AF420EF04DC3436DF4DBC1513A619A7976F0D52788194683D255351B4FE13BFC21F84E17ABCFAB9C6D7140EE55622FC896C6348362DAAE500DF45ACA7F5F7E911979644F6D5700E7EC12411C2D7E5929BF20E9185045D4E1C23572E59E42BA87218E499273B5DE4654411226CC5FBFFA450EB79EF5A70E82E230C86F
310
1101AD6406D53D603415A01813655EC984D60127C1832A00778553FD350E9E04BC7E008CF51E3D206A316B0ACDA3D4C75192C782BE8FC3BB699AD577E497EB8E7BCEB8773D1E6963B914AFB3475343A9BC3827C2E98943E6356F29D6D0928B3C1A005BB6591040CF94677E92E28066EDB1D030426528807D56E50DDD6E730E
310
A4DE0A4B4363ABEF0E9153F9591E725E7B75884F23BC23FE168B0AD77A5E0DA052B8B6A015995D98704E63C2658772C45C0D541C0B88A0885B2DB5250829F72392E1F7C49F2C798DF063641BFAD04B65A29BBD1C7D5A41553D4F49149D5B12FBD2FE579FE3280D8B2EED12066EAF71422BAE426971C433C49B8F33DFD910D9
310
745F925EF282C6B793F4F1BBC59F8087E19F0E8F3E8242EB0D35F2B2675D6BE88EC5D73590CA68E8F6AFB4232E61A58FCA440F12E6D03505AFFE0BA1BBC76E84D6E91C4EC2AD4FC3308FFCA21E642482160C6739EB94AFA3A173E47CC50B8D84A89CB4A52134C89D4953F61EBAFB00AB64F3718A342BC7805134863B5A2743
310
8EAC680D61E90B791F15D7AECBDE7FBBD4FFCC97D57BCA13797D49D8A655D37A1BA13B30DD3008BA5415AE8C232979E255932F921797CB380CB410C56FC52D41450823CF540C26E40DA8F5FEC05F70160091AEE46F730619B1219B434F5113A7C61CC6040ED5D2749F5ABDE900D989F2516BBC96825023983660C1B3F7E243
310
F80D83ABA1F3E3B6EA6AEC627D290A9B058395831E67647DFDB46A488195CE4F3F088CC84B43825A9D8B46EE8CA8EFCB43BFDA90A02CFABE3CF378F69847EB185351194558E04DFAE1A3BC4BDED87051B0DDD9B8371C397DB3371F8DCDC1A23F33A7EEE0D69C5FDF5EF5E78BD11C1A089B119EE42C20DCEED98EAF7BA734DE
310
E9C028A0EB72A380A9C2E5AB9F8EE7A683FFC7378A3059E353B1F8AB5E28CA764F34648D5CEC7AA16825EAF5DBBA7FF788A8DB8BD89B3AE76256A003FC7CD90232D2F5BE7B6BA145EB4EA25DE74A457C63E13D795BF9E935A646E8ADF5A1B6A38DF2EB5C0CB3A7962AA56FB792D766F3A1331DF7EECCBBBBDED41C0CE77373
310
3C9B8E4C7731BDBDBA1AB8A3BE7BE8DD542DEC5A577E090ED5CA56C668300DE6494861284F36684712B801C1D4A103BFB2887079B38106409571FD46A0C3D3CFC54C35C3EB503F1D3C62184C87AA22E7010C45E1D67163A875F41B8C41C524520EA7AC27283C2ADA0D94337A6340086414EA8BB58671961C1E4AE98D7125B8
310
0DC73B71672A9E2AFF3E3C26D0815839D855EEE9828BB2AC169D301C48E57B02603BDD90BCDF74AD0EC2197C5CE75969CC61E1608D0241BF10288C83A9DF9382770FC473DE2ED7927B6A90749ACC9F8D8342AA9961B693E3F50ADED3C5832D26E3CBAF280DF39D70E7B97A5F93648A3E23CC8B21940781A1CC4CB1B887CF3F
310
D80F2C81574C11BAA31004E8F7FDF5E80F7B9E445112174BF654BDA842AB4778EDB4B1F5C80F1A1707FA18D9F7A8B13ECCAD38B1F0863FC102B89651311B2D20AE0540494F9500D01E11BE80C76AFB970BA48A40A585ADB6AE021E39D3479048E25D8E489BEA86CA00127201B42AE6B4E507BDE0D90C86E0937F01504B0304
310
140006080800E67A6D57E0EDC6053E01000046050000300000006662782F32324431433839342D333138432D344243452D423138332D4330444337303846423832362F636E782E786D6CCD94C16AC3300C865FC5F89EA46E188CE2B8D0C39E6087B19BE3A899D7C40AB632D6B79FDDB9DDC6E8D8A1D0DE8CFC0BFE4FFA915C
310
BF8F037B031F2CBA868B72C11938839D757DC367DA16F79CAD95F488F44DC699D323343C95B992BDC779CAA50EB67A1E5275B06E978B9AC8DB7626089C994187D0F0605E60D4A59E093B08BBB2D3A44B517A08387B03B19FEC08B9DF78D0041D57CBC5B22E842844FD28EE56CB7A25EA675925A5922DE290F5D611789C98C1
310
F870D1CC4256E95BC9D9DBAC49045C7D392B5BEB6415FF950CD1ADEBB38EF653D24DD3608DA638A60A0D011551047A94D5A758C92AF1FEA07ED83C1D1DB0CE7A30847E7FA50188730338192B6312FEC77F10FE8D8DED6BC4BDD6B6CFC2665B17433DA635C4B8FEDE7F4C9176FD707BA13F19BB7CE6E329216B6E0FF9E8EB42
310
C4D5E1E4C5A5A70BA83E00504B0304140006080800E67A6D5769BFFDFE7E000000A30000000B0000006662782F636E782E786D6C4D8CD10AC22018465F45FE7B4BDDA83F980E74F51EA3B921390D9BD1E3A7B18BAE3E387CE774FD67F5E46DD3CBC520811F18101BEE7172619190B79922905E7529C6EDEF06248CAB955031
310
A86E49313F7734D979CCBE52EFC26387420CDCE0A5A50D47435B6DAE54736CA861833933BC6914A7621CAB52E6D72B5BF3EA0B504B0304140006080800E67A6D57A6D797065F0000008200000007000000636E782E786D6C4DCB3B0E80201045D1AD90E9FD7516806B51190811670C8A61F982B1B0BAC9C97B72CA7B1037C6
310
D3332918DA1E04D2CAC69353902EDB8C20262D23F3F59B81A079470595414B17391D1F19B4730A5583A7ED43BBE4025D9592775E5ADFFA01504B0304140006080800E67A6D574FEB6A7CA0000000F4000000130000005B436F6E74656E745F54797065735D2E786D6C7D8F4B0EC2300C44AF1279DFA6B0400835ED02B80117
310
30C16D239A8F121795DB93D02D6269CFBC19BBED573B8B17C564BC53B0AB1B10E4B47F18372A5878A88E20FAAEBDBD032591BD2E299898C349CAA427B2986A1FC86565F0D122E7318E32A07EE24872DF3407A9BD63725C71C980AEBDD080CBCCE2BAE6F5D69B7110E7CD57AA146008B3D1C8F92C5954F993BB1BF787F39A89
310
ABC491D09600F9FDA2FB00504B0304140006080800E67A6D573DEE336E64000000790000001B0000006175746F6465736B2D64657369676E2D7061636B6167652E786D6C35CBC10E83200C00D05F21DCA56CA76D41FC96062B120735B69A7DBE268BB7777961F8D5AF396893C2ADB70FE7ADA196782C2DF776D7A97B5933C4
310
30F15651E5469C55D70F80A4992A3ADC954792C525AE70A1E4D6AD9816CC044FEFDF01FE3FDE907802504B0304140006080800E67A6D57B8B064E5F8000000960100003B0000006662782F32324431433839342D333138432D344243452D423138332D4330444337303846423832362F7265736F75726365732F636F72652E
310
786D6C8550CB6EC32010FC156BEFD801D7B11B61A2244ABEA0A7DE106C5C94182C1E553FBF90B8527BEA696176667677F8FE6BBE579FE8837176045A6FA042AB9C36761A21C52B19A0DA0BEE9D8BBF68505939E3080506C127EFD2B242CAD988B6A0D6695C41190246A8D43D3F4608EA036759CB143323DCEA45AA9B9CB0A6
310
F59327784A46AF52A3B39BB91AF42086F3E1D89D7B4606D61FC8CB654BC971C8DF9E5E5E87EDE9D431DAF3A688058F66FE99AE3CCA881A04DBB096504A68FB46BB1D6B77B47DE74D610A1EA2CF37AF43CB75203C0697BCC2C09B67F78F6B5AF4FFAEC9D8D8B2D5F5A90820685EF2D110BC2929E5F28830D792A8F806504B03
310
04140006080800E67A6D5791CFA28CF1000000B1010000310000006662782F32324431433839342D333138432D344243452D423138332D4330444337303846423832362F636F72652E786D6C8D50CB6EC32010FC158B3BB617D29646984876DA2FE8A93704C44189C1E251F5F30B892BB5B79C16CDCE30B3C30FDFCBB5F932
310
215AEF06046D8F1AE394D7D6CD03CAE984196A0E8207EFD31F1A6A9C5CCC802A8C049F83CFEB0629EF927115755E9B0D94319A841A752D8F014575368B6C654E85112FED2AD545CEA685F6CE133CD9E557AA8291C96824484F2806C0403FE0694FE81EE827EF2A53F09CADDEACAC2EEEF6644D2812728489BDEE300536E1DD
310
38BDE11118C5537F9C5E7AF63E32F2CCBB2A163CA6506EDE3EA9D73D2ABF0BFF65CEAB7E20B3758992CDF0AE884840C9735B08DED502CBB8B55B662D5BFC00504B0304140006080800E67A6D57B73333E053010000DD0200000C0000006662782F636F72652E786D6C8D52CB6E833010FC15E43B109B24D0C8384AA2E40B7A
310
EACD01875A011B191BE5F3BBE621CAA10F21813DBB33BB33821E5F4D1DF4C27452AB1CE1688302A10A5D4A55E5C8D94798A1E0C8A8D1DA7E6B4381E28DC8918711A395D1AE9DA0422B2B9447952EC504F2AE131605450D871C75C5A76878C49D858EEE19B5BC78F24A44381AFB18754E96135596A0261F5218C4B2EBE9BCBB
310
A624CC487A0AB7B73D0ECF195C537C7BCBF697CB8EE094C69ECCA895CD3CBD30825B512246362409310E71F28E7707921C70F24163DFC968670D789E867A77883DEE2F1A8FF84ACFB5E5DF7A4E2A9B90496F64748861586F28301AFB7CE03384B7CE1006437E96DFEBD9C213A05E14569B2D544AED9652CF6B27407A130C0F
310
8DC72A280F023FE9905F747ED780A0B8AA60356EE17877D64F5FEFD40A13F6F615286D1A5E2FCB8D2B2EEF65D0CAD24C2F74ADCD7FD8B3D539CCD8FF98EC0B504B0304140006080800E67A6D575C60ABB307010000B201000008000000636F72652E786D6C8D50CB6EC32010FC15B4773FC075EC46982889922FE8A9376A88
310
836283C5236AFFBE9050A9BDF5B43033BB33BB74F7B9CCE82EAD53460F80CB1A90D4A3114A4F03047F297A403B46AD31FE970C90E68B1C20C1C0E8644D5833341AEDA54EA8364266903B273DA0718E8F01DC78950B2F79F051E16EE5CAC71B9F6489CBA78E51AF969FD6D14AEEA500466AD2141817B879C3ED96345BDCBCD3
310
2A29190D41896CA544745717252DB0FEB43FB4A78E143DE9F6C5CB79838B431FBF1D3EBFF69BE3B125B8A3556A66D4791B77CE43624E8F1CBF275F5A3D29463F8C99B3208612C8E8F90B584DAB44FC091D56F18FD04AFB86E481CF0E070CC7400F221AA70BC6F2386FACE9DAEC1B504B01021400140006080800E67A6D5700
310
00000000000000000000003700000000000000000000000000000000006662782F32324431433839342D333138432D344243452D423138332D4330444337303846423832362F617474726962757465732E62696E504B01021400140006080800E67A6D57000000000000000000000000350000000000000000000000000055
310
0000006662782F32324431433839342D333138432D344243452D423138332D4330444337303846423832362F76657274696365732E62696E504B01021400140006080800E67A6D57F270F13306000000040000003600000000000000000000000000A80000006662782F32324431433839342D333138432D344243452D4231
310
38332D4330444337303846423832362F747269616E676C65732E62696E504B01021400140006080800E67A6D5751464CB489000000430100003600000000000000000000000000020100006662782F32324431433839342D333138432D344243452D423138332D4330444337303846423832362F6469726563746F72792E78
310
6D6C504B01021400140006080800E67A6D57EB418BD038070000201C00003400000000000000000000000000DF0100006662782F32324431433839342D333138432D344243452D423138332D4330444337303846423832362F6F626A656374732E786D6C504B01021400140006080800E67A6D57E0EDC6053E010000460500
310
003000000000000000000000000000690900006662782F32324431433839342D333138432D344243452D423138332D4330444337303846423832362F636E782E786D6C504B01021400140006080800E67A6D5769BFFDFE7E000000A30000000B00000000000000000000000000F50A00006662782F636E782E786D6C504B01
310
021400140006080800E67A6D57A6D797065F0000008200000007000000000000000000000000009C0B0000636E782E786D6C504B01021400140006080800E67A6D574FEB6A7CA0000000F40000001300000000000000000000000000200C00005B436F6E74656E745F54797065735D2E786D6C504B01021400140006080800
310
E67A6D573DEE336E64000000790000001B00000000000000000000000000F10C00006175746F6465736B2D64657369676E2D7061636B6167652E786D6C504B01021400140006080800E67A6D57B8B064E5F8000000960100003B000000000000000000000000008E0D00006662782F32324431433839342D333138432D3442
310
43452D423138332D4330444337303846423832362F7265736F75726365732F636F72652E786D6C504B01021400140006080800E67A6D5791CFA28CF1000000B10100003100000000000000000000000000DF0E00006662782F32324431433839342D333138432D344243452D423138332D4330444337303846423832362F63
310
6F72652E786D6C504B01021400140006080800E67A6D57B73333E053010000DD0200000C000000000000000000000000001F1000006662782F636F72652E786D6C504B01021400140006080800E67A6D575C60ABB307010000B201000008000000000000000000000000009C110000636F72652E786D6C504B050600000000
310
0E000E0080040000C91200000000
  0
XRECORD
  5
804E
102
{ACAD_REACTORS
330
8049
102
}
330
8049
100
AcDbXrecord
280
     1
270
     1
271
     1
  0
XRECORD
  5
804D
102
{ACAD_REACTORS
330
8049
102
}
330
8049
100
AcDbXrecord
280
     1
270
     1
271
     1
  0
XRECORD
  5
804F
102
{ACAD_REACTORS
330
8049
102
}
330
8049
100
AcDbXrecord
280
     1
270
     1
271
     1
  0
XRECORD
  5
804C
102
{ACAD_REACTORS
330
8049
102
}
330
8049
100
AcDbXrecord
280
     1
270
     1
271
     1
  0
XRECORD
  5
82B3
102
{ACAD_REACTORS
330
82B2
102
}
330
82B2
100
AcDbXrecord
280
     1
102
DISPLAYNAME
  1
Imperial24
102
FLAGS
 90
        0
  0
CELLSTYLEMAP
  5
827A
102
{ACAD_REACTORS
330
8279
102
}
330
8279
100
AcDbCellStyleMap
 90
        3
300
CELLSTYLE
  1
TABLEFORMAT_BEGIN
 90
        5
170
     1
 91
        0
 92
    32768
 62
   257
 93
        1
300
CONTENTFORMAT
  1
CONTENTFORMAT_BEGIN
 90
        0
 91
        0
 92
      512
 93
        0
300

 40
0.0
140
1.0
 94
        5
 62
     0
340
807C
144
0.25
309
CONTENTFORMAT_END
171
     0
 94
        0
309
TABLEFORMAT_END
  1
CELLSTYLE_BEGIN
 90
        1
 91
        1
300
_TITLE
309
CELLSTYLE_END
300
CELLSTYLE
  1
TABLEFORMAT_BEGIN
 90
        5
170
     1
 91
        0
 92
        0
 62
   257
 93
        1
300
CONTENTFORMAT
  1
CONTENTFORMAT_BEGIN
 90
        0
 91
        0
 92
      512
 93
        0
300

 40
0.0
140
1.0
 94
        5
 62
     0
340
807C
144
0.18
309
CONTENTFORMAT_END
171
     0
 94
        0
309
TABLEFORMAT_END
  1
CELLSTYLE_BEGIN
 90
        2
 91
        1
300
_HEADER
309
CELLSTYLE_END
300
CELLSTYLE
  1
TABLEFORMAT_BEGIN
 90
        5
170
     1
 91
        0
 92
        0
 62
   257
 93
        1
300
CONTENTFORMAT
  1
CONTENTFORMAT_BEGIN
 90
        0
 91
        0
 92
      512
 93
        0
300

 40
0.0
140
1.0
 94
        2
 62
     0
340
807C
144
0.18
309
CONTENTFORMAT_END
171
     0
 94
        0
309
TABLEFORMAT_END
  1
CELLSTYLE_BEGIN
 90
        3
 91
        2
300
_DATA
309
CELLSTYLE_END
  0
XRECORD
  5
82B0
102
{ACAD_REACTORS
330
8279
102
}
330
8279
100
AcDbXrecord
280
     1
102
ACAD_ROUNDTRIP_PRE2007_TABLESTYLE
 90
      512
 91
        0
  1

 92
      512
 93
        0
  2

 94
      512
 95
        0
  3

  0
XRECORD
  5
828B
102
{ACAD_REACTORS
330
828A
102
}
330
828A
100
AcDbXrecord
280
     1
102
RTVSPost2010Prop28
280
     1
102
RTVSPost2010PropOp28
 70
     1
102
RTVSPost2010Prop29
280
     1
102
RTVSPost2010PropOp29
 70
     1
102
RTVSPost2010Prop30
280
     0
102
RTVSPost2010PropOp30
 70
     1
102
RTVSPost2010Prop31
280
     0
102
RTVSPost2010PropOp31
 70
     1
102
RTVSPost2010Prop32
280
     0
102
RTVSPost2010PropOp32
 70
     1
102
RTVSPost2010Prop33
280
     0
102
RTVSPost2010PropOp33
 70
     1
102
RTVSPost2010Prop34
280
     0
102
RTVSPost2010PropOp34
 70
     1
102
RTVSPost2010Prop35
280
     0
102
RTVSPost2010PropOp35
 70
     1
102
RTVSPost2010Prop36
280
     0
102
RTVSPost2010PropOp36
 70
     1
102
RTVSPost2010Prop37
 90
       50
102
RTVSPost2010PropOp37
 70
     1
102
RTVSPost2010Prop38
140
0.0
102
RTVSPost2010PropOp38
 70
     1
102
RTVSPost2010Prop39
140
1.0
102
RTVSPost2010PropOp39
 70
     1
102
RTVSPost2010Prop40
 90
        0
102
RTVSPost2010PropOp40
 70
     1
102
RTVSPost2010Prop41ColorIndex
 90
       18
102
RTVSPost2010Prop41ColorRGB
 90
        0
102
RTVSPost2010PropOp41
 70
     1
102
RTVSPost2010Prop42
 90
       50
102
RTVSPost2010PropOp42
 70
     1
102
RTVSPost2010Prop43
 90
        3
102
RTVSPost2010PropOp43
 70
     1
102
RTVSPost2010Prop44ColorIndex
 90
        5
102
RTVSPost2010Prop44ColorRGB
 90
      255
102
RTVSPost2010PropOp44
 70
     1
102
RTVSPost2010Prop45
280
     0
102
RTVSPost2010PropOp45
 70
     1
102
RTVSPost2010Prop46
 90
       50
102
RTVSPost2010PropOp46
 70
     1
102
RTVSPost2010Prop47
 90
       50
102
RTVSPost2010PropOp47
 70
     1
102
RTVSPost2010Prop48
 90
       50
102
RTVSPost2010PropOp48
 70
     1
102
RTVSPost2010Prop49
280
     0
102
RTVSPost2010PropOp49
 70
     1
102
RTVSPost2010Prop50
 90
       50
102
RTVSPost2010PropOp50
 70
     1
102
RTVSPost2010Prop51ColorIndex
 90
      256
102
RTVSPost2010Prop51ColorRGB
 90
-16777216
102
RTVSPost2010PropOp51
 70
     0
102
RTVSPost2010Prop52
140
1.0
102
RTVSPost2010PropOp52
 70
     0
102
RTVSPost2010Prop53
 90
        2
102
RTVSPost2010PropOp53
 70
     1
102
RTVSPost2010Prop54
  1
strokes_ogs.tif
102
RTVSPost2010PropOp54
 70
     1
102
RTVSPost2010Prop55
280
     0
102
RTVSPost2010PropOp55
 70
     1
102
RTVSPost2010Prop56
140
1.0
102
RTVSPost2010PropOp56
 70
     1
102
RTVSPost2010Prop57
140
1.0
102
RTVSPost2010PropOp57
 70
     1
102
RTVSPropertyOp0
 70
     1
102
RTVSPropertyOp1
 70
     1
102
RTVSPropertyOp2
 70
     1
102
RTVSPropertyOp3
 70
     1
102
RTVSPropertyOp4
 70
     1
102
RTVSPropertyOp5
 70
     1
102
RTVSPropertyOp6
 70
     1
102
RTVSPropertyOp7
 70
     1
102
RTVSPropertyOp8
 70
     1
102
RTVSPropertyOp9
 70
     1
102
RTVSPropertyOp10
 70
     1
102
RTVSPropertyOp11
 70
     1
102
RTVSPropertyOp12
 70
     1
102
RTVSPropertyOp13
 70
     1
102
RTVSPropertyOp14
 70
     1
102
RTVSPropertyOp15
 70
     1
102
RTVSPropertyOp16
 70
     1
102
RTVSPropertyOp17
 70
     1
102
RTVSPropertyOp18
 70
     1
102
RTVSPropertyOp19
 70
     1
102
RTVSPropertyOp20
 70
     1
102
RTVSPropertyOp21
 70
     1
102
RTVSPropertyOp22
 70
     1
102
RTVSPropertyOp23
 70
     1
102
RTVSPropertyOp24
 70
     1
102
RTVSPropertyOp25
 70
     1
102
RTVSPropertyOp26
 70
     1
102
RTVSPropertyOp27
 70
     1
102
RTVSPropertyOp28
 70
     1
102
RTVSPropertyOp29
 70
     1
102
RTVSPropertyOp30
 70
     1
102
RTVSPropertyOp31
 70
     1
102
RTVSPropertyOp32
 70
     1
102
RTVSPropertyOp33
 70
     1
102
RTVSPropertyOp34
 70
     1
102
RTVSPropertyOp35
 70
     1
102
RTVSPropertyOp36
 70
     1
102
RTVSPropertyOp37
 70
     1
102
RTVSPropertyOp38
 70
     1
102
RTVSPropertyOp39
 70
     1
102
RTVSPropertyOp40
 70
     1
102
RTVSPropertyOp41
 70
     1
102
RTVSPropertyOp42
 70
     1
102
RTVSPropertyOp43
 70
     1
102
RTVSPropertyOp44
 70
     1
102
RTVSPropertyOp45
 70
     1
102
RTVSPropertyOp46
 70
     1
102
RTVSPropertyOp47
 70
     1
102
RTVSPropertyOp48
 70
     1
102
RTVSPropertyOp49
 70
     1
102
RTVSPropertyOp50
 70
     1
102
RTVSPropertyOp51
 70
     0
102
RTVSPropertyOp52
 70
     0
102
RTVSPropertyOp53
 70
     1
102
RTVSPropertyOp54
 70
     1
102
RTVSPropertyOp55
 70
     1
102
RTVSPropertyOp56
 70
     1
102
RTVSPropertyOp57
 70
     1
102
RTVSPropertyOp58
 70
     1
102
RTVSPropertyOp59
 70
     1
102
RTVSPropertyOp60
 70
     1
102
RTVSPropertyOp61
 70
     1
102
RTVSPropertyOp62
 70
     1
  0
XRECORD
  5
8289
102
{ACAD_REACTORS
330
8288
102
}
330
8288
100
AcDbXrecord
280
     1
102
RTVSPost2010Prop28
280
     0
102
RTVSPost2010PropOp28
 70
     1
102
RTVSPost2010Prop29
280
     1
102
RTVSPost2010PropOp29
 70
     1
102
RTVSPost2010Prop30
280
     1
102
RTVSPost2010PropOp30
 70
     1
102
RTVSPost2010Prop31
280
     0
102
RTVSPost2010PropOp31
 70
     1
102
RTVSPost2010Prop32
280
     0
102
RTVSPost2010PropOp32
 70
     1
102
RTVSPost2010Prop33
280
     0
102
RTVSPost2010PropOp33
 70
     1
102
RTVSPost2010Prop34
280
     0
102
RTVSPost2010PropOp34
 70
     1
102
RTVSPost2010Prop35
280
     0
102
RTVSPost2010PropOp35
 70
     1
102
RTVSPost2010Prop36
280
     0
102
RTVSPost2010PropOp36
 70
     1
102
RTVSPost2010Prop37
 90
       50
102
RTVSPost2010PropOp37
 70
     1
102
RTVSPost2010Prop38
140
0.0
102
RTVSPost2010PropOp38
 70
     1
102
RTVSPost2010Prop39
140
1.0
102
RTVSPost2010PropOp39
 70
     1
102
RTVSPost2010Prop40
 90
        0
102
RTVSPost2010PropOp40
 70
     1
102
RTVSPost2010Prop41ColorIndex
 90
       18
102
RTVSPost2010Prop41ColorRGB
 90
        0
102
RTVSPost2010PropOp41
 70
     1
102
RTVSPost2010Prop42
 90
       50
102
RTVSPost2010PropOp42
 70
     1
102
RTVSPost2010Prop43
 90
        3
102
RTVSPost2010PropOp43
 70
     1
102
RTVSPost2010Prop44ColorIndex
 90
        5
102
RTVSPost2010Prop44ColorRGB
 90
      255
102
RTVSPost2010PropOp44
 70
     1
102
RTVSPost2010Prop45
280
     0
102
RTVSPost2010PropOp45
 70
     1
102
RTVSPost2010Prop46
 90
       50
102
RTVSPost2010PropOp46
 70
     1
102
RTVSPost2010Prop47
 90
       50
102
RTVSPost2010PropOp47
 70
     1
102
RTVSPost2010Prop48
 90
       50
102
RTVSPost2010PropOp48
 70
     1
102
RTVSPost2010Prop49
280
     0
102
RTVSPost2010PropOp49
 70
     1
102
RTVSPost2010Prop50
 90
       50
102
RTVSPost2010PropOp50
 70
     1
102
RTVSPost2010Prop51ColorIndex
 90
      256
102
RTVSPost2010Prop51ColorRGB
 90
-16777216
102
RTVSPost2010PropOp51
 70
     0
102
RTVSPost2010Prop52
140
1.0
102
RTVSPost2010PropOp52
 70
     0
102
RTVSPost2010Prop53
 90
        2
102
RTVSPost2010PropOp53
 70
     1
102
RTVSPost2010Prop54
  1
strokes_ogs.tif
102
RTVSPost2010PropOp54
 70
     1
102
RTVSPost2010Prop55
280
     0
102
RTVSPost2010PropOp55
 70
     1
102
RTVSPost2010Prop56
140
1.0
102
RTVSPost2010PropOp56
 70
     1
102
RTVSPost2010Prop57
140
1.0
102
RTVSPost2010PropOp57
 70
     1
102
RTVSPropertyOp0
 70
     1
102
RTVSPropertyOp1
 70
     1
102
RTVSPropertyOp2
 70
     1
102
RTVSPropertyOp3
 70
     1
102
RTVSPropertyOp4
 70
     1
102
RTVSPropertyOp5
 70
     1
102
RTVSPropertyOp6
 70
     1
102
RTVSPropertyOp7
 70
     1
102
RTVSPropertyOp8
 70
     1
102
RTVSPropertyOp9
 70
     1
102
RTVSPropertyOp10
 70
     1
102
RTVSPropertyOp11
 70
     1
102
RTVSPropertyOp12
 70
     1
102
RTVSPropertyOp13
 70
     1
102
RTVSPropertyOp14
 70
     1
102
RTVSPropertyOp15
 70
     1
102
RTVSPropertyOp16
 70
     1
102
RTVSPropertyOp17
 70
     1
102
RTVSPropertyOp18
 70
     1
102
RTVSPropertyOp19
 70
     1
102
RTVSPropertyOp20
 70
     1
102
RTVSPropertyOp21
 70
     1
102
RTVSPropertyOp22
 70
     1
102
RTVSPropertyOp23
 70
     1
102
RTVSPropertyOp24
 70
     1
102
RTVSPropertyOp25
 70
     1
102
RTVSPropertyOp26
 70
     1
102
RTVSPropertyOp27
 70
     1
102
RTVSPropertyOp28
 70
     1
102
RTVSPropertyOp29
 70
     1
102
RTVSPropertyOp30
 70
     1
102
RTVSPropertyOp31
 70
     1
102
RTVSPropertyOp32
 70
     1
102
RTVSPropertyOp33
 70
     1
102
RTVSPropertyOp34
 70
     1
102
RTVSPropertyOp35
 70
     1
102
RTVSPropertyOp36
 70
     1
102
RTVSPropertyOp37
 70
     1
102
RTVSPropertyOp38
 70
     1
102
RTVSPropertyOp39
 70
     1
102
RTVSPropertyOp40
 70
     1
102
RTVSPropertyOp41
 70
     1
102
RTVSPropertyOp42
 70
     1
102
RTVSPropertyOp43
 70
     1
102
RTVSPropertyOp44
 70
     1
102
RTVSPropertyOp45
 70
     1
102
RTVSPropertyOp46
 70
     1
102
RTVSPropertyOp47
 70
     1
102
RTVSPropertyOp48
 70
     1
102
RTVSPropertyOp49
 70
     1
102
RTVSPropertyOp50
 70
     1
102
RTVSPropertyOp51
 70
     0
102
RTVSPropertyOp52
 70
     0
102
RTVSPropertyOp53
 70
     1
102
RTVSPropertyOp54
 70
     1
102
RTVSPropertyOp55
 70
     1
102
RTVSPropertyOp56
 70
     1
102
RTVSPropertyOp57
 70
     1
102
RTVSPropertyOp58
 70
     1
102
RTVSPropertyOp59
 70
     1
102
RTVSPropertyOp60
 70
     1
102
RTVSPropertyOp61
 70
     1
102
RTVSPropertyOp62
 70
     1
  0
XRECORD
  5
8297
102
{ACAD_REACTORS
330
8296
102
}
330
8296
100
AcDbXrecord
280
     1
102
RTVSPost2010Prop28
280
     0
102
RTVSPost2010PropOp28
 70
     1
102
RTVSPost2010Prop29
280
     1
102
RTVSPost2010PropOp29
 70
     1
102
RTVSPost2010Prop30
280
     1
102
RTVSPost2010PropOp30
 70
     1
102
RTVSPost2010Prop31
280
     0
102
RTVSPost2010PropOp31
 70
     1
102
RTVSPost2010Prop32
280
     0
102
RTVSPost2010PropOp32
 70
     1
102
RTVSPost2010Prop33
280
     0
102
RTVSPost2010PropOp33
 70
     1
102
RTVSPost2010Prop34
280
     0
102
RTVSPost2010PropOp34
 70
     1
102
RTVSPost2010Prop35
280
     0
102
RTVSPost2010PropOp35
 70
     1
102
RTVSPost2010Prop36
280
     0
102
RTVSPost2010PropOp36
 70
     1
102
RTVSPost2010Prop37
 90
       50
102
RTVSPost2010PropOp37
 70
     1
102
RTVSPost2010Prop38
140
0.0
102
RTVSPost2010PropOp38
 70
     1
102
RTVSPost2010Prop39
140
1.0
102
RTVSPost2010PropOp39
 70
     1
102
RTVSPost2010Prop40
 90
        0
102
RTVSPost2010PropOp40
 70
     1
102
RTVSPost2010Prop41ColorIndex
 90
       18
102
RTVSPost2010Prop41ColorRGB
 90
        0
102
RTVSPost2010PropOp41
 70
     1
102
RTVSPost2010Prop42
 90
       50
102
RTVSPost2010PropOp42
 70
     1
102
RTVSPost2010Prop43
 90
        3
102
RTVSPost2010PropOp43
 70
     1
102
RTVSPost2010Prop44ColorIndex
 90
        5
102
RTVSPost2010Prop44ColorRGB
 90
      255
102
RTVSPost2010PropOp44
 70
     1
102
RTVSPost2010Prop45
280
     0
102
RTVSPost2010PropOp45
 70
     1
102
RTVSPost2010Prop46
 90
       50
102
RTVSPost2010PropOp46
 70
     1
102
RTVSPost2010Prop47
 90
       50
102
RTVSPost2010PropOp47
 70
     1
102
RTVSPost2010Prop48
 90
       50
102
RTVSPost2010PropOp48
 70
     1
102
RTVSPost2010Prop49
280
     0
102
RTVSPost2010PropOp49
 70
     1
102
RTVSPost2010Prop50
 90
       50
102
RTVSPost2010PropOp50
 70
     1
102
RTVSPost2010Prop51ColorIndex
 90
      256
102
RTVSPost2010Prop51ColorRGB
 90
-16777216
102
RTVSPost2010PropOp51
 70
     0
102
RTVSPost2010Prop52
140
1.0
102
RTVSPost2010PropOp52
 70
     0
102
RTVSPost2010Prop53
 90
        2
102
RTVSPost2010PropOp53
 70
     1
102
RTVSPost2010Prop54
  1
strokes_ogs.tif
102
RTVSPost2010PropOp54
 70
     1
102
RTVSPost2010Prop55
280
     0
102
RTVSPost2010PropOp55
 70
     1
102
RTVSPost2010Prop56
140
1.0
102
RTVSPost2010PropOp56
 70
     1
102
RTVSPost2010Prop57
140
1.0
102
RTVSPost2010PropOp57
 70
     1
102
RTVSPropertyOp0
 70
     1
102
RTVSPropertyOp1
 70
     1
102
RTVSPropertyOp2
 70
     1
102
RTVSPropertyOp3
 70
     1
102
RTVSPropertyOp4
 70
     1
102
RTVSPropertyOp5
 70
     1
102
RTVSPropertyOp6
 70
     1
102
RTVSPropertyOp7
 70
     1
102
RTVSPropertyOp8
 70
     1
102
RTVSPropertyOp9
 70
     1
102
RTVSPropertyOp10
 70
     1
102
RTVSPropertyOp11
 70
     1
102
RTVSPropertyOp12
 70
     1
102
RTVSPropertyOp13
 70
     1
102
RTVSPropertyOp14
 70
     1
102
RTVSPropertyOp15
 70
     1
102
RTVSPropertyOp16
 70
     1
102
RTVSPropertyOp17
 70
     1
102
RTVSPropertyOp18
 70
     1
102
RTVSPropertyOp19
 70
     1
102
RTVSPropertyOp20
 70
     1
102
RTVSPropertyOp21
 70
     1
102
RTVSPropertyOp22
 70
     1
102
RTVSPropertyOp23
 70
     1
102
RTVSPropertyOp24
 70
     1
102
RTVSPropertyOp25
 70
     1
102
RTVSPropertyOp26
 70
     1
102
RTVSPropertyOp27
 70
     1
102
RTVSPropertyOp28
 70
     1
102
RTVSPropertyOp29
 70
     1
102
RTVSPropertyOp30
 70
     1
102
RTVSPropertyOp31
 70
     1
102
RTVSPropertyOp32
 70
     1
102
RTVSPropertyOp33
 70
     1
102
RTVSPropertyOp34
 70
     1
102
RTVSPropertyOp35
 70
     1
102
RTVSPropertyOp36
 70
     1
102
RTVSPropertyOp37
 70
     1
102
RTVSPropertyOp38
 70
     1
102
RTVSPropertyOp39
 70
     1
102
RTVSPropertyOp40
 70
     1
102
RTVSPropertyOp41
 70
     1
102
RTVSPropertyOp42
 70
     1
102
RTVSPropertyOp43
 70
     1
102
RTVSPropertyOp44
 70
     1
102
RTVSPropertyOp45
 70
     1
102
RTVSPropertyOp46
 70
     1
102
RTVSPropertyOp47
 70
     1
102
RTVSPropertyOp48
 70
     1
102
RTVSPropertyOp49
 70
     1
102
RTVSPropertyOp50
 70
     1
102
RTVSPropertyOp51
 70
     0
102
RTVSPropertyOp52
 70
     0
102
RTVSPropertyOp53
 70
     1
102
RTVSPropertyOp54
 70
     1
102
RTVSPropertyOp55
 70
     1
102
RTVSPropertyOp56
 70
     1
102
RTVSPropertyOp57
 70
     1
102
RTVSPropertyOp58
 70
     1
102
RTVSPropertyOp59
 70
     1
102
RTVSPropertyOp60
 70
     1
102
RTVSPropertyOp61
 70
     1
102
RTVSPropertyOp62
 70
     1
  0
XRECORD
  5
829F
102
{ACAD_REACTORS
330
829E
102
}
330
829E
100
AcDbXrecord
280
     1
102
RTVSPost2010Prop28
280
     0
102
RTVSPost2010PropOp28
 70
     1
102
RTVSPost2010Prop29
280
     1
102
RTVSPost2010PropOp29
 70
     1
102
RTVSPost2010Prop30
280
     1
102
RTVSPost2010PropOp30
 70
     1
102
RTVSPost2010Prop31
280
     0
102
RTVSPost2010PropOp31
 70
     1
102
RTVSPost2010Prop32
280
     0
102
RTVSPost2010PropOp32
 70
     1
102
RTVSPost2010Prop33
280
     0
102
RTVSPost2010PropOp33
 70
     1
102
RTVSPost2010Prop34
280
     0
102
RTVSPost2010PropOp34
 70
     1
102
RTVSPost2010Prop35
280
     0
102
RTVSPost2010PropOp35
 70
     1
102
RTVSPost2010Prop36
280
     0
102
RTVSPost2010PropOp36
 70
     1
102
RTVSPost2010Prop37
 90
       50
102
RTVSPost2010PropOp37
 70
     1
102
RTVSPost2010Prop38
140
0.0
102
RTVSPost2010PropOp38
 70
     1
102
RTVSPost2010Prop39
140
1.0
102
RTVSPost2010PropOp39
 70
     1
102
RTVSPost2010Prop40
 90
        0
102
RTVSPost2010PropOp40
 70
     1
102
RTVSPost2010Prop41ColorIndex
 90
       18
102
RTVSPost2010Prop41ColorRGB
 90
        0
102
RTVSPost2010PropOp41
 70
     1
102
RTVSPost2010Prop42
 90
       50
102
RTVSPost2010PropOp42
 70
     1
102
RTVSPost2010Prop43
 90
        3
102
RTVSPost2010PropOp43
 70
     1
102
RTVSPost2010Prop44ColorIndex
 90
        5
102
RTVSPost2010Prop44ColorRGB
 90
      255
102
RTVSPost2010PropOp44
 70
     1
102
RTVSPost2010Prop45
280
     0
102
RTVSPost2010PropOp45
 70
     1
102
RTVSPost2010Prop46
 90
       50
102
RTVSPost2010PropOp46
 70
     1
102
RTVSPost2010Prop47
 90
       50
102
RTVSPost2010PropOp47
 70
     1
102
RTVSPost2010Prop48
 90
       50
102
RTVSPost2010PropOp48
 70
     1
102
RTVSPost2010Prop49
280
     0
102
RTVSPost2010PropOp49
 70
     1
102
RTVSPost2010Prop50
 90
       50
102
RTVSPost2010PropOp50
 70
     1
102
RTVSPost2010Prop51ColorIndex
 90
      256
102
RTVSPost2010Prop51ColorRGB
 90
-16777216
102
RTVSPost2010PropOp51
 70
     0
102
RTVSPost2010Prop52
140
1.0
102
RTVSPost2010PropOp52
 70
     0
102
RTVSPost2010Prop53
 90
        2
102
RTVSPost2010PropOp53
 70
     1
102
RTVSPost2010Prop54
  1
strokes_ogs.tif
102
RTVSPost2010PropOp54
 70
     1
102
RTVSPost2010Prop55
280
     0
102
RTVSPost2010PropOp55
 70
     1
102
RTVSPost2010Prop56
140
1.0
102
RTVSPost2010PropOp56
 70
     1
102
RTVSPost2010Prop57
140
1.0
102
RTVSPost2010PropOp57
 70
     1
102
RTVSPropertyOp0
 70
     1
102
RTVSPropertyOp1
 70
     1
102
RTVSPropertyOp2
 70
     1
102
RTVSPropertyOp3
 70
     1
102
RTVSPropertyOp4
 70
     1
102
RTVSPropertyOp5
 70
     1
102
RTVSPropertyOp6
 70
     1
102
RTVSPropertyOp7
 70
     1
102
RTVSPropertyOp8
 70
     1
102
RTVSPropertyOp9
 70
     1
102
RTVSPropertyOp10
 70
     1
102
RTVSPropertyOp11
 70
     1
102
RTVSPropertyOp12
 70
     1
102
RTVSPropertyOp13
 70
     1
102
RTVSPropertyOp14
 70
     1
102
RTVSPropertyOp15
 70
     1
102
RTVSPropertyOp16
 70
     1
102
RTVSPropertyOp17
 70
     1
102
RTVSPropertyOp18
 70
     1
102
RTVSPropertyOp19
 70
     1
102
RTVSPropertyOp20
 70
     1
102
RTVSPropertyOp21
 70
     1
102
RTVSPropertyOp22
 70
     1
102
RTVSPropertyOp23
 70
     1
102
RTVSPropertyOp24
 70
     1
102
RTVSPropertyOp25
 70
     1
102
RTVSPropertyOp26
 70
     1
102
RTVSPropertyOp27
 70
     1
102
RTVSPropertyOp28
 70
     1
102
RTVSPropertyOp29
 70
     1
102
RTVSPropertyOp30
 70
     1
102
RTVSPropertyOp31
 70
     1
102
RTVSPropertyOp32
 70
     1
102
RTVSPropertyOp33
 70
     1
102
RTVSPropertyOp34
 70
     1
102
RTVSPropertyOp35
 70
     1
102
RTVSPropertyOp36
 70
     1
102
RTVSPropertyOp37
 70
     1
102
RTVSPropertyOp38
 70
     1
102
RTVSPropertyOp39
 70
     1
102
RTVSPropertyOp40
 70
     1
102
RTVSPropertyOp41
 70
     1
102
RTVSPropertyOp42
 70
     1
102
RTVSPropertyOp43
 70
     1
102
RTVSPropertyOp44
 70
     1
102
RTVSPropertyOp45
 70
     1
102
RTVSPropertyOp46
 70
     1
102
RTVSPropertyOp47
 70
     1
102
RTVSPropertyOp48
 70
     1
102
RTVSPropertyOp49
 70
     1
102
RTVSPropertyOp50
 70
     1
102
RTVSPropertyOp51
 70
     0
102
RTVSPropertyOp52
 70
     0
102
RTVSPropertyOp53
 70
     1
102
RTVSPropertyOp54
 70
     1
102
RTVSPropertyOp55
 70
     1
102
RTVSPropertyOp56
 70
     1
102
RTVSPropertyOp57
 70
     1
102
RTVSPropertyOp58
 70
     1
102
RTVSPropertyOp59
 70
     1
102
RTVSPropertyOp60
 70
     1
102
RTVSPropertyOp61
 70
     1
102
RTVSPropertyOp62
 70
     1
  0
XRECORD
  5
8291
102
{ACAD_REACTORS
330
8290
102
}
330
8290
100
AcDbXrecord
280
     1
102
RTVSPost2010Prop28
280
     0
102
RTVSPost2010PropOp28
 70
     1
102
RTVSPost2010Prop29
280
     1
102
RTVSPost2010PropOp29
 70
     1
102
RTVSPost2010Prop30
280
     1
102
RTVSPost2010PropOp30
 70
     1
102
RTVSPost2010Prop31
280
     0
102
RTVSPost2010PropOp31
 70
     1
102
RTVSPost2010Prop32
280
     0
102
RTVSPost2010PropOp32
 70
     1
102
RTVSPost2010Prop33
280
     0
102
RTVSPost2010PropOp33
 70
     1
102
RTVSPost2010Prop34
280
     0
102
RTVSPost2010PropOp34
 70
     1
102
RTVSPost2010Prop35
280
     0
102
RTVSPost2010PropOp35
 70
     1
102
RTVSPost2010Prop36
280
     0
102
RTVSPost2010PropOp36
 70
     1
102
RTVSPost2010Prop37
 90
       50
102
RTVSPost2010PropOp37
 70
     1
102
RTVSPost2010Prop38
140
0.0
102
RTVSPost2010PropOp38
 70
     1
102
RTVSPost2010Prop39
140
1.0
102
RTVSPost2010PropOp39
 70
     1
102
RTVSPost2010Prop40
 90
        0
102
RTVSPost2010PropOp40
 70
     1
102
RTVSPost2010Prop41ColorIndex
 90
       18
102
RTVSPost2010Prop41ColorRGB
 90
        0
102
RTVSPost2010PropOp41
 70
     1
102
RTVSPost2010Prop42
 90
       50
102
RTVSPost2010PropOp42
 70
     1
102
RTVSPost2010Prop43
 90
        3
102
RTVSPost2010PropOp43
 70
     1
102
RTVSPost2010Prop44ColorIndex
 90
        5
102
RTVSPost2010Prop44ColorRGB
 90
      255
102
RTVSPost2010PropOp44
 70
     1
102
RTVSPost2010Prop45
280
     0
102
RTVSPost2010PropOp45
 70
     1
102
RTVSPost2010Prop46
 90
       50
102
RTVSPost2010PropOp46
 70
     1
102
RTVSPost2010Prop47
 90
       50
102
RTVSPost2010PropOp47
 70
     1
102
RTVSPost2010Prop48
 90
       50
102
RTVSPost2010PropOp48
 70
     1
102
RTVSPost2010Prop49
280
     0
102
RTVSPost2010PropOp49
 70
     1
102
RTVSPost2010Prop50
 90
       50
102
RTVSPost2010PropOp50
 70
     1
102
RTVSPost2010Prop51ColorIndex
 90
      256
102
RTVSPost2010Prop51ColorRGB
 90
-16777216
102
RTVSPost2010PropOp51
 70
     0
102
RTVSPost2010Prop52
140
1.0
102
RTVSPost2010PropOp52
 70
     0
102
RTVSPost2010Prop53
 90
        2
102
RTVSPost2010PropOp53
 70
     1
102
RTVSPost2010Prop54
  1
strokes_ogs.tif
102
RTVSPost2010PropOp54
 70
     1
102
RTVSPost2010Prop55
280
     0
102
RTVSPost2010PropOp55
 70
     1
102
RTVSPost2010Prop56
140
1.0
102
RTVSPost2010PropOp56
 70
     1
102
RTVSPost2010Prop57
140
1.0
102
RTVSPost2010PropOp57
 70
     1
102
RTVSPropertyOp0
 70
     1
102
RTVSPropertyOp1
 70
     1
102
RTVSPropertyOp2
 70
     1
102
RTVSPropertyOp3
 70
     1
102
RTVSPropertyOp4
 70
     1
102
RTVSPropertyOp5
 70
     1
102
RTVSPropertyOp6
 70
     1
102
RTVSPropertyOp7
 70
     1
102
RTVSPropertyOp8
 70
     1
102
RTVSPropertyOp9
 70
     1
102
RTVSPropertyOp10
 70
     1
102
RTVSPropertyOp11
 70
     1
102
RTVSPropertyOp12
 70
     1
102
RTVSPropertyOp13
 70
     1
102
RTVSPropertyOp14
 70
     1
102
RTVSPropertyOp15
 70
     1
102
RTVSPropertyOp16
 70
     1
102
RTVSPropertyOp17
 70
     1
102
RTVSPropertyOp18
 70
     1
102
RTVSPropertyOp19
 70
     1
102
RTVSPropertyOp20
 70
     1
102
RTVSPropertyOp21
 70
     1
102
RTVSPropertyOp22
 70
     1
102
RTVSPropertyOp23
 70
     1
102
RTVSPropertyOp24
 70
     1
102
RTVSPropertyOp25
 70
     1
102
RTVSPropertyOp26
 70
     1
102
RTVSPropertyOp27
 70
     1
102
RTVSPropertyOp28
 70
     1
102
RTVSPropertyOp29
 70
     1
102
RTVSPropertyOp30
 70
     1
102
RTVSPropertyOp31
 70
     1
102
RTVSPropertyOp32
 70
     1
102
RTVSPropertyOp33
 70
     1
102
RTVSPropertyOp34
 70
     1
102
RTVSPropertyOp35
 70
     1
102
RTVSPropertyOp36
 70
     1
102
RTVSPropertyOp37
 70
     1
102
RTVSPropertyOp38
 70
     1
102
RTVSPropertyOp39
 70
     1
102
RTVSPropertyOp40
 70
     1
102
RTVSPropertyOp41
 70
     1
102
RTVSPropertyOp42
 70
     1
102
RTVSPropertyOp43
 70
     1
102
RTVSPropertyOp44
 70
     1
102
RTVSPropertyOp45
 70
     1
102
RTVSPropertyOp46
 70
     1
102
RTVSPropertyOp47
 70
     1
102
RTVSPropertyOp48
 70
     1
102
RTVSPropertyOp49
 70
     1
102
RTVSPropertyOp50
 70
     1
102
RTVSPropertyOp51
 70
     0
102
RTVSPropertyOp52
 70
     0
102
RTVSPropertyOp53
 70
     1
102
RTVSPropertyOp54
 70
     1
102
RTVSPropertyOp55
 70
     1
102
RTVSPropertyOp56
 70
     1
102
RTVSPropertyOp57
 70
     1
102
RTVSPropertyOp58
 70
     1
102
RTVSPropertyOp59
 70
     1
102
RTVSPropertyOp60
 70
     1
102
RTVSPropertyOp61
 70
     1
102
RTVSPropertyOp62
 70
     1
  0
XRECORD
  5
8295
102
{ACAD_REACTORS
330
8294
102
}
330
8294
100
AcDbXrecord
280
     1
102
RTVSPost2010Prop28
280
     0
102
RTVSPost2010PropOp28
 70
     1
102
RTVSPost2010Prop29
280
     1
102
RTVSPost2010PropOp29
 70
     1
102
RTVSPost2010Prop30
280
     1
102
RTVSPost2010PropOp30
 70
     1
102
RTVSPost2010Prop31
280
     0
102
RTVSPost2010PropOp31
 70
     1
102
RTVSPost2010Prop32
280
     0
102
RTVSPost2010PropOp32
 70
     1
102
RTVSPost2010Prop33
280
     0
102
RTVSPost2010PropOp33
 70
     1
102
RTVSPost2010Prop34
280
     0
102
RTVSPost2010PropOp34
 70
     1
102
RTVSPost2010Prop35
280
     0
102
RTVSPost2010PropOp35
 70
     1
102
RTVSPost2010Prop36
280
     0
102
RTVSPost2010PropOp36
 70
     1
102
RTVSPost2010Prop37
 90
       50
102
RTVSPost2010PropOp37
 70
     1
102
RTVSPost2010Prop38
140
0.0
102
RTVSPost2010PropOp38
 70
     1
102
RTVSPost2010Prop39
140
1.0
102
RTVSPost2010PropOp39
 70
     1
102
RTVSPost2010Prop40
 90
        0
102
RTVSPost2010PropOp40
 70
     1
102
RTVSPost2010Prop41ColorIndex
 90
       18
102
RTVSPost2010Prop41ColorRGB
 90
        0
102
RTVSPost2010PropOp41
 70
     1
102
RTVSPost2010Prop42
 90
       50
102
RTVSPost2010PropOp42
 70
     1
102
RTVSPost2010Prop43
 90
        3
102
RTVSPost2010PropOp43
 70
     1
102
RTVSPost2010Prop44ColorIndex
 90
        5
102
RTVSPost2010Prop44ColorRGB
 90
      255
102
RTVSPost2010PropOp44
 70
     1
102
RTVSPost2010Prop45
280
     0
102
RTVSPost2010PropOp45
 70
     1
102
RTVSPost2010Prop46
 90
       50
102
RTVSPost2010PropOp46
 70
     1
102
RTVSPost2010Prop47
 90
       50
102
RTVSPost2010PropOp47
 70
     1
102
RTVSPost2010Prop48
 90
       50
102
RTVSPost2010PropOp48
 70
     1
102
RTVSPost2010Prop49
280
     0
102
RTVSPost2010PropOp49
 70
     1
102
RTVSPost2010Prop50
 90
       50
102
RTVSPost2010PropOp50
 70
     1
102
RTVSPost2010Prop51ColorIndex
 90
      256
102
RTVSPost2010Prop51ColorRGB
 90
-16777216
102
RTVSPost2010PropOp51
 70
     0
102
RTVSPost2010Prop52
140
1.0
102
RTVSPost2010PropOp52
 70
     0
102
RTVSPost2010Prop53
 90
        2
102
RTVSPost2010PropOp53
 70
     1
102
RTVSPost2010Prop54
  1
strokes_ogs.tif
102
RTVSPost2010PropOp54
 70
     1
102
RTVSPost2010Prop55
280
     0
102
RTVSPost2010PropOp55
 70
     1
102
RTVSPost2010Prop56
140
1.0
102
RTVSPost2010PropOp56
 70
     1
102
RTVSPost2010Prop57
140
1.0
102
RTVSPost2010PropOp57
 70
     1
102
RTVSPropertyOp0
 70
     1
102
RTVSPropertyOp1
 70
     1
102
RTVSPropertyOp2
 70
     1
102
RTVSPropertyOp3
 70
     1
102
RTVSPropertyOp4
 70
     1
102
RTVSPropertyOp5
 70
     1
102
RTVSPropertyOp6
 70
     1
102
RTVSPropertyOp7
 70
     1
102
RTVSPropertyOp8
 70
     1
102
RTVSPropertyOp9
 70
     1
102
RTVSPropertyOp10
 70
     1
102
RTVSPropertyOp11
 70
     1
102
RTVSPropertyOp12
 70
     1
102
RTVSPropertyOp13
 70
     1
102
RTVSPropertyOp14
 70
     1
102
RTVSPropertyOp15
 70
     1
102
RTVSPropertyOp16
 70
     1
102
RTVSPropertyOp17
 70
     1
102
RTVSPropertyOp18
 70
     1
102
RTVSPropertyOp19
 70
     1
102
RTVSPropertyOp20
 70
     1
102
RTVSPropertyOp21
 70
     1
102
RTVSPropertyOp22
 70
     1
102
RTVSPropertyOp23
 70
     1
102
RTVSPropertyOp24
 70
     1
102
RTVSPropertyOp25
 70
     1
102
RTVSPropertyOp26
 70
     1
102
RTVSPropertyOp27
 70
     1
102
RTVSPropertyOp28
 70
     1
102
RTVSPropertyOp29
 70
     1
102
RTVSPropertyOp30
 70
     1
102
RTVSPropertyOp31
 70
     1
102
RTVSPropertyOp32
 70
     1
102
RTVSPropertyOp33
 70
     1
102
RTVSPropertyOp34
 70
     1
102
RTVSPropertyOp35
 70
     1
102
RTVSPropertyOp36
 70
     1
102
RTVSPropertyOp37
 70
     1
102
RTVSPropertyOp38
 70
     1
102
RTVSPropertyOp39
 70
     1
102
RTVSPropertyOp40
 70
     1
102
RTVSPropertyOp41
 70
     1
102
RTVSPropertyOp42
 70
     1
102
RTVSPropertyOp43
 70
     1
102
RTVSPropertyOp44
 70
     1
102
RTVSPropertyOp45
 70
     1
102
RTVSPropertyOp46
 70
     1
102
RTVSPropertyOp47
 70
     1
102
RTVSPropertyOp48
 70
     1
102
RTVSPropertyOp49
 70
     1
102
RTVSPropertyOp50
 70
     1
102
RTVSPropertyOp51
 70
     0
102
RTVSPropertyOp52
 70
     0
102
RTVSPropertyOp53
 70
     1
102
RTVSPropertyOp54
 70
     1
102
RTVSPropertyOp55
 70
     1
102
RTVSPropertyOp56
 70
     1
102
RTVSPropertyOp57
 70
     1
102
RTVSPropertyOp58
 70
     1
102
RTVSPropertyOp59
 70
     1
102
RTVSPropertyOp60
 70
     1
102
RTVSPropertyOp61
 70
     1
102
RTVSPropertyOp62
 70
     1
  0
XRECORD
  5
82AF
102
{ACAD_REACTORS
330
82AE
102
}
330
82AE
100
AcDbXrecord
280
     1
102
RTVSPost2010Prop28
280
     0
102
RTVSPost2010PropOp28
 70
     1
102
RTVSPost2010Prop29
280
     1
102
RTVSPost2010PropOp29
 70
     1
102
RTVSPost2010Prop30
280
     1
102
RTVSPost2010PropOp30
 70
     1
102
RTVSPost2010Prop31
280
     0
102
RTVSPost2010PropOp31
 70
     1
102
RTVSPost2010Prop32
280
     0
102
RTVSPost2010PropOp32
 70
     1
102
RTVSPost2010Prop33
280
     0
102
RTVSPost2010PropOp33
 70
     1
102
RTVSPost2010Prop34
280
     0
102
RTVSPost2010PropOp34
 70
     1
102
RTVSPost2010Prop35
280
     0
102
RTVSPost2010PropOp35
 70
     1
102
RTVSPost2010Prop36
280
     0
102
RTVSPost2010PropOp36
 70
     1
102
RTVSPost2010Prop37
 90
       50
102
RTVSPost2010PropOp37
 70
     0
102
RTVSPost2010Prop38
140
0.0
102
RTVSPost2010PropOp38
 70
     0
102
RTVSPost2010Prop39
140
1.0
102
RTVSPost2010PropOp39
 70
     0
102
RTVSPost2010Prop40
 90
        0
102
RTVSPost2010PropOp40
 70
     0
102
RTVSPost2010Prop41ColorIndex
 90
       18
102
RTVSPost2010Prop41ColorRGB
 90
        0
102
RTVSPost2010PropOp41
 70
     0
102
RTVSPost2010Prop42
 90
       50
102
RTVSPost2010PropOp42
 70
     0
102
RTVSPost2010Prop43
 90
        3
102
RTVSPost2010PropOp43
 70
     0
102
RTVSPost2010Prop44ColorIndex
 90
        5
102
RTVSPost2010Prop44ColorRGB
 90
      255
102
RTVSPost2010PropOp44
 70
     0
102
RTVSPost2010Prop45
280
     0
102
RTVSPost2010PropOp45
 70
     1
102
RTVSPost2010Prop46
 90
       50
102
RTVSPost2010PropOp46
 70
     0
102
RTVSPost2010Prop47
 90
       50
102
RTVSPost2010PropOp47
 70
     0
102
RTVSPost2010Prop48
 90
       50
102
RTVSPost2010PropOp48
 70
     0
102
RTVSPost2010Prop49
280
     0
102
RTVSPost2010PropOp49
 70
     1
102
RTVSPost2010Prop50
 90
       50
102
RTVSPost2010PropOp50
 70
     0
102
RTVSPost2010Prop51ColorIndex
 90
      256
102
RTVSPost2010Prop51ColorRGB
 90
-16777216
102
RTVSPost2010PropOp51
 70
     0
102
RTVSPost2010Prop52
140
1.0
102
RTVSPost2010PropOp52
 70
     0
102
RTVSPost2010Prop53
 90
        2
102
RTVSPost2010PropOp53
 70
     0
102
RTVSPost2010Prop54
  1
strokes_ogs.tif
102
RTVSPost2010PropOp54
 70
     0
102
RTVSPost2010Prop55
280
     0
102
RTVSPost2010PropOp55
 70
     1
102
RTVSPost2010Prop56
140
1.0
102
RTVSPost2010PropOp56
 70
     0
102
RTVSPost2010Prop57
140
1.0
102
RTVSPost2010PropOp57
 70
     0
102
RTVSPropertyOp0
 70
     0
102
RTVSPropertyOp1
 70
     0
102
RTVSPropertyOp2
 70
     0
102
RTVSPropertyOp3
 70
     0
102
RTVSPropertyOp4
 70
     0
102
RTVSPropertyOp5
 70
     0
102
RTVSPropertyOp6
 70
     0
102
RTVSPropertyOp7
 70
     0
102
RTVSPropertyOp8
 70
     0
102
RTVSPropertyOp9
 70
     0
102
RTVSPropertyOp10
 70
     0
102
RTVSPropertyOp11
 70
     0
102
RTVSPropertyOp12
 70
     0
102
RTVSPropertyOp13
 70
     0
102
RTVSPropertyOp14
 70
     2
102
RTVSPropertyOp15
 70
     0
102
RTVSPropertyOp16
 70
     0
102
RTVSPropertyOp17
 70
     0
102
RTVSPropertyOp18
 70
     0
102
RTVSPropertyOp19
 70
     0
102
RTVSPropertyOp20
 70
     0
102
RTVSPropertyOp21
 70
     0
102
RTVSPropertyOp22
 70
     0
102
RTVSPropertyOp23
 70
     0
102
RTVSPropertyOp24
 70
     0
102
RTVSPropertyOp25
 70
     0
102
RTVSPropertyOp26
 70
     0
102
RTVSPropertyOp27
 70
     0
102
RTVSPropertyOp28
 70
     1
102
RTVSPropertyOp29
 70
     1
102
RTVSPropertyOp30
 70
     1
102
RTVSPropertyOp31
 70
     1
102
RTVSPropertyOp32
 70
     1
102
RTVSPropertyOp33
 70
     1
102
RTVSPropertyOp34
 70
     1
102
RTVSPropertyOp35
 70
     1
102
RTVSPropertyOp36
 70
     1
102
RTVSPropertyOp37
 70
     0
102
RTVSPropertyOp38
 70
     0
102
RTVSPropertyOp39
 70
     0
102
RTVSPropertyOp40
 70
     0
102
RTVSPropertyOp41
 70
     0
102
RTVSPropertyOp42
 70
     0
102
RTVSPropertyOp43
 70
     0
102
RTVSPropertyOp44
 70
     0
102
RTVSPropertyOp45
 70
     1
102
RTVSPropertyOp46
 70
     0
102
RTVSPropertyOp47
 70
     0
102
RTVSPropertyOp48
 70
     0
102
RTVSPropertyOp49
 70
     1
102
RTVSPropertyOp50
 70
     0
102
RTVSPropertyOp51
 70
     0
102
RTVSPropertyOp52
 70
     0
102
RTVSPropertyOp53
 70
     0
102
RTVSPropertyOp54
 70
     0
102
RTVSPropertyOp55
 70
     1
102
RTVSPropertyOp56
 70
     0
102
RTVSPropertyOp57
 70
     0
102
RTVSPropertyOp58
 70
     0
102
RTVSPropertyOp59
 70
     0
102
RTVSPropertyOp60
 70
     0
102
RTVSPropertyOp61
 70
     0
102
RTVSPropertyOp62
 70
     0
  0
XRECORD
  5
829D
102
{ACAD_REACTORS
330
829C
102
}
330
829C
100
AcDbXrecord
280
     1
102
RTVSPost2010Prop28
280
     0
102
RTVSPost2010PropOp28
 70
     1
102
RTVSPost2010Prop29
280
     1
102
RTVSPost2010PropOp29
 70
     1
102
RTVSPost2010Prop30
280
     1
102
RTVSPost2010PropOp30
 70
     1
102
RTVSPost2010Prop31
280
     0
102
RTVSPost2010PropOp31
 70
     1
102
RTVSPost2010Prop32
280
     0
102
RTVSPost2010PropOp32
 70
     1
102
RTVSPost2010Prop33
280
     0
102
RTVSPost2010PropOp33
 70
     1
102
RTVSPost2010Prop34
280
     0
102
RTVSPost2010PropOp34
 70
     1
102
RTVSPost2010Prop35
280
     0
102
RTVSPost2010PropOp35
 70
     1
102
RTVSPost2010Prop36
280
     0
102
RTVSPost2010PropOp36
 70
     1
102
RTVSPost2010Prop37
 90
       50
102
RTVSPost2010PropOp37
 70
     1
102
RTVSPost2010Prop38
140
0.0
102
RTVSPost2010PropOp38
 70
     1
102
RTVSPost2010Prop39
140
1.0
102
RTVSPost2010PropOp39
 70
     1
102
RTVSPost2010Prop40
 90
        0
102
RTVSPost2010PropOp40
 70
     1
102
RTVSPost2010Prop41ColorIndex
 90
       18
102
RTVSPost2010Prop41ColorRGB
 90
        0
102
RTVSPost2010PropOp41
 70
     1
102
RTVSPost2010Prop42
 90
       50
102
RTVSPost2010PropOp42
 70
     1
102
RTVSPost2010Prop43
 90
        3
102
RTVSPost2010PropOp43
 70
     1
102
RTVSPost2010Prop44ColorIndex
 90
        5
102
RTVSPost2010Prop44ColorRGB
 90
      255
102
RTVSPost2010PropOp44
 70
     1
102
RTVSPost2010Prop45
280
     0
102
RTVSPost2010PropOp45
 70
     1
102
RTVSPost2010Prop46
 90
       50
102
RTVSPost2010PropOp46
 70
     1
102
RTVSPost2010Prop47
 90
       50
102
RTVSPost2010PropOp47
 70
     1
102
RTVSPost2010Prop48
 90
       50
102
RTVSPost2010PropOp48
 70
     1
102
RTVSPost2010Prop49
280
     0
102
RTVSPost2010PropOp49
 70
     1
102
RTVSPost2010Prop50
 90
       50
102
RTVSPost2010PropOp50
 70
     1
102
RTVSPost2010Prop51ColorIndex
 90
      256
102
RTVSPost2010Prop51ColorRGB
 90
-16777216
102
RTVSPost2010PropOp51
 70
     0
102
RTVSPost2010Prop52
140
1.0
102
RTVSPost2010PropOp52
 70
     0
102
RTVSPost2010Prop53
 90
        2
102
RTVSPost2010PropOp53
 70
     1
102
RTVSPost2010Prop54
  1
strokes_ogs.tif
102
RTVSPost2010PropOp54
 70
     1
102
RTVSPost2010Prop55
280
     0
102
RTVSPost2010PropOp55
 70
     1
102
RTVSPost2010Prop56
140
1.0
102
RTVSPost2010PropOp56
 70
     1
102
RTVSPost2010Prop57
140
1.0
102
RTVSPost2010PropOp57
 70
     1
102
RTVSPropertyOp0
 70
     1
102
RTVSPropertyOp1
 70
     1
102
RTVSPropertyOp2
 70
     1
102
RTVSPropertyOp3
 70
     1
102
RTVSPropertyOp4
 70
     1
102
RTVSPropertyOp5
 70
     1
102
RTVSPropertyOp6
 70
     1
102
RTVSPropertyOp7
 70
     1
102
RTVSPropertyOp8
 70
     1
102
RTVSPropertyOp9
 70
     1
102
RTVSPropertyOp10
 70
     1
102
RTVSPropertyOp11
 70
     1
102
RTVSPropertyOp12
 70
     1
102
RTVSPropertyOp13
 70
     1
102
RTVSPropertyOp14
 70
     1
102
RTVSPropertyOp15
 70
     1
102
RTVSPropertyOp16
 70
     1
102
RTVSPropertyOp17
 70
     1
102
RTVSPropertyOp18
 70
     1
102
RTVSPropertyOp19
 70
     1
102
RTVSPropertyOp20
 70
     1
102
RTVSPropertyOp21
 70
     1
102
RTVSPropertyOp22
 70
     1
102
RTVSPropertyOp23
 70
     1
102
RTVSPropertyOp24
 70
     1
102
RTVSPropertyOp25
 70
     1
102
RTVSPropertyOp26
 70
     1
102
RTVSPropertyOp27
 70
     1
102
RTVSPropertyOp28
 70
     1
102
RTVSPropertyOp29
 70
     1
102
RTVSPropertyOp30
 70
     1
102
RTVSPropertyOp31
 70
     1
102
RTVSPropertyOp32
 70
     1
102
RTVSPropertyOp33
 70
     1
102
RTVSPropertyOp34
 70
     1
102
RTVSPropertyOp35
 70
     1
102
RTVSPropertyOp36
 70
     1
102
RTVSPropertyOp37
 70
     1
102
RTVSPropertyOp38
 70
     1
102
RTVSPropertyOp39
 70
     1
102
RTVSPropertyOp40
 70
     1
102
RTVSPropertyOp41
 70
     1
102
RTVSPropertyOp42
 70
     1
102
RTVSPropertyOp43
 70
     1
102
RTVSPropertyOp44
 70
     1
102
RTVSPropertyOp45
 70
     1
102
RTVSPropertyOp46
 70
     1
102
RTVSPropertyOp47
 70
     1
102
RTVSPropertyOp48
 70
     1
102
RTVSPropertyOp49
 70
     1
102
RTVSPropertyOp50
 70
     1
102
RTVSPropertyOp51
 70
     0
102
RTVSPropertyOp52
 70
     0
102
RTVSPropertyOp53
 70
     1
102
RTVSPropertyOp54
 70
     1
102
RTVSPropertyOp55
 70
     1
102
RTVSPropertyOp56
 70
     1
102
RTVSPropertyOp57
 70
     1
102
RTVSPropertyOp58
 70
     1
102
RTVSPropertyOp59
 70
     1
102
RTVSPropertyOp60
 70
     1
102
RTVSPropertyOp61
 70
     1
102
RTVSPropertyOp62
 70
     1
  0
XRECORD
  5
8281
102
{ACAD_REACTORS
330
8280
102
}
330
8280
100
AcDbXrecord
280
     1
102
RTVSPost2010Prop28
280
     0
102
RTVSPost2010PropOp28
 70
     1
102
RTVSPost2010Prop29
280
     1
102
RTVSPost2010PropOp29
 70
     1
102
RTVSPost2010Prop30
280
     1
102
RTVSPost2010PropOp30
 70
     1
102
RTVSPost2010Prop31
280
     0
102
RTVSPost2010PropOp31
 70
     1
102
RTVSPost2010Prop32
280
     0
102
RTVSPost2010PropOp32
 70
     1
102
RTVSPost2010Prop33
280
     0
102
RTVSPost2010PropOp33
 70
     1
102
RTVSPost2010Prop34
280
     0
102
RTVSPost2010PropOp34
 70
     1
102
RTVSPost2010Prop35
280
     0
102
RTVSPost2010PropOp35
 70
     1
102
RTVSPost2010Prop36
280
     0
102
RTVSPost2010PropOp36
 70
     1
102
RTVSPost2010Prop37
 90
       50
102
RTVSPost2010PropOp37
 70
     1
102
RTVSPost2010Prop38
140
0.0
102
RTVSPost2010PropOp38
 70
     1
102
RTVSPost2010Prop39
140
1.0
102
RTVSPost2010PropOp39
 70
     1
102
RTVSPost2010Prop40
 90
        0
102
RTVSPost2010PropOp40
 70
     1
102
RTVSPost2010Prop41ColorIndex
 90
       18
102
RTVSPost2010Prop41ColorRGB
 90
        0
102
RTVSPost2010PropOp41
 70
     1
102
RTVSPost2010Prop42
 90
       50
102
RTVSPost2010PropOp42
 70
     1
102
RTVSPost2010Prop43
 90
        3
102
RTVSPost2010PropOp43
 70
     1
102
RTVSPost2010Prop44ColorIndex
 90
        5
102
RTVSPost2010Prop44ColorRGB
 90
      255
102
RTVSPost2010PropOp44
 70
     1
102
RTVSPost2010Prop45
280
     0
102
RTVSPost2010PropOp45
 70
     1
102
RTVSPost2010Prop46
 90
       50
102
RTVSPost2010PropOp46
 70
     1
102
RTVSPost2010Prop47
 90
       50
102
RTVSPost2010PropOp47
 70
     1
102
RTVSPost2010Prop48
 90
       50
102
RTVSPost2010PropOp48
 70
     1
102
RTVSPost2010Prop49
280
     0
102
RTVSPost2010PropOp49
 70
     1
102
RTVSPost2010Prop50
 90
       50
102
RTVSPost2010PropOp50
 70
     1
102
RTVSPost2010Prop51ColorIndex
 90
      256
102
RTVSPost2010Prop51ColorRGB
 90
-16777216
102
RTVSPost2010PropOp51
 70
     0
102
RTVSPost2010Prop52
140
1.0
102
RTVSPost2010PropOp52
 70
     0
102
RTVSPost2010Prop53
 90
        2
102
RTVSPost2010PropOp53
 70
     1
102
RTVSPost2010Prop54
  1
strokes_ogs.tif
102
RTVSPost2010PropOp54
 70
     1
102
RTVSPost2010Prop55
280
     0
102
RTVSPost2010PropOp55
 70
     1
102
RTVSPost2010Prop56
140
1.0
102
RTVSPost2010PropOp56
 70
     1
102
RTVSPost2010Prop57
140
1.0
102
RTVSPost2010PropOp57
 70
     1
102
RTVSPropertyOp0
 70
     1
102
RTVSPropertyOp1
 70
     1
102
RTVSPropertyOp2
 70
     1
102
RTVSPropertyOp3
 70
     1
102
RTVSPropertyOp4
 70
     1
102
RTVSPropertyOp5
 70
     1
102
RTVSPropertyOp6
 70
     1
102
RTVSPropertyOp7
 70
     1
102
RTVSPropertyOp8
 70
     1
102
RTVSPropertyOp9
 70
     1
102
RTVSPropertyOp10
 70
     1
102
RTVSPropertyOp11
 70
     1
102
RTVSPropertyOp12
 70
     1
102
RTVSPropertyOp13
 70
     1
102
RTVSPropertyOp14
 70
     1
102
RTVSPropertyOp15
 70
     1
102
RTVSPropertyOp16
 70
     1
102
RTVSPropertyOp17
 70
     1
102
RTVSPropertyOp18
 70
     1
102
RTVSPropertyOp19
 70
     1
102
RTVSPropertyOp20
 70
     1
102
RTVSPropertyOp21
 70
     1
102
RTVSPropertyOp22
 70
     1
102
RTVSPropertyOp23
 70
     1
102
RTVSPropertyOp24
 70
     1
102
RTVSPropertyOp25
 70
     1
102
RTVSPropertyOp26
 70
     1
102
RTVSPropertyOp27
 70
     1
102
RTVSPropertyOp28
 70
     1
102
RTVSPropertyOp29
 70
     1
102
RTVSPropertyOp30
 70
     1
102
RTVSPropertyOp31
 70
     1
102
RTVSPropertyOp32
 70
     1
102
RTVSPropertyOp33
 70
     1
102
RTVSPropertyOp34
 70
     1
102
RTVSPropertyOp35
 70
     1
102
RTVSPropertyOp36
 70
     1
102
RTVSPropertyOp37
 70
     1
102
RTVSPropertyOp38
 70
     1
102
RTVSPropertyOp39
 70
     1
102
RTVSPropertyOp40
 70
     1
102
RTVSPropertyOp41
 70
     1
102
RTVSPropertyOp42
 70
     1
102
RTVSPropertyOp43
 70
     1
102
RTVSPropertyOp44
 70
     1
102
RTVSPropertyOp45
 70
     1
102
RTVSPropertyOp46
 70
     1
102
RTVSPropertyOp47
 70
     1
102
RTVSPropertyOp48
 70
     1
102
RTVSPropertyOp49
 70
     1
102
RTVSPropertyOp50
 70
     1
102
RTVSPropertyOp51
 70
     0
102
RTVSPropertyOp52
 70
     0
102
RTVSPropertyOp53
 70
     1
102
RTVSPropertyOp54
 70
     1
102
RTVSPropertyOp55
 70
     1
102
RTVSPropertyOp56
 70
     1
102
RTVSPropertyOp57
 70
     1
102
RTVSPropertyOp58
 70
     1
102
RTVSPropertyOp59
 70
     1
102
RTVSPropertyOp60
 70
     1
102
RTVSPropertyOp61
 70
     1
102
RTVSPropertyOp62
 70
     1
  0
XRECORD
  5
8283
102
{ACAD_REACTORS
330
8282
102
}
330
8282
100
AcDbXrecord
280
     1
102
RTVSPost2010Prop28
280
     0
102
RTVSPost2010PropOp28
 70
     1
102
RTVSPost2010Prop29
280
     1
102
RTVSPost2010PropOp29
 70
     1
102
RTVSPost2010Prop30
280
     1
102
RTVSPost2010PropOp30
 70
     1
102
RTVSPost2010Prop31
280
     0
102
RTVSPost2010PropOp31
 70
     1
102
RTVSPost2010Prop32
280
     0
102
RTVSPost2010PropOp32
 70
     1
102
RTVSPost2010Prop33
280
     0
102
RTVSPost2010PropOp33
 70
     1
102
RTVSPost2010Prop34
280
     0
102
RTVSPost2010PropOp34
 70
     1
102
RTVSPost2010Prop35
280
     0
102
RTVSPost2010PropOp35
 70
     1
102
RTVSPost2010Prop36
280
     0
102
RTVSPost2010PropOp36
 70
     1
102
RTVSPost2010Prop37
 90
       50
102
RTVSPost2010PropOp37
 70
     1
102
RTVSPost2010Prop38
140
0.0
102
RTVSPost2010PropOp38
 70
     1
102
RTVSPost2010Prop39
140
1.0
102
RTVSPost2010PropOp39
 70
     1
102
RTVSPost2010Prop40
 90
        0
102
RTVSPost2010PropOp40
 70
     1
102
RTVSPost2010Prop41ColorIndex
 90
       18
102
RTVSPost2010Prop41ColorRGB
 90
        0
102
RTVSPost2010PropOp41
 70
     1
102
RTVSPost2010Prop42
 90
       50
102
RTVSPost2010PropOp42
 70
     1
102
RTVSPost2010Prop43
 90
        3
102
RTVSPost2010PropOp43
 70
     1
102
RTVSPost2010Prop44ColorIndex
 90
        5
102
RTVSPost2010Prop44ColorRGB
 90
      255
102
RTVSPost2010PropOp44
 70
     1
102
RTVSPost2010Prop45
280
     0
102
RTVSPost2010PropOp45
 70
     1
102
RTVSPost2010Prop46
 90
       50
102
RTVSPost2010PropOp46
 70
     1
102
RTVSPost2010Prop47
 90
       50
102
RTVSPost2010PropOp47
 70
     1
102
RTVSPost2010Prop48
 90
       50
102
RTVSPost2010PropOp48
 70
     1
102
RTVSPost2010Prop49
280
     0
102
RTVSPost2010PropOp49
 70
     1
102
RTVSPost2010Prop50
 90
       50
102
RTVSPost2010PropOp50
 70
     1
102
RTVSPost2010Prop51ColorIndex
 90
      256
102
RTVSPost2010Prop51ColorRGB
 90
-16777216
102
RTVSPost2010PropOp51
 70
     0
102
RTVSPost2010Prop52
140
1.0
102
RTVSPost2010PropOp52
 70
     0
102
RTVSPost2010Prop53
 90
        2
102
RTVSPost2010PropOp53
 70
     1
102
RTVSPost2010Prop54
  1
strokes_ogs.tif
102
RTVSPost2010PropOp54
 70
     1
102
RTVSPost2010Prop55
280
     0
102
RTVSPost2010PropOp55
 70
     1
102
RTVSPost2010Prop56
140
1.0
102
RTVSPost2010PropOp56
 70
     1
102
RTVSPost2010Prop57
140
1.0
102
RTVSPost2010PropOp57
 70
     1
102
RTVSPropertyOp0
 70
     1
102
RTVSPropertyOp1
 70
     1
102
RTVSPropertyOp2
 70
     1
102
RTVSPropertyOp3
 70
     1
102
RTVSPropertyOp4
 70
     1
102
RTVSPropertyOp5
 70
     1
102
RTVSPropertyOp6
 70
     1
102
RTVSPropertyOp7
 70
     1
102
RTVSPropertyOp8
 70
     1
102
RTVSPropertyOp9
 70
     1
102
RTVSPropertyOp10
 70
     1
102
RTVSPropertyOp11
 70
     1
102
RTVSPropertyOp12
 70
     1
102
RTVSPropertyOp13
 70
     1
102
RTVSPropertyOp14
 70
     1
102
RTVSPropertyOp15
 70
     1
102
RTVSPropertyOp16
 70
     1
102
RTVSPropertyOp17
 70
     1
102
RTVSPropertyOp18
 70
     1
102
RTVSPropertyOp19
 70
     1
102
RTVSPropertyOp20
 70
     1
102
RTVSPropertyOp21
 70
     1
102
RTVSPropertyOp22
 70
     1
102
RTVSPropertyOp23
 70
     1
102
RTVSPropertyOp24
 70
     1
102
RTVSPropertyOp25
 70
     1
102
RTVSPropertyOp26
 70
     1
102
RTVSPropertyOp27
 70
     1
102
RTVSPropertyOp28
 70
     1
102
RTVSPropertyOp29
 70
     1
102
RTVSPropertyOp30
 70
     1
102
RTVSPropertyOp31
 70
     1
102
RTVSPropertyOp32
 70
     1
102
RTVSPropertyOp33
 70
     1
102
RTVSPropertyOp34
 70
     1
102
RTVSPropertyOp35
 70
     1
102
RTVSPropertyOp36
 70
     1
102
RTVSPropertyOp37
 70
     1
102
RTVSPropertyOp38
 70
     1
102
RTVSPropertyOp39
 70
     1
102
RTVSPropertyOp40
 70
     1
102
RTVSPropertyOp41
 70
     1
102
RTVSPropertyOp42
 70
     1
102
RTVSPropertyOp43
 70
     1
102
RTVSPropertyOp44
 70
     1
102
RTVSPropertyOp45
 70
     1
102
RTVSPropertyOp46
 70
     1
102
RTVSPropertyOp47
 70
     1
102
RTVSPropertyOp48
 70
     1
102
RTVSPropertyOp49
 70
     1
102
RTVSPropertyOp50
 70
     1
102
RTVSPropertyOp51
 70
     0
102
RTVSPropertyOp52
 70
     0
102
RTVSPropertyOp53
 70
     1
102
RTVSPropertyOp54
 70
     1
102
RTVSPropertyOp55
 70
     1
102
RTVSPropertyOp56
 70
     1
102
RTVSPropertyOp57
 70
     1
102
RTVSPropertyOp58
 70
     1
102
RTVSPropertyOp59
 70
     1
102
RTVSPropertyOp60
 70
     1
102
RTVSPropertyOp61
 70
     1
102
RTVSPropertyOp62
 70
     1
  0
XRECORD
  5
8285
102
{ACAD_REACTORS
330
8284
102
}
330
8284
100
AcDbXrecord
280
     1
102
RTVSPost2010Prop28
280
     0
102
RTVSPost2010PropOp28
 70
     1
102
RTVSPost2010Prop29
280
     1
102
RTVSPost2010PropOp29
 70
     1
102
RTVSPost2010Prop30
280
     1
102
RTVSPost2010PropOp30
 70
     1
102
RTVSPost2010Prop31
280
     0
102
RTVSPost2010PropOp31
 70
     1
102
RTVSPost2010Prop32
280
     0
102
RTVSPost2010PropOp32
 70
     1
102
RTVSPost2010Prop33
280
     0
102
RTVSPost2010PropOp33
 70
     1
102
RTVSPost2010Prop34
280
     0
102
RTVSPost2010PropOp34
 70
     1
102
RTVSPost2010Prop35
280
     0
102
RTVSPost2010PropOp35
 70
     1
102
RTVSPost2010Prop36
280
     0
102
RTVSPost2010PropOp36
 70
     1
102
RTVSPost2010Prop37
 90
       50
102
RTVSPost2010PropOp37
 70
     1
102
RTVSPost2010Prop38
140
0.0
102
RTVSPost2010PropOp38
 70
     1
102
RTVSPost2010Prop39
140
1.0
102
RTVSPost2010PropOp39
 70
     1
102
RTVSPost2010Prop40
 90
        0
102
RTVSPost2010PropOp40
 70
     1
102
RTVSPost2010Prop41ColorIndex
 90
       18
102
RTVSPost2010Prop41ColorRGB
 90
        0
102
RTVSPost2010PropOp41
 70
     1
102
RTVSPost2010Prop42
 90
       50
102
RTVSPost2010PropOp42
 70
     1
102
RTVSPost2010Prop43
 90
        3
102
RTVSPost2010PropOp43
 70
     1
102
RTVSPost2010Prop44ColorIndex
 90
        5
102
RTVSPost2010Prop44ColorRGB
 90
      255
102
RTVSPost2010PropOp44
 70
     1
102
RTVSPost2010Prop45
280
     0
102
RTVSPost2010PropOp45
 70
     1
102
RTVSPost2010Prop46
 90
       50
102
RTVSPost2010PropOp46
 70
     1
102
RTVSPost2010Prop47
 90
       50
102
RTVSPost2010PropOp47
 70
     1
102
RTVSPost2010Prop48
 90
       50
102
RTVSPost2010PropOp48
 70
     1
102
RTVSPost2010Prop49
280
     0
102
RTVSPost2010PropOp49
 70
     1
102
RTVSPost2010Prop50
 90
       50
102
RTVSPost2010PropOp50
 70
     1
102
RTVSPost2010Prop51ColorIndex
 90
      256
102
RTVSPost2010Prop51ColorRGB
 90
-16777216
102
RTVSPost2010PropOp51
 70
     0
102
RTVSPost2010Prop52
140
1.0
102
RTVSPost2010PropOp52
 70
     0
102
RTVSPost2010Prop53
 90
        2
102
RTVSPost2010PropOp53
 70
     1
102
RTVSPost2010Prop54
  1
strokes_ogs.tif
102
RTVSPost2010PropOp54
 70
     1
102
RTVSPost2010Prop55
280
     0
102
RTVSPost2010PropOp55
 70
     1
102
RTVSPost2010Prop56
140
1.0
102
RTVSPost2010PropOp56
 70
     1
102
RTVSPost2010Prop57
140
1.0
102
RTVSPost2010PropOp57
 70
     1
102
RTVSPropertyOp0
 70
     1
102
RTVSPropertyOp1
 70
     1
102
RTVSPropertyOp2
 70
     1
102
RTVSPropertyOp3
 70
     1
102
RTVSPropertyOp4
 70
     1
102
RTVSPropertyOp5
 70
     1
102
RTVSPropertyOp6
 70
     1
102
RTVSPropertyOp7
 70
     1
102
RTVSPropertyOp8
 70
     1
102
RTVSPropertyOp9
 70
     1
102
RTVSPropertyOp10
 70
     1
102
RTVSPropertyOp11
 70
     1
102
RTVSPropertyOp12
 70
     1
102
RTVSPropertyOp13
 70
     1
102
RTVSPropertyOp14
 70
     1
102
RTVSPropertyOp15
 70
     1
102
RTVSPropertyOp16
 70
     1
102
RTVSPropertyOp17
 70
     1
102
RTVSPropertyOp18
 70
     1
102
RTVSPropertyOp19
 70
     1
102
RTVSPropertyOp20
 70
     1
102
RTVSPropertyOp21
 70
     1
102
RTVSPropertyOp22
 70
     1
102
RTVSPropertyOp23
 70
     1
102
RTVSPropertyOp24
 70
     1
102
RTVSPropertyOp25
 70
     1
102
RTVSPropertyOp26
 70
     1
102
RTVSPropertyOp27
 70
     1
102
RTVSPropertyOp28
 70
     1
102
RTVSPropertyOp29
 70
     1
102
RTVSPropertyOp30
 70
     1
102
RTVSPropertyOp31
 70
     1
102
RTVSPropertyOp32
 70
     1
102
RTVSPropertyOp33
 70
     1
102
RTVSPropertyOp34
 70
     1
102
RTVSPropertyOp35
 70
     1
102
RTVSPropertyOp36
 70
     1
102
RTVSPropertyOp37
 70
     1
102
RTVSPropertyOp38
 70
     1
102
RTVSPropertyOp39
 70
     1
102
RTVSPropertyOp40
 70
     1
102
RTVSPropertyOp41
 70
     1
102
RTVSPropertyOp42
 70
     1
102
RTVSPropertyOp43
 70
     1
102
RTVSPropertyOp44
 70
     1
102
RTVSPropertyOp45
 70
     1
102
RTVSPropertyOp46
 70
     1
102
RTVSPropertyOp47
 70
     1
102
RTVSPropertyOp48
 70
     1
102
RTVSPropertyOp49
 70
     1
102
RTVSPropertyOp50
 70
     1
102
RTVSPropertyOp51
 70
     0
102
RTVSPropertyOp52
 70
     0
102
RTVSPropertyOp53
 70
     1
102
RTVSPropertyOp54
 70
     1
102
RTVSPropertyOp55
 70
     1
102
RTVSPropertyOp56
 70
     1
102
RTVSPropertyOp57
 70
     1
102
RTVSPropertyOp58
 70
     1
102
RTVSPropertyOp59
 70
     1
102
RTVSPropertyOp60
 70
     1
102
RTVSPropertyOp61
 70
     1
102
RTVSPropertyOp62
 70
     1
  0
XRECORD
  5
8287
102
{ACAD_REACTORS
330
8286
102
}
330
8286
100
AcDbXrecord
280
     1
102
RTVSPost2010Prop28
280
     0
102
RTVSPost2010PropOp28
 70
     1
102
RTVSPost2010Prop29
280
     1
102
RTVSPost2010PropOp29
 70
     1
102
RTVSPost2010Prop30
280
     1
102
RTVSPost2010PropOp30
 70
     1
102
RTVSPost2010Prop31
280
     0
102
RTVSPost2010PropOp31
 70
     1
102
RTVSPost2010Prop32
280
     0
102
RTVSPost2010PropOp32
 70
     1
102
RTVSPost2010Prop33
280
     0
102
RTVSPost2010PropOp33
 70
     1
102
RTVSPost2010Prop34
280
     0
102
RTVSPost2010PropOp34
 70
     1
102
RTVSPost2010Prop35
280
     0
102
RTVSPost2010PropOp35
 70
     1
102
RTVSPost2010Prop36
280
     0
102
RTVSPost2010PropOp36
 70
     1
102
RTVSPost2010Prop37
 90
       50
102
RTVSPost2010PropOp37
 70
     1
102
RTVSPost2010Prop38
140
0.0
102
RTVSPost2010PropOp38
 70
     1
102
RTVSPost2010Prop39
140
1.0
102
RTVSPost2010PropOp39
 70
     1
102
RTVSPost2010Prop40
 90
        0
102
RTVSPost2010PropOp40
 70
     1
102
RTVSPost2010Prop41ColorIndex
 90
       18
102
RTVSPost2010Prop41ColorRGB
 90
        0
102
RTVSPost2010PropOp41
 70
     1
102
RTVSPost2010Prop42
 90
       50
102
RTVSPost2010PropOp42
 70
     1
102
RTVSPost2010Prop43
 90
        3
102
RTVSPost2010PropOp43
 70
     1
102
RTVSPost2010Prop44ColorIndex
 90
        5
102
RTVSPost2010Prop44ColorRGB
 90
      255
102
RTVSPost2010PropOp44
 70
     1
102
RTVSPost2010Prop45
280
     0
102
RTVSPost2010PropOp45
 70
     1
102
RTVSPost2010Prop46
 90
       50
102
RTVSPost2010PropOp46
 70
     1
102
RTVSPost2010Prop47
 90
       50
102
RTVSPost2010PropOp47
 70
     1
102
RTVSPost2010Prop48
 90
       50
102
RTVSPost2010PropOp48
 70
     1
102
RTVSPost2010Prop49
280
     0
102
RTVSPost2010PropOp49
 70
     1
102
RTVSPost2010Prop50
 90
       50
102
RTVSPost2010PropOp50
 70
     1
102
RTVSPost2010Prop51ColorIndex
 90
      256
102
RTVSPost2010Prop51ColorRGB
 90
-16777216
102
RTVSPost2010PropOp51
 70
     0
102
RTVSPost2010Prop52
140
1.0
102
RTVSPost2010PropOp52
 70
     0
102
RTVSPost2010Prop53
 90
        2
102
RTVSPost2010PropOp53
 70
     1
102
RTVSPost2010Prop54
  1
strokes_ogs.tif
102
RTVSPost2010PropOp54
 70
     1
102
RTVSPost2010Prop55
280
     0
102
RTVSPost2010PropOp55
 70
     1
102
RTVSPost2010Prop56
140
1.0
102
RTVSPost2010PropOp56
 70
     1
102
RTVSPost2010Prop57
140
1.0
102
RTVSPost2010PropOp57
 70
     1
102
RTVSPropertyOp0
 70
     1
102
RTVSPropertyOp1
 70
     1
102
RTVSPropertyOp2
 70
     1
102
RTVSPropertyOp3
 70
     1
102
RTVSPropertyOp4
 70
     1
102
RTVSPropertyOp5
 70
     1
102
RTVSPropertyOp6
 70
     1
102
RTVSPropertyOp7
 70
     1
102
RTVSPropertyOp8
 70
     1
102
RTVSPropertyOp9
 70
     1
102
RTVSPropertyOp10
 70
     1
102
RTVSPropertyOp11
 70
     1
102
RTVSPropertyOp12
 70
     1
102
RTVSPropertyOp13
 70
     1
102
RTVSPropertyOp14
 70
     1
102
RTVSPropertyOp15
 70
     1
102
RTVSPropertyOp16
 70
     1
102
RTVSPropertyOp17
 70
     1
102
RTVSPropertyOp18
 70
     1
102
RTVSPropertyOp19
 70
     1
102
RTVSPropertyOp20
 70
     1
102
RTVSPropertyOp21
 70
     1
102
RTVSPropertyOp22
 70
     1
102
RTVSPropertyOp23
 70
     1
102
RTVSPropertyOp24
 70
     1
102
RTVSPropertyOp25
 70
     1
102
RTVSPropertyOp26
 70
     1
102
RTVSPropertyOp27
 70
     1
102
RTVSPropertyOp28
 70
     1
102
RTVSPropertyOp29
 70
     1
102
RTVSPropertyOp30
 70
     1
102
RTVSPropertyOp31
 70
     1
102
RTVSPropertyOp32
 70
     1
102
RTVSPropertyOp33
 70
     1
102
RTVSPropertyOp34
 70
     1
102
RTVSPropertyOp35
 70
     1
102
RTVSPropertyOp36
 70
     1
102
RTVSPropertyOp37
 70
     1
102
RTVSPropertyOp38
 70
     1
102
RTVSPropertyOp39
 70
     1
102
RTVSPropertyOp40
 70
     1
102
RTVSPropertyOp41
 70
     1
102
RTVSPropertyOp42
 70
     1
102
RTVSPropertyOp43
 70
     1
102
RTVSPropertyOp44
 70
     1
102
RTVSPropertyOp45
 70
     1
102
RTVSPropertyOp46
 70
     1
102
RTVSPropertyOp47
 70
     1
102
RTVSPropertyOp48
 70
     1
102
RTVSPropertyOp49
 70
     1
102
RTVSPropertyOp50
 70
     1
102
RTVSPropertyOp51
 70
     0
102
RTVSPropertyOp52
 70
     0
102
RTVSPropertyOp53
 70
     1
102
RTVSPropertyOp54
 70
     1
102
RTVSPropertyOp55
 70
     1
102
RTVSPropertyOp56
 70
     1
102
RTVSPropertyOp57
 70
     1
102
RTVSPropertyOp58
 70
     1
102
RTVSPropertyOp59
 70
     1
102
RTVSPropertyOp60
 70
     1
102
RTVSPropertyOp61
 70
     1
102
RTVSPropertyOp62
 70
     1
  0
XRECORD
  5
828F
102
{ACAD_REACTORS
330
828E
102
}
330
828E
100
AcDbXrecord
280
     1
102
RTVSPost2010Prop28
280
     0
102
RTVSPost2010PropOp28
 70
     1
102
RTVSPost2010Prop29
280
     1
102
RTVSPost2010PropOp29
 70
     1
102
RTVSPost2010Prop30
280
     1
102
RTVSPost2010PropOp30
 70
     1
102
RTVSPost2010Prop31
280
     0
102
RTVSPost2010PropOp31
 70
     1
102
RTVSPost2010Prop32
280
     0
102
RTVSPost2010PropOp32
 70
     1
102
RTVSPost2010Prop33
280
     0
102
RTVSPost2010PropOp33
 70
     1
102
RTVSPost2010Prop34
280
     0
102
RTVSPost2010PropOp34
 70
     1
102
RTVSPost2010Prop35
280
     0
102
RTVSPost2010PropOp35
 70
     1
102
RTVSPost2010Prop36
280
     0
102
RTVSPost2010PropOp36
 70
     1
102
RTVSPost2010Prop37
 90
       50
102
RTVSPost2010PropOp37
 70
     1
102
RTVSPost2010Prop38
140
0.0
102
RTVSPost2010PropOp38
 70
     1
102
RTVSPost2010Prop39
140
1.0
102
RTVSPost2010PropOp39
 70
     1
102
RTVSPost2010Prop40
 90
        0
102
RTVSPost2010PropOp40
 70
     1
102
RTVSPost2010Prop41ColorIndex
 90
       18
102
RTVSPost2010Prop41ColorRGB
 90
        0
102
RTVSPost2010PropOp41
 70
     1
102
RTVSPost2010Prop42
 90
       50
102
RTVSPost2010PropOp42
 70
     1
102
RTVSPost2010Prop43
 90
        3
102
RTVSPost2010PropOp43
 70
     1
102
RTVSPost2010Prop44ColorIndex
 90
        5
102
RTVSPost2010Prop44ColorRGB
 90
      255
102
RTVSPost2010PropOp44
 70
     1
102
RTVSPost2010Prop45
280
     0
102
RTVSPost2010PropOp45
 70
     1
102
RTVSPost2010Prop46
 90
       50
102
RTVSPost2010PropOp46
 70
     1
102
RTVSPost2010Prop47
 90
       50
102
RTVSPost2010PropOp47
 70
     1
102
RTVSPost2010Prop48
 90
       50
102
RTVSPost2010PropOp48
 70
     1
102
RTVSPost2010Prop49
280
     0
102
RTVSPost2010PropOp49
 70
     1
102
RTVSPost2010Prop50
 90
       50
102
RTVSPost2010PropOp50
 70
     1
102
RTVSPost2010Prop51ColorIndex
 90
      256
102
RTVSPost2010Prop51ColorRGB
 90
-16777216
102
RTVSPost2010PropOp51
 70
     0
102
RTVSPost2010Prop52
140
1.0
102
RTVSPost2010PropOp52
 70
     0
102
RTVSPost2010Prop53
 90
        2
102
RTVSPost2010PropOp53
 70
     1
102
RTVSPost2010Prop54
  1
strokes_ogs.tif
102
RTVSPost2010PropOp54
 70
     1
102
RTVSPost2010Prop55
280
     0
102
RTVSPost2010PropOp55
 70
     1
102
RTVSPost2010Prop56
140
1.0
102
RTVSPost2010PropOp56
 70
     1
102
RTVSPost2010Prop57
140
1.0
102
RTVSPost2010PropOp57
 70
     1
102
RTVSPropertyOp0
 70
     1
102
RTVSPropertyOp1
 70
     1
102
RTVSPropertyOp2
 70
     1
102
RTVSPropertyOp3
 70
     1
102
RTVSPropertyOp4
 70
     1
102
RTVSPropertyOp5
 70
     1
102
RTVSPropertyOp6
 70
     1
102
RTVSPropertyOp7
 70
     1
102
RTVSPropertyOp8
 70
     1
102
RTVSPropertyOp9
 70
     1
102
RTVSPropertyOp10
 70
     1
102
RTVSPropertyOp11
 70
     1
102
RTVSPropertyOp12
 70
     1
102
RTVSPropertyOp13
 70
     1
102
RTVSPropertyOp14
 70
     1
102
RTVSPropertyOp15
 70
     1
102
RTVSPropertyOp16
 70
     1
102
RTVSPropertyOp17
 70
     1
102
RTVSPropertyOp18
 70
     1
102
RTVSPropertyOp19
 70
     1
102
RTVSPropertyOp20
 70
     1
102
RTVSPropertyOp21
 70
     1
102
RTVSPropertyOp22
 70
     1
102
RTVSPropertyOp23
 70
     1
102
RTVSPropertyOp24
 70
     1
102
RTVSPropertyOp25
 70
     1
102
RTVSPropertyOp26
 70
     1
102
RTVSPropertyOp27
 70
     1
102
RTVSPropertyOp28
 70
     1
102
RTVSPropertyOp29
 70
     1
102
RTVSPropertyOp30
 70
     1
102
RTVSPropertyOp31
 70
     1
102
RTVSPropertyOp32
 70
     1
102
RTVSPropertyOp33
 70
     1
102
RTVSPropertyOp34
 70
     1
102
RTVSPropertyOp35
 70
     1
102
RTVSPropertyOp36
 70
     1
102
RTVSPropertyOp37
 70
     1
102
RTVSPropertyOp38
 70
     1
102
RTVSPropertyOp39
 70
     1
102
RTVSPropertyOp40
 70
     1
102
RTVSPropertyOp41
 70
     1
102
RTVSPropertyOp42
 70
     1
102
RTVSPropertyOp43
 70
     1
102
RTVSPropertyOp44
 70
     1
102
RTVSPropertyOp45
 70
     1
102
RTVSPropertyOp46
 70
     1
102
RTVSPropertyOp47
 70
     1
102
RTVSPropertyOp48
 70
     1
102
RTVSPropertyOp49
 70
     1
102
RTVSPropertyOp50
 70
     1
102
RTVSPropertyOp51
 70
     0
102
RTVSPropertyOp52
 70
     0
102
RTVSPropertyOp53
 70
     1
102
RTVSPropertyOp54
 70
     1
102
RTVSPropertyOp55
 70
     1
102
RTVSPropertyOp56
 70
     1
102
RTVSPropertyOp57
 70
     1
102
RTVSPropertyOp58
 70
     1
102
RTVSPropertyOp59
 70
     1
102
RTVSPropertyOp60
 70
     1
102
RTVSPropertyOp61
 70
     1
102
RTVSPropertyOp62
 70
     1
  0
XRECORD
  5
82AB
102
{ACAD_REACTORS
330
82AA
102
}
330
82AA
100
AcDbXrecord
280
     1
102
RTVSPost2010Prop28
280
     0
102
RTVSPost2010PropOp28
 70
     1
102
RTVSPost2010Prop29
280
     1
102
RTVSPost2010PropOp29
 70
     1
102
RTVSPost2010Prop30
280
     1
102
RTVSPost2010PropOp30
 70
     1
102
RTVSPost2010Prop31
280
     0
102
RTVSPost2010PropOp31
 70
     1
102
RTVSPost2010Prop32
280
     0
102
RTVSPost2010PropOp32
 70
     1
102
RTVSPost2010Prop33
280
     0
102
RTVSPost2010PropOp33
 70
     1
102
RTVSPost2010Prop34
280
     0
102
RTVSPost2010PropOp34
 70
     1
102
RTVSPost2010Prop35
280
     0
102
RTVSPost2010PropOp35
 70
     1
102
RTVSPost2010Prop36
280
     0
102
RTVSPost2010PropOp36
 70
     1
102
RTVSPost2010Prop37
 90
       50
102
RTVSPost2010PropOp37
 70
     0
102
RTVSPost2010Prop38
140
0.0
102
RTVSPost2010PropOp38
 70
     0
102
RTVSPost2010Prop39
140
1.0
102
RTVSPost2010PropOp39
 70
     0
102
RTVSPost2010Prop40
 90
        0
102
RTVSPost2010PropOp40
 70
     0
102
RTVSPost2010Prop41ColorIndex
 90
       18
102
RTVSPost2010Prop41ColorRGB
 90
        0
102
RTVSPost2010PropOp41
 70
     0
102
RTVSPost2010Prop42
 90
       50
102
RTVSPost2010PropOp42
 70
     0
102
RTVSPost2010Prop43
 90
        3
102
RTVSPost2010PropOp43
 70
     0
102
RTVSPost2010Prop44ColorIndex
 90
        5
102
RTVSPost2010Prop44ColorRGB
 90
      255
102
RTVSPost2010PropOp44
 70
     0
102
RTVSPost2010Prop45
280
     0
102
RTVSPost2010PropOp45
 70
     1
102
RTVSPost2010Prop46
 90
       50
102
RTVSPost2010PropOp46
 70
     0
102
RTVSPost2010Prop47
 90
       50
102
RTVSPost2010PropOp47
 70
     0
102
RTVSPost2010Prop48
 90
       50
102
RTVSPost2010PropOp48
 70
     0
102
RTVSPost2010Prop49
280
     0
102
RTVSPost2010PropOp49
 70
     1
102
RTVSPost2010Prop50
 90
       50
102
RTVSPost2010PropOp50
 70
     0
102
RTVSPost2010Prop51ColorIndex
 90
      256
102
RTVSPost2010Prop51ColorRGB
 90
-16777216
102
RTVSPost2010PropOp51
 70
     0
102
RTVSPost2010Prop52
140
1.0
102
RTVSPost2010PropOp52
 70
     0
102
RTVSPost2010Prop53
 90
        2
102
RTVSPost2010PropOp53
 70
     0
102
RTVSPost2010Prop54
  1
strokes_ogs.tif
102
RTVSPost2010PropOp54
 70
     0
102
RTVSPost2010Prop55
280
     0
102
RTVSPost2010PropOp55
 70
     1
102
RTVSPost2010Prop56
140
1.0
102
RTVSPost2010PropOp56
 70
     0
102
RTVSPost2010Prop57
140
1.0
102
RTVSPost2010PropOp57
 70
     0
102
RTVSPropertyOp0
 70
     0
102
RTVSPropertyOp1
 70
     0
102
RTVSPropertyOp2
 70
     0
102
RTVSPropertyOp3
 70
     0
102
RTVSPropertyOp4
 70
     0
102
RTVSPropertyOp5
 70
     0
102
RTVSPropertyOp6
 70
     0
102
RTVSPropertyOp7
 70
     0
102
RTVSPropertyOp8
 70
     0
102
RTVSPropertyOp9
 70
     0
102
RTVSPropertyOp10
 70
     0
102
RTVSPropertyOp11
 70
     0
102
RTVSPropertyOp12
 70
     0
102
RTVSPropertyOp13
 70
     0
102
RTVSPropertyOp14
 70
     2
102
RTVSPropertyOp15
 70
     0
102
RTVSPropertyOp16
 70
     0
102
RTVSPropertyOp17
 70
     0
102
RTVSPropertyOp18
 70
     0
102
RTVSPropertyOp19
 70
     0
102
RTVSPropertyOp20
 70
     0
102
RTVSPropertyOp21
 70
     0
102
RTVSPropertyOp22
 70
     0
102
RTVSPropertyOp23
 70
     0
102
RTVSPropertyOp24
 70
     0
102
RTVSPropertyOp25
 70
     0
102
RTVSPropertyOp26
 70
     0
102
RTVSPropertyOp27
 70
     0
102
RTVSPropertyOp28
 70
     1
102
RTVSPropertyOp29
 70
     1
102
RTVSPropertyOp30
 70
     1
102
RTVSPropertyOp31
 70
     1
102
RTVSPropertyOp32
 70
     1
102
RTVSPropertyOp33
 70
     1
102
RTVSPropertyOp34
 70
     1
102
RTVSPropertyOp35
 70
     1
102
RTVSPropertyOp36
 70
     1
102
RTVSPropertyOp37
 70
     0
102
RTVSPropertyOp38
 70
     0
102
RTVSPropertyOp39
 70
     0
102
RTVSPropertyOp40
 70
     0
102
RTVSPropertyOp41
 70
     0
102
RTVSPropertyOp42
 70
     0
102
RTVSPropertyOp43
 70
     0
102
RTVSPropertyOp44
 70
     0
102
RTVSPropertyOp45
 70
     1
102
RTVSPropertyOp46
 70
     0
102
RTVSPropertyOp47
 70
     0
102
RTVSPropertyOp48
 70
     0
102
RTVSPropertyOp49
 70
     1
102
RTVSPropertyOp50
 70
     0
102
RTVSPropertyOp51
 70
     0
102
RTVSPropertyOp52
 70
     0
102
RTVSPropertyOp53
 70
     0
102
RTVSPropertyOp54
 70
     0
102
RTVSPropertyOp55
 70
     1
102
RTVSPropertyOp56
 70
     0
102
RTVSPropertyOp57
 70
     0
102
RTVSPropertyOp58
 70
     0
102
RTVSPropertyOp59
 70
     0
102
RTVSPropertyOp60
 70
     0
102
RTVSPropertyOp61
 70
     0
102
RTVSPropertyOp62
 70
     0
  0
XRECORD
  5
829B
102
{ACAD_REACTORS
330
829A
102
}
330
829A
100
AcDbXrecord
280
     1
102
RTVSPost2010Prop28
280
     0
102
RTVSPost2010PropOp28
 70
     1
102
RTVSPost2010Prop29
280
     1
102
RTVSPost2010PropOp29
 70
     1
102
RTVSPost2010Prop30
280
     1
102
RTVSPost2010PropOp30
 70
     1
102
RTVSPost2010Prop31
280
     0
102
RTVSPost2010PropOp31
 70
     1
102
RTVSPost2010Prop32
280
     0
102
RTVSPost2010PropOp32
 70
     1
102
RTVSPost2010Prop33
280
     0
102
RTVSPost2010PropOp33
 70
     1
102
RTVSPost2010Prop34
280
     0
102
RTVSPost2010PropOp34
 70
     1
102
RTVSPost2010Prop35
280
     0
102
RTVSPost2010PropOp35
 70
     1
102
RTVSPost2010Prop36
280
     0
102
RTVSPost2010PropOp36
 70
     1
102
RTVSPost2010Prop37
 90
       50
102
RTVSPost2010PropOp37
 70
     1
102
RTVSPost2010Prop38
140
0.0
102
RTVSPost2010PropOp38
 70
     1
102
RTVSPost2010Prop39
140
1.0
102
RTVSPost2010PropOp39
 70
     1
102
RTVSPost2010Prop40
 90
        0
102
RTVSPost2010PropOp40
 70
     1
102
RTVSPost2010Prop41ColorIndex
 90
       18
102
RTVSPost2010Prop41ColorRGB
 90
        0
102
RTVSPost2010PropOp41
 70
     1
102
RTVSPost2010Prop42
 90
       50
102
RTVSPost2010PropOp42
 70
     1
102
RTVSPost2010Prop43
 90
        3
102
RTVSPost2010PropOp43
 70
     1
102
RTVSPost2010Prop44ColorIndex
 90
        5
102
RTVSPost2010Prop44ColorRGB
 90
      255
102
RTVSPost2010PropOp44
 70
     1
102
RTVSPost2010Prop45
280
     0
102
RTVSPost2010PropOp45
 70
     1
102
RTVSPost2010Prop46
 90
       50
102
RTVSPost2010PropOp46
 70
     1
102
RTVSPost2010Prop47
 90
       50
102
RTVSPost2010PropOp47
 70
     1
102
RTVSPost2010Prop48
 90
       50
102
RTVSPost2010PropOp48
 70
     1
102
RTVSPost2010Prop49
280
     0
102
RTVSPost2010PropOp49
 70
     1
102
RTVSPost2010Prop50
 90
       50
102
RTVSPost2010PropOp50
 70
     1
102
RTVSPost2010Prop51ColorIndex
 90
      256
102
RTVSPost2010Prop51ColorRGB
 90
-16777216
102
RTVSPost2010PropOp51
 70
     0
102
RTVSPost2010Prop52
140
1.0
102
RTVSPost2010PropOp52
 70
     0
102
RTVSPost2010Prop53
 90
        2
102
RTVSPost2010PropOp53
 70
     1
102
RTVSPost2010Prop54
  1
strokes_ogs.tif
102
RTVSPost2010PropOp54
 70
     1
102
RTVSPost2010Prop55
280
     0
102
RTVSPost2010PropOp55
 70
     1
102
RTVSPost2010Prop56
140
1.0
102
RTVSPost2010PropOp56
 70
     1
102
RTVSPost2010Prop57
140
1.0
102
RTVSPost2010PropOp57
 70
     1
102
RTVSPropertyOp0
 70
     1
102
RTVSPropertyOp1
 70
     1
102
RTVSPropertyOp2
 70
     1
102
RTVSPropertyOp3
 70
     1
102
RTVSPropertyOp4
 70
     1
102
RTVSPropertyOp5
 70
     1
102
RTVSPropertyOp6
 70
     1
102
RTVSPropertyOp7
 70
     1
102
RTVSPropertyOp8
 70
     1
102
RTVSPropertyOp9
 70
     1
102
RTVSPropertyOp10
 70
     1
102
RTVSPropertyOp11
 70
     1
102
RTVSPropertyOp12
 70
     1
102
RTVSPropertyOp13
 70
     1
102
RTVSPropertyOp14
 70
     1
102
RTVSPropertyOp15
 70
     1
102
RTVSPropertyOp16
 70
     1
102
RTVSPropertyOp17
 70
     1
102
RTVSPropertyOp18
 70
     1
102
RTVSPropertyOp19
 70
     1
102
RTVSPropertyOp20
 70
     1
102
RTVSPropertyOp21
 70
     1
102
RTVSPropertyOp22
 70
     1
102
RTVSPropertyOp23
 70
     1
102
RTVSPropertyOp24
 70
     1
102
RTVSPropertyOp25
 70
     1
102
RTVSPropertyOp26
 70
     1
102
RTVSPropertyOp27
 70
     1
102
RTVSPropertyOp28
 70
     1
102
RTVSPropertyOp29
 70
     1
102
RTVSPropertyOp30
 70
     1
102
RTVSPropertyOp31
 70
     1
102
RTVSPropertyOp32
 70
     1
102
RTVSPropertyOp33
 70
     1
102
RTVSPropertyOp34
 70
     1
102
RTVSPropertyOp35
 70
     1
102
RTVSPropertyOp36
 70
     1
102
RTVSPropertyOp37
 70
     1
102
RTVSPropertyOp38
 70
     1
102
RTVSPropertyOp39
 70
     1
102
RTVSPropertyOp40
 70
     1
102
RTVSPropertyOp41
 70
     1
102
RTVSPropertyOp42
 70
     1
102
RTVSPropertyOp43
 70
     1
102
RTVSPropertyOp44
 70
     1
102
RTVSPropertyOp45
 70
     1
102
RTVSPropertyOp46
 70
     1
102
RTVSPropertyOp47
 70
     1
102
RTVSPropertyOp48
 70
     1
102
RTVSPropertyOp49
 70
     1
102
RTVSPropertyOp50
 70
     1
102
RTVSPropertyOp51
 70
     0
102
RTVSPropertyOp52
 70
     0
102
RTVSPropertyOp53
 70
     1
102
RTVSPropertyOp54
 70
     1
102
RTVSPropertyOp55
 70
     1
102
RTVSPropertyOp56
 70
     1
102
RTVSPropertyOp57
 70
     1
102
RTVSPropertyOp58
 70
     1
102
RTVSPropertyOp59
 70
     1
102
RTVSPropertyOp60
 70
     1
102
RTVSPropertyOp61
 70
     1
102
RTVSPropertyOp62
 70
     1
  0
XRECORD
  5
82AD
102
{ACAD_REACTORS
330
82AC
102
}
330
82AC
100
AcDbXrecord
280
     1
102
RTVSPost2010Prop28
280
     0
102
RTVSPost2010PropOp28
 70
     1
102
RTVSPost2010Prop29
280
     1
102
RTVSPost2010PropOp29
 70
     1
102
RTVSPost2010Prop30
280
     1
102
RTVSPost2010PropOp30
 70
     1
102
RTVSPost2010Prop31
280
     0
102
RTVSPost2010PropOp31
 70
     1
102
RTVSPost2010Prop32
280
     0
102
RTVSPost2010PropOp32
 70
     1
102
RTVSPost2010Prop33
280
     0
102
RTVSPost2010PropOp33
 70
     1
102
RTVSPost2010Prop34
280
     0
102
RTVSPost2010PropOp34
 70
     1
102
RTVSPost2010Prop35
280
     0
102
RTVSPost2010PropOp35
 70
     1
102
RTVSPost2010Prop36
280
     0
102
RTVSPost2010PropOp36
 70
     1
102
RTVSPost2010Prop37
 90
       50
102
RTVSPost2010PropOp37
 70
     0
102
RTVSPost2010Prop38
140
0.0
102
RTVSPost2010PropOp38
 70
     0
102
RTVSPost2010Prop39
140
1.0
102
RTVSPost2010PropOp39
 70
     0
102
RTVSPost2010Prop40
 90
        0
102
RTVSPost2010PropOp40
 70
     0
102
RTVSPost2010Prop41ColorIndex
 90
       18
102
RTVSPost2010Prop41ColorRGB
 90
        0
102
RTVSPost2010PropOp41
 70
     0
102
RTVSPost2010Prop42
 90
       50
102
RTVSPost2010PropOp42
 70
     0
102
RTVSPost2010Prop43
 90
        3
102
RTVSPost2010PropOp43
 70
     0
102
RTVSPost2010Prop44ColorIndex
 90
        5
102
RTVSPost2010Prop44ColorRGB
 90
      255
102
RTVSPost2010PropOp44
 70
     0
102
RTVSPost2010Prop45
280
     0
102
RTVSPost2010PropOp45
 70
     1
102
RTVSPost2010Prop46
 90
       50
102
RTVSPost2010PropOp46
 70
     0
102
RTVSPost2010Prop47
 90
       50
102
RTVSPost2010PropOp47
 70
     0
102
RTVSPost2010Prop48
 90
       50
102
RTVSPost2010PropOp48
 70
     0
102
RTVSPost2010Prop49
280
     0
102
RTVSPost2010PropOp49
 70
     1
102
RTVSPost2010Prop50
 90
       50
102
RTVSPost2010PropOp50
 70
     0
102
RTVSPost2010Prop51ColorIndex
 90
      256
102
RTVSPost2010Prop51ColorRGB
 90
-16777216
102
RTVSPost2010PropOp51
 70
     0
102
RTVSPost2010Prop52
140
1.0
102
RTVSPost2010PropOp52
 70
     0
102
RTVSPost2010Prop53
 90
        2
102
RTVSPost2010PropOp53
 70
     0
102
RTVSPost2010Prop54
  1
strokes_ogs.tif
102
RTVSPost2010PropOp54
 70
     0
102
RTVSPost2010Prop55
280
     0
102
RTVSPost2010PropOp55
 70
     1
102
RTVSPost2010Prop56
140
1.0
102
RTVSPost2010PropOp56
 70
     0
102
RTVSPost2010Prop57
140
1.0
102
RTVSPost2010PropOp57
 70
     0
102
RTVSPropertyOp0
 70
     0
102
RTVSPropertyOp1
 70
     0
102
RTVSPropertyOp2
 70
     0
102
RTVSPropertyOp3
 70
     0
102
RTVSPropertyOp4
 70
     0
102
RTVSPropertyOp5
 70
     0
102
RTVSPropertyOp6
 70
     0
102
RTVSPropertyOp7
 70
     0
102
RTVSPropertyOp8
 70
     0
102
RTVSPropertyOp9
 70
     0
102
RTVSPropertyOp10
 70
     0
102
RTVSPropertyOp11
 70
     0
102
RTVSPropertyOp12
 70
     0
102
RTVSPropertyOp13
 70
     0
102
RTVSPropertyOp14
 70
     2
102
RTVSPropertyOp15
 70
     0
102
RTVSPropertyOp16
 70
     0
102
RTVSPropertyOp17
 70
     0
102
RTVSPropertyOp18
 70
     0
102
RTVSPropertyOp19
 70
     0
102
RTVSPropertyOp20
 70
     0
102
RTVSPropertyOp21
 70
     0
102
RTVSPropertyOp22
 70
     0
102
RTVSPropertyOp23
 70
     0
102
RTVSPropertyOp24
 70
     0
102
RTVSPropertyOp25
 70
     0
102
RTVSPropertyOp26
 70
     0
102
RTVSPropertyOp27
 70
     0
102
RTVSPropertyOp28
 70
     1
102
RTVSPropertyOp29
 70
     1
102
RTVSPropertyOp30
 70
     1
102
RTVSPropertyOp31
 70
     1
102
RTVSPropertyOp32
 70
     1
102
RTVSPropertyOp33
 70
     1
102
RTVSPropertyOp34
 70
     1
102
RTVSPropertyOp35
 70
     1
102
RTVSPropertyOp36
 70
     1
102
RTVSPropertyOp37
 70
     0
102
RTVSPropertyOp38
 70
     0
102
RTVSPropertyOp39
 70
     0
102
RTVSPropertyOp40
 70
     0
102
RTVSPropertyOp41
 70
     0
102
RTVSPropertyOp42
 70
     0
102
RTVSPropertyOp43
 70
     0
102
RTVSPropertyOp44
 70
     0
102
RTVSPropertyOp45
 70
     1
102
RTVSPropertyOp46
 70
     0
102
RTVSPropertyOp47
 70
     0
102
RTVSPropertyOp48
 70
     0
102
RTVSPropertyOp49
 70
     1
102
RTVSPropertyOp50
 70
     0
102
RTVSPropertyOp51
 70
     0
102
RTVSPropertyOp52
 70
     0
102
RTVSPropertyOp53
 70
     0
102
RTVSPropertyOp54
 70
     0
102
RTVSPropertyOp55
 70
     1
102
RTVSPropertyOp56
 70
     0
102
RTVSPropertyOp57
 70
     0
102
RTVSPropertyOp58
 70
     0
102
RTVSPropertyOp59
 70
     0
102
RTVSPropertyOp60
 70
     0
102
RTVSPropertyOp61
 70
     0
102
RTVSPropertyOp62
 70
     0
  0
XRECORD
  5
8293
102
{ACAD_REACTORS
330
8292
102
}
330
8292
100
AcDbXrecord
280
     1
102
RTVSPost2010Prop28
280
     0
102
RTVSPost2010PropOp28
 70
     1
102
RTVSPost2010Prop29
280
     1
102
RTVSPost2010PropOp29
 70
     1
102
RTVSPost2010Prop30
280
     1
102
RTVSPost2010PropOp30
 70
     1
102
RTVSPost2010Prop31
280
     0
102
RTVSPost2010PropOp31
 70
     1
102
RTVSPost2010Prop32
280
     0
102
RTVSPost2010PropOp32
 70
     1
102
RTVSPost2010Prop33
280
     0
102
RTVSPost2010PropOp33
 70
     1
102
RTVSPost2010Prop34
280
     0
102
RTVSPost2010PropOp34
 70
     1
102
RTVSPost2010Prop35
280
     0
102
RTVSPost2010PropOp35
 70
     1
102
RTVSPost2010Prop36
280
     0
102
RTVSPost2010PropOp36
 70
     1
102
RTVSPost2010Prop37
 90
       50
102
RTVSPost2010PropOp37
 70
     1
102
RTVSPost2010Prop38
140
0.0
102
RTVSPost2010PropOp38
 70
     1
102
RTVSPost2010Prop39
140
1.0
102
RTVSPost2010PropOp39
 70
     1
102
RTVSPost2010Prop40
 90
        0
102
RTVSPost2010PropOp40
 70
     1
102
RTVSPost2010Prop41ColorIndex
 90
       18
102
RTVSPost2010Prop41ColorRGB
 90
        0
102
RTVSPost2010PropOp41
 70
     1
102
RTVSPost2010Prop42
 90
       50
102
RTVSPost2010PropOp42
 70
     1
102
RTVSPost2010Prop43
 90
        3
102
RTVSPost2010PropOp43
 70
     1
102
RTVSPost2010Prop44ColorIndex
 90
        5
102
RTVSPost2010Prop44ColorRGB
 90
      255
102
RTVSPost2010PropOp44
 70
     1
102
RTVSPost2010Prop45
280
     0
102
RTVSPost2010PropOp45
 70
     1
102
RTVSPost2010Prop46
 90
       50
102
RTVSPost2010PropOp46
 70
     1
102
RTVSPost2010Prop47
 90
       50
102
RTVSPost2010PropOp47
 70
     1
102
RTVSPost2010Prop48
 90
       50
102
RTVSPost2010PropOp48
 70
     1
102
RTVSPost2010Prop49
280
     0
102
RTVSPost2010PropOp49
 70
     1
102
RTVSPost2010Prop50
 90
       50
102
RTVSPost2010PropOp50
 70
     1
102
RTVSPost2010Prop51ColorIndex
 90
      256
102
RTVSPost2010Prop51ColorRGB
 90
-16777216
102
RTVSPost2010PropOp51
 70
     0
102
RTVSPost2010Prop52
140
1.0
102
RTVSPost2010PropOp52
 70
     0
102
RTVSPost2010Prop53
 90
        2
102
RTVSPost2010PropOp53
 70
     1
102
RTVSPost2010Prop54
  1
strokes_ogs.tif
102
RTVSPost2010PropOp54
 70
     1
102
RTVSPost2010Prop55
280
     0
102
RTVSPost2010PropOp55
 70
     1
102
RTVSPost2010Prop56
140
1.0
102
RTVSPost2010PropOp56
 70
     1
102
RTVSPost2010Prop57
140
1.0
102
RTVSPost2010PropOp57
 70
     1
102
RTVSPropertyOp0
 70
     1
102
RTVSPropertyOp1
 70
     1
102
RTVSPropertyOp2
 70
     1
102
RTVSPropertyOp3
 70
     1
102
RTVSPropertyOp4
 70
     1
102
RTVSPropertyOp5
 70
     1
102
RTVSPropertyOp6
 70
     1
102
RTVSPropertyOp7
 70
     1
102
RTVSPropertyOp8
 70
     1
102
RTVSPropertyOp9
 70
     1
102
RTVSPropertyOp10
 70
     1
102
RTVSPropertyOp11
 70
     1
102
RTVSPropertyOp12
 70
     1
102
RTVSPropertyOp13
 70
     1
102
RTVSPropertyOp14
 70
     1
102
RTVSPropertyOp15
 70
     1
102
RTVSPropertyOp16
 70
     1
102
RTVSPropertyOp17
 70
     1
102
RTVSPropertyOp18
 70
     1
102
RTVSPropertyOp19
 70
     1
102
RTVSPropertyOp20
 70
     1
102
RTVSPropertyOp21
 70
     1
102
RTVSPropertyOp22
 70
     1
102
RTVSPropertyOp23
 70
     1
102
RTVSPropertyOp24
 70
     1
102
RTVSPropertyOp25
 70
     1
102
RTVSPropertyOp26
 70
     1
102
RTVSPropertyOp27
 70
     1
102
RTVSPropertyOp28
 70
     1
102
RTVSPropertyOp29
 70
     1
102
RTVSPropertyOp30
 70
     1
102
RTVSPropertyOp31
 70
     1
102
RTVSPropertyOp32
 70
     1
102
RTVSPropertyOp33
 70
     1
102
RTVSPropertyOp34
 70
     1
102
RTVSPropertyOp35
 70
     1
102
RTVSPropertyOp36
 70
     1
102
RTVSPropertyOp37
 70
     1
102
RTVSPropertyOp38
 70
     1
102
RTVSPropertyOp39
 70
     1
102
RTVSPropertyOp40
 70
     1
102
RTVSPropertyOp41
 70
     1
102
RTVSPropertyOp42
 70
     1
102
RTVSPropertyOp43
 70
     1
102
RTVSPropertyOp44
 70
     1
102
RTVSPropertyOp45
 70
     1
102
RTVSPropertyOp46
 70
     1
102
RTVSPropertyOp47
 70
     1
102
RTVSPropertyOp48
 70
     1
102
RTVSPropertyOp49
 70
     1
102
RTVSPropertyOp50
 70
     1
102
RTVSPropertyOp51
 70
     0
102
RTVSPropertyOp52
 70
     0
102
RTVSPropertyOp53
 70
     1
102
RTVSPropertyOp54
 70
     1
102
RTVSPropertyOp55
 70
     1
102
RTVSPropertyOp56
 70
     1
102
RTVSPropertyOp57
 70
     1
102
RTVSPropertyOp58
 70
     1
102
RTVSPropertyOp59
 70
     1
102
RTVSPropertyOp60
 70
     1
102
RTVSPropertyOp61
 70
     1
102
RTVSPropertyOp62
 70
     1
  0
XRECORD
  5
82A9
102
{ACAD_REACTORS
330
82A8
102
}
330
82A8
100
AcDbXrecord
280
     1
102
RTVSPost2010Prop28
280
     0
102
RTVSPost2010PropOp28
 70
     1
102
RTVSPost2010Prop29
280
     1
102
RTVSPost2010PropOp29
 70
     1
102
RTVSPost2010Prop30
280
     1
102
RTVSPost2010PropOp30
 70
     1
102
RTVSPost2010Prop31
280
     0
102
RTVSPost2010PropOp31
 70
     1
102
RTVSPost2010Prop32
280
     0
102
RTVSPost2010PropOp32
 70
     1
102
RTVSPost2010Prop33
280
     0
102
RTVSPost2010PropOp33
 70
     1
102
RTVSPost2010Prop34
280
     0
102
RTVSPost2010PropOp34
 70
     1
102
RTVSPost2010Prop35
280
     0
102
RTVSPost2010PropOp35
 70
     1
102
RTVSPost2010Prop36
280
     0
102
RTVSPost2010PropOp36
 70
     1
102
RTVSPost2010Prop37
 90
       50
102
RTVSPost2010PropOp37
 70
     1
102
RTVSPost2010Prop38
140
0.0
102
RTVSPost2010PropOp38
 70
     1
102
RTVSPost2010Prop39
140
1.0
102
RTVSPost2010PropOp39
 70
     1
102
RTVSPost2010Prop40
 90
        0
102
RTVSPost2010PropOp40
 70
     1
102
RTVSPost2010Prop41ColorIndex
 90
       18
102
RTVSPost2010Prop41ColorRGB
 90
        0
102
RTVSPost2010PropOp41
 70
     1
102
RTVSPost2010Prop42
 90
       50
102
RTVSPost2010PropOp42
 70
     1
102
RTVSPost2010Prop43
 90
        3
102
RTVSPost2010PropOp43
 70
     1
102
RTVSPost2010Prop44ColorIndex
 90
        5
102
RTVSPost2010Prop44ColorRGB
 90
      255
102
RTVSPost2010PropOp44
 70
     1
102
RTVSPost2010Prop45
280
     0
102
RTVSPost2010PropOp45
 70
     1
102
RTVSPost2010Prop46
 90
       50
102
RTVSPost2010PropOp46
 70
     1
102
RTVSPost2010Prop47
 90
       50
102
RTVSPost2010PropOp47
 70
     1
102
RTVSPost2010Prop48
 90
       50
102
RTVSPost2010PropOp48
 70
     1
102
RTVSPost2010Prop49
280
     0
102
RTVSPost2010PropOp49
 70
     1
102
RTVSPost2010Prop50
 90
       50
102
RTVSPost2010PropOp50
 70
     1
102
RTVSPost2010Prop51ColorIndex
 90
      256
102
RTVSPost2010Prop51ColorRGB
 90
-16777216
102
RTVSPost2010PropOp51
 70
     0
102
RTVSPost2010Prop52
140
1.0
102
RTVSPost2010PropOp52
 70
     0
102
RTVSPost2010Prop53
 90
        2
102
RTVSPost2010PropOp53
 70
     1
102
RTVSPost2010Prop54
  1
strokes_ogs.tif
102
RTVSPost2010PropOp54
 70
     1
102
RTVSPost2010Prop55
280
     0
102
RTVSPost2010PropOp55
 70
     1
102
RTVSPost2010Prop56
140
1.0
102
RTVSPost2010PropOp56
 70
     1
102
RTVSPost2010Prop57
140
1.0
102
RTVSPost2010PropOp57
 70
     1
102
RTVSPropertyOp0
 70
     1
102
RTVSPropertyOp1
 70
     1
102
RTVSPropertyOp2
 70
     1
102
RTVSPropertyOp3
 70
     1
102
RTVSPropertyOp4
 70
     1
102
RTVSPropertyOp5
 70
     1
102
RTVSPropertyOp6
 70
     1
102
RTVSPropertyOp7
 70
     1
102
RTVSPropertyOp8
 70
     1
102
RTVSPropertyOp9
 70
     1
102
RTVSPropertyOp10
 70
     1
102
RTVSPropertyOp11
 70
     1
102
RTVSPropertyOp12
 70
     1
102
RTVSPropertyOp13
 70
     1
102
RTVSPropertyOp14
 70
     1
102
RTVSPropertyOp15
 70
     1
102
RTVSPropertyOp16
 70
     1
102
RTVSPropertyOp17
 70
     1
102
RTVSPropertyOp18
 70
     1
102
RTVSPropertyOp19
 70
     1
102
RTVSPropertyOp20
 70
     1
102
RTVSPropertyOp21
 70
     1
102
RTVSPropertyOp22
 70
     1
102
RTVSPropertyOp23
 70
     1
102
RTVSPropertyOp24
 70
     1
102
RTVSPropertyOp25
 70
     1
102
RTVSPropertyOp26
 70
     1
102
RTVSPropertyOp27
 70
     1
102
RTVSPropertyOp28
 70
     1
102
RTVSPropertyOp29
 70
     1
102
RTVSPropertyOp30
 70
     1
102
RTVSPropertyOp31
 70
     1
102
RTVSPropertyOp32
 70
     1
102
RTVSPropertyOp33
 70
     1
102
RTVSPropertyOp34
 70
     1
102
RTVSPropertyOp35
 70
     1
102
RTVSPropertyOp36
 70
     1
102
RTVSPropertyOp37
 70
     1
102
RTVSPropertyOp38
 70
     1
102
RTVSPropertyOp39
 70
     1
102
RTVSPropertyOp40
 70
     1
102
RTVSPropertyOp41
 70
     1
102
RTVSPropertyOp42
 70
     1
102
RTVSPropertyOp43
 70
     1
102
RTVSPropertyOp44
 70
     1
102
RTVSPropertyOp45
 70
     1
102
RTVSPropertyOp46
 70
     1
102
RTVSPropertyOp47
 70
     1
102
RTVSPropertyOp48
 70
     1
102
RTVSPropertyOp49
 70
     1
102
RTVSPropertyOp50
 70
     1
102
RTVSPropertyOp51
 70
     0
102
RTVSPropertyOp52
 70
     0
102
RTVSPropertyOp53
 70
     1
102
RTVSPropertyOp54
 70
     1
102
RTVSPropertyOp55
 70
     1
102
RTVSPropertyOp56
 70
     1
102
RTVSPropertyOp57
 70
     1
102
RTVSPropertyOp58
 70
     1
102
RTVSPropertyOp59
 70
     1
102
RTVSPropertyOp60
 70
     1
102
RTVSPropertyOp61
 70
     1
102
RTVSPropertyOp62
 70
     1
  0
XRECORD
  5
82A7
102
{ACAD_REACTORS
330
82A6
102
}
330
82A6
100
AcDbXrecord
280
     1
102
RTVSPost2010Prop28
280
     0
102
RTVSPost2010PropOp28
 70
     1
102
RTVSPost2010Prop29
280
     1
102
RTVSPost2010PropOp29
 70
     1
102
RTVSPost2010Prop30
280
     1
102
RTVSPost2010PropOp30
 70
     1
102
RTVSPost2010Prop31
280
     0
102
RTVSPost2010PropOp31
 70
     1
102
RTVSPost2010Prop32
280
     0
102
RTVSPost2010PropOp32
 70
     1
102
RTVSPost2010Prop33
280
     0
102
RTVSPost2010PropOp33
 70
     1
102
RTVSPost2010Prop34
280
     0
102
RTVSPost2010PropOp34
 70
     1
102
RTVSPost2010Prop35
280
     0
102
RTVSPost2010PropOp35
 70
     1
102
RTVSPost2010Prop36
280
     0
102
RTVSPost2010PropOp36
 70
     1
102
RTVSPost2010Prop37
 90
       50
102
RTVSPost2010PropOp37
 70
     1
102
RTVSPost2010Prop38
140
0.0
102
RTVSPost2010PropOp38
 70
     1
102
RTVSPost2010Prop39
140
1.0
102
RTVSPost2010PropOp39
 70
     1
102
RTVSPost2010Prop40
 90
        0
102
RTVSPost2010PropOp40
 70
     1
102
RTVSPost2010Prop41ColorIndex
 90
       18
102
RTVSPost2010Prop41ColorRGB
 90
        0
102
RTVSPost2010PropOp41
 70
     1
102
RTVSPost2010Prop42
 90
       50
102
RTVSPost2010PropOp42
 70
     1
102
RTVSPost2010Prop43
 90
        3
102
RTVSPost2010PropOp43
 70
     1
102
RTVSPost2010Prop44ColorIndex
 90
        5
102
RTVSPost2010Prop44ColorRGB
 90
      255
102
RTVSPost2010PropOp44
 70
     1
102
RTVSPost2010Prop45
280
     0
102
RTVSPost2010PropOp45
 70
     1
102
RTVSPost2010Prop46
 90
       50
102
RTVSPost2010PropOp46
 70
     1
102
RTVSPost2010Prop47
 90
       50
102
RTVSPost2010PropOp47
 70
     1
102
RTVSPost2010Prop48
 90
       50
102
RTVSPost2010PropOp48
 70
     1
102
RTVSPost2010Prop49
280
     0
102
RTVSPost2010PropOp49
 70
     1
102
RTVSPost2010Prop50
 90
       50
102
RTVSPost2010PropOp50
 70
     1
102
RTVSPost2010Prop51ColorIndex
 90
      256
102
RTVSPost2010Prop51ColorRGB
 90
-16777216
102
RTVSPost2010PropOp51
 70
     0
102
RTVSPost2010Prop52
140
1.0
102
RTVSPost2010PropOp52
 70
     0
102
RTVSPost2010Prop53
 90
        2
102
RTVSPost2010PropOp53
 70
     1
102
RTVSPost2010Prop54
  1
strokes_ogs.tif
102
RTVSPost2010PropOp54
 70
     1
102
RTVSPost2010Prop55
280
     0
102
RTVSPost2010PropOp55
 70
     1
102
RTVSPost2010Prop56
140
1.0
102
RTVSPost2010PropOp56
 70
     1
102
RTVSPost2010Prop57
140
1.0
102
RTVSPost2010PropOp57
 70
     1
102
RTVSPropertyOp0
 70
     1
102
RTVSPropertyOp1
 70
     1
102
RTVSPropertyOp2
 70
     1
102
RTVSPropertyOp3
 70
     1
102
RTVSPropertyOp4
 70
     1
102
RTVSPropertyOp5
 70
     1
102
RTVSPropertyOp6
 70
     1
102
RTVSPropertyOp7
 70
     1
102
RTVSPropertyOp8
 70
     1
102
RTVSPropertyOp9
 70
     1
102
RTVSPropertyOp10
 70
     1
102
RTVSPropertyOp11
 70
     1
102
RTVSPropertyOp12
 70
     1
102
RTVSPropertyOp13
 70
     1
102
RTVSPropertyOp14
 70
     1
102
RTVSPropertyOp15
 70
     1
102
RTVSPropertyOp16
 70
     1
102
RTVSPropertyOp17
 70
     1
102
RTVSPropertyOp18
 70
     1
102
RTVSPropertyOp19
 70
     1
102
RTVSPropertyOp20
 70
     1
102
RTVSPropertyOp21
 70
     1
102
RTVSPropertyOp22
 70
     1
102
RTVSPropertyOp23
 70
     1
102
RTVSPropertyOp24
 70
     1
102
RTVSPropertyOp25
 70
     1
102
RTVSPropertyOp26
 70
     1
102
RTVSPropertyOp27
 70
     1
102
RTVSPropertyOp28
 70
     1
102
RTVSPropertyOp29
 70
     1
102
RTVSPropertyOp30
 70
     1
102
RTVSPropertyOp31
 70
     1
102
RTVSPropertyOp32
 70
     1
102
RTVSPropertyOp33
 70
     1
102
RTVSPropertyOp34
 70
     1
102
RTVSPropertyOp35
 70
     1
102
RTVSPropertyOp36
 70
     1
102
RTVSPropertyOp37
 70
     1
102
RTVSPropertyOp38
 70
     1
102
RTVSPropertyOp39
 70
     1
102
RTVSPropertyOp40
 70
     1
102
RTVSPropertyOp41
 70
     1
102
RTVSPropertyOp42
 70
     1
102
RTVSPropertyOp43
 70
     1
102
RTVSPropertyOp44
 70
     1
102
RTVSPropertyOp45
 70
     1
102
RTVSPropertyOp46
 70
     1
102
RTVSPropertyOp47
 70
     1
102
RTVSPropertyOp48
 70
     1
102
RTVSPropertyOp49
 70
     1
102
RTVSPropertyOp50
 70
     1
102
RTVSPropertyOp51
 70
     0
102
RTVSPropertyOp52
 70
     0
102
RTVSPropertyOp53
 70
     1
102
RTVSPropertyOp54
 70
     1
102
RTVSPropertyOp55
 70
     1
102
RTVSPropertyOp56
 70
     1
102
RTVSPropertyOp57
 70
     1
102
RTVSPropertyOp58
 70
     1
102
RTVSPropertyOp59
 70
     1
102
RTVSPropertyOp60
 70
     1
102
RTVSPropertyOp61
 70
     1
102
RTVSPropertyOp62
 70
     1
  0
XRECORD
  5
82A1
102
{ACAD_REACTORS
330
82A0
102
}
330
82A0
100
AcDbXrecord
280
     1
102
RTVSPost2010Prop28
280
     0
102
RTVSPost2010PropOp28
 70
     1
102
RTVSPost2010Prop29
280
     1
102
RTVSPost2010PropOp29
 70
     1
102
RTVSPost2010Prop30
280
     1
102
RTVSPost2010PropOp30
 70
     1
102
RTVSPost2010Prop31
280
     0
102
RTVSPost2010PropOp31
 70
     1
102
RTVSPost2010Prop32
280
     0
102
RTVSPost2010PropOp32
 70
     1
102
RTVSPost2010Prop33
280
     0
102
RTVSPost2010PropOp33
 70
     1
102
RTVSPost2010Prop34
280
     0
102
RTVSPost2010PropOp34
 70
     1
102
RTVSPost2010Prop35
280
     0
102
RTVSPost2010PropOp35
 70
     1
102
RTVSPost2010Prop36
280
     0
102
RTVSPost2010PropOp36
 70
     1
102
RTVSPost2010Prop37
 90
       50
102
RTVSPost2010PropOp37
 70
     1
102
RTVSPost2010Prop38
140
0.0
102
RTVSPost2010PropOp38
 70
     1
102
RTVSPost2010Prop39
140
1.0
102
RTVSPost2010PropOp39
 70
     1
102
RTVSPost2010Prop40
 90
        0
102
RTVSPost2010PropOp40
 70
     1
102
RTVSPost2010Prop41ColorIndex
 90
       18
102
RTVSPost2010Prop41ColorRGB
 90
        0
102
RTVSPost2010PropOp41
 70
     1
102
RTVSPost2010Prop42
 90
       50
102
RTVSPost2010PropOp42
 70
     1
102
RTVSPost2010Prop43
 90
        3
102
RTVSPost2010PropOp43
 70
     1
102
RTVSPost2010Prop44ColorIndex
 90
        5
102
RTVSPost2010Prop44ColorRGB
 90
      255
102
RTVSPost2010PropOp44
 70
     1
102
RTVSPost2010Prop45
280
     0
102
RTVSPost2010PropOp45
 70
     1
102
RTVSPost2010Prop46
 90
       50
102
RTVSPost2010PropOp46
 70
     1
102
RTVSPost2010Prop47
 90
       50
102
RTVSPost2010PropOp47
 70
     1
102
RTVSPost2010Prop48
 90
       50
102
RTVSPost2010PropOp48
 70
     1
102
RTVSPost2010Prop49
280
     0
102
RTVSPost2010PropOp49
 70
     1
102
RTVSPost2010Prop50
 90
       50
102
RTVSPost2010PropOp50
 70
     1
102
RTVSPost2010Prop51ColorIndex
 90
      256
102
RTVSPost2010Prop51ColorRGB
 90
-16777216
102
RTVSPost2010PropOp51
 70
     0
102
RTVSPost2010Prop52
140
1.0
102
RTVSPost2010PropOp52
 70
     0
102
RTVSPost2010Prop53
 90
        2
102
RTVSPost2010PropOp53
 70
     1
102
RTVSPost2010Prop54
  1
strokes_ogs.tif
102
RTVSPost2010PropOp54
 70
     1
102
RTVSPost2010Prop55
280
     0
102
RTVSPost2010PropOp55
 70
     1
102
RTVSPost2010Prop56
140
1.0
102
RTVSPost2010PropOp56
 70
     1
102
RTVSPost2010Prop57
140
1.0
102
RTVSPost2010PropOp57
 70
     1
102
RTVSPropertyOp0
 70
     1
102
RTVSPropertyOp1
 70
     1
102
RTVSPropertyOp2
 70
     1
102
RTVSPropertyOp3
 70
     1
102
RTVSPropertyOp4
 70
     1
102
RTVSPropertyOp5
 70
     1
102
RTVSPropertyOp6
 70
     1
102
RTVSPropertyOp7
 70
     1
102
RTVSPropertyOp8
 70
     1
102
RTVSPropertyOp9
 70
     1
102
RTVSPropertyOp10
 70
     1
102
RTVSPropertyOp11
 70
     1
102
RTVSPropertyOp12
 70
     1
102
RTVSPropertyOp13
 70
     1
102
RTVSPropertyOp14
 70
     1
102
RTVSPropertyOp15
 70
     1
102
RTVSPropertyOp16
 70
     1
102
RTVSPropertyOp17
 70
     1
102
RTVSPropertyOp18
 70
     1
102
RTVSPropertyOp19
 70
     1
102
RTVSPropertyOp20
 70
     1
102
RTVSPropertyOp21
 70
     1
102
RTVSPropertyOp22
 70
     1
102
RTVSPropertyOp23
 70
     1
102
RTVSPropertyOp24
 70
     1
102
RTVSPropertyOp25
 70
     1
102
RTVSPropertyOp26
 70
     1
102
RTVSPropertyOp27
 70
     1
102
RTVSPropertyOp28
 70
     1
102
RTVSPropertyOp29
 70
     1
102
RTVSPropertyOp30
 70
     1
102
RTVSPropertyOp31
 70
     1
102
RTVSPropertyOp32
 70
     1
102
RTVSPropertyOp33
 70
     1
102
RTVSPropertyOp34
 70
     1
102
RTVSPropertyOp35
 70
     1
102
RTVSPropertyOp36
 70
     1
102
RTVSPropertyOp37
 70
     1
102
RTVSPropertyOp38
 70
     1
102
RTVSPropertyOp39
 70
     1
102
RTVSPropertyOp40
 70
     1
102
RTVSPropertyOp41
 70
     1
102
RTVSPropertyOp42
 70
     1
102
RTVSPropertyOp43
 70
     1
102
RTVSPropertyOp44
 70
     1
102
RTVSPropertyOp45
 70
     1
102
RTVSPropertyOp46
 70
     1
102
RTVSPropertyOp47
 70
     1
102
RTVSPropertyOp48
 70
     1
102
RTVSPropertyOp49
 70
     1
102
RTVSPropertyOp50
 70
     1
102
RTVSPropertyOp51
 70
     0
102
RTVSPropertyOp52
 70
     0
102
RTVSPropertyOp53
 70
     1
102
RTVSPropertyOp54
 70
     1
102
RTVSPropertyOp55
 70
     1
102
RTVSPropertyOp56
 70
     1
102
RTVSPropertyOp57
 70
     1
102
RTVSPropertyOp58
 70
     1
102
RTVSPropertyOp59
 70
     1
102
RTVSPropertyOp60
 70
     1
102
RTVSPropertyOp61
 70
     1
102
RTVSPropertyOp62
 70
     1
  0
XRECORD
  5
82A3
102
{ACAD_REACTORS
330
82A2
102
}
330
82A2
100
AcDbXrecord
280
     1
102
RTVSPost2010Prop28
280
     0
102
RTVSPost2010PropOp28
 70
     1
102
RTVSPost2010Prop29
280
     1
102
RTVSPost2010PropOp29
 70
     1
102
RTVSPost2010Prop30
280
     1
102
RTVSPost2010PropOp30
 70
     1
102
RTVSPost2010Prop31
280
     0
102
RTVSPost2010PropOp31
 70
     1
102
RTVSPost2010Prop32
280
     0
102
RTVSPost2010PropOp32
 70
     1
102
RTVSPost2010Prop33
280
     0
102
RTVSPost2010PropOp33
 70
     1
102
RTVSPost2010Prop34
280
     0
102
RTVSPost2010PropOp34
 70
     1
102
RTVSPost2010Prop35
280
     0
102
RTVSPost2010PropOp35
 70
     1
102
RTVSPost2010Prop36
280
     0
102
RTVSPost2010PropOp36
 70
     1
102
RTVSPost2010Prop37
 90
       50
102
RTVSPost2010PropOp37
 70
     1
102
RTVSPost2010Prop38
140
0.0
102
RTVSPost2010PropOp38
 70
     1
102
RTVSPost2010Prop39
140
1.0
102
RTVSPost2010PropOp39
 70
     1
102
RTVSPost2010Prop40
 90
        0
102
RTVSPost2010PropOp40
 70
     1
102
RTVSPost2010Prop41ColorIndex
 90
       18
102
RTVSPost2010Prop41ColorRGB
 90
        0
102
RTVSPost2010PropOp41
 70
     1
102
RTVSPost2010Prop42
 90
       50
102
RTVSPost2010PropOp42
 70
     1
102
RTVSPost2010Prop43
 90
        3
102
RTVSPost2010PropOp43
 70
     1
102
RTVSPost2010Prop44ColorIndex
 90
        5
102
RTVSPost2010Prop44ColorRGB
 90
      255
102
RTVSPost2010PropOp44
 70
     1
102
RTVSPost2010Prop45
280
     0
102
RTVSPost2010PropOp45
 70
     1
102
RTVSPost2010Prop46
 90
       50
102
RTVSPost2010PropOp46
 70
     1
102
RTVSPost2010Prop47
 90
       50
102
RTVSPost2010PropOp47
 70
     1
102
RTVSPost2010Prop48
 90
       50
102
RTVSPost2010PropOp48
 70
     1
102
RTVSPost2010Prop49
280
     0
102
RTVSPost2010PropOp49
 70
     1
102
RTVSPost2010Prop50
 90
       50
102
RTVSPost2010PropOp50
 70
     1
102
RTVSPost2010Prop51ColorIndex
 90
      256
102
RTVSPost2010Prop51ColorRGB
 90
-16777216
102
RTVSPost2010PropOp51
 70
     0
102
RTVSPost2010Prop52
140
1.0
102
RTVSPost2010PropOp52
 70
     0
102
RTVSPost2010Prop53
 90
        2
102
RTVSPost2010PropOp53
 70
     1
102
RTVSPost2010Prop54
  1
strokes_ogs.tif
102
RTVSPost2010PropOp54
 70
     1
102
RTVSPost2010Prop55
280
     0
102
RTVSPost2010PropOp55
 70
     1
102
RTVSPost2010Prop56
140
1.0
102
RTVSPost2010PropOp56
 70
     1
102
RTVSPost2010Prop57
140
1.0
102
RTVSPost2010PropOp57
 70
     1
102
RTVSPropertyOp0
 70
     1
102
RTVSPropertyOp1
 70
     1
102
RTVSPropertyOp2
 70
     1
102
RTVSPropertyOp3
 70
     1
102
RTVSPropertyOp4
 70
     1
102
RTVSPropertyOp5
 70
     1
102
RTVSPropertyOp6
 70
     1
102
RTVSPropertyOp7
 70
     1
102
RTVSPropertyOp8
 70
     1
102
RTVSPropertyOp9
 70
     1
102
RTVSPropertyOp10
 70
     1
102
RTVSPropertyOp11
 70
     1
102
RTVSPropertyOp12
 70
     1
102
RTVSPropertyOp13
 70
     1
102
RTVSPropertyOp14
 70
     1
102
RTVSPropertyOp15
 70
     1
102
RTVSPropertyOp16
 70
     1
102
RTVSPropertyOp17
 70
     1
102
RTVSPropertyOp18
 70
     1
102
RTVSPropertyOp19
 70
     1
102
RTVSPropertyOp20
 70
     1
102
RTVSPropertyOp21
 70
     1
102
RTVSPropertyOp22
 70
     1
102
RTVSPropertyOp23
 70
     1
102
RTVSPropertyOp24
 70
     1
102
RTVSPropertyOp25
 70
     1
102
RTVSPropertyOp26
 70
     1
102
RTVSPropertyOp27
 70
     1
102
RTVSPropertyOp28
 70
     1
102
RTVSPropertyOp29
 70
     1
102
RTVSPropertyOp30
 70
     1
102
RTVSPropertyOp31
 70
     1
102
RTVSPropertyOp32
 70
     1
102
RTVSPropertyOp33
 70
     1
102
RTVSPropertyOp34
 70
     1
102
RTVSPropertyOp35
 70
     1
102
RTVSPropertyOp36
 70
     1
102
RTVSPropertyOp37
 70
     1
102
RTVSPropertyOp38
 70
     1
102
RTVSPropertyOp39
 70
     1
102
RTVSPropertyOp40
 70
     1
102
RTVSPropertyOp41
 70
     1
102
RTVSPropertyOp42
 70
     1
102
RTVSPropertyOp43
 70
     1
102
RTVSPropertyOp44
 70
     1
102
RTVSPropertyOp45
 70
     1
102
RTVSPropertyOp46
 70
     1
102
RTVSPropertyOp47
 70
     1
102
RTVSPropertyOp48
 70
     1
102
RTVSPropertyOp49
 70
     1
102
RTVSPropertyOp50
 70
     1
102
RTVSPropertyOp51
 70
     0
102
RTVSPropertyOp52
 70
     0
102
RTVSPropertyOp53
 70
     1
102
RTVSPropertyOp54
 70
     1
102
RTVSPropertyOp55
 70
     1
102
RTVSPropertyOp56
 70
     1
102
RTVSPropertyOp57
 70
     1
102
RTVSPropertyOp58
 70
     1
102
RTVSPropertyOp59
 70
     1
102
RTVSPropertyOp60
 70
     1
102
RTVSPropertyOp61
 70
     1
102
RTVSPropertyOp62
 70
     1
  0
XRECORD
  5
8299
102
{ACAD_REACTORS
330
8298
102
}
330
8298
100
AcDbXrecord
280
     1
102
RTVSPost2010Prop28
280
     0
102
RTVSPost2010PropOp28
 70
     1
102
RTVSPost2010Prop29
280
     1
102
RTVSPost2010PropOp29
 70
     1
102
RTVSPost2010Prop30
280
     1
102
RTVSPost2010PropOp30
 70
     1
102
RTVSPost2010Prop31
280
     0
102
RTVSPost2010PropOp31
 70
     1
102
RTVSPost2010Prop32
280
     0
102
RTVSPost2010PropOp32
 70
     1
102
RTVSPost2010Prop33
280
     0
102
RTVSPost2010PropOp33
 70
     1
102
RTVSPost2010Prop34
280
     0
102
RTVSPost2010PropOp34
 70
     1
102
RTVSPost2010Prop35
280
     0
102
RTVSPost2010PropOp35
 70
     1
102
RTVSPost2010Prop36
280
     0
102
RTVSPost2010PropOp36
 70
     1
102
RTVSPost2010Prop37
 90
       50
102
RTVSPost2010PropOp37
 70
     1
102
RTVSPost2010Prop38
140
0.0
102
RTVSPost2010PropOp38
 70
     1
102
RTVSPost2010Prop39
140
1.0
102
RTVSPost2010PropOp39
 70
     1
102
RTVSPost2010Prop40
 90
        0
102
RTVSPost2010PropOp40
 70
     1
102
RTVSPost2010Prop41ColorIndex
 90
       18
102
RTVSPost2010Prop41ColorRGB
 90
        0
102
RTVSPost2010PropOp41
 70
     1
102
RTVSPost2010Prop42
 90
       50
102
RTVSPost2010PropOp42
 70
     1
102
RTVSPost2010Prop43
 90
        3
102
RTVSPost2010PropOp43
 70
     1
102
RTVSPost2010Prop44ColorIndex
 90
        5
102
RTVSPost2010Prop44ColorRGB
 90
      255
102
RTVSPost2010PropOp44
 70
     1
102
RTVSPost2010Prop45
280
     0
102
RTVSPost2010PropOp45
 70
     1
102
RTVSPost2010Prop46
 90
       50
102
RTVSPost2010PropOp46
 70
     1
102
RTVSPost2010Prop47
 90
       50
102
RTVSPost2010PropOp47
 70
     1
102
RTVSPost2010Prop48
 90
       50
102
RTVSPost2010PropOp48
 70
     1
102
RTVSPost2010Prop49
280
     0
102
RTVSPost2010PropOp49
 70
     1
102
RTVSPost2010Prop50
 90
       50
102
RTVSPost2010PropOp50
 70
     1
102
RTVSPost2010Prop51ColorIndex
 90
      256
102
RTVSPost2010Prop51ColorRGB
 90
-16777216
102
RTVSPost2010PropOp51
 70
     0
102
RTVSPost2010Prop52
140
1.0
102
RTVSPost2010PropOp52
 70
     0
102
RTVSPost2010Prop53
 90
        2
102
RTVSPost2010PropOp53
 70
     1
102
RTVSPost2010Prop54
  1
strokes_ogs.tif
102
RTVSPost2010PropOp54
 70
     1
102
RTVSPost2010Prop55
280
     0
102
RTVSPost2010PropOp55
 70
     1
102
RTVSPost2010Prop56
140
1.0
102
RTVSPost2010PropOp56
 70
     1
102
RTVSPost2010Prop57
140
1.0
102
RTVSPost2010PropOp57
 70
     1
102
RTVSPropertyOp0
 70
     1
102
RTVSPropertyOp1
 70
     1
102
RTVSPropertyOp2
 70
     1
102
RTVSPropertyOp3
 70
     1
102
RTVSPropertyOp4
 70
     1
102
RTVSPropertyOp5
 70
     1
102
RTVSPropertyOp6
 70
     1
102
RTVSPropertyOp7
 70
     1
102
RTVSPropertyOp8
 70
     1
102
RTVSPropertyOp9
 70
     1
102
RTVSPropertyOp10
 70
     1
102
RTVSPropertyOp11
 70
     1
102
RTVSPropertyOp12
 70
     1
102
RTVSPropertyOp13
 70
     1
102
RTVSPropertyOp14
 70
     1
102
RTVSPropertyOp15
 70
     1
102
RTVSPropertyOp16
 70
     1
102
RTVSPropertyOp17
 70
     1
102
RTVSPropertyOp18
 70
     1
102
RTVSPropertyOp19
 70
     1
102
RTVSPropertyOp20
 70
     1
102
RTVSPropertyOp21
 70
     1
102
RTVSPropertyOp22
 70
     1
102
RTVSPropertyOp23
 70
     1
102
RTVSPropertyOp24
 70
     1
102
RTVSPropertyOp25
 70
     1
102
RTVSPropertyOp26
 70
     1
102
RTVSPropertyOp27
 70
     1
102
RTVSPropertyOp28
 70
     1
102
RTVSPropertyOp29
 70
     1
102
RTVSPropertyOp30
 70
     1
102
RTVSPropertyOp31
 70
     1
102
RTVSPropertyOp32
 70
     1
102
RTVSPropertyOp33
 70
     1
102
RTVSPropertyOp34
 70
     1
102
RTVSPropertyOp35
 70
     1
102
RTVSPropertyOp36
 70
     1
102
RTVSPropertyOp37
 70
     1
102
RTVSPropertyOp38
 70
     1
102
RTVSPropertyOp39
 70
     1
102
RTVSPropertyOp40
 70
     1
102
RTVSPropertyOp41
 70
     1
102
RTVSPropertyOp42
 70
     1
102
RTVSPropertyOp43
 70
     1
102
RTVSPropertyOp44
 70
     1
102
RTVSPropertyOp45
 70
     1
102
RTVSPropertyOp46
 70
     1
102
RTVSPropertyOp47
 70
     1
102
RTVSPropertyOp48
 70
     1
102
RTVSPropertyOp49
 70
     1
102
RTVSPropertyOp50
 70
     1
102
RTVSPropertyOp51
 70
     0
102
RTVSPropertyOp52
 70
     0
102
RTVSPropertyOp53
 70
     1
102
RTVSPropertyOp54
 70
     1
102
RTVSPropertyOp55
 70
     1
102
RTVSPropertyOp56
 70
     1
102
RTVSPropertyOp57
 70
     1
102
RTVSPropertyOp58
 70
     1
102
RTVSPropertyOp59
 70
     1
102
RTVSPropertyOp60
 70
     1
102
RTVSPropertyOp61
 70
     1
102
RTVSPropertyOp62
 70
     1
  0
XRECORD
  5
828D
102
{ACAD_REACTORS
330
828C
102
}
330
828C
100
AcDbXrecord
280
     1
102
RTVSPost2010Prop28
280
     0
102
RTVSPost2010PropOp28
 70
     1
102
RTVSPost2010Prop29
280
     1
102
RTVSPost2010PropOp29
 70
     1
102
RTVSPost2010Prop30
280
     1
102
RTVSPost2010PropOp30
 70
     1
102
RTVSPost2010Prop31
280
     0
102
RTVSPost2010PropOp31
 70
     1
102
RTVSPost2010Prop32
280
     0
102
RTVSPost2010PropOp32
 70
     1
102
RTVSPost2010Prop33
280
     0
102
RTVSPost2010PropOp33
 70
     1
102
RTVSPost2010Prop34
280
     0
102
RTVSPost2010PropOp34
 70
     1
102
RTVSPost2010Prop35
280
     0
102
RTVSPost2010PropOp35
 70
     1
102
RTVSPost2010Prop36
280
     0
102
RTVSPost2010PropOp36
 70
     1
102
RTVSPost2010Prop37
 90
       50
102
RTVSPost2010PropOp37
 70
     1
102
RTVSPost2010Prop38
140
0.0
102
RTVSPost2010PropOp38
 70
     1
102
RTVSPost2010Prop39
140
1.0
102
RTVSPost2010PropOp39
 70
     1
102
RTVSPost2010Prop40
 90
        0
102
RTVSPost2010PropOp40
 70
     1
102
RTVSPost2010Prop41ColorIndex
 90
       18
102
RTVSPost2010Prop41ColorRGB
 90
        0
102
RTVSPost2010PropOp41
 70
     1
102
RTVSPost2010Prop42
 90
       50
102
RTVSPost2010PropOp42
 70
     1
102
RTVSPost2010Prop43
 90
        3
102
RTVSPost2010PropOp43
 70
     1
102
RTVSPost2010Prop44ColorIndex
 90
        5
102
RTVSPost2010Prop44ColorRGB
 90
      255
102
RTVSPost2010PropOp44
 70
     1
102
RTVSPost2010Prop45
280
     0
102
RTVSPost2010PropOp45
 70
     1
102
RTVSPost2010Prop46
 90
       50
102
RTVSPost2010PropOp46
 70
     1
102
RTVSPost2010Prop47
 90
       50
102
RTVSPost2010PropOp47
 70
     1
102
RTVSPost2010Prop48
 90
       50
102
RTVSPost2010PropOp48
 70
     1
102
RTVSPost2010Prop49
280
     0
102
RTVSPost2010PropOp49
 70
     1
102
RTVSPost2010Prop50
 90
       50
102
RTVSPost2010PropOp50
 70
     1
102
RTVSPost2010Prop51ColorIndex
 90
      256
102
RTVSPost2010Prop51ColorRGB
 90
-16777216
102
RTVSPost2010PropOp51
 70
     0
102
RTVSPost2010Prop52
140
1.0
102
RTVSPost2010PropOp52
 70
     0
102
RTVSPost2010Prop53
 90
        2
102
RTVSPost2010PropOp53
 70
     1
102
RTVSPost2010Prop54
  1
strokes_ogs.tif
102
RTVSPost2010PropOp54
 70
     1
102
RTVSPost2010Prop55
280
     0
102
RTVSPost2010PropOp55
 70
     1
102
RTVSPost2010Prop56
140
1.0
102
RTVSPost2010PropOp56
 70
     1
102
RTVSPost2010Prop57
140
1.0
102
RTVSPost2010PropOp57
 70
     1
102
RTVSPropertyOp0
 70
     1
102
RTVSPropertyOp1
 70
     1
102
RTVSPropertyOp2
 70
     1
102
RTVSPropertyOp3
 70
     1
102
RTVSPropertyOp4
 70
     1
102
RTVSPropertyOp5
 70
     1
102
RTVSPropertyOp6
 70
     1
102
RTVSPropertyOp7
 70
     1
102
RTVSPropertyOp8
 70
     1
102
RTVSPropertyOp9
 70
     1
102
RTVSPropertyOp10
 70
     1
102
RTVSPropertyOp11
 70
     1
102
RTVSPropertyOp12
 70
     1
102
RTVSPropertyOp13
 70
     1
102
RTVSPropertyOp14
 70
     1
102
RTVSPropertyOp15
 70
     1
102
RTVSPropertyOp16
 70
     1
102
RTVSPropertyOp17
 70
     1
102
RTVSPropertyOp18
 70
     1
102
RTVSPropertyOp19
 70
     1
102
RTVSPropertyOp20
 70
     1
102
RTVSPropertyOp21
 70
     1
102
RTVSPropertyOp22
 70
     1
102
RTVSPropertyOp23
 70
     1
102
RTVSPropertyOp24
 70
     1
102
RTVSPropertyOp25
 70
     1
102
RTVSPropertyOp26
 70
     1
102
RTVSPropertyOp27
 70
     1
102
RTVSPropertyOp28
 70
     1
102
RTVSPropertyOp29
 70
     1
102
RTVSPropertyOp30
 70
     1
102
RTVSPropertyOp31
 70
     1
102
RTVSPropertyOp32
 70
     1
102
RTVSPropertyOp33
 70
     1
102
RTVSPropertyOp34
 70
     1
102
RTVSPropertyOp35
 70
     1
102
RTVSPropertyOp36
 70
     1
102
RTVSPropertyOp37
 70
     1
102
RTVSPropertyOp38
 70
     1
102
RTVSPropertyOp39
 70
     1
102
RTVSPropertyOp40
 70
     1
102
RTVSPropertyOp41
 70
     1
102
RTVSPropertyOp42
 70
     1
102
RTVSPropertyOp43
 70
     1
102
RTVSPropertyOp44
 70
     1
102
RTVSPropertyOp45
 70
     1
102
RTVSPropertyOp46
 70
     1
102
RTVSPropertyOp47
 70
     1
102
RTVSPropertyOp48
 70
     1
102
RTVSPropertyOp49
 70
     1
102
RTVSPropertyOp50
 70
     1
102
RTVSPropertyOp51
 70
     0
102
RTVSPropertyOp52
 70
     0
102
RTVSPropertyOp53
 70
     1
102
RTVSPropertyOp54
 70
     1
102
RTVSPropertyOp55
 70
     1
102
RTVSPropertyOp56
 70
     1
102
RTVSPropertyOp57
 70
     1
102
RTVSPropertyOp58
 70
     1
102
RTVSPropertyOp59
 70
     1
102
RTVSPropertyOp60
 70
     1
102
RTVSPropertyOp61
 70
     1
102
RTVSPropertyOp62
 70
     1
  0
XRECORD
  5
82A5
102
{ACAD_REACTORS
330
82A4
102
}
330
82A4
100
AcDbXrecord
280
     1
102
RTVSPost2010Prop28
280
     0
102
RTVSPost2010PropOp28
 70
     1
102
RTVSPost2010Prop29
280
     1
102
RTVSPost2010PropOp29
 70
     1
102
RTVSPost2010Prop30
280
     1
102
RTVSPost2010PropOp30
 70
     1
102
RTVSPost2010Prop31
280
     0
102
RTVSPost2010PropOp31
 70
     1
102
RTVSPost2010Prop32
280
     0
102
RTVSPost2010PropOp32
 70
     1
102
RTVSPost2010Prop33
280
     0
102
RTVSPost2010PropOp33
 70
     1
102
RTVSPost2010Prop34
280
     0
102
RTVSPost2010PropOp34
 70
     1
102
RTVSPost2010Prop35
280
     0
102
RTVSPost2010PropOp35
 70
     1
102
RTVSPost2010Prop36
280
     0
102
RTVSPost2010PropOp36
 70
     1
102
RTVSPost2010Prop37
 90
       50
102
RTVSPost2010PropOp37
 70
     1
102
RTVSPost2010Prop38
140
0.0
102
RTVSPost2010PropOp38
 70
     1
102
RTVSPost2010Prop39
140
1.0
102
RTVSPost2010PropOp39
 70
     1
102
RTVSPost2010Prop40
 90
        0
102
RTVSPost2010PropOp40
 70
     1
102
RTVSPost2010Prop41ColorIndex
 90
       18
102
RTVSPost2010Prop41ColorRGB
 90
        0
102
RTVSPost2010PropOp41
 70
     1
102
RTVSPost2010Prop42
 90
       50
102
RTVSPost2010PropOp42
 70
     1
102
RTVSPost2010Prop43
 90
        3
102
RTVSPost2010PropOp43
 70
     1
102
RTVSPost2010Prop44ColorIndex
 90
        5
102
RTVSPost2010Prop44ColorRGB
 90
      255
102
RTVSPost2010PropOp44
 70
     1
102
RTVSPost2010Prop45
280
     0
102
RTVSPost2010PropOp45
 70
     1
102
RTVSPost2010Prop46
 90
       50
102
RTVSPost2010PropOp46
 70
     1
102
RTVSPost2010Prop47
 90
       50
102
RTVSPost2010PropOp47
 70
     1
102
RTVSPost2010Prop48
 90
       50
102
RTVSPost2010PropOp48
 70
     1
102
RTVSPost2010Prop49
280
     0
102
RTVSPost2010PropOp49
 70
     1
102
RTVSPost2010Prop50
 90
       50
102
RTVSPost2010PropOp50
 70
     1
102
RTVSPost2010Prop51ColorIndex
 90
      256
102
RTVSPost2010Prop51ColorRGB
 90
-16777216
102
RTVSPost2010PropOp51
 70
     0
102
RTVSPost2010Prop52
140
1.0
102
RTVSPost2010PropOp52
 70
     0
102
RTVSPost2010Prop53
 90
        2
102
RTVSPost2010PropOp53
 70
     1
102
RTVSPost2010Prop54
  1
strokes_ogs.tif
102
RTVSPost2010PropOp54
 70
     1
102
RTVSPost2010Prop55
280
     0
102
RTVSPost2010PropOp55
 70
     1
102
RTVSPost2010Prop56
140
1.0
102
RTVSPost2010PropOp56
 70
     1
102
RTVSPost2010Prop57
140
1.0
102
RTVSPost2010PropOp57
 70
     1
102
RTVSPropertyOp0
 70
     1
102
RTVSPropertyOp1
 70
     1
102
RTVSPropertyOp2
 70
     1
102
RTVSPropertyOp3
 70
     1
102
RTVSPropertyOp4
 70
     1
102
RTVSPropertyOp5
 70
     1
102
RTVSPropertyOp6
 70
     1
102
RTVSPropertyOp7
 70
     1
102
RTVSPropertyOp8
 70
     1
102
RTVSPropertyOp9
 70
     1
102
RTVSPropertyOp10
 70
     1
102
RTVSPropertyOp11
 70
     1
102
RTVSPropertyOp12
 70
     1
102
RTVSPropertyOp13
 70
     1
102
RTVSPropertyOp14
 70
     1
102
RTVSPropertyOp15
 70
     1
102
RTVSPropertyOp16
 70
     1
102
RTVSPropertyOp17
 70
     1
102
RTVSPropertyOp18
 70
     1
102
RTVSPropertyOp19
 70
     1
102
RTVSPropertyOp20
 70
     1
102
RTVSPropertyOp21
 70
     1
102
RTVSPropertyOp22
 70
     1
102
RTVSPropertyOp23
 70
     1
102
RTVSPropertyOp24
 70
     1
102
RTVSPropertyOp25
 70
     1
102
RTVSPropertyOp26
 70
     1
102
RTVSPropertyOp27
 70
     1
102
RTVSPropertyOp28
 70
     1
102
RTVSPropertyOp29
 70
     1
102
RTVSPropertyOp30
 70
     1
102
RTVSPropertyOp31
 70
     1
102
RTVSPropertyOp32
 70
     1
102
RTVSPropertyOp33
 70
     1
102
RTVSPropertyOp34
 70
     1
102
RTVSPropertyOp35
 70
     1
102
RTVSPropertyOp36
 70
     1
102
RTVSPropertyOp37
 70
     1
102
RTVSPropertyOp38
 70
     1
102
RTVSPropertyOp39
 70
     1
102
RTVSPropertyOp40
 70
     1
102
RTVSPropertyOp41
 70
     1
102
RTVSPropertyOp42
 70
     1
102
RTVSPropertyOp43
 70
     1
102
RTVSPropertyOp44
 70
     1
102
RTVSPropertyOp45
 70
     1
102
RTVSPropertyOp46
 70
     1
102
RTVSPropertyOp47
 70
     1
102
RTVSPropertyOp48
 70
     1
102
RTVSPropertyOp49
 70
     1
102
RTVSPropertyOp50
 70
     1
102
RTVSPropertyOp51
 70
     0
102
RTVSPropertyOp52
 70
     0
102
RTVSPropertyOp53
 70
     1
102
RTVSPropertyOp54
 70
     1
102
RTVSPropertyOp55
 70
     1
102
RTVSPropertyOp56
 70
     1
102
RTVSPropertyOp57
 70
     1
102
RTVSPropertyOp58
 70
     1
102
RTVSPropertyOp59
 70
     1
102
RTVSPropertyOp60
 70
     1
102
RTVSPropertyOp61
 70
     1
102
RTVSPropertyOp62
 70
     1
  0
ENDSEC
  0
EOF
