  0
SECTION
  2
HEADER
  9
$ACADVER
  1
AC1015
  9
$ACADMAINTVER
 70
    20
  9
$DWGCODEPAGE
  3
ANSI_932
  9
$INSBASE
 10
0.0
 20
0.0
 30
0.0
  9
$EXTMIN
 10
-0.1281640493871237
 20
-0.1800399741405272
 30
-0.0015258207003583
  9
$EXTMAX
 10
4200.128183607161
 20
5900.180067448153
 30
0.0000000349246037
  9
$LIMMIN
 10
0.0
 20
0.0
  9
$LIMMAX
 10
297.0
 20
210.0
  9
$ORTHOMODE
 70
     1
  9
$REGENMODE
 70
     1
  9
$FILLMODE
 70
     0
  9
$QTEXTMODE
 70
     0
  9
$MIRRTEXT
 70
     1
  9
$LTSCALE
 40
100.0
  9
$ATTMODE
 70
     1
  9
$TEXTSIZE
 40
180.0
  9
$TRACEWID
 40
0.05
  9
$TEXTSTYLE
  7
STANDARD
  9
$CLAYER
  8
3
  9
$CELTYPE
  6
ByLayer
  9
$CECOLOR
 62
   256
  9
$CELTSCALE
 40
1.0
  9
$DISPSILH
 70
     0
  9
$DIMSCALE
 40
20.0
  9
$DIMASZ
 40
2.0
  9
$DIMEXO
 40
1.0
  9
$DIMDLI
 40
10.0
  9
$DIMRND
 40
0.0
  9
$DIMDLE
 40
0.0
  9
$DIMEXE
 40
1.0
  9
$DIMTP
 40
1.0
  9
$DIMTM
 40
1.0
  9
$DIMTXT
 40
3.0
  9
$DIMCEN
 40
0.0
  9
$DIMTSZ
 40
0.0
  9
$DIMTOL
 70
     0
  9
$DIMLIM
 70
     0
  9
$DIMTIH
 70
     0
  9
$DIMTOH
 70
     0
  9
$DIMSE1
 70
     0
  9
$DIMSE2
 70
     0
  9
$DIMTAD
 70
     1
  9
$DIMZIN
 70
     8
  9
$DIMBLK
  1

  9
$DIMASO
 70
     1
  9
$DIMSHO
 70
     1
  9
$DIMPOST
  1

  9
$DIMAPOST
  1

  9
$DIMALT
 70
     0
  9
$DIMALTD
 70
     2
  9
$DIMALTF
 40
0.039
  9
$DIMLFAC
 40
1.0
  9
$DIMTOFL
 70
     1
  9
$DIMTVP
 40
0.0
  9
$DIMTIX
 70
     0
  9
$DIMSOXD
 70
     0
  9
$DIMSAH
 70
     1
  9
$DIMBLK1
  1
OPEN
  9
$DIMBLK2
  1
OPEN
  9
$DIMSTYLE
  2
IGA
  9
$DIMCLRD
 70
     0
  9
$DIMCLRE
 70
     0
  9
$DIMCLRT
 70
     0
  9
$DIMTFAC
 40
10.0
  9
$DIMGAP
 40
1.0
  9
$DIMJUST
 70
     0
  9
$DIMSD1
 70
     0
  9
$DIMSD2
 70
     0
  9
$DIMTOLJ
 70
     1
  9
$DIMTZIN
 70
     0
  9
$DIMALTZ
 70
     0
  9
$DIMALTTZ
 70
     0
  9
$DIMUPT
 70
     0
  9
$DIMDEC
 70
     4
  9
$DIMTDEC
 70
     4
  9
$DIMALTU
 70
     2
  9
$DIMALTTD
 70
     2
  9
$DIMTXSTY
  7
STANDARD
  9
$DIMAUNIT
 70
     0
  9
$DIMADEC
 70
     0
  9
$DIMALTRND
 40
0.0
  9
$DIMAZIN
 70
     0
  9
$DIMDSEP
 70
    46
  9
$DIMATFIT
 70
     3
  9
$DIMFRAC
 70
     0
  9
$DIMLDRBLK
  1
OPEN
  9
$DIMLUNIT
 70
     2
  9
$DIMLWD
 70
    -2
  9
$DIMLWE
 70
    -2
  9
$DIMTMOVE
 70
     0
  9
$LUNITS
 70
     2
  9
$LUPREC
 70
     3
  9
$SKETCHINC
 40
0.1
  9
$FILLETRAD
 40
50.0
  9
$AUNITS
 70
     0
  9
$AUPREC
 70
     0
  9
$MENU
  1
acad
  9
$ELEVATION
 40
0.0
  9
$PELEVATION
 40
0.0
  9
$THICKNESS
 40
0.0
  9
$LIMCHECK
 70
     0
  9
$CHAMFERA
 40
0.5
  9
$CHAMFERB
 40
0.5
  9
$CHAMFERC
 40
0.0
  9
$CHAMFERD
 40
0.0
  9
$SKPOLY
 70
     0
  9
$TDCREATE
 40
2451387.398891204
  9
$TDUCREATE
 40
2451387.023891204
  9
$TDUPDATE
 40
2460262.640831238
  9
$TDUUPDATE
 40
2460262.265831239
  9
$TDINDWG
 40
0.0879092593
  9
$TDUSRTIMER
 40
0.0879092361
  9
$USRTIMER
 70
     1
  9
$ANGBASE
 50
0.0
  9
$ANGDIR
 70
     0
  9
$PDMODE
 70
     0
  9
$PDSIZE
 40
0.0
  9
$PLINEWID
 40
0.0
  9
$SPLFRAME
 70
     0
  9
$SPLINETYPE
 70
     6
  9
$SPLINESEGS
 70
     8
  9
$HANDSEED
  5
8212
  9
$SURFTAB1
 70
     6
  9
$SURFTAB2
 70
     6
  9
$SURFTYPE
 70
     6
  9
$SURFU
 70
     6
  9
$SURFV
 70
     6
  9
$UCSBASE
  2

  9
$UCSNAME
  2

  9
$UCSORG
 10
0.0
 20
0.0
 30
0.0
  9
$UCSXDIR
 10
1.0
 20
0.0
 30
0.0
  9
$UCSYDIR
 10
0.0
 20
1.0
 30
0.0
  9
$UCSORTHOREF
  2

  9
$UCSORTHOVIEW
 70
     0
  9
$UCSORGTOP
 10
0.0
 20
0.0
 30
0.0
  9
$UCSORGBOTTOM
 10
0.0
 20
0.0
 30
0.0
  9
$UCSORGLEFT
 10
0.0
 20
0.0
 30
0.0
  9
$UCSORGRIGHT
 10
0.0
 20
0.0
 30
0.0
  9
$UCSORGFRONT
 10
0.0
 20
0.0
 30
0.0
  9
$UCSORGBACK
 10
0.0
 20
0.0
 30
0.0
  9
$PUCSBASE
  2

  9
$PUCSNAME
  2

  9
$PUCSORG
 10
0.0
 20
0.0
 30
0.0
  9
$PUCSXDIR
 10
1.0
 20
0.0
 30
0.0
  9
$PUCSYDIR
 10
0.0
 20
1.0
 30
0.0
  9
$PUCSORTHOREF
  2

  9
$PUCSORTHOVIEW
 70
     0
  9
$PUCSORGTOP
 10
0.0
 20
0.0
 30
0.0
  9
$PUCSORGBOTTOM
 10
0.0
 20
0.0
 30
0.0
  9
$PUCSORGLEFT
 10
0.0
 20
0.0
 30
0.0
  9
$PUCSORGRIGHT
 10
0.0
 20
0.0
 30
0.0
  9
$PUCSORGFRONT
 10
0.0
 20
0.0
 30
0.0
  9
$PUCSORGBACK
 10
0.0
 20
0.0
 30
0.0
  9
$USERI1
 70
     0
  9
$USERI2
 70
     0
  9
$USERI3
 70
     0
  9
$USERI4
 70
     0
  9
$USERI5
 70
     0
  9
$USERR1
 40
0.0
  9
$USERR2
 40
0.0
  9
$USERR3
 40
0.0
  9
$USERR4
 40
0.0
  9
$USERR5
 40
0.0
  9
$WORLDVIEW
 70
     1
  9
$SHADEDGE
 70
     3
  9
$SHADEDIF
 70
    70
  9
$TILEMODE
 70
     1
  9
$MAXACTVP
 70
    16
  9
$PINSBASE
 10
0.0
 20
0.0
 30
0.0
  9
$PLIMCHECK
 70
     0
  9
$PEXTMIN
 10
1.000000000000000E+20
 20
1.000000000000000E+20
 30
1.000000000000000E+20
  9
$PEXTMAX
 10
-1.000000000000000E+20
 20
-1.000000000000000E+20
 30
-1.000000000000000E+20
  9
$PLIMMIN
 10
0.0
 20
0.0
  9
$PLIMMAX
 10
12.0
 20
9.0
  9
$UNITMODE
 70
     0
  9
$VISRETAIN
 70
     0
  9
$PLINEGEN
 70
     0
  9
$PSLTSCALE
 70
     1
  9
$TREEDEPTH
 70
  3020
  9
$CMLSTYLE
  2
Standard
  9
$CMLJUST
 70
     0
  9
$CMLSCALE
 40
1.0
  9
$PROXYGRAPHICS
 70
     1
  9
$MEASUREMENT
 70
     0
  9
$CELWEIGHT
370
    -1
  9
$ENDCAPS
280
     0
  9
$JOINSTYLE
280
     0
  9
$LWDISPLAY
290
     0
  9
$INSUNITS
 70
     0
  9
$HYPERLINKBASE
  1

  9
$STYLESHEET
  1

  9
$XEDIT
290
     1
  9
$CEPSNTYPE
380
     0
  9
$PSTYLEMODE
290
     1
  9
$FINGERPRINTGUID
  2
{E94739DE-AA2E-4832-84A0-90C26465C787}
  9
$VERSIONGUID
  2
{6B2B08A5-C763-4730-AF93-5C77470BFC11}
  9
$EXTNAMES
290
     1
  9
$PSVPSCALE
 40
0.0
  9
$OLESTARTUP
290
     0
  0
ENDSEC
  0
SECTION
  2
CLASSES
  0
CLASS
  1
ACDBDICTIONARYWDFLT
  2
AcDbDictionaryWithDefault
  3
ObjectDBX Classes
 90
        0
280
     0
281
     0
  0
CLASS
  1
MATERIAL
  2
AcDbMaterial
  3
ObjectDBX Classes
 90
     1153
280
     0
281
     0
  0
CLASS
  1
VISUALSTYLE
  2
AcDbVisualStyle
  3
ObjectDBX Classes
 90
     4095
280
     0
281
     0
  0
CLASS
  1
SCALE
  2
AcDbScale
  3
ObjectDBX Classes
 90
     1153
280
     0
281
     0
  0
CLASS
  1
TABLESTYLE
  2
AcDbTableStyle
  3
ObjectDBX Classes
 90
     4095
280
     0
281
     0
  0
CLASS
  1
MLEADERSTYLE
  2
AcDbMLeaderStyle
  3
ACDB_MLEADERSTYLE_CLASS
 90
     4095
280
     0
281
     0
  0
CLASS
  1
ACDBSECTIONVIEWSTYLE
  2
AcDbSectionViewStyle
  3
ObjectDBX Classes
 90
     1025
280
     0
281
     0
  0
CLASS
  1
ACDBDETAILVIEWSTYLE
  2
AcDbDetailViewStyle
  3
ObjectDBX Classes
 90
     1025
280
     0
281
     0
  0
CLASS
  1
DICTIONARYVAR
  2
AcDbDictionaryVar
  3
ObjectDBX Classes
 90
        0
280
     0
281
     0
  0
CLASS
  1
CELLSTYLEMAP
  2
AcDbCellStyleMap
  3
ObjectDBX Classes
 90
     1152
280
     0
281
     0
  0
CLASS
  1
ACDBPLACEHOLDER
  2
AcDbPlaceHolder
  3
ObjectDBX Classes
 90
        0
280
     0
281
     0
  0
CLASS
  1
LAYOUT
  2
AcDbLayout
  3
ObjectDBX Classes
 90
        0
280
     0
281
     0
  0
ENDSEC
  0
SECTION
  2
TABLES
  0
TABLE
  2
VPORT
  5
8092
330
0
100
AcDbSymbolTable
 70
     1
  0
VPORT
  5
80FE
330
8092
100
AcDbSymbolTableRecord
100
AcDbViewportTableRecord
  2
*ACTIVE
 70
     0
 10
0.0
 20
0.0
 11
1.0
 21
1.0
 12
2100.000009778887
 22
2950.000013737006
 13
0.0
 23
0.0
 14
10.0
 24
10.0
 15
10.0
 25
10.0
 16
0.0
 26
0.0
 36
1.0
 17
0.0
 27
0.0
 37
0.0
 40
5938.142562752639
 41
2.050213675213675
 42
50.0
 43
0.0
 44
0.0
 50
0.0
 51
0.0
 71
     0
 72
   100
 73
     1
 74
     0
 75
     0
 76
     0
 77
     0
 78
     0
281
     0
 65
     1
110
0.0
120
0.0
130
0.0
111
1.0
121
0.0
131
0.0
112
0.0
122
1.0
132
0.0
 79
     0
146
0.0
1001
ACAD_NAV_VCDISPLAY
1070
     3
  0
ENDTAB
  0
TABLE
  2
LTYPE
  5
808F
330
0
100
AcDbSymbolTable
 70
     2
  0
LTYPE
  5
80E4
330
808F
100
AcDbSymbolTableRecord
100
AcDbLinetypeTableRecord
  2
ByBlock
 70
     0
  3

 72
    65
 73
     0
 40
0.0
  0
LTYPE
  5
80E5
330
808F
100
AcDbSymbolTableRecord
100
AcDbLinetypeTableRecord
  2
ByLayer
 70
     0
  3

 72
    65
 73
     0
 40
0.0
  0
LTYPE
  5
80E6
330
808F
100
AcDbSymbolTableRecord
100
AcDbLinetypeTableRecord
  2
CONTINUOUS
 70
     0
  3
Solid line
 72
    65
 73
     0
 40
0.0
  0
LTYPE
  5
80FF
330
808F
100
AcDbSymbolTableRecord
100
AcDbLinetypeTableRecord
  2
CENTER
 70
     0
  3
____ _ ____ _ ____ _ ____ _ ____ _ ____ _ ____ 
 72
    65
 73
     4
 40
2.0
 49
1.25
 74
     0
 49
-0.25
 74
     0
 49
0.25
 74
     0
 49
-0.25
 74
     0
  0
ENDTAB
  0
TABLE
  2
LAYER
  5
808C
330
0
100
AcDbSymbolTable
 70
     6
  0
LAYER
  5
80DE
102
{ACAD_XDICTIONARY
360
81BC
102
}
330
808C
100
AcDbSymbolTableRecord
100
AcDbLayerTableRecord
  2
0
 70
     0
 62
     7
  6
CONTINUOUS
370
    -3
390
8099
  0
LAYER
  5
80FD
102
{ACAD_XDICTIONARY
360
81BE
102
}
330
808C
100
AcDbSymbolTableRecord
100
AcDbLayerTableRecord
  2
3
 70
     0
 62
     2
  6
CONTINUOUS
370
    -3
390
8099
  0
LAYER
  5
8100
102
{ACAD_XDICTIONARY
360
81C0
102
}
330
808C
100
AcDbSymbolTableRecord
100
AcDbLayerTableRecord
  2
2
 70
     0
 62
     3
  6
CENTER
370
    -3
390
8099
  0
LAYER
  5
8101
102
{ACAD_XDICTIONARY
360
81C2
102
}
330
808C
100
AcDbSymbolTableRecord
100
AcDbLayerTableRecord
  2
1
 70
     0
 62
     4
  6
CONTINUOUS
370
    -3
390
8099
  0
LAYER
  5
8102
102
{ACAD_XDICTIONARY
360
81C4
102
}
330
808C
100
AcDbSymbolTableRecord
100
AcDbLayerTableRecord
  2
4
 70
     0
 62
     7
  6
CONTINUOUS
370
    -3
390
8099
  0
LAYER
  5
8103
330
808C
100
AcDbSymbolTableRecord
100
AcDbLayerTableRecord
  2
DEFPOINTS
 70
     0
 62
     7
  6
CONTINUOUS
290
     0
370
    -3
390
8099
  0
ENDTAB
  0
TABLE
  2
STYLE
  5
808D
330
0
100
AcDbSymbolTable
 70
     2
  0
STYLE
  5
80DF
330
808D
100
AcDbSymbolTableRecord
100
AcDbTextStyleTableRecord
  2
STANDARD
 70
     0
 40
0.0
 41
1.0
 50
0.0
 71
     0
 42
180.0
  3
simplex.shx
  4
extfont.shx
  0
STYLE
  5
80E3
330
808D
100
AcDbSymbolTableRecord
100
AcDbTextStyleTableRecord
  2
Annotative
 70
     0
 40
0.0
 41
1.0
 50
0.0
 71
     0
 42
0.2
  3
txt
  4

1001
AcadAnnotative
1000
AnnotativeData
1002
{
1070
     1
1070
     1
1002
}
  0
ENDTAB
  0
TABLE
  2
VIEW
  5
8090
330
0
100
AcDbSymbolTable
 70
     0
  0
ENDTAB
  0
TABLE
  2
UCS
  5
8091
330
0
100
AcDbSymbolTable
 70
     0
  0
ENDTAB
  0
TABLE
  2
APPID
  5
8093
330
0
100
AcDbSymbolTable
 70
     6
  0
APPID
  5
80E0
330
8093
100
AcDbSymbolTableRecord
100
AcDbRegAppTableRecord
  2
ACAD
 70
     0
  0
APPID
  5
80E7
330
8093
100
AcDbSymbolTableRecord
100
AcDbRegAppTableRecord
  2
AcadAnnotative
 70
     0
  0
APPID
  5
8181
330
8093
100
AcDbSymbolTableRecord
100
AcDbRegAppTableRecord
  2
ACAD_DSTYLE_DIMJAG
 70
     0
  0
APPID
  5
8182
330
8093
100
AcDbSymbolTableRecord
100
AcDbRegAppTableRecord
  2
ACAD_DSTYLE_DIMTALN
 70
     0
  0
APPID
  5
81D0
330
8093
100
AcDbSymbolTableRecord
100
AcDbRegAppTableRecord
  2
ACAD_NAV_VCDISPLAY
 70
     0
  0
APPID
  5
8209
330
8093
100
AcDbSymbolTableRecord
100
AcDbRegAppTableRecord
  2
ACAD_MLEADERVER
 70
     0
  0
ENDTAB
  0
TABLE
  2
DIMSTYLE
  5
8094
330
0
100
AcDbSymbolTable
 70
     4
100
AcDbDimStyleTable
 71
     1
340
8104
  0
DIMSTYLE
105
80E1
102
{ACAD_REACTORS
330
7C1D
330
7C1E
330
7C20
330
7C44
330
7C48
330
7C4B
330
7C80
330
7C81
330
7C82
330
7C88
330
7C94
330
7FD3
330
7FE0
330
7FED
330
7FFA
330
8009
330
8016
102
}
330
8094
100
AcDbSymbolTableRecord
100
AcDbDimStyleTableRecord
  2
Standard
 70
     0
340
80DF
  0
DIMSTYLE
105
80E2
330
8094
100
AcDbSymbolTableRecord
100
AcDbDimStyleTableRecord
  2
Annotative
 70
     0
340
80DF
1001
AcadAnnotative
1000
AnnotativeData
1002
{
1070
     1
1070
     1
1002
}
  0
DIMSTYLE
105
8104
102
{ACAD_REACTORS
330
8142
330
814F
330
8183
330
8190
330
81A6
102
}
330
8094
100
AcDbSymbolTableRecord
100
AcDbDimStyleTableRecord
  2
IGA
 70
     0
 40
2.0
 41
2.0
 42
0.5
 43
10.0
 44
1.0
 47
1.0
 48
1.0
 73
     0
 74
     0
 77
     1
 78
     8
140
3.0
141
0.0
143
0.03937
146
10.0
147
1.0
173
     1
271
     3
272
     3
279
     2
284
     8
285
     8
286
     8
340
80DF
  0
DIMSTYLE
105
8105
330
8094
100
AcDbSymbolTableRecord
100
AcDbDimStyleTableRecord
  2
MATSU
 70
     0
 41
2.0
 42
1.0
 43
10.0
 44
1.0
 73
     0
 74
     0
 77
     1
 78
     8
140
3.0
141
0.0
143
0.03937
147
0.5
172
     1
173
     1
176
   256
177
   256
178
   256
271
     3
272
     3
279
     2
284
     8
285
     8
286
     8
340
80DF
  0
ENDTAB
  0
TABLE
  2
BLOCK_RECORD
  5
808B
330
0
100
AcDbSymbolTable
 70
    33
  0
BLOCK_RECORD
  5
80F9
330
808B
100
AcDbSymbolTableRecord
100
AcDbBlockTableRecord
  2
*Model_Space
340
80FC
  0
BLOCK_RECORD
  5
80F5
330
808B
100
AcDbSymbolTableRecord
100
AcDbBlockTableRecord
  2
*Paper_Space
340
80F8
  0
BLOCK_RECORD
  5
8109
330
808B
100
AcDbSymbolTableRecord
100
AcDbBlockTableRecord
  2
$MODEL_SPACE
340
0
  0
BLOCK_RECORD
  5
810B
330
808B
100
AcDbSymbolTableRecord
100
AcDbBlockTableRecord
  2
$PAPER_SPACE
340
0
  0
BLOCK_RECORD
  5
810D
330
808B
100
AcDbSymbolTableRecord
100
AcDbBlockTableRecord
  2
_OPEN
340
0
102
{BLKREFS
331
7E8C
331
7F9E
331
7F9F
331
8077
331
8078
331
807F
331
7FCC
331
7FCD
331
7FD9
331
7FDA
331
7FE6
331
7FE7
331
818A
331
818B
331
81A0
331
81A1
331
81B6
331
81B7
331
8080
331
7DCC
331
7DCD
331
7DD7
331
7DD8
331
7ECB
331
7ECC
331
7EE1
331
7EE2
331
7EEC
331
7EED
331
7FF3
331
7FF4
331
800F
331
8010
331
8171
331
8172
331
817A
331
817B
331
7DF8
331
7DF9
331
7E03
331
7E04
331
7F0C
331
7F0D
331
7E3A
331
7E3B
331
7E45
331
7E46
331
7E50
331
7E51
331
7F6E
331
7F6F
102
}
  0
BLOCK_RECORD
  5
810F
330
808B
100
AcDbSymbolTableRecord
100
AcDbBlockTableRecord
  2
YA_N
340
0
102
{BLKREFS
331
7BED
331
7C04
102
}
  0
BLOCK_RECORD
  5
8111
330
808B
100
AcDbSymbolTableRecord
100
AcDbBlockTableRecord
  2
_DOT
340
0
102
{BLKREFS
331
7E8B
102
}
  0
BLOCK_RECORD
  5
8113
330
808B
100
AcDbSymbolTableRecord
100
AcDbBlockTableRecord
  2
*D5
340
0
  0
BLOCK_RECORD
  5
8115
330
808B
100
AcDbSymbolTableRecord
100
AcDbBlockTableRecord
  2
*D6
340
0
  0
BLOCK_RECORD
  5
8117
330
808B
100
AcDbSymbolTableRecord
100
AcDbBlockTableRecord
  2
*D7
340
0
  0
BLOCK_RECORD
  5
8119
330
808B
100
AcDbSymbolTableRecord
100
AcDbBlockTableRecord
  2
*D8
340
0
  0
BLOCK_RECORD
  5
811B
330
808B
100
AcDbSymbolTableRecord
100
AcDbBlockTableRecord
  2
*D9
340
0
  0
BLOCK_RECORD
  5
811D
330
808B
100
AcDbSymbolTableRecord
100
AcDbBlockTableRecord
  2
*D10
340
0
  0
BLOCK_RECORD
  5
811F
330
808B
100
AcDbSymbolTableRecord
100
AcDbBlockTableRecord
  2
*D11
340
0
  0
BLOCK_RECORD
  5
8121
330
808B
100
AcDbSymbolTableRecord
100
AcDbBlockTableRecord
  2
*D12
340
0
  0
BLOCK_RECORD
  5
8123
330
808B
100
AcDbSymbolTableRecord
100
AcDbBlockTableRecord
  2
*D13
340
0
  0
BLOCK_RECORD
  5
8125
330
808B
100
AcDbSymbolTableRecord
100
AcDbBlockTableRecord
  2
*D14
340
0
  0
BLOCK_RECORD
  5
8127
330
808B
100
AcDbSymbolTableRecord
100
AcDbBlockTableRecord
  2
*D15
340
0
  0
BLOCK_RECORD
  5
8129
330
808B
100
AcDbSymbolTableRecord
100
AcDbBlockTableRecord
  2
*D16
340
0
  0
BLOCK_RECORD
  5
812B
330
808B
100
AcDbSymbolTableRecord
100
AcDbBlockTableRecord
  2
*D17
340
0
  0
BLOCK_RECORD
  5
812D
330
808B
100
AcDbSymbolTableRecord
100
AcDbBlockTableRecord
  2
*D18
340
0
  0
BLOCK_RECORD
  5
812F
330
808B
100
AcDbSymbolTableRecord
100
AcDbBlockTableRecord
  2
*D19
340
0
  0
BLOCK_RECORD
  5
8131
330
808B
100
AcDbSymbolTableRecord
100
AcDbBlockTableRecord
  2
*D20
340
0
  0
BLOCK_RECORD
  5
8133
330
808B
100
AcDbSymbolTableRecord
100
AcDbBlockTableRecord
  2
*D21
340
0
  0
BLOCK_RECORD
  5
8135
330
808B
100
AcDbSymbolTableRecord
100
AcDbBlockTableRecord
  2
*D22
340
0
  0
BLOCK_RECORD
  5
8137
330
808B
100
AcDbSymbolTableRecord
100
AcDbBlockTableRecord
  2
*D23
340
0
  0
BLOCK_RECORD
  5
8139
330
808B
100
AcDbSymbolTableRecord
100
AcDbBlockTableRecord
  2
*D24
340
0
  0
BLOCK_RECORD
  5
813B
330
808B
100
AcDbSymbolTableRecord
100
AcDbBlockTableRecord
  2
_NONE
340
0
  0
BLOCK_RECORD
  5
813D
330
808B
100
AcDbSymbolTableRecord
100
AcDbBlockTableRecord
  2
*D26
340
0
  0
BLOCK_RECORD
  5
813F
330
808B
100
AcDbSymbolTableRecord
100
AcDbBlockTableRecord
  2
*D27
340
0
  0
BLOCK_RECORD
  5
8143
330
808B
100
AcDbSymbolTableRecord
100
AcDbBlockTableRecord
  2
*D28
340
0
  0
BLOCK_RECORD
  5
8150
330
808B
100
AcDbSymbolTableRecord
100
AcDbBlockTableRecord
  2
*D29
340
0
  0
BLOCK_RECORD
  5
8184
330
808B
100
AcDbSymbolTableRecord
100
AcDbBlockTableRecord
  2
*D30
340
0
  0
BLOCK_RECORD
  5
8191
330
808B
100
AcDbSymbolTableRecord
100
AcDbBlockTableRecord
  2
*D31
340
0
  0
BLOCK_RECORD
  5
81A7
330
808B
100
AcDbSymbolTableRecord
100
AcDbBlockTableRecord
  2
*D32
340
0
  0
ENDTAB
  0
ENDSEC
  0
SECTION
  2
BLOCKS
  0
BLOCK
  5
80FA
330
80F9
100
AcDbEntity
  8
0
100
AcDbBlockBegin
  2
*Model_Space
 70
     0
 10
0.0
 20
0.0
 30
0.0
  3
*Model_Space
  1

  0
ENDBLK
  5
80FB
330
80F9
100
AcDbEntity
  8
0
100
AcDbBlockEnd
  0
BLOCK
  5
80F6
330
80F5
100
AcDbEntity
 67
     1
  8
0
100
AcDbBlockBegin
  2
*Paper_Space
 70
     0
 10
0.0
 20
0.0
 30
0.0
  3
*Paper_Space
  1

  0
ENDBLK
  5
80F7
330
80F5
100
AcDbEntity
 67
     1
  8
0
100
AcDbBlockEnd
  0
BLOCK
  5
810A
330
8109
100
AcDbEntity
  8
0
100
AcDbBlockBegin
  2
$MODEL_SPACE
 70
     0
 10
0.0
 20
0.0
 30
0.0
  3
$MODEL_SPACE
  1

  0
ENDBLK
  5
1B
330
8109
100
AcDbEntity
  8
0
100
AcDbBlockEnd
  0
BLOCK
  5
810C
330
810B
100
AcDbEntity
  8
0
100
AcDbBlockBegin
  2
$PAPER_SPACE
 70
     0
 10
0.0
 20
0.0
 30
0.0
  3
$PAPER_SPACE
  1

  0
ENDBLK
  5
18
330
810B
100
AcDbEntity
  8
0
100
AcDbBlockEnd
  0
BLOCK
  5
810E
330
810D
100
AcDbEntity
  8
0
100
AcDbBlockBegin
  2
_OPEN
 70
     0
 10
0.0
 20
0.0
 30
0.0
  3
_OPEN
  1

  0
LINE
  5
79FD
330
810D
100
AcDbEntity
  8
0
  6
ByBlock
 62
     0
100
AcDbLine
 10
-1.0
 20
0.1666666666666666
 30
0.0
 11
0.0
 21
0.0
 31
0.0
  0
LINE
  5
79FE
330
810D
100
AcDbEntity
  8
0
  6
ByBlock
 62
     0
100
AcDbLine
 10
0.0
 20
0.0
 30
0.0
 11
-1.0
 21
-0.1666666666666666
 31
0.0
  0
LINE
  5
79FF
330
810D
100
AcDbEntity
  8
0
  6
ByBlock
 62
     0
100
AcDbLine
 10
0.0
 20
0.0
 30
0.0
 11
-1.0
 21
0.0
 31
0.0
  0
ENDBLK
  5
7A01
330
810D
100
AcDbEntity
  8
0
100
AcDbBlockEnd
  0
BLOCK
  5
8110
330
810F
100
AcDbEntity
  8
0
100
AcDbBlockBegin
  2
YA_N
 70
     0
 10
0.0
 20
0.0
 30
0.0
  3
YA_N
  1

  0
ENDBLK
  5
7A04
330
810F
100
AcDbEntity
  8
0
100
AcDbBlockEnd
  0
BLOCK
  5
8112
330
8111
100
AcDbEntity
  8
0
100
AcDbBlockBegin
  2
_DOT
 70
     0
 10
0.0
 20
0.0
 30
0.0
  3
_DOT
  1

  0
LWPOLYLINE
  5
7F5E
330
8111
100
AcDbEntity
  8
0
  6
ByBlock
 62
     0
100
AcDbPolyline
 90
        2
 70
     1
 43
0.25
 10
-0.125
 20
0.0
 42
1.0
 10
0.125
 20
0.0
 42
1.0
  0
LINE
  5
7F62
330
8111
100
AcDbEntity
  8
0
  6
ByBlock
 62
     0
100
AcDbLine
 10
-0.25
 20
0.0
 30
0.0
 11
-1.0
 21
0.0
 31
0.0
  0
ENDBLK
  5
7B32
330
8111
100
AcDbEntity
  8
0
100
AcDbBlockEnd
  0
BLOCK
  5
8114
330
8113
100
AcDbEntity
  8
0
100
AcDbBlockBegin
  2
*D5
 70
     1
 10
0.0
 20
0.0
 30
0.0
  3
*D5
  1

  0
LINE
  5
7DC9
330
8113
100
AcDbEntity
  8
0
  6
ByBlock
100
AcDbLine
 10
1059.652996394238
 20
1246.09762645012
 30
0.0
 11
1209.610818311248
 21
1246.09762645012
 31
0.0
  0
LINE
  5
7DCA
330
8113
100
AcDbEntity
  8
0
  6
ByBlock
100
AcDbLine
 10
1059.652996394238
 20
596.0976264501205
 30
0.0
 11
1209.610818311248
 21
596.0976264501205
 31
0.0
  0
LINE
  5
7DCB
330
8113
100
AcDbEntity
  8
0
  6
ByBlock
100
AcDbLine
 10
1189.610818311248
 20
1206.09762645012
 30
0.0
 11
1189.610818311248
 21
636.0976264501204
 31
0.0
  0
INSERT
  5
7DCC
330
8113
100
AcDbEntity
  8
0
  6
ByBlock
100
AcDbBlockReference
  2
_OPEN
 10
1189.610818311248
 20
1246.09762645012
 30
0.0
 41
40.0
 42
40.0
 43
40.0
 50
90.0
  0
INSERT
  5
7DCD
330
8113
100
AcDbEntity
  8
0
  6
ByBlock
100
AcDbBlockReference
  2
_OPEN
 10
1189.610818311248
 20
596.0976264501205
 30
0.0
 41
40.0
 42
40.0
 43
40.0
 50
270.0
  0
TEXT
  5
7DCE
330
8113
100
AcDbEntity
  8
3
100
AcDbText
 10
1179.610818311248
 20
843.9547693072633
 30
0.0
 40
60.0
  1
650
 50
90.0
100
AcDbText
  0
POINT
  5
7DCF
330
8113
100
AcDbEntity
  8
DEFPOINTS
  6
ByBlock
 62
     0
100
AcDbPoint
 10
1039.652996394238
 20
1246.09762645012
 30
0.0
  0
POINT
  5
7DD0
330
8113
100
AcDbEntity
  8
DEFPOINTS
  6
ByBlock
 62
     0
100
AcDbPoint
 10
1039.652996394238
 20
596.0976264501205
 30
0.0
  0
POINT
  5
7DD1
330
8113
100
AcDbEntity
  8
DEFPOINTS
  6
ByBlock
 62
     0
100
AcDbPoint
 10
1189.610818311248
 20
596.0976264501205
 30
0.0
  0
ENDBLK
  5
7DD2
330
8113
100
AcDbEntity
  8
0
100
AcDbBlockEnd
  0
BLOCK
  5
8116
330
8115
100
AcDbEntity
  8
0
100
AcDbBlockBegin
  2
*D6
 70
     1
 10
0.0
 20
0.0
 30
0.0
  3
*D6
  1

  0
LINE
  5
7DD4
330
8115
100
AcDbEntity
  8
0
  6
ByBlock
100
AcDbLine
 10
1059.652996394238
 20
1246.09762645012
 30
0.0
 11
1359.154662514931
 21
1246.09762645012
 31
0.0
  0
LINE
  5
7DD5
330
8115
100
AcDbEntity
  8
0
  6
ByBlock
100
AcDbLine
 10
1106.545969497234
 20
568.0976264501205
 30
0.0
 11
1359.154662514931
 21
568.0976264501205
 31
0.0
  0
LINE
  5
7DD6
330
8115
100
AcDbEntity
  8
0
  6
ByBlock
100
AcDbLine
 10
1339.154662514931
 20
1206.09762645012
 30
0.0
 11
1339.154662514931
 21
608.0976264501205
 31
0.0
  0
INSERT
  5
7DD7
330
8115
100
AcDbEntity
  8
0
  6
ByBlock
100
AcDbBlockReference
  2
_OPEN
 10
1339.154662514931
 20
1246.09762645012
 30
0.0
 41
40.0
 42
40.0
 43
40.0
 50
90.0
  0
INSERT
  5
7DD8
330
8115
100
AcDbEntity
  8
0
  6
ByBlock
100
AcDbBlockReference
  2
_OPEN
 10
1339.154662514931
 20
568.0976264501205
 30
0.0
 41
40.0
 42
40.0
 43
40.0
 50
270.0
  0
TEXT
  5
7DD9
330
8115
100
AcDbEntity
  8
3
100
AcDbText
 10
1329.154662514931
 20
829.9547693072632
 30
0.0
 40
60.0
  1
678
 50
90.0
100
AcDbText
  0
POINT
  5
7DDA
330
8115
100
AcDbEntity
  8
DEFPOINTS
  6
ByBlock
 62
     0
100
AcDbPoint
 10
1039.652996394238
 20
1246.09762645012
 30
0.0
  0
POINT
  5
7DDB
330
8115
100
AcDbEntity
  8
DEFPOINTS
  6
ByBlock
 62
     0
100
AcDbPoint
 10
1086.545969497234
 20
568.0976264501205
 30
0.0
  0
POINT
  5
7DDC
330
8115
100
AcDbEntity
  8
DEFPOINTS
  6
ByBlock
 62
     0
100
AcDbPoint
 10
1339.154662514931
 20
568.0976264501205
 30
0.0
  0
ENDBLK
  5
7DDD
330
8115
100
AcDbEntity
  8
0
100
AcDbBlockEnd
  0
BLOCK
  5
8118
330
8117
100
AcDbEntity
  8
0
100
AcDbBlockBegin
  2
*D7
 70
     1
 10
0.0
 20
0.0
 30
0.0
  3
*D7
  1

  0
LINE
  5
7EC8
330
8117
100
AcDbEntity
  8
0
  6
ByBlock
100
AcDbLine
 10
1873.189366350638
 20
2839.086641991409
 30
0.0
 11
1873.189366350638
 21
2937.308396717435
 31
0.0
  0
LINE
  5
7EC9
330
8117
100
AcDbEntity
  8
0
  6
ByBlock
100
AcDbLine
 10
1413.189366350638
 20
2838.719477643283
 30
0.0
 11
1413.189366350638
 21
2937.308396717435
 31
0.0
  0
LINE
  5
7ECA
330
8117
100
AcDbEntity
  8
0
  6
ByBlock
100
AcDbLine
 10
1833.189366350638
 20
2917.308396717436
 30
0.0
 11
1453.189366350638
 21
2917.308396717436
 31
0.0
  0
INSERT
  5
7ECB
330
8117
100
AcDbEntity
  8
0
  6
ByBlock
100
AcDbBlockReference
  2
_OPEN
 10
1873.189366350638
 20
2917.308396717436
 30
0.0
 41
40.0
 42
40.0
 43
40.0
  0
INSERT
  5
7ECC
330
8117
100
AcDbEntity
  8
0
  6
ByBlock
100
AcDbBlockReference
  2
_OPEN
 10
1413.189366350638
 20
2917.308396717436
 30
0.0
 41
40.0
 42
40.0
 43
40.0
 50
180.0
  0
TEXT
  5
7ECD
330
8117
100
AcDbEntity
  8
3
100
AcDbText
 10
1566.046509207781
 20
2927.308396717436
 30
0.0
 40
60.0
  1
460
100
AcDbText
  0
POINT
  5
7ECE
330
8117
100
AcDbEntity
  8
DEFPOINTS
  6
ByBlock
 62
     0
100
AcDbPoint
 10
1873.189366350638
 20
2819.086641991409
 30
0.0
  0
POINT
  5
7ECF
330
8117
100
AcDbEntity
  8
DEFPOINTS
  6
ByBlock
 62
     0
100
AcDbPoint
 10
1413.189366350638
 20
2818.719477643282
 30
0.0
  0
POINT
  5
7ED0
330
8117
100
AcDbEntity
  8
DEFPOINTS
  6
ByBlock
 62
     0
100
AcDbPoint
 10
1413.189366350638
 20
2917.308396717436
 30
0.0
  0
ENDBLK
  5
7ED1
330
8117
100
AcDbEntity
  8
0
100
AcDbBlockEnd
  0
BLOCK
  5
811A
330
8119
100
AcDbEntity
  8
0
100
AcDbBlockBegin
  2
*D8
 70
     1
 10
0.0
 20
0.0
 30
0.0
  3
*D8
  1

  0
LINE
  5
7EDE
330
8119
100
AcDbEntity
  8
0
  6
ByBlock
100
AcDbLine
 10
1413.189366350638
 20
2838.719477643283
 30
0.0
 11
1413.189366350638
 21
2937.087950343302
 31
0.0
  0
LINE
  5
7EDF
330
8119
100
AcDbEntity
  8
0
  6
ByBlock
100
AcDbLine
 10
867.3988291509038
 20
2119.086641991409
 30
0.0
 11
867.3988291509038
 21
2937.087950343302
 31
0.0
  0
LINE
  5
7EE0
330
8119
100
AcDbEntity
  8
0
  6
ByBlock
100
AcDbLine
 10
1373.189366350638
 20
2917.087950343302
 30
0.0
 11
907.3988291509039
 21
2917.087950343302
 31
0.0
  0
INSERT
  5
7EE1
330
8119
100
AcDbEntity
  8
0
  6
ByBlock
100
AcDbBlockReference
  2
_OPEN
 10
1413.189366350638
 20
2917.087950343302
 30
0.0
 41
40.0
 42
40.0
 43
40.0
  0
INSERT
  5
7EE2
330
8119
100
AcDbEntity
  8
0
  6
ByBlock
100
AcDbBlockReference
  2
_OPEN
 10
867.3988291509038
 20
2917.087950343302
 30
0.0
 41
40.0
 42
40.0
 43
40.0
 50
180.0
  0
TEXT
  5
7EE3
330
8119
100
AcDbEntity
  8
3
100
AcDbText
 10
1063.151240607914
 20
2927.087950343302
 30
0.0
 40
60.0
  1
548
100
AcDbText
  0
POINT
  5
7EE4
330
8119
100
AcDbEntity
  8
DEFPOINTS
  6
ByBlock
 62
     0
100
AcDbPoint
 10
1413.189366350638
 20
2818.719477643282
 30
0.0
  0
POINT
  5
7EE5
330
8119
100
AcDbEntity
  8
DEFPOINTS
  6
ByBlock
 62
     0
100
AcDbPoint
 10
867.3988291509038
 20
2099.086641991409
 30
0.0
  0
POINT
  5
7EE6
330
8119
100
AcDbEntity
  8
DEFPOINTS
  6
ByBlock
 62
     0
100
AcDbPoint
 10
867.3988291509038
 20
2917.087950343302
 30
0.0
  0
ENDBLK
  5
7EE7
330
8119
100
AcDbEntity
  8
0
100
AcDbBlockEnd
  0
BLOCK
  5
811C
330
811B
100
AcDbEntity
  8
0
100
AcDbBlockBegin
  2
*D9
 70
     1
 10
0.0
 20
0.0
 30
0.0
  3
*D9
  1

  0
LINE
  5
7DF5
330
811B
100
AcDbEntity
  8
0
  6
ByBlock
100
AcDbLine
 10
1106.545969497234
 20
568.0976264501205
 30
0.0
 11
1359.854953013287
 21
568.0976264501205
 31
0.0
  0
LINE
  5
7DF6
330
811B
100
AcDbEntity
  8
0
  6
ByBlock
100
AcDbLine
 10
999.6529963942384
 20
63.0976264501205
 30
0.0
 11
1359.854953013287
 21
63.0976264501205
 31
0.0
  0
LINE
  5
7DF7
330
811B
100
AcDbEntity
  8
0
  6
ByBlock
100
AcDbLine
 10
1339.854953013287
 20
528.0976264501203
 30
0.0
 11
1339.854953013287
 21
103.0976264501205
 31
0.0
  0
INSERT
  5
7DF8
330
811B
100
AcDbEntity
  8
0
  6
ByBlock
100
AcDbBlockReference
  2
_OPEN
 10
1339.854953013287
 20
568.0976264501205
 30
0.0
 41
40.0
 42
40.0
 43
40.0
 50
90.0
  0
INSERT
  5
7DF9
330
811B
100
AcDbEntity
  8
0
  6
ByBlock
100
AcDbBlockReference
  2
_OPEN
 10
1339.854953013287
 20
63.0976264501205
 30
0.0
 41
40.0
 42
40.0
 43
40.0
 50
270.0
  0
TEXT
  5
7DFA
330
811B
100
AcDbEntity
  8
3
100
AcDbText
 10
1329.854953013287
 20
238.4547693072633
 30
0.0
 40
60.0
  1
505
 50
90.0
100
AcDbText
  0
POINT
  5
7DFB
330
811B
100
AcDbEntity
  8
DEFPOINTS
  6
ByBlock
 62
     0
100
AcDbPoint
 10
1086.545969497234
 20
568.0976264501205
 30
0.0
  0
POINT
  5
7DFC
330
811B
100
AcDbEntity
  8
DEFPOINTS
  6
ByBlock
 62
     0
100
AcDbPoint
 10
979.6529963942385
 20
63.0976264501205
 30
0.0
  0
POINT
  5
7DFD
330
811B
100
AcDbEntity
  8
DEFPOINTS
  6
ByBlock
 62
     0
100
AcDbPoint
 10
1339.854953013287
 20
63.0976264501205
 30
0.0
  0
ENDBLK
  5
7DFE
330
811B
100
AcDbEntity
  8
0
100
AcDbBlockEnd
  0
BLOCK
  5
811E
330
811D
100
AcDbEntity
  8
0
100
AcDbBlockBegin
  2
*D10
 70
     1
 10
0.0
 20
0.0
 30
0.0
  3
*D10
  1

  0
LINE
  5
7E00
330
811D
100
AcDbEntity
  8
0
  6
ByBlock
100
AcDbLine
 10
2992.796193483283
 20
903.0976264501203
 30
0.0
 11
3240.833227053947
 21
903.0976264501203
 31
0.0
  0
LINE
  5
7E01
330
811D
100
AcDbEntity
  8
0
  6
ByBlock
100
AcDbLine
 10
2992.796193483283
 20
233.0976264501205
 30
0.0
 11
3240.833227053947
 21
233.0976264501205
 31
0.0
  0
LINE
  5
7E02
330
811D
100
AcDbEntity
  8
0
  6
ByBlock
100
AcDbLine
 10
3220.833227053946
 20
863.0976264501205
 30
0.0
 11
3220.833227053946
 21
273.0976264501205
 31
0.0
  0
INSERT
  5
7E03
330
811D
100
AcDbEntity
  8
0
  6
ByBlock
100
AcDbBlockReference
  2
_OPEN
 10
3220.833227053946
 20
903.0976264501203
 30
0.0
 41
40.0
 42
40.0
 43
40.0
 50
90.0
  0
INSERT
  5
7E04
330
811D
100
AcDbEntity
  8
0
  6
ByBlock
100
AcDbBlockReference
  2
_OPEN
 10
3220.833227053946
 20
233.0976264501205
 30
0.0
 41
40.0
 42
40.0
 43
40.0
 50
270.0
  0
TEXT
  5
7E05
330
811D
100
AcDbEntity
  8
3
100
AcDbText
 10
3210.833227053947
 20
460.9547693072634
 30
0.0
 40
60.0
  1
\U+03C6670
 50
90.0
100
AcDbText
  0
POINT
  5
7E06
330
811D
100
AcDbEntity
  8
DEFPOINTS
  6
ByBlock
 62
     0
100
AcDbPoint
 10
2972.796193483283
 20
903.0976264501203
 30
0.0
  0
POINT
  5
7E07
330
811D
100
AcDbEntity
  8
DEFPOINTS
  6
ByBlock
 62
     0
100
AcDbPoint
 10
2972.796193483283
 20
233.0976264501205
 30
0.0
  0
POINT
  5
7E08
330
811D
100
AcDbEntity
  8
DEFPOINTS
  6
ByBlock
 62
     0
100
AcDbPoint
 10
3220.833227053946
 20
233.0976264501205
 30
0.0
  0
ENDBLK
  5
7E09
330
811D
100
AcDbEntity
  8
0
100
AcDbBlockEnd
  0
BLOCK
  5
8120
330
811F
100
AcDbEntity
  8
0
100
AcDbBlockBegin
  2
*D11
 70
     1
 10
0.0
 20
0.0
 30
0.0
  3
*D11
  1

  0
LINE
  5
7F09
330
811F
100
AcDbEntity
  8
0
  6
ByBlock
100
AcDbLine
 10
3000.832563439682
 20
2797.086641991409
 30
0.0
 11
3000.832563439682
 21
2934.169340590402
 31
0.0
  0
LINE
  5
7F0A
330
811F
100
AcDbEntity
  8
0
  6
ByBlock
100
AcDbLine
 10
3800.832563439683
 20
2797.086641991409
 30
0.0
 11
3800.832563439683
 21
2934.169340590402
 31
0.0
  0
LINE
  5
7F0B
330
811F
100
AcDbEntity
  8
0
  6
ByBlock
100
AcDbLine
 10
3040.832563439682
 20
2914.169340590402
 30
0.0
 11
3760.832563439683
 21
2914.169340590402
 31
0.0
  0
INSERT
  5
7F0C
330
811F
100
AcDbEntity
  8
0
  6
ByBlock
100
AcDbBlockReference
  2
_OPEN
 10
3000.832563439682
 20
2914.169340590402
 30
0.0
 41
40.0
 42
40.0
 43
40.0
 50
180.0
  0
INSERT
  5
7F0D
330
811F
100
AcDbEntity
  8
0
  6
ByBlock
100
AcDbBlockReference
  2
_OPEN
 10
3800.832563439683
 20
2914.169340590402
 30
0.0
 41
40.0
 42
40.0
 43
40.0
  0
TEXT
  5
7F0E
330
811F
100
AcDbEntity
  8
3
100
AcDbText
 10
3323.689706296825
 20
2924.169340590403
 30
0.0
 40
60.0
  1
800
100
AcDbText
  0
POINT
  5
7F0F
330
811F
100
AcDbEntity
  8
DEFPOINTS
  6
ByBlock
 62
     0
100
AcDbPoint
 10
3000.832563439682
 20
2777.086641991409
 30
0.0
  0
POINT
  5
7F10
330
811F
100
AcDbEntity
  8
DEFPOINTS
  6
ByBlock
 62
     0
100
AcDbPoint
 10
3800.832563439683
 20
2777.086641991409
 30
0.0
  0
POINT
  5
7F11
330
811F
100
AcDbEntity
  8
DEFPOINTS
  6
ByBlock
 62
     0
100
AcDbPoint
 10
3800.832563439683
 20
2914.169340590402
 30
0.0
  0
ENDBLK
  5
7F12
330
811F
100
AcDbEntity
  8
0
100
AcDbBlockEnd
  0
BLOCK
  5
8122
330
8121
100
AcDbEntity
  8
0
100
AcDbBlockBegin
  2
*D12
 70
     1
 10
0.0
 20
0.0
 30
0.0
  3
*D12
  1

  0
LINE
  5
7E37
330
8121
100
AcDbEntity
  8
0
  6
ByBlock
100
AcDbLine
 10
-470.3470036057614
 20
2138.414968530632
 30
0.0
 11
-470.3470036057614
 21
1863.01337041143
 31
0.0
  0
LINE
  5
7E38
330
8121
100
AcDbEntity
  8
0
  6
ByBlock
100
AcDbLine
 10
979.6529963942385
 20
2138.414968530633
 30
0.0
 11
979.6529963942385
 21
1863.01337041143
 31
0.0
  0
LINE
  5
7E39
330
8121
100
AcDbEntity
  8
0
  6
ByBlock
100
AcDbLine
 10
-430.3470036057614
 20
1883.01337041143
 30
0.0
 11
939.6529963942384
 21
1883.01337041143
 31
0.0
  0
INSERT
  5
7E3A
330
8121
100
AcDbEntity
  8
0
  6
ByBlock
100
AcDbBlockReference
  2
_OPEN
 10
-470.3470036057614
 20
1883.01337041143
 30
0.0
 41
40.0
 42
40.0
 43
40.0
 50
180.0
  0
INSERT
  5
7E3B
330
8121
100
AcDbEntity
  8
0
  6
ByBlock
100
AcDbBlockReference
  2
_OPEN
 10
979.6529963942385
 20
1883.01337041143
 30
0.0
 41
40.0
 42
40.0
 43
40.0
  0
TEXT
  5
7E3C
330
8121
100
AcDbEntity
  8
3
100
AcDbText
 10
154.6529963942385
 20
1893.01337041143
 30
0.0
 40
60.0
  1
1450
100
AcDbText
  0
POINT
  5
7E3D
330
8121
100
AcDbEntity
  8
DEFPOINTS
  6
ByBlock
 62
     0
100
AcDbPoint
 10
-470.3470036057614
 20
2158.414968530632
 30
0.0
  0
POINT
  5
7E3E
330
8121
100
AcDbEntity
  8
DEFPOINTS
  6
ByBlock
 62
     0
100
AcDbPoint
 10
979.6529963942385
 20
2158.414968530633
 30
0.0
  0
POINT
  5
7E3F
330
8121
100
AcDbEntity
  8
DEFPOINTS
  6
ByBlock
 62
     0
100
AcDbPoint
 10
979.6529963942385
 20
1883.01337041143
 30
0.0
  0
ENDBLK
  5
7E40
330
8121
100
AcDbEntity
  8
0
100
AcDbBlockEnd
  0
BLOCK
  5
8124
330
8123
100
AcDbEntity
  8
0
100
AcDbBlockBegin
  2
*D13
 70
     1
 10
0.0
 20
0.0
 30
0.0
  3
*D13
  1

  0
LINE
  5
7E42
330
8123
100
AcDbEntity
  8
0
  6
ByBlock
100
AcDbLine
 10
999.6529963942384
 20
2158.414968530633
 30
0.0
 11
1208.444967392846
 21
2158.414968530633
 31
0.0
  0
LINE
  5
7E43
330
8123
100
AcDbEntity
  8
0
  6
ByBlock
100
AcDbLine
 10
999.6529963942387
 20
3164.414968530635
 30
0.0
 11
1208.444967392846
 21
3164.414968530635
 31
0.0
  0
LINE
  5
7E44
330
8123
100
AcDbEntity
  8
0
  6
ByBlock
100
AcDbLine
 10
1188.444967392846
 20
2198.414968530633
 30
0.0
 11
1188.444967392846
 21
3124.414968530635
 31
0.0
  0
INSERT
  5
7E45
330
8123
100
AcDbEntity
  8
0
  6
ByBlock
100
AcDbBlockReference
  2
_OPEN
 10
1188.444967392846
 20
2158.414968530633
 30
0.0
 41
40.0
 42
40.0
 43
40.0
 50
270.0
  0
INSERT
  5
7E46
330
8123
100
AcDbEntity
  8
0
  6
ByBlock
100
AcDbBlockReference
  2
_OPEN
 10
1188.444967392846
 20
3164.414968530635
 30
0.0
 41
40.0
 42
40.0
 43
40.0
 50
90.0
  0
TEXT
  5
7E47
330
8123
100
AcDbEntity
  8
3
100
AcDbText
 10
1178.444967392846
 20
2562.843539959205
 30
0.0
 40
60.0
  1
1006
 50
90.0
100
AcDbText
  0
POINT
  5
7E48
330
8123
100
AcDbEntity
  8
DEFPOINTS
  6
ByBlock
 62
     0
100
AcDbPoint
 10
979.6529963942385
 20
2158.414968530633
 30
0.0
  0
POINT
  5
7E49
330
8123
100
AcDbEntity
  8
DEFPOINTS
  6
ByBlock
 62
     0
100
AcDbPoint
 10
979.6529963942386
 20
3164.414968530635
 30
0.0
  0
POINT
  5
7E4A
330
8123
100
AcDbEntity
  8
DEFPOINTS
  6
ByBlock
 62
     0
100
AcDbPoint
 10
1188.444967392846
 20
3164.414968530635
 30
0.0
  0
ENDBLK
  5
7E4B
330
8123
100
AcDbEntity
  8
0
100
AcDbBlockEnd
  0
BLOCK
  5
8126
330
8125
100
AcDbEntity
  8
0
100
AcDbBlockBegin
  2
*D14
 70
     1
 10
0.0
 20
0.0
 30
0.0
  3
*D14
  1

  0
LINE
  5
7E4D
330
8125
100
AcDbEntity
  8
0
  6
ByBlock
100
AcDbLine
 10
179.6529963942384
 20
3184.414968530634
 30
0.0
 11
179.6529963942384
 21
3333.020259029039
 31
0.0
  0
LINE
  5
7E4E
330
8125
100
AcDbEntity
  8
0
  6
ByBlock
100
AcDbLine
 10
979.6529963942386
 20
3184.414968530635
 30
0.0
 11
979.6529963942386
 21
3333.020259029039
 31
0.0
  0
LINE
  5
7E4F
330
8125
100
AcDbEntity
  8
0
  6
ByBlock
100
AcDbLine
 10
219.6529963942384
 20
3313.020259029039
 30
0.0
 11
939.652996394239
 21
3313.020259029039
 31
0.0
  0
INSERT
  5
7E50
330
8125
100
AcDbEntity
  8
0
  6
ByBlock
100
AcDbBlockReference
  2
_OPEN
 10
179.6529963942384
 20
3313.020259029039
 30
0.0
 41
40.0
 42
40.0
 43
40.0
 50
180.0
  0
INSERT
  5
7E51
330
8125
100
AcDbEntity
  8
0
  6
ByBlock
100
AcDbBlockReference
  2
_OPEN
 10
979.6529963942386
 20
3313.020259029039
 30
0.0
 41
40.0
 42
40.0
 43
40.0
  0
TEXT
  5
7E52
330
8125
100
AcDbEntity
  8
3
100
AcDbText
 10
502.5101392513816
 20
3323.020259029039
 30
0.0
 40
60.0
  1
800
100
AcDbText
  0
POINT
  5
7E53
330
8125
100
AcDbEntity
  8
DEFPOINTS
  6
ByBlock
 62
     0
100
AcDbPoint
 10
179.6529963942384
 20
3164.414968530634
 30
0.0
  0
POINT
  5
7E54
330
8125
100
AcDbEntity
  8
DEFPOINTS
  6
ByBlock
 62
     0
100
AcDbPoint
 10
979.6529963942386
 20
3164.414968530635
 30
0.0
  0
POINT
  5
7E55
330
8125
100
AcDbEntity
  8
DEFPOINTS
  6
ByBlock
 62
     0
100
AcDbPoint
 10
979.6529963942386
 20
3313.020259029039
 30
0.0
  0
ENDBLK
  5
7E56
330
8125
100
AcDbEntity
  8
0
100
AcDbBlockEnd
  0
BLOCK
  5
8128
330
8127
100
AcDbEntity
  8
0
100
AcDbBlockBegin
  2
*D15
 70
     1
 10
0.0
 20
0.0
 30
0.0
  3
*D15
  1

  0
LINE
  5
7F6B
330
8127
100
AcDbEntity
  8
0
  6
ByBlock
100
AcDbLine
 10
343.1893663506389
 20
4078.312742094976
 30
0.0
 11
245.5661481776878
 21
4078.312742094976
 31
0.0
  0
LINE
  5
7F6C
330
8127
100
AcDbEntity
  8
0
  6
ByBlock
100
AcDbLine
 10
343.1893663506389
 20
3478.312742094976
 30
0.0
 11
245.5661481776878
 21
3478.312742094976
 31
0.0
  0
LINE
  5
7F6D
330
8127
100
AcDbEntity
  8
0
  6
ByBlock
100
AcDbLine
 10
265.5661481776878
 20
4038.312742094976
 30
0.0
 11
265.5661481776878
 21
3518.312742094977
 31
0.0
  0
INSERT
  5
7F6E
330
8127
100
AcDbEntity
  8
0
  6
ByBlock
100
AcDbBlockReference
  2
_OPEN
 10
265.5661481776878
 20
4078.312742094976
 30
0.0
 41
40.0
 42
40.0
 43
40.0
 50
90.0
  0
INSERT
  5
7F6F
330
8127
100
AcDbEntity
  8
0
  6
ByBlock
100
AcDbBlockReference
  2
_OPEN
 10
265.5661481776878
 20
3478.312742094976
 30
0.0
 41
40.0
 42
40.0
 43
40.0
 50
270.0
  0
TEXT
  5
7F70
330
8127
100
AcDbEntity
  8
3
100
AcDbText
 10
255.5661481776878
 20
3701.169884952119
 30
0.0
 40
60.0
  1
600
 50
90.0
100
AcDbText
  0
POINT
  5
7F71
330
8127
100
AcDbEntity
  8
DEFPOINTS
  6
ByBlock
 62
     0
100
AcDbPoint
 10
363.1893663506389
 20
4078.312742094976
 30
0.0
  0
POINT
  5
7F72
330
8127
100
AcDbEntity
  8
DEFPOINTS
  6
ByBlock
 62
     0
100
AcDbPoint
 10
363.1893663506389
 20
3478.312742094976
 30
0.0
  0
POINT
  5
7F73
330
8127
100
AcDbEntity
  8
DEFPOINTS
  6
ByBlock
 62
     0
100
AcDbPoint
 10
265.5661481776878
 20
3478.312742094976
 30
0.0
  0
ENDBLK
  5
7F74
330
8127
100
AcDbEntity
  8
0
100
AcDbBlockEnd
  0
BLOCK
  5
812A
330
8129
100
AcDbEntity
  8
0
100
AcDbBlockBegin
  2
*D16
 70
     1
 10
0.0
 20
0.0
 30
0.0
  3
*D16
  1

  0
LINE
  5
7EE9
330
8129
100
AcDbEntity
  8
0
  6
ByBlock
100
AcDbLine
 10
363.1893663506389
 20
1754.086641991409
 30
0.0
 11
363.1893663506389
 21
3068.589207099473
 31
0.0
  0
LINE
  5
7EEA
330
8129
100
AcDbEntity
  8
0
  6
ByBlock
100
AcDbLine
 10
1873.189366350638
 20
2839.086641991409
 30
0.0
 11
1873.189366350638
 21
3068.589207099473
 31
0.0
  0
LINE
  5
7EEB
330
8129
100
AcDbEntity
  8
0
  6
ByBlock
100
AcDbLine
 10
403.1893663506388
 20
3048.589207099473
 30
0.0
 11
1833.189366350638
 21
3048.589207099473
 31
0.0
  0
INSERT
  5
7EEC
330
8129
100
AcDbEntity
  8
0
  6
ByBlock
100
AcDbBlockReference
  2
_OPEN
 10
363.1893663506389
 20
3048.589207099473
 30
0.0
 41
40.0
 42
40.0
 43
40.0
 50
180.0
  0
INSERT
  5
7EED
330
8129
100
AcDbEntity
  8
0
  6
ByBlock
100
AcDbBlockReference
  2
_OPEN
 10
1873.189366350638
 20
3048.589207099473
 30
0.0
 41
40.0
 42
40.0
 43
40.0
  0
TEXT
  5
7EEE
330
8129
100
AcDbEntity
  8
3
100
AcDbText
 10
1023.903652064924
 20
3058.589207099473
 30
0.0
 40
60.0
  1
1510
100
AcDbText
  0
POINT
  5
7EEF
330
8129
100
AcDbEntity
  8
DEFPOINTS
  6
ByBlock
 62
     0
100
AcDbPoint
 10
363.1893663506389
 20
1734.086641991408
 30
0.0
  0
POINT
  5
7EF0
330
8129
100
AcDbEntity
  8
DEFPOINTS
  6
ByBlock
 62
     0
100
AcDbPoint
 10
1873.189366350638
 20
2819.086641991409
 30
0.0
  0
POINT
  5
7EF1
330
8129
100
AcDbEntity
  8
DEFPOINTS
  6
ByBlock
 62
     0
100
AcDbPoint
 10
1873.189366350638
 20
3048.589207099473
 30
0.0
  0
ENDBLK
  5
7EF2
330
8129
100
AcDbEntity
  8
0
100
AcDbBlockEnd
  0
BLOCK
  5
812C
330
812B
100
AcDbEntity
  8
0
100
AcDbBlockBegin
  2
*D17
 70
     1
 10
0.0
 20
0.0
 30
0.0
  3
*D17
  1

  0
LINE
  5
7E86
330
812B
100
AcDbEntity
  8
0
  6
ByBlock
100
AcDbLine
 10
999.6529963942384
 20
18.09762645012051
 30
0.0
 11
1359.854953013287
 21
18.09762645012051
 31
0.0
  0
LINE
  5
7E87
330
812B
100
AcDbEntity
  8
0
  6
ByBlock
100
AcDbLine
 10
999.6529963942384
 20
-81.90237354987948
 30
0.0
 11
1359.854953013287
 21
-81.90237354987948
 31
0.0
  0
LINE
  5
7E88
330
812B
100
AcDbEntity
  8
0
  6
ByBlock
100
AcDbLine
 10
1339.854953013287
 20
58.0976264501205
 30
0.0
 11
1339.854953013287
 21
98.0976264501205
 31
0.0
  0
LINE
  5
7E89
330
812B
100
AcDbEntity
  8
0
  6
ByBlock
100
AcDbLine
 10
1339.854953013287
 20
-121.9023735498794
 30
0.0
 11
1339.854953013287
 21
-324.7595164070223
 31
0.0
  0
LINE
  5
7E8A
330
812B
100
AcDbEntity
  8
0
  6
ByBlock
100
AcDbLine
 10
1339.854953013287
 20
18.09762645012051
 30
0.0
 11
1339.854953013287
 21
-81.90237354987948
 31
0.0
  0
INSERT
  5
7E8B
330
812B
100
AcDbEntity
  8
0
  6
ByBlock
100
AcDbBlockReference
  2
_DOT
 10
1339.854953013287
 20
18.09762645012051
 30
0.0
 41
40.0
 42
40.0
 43
40.0
 50
270.0
  0
INSERT
  5
7E8C
330
812B
100
AcDbEntity
  8
0
  6
ByBlock
100
AcDbBlockReference
  2
_OPEN
 10
1339.854953013287
 20
-81.90237354987948
 30
0.0
 41
40.0
 42
40.0
 43
40.0
 50
90.0
  0
TEXT
  5
7E8D
330
812B
100
AcDbEntity
  8
3
100
AcDbText
 10
1329.854953013287
 20
-314.7595164070223
 30
0.0
 40
60.0
  1
100
 50
90.0
100
AcDbText
  0
POINT
  5
7E8E
330
812B
100
AcDbEntity
  8
DEFPOINTS
  6
ByBlock
 62
     0
100
AcDbPoint
 10
979.6529963942385
 20
18.09762645012051
 30
0.0
  0
POINT
  5
7E8F
330
812B
100
AcDbEntity
  8
DEFPOINTS
  6
ByBlock
 62
     0
100
AcDbPoint
 10
979.6529963942385
 20
-81.90237354987948
 30
0.0
  0
POINT
  5
7E90
330
812B
100
AcDbEntity
  8
DEFPOINTS
  6
ByBlock
 62
     0
100
AcDbPoint
 10
1339.854953013287
 20
-81.90237354987948
 30
0.0
  0
ENDBLK
  5
7E91
330
812B
100
AcDbEntity
  8
0
100
AcDbBlockEnd
  0
BLOCK
  5
812E
330
812D
100
AcDbEntity
  8
0
100
AcDbBlockBegin
  2
*D18
 70
     1
 10
0.0
 20
0.0
 30
0.0
  3
*D18
  1

  0
LINE
  5
7F9B
330
812D
100
AcDbEntity
  8
0
  6
ByBlock
100
AcDbLine
 10
3900.832563439683
 20
2089.086641991408
 30
0.0
 11
3900.832563439683
 21
3075.428827042698
 31
0.0
  0
LINE
  5
7F9C
330
812D
100
AcDbEntity
  8
0
  6
ByBlock
100
AcDbLine
 10
3400.832563439682
 20
3020.448304975327
 30
0.0
 11
3400.832563439682
 21
3075.428827042698
 31
0.0
  0
LINE
  5
7F9D
330
812D
100
AcDbEntity
  8
0
  6
ByBlock
100
AcDbLine
 10
3860.832563439683
 20
3055.428827042698
 30
0.0
 11
3440.832563439683
 21
3055.428827042698
 31
0.0
  0
INSERT
  5
7F9E
330
812D
100
AcDbEntity
  8
0
  6
ByBlock
100
AcDbBlockReference
  2
_OPEN
 10
3900.832563439683
 20
3055.428827042698
 30
0.0
 41
40.0
 42
40.0
 43
40.0
  0
INSERT
  5
7F9F
330
812D
100
AcDbEntity
  8
0
  6
ByBlock
100
AcDbBlockReference
  2
_OPEN
 10
3400.832563439682
 20
3055.428827042698
 30
0.0
 41
40.0
 42
40.0
 43
40.0
 50
180.0
  0
TEXT
  5
7FA0
330
812D
100
AcDbEntity
  8
3
100
AcDbText
 10
3540.832563439683
 20
3091.143112756985
 30
0.0
 40
60.0
  1
(510)
100
AcDbText
  0
POINT
  5
7FA1
330
812D
100
AcDbEntity
  8
DEFPOINTS
  6
ByBlock
 62
     0
100
AcDbPoint
 10
3900.832563439683
 20
2069.086641991408
 30
0.0
  0
POINT
  5
7FA2
330
812D
100
AcDbEntity
  8
DEFPOINTS
  6
ByBlock
 62
     0
100
AcDbPoint
 10
3400.832563439682
 20
3000.448304975327
 30
0.0
  0
POINT
  5
7FA3
330
812D
100
AcDbEntity
  8
DEFPOINTS
  6
ByBlock
 62
     0
100
AcDbPoint
 10
3400.832563439682
 20
3055.428827042698
 30
0.0
  0
ENDBLK
  5
7FA4
330
812D
100
AcDbEntity
  8
0
100
AcDbBlockEnd
  0
BLOCK
  5
8130
330
812F
100
AcDbEntity
  8
0
100
AcDbBlockBegin
  2
*D19
 70
     1
 10
0.0
 20
0.0
 30
0.0
  3
*D19
  1

  0
LINE
  5
8075
330
812F
100
AcDbEntity
  8
3
100
AcDbLine
 10
2720.832563439683
 20
2269.086641991409
 30
0.0
 11
2720.832563439683
 21
3075.428827042698
 31
0.0
  0
LINE
  5
8076
330
812F
100
AcDbEntity
  8
3
100
AcDbLine
 10
3360.832563439682
 20
3055.428827042698
 30
0.0
 11
2760.832563439683
 21
3055.428827042698
 31
0.0
  0
INSERT
  5
8077
330
812F
100
AcDbEntity
  8
3
100
AcDbBlockReference
  2
_OPEN
 10
3400.832563439682
 20
3055.428827042698
 30
0.0
 41
40.0
 42
40.0
 43
40.0
  0
INSERT
  5
8078
330
812F
100
AcDbEntity
  8
3
100
AcDbBlockReference
  2
_OPEN
 10
2720.832563439683
 20
3055.428827042698
 30
0.0
 41
40.0
 42
40.0
 43
40.0
 50
180.0
  0
TEXT
  5
8088
330
812F
100
AcDbEntity
  8
3
100
AcDbText
 10
2940.83
 20
3039.23
 30
0.0
 40
60.0
  1
MAX
100
AcDbText
  0
TEXT
  5
8089
330
812F
100
AcDbEntity
  8
3
100
AcDbText
 10
2940.83
 20
2961.23
 30
0.0
 40
60.0
  1
710
100
AcDbText
  0
POINT
  5
807A
330
812F
100
AcDbEntity
  8
DEFPOINTS
 62
     0
100
AcDbPoint
 10
3400.832563439682
 20
3000.448304975327
 30
0.0
  0
POINT
  5
807B
330
812F
100
AcDbEntity
  8
DEFPOINTS
 62
     0
100
AcDbPoint
 10
2720.832563439683
 20
2249.086641991409
 30
0.0
  0
POINT
  5
807C
330
812F
100
AcDbEntity
  8
DEFPOINTS
 62
     0
100
AcDbPoint
 10
2720.832563439683
 20
3055.428827042698
 30
0.0
  0
ENDBLK
  5
7F8E
330
812F
100
AcDbEntity
  8
0
100
AcDbBlockEnd
  0
BLOCK
  5
8132
330
8131
100
AcDbEntity
  8
0
100
AcDbBlockBegin
  2
*D20
 70
     1
 10
0.0
 20
0.0
 30
0.0
  3
*D20
  1

  0
LINE
  5
807D
330
8131
100
AcDbEntity
  8
3
100
AcDbLine
 10
584.9677229305496
 20
4098.312742094974
 30
0.0
 11
584.9677229305496
 21
4652.918032593382
 31
0.0
  0
LINE
  5
807E
330
8131
100
AcDbEntity
  8
3
100
AcDbLine
 10
1194.967722930549
 20
4632.918032593383
 30
0.0
 11
624.9677229305498
 21
4632.918032593383
 31
0.0
  0
INSERT
  5
807F
330
8131
100
AcDbEntity
  8
3
100
AcDbBlockReference
  2
_OPEN
 10
1234.96772293055
 20
4632.918032593383
 30
0.0
 41
40.0
 42
40.0
 43
40.0
  0
INSERT
  5
8080
330
8131
100
AcDbEntity
  8
3
100
AcDbBlockReference
  2
_OPEN
 10
584.9677229305496
 20
4632.918032593383
 30
0.0
 41
40.0
 42
40.0
 43
40.0
 50
180.0
  0
TEXT
  5
808A
330
8131
100
AcDbEntity
  8
3
100
AcDbText
 10
789.968
 20
4566.72
 30
0.0
 40
60.0
  1
650
100
AcDbText
  0
POINT
  5
8082
330
8131
100
AcDbEntity
  8
DEFPOINTS
 62
     0
100
AcDbPoint
 10
1234.96772293055
 20
4484.312742094977
 30
0.0
  0
POINT
  5
8083
330
8131
100
AcDbEntity
  8
DEFPOINTS
 62
     0
100
AcDbPoint
 10
584.9677229305496
 20
4078.312742094976
 30
0.0
  0
POINT
  5
8084
330
8131
100
AcDbEntity
  8
DEFPOINTS
 62
     0
100
AcDbPoint
 10
584.9677229305496
 20
4632.918032593383
 30
0.0
  0
ENDBLK
  5
7EC6
330
8131
100
AcDbEntity
  8
0
100
AcDbBlockEnd
  0
BLOCK
  5
8134
330
8133
100
AcDbEntity
  8
0
100
AcDbBlockBegin
  2
*D21
 70
     1
 10
0.0
 20
0.0
 30
0.0
  3
*D21
  1

  0
LINE
  5
7FC9
330
8133
100
AcDbEntity
  8
0
  6
ByBlock
 62
     0
100
AcDbLine
 10
584.9677229305496
 20
1447.086641991409
 30
0.0
 11
584.9677229305496
 21
1306.064579236374
 31
0.0
  0
LINE
  5
7FCA
330
8133
100
AcDbEntity
  8
0
  6
ByBlock
 62
     0
100
AcDbLine
 10
1634.96772293055
 20
1447.086641991409
 30
0.0
 11
1634.96772293055
 21
1306.064579236374
 31
0.0
  0
LINE
  5
7FCB
330
8133
100
AcDbEntity
  8
0
  6
ByBlock
 62
     0
100
AcDbLine
 10
624.9677229305498
 20
1326.064579236374
 30
0.0
 11
1594.96772293055
 21
1326.064579236374
 31
0.0
  0
INSERT
  5
7FCC
330
8133
100
AcDbEntity
  8
0
  6
ByBlock
 62
     0
100
AcDbBlockReference
  2
_OPEN
 10
584.9677229305496
 20
1326.064579236374
 30
0.0
 41
40.0
 42
40.0
 43
40.0
 50
180.0
  0
INSERT
  5
7FCD
330
8133
100
AcDbEntity
  8
0
  6
ByBlock
 62
     0
100
AcDbBlockReference
  2
_OPEN
 10
1634.96772293055
 20
1326.064579236374
 30
0.0
 41
40.0
 42
40.0
 43
40.0
  0
TEXT
  5
7FCE
330
8133
100
AcDbEntity
  8
3
 62
     0
100
AcDbText
 10
1009.967722930549
 20
1346.064579236373
 30
0.0
 40
60.0
  1
1050
100
AcDbText
  0
POINT
  5
7FCF
330
8133
100
AcDbEntity
  8
DEFPOINTS
  6
ByBlock
 62
     0
100
AcDbPoint
 10
584.9677229305496
 20
1467.086641991409
 30
0.0
  0
POINT
  5
7FD0
330
8133
100
AcDbEntity
  8
DEFPOINTS
  6
ByBlock
 62
     0
100
AcDbPoint
 10
1634.96772293055
 20
1467.086641991409
 30
0.0
  0
POINT
  5
7FD1
330
8133
100
AcDbEntity
  8
DEFPOINTS
  6
ByBlock
 62
     0
100
AcDbPoint
 10
1634.96772293055
 20
1326.064579236374
 30
0.0
  0
ENDBLK
  5
7FD2
330
8133
100
AcDbEntity
  8
0
100
AcDbBlockEnd
  0
BLOCK
  5
8136
330
8135
100
AcDbEntity
  8
0
100
AcDbBlockBegin
  2
*D22
 70
     1
 10
0.0
 20
0.0
 30
0.0
  3
*D22
  1

  0
LINE
  5
7FD6
330
8135
100
AcDbEntity
  8
0
  6
ByBlock
 62
     0
100
AcDbLine
 10
1634.96772293055
 20
1447.086641991409
 30
0.0
 11
1634.96772293055
 21
1306.064579236374
 31
0.0
  0
LINE
  5
7FD7
330
8135
100
AcDbEntity
  8
0
  6
ByBlock
 62
     0
100
AcDbLine
 10
2034.96772293055
 20
1447.086641991409
 30
0.0
 11
2034.96772293055
 21
1306.064579236374
 31
0.0
  0
LINE
  5
7FD8
330
8135
100
AcDbEntity
  8
0
  6
ByBlock
 62
     0
100
AcDbLine
 10
1674.967722930549
 20
1326.064579236374
 30
0.0
 11
1994.96772293055
 21
1326.064579236374
 31
0.0
  0
INSERT
  5
7FD9
330
8135
100
AcDbEntity
  8
0
  6
ByBlock
 62
     0
100
AcDbBlockReference
  2
_OPEN
 10
1634.96772293055
 20
1326.064579236374
 30
0.0
 41
40.0
 42
40.0
 43
40.0
 50
180.0
  0
INSERT
  5
7FDA
330
8135
100
AcDbEntity
  8
0
  6
ByBlock
 62
     0
100
AcDbBlockReference
  2
_OPEN
 10
2034.96772293055
 20
1326.064579236374
 30
0.0
 41
40.0
 42
40.0
 43
40.0
  0
TEXT
  5
7FDB
330
8135
100
AcDbEntity
  8
3
 62
     0
100
AcDbText
 10
1757.824865787692
 20
1346.064579236373
 30
0.0
 40
60.0
  1
400
100
AcDbText
  0
POINT
  5
7FDC
330
8135
100
AcDbEntity
  8
DEFPOINTS
  6
ByBlock
 62
     0
100
AcDbPoint
 10
1634.96772293055
 20
1467.086641991409
 30
0.0
  0
POINT
  5
7FDD
330
8135
100
AcDbEntity
  8
DEFPOINTS
  6
ByBlock
 62
     0
100
AcDbPoint
 10
2034.96772293055
 20
1467.086641991409
 30
0.0
  0
POINT
  5
7FDE
330
8135
100
AcDbEntity
  8
DEFPOINTS
  6
ByBlock
 62
     0
100
AcDbPoint
 10
2034.96772293055
 20
1326.064579236374
 30
0.0
  0
ENDBLK
  5
7FDF
330
8135
100
AcDbEntity
  8
0
100
AcDbBlockEnd
  0
BLOCK
  5
8138
330
8137
100
AcDbEntity
  8
0
100
AcDbBlockBegin
  2
*D23
 70
     1
 10
0.0
 20
0.0
 30
0.0
  3
*D23
  1

  0
LINE
  5
7FE3
330
8137
100
AcDbEntity
  8
0
  6
ByBlock
 62
     0
100
AcDbLine
 10
2847.832563439684
 20
1447.086641991409
 30
0.0
 11
2847.832563439684
 21
1306.064579236374
 31
0.0
  0
LINE
  5
7FE4
330
8137
100
AcDbEntity
  8
0
  6
ByBlock
 62
     0
100
AcDbLine
 10
3400.832563439684
 20
1447.086641991409
 30
0.0
 11
3400.832563439684
 21
1306.064579236374
 31
0.0
  0
LINE
  5
7FE5
330
8137
100
AcDbEntity
  8
0
  6
ByBlock
 62
     0
100
AcDbLine
 10
2887.832563439684
 20
1326.064579236374
 30
0.0
 11
3360.832563439684
 21
1326.064579236374
 31
0.0
  0
INSERT
  5
7FE6
330
8137
100
AcDbEntity
  8
0
  6
ByBlock
 62
     0
100
AcDbBlockReference
  2
_OPEN
 10
2847.832563439684
 20
1326.064579236374
 30
0.0
 41
40.0
 42
40.0
 43
40.0
 50
180.0
  0
INSERT
  5
7FE7
330
8137
100
AcDbEntity
  8
0
  6
ByBlock
 62
     0
100
AcDbBlockReference
  2
_OPEN
 10
3400.832563439684
 20
1326.064579236374
 30
0.0
 41
40.0
 42
40.0
 43
40.0
  0
TEXT
  5
7FE8
330
8137
100
AcDbEntity
  8
3
 62
     0
100
AcDbText
 10
3047.189706296826
 20
1346.064579236373
 30
0.0
 40
60.0
  1
553
100
AcDbText
  0
POINT
  5
7FE9
330
8137
100
AcDbEntity
  8
DEFPOINTS
  6
ByBlock
 62
     0
100
AcDbPoint
 10
2847.832563439684
 20
1467.086641991409
 30
0.0
  0
POINT
  5
7FEA
330
8137
100
AcDbEntity
  8
DEFPOINTS
  6
ByBlock
 62
     0
100
AcDbPoint
 10
3400.832563439684
 20
1467.086641991409
 30
0.0
  0
POINT
  5
7FEB
330
8137
100
AcDbEntity
  8
DEFPOINTS
  6
ByBlock
 62
     0
100
AcDbPoint
 10
3400.832563439684
 20
1326.064579236374
 30
0.0
  0
ENDBLK
  5
7FEC
330
8137
100
AcDbEntity
  8
0
100
AcDbBlockEnd
  0
BLOCK
  5
813A
330
8139
100
AcDbEntity
  8
0
100
AcDbBlockBegin
  2
*D24
 70
     1
 10
0.0
 20
0.0
 30
0.0
  3
*D24
  1

  0
LINE
  5
7FF0
330
8139
100
AcDbEntity
  8
0
  6
ByBlock
 62
     0
100
AcDbLine
 10
3400.832563439684
 20
1447.086641991409
 30
0.0
 11
3400.832563439684
 21
1306.064579236374
 31
0.0
  0
LINE
  5
7FF1
330
8139
100
AcDbEntity
  8
0
  6
ByBlock
 62
     0
100
AcDbLine
 10
3853.832563439683
 20
1447.086641991409
 30
0.0
 11
3853.832563439683
 21
1306.064579236374
 31
0.0
  0
LINE
  5
7FF2
330
8139
100
AcDbEntity
  8
0
  6
ByBlock
 62
     0
100
AcDbLine
 10
3440.832563439683
 20
1326.064579236374
 30
0.0
 11
3813.832563439683
 21
1326.064579236374
 31
0.0
  0
INSERT
  5
7FF3
330
8139
100
AcDbEntity
  8
0
  6
ByBlock
 62
     0
100
AcDbBlockReference
  2
_OPEN
 10
3400.832563439684
 20
1326.064579236374
 30
0.0
 41
40.0
 42
40.0
 43
40.0
 50
180.0
  0
INSERT
  5
7FF4
330
8139
100
AcDbEntity
  8
0
  6
ByBlock
 62
     0
100
AcDbBlockReference
  2
_OPEN
 10
3853.832563439683
 20
1326.064579236374
 30
0.0
 41
40.0
 42
40.0
 43
40.0
  0
TEXT
  5
7FF5
330
8139
100
AcDbEntity
  8
3
 62
     0
100
AcDbText
 10
3550.189706296826
 20
1346.064579236373
 30
0.0
 40
60.0
  1
453
100
AcDbText
  0
POINT
  5
7FF6
330
8139
100
AcDbEntity
  8
DEFPOINTS
  6
ByBlock
 62
     0
100
AcDbPoint
 10
3400.832563439684
 20
1467.086641991409
 30
0.0
  0
POINT
  5
7FF7
330
8139
100
AcDbEntity
  8
DEFPOINTS
  6
ByBlock
 62
     0
100
AcDbPoint
 10
3853.832563439683
 20
1467.086641991409
 30
0.0
  0
POINT
  5
7FF8
330
8139
100
AcDbEntity
  8
DEFPOINTS
  6
ByBlock
 62
     0
100
AcDbPoint
 10
3853.832563439683
 20
1326.064579236374
 30
0.0
  0
ENDBLK
  5
7FF9
330
8139
100
AcDbEntity
  8
0
100
AcDbBlockEnd
  0
BLOCK
  5
813C
330
813B
100
AcDbEntity
  8
0
100
AcDbBlockBegin
  2
_NONE
 70
     0
 10
0.0
 20
0.0
 30
0.0
  3
_NONE
  1

  0
CIRCLE
  5
7FFD
330
813B
100
AcDbEntity
  8
0
  6
ByBlock
 62
     0
100
AcDbCircle
 10
0.0
 20
0.0
 30
0.0
 40
0.25
  0
ENDBLK
  5
7FFE
330
813B
100
AcDbEntity
  8
0
100
AcDbBlockEnd
  0
BLOCK
  5
813E
330
813D
100
AcDbEntity
  8
0
100
AcDbBlockBegin
  2
*D26
 70
     1
 10
0.0
 20
0.0
 30
0.0
  3
*D26
  1

  0
LINE
  5
8001
330
813D
100
AcDbEntity
  8
0
  6
ByBlock
 62
     0
100
AcDbLine
 10
2395.410070462818
 20
1567.086641991409
 30
0.0
 11
2395.410070462818
 21
1567.086641991409
 31
0.0
  0
LINE
  5
8002
330
813D
100
AcDbEntity
  8
0
  6
ByBlock
 62
     0
100
AcDbLine
 10
2395.410070462818
 20
1594.086641991409
 30
0.0
 11
2395.410070462818
 21
1674.086641991409
 31
0.0
  0
TEXT
  5
8003
330
813D
100
AcDbEntity
  8
3
 62
     0
100
AcDbText
 10
2511.124356177104
 20
1493.443784848552
 30
0.0
 40
60.0
  1
(27)
 50
90.0
100
AcDbText
  0
LINE
  5
8004
330
813D
100
AcDbEntity
  8
0
  6
ByBlock
 62
     0
100
AcDbLine
 10
2395.410070462818
 20
1567.086641991409
 30
0.0
 11
2395.410070462818
 21
1594.086641991409
 31
0.0
  0
POINT
  5
8005
330
813D
100
AcDbEntity
  8
DEFPOINTS
  6
ByBlock
 62
     0
100
AcDbPoint
 10
2034.96772293055
 20
1567.086641991409
 30
0.0
  0
POINT
  5
8006
330
813D
100
AcDbEntity
  8
DEFPOINTS
  6
ByBlock
 62
     0
100
AcDbPoint
 10
2034.96772293055
 20
1594.086641991409
 30
0.0
  0
POINT
  5
8007
330
813D
100
AcDbEntity
  8
DEFPOINTS
  6
ByBlock
 62
     0
100
AcDbPoint
 10
2395.410070462818
 20
1594.086641991409
 30
0.0
  0
ENDBLK
  5
8008
330
813D
100
AcDbEntity
  8
0
100
AcDbBlockEnd
  0
BLOCK
  5
8140
330
813F
100
AcDbEntity
  8
0
100
AcDbBlockBegin
  2
*D27
 70
     1
 10
0.0
 20
0.0
 30
0.0
  3
*D27
  1

  0
LINE
  5
800C
330
813F
100
AcDbEntity
  8
0
  6
ByBlock
 62
     0
100
AcDbLine
 10
2114.96772293055
 20
2777.086641991409
 30
0.0
 11
2580.818725316261
 21
2777.086641991409
 31
0.0
  0
LINE
  5
800D
330
813F
100
AcDbEntity
  8
0
  6
ByBlock
 62
     0
100
AcDbLine
 10
2054.96772293055
 20
1467.086641991409
 30
0.0
 11
2580.818725316261
 21
1467.086641991409
 31
0.0
  0
LINE
  5
800E
330
813F
100
AcDbEntity
  8
0
  6
ByBlock
 62
     0
100
AcDbLine
 10
2560.818725316261
 20
2737.086641991409
 30
0.0
 11
2560.818725316261
 21
1507.086641991408
 31
0.0
  0
INSERT
  5
800F
330
813F
100
AcDbEntity
  8
0
  6
ByBlock
 62
     0
100
AcDbBlockReference
  2
_OPEN
 10
2560.818725316261
 20
2777.086641991409
 30
0.0
 41
40.0
 42
40.0
 43
40.0
 50
90.0
  0
INSERT
  5
8010
330
813F
100
AcDbEntity
  8
0
  6
ByBlock
 62
     0
100
AcDbBlockReference
  2
_OPEN
 10
2560.818725316261
 20
1467.086641991409
 30
0.0
 41
40.0
 42
40.0
 43
40.0
 50
270.0
  0
TEXT
  5
8011
330
813F
100
AcDbEntity
  8
3
 62
     0
100
AcDbText
 10
2515.104439601975
 20
1989.229499134266
 30
0.0
 40
60.0
  1
(1310)
 50
90.0
100
AcDbText
  0
POINT
  5
8012
330
813F
100
AcDbEntity
  8
DEFPOINTS
  6
ByBlock
 62
     0
100
AcDbPoint
 10
2094.96772293055
 20
2777.086641991409
 30
0.0
  0
POINT
  5
8013
330
813F
100
AcDbEntity
  8
DEFPOINTS
  6
ByBlock
 62
     0
100
AcDbPoint
 10
2034.96772293055
 20
1467.086641991409
 30
0.0
  0
POINT
  5
8014
330
813F
100
AcDbEntity
  8
DEFPOINTS
  6
ByBlock
 62
     0
100
AcDbPoint
 10
2560.818725316261
 20
1467.086641991409
 30
0.0
  0
ENDBLK
  5
8015
330
813F
100
AcDbEntity
  8
0
100
AcDbBlockEnd
  0
BLOCK
  5
8144
330
8143
100
AcDbEntity
  8
0
100
AcDbBlockBegin
  2
*D28
 70
     1
 10
0.0
 20
0.0
 30
0.0
  3
*D28
  1

  0
LINE
  5
8177
330
8143
100
AcDbEntity
  8
3
 62
     0
370
    -2
100
AcDbLine
 10
2620.832563439683
 20
2269.086641991409
 30
0.0
 11
2620.832563439683
 21
3056.174687287499
 31
0.0
  0
LINE
  5
8178
330
8143
100
AcDbEntity
  8
3
 62
     0
370
    -2
100
AcDbLine
 10
3400.832563439682
 20
3004.169340590403
 30
0.0
 11
3400.832563439682
 21
3056.174687287499
 31
0.0
  0
LINE
  5
8179
330
8143
100
AcDbEntity
  8
3
 62
     0
370
    -2
100
AcDbLine
 10
2660.832563439683
 20
3036.174687287499
 30
0.0
 11
3360.832563439682
 21
3036.174687287499
 31
0.0
  0
INSERT
  5
817A
330
8143
100
AcDbEntity
  8
3
 62
     0
370
    -2
100
AcDbBlockReference
  2
_OPEN
 10
2620.832563439683
 20
3036.174687287499
 30
0.0
 41
40.0
 42
40.0
 43
40.0
 50
180.0
  0
INSERT
  5
817B
330
8143
100
AcDbEntity
  8
3
 62
     0
370
    -2
100
AcDbBlockReference
  2
_OPEN
 10
3400.832563439682
 20
3036.174687287499
 30
0.0
 41
40.0
 42
40.0
 43
40.0
  0
MTEXT
  5
817C
330
8143
100
AcDbEntity
  8
3
 62
     0
100
AcDbMText
 10
3010.832563439683
 20
3101.888973001785
 30
0.0
 40
60.0
 41
0.0
 71
     5
 72
     1
  1
\A1;(780)
 73
     1
 44
1.0
1001
ACAD
1000
MTEXTBEGIN
1070
    73
1070
     1
1070
    44
1040
1.0
1070
    74
1070
     0
1000
MTEXTEND
  0
POINT
  5
817D
330
8143
100
AcDbEntity
  8
DEFPOINTS
 62
     0
100
AcDbPoint
 10
2620.832563439683
 20
2249.086641991409
 30
0.0
  0
POINT
  5
817E
330
8143
100
AcDbEntity
  8
DEFPOINTS
 62
     0
100
AcDbPoint
 10
3400.832563439682
 20
2984.169340590403
 30
0.0
  0
POINT
  5
817F
330
8143
100
AcDbEntity
  8
DEFPOINTS
 62
     0
100
AcDbPoint
 10
3400.832563439682
 20
3036.174687287499
 30
0.0
  0
ENDBLK
  5
8145
330
8143
100
AcDbEntity
  8
0
100
AcDbBlockEnd
  0
BLOCK
  5
8151
330
8150
100
AcDbEntity
  8
0
100
AcDbBlockBegin
  2
*D29
 70
     1
 10
0.0
 20
0.0
 30
0.0
  3
*D29
  1

  0
LINE
  5
816E
330
8150
100
AcDbEntity
  8
3
 62
     0
370
    -2
100
AcDbLine
 10
3400.832563439682
 20
3004.169340590403
 30
0.0
 11
3400.832563439682
 21
3056.174687287499
 31
0.0
  0
LINE
  5
816F
330
8150
100
AcDbEntity
  8
3
 62
     0
370
    -2
100
AcDbLine
 10
3910.832563439683
 20
2089.086641991408
 30
0.0
 11
3910.832563439683
 21
3056.174687287499
 31
0.0
  0
LINE
  5
8170
330
8150
100
AcDbEntity
  8
3
 62
     0
370
    -2
100
AcDbLine
 10
3440.832563439682
 20
3036.174687287499
 30
0.0
 11
3870.832563439682
 21
3036.174687287499
 31
0.0
  0
INSERT
  5
8171
330
8150
100
AcDbEntity
  8
3
 62
     0
370
    -2
100
AcDbBlockReference
  2
_OPEN
 10
3400.832563439682
 20
3036.174687287499
 30
0.0
 41
40.0
 42
40.0
 43
40.0
 50
180.0
  0
INSERT
  5
8172
330
8150
100
AcDbEntity
  8
3
 62
     0
370
    -2
100
AcDbBlockReference
  2
_OPEN
 10
3910.832563439683
 20
3036.174687287499
 30
0.0
 41
40.0
 42
40.0
 43
40.0
  0
MTEXT
  5
8173
330
8150
100
AcDbEntity
  8
3
 62
     0
100
AcDbMText
 10
3655.832563439683
 20
3101.888973001785
 30
0.0
 40
60.0
 41
0.0
 71
     5
 72
     1
  1
\A1;(510)
 73
     1
 44
1.0
1001
ACAD
1000
MTEXTBEGIN
1070
    73
1070
     1
1070
    44
1040
1.0
1070
    74
1070
     0
1000
MTEXTEND
  0
POINT
  5
8174
330
8150
100
AcDbEntity
  8
DEFPOINTS
 62
     0
100
AcDbPoint
 10
3400.832563439682
 20
2984.169340590403
 30
0.0
  0
POINT
  5
8175
330
8150
100
AcDbEntity
  8
DEFPOINTS
 62
     0
100
AcDbPoint
 10
3910.832563439683
 20
2069.086641991408
 30
0.0
  0
POINT
  5
8176
330
8150
100
AcDbEntity
  8
DEFPOINTS
 62
     0
100
AcDbPoint
 10
3910.832563439683
 20
3036.174687287499
 30
0.0
  0
ENDBLK
  5
8152
330
8150
100
AcDbEntity
  8
0
100
AcDbBlockEnd
  0
BLOCK
  5
8185
330
8184
100
AcDbEntity
  8
0
100
AcDbBlockBegin
  2
*D30
 70
     1
 10
0.0
 20
0.0
 30
0.0
  3
*D30
  1

  0
LINE
  5
8187
330
8184
100
AcDbEntity
  8
3
 62
     0
370
    -2
100
AcDbLine
 10
584.9677229305496
 20
3458.312742094977
 30
0.0
 11
584.9677229305496
 21
3132.16661092044
 31
0.0
  0
LINE
  5
8188
330
8184
100
AcDbEntity
  8
3
 62
     0
370
    -2
100
AcDbLine
 10
2034.96772293055
 20
3458.312742094977
 30
0.0
 11
2034.96772293055
 21
3132.16661092044
 31
0.0
  0
LINE
  5
8189
330
8184
100
AcDbEntity
  8
3
 62
     0
370
    -2
100
AcDbLine
 10
624.9677229305496
 20
3152.16661092044
 30
0.0
 11
1994.96772293055
 21
3152.16661092044
 31
0.0
  0
INSERT
  5
818A
330
8184
100
AcDbEntity
  8
3
 62
     0
370
    -2
100
AcDbBlockReference
  2
_OPEN
 10
584.9677229305496
 20
3152.16661092044
 30
0.0
 41
40.0
 42
40.0
 43
40.0
 50
180.0
  0
INSERT
  5
818B
330
8184
100
AcDbEntity
  8
3
 62
     0
370
    -2
100
AcDbBlockReference
  2
_OPEN
 10
2034.96772293055
 20
3152.16661092044
 30
0.0
 41
40.0
 42
40.0
 43
40.0
  0
MTEXT
  5
818C
330
8184
100
AcDbEntity
  8
3
 62
     0
100
AcDbMText
 10
1309.96772293055
 20
3202.16661092044
 30
0.0
 40
60.0
 41
0.0
 71
     5
 72
     1
  1
\A1;1450
 73
     1
 44
1.0
1001
ACAD
1000
MTEXTBEGIN
1070
    73
1070
     1
1070
    44
1040
1.0
1070
    74
1070
     0
1000
MTEXTEND
  0
POINT
  5
818D
330
8184
100
AcDbEntity
  8
DEFPOINTS
 62
     0
100
AcDbPoint
 10
584.9677229305496
 20
3478.312742094976
 30
0.0
  0
POINT
  5
818E
330
8184
100
AcDbEntity
  8
DEFPOINTS
 62
     0
100
AcDbPoint
 10
2034.96772293055
 20
3478.312742094977
 30
0.0
  0
POINT
  5
818F
330
8184
100
AcDbEntity
  8
DEFPOINTS
 62
     0
100
AcDbPoint
 10
2034.96772293055
 20
3152.16661092044
 30
0.0
  0
ENDBLK
  5
8186
330
8184
100
AcDbEntity
  8
0
100
AcDbBlockEnd
  0
BLOCK
  5
8192
330
8191
100
AcDbEntity
  8
0
100
AcDbBlockBegin
  2
*D31
 70
     1
 10
0.0
 20
0.0
 30
0.0
  3
*D31
  1

  0
LINE
  5
819D
330
8191
100
AcDbEntity
  8
3
 62
     0
370
    -2
100
AcDbLine
 10
1634.967722930548
 20
2838.719477643282
 30
0.0
 11
1634.967722930548
 21
2937.308396717435
 31
0.0
  0
LINE
  5
819E
330
8191
100
AcDbEntity
  8
3
 62
     0
370
    -2
100
AcDbLine
 10
1086.967722930548
 20
2166.086641991409
 30
0.0
 11
1086.967722930548
 21
2937.308396717435
 31
0.0
  0
LINE
  5
819F
330
8191
100
AcDbEntity
  8
3
 62
     0
370
    -2
100
AcDbLine
 10
1594.967722930548
 20
2917.308396717436
 30
0.0
 11
1126.967722930548
 21
2917.308396717436
 31
0.0
  0
INSERT
  5
81A0
330
8191
100
AcDbEntity
  8
3
 62
     0
370
    -2
100
AcDbBlockReference
  2
_OPEN
 10
1634.967722930548
 20
2917.308396717436
 30
0.0
 41
40.0
 42
40.0
 43
40.0
  0
INSERT
  5
81A1
330
8191
100
AcDbEntity
  8
3
 62
     0
370
    -2
100
AcDbBlockReference
  2
_OPEN
 10
1086.967722930548
 20
2917.308396717436
 30
0.0
 41
40.0
 42
40.0
 43
40.0
 50
180.0
  0
MTEXT
  5
81A2
330
8191
100
AcDbEntity
  8
3
 62
     0
100
AcDbMText
 10
1360.967722930549
 20
2967.308396717435
 30
0.0
 40
60.0
 41
0.0
 71
     5
 72
     1
  1
\A1;548
 73
     1
 44
1.0
1001
ACAD
1000
MTEXTBEGIN
1070
    73
1070
     1
1070
    44
1040
1.0
1070
    74
1070
     0
1000
MTEXTEND
  0
POINT
  5
81A3
330
8191
100
AcDbEntity
  8
DEFPOINTS
 62
     0
100
AcDbPoint
 10
1634.967722930548
 20
2818.719477643282
 30
0.0
  0
POINT
  5
81A4
330
8191
100
AcDbEntity
  8
DEFPOINTS
 62
     0
100
AcDbPoint
 10
1086.967722930548
 20
2146.086641991409
 30
0.0
  0
POINT
  5
81A5
330
8191
100
AcDbEntity
  8
DEFPOINTS
 62
     0
100
AcDbPoint
 10
1086.967722930548
 20
2917.308396717436
 30
0.0
  0
ENDBLK
  5
8193
330
8191
100
AcDbEntity
  8
0
100
AcDbBlockEnd
  0
BLOCK
  5
81A8
330
81A7
100
AcDbEntity
  8
0
100
AcDbBlockBegin
  2
*D32
 70
     1
 10
0.0
 20
0.0
 30
0.0
  3
*D32
  1

  0
LINE
  5
81B3
330
81A7
100
AcDbEntity
  8
3
 62
     0
370
    -2
100
AcDbLine
 10
584.9677229305496
 20
4098.312742094977
 30
0.0
 11
584.9677229305496
 21
4652.918032593382
 31
0.0
  0
LINE
  5
81B4
330
81A7
100
AcDbEntity
  8
3
 62
     0
370
    -2
100
AcDbLine
 10
1234.96772293055
 20
4504.312742094978
 30
0.0
 11
1234.96772293055
 21
4652.918032593382
 31
0.0
  0
LINE
  5
81B5
330
81A7
100
AcDbEntity
  8
3
 62
     0
370
    -2
100
AcDbLine
 10
624.9677229305496
 20
4632.918032593383
 30
0.0
 11
1194.96772293055
 21
4632.918032593383
 31
0.0
  0
INSERT
  5
81B6
330
81A7
100
AcDbEntity
  8
3
 62
     0
370
    -2
100
AcDbBlockReference
  2
_OPEN
 10
584.9677229305496
 20
4632.918032593383
 30
0.0
 41
40.0
 42
40.0
 43
40.0
 50
180.0
  0
INSERT
  5
81B7
330
81A7
100
AcDbEntity
  8
3
 62
     0
370
    -2
100
AcDbBlockReference
  2
_OPEN
 10
1234.96772293055
 20
4632.918032593383
 30
0.0
 41
40.0
 42
40.0
 43
40.0
  0
MTEXT
  5
81B8
330
81A7
100
AcDbEntity
  8
3
 62
     0
100
AcDbMText
 10
909.9677229305497
 20
4682.918032593383
 30
0.0
 40
60.0
 41
0.0
 71
     5
 72
     1
  1
\A1;650
 73
     1
 44
1.0
1001
ACAD
1000
MTEXTBEGIN
1070
    73
1070
     1
1070
    44
1040
1.0
1070
    74
1070
     0
1000
MTEXTEND
  0
POINT
  5
81B9
330
81A7
100
AcDbEntity
  8
DEFPOINTS
 62
     0
100
AcDbPoint
 10
584.9677229305496
 20
4078.312742094976
 30
0.0
  0
POINT
  5
81BA
330
81A7
100
AcDbEntity
  8
DEFPOINTS
 62
     0
100
AcDbPoint
 10
1234.96772293055
 20
4484.312742094977
 30
0.0
  0
POINT
  5
81BB
330
81A7
100
AcDbEntity
  8
DEFPOINTS
 62
     0
100
AcDbPoint
 10
1234.96772293055
 20
4632.918032593383
 30
0.0
  0
ENDBLK
  5
81A9
330
81A7
100
AcDbEntity
  8
0
100
AcDbBlockEnd
  0
ENDSEC
  0
SECTION
  2
ENTITIES
  0
INSERT
  5
7BED
330
80F9
100
AcDbEntity
  8
0
100
AcDbBlockReference
  2
YA_N
 10
6.0
 20
5.0
 30
0.0
  0
LINE
  5
7BEF
330
80F9
100
AcDbEntity
  8
2
100
AcDbLine
 10
1023.713980624623
 20
2099.086641991409
 30
0.0
 11
2141.860696033544
 21
2099.086641991409
 31
0.0
  0
LINE
  5
7BF0
330
80F9
100
AcDbEntity
  8
2
100
AcDbLine
 10
1634.967722930548
 20
2818.719477643282
 30
0.0
 11
1634.96772293055
 21
1467.086641991409
 31
0.0
  0
ARC
  5
7BF1
330
80F9
100
AcDbEntity
  8
1
100
AcDbCircle
 10
1681.967722930548
 20
2146.086641991409
 30
0.0
 40
595.0
100
AcDbArc
 50
94.53060504268261
 51
184.5306050426826
  0
ARC
  5
7BF2
330
80F9
100
AcDbEntity
  8
1
100
AcDbCircle
 10
1587.967722930549
 20
2146.086641991409
 30
0.0
 40
501.0
100
AcDbArc
 50
185.3829686498812
 51
244.448188039322
  0
ARC
  5
7BF3
330
80F9
100
AcDbEntity
  8
1
100
AcDbCircle
 10
1596.967722930549
 20
2061.086641991408
 30
0.0
 40
416.0
100
AcDbArc
 50
298.0896983689055
 51
5.241055061296706
  0
LINE
  5
7BF4
330
80F9
100
AcDbEntity
  8
1
100
AcDbLine
 10
2094.96772293055
 20
2819.086641991409
 30
0.0
 11
2094.96772293055
 21
2085.086641991409
 31
0.0
  0
LINE
  5
7BF5
330
80F9
100
AcDbEntity
  8
1
100
AcDbLine
 10
2094.96772293055
 20
2777.086641991409
 30
0.0
 11
1634.967722930548
 21
2739.227434721094
 31
0.0
  0
LINE
  5
7BF6
330
80F9
100
AcDbEntity
  8
1
100
AcDbLine
 10
2011.929259429965
 20
2127.086641991409
 30
0.0
 11
2094.96772293055
 21
2127.086641991409
 31
0.0
  0
LINE
  5
7BF7
330
80F9
100
AcDbEntity
  8
1
100
AcDbLine
 10
2054.96772293055
 20
2773.794537011382
 30
0.0
 11
2054.96772293055
 21
2127.086641991409
 31
0.0
  0
LINE
  5
7BF8
330
80F9
100
AcDbEntity
  8
1
100
AcDbLine
 10
2091.967722930549
 20
2819.086641991409
 30
0.0
 11
2094.96772293055
 21
2819.086641991409
 31
0.0
  0
LINE
  5
7BF9
330
80F9
100
AcDbEntity
  8
1
100
AcDbLine
 10
2091.967722930549
 20
2085.086641991409
 30
0.0
 11
2094.96772293055
 21
2085.086641991409
 31
0.0
  0
LINE
  5
7BFA
330
80F9
100
AcDbEntity
  8
1
100
AcDbLine
 10
2091.967722930549
 20
2819.086641991409
 30
0.0
 11
2091.967722930549
 21
2085.086641991409
 31
0.0
  0
LINE
  5
7BFB
330
80F9
100
AcDbEntity
  8
2
100
AcDbLine
 10
3400.832563439682
 20
2897.69719823233
 30
0.0
 11
3400.832563439684
 21
1467.086641991409
 31
0.0
  0
LINE
  5
7BFC
330
80F9
100
AcDbEntity
  8
2
100
AcDbLine
 10
2618.832563439682
 20
2099.086641991409
 30
0.0
 11
3906.504238061832
 21
2099.086641991409
 31
0.0
  0
LINE
  5
7BFD
330
80F9
100
AcDbEntity
  8
1
100
AcDbLine
 10
3853.832563439683
 20
1694.086641991409
 30
0.0
 11
3853.832563439683
 21
1688.616510778223
 31
0.0
  0
LINE
  5
7BFE
330
80F9
100
AcDbEntity
  8
1
100
AcDbLine
 10
3800.832563439683
 20
2777.086641991409
 30
0.0
 11
3800.832563439683
 21
2127.086641991409
 31
0.0
  0
LINE
  5
7BFF
330
80F9
100
AcDbEntity
  8
1
100
AcDbLine
 10
3000.832563439681
 20
2777.086641991409
 30
0.0
 11
3800.832563439683
 21
2777.086641991409
 31
0.0
  0
LINE
  5
7C00
330
80F9
100
AcDbEntity
  8
1
100
AcDbLine
 10
3000.832563439682
 20
2127.086641991409
 30
0.0
 11
3800.832563439683
 21
2127.086641991409
 31
0.0
  0
LINE
  5
7C01
330
80F9
100
AcDbEntity
  8
1
100
AcDbLine
 10
3800.832563439683
 20
2127.086641991409
 30
0.0
 11
3800.832563439683
 21
1694.086641991409
 31
0.0
  0
LINE
  5
7C02
330
80F9
100
AcDbEntity
  8
2
100
AcDbLine
 10
1634.967722930548
 20
4512.1108285998
 30
0.0
 11
1634.967722930548
 21
3227.759458823282
 31
0.0
  0
LINE
  5
7C03
330
80F9
100
AcDbEntity
  8
2
100
AcDbLine
 10
1033.119873231731
 20
4031.312742094977
 30
0.0
 11
2144.478257614373
 21
4031.312742094978
 31
0.0
  0
INSERT
  5
7C04
330
80F9
100
AcDbEntity
  8
0
100
AcDbBlockReference
  2
YA_N
 10
-1221.011981710642
 20
-542.7332483964637
 30
0.0
 41
15.0
 42
15.0
 43
15.0
  0
LINE
  5
7C06
330
80F9
100
AcDbEntity
  8
1
100
AcDbLine
 10
584.9677229305496
 20
1467.086641991409
 30
0.0
 11
2034.96772293055
 21
1467.086641991409
 31
0.0
  0
LINE
  5
7C07
330
80F9
100
AcDbEntity
  8
1
100
AcDbLine
 10
584.9677229305496
 20
1567.086641991409
 30
0.0
 11
2034.96772293055
 21
1567.086641991409
 31
0.0
1001
ACAD
1000
ASC_BOUNDS
1002
{
1070
    19
1005
0
1005
0
1002
}
  0
LINE
  5
7C08
330
80F9
100
AcDbEntity
  8
1
100
AcDbLine
 10
584.9677229305496
 20
1567.086641991409
 30
0.0
 11
584.9677229305496
 21
1467.086641991409
 31
0.0
  0
LINE
  5
7C09
330
80F9
100
AcDbEntity
  8
1
100
AcDbLine
 10
2034.96772293055
 20
1567.086641991409
 30
0.0
 11
2034.96772293055
 21
1467.086641991409
 31
0.0
  0
ARC
  5
7C0A
330
80F9
100
AcDbEntity
  8
1
100
AcDbCircle
 10
784.9677229305498
 20
1911.086641991408
 30
0.0
 40
142.5
100
AcDbArc
 50
326.966192328012
 51
0.0
  0
ARC
  5
7C0B
330
80F9
100
AcDbEntity
  8
1
100
AcDbCircle
 10
784.9677229305498
 20
1911.086641991408
 30
0.0
 40
142.5
100
AcDbArc
 50
0.0
 51
213.0338683823617
  0
LINE
  5
7C0C
330
80F9
100
AcDbEntity
  8
2
100
AcDbLine
 10
784.9677229305498
 20
2072.685383108668
 30
0.0
 11
784.9677229305499
 21
1467.086641991409
 31
0.0
  0
LINE
  5
7C0D
330
80F9
100
AcDbEntity
  8
1
100
AcDbLine
 10
665.5030649216269
 20
1833.404948608661
 30
0.0
 11
654.9677229305498
 21
1794.086641991408
 31
0.0
  0
LINE
  5
7C0E
330
80F9
100
AcDbEntity
  8
1
100
AcDbLine
 10
654.9677229305498
 20
1793.889241991409
 30
0.0
 11
654.9677229305498
 21
1779.086641991409
 31
0.0
  0
LINE
  5
7C0F
330
80F9
100
AcDbEntity
  8
1
100
AcDbLine
 10
904.4324632506103
 20
1833.405075192969
 30
0.0
 11
914.9677229305495
 21
1794.086641991408
 31
0.0
  0
LINE
  5
7C10
330
80F9
100
AcDbEntity
  8
1
100
AcDbLine
 10
914.9677229305495
 20
1793.889241991409
 30
0.0
 11
914.9677229305495
 21
1779.086641991409
 31
0.0
  0
LINE
  5
7C11
330
80F9
100
AcDbEntity
  8
2
100
AcDbLine
 10
614.4301581149594
 20
1911.086641991408
 30
0.0
 11
953.4684884562102
 21
1911.086641991408
 31
0.0
  0
LINE
  5
7C12
330
80F9
100
AcDbEntity
  8
1
100
AcDbLine
 10
984.9677229305498
 20
1734.086641991408
 30
0.0
 11
984.9677229305498
 21
1694.086641991409
 31
0.0
  0
LINE
  5
7C13
330
80F9
100
AcDbEntity
  8
1
100
AcDbLine
 10
584.9677229305496
 20
1734.086641991408
 30
0.0
 11
584.9677229305496
 21
1694.086641991409
 31
0.0
  0
LINE
  5
7C14
330
80F9
100
AcDbEntity
  8
1
100
AcDbLine
 10
584.9677229305496
 20
1734.086641991408
 30
0.0
 11
984.9677229305498
 21
1734.086641991408
 31
0.0
  0
LINE
  5
7C15
330
80F9
100
AcDbEntity
  8
1
100
AcDbLine
 10
621.1320663167551
 20
1779.086641991409
 30
0.0
 11
947.5902343218766
 21
1779.086641991409
 31
0.0
  0
LINE
  5
7C16
330
80F9
100
AcDbEntity
  8
1
100
AcDbLine
 10
609.9677229305498
 20
1734.086641991408
 30
0.0
 11
621.1320663167551
 21
1779.086641991409
 31
0.0
  0
LINE
  5
7C17
330
80F9
100
AcDbEntity
  8
1
100
AcDbLine
 10
959.9677229305498
 20
1734.086641991408
 30
0.0
 11
947.5902343218766
 21
1779.086641991409
 31
0.0
  0
LINE
  5
7C18
330
80F9
100
AcDbEntity
  8
1
100
AcDbLine
 10
2847.832563439684
 20
1567.086641991409
 30
0.0
 11
3853.832563439683
 21
1567.086641991409
 31
0.0
1001
ACAD
1000
ASC_BOUNDS
1002
{
1070
    19
1002
}
  0
LINE
  5
7C19
330
80F9
100
AcDbEntity
  8
1
100
AcDbLine
 10
2847.832563439684
 20
1467.086641991409
 30
0.0
 11
3853.832563439683
 21
1467.086641991409
 31
0.0
  0
LINE
  5
7C1A
330
80F9
100
AcDbEntity
  8
1
100
AcDbLine
 10
2847.832563439684
 20
1567.086641991409
 30
0.0
 11
2847.832563439684
 21
1467.086641991409
 31
0.0
  0
LINE
  5
7C1B
330
80F9
100
AcDbEntity
  8
1
100
AcDbLine
 10
3853.832563439683
 20
1567.086641991409
 30
0.0
 11
3853.832563439683
 21
1467.086641991409
 31
0.0
  0
DIMENSION
  5
7C1D
330
80F9
100
AcDbEntity
  8
3
100
AcDbDimension
  2
*D5
 10
2244.925544847559
 20
2127.086641991409
 30
0.0
 11
2204.925544847559
 21
2452.086641991409
 31
0.0
 12
1055.31472653631
 22
1530.989015541288
 32
0.0
 71
     5
 42
-1.0
  3
Standard
100
AcDbAlignedDimension
 13
2094.96772293055
 23
2777.086641991409
 33
0.0
 14
2094.96772293055
 24
2127.086641991409
 34
0.0
 50
90.0
100
AcDbRotatedDimension
1001
ACAD
1000
DSTYLE
1002
{
1070
    40
1040
20.0
1002
}
  0
DIMENSION
  5
7C1E
330
80F9
100
AcDbEntity
  8
3
100
AcDbDimension
  2
*D6
 10
2394.469389051242
 20
2099.086641991409
 30
0.0
 11
2354.469389051242
 21
2438.08664199141
 31
0.0
 12
1055.31472653631
 22
1530.989015541288
 32
0.0
 71
     5
 42
-1.0
  3
Standard
100
AcDbAlignedDimension
 13
2094.96772293055
 23
2777.086641991409
 33
0.0
 14
2141.860696033544
 24
2099.086641991409
 34
0.0
 50
90.0
100
AcDbRotatedDimension
1001
ACAD
1000
DSTYLE
1002
{
1070
    40
1040
20.0
1002
}
  0
POINT
  5
7C1F
330
80F9
100
AcDbEntity
  8
1
100
AcDbPoint
 10
2034.96772293055
 20
1467.086641991409
 30
0.0
  0
DIMENSION
  5
7C20
330
80F9
100
AcDbEntity
  8
3
100
AcDbDimension
  2
*D7
 10
1634.967722930548
 20
2917.308396717436
 30
0.0
 11
1864.96772293055
 21
2957.308396717435
 31
0.0
 12
221.7783565799109
 22
0.0
 32
0.0
 71
     5
 42
-1.0
  3
Standard
100
AcDbAlignedDimension
 13
2094.96772293055
 23
2819.086641991409
 33
0.0
 14
1634.967722930548
 24
2818.719477643282
 34
0.0
100
AcDbRotatedDimension
1001
ACAD
1000
DSTYLE
1002
{
1070
    40
1040
20.0
1002
}
  0
LINE
  5
7C22
330
80F9
100
AcDbEntity
  8
2
100
AcDbLine
 10
2618.832563439682
 20
1911.086641991408
 30
0.0
 11
3000.832563439682
 21
1911.086641991408
 31
0.0
  0
LINE
  5
7C24
330
80F9
100
AcDbEntity
  8
1
100
AcDbLine
 10
3000.832563439682
 20
2777.086641991409
 30
0.0
 11
3000.832563439682
 21
2127.086641991409
 31
0.0
  0
LINE
  5
7C25
330
80F9
100
AcDbEntity
  8
1
100
AcDbLine
 10
3000.832563439682
 20
2127.086641991409
 30
0.0
 11
3000.832563439682
 21
1694.086641991409
 31
0.0
  0
LINE
  5
7C26
330
80F9
100
AcDbEntity
  8
1
100
AcDbLine
 10
3910.832563439683
 20
2069.086641991408
 30
0.0
 11
3910.832563439683
 21
1969.086641991408
 31
0.0
  0
ARC
  5
7C27
330
80F9
100
AcDbEntity
  8
1
100
AcDbCircle
 10
3900.832563439683
 20
2069.086641991408
 30
0.0
 40
10.0
100
AcDbArc
 50
0.0
 51
90.0
  0
ARC
  5
7C28
330
80F9
100
AcDbEntity
  8
1
100
AcDbCircle
 10
3900.832563439683
 20
1969.086641991408
 30
0.0
 40
10.0
100
AcDbArc
 50
270.0
 51
0.0
  0
LINE
  5
7C29
330
80F9
100
AcDbEntity
  8
1
100
AcDbLine
 10
3800.832563439683
 20
1959.086641991408
 30
0.0
 11
3900.832563439683
 21
1959.086641991408
 31
0.0
  0
LINE
  5
7C2A
330
80F9
100
AcDbEntity
  8
1
100
AcDbLine
 10
3800.832563439683
 20
2079.086641991409
 30
0.0
 11
3900.832563439683
 21
2079.086641991409
 31
0.0
  0
CIRCLE
  5
7C2B
330
80F9
100
AcDbEntity
  8
1
100
AcDbCircle
 10
784.9677229305498
 20
1911.086641991408
 30
0.0
 40
79.0
  0
CIRCLE
  5
7C2C
330
80F9
100
AcDbEntity
  8
1
100
AcDbCircle
 10
1634.967722930548
 20
2099.086641991409
 30
0.0
 40
88.9
  0
ARC
  5
7C2D
330
80F9
100
AcDbEntity
  8
1
100
AcDbCircle
 10
1634.967722930548
 20
2099.086641991409
 30
0.0
 40
150.0
100
AcDbArc
 50
282.4716975566092
 51
102.4716975566092
  0
ARC
  5
7C2E
330
80F9
100
AcDbEntity
  8
1
100
AcDbCircle
 10
784.9677229305498
 20
1911.086641991408
 30
0.0
 40
150.0
100
AcDbArc
 50
102.4716975566092
 51
282.4716975566092
  0
LINE
  5
7C2F
330
80F9
100
AcDbEntity
  8
1
100
AcDbLine
 10
1602.57412405925
 20
2245.547062420156
 30
0.0
 11
752.5741240592505
 21
2057.547062420156
 31
0.0
  0
LINE
  5
7C30
330
80F9
100
AcDbEntity
  8
1
100
AcDbLine
 10
1614.783224263661
 20
2185.66490724064
 30
0.0
 11
767.0309918317398
 21
1988.023458129646
 31
0.0
  0
LINE
  5
7C31
330
80F9
100
AcDbEntity
  8
1
100
AcDbLine
 10
1653.177953806178
 20
2012.07171516011
 30
0.0
 11
801.1500428312769
 21
1833.761791376417
 31
0.0
  0
LINE
  5
7C32
330
80F9
100
AcDbEntity
  8
1
100
AcDbLine
 10
1667.361321801849
 20
1952.626221562661
 30
0.0
 11
817.3613218018489
 21
1764.626221562662
 31
0.0
  0
LINE
  5
7C33
330
80F9
100
AcDbEntity
  8
1
100
AcDbLine
 10
2748.832563439683
 20
2187.986641991409
 30
0.0
 11
2748.832563439682
 21
2010.186641991409
 31
0.0
  0
LINE
  5
7C34
330
80F9
100
AcDbEntity
  8
1
100
AcDbLine
 10
2830.832563439683
 20
2187.986641991409
 30
0.0
 11
2830.832563439682
 21
2010.186641991409
 31
0.0
  0
LINE
  5
7C35
330
80F9
100
AcDbEntity
  8
1
100
AcDbLine
 10
2748.832563439683
 20
2187.986641991409
 30
0.0
 11
2830.832563439683
 21
2187.986641991409
 31
0.0
  0
LINE
  5
7C36
330
80F9
100
AcDbEntity
  8
1
100
AcDbLine
 10
2748.832563439682
 20
2010.186641991409
 30
0.0
 11
2830.832563439682
 21
2010.186641991409
 31
0.0
  0
LINE
  5
7C37
330
80F9
100
AcDbEntity
  8
1
100
AcDbLine
 10
2748.832563439682
 20
1990.086641991409
 30
0.0
 11
2830.832563439682
 21
1990.086641991409
 31
0.0
  0
LINE
  5
7C38
330
80F9
100
AcDbEntity
  8
1
100
AcDbLine
 10
2748.832563439681
 20
1832.086641991408
 30
0.0
 11
2830.832563439681
 21
1832.086641991408
 31
0.0
  0
LINE
  5
7C39
330
80F9
100
AcDbEntity
  8
1
100
AcDbLine
 10
2620.832563439683
 20
2249.086641991409
 30
0.0
 11
2620.832563439681
 21
1761.086641991408
 31
0.0
  0
LINE
  5
7C3A
330
80F9
100
AcDbEntity
  8
1
100
AcDbLine
 10
2880.832563439684
 20
2249.086641991409
 30
0.0
 11
2880.832563439684
 21
2229.086641991409
 31
0.0
  0
LINE
  5
7C3B
330
80F9
100
AcDbEntity
  8
1
100
AcDbLine
 10
2620.832563439683
 20
2249.086641991409
 30
0.0
 11
2880.832563439684
 21
2249.086641991409
 31
0.0
  0
LINE
  5
7C3C
330
80F9
100
AcDbEntity
  8
1
100
AcDbLine
 10
2620.832563439681
 20
1761.086641991408
 30
0.0
 11
2880.83256343968
 21
1761.086641991408
 31
0.0
  0
LINE
  5
7C3D
330
80F9
100
AcDbEntity
  8
1
100
AcDbLine
 10
2880.83256343968
 20
1768.586641991409
 30
0.0
 11
2880.83256343968
 21
1761.086641991408
 31
0.0
  0
LINE
  5
7C3E
330
80F9
100
AcDbEntity
  8
1
100
AcDbLine
 10
1234.96772293055
 20
4484.312742094977
 30
0.0
 11
2034.96772293055
 21
4484.312742094977
 31
0.0
  0
LINE
  5
7C3F
330
80F9
100
AcDbEntity
  8
1
100
AcDbLine
 10
584.9677229305496
 20
3478.312742094976
 30
0.0
 11
2034.96772293055
 21
3478.312742094977
 31
0.0
  0
LINE
  5
7C40
330
80F9
100
AcDbEntity
  8
1
100
AcDbLine
 10
2034.96772293055
 20
4484.312742094977
 30
0.0
 11
2034.96772293055
 21
4431.312742094979
 31
0.0
  0
LINE
  5
7C41
330
80F9
100
AcDbEntity
  8
1
100
AcDbLine
 10
1234.96772293055
 20
4484.312742094977
 30
0.0
 11
1234.96772293055
 21
4431.312742094976
 31
0.0
  0
LINE
  5
7C42
330
80F9
100
AcDbEntity
  8
1
100
AcDbLine
 10
584.9677229305496
 20
4078.312742094976
 30
0.0
 11
584.9677229305496
 21
3478.312742094976
 31
0.0
  0
LINE
  5
7C43
330
80F9
100
AcDbEntity
  8
1
100
AcDbLine
 10
584.9677229305496
 20
4078.312742094976
 30
0.0
 11
1086.967722930548
 21
4078.312742094976
 31
0.0
  0
DIMENSION
  5
7C44
330
80F9
100
AcDbEntity
  8
3
100
AcDbDimension
  2
*D9
 10
2395.169679549599
 20
1594.086641991409
 30
0.0
 11
2355.169679549599
 21
1846.586641991408
 31
0.0
 12
1055.31472653631
 22
1530.989015541288
 32
0.0
 71
     5
 42
-1.0
  3
Standard
100
AcDbAlignedDimension
 13
2141.860696033544
 23
2099.086641991409
 33
0.0
 14
2034.96772293055
 24
1594.086641991409
 34
0.0
 50
90.0
100
AcDbRotatedDimension
1001
ACAD
1000
DSTYLE
1002
{
1070
    40
1040
20.0
1002
}
  0
POINT
  5
7C45
330
80F9
100
AcDbEntity
  8
1
100
AcDbPoint
 10
2034.96772293055
 20
1567.086641991409
 30
0.0
  0
POINT
  5
7C46
330
80F9
100
AcDbEntity
  8
1
100
AcDbPoint
 10
2034.96772293055
 20
1467.086641991409
 30
0.0
  0
POINT
  5
7C47
330
80F9
100
AcDbEntity
  8
1
100
AcDbPoint
 10
2034.96772293055
 20
1567.086641991409
 30
0.0
  0
DIMENSION
  5
7C48
330
80F9
100
AcDbEntity
  8
3
100
AcDbDimension
  2
*D10
 10
4054.369597010347
 20
1764.086641991409
 30
0.0
 11
4014.369597010347
 21
2099.086641991409
 31
0.0
 12
833.5363699564004
 22
1530.989015541288
 32
0.0
 71
     5
 42
-1.0
  3
Standard
100
AcDbAlignedDimension
 13
3806.332563439683
 23
2434.08664199141
 33
0.0
 14
3806.332563439683
 24
1764.086641991409
 34
0.0
 50
90.0
100
AcDbRotatedDimension
1001
ACAD
1000
DSTYLE
1002
{
1070
    40
1040
20.0
1070
     3
1000
\U+03C6<>
1002
}
  0
DIMENSION
  5
7C4B
330
80F9
100
AcDbEntity
  8
3
100
AcDbDimension
  2
*D11
 10
3800.832563439683
 20
2914.169340590402
 30
0.0
 11
3400.832563439682
 21
2954.169340590402
 31
0.0
 71
     5
 42
-1.0
  3
Standard
100
AcDbAlignedDimension
 13
3000.832563439682
 23
2777.086641991409
 33
0.0
 14
3800.832563439683
 24
2777.086641991409
 34
0.0
100
AcDbRotatedDimension
1001
ACAD
1000
DSTYLE
1002
{
1070
    40
1040
20.0
1002
}
  0
ARC
  5
7C4C
330
80F9
100
AcDbEntity
  8
1
100
AcDbCircle
 10
2908.332563439682
 20
2065.886641991408
 30
0.0
 40
10.0
100
AcDbArc
 50
90.0
 51
180.0
  0
ARC
  5
7C4D
330
80F9
100
AcDbEntity
  8
1
100
AcDbCircle
 10
2908.332563439682
 20
1965.886641991408
 30
0.0
 40
10.0
100
AcDbArc
 50
180.0
 51
270.0
  0
LINE
  5
7C4E
330
80F9
100
AcDbEntity
  8
1
100
AcDbLine
 10
3000.832563439682
 20
1955.886641991408
 30
0.0
 11
2908.332563439682
 21
1955.886641991408
 31
0.0
  0
LINE
  5
7C4F
330
80F9
100
AcDbEntity
  8
1
100
AcDbLine
 10
3000.832563439682
 20
2075.886641991409
 30
0.0
 11
2908.332563439682
 21
2075.886641991409
 31
0.0
  0
LINE
  5
7C50
330
80F9
100
AcDbEntity
  8
1
100
AcDbLine
 10
2898.332563439682
 20
2065.886641991408
 30
0.0
 11
2898.332563439682
 21
1965.886641991408
 31
0.0
  0
LINE
  5
7C51
330
80F9
100
AcDbEntity
  8
1
100
AcDbLine
 10
2830.832563439682
 20
2074.086641991409
 30
0.0
 11
2902.732563439682
 21
2074.086641991409
 31
0.0
  0
LINE
  5
7C53
330
80F9
100
AcDbEntity
  8
1
100
AcDbLine
 10
2034.96772293055
 20
1694.086641991409
 30
0.0
 11
2034.96772293055
 21
1594.086641991409
 31
0.0
  0
LINE
  5
7C54
330
80F9
100
AcDbEntity
  8
1
100
AcDbLine
 10
584.9677229305496
 20
1694.086641991409
 30
0.0
 11
2034.96772293055
 21
1694.086641991409
 31
0.0
1001
ACAD
1000
ASC_BOUNDS
1002
{
1070
    19
1005
0
1005
0
1002
}
  0
LINE
  5
7C55
330
80F9
100
AcDbEntity
  8
1
100
AcDbLine
 10
584.9677229305496
 20
1594.086641991409
 30
0.0
 11
2034.96772293055
 21
1594.086641991409
 31
0.0
  0
LINE
  5
7C56
330
80F9
100
AcDbEntity
  8
1
100
AcDbLine
 10
584.9677229305496
 20
1694.086641991409
 30
0.0
 11
584.9677229305496
 21
1594.086641991409
 31
0.0
  0
LINE
  5
7C57
330
80F9
100
AcDbEntity
  8
1
100
AcDbLine
 10
2847.832563439684
 20
1694.086641991409
 30
0.0
 11
3853.132563439683
 21
1694.086641991409
 31
0.0
1001
ACAD
1000
ASC_BOUNDS
1002
{
1070
    19
1002
}
  0
LINE
  5
7C58
330
80F9
100
AcDbEntity
  8
1
100
AcDbLine
 10
2847.832563439684
 20
1694.086641991409
 30
0.0
 11
2847.832563439684
 21
1594.086641991409
 31
0.0
  0
LINE
  5
7C59
330
80F9
100
AcDbEntity
  8
1
100
AcDbLine
 10
2847.832563439684
 20
1594.086641991409
 30
0.0
 11
3853.832563439683
 21
1594.086641991409
 31
0.0
  0
LINE
  5
7C5A
330
80F9
100
AcDbEntity
  8
1
100
AcDbLine
 10
3853.832563439683
 20
1694.086641991409
 30
0.0
 11
3853.832563439683
 21
1594.086641991409
 31
0.0
  0
ARC
  5
7C5B
330
80F9
100
AcDbEntity
  8
1
100
AcDbCircle
 10
1634.967722930548
 20
2099.086641991409
 30
0.0
 40
378.0
100
AcDbArc
 50
0.0
 51
4.248022666728545
  0
LINE
  5
7C5C
330
80F9
100
AcDbEntity
  8
1
100
AcDbLine
 10
1086.967722930548
 20
4431.312742094976
 30
0.0
 11
2094.96772293055
 21
4431.312742094979
 31
0.0
  0
LINE
  5
7C5D
330
80F9
100
AcDbEntity
  8
1
100
AcDbLine
 10
1086.967722930548
 20
3631.312742094977
 30
0.0
 11
2094.96772293055
 21
3631.312742094977
 31
0.0
  0
LINE
  5
7C5E
330
80F9
100
AcDbEntity
  8
1
100
AcDbLine
 10
2094.96772293055
 20
4471.312742094979
 30
0.0
 11
2094.96772293055
 21
3591.312742094977
 31
0.0
  0
LINE
  5
7C5F
330
80F9
100
AcDbEntity
  8
1
100
AcDbLine
 10
1086.967722930548
 20
4431.312742094976
 30
0.0
 11
1086.967722930548
 21
3631.312742094977
 31
0.0
  0
LINE
  5
7C60
330
80F9
100
AcDbEntity
  8
1
100
AcDbLine
 10
2054.967722930549
 20
4431.312742094979
 30
0.0
 11
2054.96772293055
 21
3631.312742094977
 31
0.0
  0
LINE
  5
7C61
330
80F9
100
AcDbEntity
  8
1
100
AcDbLine
 10
2034.96772293055
 20
3631.312742094977
 30
0.0
 11
2034.96772293055
 21
3478.312742094977
 31
0.0
  0
LINE
  5
7C62
330
80F9
100
AcDbEntity
  8
1
100
AcDbLine
 10
705.9677229305498
 20
3379.312742094977
 30
0.0
 11
863.9677229305497
 21
3379.312742094977
 31
0.0
  0
LINE
  5
7C63
330
80F9
100
AcDbEntity
  8
1
100
AcDbLine
 10
705.9677229305498
 20
3461.312742094978
 30
0.0
 11
863.9677229305497
 21
3461.312742094978
 31
0.0
  0
LINE
  5
7C64
330
80F9
100
AcDbEntity
  8
1
100
AcDbLine
 10
1723.867722930549
 20
3461.312742094977
 30
0.0
 11
1723.867722930549
 21
3379.312742094977
 31
0.0
  0
LINE
  5
7C65
330
80F9
100
AcDbEntity
  8
1
100
AcDbLine
 10
1546.067722930549
 20
3461.312742094977
 30
0.0
 11
1546.067722930549
 21
3379.312742094977
 31
0.0
  0
LINE
  5
7C66
330
80F9
100
AcDbEntity
  8
1
100
AcDbLine
 10
863.9677229305497
 20
3461.312742094977
 30
0.0
 11
863.9677229305497
 21
3379.312742094977
 31
0.0
  0
LINE
  5
7C67
330
80F9
100
AcDbEntity
  8
1
100
AcDbLine
 10
705.9677229305498
 20
3461.312742094977
 30
0.0
 11
705.9677229305498
 21
3379.312742094977
 31
0.0
  0
LINE
  5
7C68
330
80F9
100
AcDbEntity
  8
1
100
AcDbLine
 10
634.9677229305498
 20
3251.312742094977
 30
0.0
 11
1784.96772293055
 21
3251.312742094977
 31
0.0
  0
LINE
  5
7C69
330
80F9
100
AcDbEntity
  8
1
100
AcDbLine
 10
1784.96772293055
 20
3511.312742094977
 30
0.0
 11
1784.96772293055
 21
3251.312742094977
 31
0.0
  0
LINE
  5
7C6A
330
80F9
100
AcDbEntity
  8
1
100
AcDbLine
 10
634.9677229305498
 20
3511.312742094977
 30
0.0
 11
634.9677229305498
 21
3251.312742094977
 31
0.0
  0
LINE
  5
7C6B
330
80F9
100
AcDbEntity
  8
1
100
AcDbLine
 10
634.9677229305498
 20
3511.312742094977
 30
0.0
 11
1784.96772293055
 21
3511.312742094977
 31
0.0
  0
LINE
  5
7C6C
330
80F9
100
AcDbEntity
  8
1
100
AcDbLine
 10
1546.06772293055
 20
3461.312742094977
 30
0.0
 11
1723.867722930549
 21
3461.312742094977
 31
0.0
  0
LINE
  5
7C6D
330
80F9
100
AcDbEntity
  8
1
100
AcDbLine
 10
1546.067722930549
 20
3379.312742094977
 30
0.0
 11
1723.867722930549
 21
3379.312742094978
 31
0.0
  0
LINE
  5
7C6E
330
80F9
100
AcDbEntity
  8
2
100
AcDbLine
 10
784.9677229305498
 20
3939.903635261599
 30
0.0
 11
784.9677229305498
 21
3227.759458823282
 31
0.0
  0
LINE
  5
7C6F
330
80F9
100
AcDbEntity
  8
1
100
AcDbLine
 10
927.4677229305495
 20
3898.312442094976
 30
0.0
 11
642.4677229305498
 21
3898.312442094976
 31
0.0
  0
LINE
  5
7C70
330
80F9
100
AcDbEntity
  8
1
100
AcDbLine
 10
927.4677229305495
 20
3508.312742094978
 30
0.0
 11
642.4677229305498
 21
3508.312742094978
 31
0.0
  0
LINE
  5
7C71
330
80F9
100
AcDbEntity
  8
1
100
AcDbLine
 10
765.9677229305498
 20
3508.312742094978
 30
0.0
 11
765.9677229305498
 21
3461.312742094978
 31
0.0
  0
LINE
  5
7C72
330
80F9
100
AcDbEntity
  8
1
100
AcDbLine
 10
803.9677229305498
 20
3508.312742094978
 30
0.0
 11
803.9677229305498
 21
3461.312742094978
 31
0.0
  0
LINE
  5
7C73
330
80F9
100
AcDbEntity
  8
1
100
AcDbLine
 10
642.4677229305498
 20
3898.312442094976
 30
0.0
 11
642.4677229305498
 21
3508.312742094978
 31
0.0
  0
LINE
  5
7C74
330
80F9
100
AcDbEntity
  8
1
100
AcDbLine
 10
927.4677229305495
 20
3898.312442094976
 30
0.0
 11
927.4677229305495
 21
3508.312742094978
 31
0.0
  0
LINE
  5
7C75
330
80F9
100
AcDbEntity
  8
1
100
AcDbLine
 10
1659.96772293055
 20
3631.312742094977
 30
0.0
 11
1659.96772293055
 21
3461.312742094977
 31
0.0
  0
LINE
  5
7C76
330
80F9
100
AcDbEntity
  8
1
100
AcDbLine
 10
1609.96772293055
 20
3631.312742094977
 30
0.0
 11
1609.96772293055
 21
3461.312742094977
 31
0.0
  0
LINE
  5
7C77
330
80F9
100
AcDbEntity
  8
1
100
AcDbLine
 10
3800.832563439683
 20
2777.086641991409
 30
0.0
 11
3000.832563439682
 21
2127.086641991409
 31
0.0
  0
LINE
  5
7C78
330
80F9
100
AcDbEntity
  8
1
100
AcDbLine
 10
3000.832563439682
 20
2777.086641991409
 30
0.0
 11
3800.832563439683
 21
2127.086641991409
 31
0.0
  0
LINE
  5
7C79
330
80F9
100
AcDbEntity
  8
1
100
AcDbLine
 10
2830.832563439683
 20
2124.086641991409
 30
0.0
 11
3000.832563439682
 21
2124.086641991409
 31
0.0
  0
CIRCLE
  5
7C7A
330
80F9
100
AcDbEntity
  8
1
100
AcDbCircle
 10
1634.967722930548
 20
2099.086641991409
 30
0.0
 40
335.0
  0
CIRCLE
  5
7C7B
330
80F9
100
AcDbEntity
  8
1
100
AcDbCircle
 10
1634.967722930548
 20
2099.086641991409
 30
0.0
 40
375.0
  0
POINT
  5
7C7D
330
80F9
100
AcDbEntity
  8
1
100
AcDbPoint
 10
3910.832563439683
 20
2069.086641991408
 30
0.0
  0
POINT
  5
7C7E
330
80F9
100
AcDbEntity
  8
1
100
AcDbPoint
 10
2620.832563439683
 20
2249.086641991409
 30
0.0
  0
DIMENSION
  5
7C80
330
80F9
100
AcDbEntity
  8
3
100
AcDbDimension
  2
*D13
 10
2243.759693929157
 20
4484.312742094977
 30
0.0
 11
2203.759693929157
 21
3981.312742094977
 31
0.0
 12
1055.31472653631
 22
1319.897773564344
 32
0.0
 71
     5
 42
-1.0
  3
Standard
100
AcDbAlignedDimension
 13
2034.96772293055
 23
3478.312742094977
 33
0.0
 14
2034.96772293055
 24
4484.312742094977
 34
0.0
 50
90.0
100
AcDbRotatedDimension
1001
ACAD
1000
DSTYLE
1002
{
1070
    40
1040
20.0
1002
}
  0
DIMENSION
  5
7C81
330
80F9
100
AcDbEntity
  8
3
100
AcDbDimension
  2
*D14
 10
2034.96772293055
 20
4632.918032593383
 30
0.0
 11
1634.967722930548
 21
4672.918032593383
 31
0.0
 12
1055.31472653631
 22
1319.897773564344
 32
0.0
 71
     5
 42
-1.0
  3
Standard
100
AcDbAlignedDimension
 13
1234.96772293055
 23
4484.312742094977
 33
0.0
 14
2034.96772293055
 24
4484.312742094977
 34
0.0
100
AcDbRotatedDimension
1001
ACAD
1000
DSTYLE
1002
{
1070
    40
1040
20.0
1002
}
  0
DIMENSION
  5
7C82
330
80F9
100
AcDbEntity
  8
3
100
AcDbDimension
  2
*D15
 10
487.3445047575986
 20
3478.312742094976
 30
0.0
 11
447.3445047575987
 21
3778.312742094977
 31
0.0
 12
221.7783565799109
 22
0.0
 32
0.0
 71
     5
 42
-1.0
  3
Standard
100
AcDbAlignedDimension
 13
584.9677229305496
 23
4078.312742094976
 33
0.0
 14
584.9677229305496
 24
3478.312742094976
 34
0.0
 50
90.0
100
AcDbRotatedDimension
1001
ACAD
1000
DSTYLE
1002
{
1070
    40
1040
20.0
1002
}
  0
DIMENSION
  5
7C88
330
80F9
100
AcDbEntity
  8
3
100
AcDbDimension
  2
*D16
 10
2094.96772293055
 20
3048.589207099473
 30
0.0
 11
1339.967722930549
 21
3088.589207099473
 31
0.0
 12
221.7783565799109
 22
0.0
 32
0.0
 71
     5
 42
-1.0
  3
Standard
100
AcDbAlignedDimension
 13
584.9677229305496
 23
1734.086641991408
 33
0.0
 14
2094.96772293055
 24
2819.086641991409
 34
0.0
100
AcDbRotatedDimension
1001
ACAD
1000
DSTYLE
1002
{
1070
    40
1040
20.0
1002
}
  0
LINE
  5
7C89
330
80F9
100
AcDbEntity
  8
1
100
AcDbLine
 10
2877.832563439682
 20
1768.586641991409
 30
0.0
 11
2877.832563439682
 21
2053.586641991409
 31
0.0
  0
LINE
  5
7C8A
330
80F9
100
AcDbEntity
  8
1
100
AcDbLine
 10
2898.332563439682
 20
2053.586641991409
 30
0.0
 11
2877.832563439683
 21
2053.586641991409
 31
0.0
  0
LINE
  5
7C8B
330
80F9
100
AcDbEntity
  8
1
100
AcDbLine
 10
2877.832563439682
 20
1892.086641991409
 30
0.0
 11
2830.832563439683
 21
1892.086641991409
 31
0.0
  0
LINE
  5
7C8C
330
80F9
100
AcDbEntity
  8
1
100
AcDbLine
 10
2877.832563439682
 20
1930.086641991408
 30
0.0
 11
2830.832563439683
 21
1930.086641991408
 31
0.0
  0
LINE
  5
7C8D
330
80F9
100
AcDbEntity
  8
1
100
AcDbLine
 10
3000.832563439682
 20
1768.586641991409
 30
0.0
 11
2877.832563439682
 21
1768.586641991409
 31
0.0
  0
POINT
  5
7C8E
330
80F9
100
AcDbEntity
  8
1
100
AcDbPoint
 10
2034.96772293055
 20
1567.086641991409
 30
0.0
  0
POINT
  5
7C8F
330
80F9
100
AcDbEntity
  8
1
100
AcDbPoint
 10
2034.96772293055
 20
1594.086641991409
 30
0.0
  0
LINE
  5
7C91
330
80F9
100
AcDbEntity
  8
1
100
AcDbLine
 10
2830.832563439681
 20
1990.086641991409
 30
0.0
 11
2830.832563439681
 21
1832.086641991408
 31
0.0
  0
LINE
  5
7C92
330
80F9
100
AcDbEntity
  8
1
100
AcDbLine
 10
2748.832563439682
 20
1990.086641991409
 30
0.0
 11
2748.832563439681
 21
1832.086641991408
 31
0.0
  0
DIMENSION
  5
7C94
330
80F9
100
AcDbEntity
  8
3
100
AcDbDimension
  2
*D17
 10
2395.169679549599
 20
1467.086641991409
 30
0.0
 11
2355.169679549599
 21
1305.658070562837
 31
0.0
 12
1055.31472653631
 22
1548.989015541288
 32
0.0
 71
     5
 42
-1.0
  3
Standard
100
AcDbAlignedDimension
 13
2034.96772293055
 23
1567.086641991409
 33
0.0
 14
2034.96772293055
 24
1467.086641991409
 34
0.0
 50
90.0
100
AcDbRotatedDimension
1001
ACAD
1000
DSTYLE
1002
{
1070
    40
1040
20.0
1070
     6
1000
_DOT
1002
}
  0
LINE
  5
7F3D
330
80F9
100
AcDbEntity
  8
4
100
AcDbLine
 10
3700.0
 20
1000.0
 30
0.0
 11
3700.0
 21
600.0
 31
0.0
  0
LINE
  5
7F3E
330
80F9
100
AcDbEntity
  8
4
100
AcDbLine
 10
2300.0
 20
1000.0
 30
0.0
 11
2300.0
 21
600.0
 31
0.0
  0
LINE
  5
7F3F
330
80F9
100
AcDbEntity
  8
4
100
AcDbLine
 10
1300.0
 20
1000.0
 30
0.0
 11
1300.0
 21
600.0
 31
0.0
  0
LINE
  5
7F42
330
80F9
100
AcDbEntity
  8
4
100
AcDbLine
 10
1300.0
 20
600.0
 30
0.0
 11
3700.0
 21
600.0
 31
0.0
  0
LINE
  5
7F43
330
80F9
100
AcDbEntity
  8
4
100
AcDbLine
 10
1300.0
 20
800.0
 30
0.0
 11
3700.0
 21
800.0
 31
0.0
  0
TEXT
  5
7F44
330
80F9
100
AcDbEntity
  8
4
100
AcDbText
 10
1377.004161693803
 20
863.0860517332255
 30
0.0
 40
100.0
  1
機器名称
100
AcDbText
  0
TEXT
  5
7F45
330
80F9
100
AcDbEntity
  8
4
100
AcDbText
 10
1372.516212049595
 20
643.2903134640219
 30
0.0
 40
100.0
  1
機器型番
100
AcDbText
  0
TEXT
  5
7F46
330
80F9
100
AcDbEntity
  8
4
100
AcDbText
 10
2355.357490975329
 20
845.1435379151371
 30
0.0
 40
100.0
  1
ミツヤ多翼送風機
100
AcDbText
  0
TEXT
  5
7F47
330
80F9
100
AcDbEntity
  8
4
100
AcDbText
 10
2373.308991170961
 20
634.3191685598867
 30
0.0
 40
100.0
  1
MF#4-5
100
AcDbText
  0
TEXT
  5
7F49
330
80F9
100
AcDbEntity
  8
4
100
AcDbText
 10
1651.158422306791
 20
4766.857682665031
 30
0.0
 40
107.9999999999999
  1
床置防振ベット
100
AcDbText
  0
TEXT
  5
7F4A
330
80F9
100
AcDbEntity
  8
4
100
AcDbText
 10
632.3351866588928
 20
5067.761952398596
 30
0.0
 40
144.0
  1
遠心式両吸込両持多翼ファン
100
AcDbText
  0
LINE
  5
7F4B
330
80F9
100
AcDbEntity
  8
4
100
AcDbLine
 10
500.0
 20
4938.817508529609
 30
0.0
 11
3700.0
 21
4938.817508529609
 31
0.0
  0
LINE
  5
7F4C
330
80F9
100
AcDbEntity
  8
4
100
AcDbLine
 10
500.0
 20
5338.81750852961
 30
0.0
 11
3700.0
 21
5338.81750852961
 31
0.0
  0
LINE
  5
7F4D
330
80F9
100
AcDbEntity
  8
4
100
AcDbLine
 10
1300.0
 20
1000.0
 30
0.0
 11
3700.0
 21
1000.0
 31
0.0
  0
LINE
  5
7F4E
330
80F9
100
AcDbEntity
  8
4
100
AcDbLine
 10
500.0
 20
5338.81750852961
 30
0.0
 11
500.0
 21
4938.817508529609
 31
0.0
  0
TEXT
  5
7F4F
330
80F9
100
AcDbEntity
  8
4
100
AcDbText
 10
779.4407578213866
 20
4764.638955092687
 30
0.0
 40
107.9999999999999
  1
右回転右横向
100
AcDbText
  0
TEXT
  5
7F50
330
80F9
100
AcDbEntity
  8
4
100
AcDbText
 10
2937.939118498579
 20
5412.122162990619
 30
0.0
 40
112.0
  1
No.
100
AcDbText
  0
TEXT
  5
7F51
330
80F9
100
AcDbEntity
  8
4
100
AcDbText
 10
2622.592125200027
 20
4766.857682665031
 30
0.0
 40
107.9999999999999
  1
縮尺：1/20
100
AcDbText
  0
LINE
  5
7F52
330
80F9
100
AcDbEntity
  8
4
100
AcDbLine
 10
3700.0
 20
5338.81750852961
 30
0.0
 11
3700.0
 21
4938.817508529609
 31
0.0
  0
LINE
  5
7F53
330
80F9
100
AcDbEntity
  8
4
100
AcDbLine
 10
4200.0
 20
5900.0
 30
0.0
 11
4200.0
 21
5900.0
 31
0.0
  0
LINE
  5
7F54
330
80F9
100
AcDbEntity
  8
4
100
AcDbLine
 10
2881.234844719729
 20
5362.527166250802
 30
0.0
 11
2881.234844719729
 21
5573.304523099504
 31
0.0
  0
LINE
  5
7F55
330
80F9
100
AcDbEntity
  8
4
100
AcDbLine
 10
2881.234844719729
 20
5573.304523099504
 30
0.0
 11
3700.0
 21
5573.304523099504
 31
0.0
  0
LINE
  5
7F56
330
80F9
100
AcDbEntity
  8
4
100
AcDbLine
 10
3700.0
 20
5573.304523099504
 30
0.0
 11
3700.0
 21
5362.527166250802
 31
0.0
  0
LINE
  5
7F57
330
80F9
100
AcDbEntity
  8
4
100
AcDbLine
 10
3700.0
 20
5362.527166250802
 30
0.0
 11
2881.234844719729
 21
5362.527166250802
 31
0.0
  0
LINE
  5
7F58
330
80F9
100
AcDbEntity
  8
4
100
AcDbLine
 10
0.0
 20
0.0
 30
0.0
 11
0.0
 21
5900.0
 31
0.0
  0
LINE
  5
7F59
330
80F9
100
AcDbEntity
  8
4
100
AcDbLine
 10
0.0
 20
5900.0
 30
0.0
 11
4200.0
 21
5900.0
 31
0.0
  0
LINE
  5
7F5A
330
80F9
100
AcDbEntity
  8
4
100
AcDbLine
 10
4200.0
 20
5900.0
 30
0.0
 11
4200.0
 21
0.0
 31
0.0
  0
LINE
  5
7F5B
330
80F9
100
AcDbEntity
  8
4
100
AcDbLine
 10
4200.0
 20
0.0
 30
0.0
 11
0.0
 21
0.0
 31
0.0
  0
DIMENSION
  5
7FD3
330
80F9
100
AcDbEntity
  8
3
100
AcDbDimension
  2
*D21
 10
1634.96772293055
 20
1326.064579236374
 30
0.0
 11
1109.96772293055
 21
1376.064579236373
 31
0.0
 71
     5
 42
-1.0
  3
Standard
100
AcDbAlignedDimension
 13
584.9677229305496
 23
1467.086641991409
 33
0.0
 14
1634.96772293055
 24
1467.086641991409
 34
0.0
100
AcDbRotatedDimension
1001
ACAD
1000
DSTYLE
1002
{
1070
   172
1070
     1
1070
    40
1040
20.0
1070
    42
1040
1.0
1070
   271
1070
     0
1070
   143
1040
0.039
1002
}
  0
DIMENSION
  5
7FE0
330
80F9
100
AcDbEntity
  8
3
100
AcDbDimension
  2
*D22
 10
2034.96772293055
 20
1326.064579236374
 30
0.0
 11
1834.967722930549
 21
1376.064579236373
 31
0.0
 71
     5
 42
-1.0
  3
Standard
100
AcDbAlignedDimension
 13
1634.96772293055
 23
1467.086641991409
 33
0.0
 14
2034.96772293055
 24
1467.086641991409
 34
0.0
100
AcDbRotatedDimension
1001
ACAD
1000
DSTYLE
1002
{
1070
   172
1070
     1
1070
    40
1040
20.0
1070
    42
1040
1.0
1070
   271
1070
     0
1070
   143
1040
0.039
1002
}
  0
DIMENSION
  5
7FED
330
80F9
100
AcDbEntity
  8
3
100
AcDbDimension
  2
*D23
 10
3400.832563439684
 20
1326.064579236374
 30
0.0
 11
3124.332563439683
 21
1376.064579236373
 31
0.0
 71
     5
 42
-1.0
  3
Standard
100
AcDbAlignedDimension
 13
2847.832563439684
 23
1467.086641991409
 33
0.0
 14
3400.832563439684
 24
1467.086641991409
 34
0.0
100
AcDbRotatedDimension
1001
ACAD
1000
DSTYLE
1002
{
1070
   172
1070
     1
1070
    40
1040
20.0
1070
    42
1040
1.0
1070
   271
1070
     0
1070
   143
1040
0.039
1002
}
  0
DIMENSION
  5
7FFA
330
80F9
100
AcDbEntity
  8
3
100
AcDbDimension
  2
*D24
 10
3853.832563439683
 20
1326.064579236374
 30
0.0
 11
3627.332563439683
 21
1376.064579236373
 31
0.0
 71
     5
 42
-1.0
  3
Standard
100
AcDbAlignedDimension
 13
3400.832563439684
 23
1467.086641991409
 33
0.0
 14
3853.832563439683
 24
1467.086641991409
 34
0.0
100
AcDbRotatedDimension
1001
ACAD
1000
DSTYLE
1002
{
1070
   172
1070
     1
1070
    40
1040
20.0
1070
    42
1040
1.0
1070
   271
1070
     0
1070
   143
1040
0.039
1002
}
  0
DIMENSION
  5
8009
330
80F9
100
AcDbEntity
  8
3
100
AcDbDimension
  2
*D26
 10
2395.410070462818
 20
1594.086641991409
 30
0.0
 11
2491.124356177104
 21
1580.586641991408
 31
0.0
 71
     5
 42
-1.0
  3
Standard
100
AcDbAlignedDimension
 13
2034.96772293055
 23
1567.086641991409
 33
0.0
 14
2034.96772293055
 24
1594.086641991409
 34
0.0
 50
90.0
100
AcDbRotatedDimension
1001
ACAD
1000
DSTYLE
1002
{
1070
   172
1070
     1
1070
    76
1070
     1
1070
    75
1070
     1
1070
    40
1040
20.0
1070
     3
1000
(<>)
1070
    42
1040
1.0
1070
   271
1070
     0
1070
     7
1000
_NONE
1070
     6
1000
_NONE
1070
   143
1040
0.039
1002
}
  0
DIMENSION
  5
8016
330
80F9
100
AcDbEntity
  8
3
100
AcDbDimension
  2
*D27
 10
2560.818725316261
 20
1467.086641991409
 30
0.0
 11
2495.104439601976
 21
2122.086641991409
 31
0.0
 71
     5
 42
-1.0
  3
Standard
100
AcDbAlignedDimension
 13
2094.96772293055
 23
2777.086641991409
 33
0.0
 14
2034.96772293055
 24
1467.086641991409
 34
0.0
 50
90.0
100
AcDbRotatedDimension
1001
ACAD
1000
DSTYLE
1002
{
1070
   172
1070
     1
1070
    40
1040
20.0
1070
     3
1000
(<>)
1070
    42
1040
1.0
1070
   271
1070
     0
1070
   143
1040
0.039
1002
}
  0
DIMENSION
  5
8142
330
80F9
100
AcDbEntity
  8
3
100
AcDbDimension
  2
*D28
 10
3400.832563439682
 20
3036.174687287499
 30
0.0
 11
3010.832563439683
 21
3101.888973001785
 31
0.0
 70
    32
 71
     5
 42
779.999999999999
  3
IGA
100
AcDbAlignedDimension
 13
2620.832563439683
 23
2249.086641991409
 33
0.0
 14
3400.832563439682
 24
2984.169340590403
 34
0.0
100
AcDbRotatedDimension
1001
ACAD
1000
DSTYLE
1002
{
1070
     3
1000
(<>)
1070
    40
1040
20.0
1070
    42
1040
1.0
1070
   143
1040
0.039
1070
   172
1070
     1
1070
   271
1070
     4
1070
   272
1070
     4
1070
   279
1070
     0
1070
   284
1070
     0
1070
   285
1070
     0
1070
   286
1070
     0
1070
   341
1005
810D
1070
   343
1005
810D
1070
   344
1005
810D
1002
}
  0
DIMENSION
  5
814F
330
80F9
100
AcDbEntity
  8
3
100
AcDbDimension
  2
*D29
 10
3910.832563439683
 20
3036.174687287499
 30
0.0
 11
3655.832563439683
 21
3101.888973001785
 31
0.0
 70
    32
 71
     5
 42
510.0000000000004
  3
IGA
100
AcDbAlignedDimension
 13
3400.832563439682
 23
2984.169340590403
 33
0.0
 14
3910.832563439683
 24
2069.086641991408
 34
0.0
100
AcDbRotatedDimension
1001
ACAD
1000
DSTYLE
1002
{
1070
     3
1000
(<>)
1070
    40
1040
20.0
1070
    42
1040
1.0
1070
   143
1040
0.039
1070
   172
1070
     1
1070
   271
1070
     4
1070
   272
1070
     4
1070
   279
1070
     1
1070
   284
1070
     0
1070
   285
1070
     0
1070
   286
1070
     0
1070
   341
1005
810D
1070
   343
1005
810D
1070
   344
1005
810D
1002
}
  0
DIMENSION
  5
8183
330
80F9
100
AcDbEntity
  8
3
100
AcDbDimension
  2
*D30
 10
2034.96772293055
 20
3152.16661092044
 30
0.0
 11
1309.96772293055
 21
3202.16661092044
 31
0.0
 70
    32
 71
     5
 42
1450.0
  3
IGA
100
AcDbAlignedDimension
 13
584.9677229305496
 23
3478.312742094976
 33
0.0
 14
2034.96772293055
 24
3478.312742094977
 34
0.0
100
AcDbRotatedDimension
1001
ACAD
1000
DSTYLE
1002
{
1070
    40
1040
20.0
1070
    42
1040
1.0
1070
   143
1040
0.039
1070
   172
1070
     1
1070
   271
1070
     4
1070
   272
1070
     4
1070
   279
1070
     0
1070
   284
1070
     0
1070
   285
1070
     0
1070
   286
1070
     0
1070
   341
1005
810D
1070
   343
1005
810D
1070
   344
1005
810D
1002
}
  0
DIMENSION
  5
8190
330
80F9
100
AcDbEntity
  8
3
100
AcDbDimension
  2
*D31
 10
1086.967722930548
 20
2917.308396717436
 30
0.0
 11
1360.967722930549
 21
2967.308396717435
 31
0.0
 70
    32
 71
     5
 42
548.0
  3
IGA
100
AcDbAlignedDimension
 13
1634.967722930548
 23
2818.719477643282
 33
0.0
 14
1086.967722930548
 24
2146.086641991409
 34
0.0
100
AcDbRotatedDimension
1001
ACAD
1000
DSTYLE
1002
{
1070
    40
1040
20.0
1070
    42
1040
1.0
1070
   143
1040
0.039
1070
   172
1070
     1
1070
   271
1070
     4
1070
   272
1070
     4
1070
   279
1070
     0
1070
   284
1070
     0
1070
   285
1070
     0
1070
   286
1070
     0
1070
   341
1005
810D
1070
   343
1005
810D
1070
   344
1005
810D
1002
}
  0
DIMENSION
  5
81A6
330
80F9
100
AcDbEntity
  8
3
100
AcDbDimension
  2
*D32
 10
1234.96772293055
 20
4632.918032593383
 30
0.0
 11
909.9677229305497
 21
4682.918032593383
 31
0.0
 70
    32
 71
     5
 42
650.0000000000002
  3
IGA
100
AcDbAlignedDimension
 13
584.9677229305496
 23
4078.312742094976
 33
0.0
 14
1234.96772293055
 24
4484.312742094977
 34
0.0
100
AcDbRotatedDimension
1001
ACAD
1000
DSTYLE
1002
{
1070
    40
1040
20.0
1070
    42
1040
1.0
1070
   143
1040
0.039
1070
   172
1070
     1
1070
   271
1070
     4
1070
   272
1070
     4
1070
   279
1070
     0
1070
   284
1070
     0
1070
   285
1070
     0
1070
   286
1070
     0
1070
   341
1005
810D
1070
   343
1005
810D
1070
   344
1005
810D
1002
}
  0
ENDSEC
  0
SECTION
  2
OBJECTS
  0
DICTIONARY
  5
8096
330
0
100
AcDbDictionary
281
     1
  3
ACAD_CIP_PREVIOUS_PRODUCT_INFO
350
8141
  3
ACAD_COLOR
350
80EC
  3
ACAD_DETAILVIEWSTYLE
350
80F3
  3
ACAD_GROUP
350
8097
  3
ACAD_LAYOUT
350
80EB
  3
ACAD_MATERIAL
350
809A
  3
ACAD_MLEADERSTYLE
350
80EF
  3
ACAD_MLINESTYLE
350
80E8
  3
ACAD_PLOTSETTINGS
350
80EA
  3
ACAD_PLOTSTYLENAME
350
8098
  3
ACAD_SCALELIST
350
80CC
  3
ACAD_SECTIONVIEWSTYLE
350
80F1
  3
ACAD_TABLESTYLE
350
80ED
  3
ACAD_VISUALSTYLE
350
80B3
  3
ACDB_RECOMPOSE_DATA
350
81D3
  3
AcDbVariableDictionary
350
81C6
  3
DWGPROPS
350
81D4
  0
DICTIONARY
  5
81BC
330
80DE
100
AcDbDictionary
280
     1
281
     1
  3
ADSK_XREC_LAYER_RECONCILED
360
81BD
  0
DICTIONARY
  5
81BE
330
80FD
100
AcDbDictionary
280
     1
281
     1
  3
ADSK_XREC_LAYER_RECONCILED
360
81BF
  0
DICTIONARY
  5
81C0
330
8100
100
AcDbDictionary
280
     1
281
     1
  3
ADSK_XREC_LAYER_RECONCILED
360
81C1
  0
DICTIONARY
  5
81C2
330
8101
100
AcDbDictionary
280
     1
281
     1
  3
ADSK_XREC_LAYER_RECONCILED
360
81C3
  0
DICTIONARY
  5
81C4
330
8102
100
AcDbDictionary
280
     1
281
     1
  3
ADSK_XREC_LAYER_RECONCILED
360
81C5
  0
XRECORD
  5
8141
102
{ACAD_REACTORS
330
8096
102
}
330
8096
100
AcDbXrecord
280
     1
300
ACDLT
300
2015
300
INVLTS_F_S
  0
DICTIONARY
  5
80EC
102
{ACAD_REACTORS
330
8096
102
}
330
8096
100
AcDbDictionary
281
     1
  0
DICTIONARY
  5
80F3
102
{ACAD_REACTORS
330
8096
102
}
330
8096
100
AcDbDictionary
281
     1
  3
Imperial24
350
80F4
  0
DICTIONARY
  5
8097
102
{ACAD_REACTORS
330
8096
102
}
330
8096
100
AcDbDictionary
281
     1
  0
DICTIONARY
  5
80EB
102
{ACAD_REACTORS
330
8096
102
}
330
8096
100
AcDbDictionary
281
     1
  3
Model
350
80FC
  3
レイアウト1
350
80F8
  0
DICTIONARY
  5
809A
102
{ACAD_REACTORS
330
8096
102
}
330
8096
100
AcDbDictionary
281
     1
  3
ByBlock
350
80A3
  3
ByLayer
350
809B
  3
Global
350
80AB
  0
DICTIONARY
  5
80EF
102
{ACAD_REACTORS
330
8096
102
}
330
8096
100
AcDbDictionary
281
     1
  3
Standard
350
80F0
  0
DICTIONARY
  5
80E8
102
{ACAD_REACTORS
330
8096
102
}
330
8096
100
AcDbDictionary
281
     1
  3
Standard
350
80E9
  0
DICTIONARY
  5
80EA
102
{ACAD_REACTORS
330
8096
102
}
330
8096
100
AcDbDictionary
281
     1
  0
ACDBDICTIONARYWDFLT
  5
8098
102
{ACAD_REACTORS
330
8096
102
}
330
8096
100
AcDbDictionary
281
     1
  3
Normal
350
8099
100
AcDbDictionaryWithDefault
340
8099
  0
DICTIONARY
  5
80CC
102
{ACAD_REACTORS
330
8096
102
}
330
8096
100
AcDbDictionary
281
     1
  3
A0
350
80CD
  3
A1
350
80CE
  3
A2
350
80CF
  3
A3
350
80D0
  3
A4
350
80D1
  3
A5
350
80D2
  3
A6
350
80D3
  3
A7
350
80D4
  3
A8
350
80D5
  3
A9
350
80D6
  3
B0
350
80D7
  3
B1
350
80D8
  3
B2
350
80D9
  3
B3
350
80DA
  3
B4
350
80DB
  3
B5
350
80DC
  3
B6
350
80DD
  0
DICTIONARY
  5
80F1
102
{ACAD_REACTORS
330
8096
102
}
330
8096
100
AcDbDictionary
281
     1
  3
Imperial24
350
80F2
  0
DICTIONARY
  5
80ED
102
{ACAD_REACTORS
330
8096
102
}
330
8096
100
AcDbDictionary
281
     1
  3
Standard
350
80EE
  0
DICTIONARY
  5
80B3
102
{ACAD_REACTORS
330
8096
102
}
330
8096
100
AcDbDictionary
281
     1
  3
2dWireframe
350
80B9
  3
Basic
350
80B8
  3
Brighten
350
80BF
  3
ColorChange
350
80C3
  3
Conceptual
350
80BC
  3
Dim
350
80BE
  3
EdgeColorOff
350
80CB
  3
Facepattern
350
80C2
  3
Flat
350
80B4
  3
FlatWithEdges
350
80B5
  3
Gouraud
350
80B6
  3
GouraudWithEdges
350
80B7
  3
Hidden
350
80BB
  3
JitterOff
350
80C9
  3
Linepattern
350
80C1
  3
OverhangOff
350
80CA
  3
Realistic
350
80BD
  3
Shaded
350
80C8
  3
Shaded with edges
350
80C7
  3
Shades of Gray
350
80C4
  3
Sketchy
350
80C5
  3
Thicken
350
80C0
  3
Wireframe
350
80BA
  3
X-Ray
350
80C6
  0
XRECORD
  5
81D3
102
{ACAD_REACTORS
330
8096
102
}
330
8096
100
AcDbXrecord
280
     1
 90
        1
330
80EE
  0
DICTIONARY
  5
81C6
102
{ACAD_REACTORS
330
8096
102
}
330
8096
100
AcDbDictionary
281
     1
  3
CANNOSCALE
350
81CB
  3
CMLEADERSTYLE
350
81C8
  3
CTABLESTYLE
350
81C7
  3
CVIEWDETAILSTYLE
350
81C9
  3
CVIEWSECTIONSTYLE
350
81CA
  3
DIMASSOC
350
81CE
  3
INDEXCTL
350
81CD
  3
SORTENTS
350
81CC
  3
XCLIPFRAME
350
81CF
  0
XRECORD
  5
81D4
102
{ACAD_REACTORS
330
8096
102
}
330
8096
100
AcDbXrecord
280
     1
  1
DWGPROPS COOKIE
  2

  3

  4

  6

  7

  8
yasukiyo.ogawa
  9

300
=
301
=
302
=
303
=
304
=
305
=
306
=
307
=
308
=
309
=
 40
0.0879084606481482
 41
2451387.398891204
 42
2460262.640831238
  1

 90
        0
  0
XRECORD
  5
81BD
102
{ACAD_REACTORS
330
81BC
102
}
330
81BC
100
AcDbXrecord
280
     1
290
     1
  0
XRECORD
  5
81BF
102
{ACAD_REACTORS
330
81BE
102
}
330
81BE
100
AcDbXrecord
280
     1
290
     1
  0
XRECORD
  5
81C1
102
{ACAD_REACTORS
330
81C0
102
}
330
81C0
100
AcDbXrecord
280
     1
290
     1
  0
XRECORD
  5
81C3
102
{ACAD_REACTORS
330
81C2
102
}
330
81C2
100
AcDbXrecord
280
     1
290
     1
  0
XRECORD
  5
81C5
102
{ACAD_REACTORS
330
81C4
102
}
330
81C4
100
AcDbXrecord
280
     1
290
     1
  0
ACDBDETAILVIEWSTYLE
  5
80F4
102
{ACAD_XDICTIONARY
360
820C
102
}
102
{ACAD_REACTORS
330
80F3
102
}
330
80F3
100
AcDbModelDocViewStyle
 70
     0
  3
Imperial24
290
     0
100
AcDbDetailViewStyle
 70
     0
 71
     0
 90
        3
 71
     1
340
80DF
 40
0.24
340
0
 40
0.24
300

 40
0.36
280
     3
 71
     2
340
80E6
 90
       25
 71
     3
340
80DF
 40
0.24
 90
        1
 40
0.75
 90
        1
300
%<\AcVar ViewType \f "%tc1">% %<\AcVar ViewDetailId>%\PSCALE %<\AcVar ViewScale \f "%sn">%
 71
     4
340
80E6
 90
       25
340
80E6
 90
       25
280
     0
  0
LAYOUT
  5
80FC
102
{ACAD_XDICTIONARY
360
8210
102
}
102
{ACAD_REACTORS
330
80EB
102
}
330
80EB
100
AcDbPlotSettings
  1

  2
RICOH imagio MP W3600 RPCS
  4

  6

 40
0.0
 41
0.0
 42
0.0
 43
0.0
 44
0.0
 45
0.0
 46
0.0
 47
0.0
 48
0.0
 49
0.0
140
0.0
141
0.0
142
1.0
143
1.0
 70
  1712
 72
     0
 73
     0
 74
     0
  7

 75
     0
147
1.0
148
0.0
149
0.0
100
AcDbLayout
  1
Model
 70
     1
 71
     0
 10
0.0
 20
0.0
 11
12.0
 21
9.0
 12
0.0
 22
0.0
 32
0.0
 14
0.0
 24
0.0
 34
0.0
 15
0.0
 25
0.0
 35
0.0
146
0.0
 13
0.0
 23
0.0
 33
0.0
 16
1.0
 26
0.0
 36
0.0
 17
0.0
 27
1.0
 37
0.0
 76
     0
330
80F9
331
80FE
  0
LAYOUT
  5
80F8
102
{ACAD_XDICTIONARY
360
820E
102
}
102
{ACAD_REACTORS
330
80EB
102
}
330
80EB
100
AcDbPlotSettings
  1

  2
RICOH imagio MP W3600 RPCS
  4

  6

 40
0.0
 41
0.0
 42
0.0
 43
0.0
 44
0.0
 45
0.0
 46
0.0
 47
0.0
 48
0.0
 49
0.0
140
0.0
141
0.0
142
1.0
143
1.0
 70
   688
 72
     0
 73
     0
 74
     5
  7

 75
    16
147
1.0
148
0.0
149
0.0
100
AcDbLayout
  1
レイアウト1
 70
     1
 71
     1
 10
0.0
 20
0.0
 11
12.0
 21
9.0
 12
0.0
 22
0.0
 32
0.0
 14
1.000000000000000E+20
 24
1.000000000000000E+20
 34
1.000000000000000E+20
 15
-1.000000000000000E+20
 25
-1.000000000000000E+20
 35
-1.000000000000000E+20
146
0.0
 13
0.0
 23
0.0
 33
0.0
 16
1.0
 26
0.0
 36
0.0
 17
0.0
 27
1.0
 37
0.0
 76
     0
330
80F5
  0
MATERIAL
  5
80A3
102
{ACAD_XDICTIONARY
360
80A4
102
}
102
{ACAD_REACTORS
330
809A
102
}
330
809A
100
AcDbMaterial
  1
ByBlock
 72
     0
 43
0.0208333333333333
 43
0.0
 43
0.0
 43
0.0
 43
0.0
 43
0.0208333333333333
 43
0.0
 43
0.0
 43
0.0
 43
0.0
 43
1.0
 43
0.0
 43
0.0
 43
0.0
 43
0.0
 43
1.0
 77
     0
 47
0.0208333333333333
 47
0.0
 47
0.0
 47
0.0
 47
0.0
 47
0.0208333333333333
 47
0.0
 47
0.0
 47
0.0
 47
0.0
 47
1.0
 47
0.0
 47
0.0
 47
0.0
 47
0.0
 47
1.0
171
     0
 49
0.0208333333333333
 49
0.0
 49
0.0
 49
0.0
 49
0.0
 49
0.0208333333333333
 49
0.0
 49
0.0
 49
0.0
 49
0.0
 49
1.0
 49
0.0
 49
0.0
 49
0.0
 49
0.0
 49
1.0
175
     0
142
0.0208333333333333
142
0.0
142
0.0
142
0.0
142
0.0
142
0.0208333333333333
142
0.0
142
0.0
142
0.0
142
0.0
142
1.0
142
0.0
142
0.0
142
0.0
142
0.0
142
1.0
179
     0
144
0.0208333333333333
144
0.0
144
0.0
144
0.0
144
0.0
144
0.0208333333333333
144
0.0
144
0.0
144
0.0
144
0.0
144
1.0
144
0.0
144
0.0
144
0.0
144
0.0
144
1.0
147
0.0208333333333333
147
0.0
147
0.0
147
0.0
147
0.0
147
0.0208333333333333
147
0.0
147
0.0
147
0.0
147
0.0
147
1.0
147
0.0
147
0.0
147
0.0
147
0.0
147
1.0
  0
MATERIAL
  5
809B
102
{ACAD_XDICTIONARY
360
809C
102
}
102
{ACAD_REACTORS
330
809A
102
}
330
809A
100
AcDbMaterial
  1
ByLayer
 72
     0
 43
0.0208333333333333
 43
0.0
 43
0.0
 43
0.0
 43
0.0
 43
0.0208333333333333
 43
0.0
 43
0.0
 43
0.0
 43
0.0
 43
1.0
 43
0.0
 43
0.0
 43
0.0
 43
0.0
 43
1.0
 77
     0
 47
0.0208333333333333
 47
0.0
 47
0.0
 47
0.0
 47
0.0
 47
0.0208333333333333
 47
0.0
 47
0.0
 47
0.0
 47
0.0
 47
1.0
 47
0.0
 47
0.0
 47
0.0
 47
0.0
 47
1.0
171
     0
 49
0.0208333333333333
 49
0.0
 49
0.0
 49
0.0
 49
0.0
 49
0.0208333333333333
 49
0.0
 49
0.0
 49
0.0
 49
0.0
 49
1.0
 49
0.0
 49
0.0
 49
0.0
 49
0.0
 49
1.0
175
     0
142
0.0208333333333333
142
0.0
142
0.0
142
0.0
142
0.0
142
0.0208333333333333
142
0.0
142
0.0
142
0.0
142
0.0
142
1.0
142
0.0
142
0.0
142
0.0
142
0.0
142
1.0
179
     0
144
0.0208333333333333
144
0.0
144
0.0
144
0.0
144
0.0
144
0.0208333333333333
144
0.0
144
0.0
144
0.0
144
0.0
144
1.0
144
0.0
144
0.0
144
0.0
144
0.0
144
1.0
147
0.0208333333333333
147
0.0
147
0.0
147
0.0
147
0.0
147
0.0208333333333333
147
0.0
147
0.0
147
0.0
147
0.0
147
1.0
147
0.0
147
0.0
147
0.0
147
0.0
147
1.0
  0
MATERIAL
  5
80AB
102
{ACAD_XDICTIONARY
360
80AC
102
}
102
{ACAD_REACTORS
330
809A
102
}
330
809A
100
AcDbMaterial
  1
Global
 72
     0
 43
0.0208333333333333
 43
0.0
 43
0.0
 43
0.0
 43
0.0
 43
0.0208333333333333
 43
0.0
 43
0.0
 43
0.0
 43
0.0
 43
1.0
 43
0.0
 43
0.0
 43
0.0
 43
0.0
 43
1.0
 77
     0
 47
0.0208333333333333
 47
0.0
 47
0.0
 47
0.0
 47
0.0
 47
0.0208333333333333
 47
0.0
 47
0.0
 47
0.0
 47
0.0
 47
1.0
 47
0.0
 47
0.0
 47
0.0
 47
0.0
 47
1.0
171
     0
 49
0.0208333333333333
 49
0.0
 49
0.0
 49
0.0
 49
0.0
 49
0.0208333333333333
 49
0.0
 49
0.0
 49
0.0
 49
0.0
 49
1.0
 49
0.0
 49
0.0
 49
0.0
 49
0.0
 49
1.0
175
     0
142
0.0208333333333333
142
0.0
142
0.0
142
0.0
142
0.0
142
0.0208333333333333
142
0.0
142
0.0
142
0.0
142
0.0
142
1.0
142
0.0
142
0.0
142
0.0
142
0.0
142
1.0
179
     0
144
0.0208333333333333
144
0.0
144
0.0
144
0.0
144
0.0
144
0.0208333333333333
144
0.0
144
0.0
144
0.0
144
0.0
144
1.0
144
0.0
144
0.0
144
0.0
144
0.0
144
1.0
147
0.0208333333333333
147
0.0
147
0.0
147
0.0
147
0.0
147
0.0208333333333333
147
0.0
147
0.0
147
0.0
147
0.0
147
1.0
147
0.0
147
0.0
147
0.0
147
0.0
147
1.0
  0
MLEADERSTYLE
  5
80F0
102
{ACAD_REACTORS
330
80EF
102
}
330
80EF
100
AcDbMLeaderStyle
170
     2
171
     1
172
     0
 90
        2
 40
0.0
 41
0.0
173
     1
 91
-1056964608
340
80E4
 92
       -2
290
     1
 42
0.09
291
     1
 43
0.36
  3
Standard
 44
0.18
300

342
80DF
174
     1
178
     6
175
     1
176
     0
 93
-1056964608
 45
0.18
292
     0
297
     0
 46
0.18
 94
-1056964608
 47
1.0
 49
1.0
140
1.0
293
     1
141
0.0
294
     1
177
     0
142
1.0
295
     0
296
     0
143
0.125
1001
ACAD_MLEADERVER
1070
     2
  0
MLINESTYLE
  5
80E9
102
{ACAD_REACTORS
330
80E8
102
}
330
80E8
100
AcDbMlineStyle
  2
STANDARD
 70
     0
  3

 62
   256
 51
90.0
 52
90.0
 71
     2
 49
0.5
 62
   256
  6
BYLAYER
 49
-0.5
 62
   256
  6
BYLAYER
  0
ACDBPLACEHOLDER
  5
8099
102
{ACAD_REACTORS
330
8098
102
}
330
8098
  0
SCALE
  5
80CD
102
{ACAD_REACTORS
330
80CC
102
}
330
80CC
100
AcDbScale
 70
     0
300
1:1
140
1.0
141
1.0
290
     1
  0
SCALE
  5
80CE
102
{ACAD_REACTORS
330
80CC
102
}
330
80CC
100
AcDbScale
 70
     0
300
1/128" = 1'-0"
140
0.0078125
141
12.0
290
     0
  0
SCALE
  5
80CF
102
{ACAD_REACTORS
330
80CC
102
}
330
80CC
100
AcDbScale
 70
     0
300
1/64" = 1'-0"
140
0.015625
141
12.0
290
     0
  0
SCALE
  5
80D0
102
{ACAD_REACTORS
330
80CC
102
}
330
80CC
100
AcDbScale
 70
     0
300
1/32" = 1'-0"
140
0.03125
141
12.0
290
     0
  0
SCALE
  5
80D1
102
{ACAD_REACTORS
330
80CC
102
}
330
80CC
100
AcDbScale
 70
     0
300
1/16" = 1'-0"
140
0.0625
141
12.0
290
     0
  0
SCALE
  5
80D2
102
{ACAD_REACTORS
330
80CC
102
}
330
80CC
100
AcDbScale
 70
     0
300
3/32" = 1'-0"
140
0.09375
141
12.0
290
     0
  0
SCALE
  5
80D3
102
{ACAD_REACTORS
330
80CC
102
}
330
80CC
100
AcDbScale
 70
     0
300
1/8" = 1'-0"
140
0.125
141
12.0
290
     0
  0
SCALE
  5
80D4
102
{ACAD_REACTORS
330
80CC
102
}
330
80CC
100
AcDbScale
 70
     0
300
3/16" = 1'-0"
140
0.1875
141
12.0
290
     0
  0
SCALE
  5
80D5
102
{ACAD_REACTORS
330
80CC
102
}
330
80CC
100
AcDbScale
 70
     0
300
1/4" = 1'-0"
140
0.25
141
12.0
290
     0
  0
SCALE
  5
80D6
102
{ACAD_REACTORS
330
80CC
102
}
330
80CC
100
AcDbScale
 70
     0
300
3/8" = 1'-0"
140
0.375
141
12.0
290
     0
  0
SCALE
  5
80D7
102
{ACAD_REACTORS
330
80CC
102
}
330
80CC
100
AcDbScale
 70
     0
300
1/2" = 1'-0"
140
0.5
141
12.0
290
     0
  0
SCALE
  5
80D8
102
{ACAD_REACTORS
330
80CC
102
}
330
80CC
100
AcDbScale
 70
     0
300
3/4" = 1'-0"
140
0.75
141
12.0
290
     0
  0
SCALE
  5
80D9
102
{ACAD_REACTORS
330
80CC
102
}
330
80CC
100
AcDbScale
 70
     0
300
1" = 1'-0"
140
1.0
141
12.0
290
     0
  0
SCALE
  5
80DA
102
{ACAD_REACTORS
330
80CC
102
}
330
80CC
100
AcDbScale
 70
     0
300
1-1/2" = 1'-0"
140
1.5
141
12.0
290
     0
  0
SCALE
  5
80DB
102
{ACAD_REACTORS
330
80CC
102
}
330
80CC
100
AcDbScale
 70
     0
300
3" = 1'-0"
140
3.0
141
12.0
290
     0
  0
SCALE
  5
80DC
102
{ACAD_REACTORS
330
80CC
102
}
330
80CC
100
AcDbScale
 70
     0
300
6" = 1'-0"
140
6.0
141
12.0
290
     0
  0
SCALE
  5
80DD
102
{ACAD_REACTORS
330
80CC
102
}
330
80CC
100
AcDbScale
 70
     0
300
1'-0" = 1'-0"
140
12.0
141
12.0
290
     0
  0
ACDBSECTIONVIEWSTYLE
  5
80F2
102
{ACAD_XDICTIONARY
360
820A
102
}
102
{ACAD_REACTORS
330
80F1
102
}
330
80F1
100
AcDbModelDocViewStyle
 70
     0
  3
Imperial24
290
     0
100
AcDbSectionViewStyle
 70
     0
 71
     0
 90
       78
 71
     1
340
80DF
 40
0.24
340
0
340
0
 40
0.24
300
I, O, Q, S, X, Z
 40
0.48
 90
        3
 40
0.18
 90
        1
 71
     2
340
80E6
 90
       25
340
80E6
 90
       50
 40
0.24
 40
0.0
 40
0.24
 71
     3
340
80DF
 40
0.24
 90
        1
 40
0.75
 90
        1
300
%<\AcVar ViewType \f "%tc1">% %<\AcVar ViewSectionStartId>%-%<\AcVar ViewSectionEndId>%\PSCALE %<\AcVar ViewScale \f "%sn">%
 71
     4
300
ANSI31
 40
1.0
 90
        0
290
     0
290
     0
 90
        6
 40
0.0
 40
1.570796326794896
 40
0.2617993877991494
 40
1.308996938995747
 40
-0.2617993877991494
 40
1.832595714594046
  0
TABLESTYLE
  5
80EE
102
{ACAD_XDICTIONARY
360
81D1
102
}
102
{ACAD_REACTORS
330
80ED
102
}
330
80ED
100
AcDbTableStyle
  3
Standard
 70
     0
 71
     0
 40
0.06
 41
0.06
280
     0
281
     0
  7
STANDARD
140
0.18
170
     2
 62
     0
 63
     7
283
     0
274
    -2
284
     1
 64
     0
275
    -2
285
     1
 65
     0
276
    -2
286
     1
 66
     0
277
    -2
287
     1
 67
     0
278
    -2
288
     1
 68
     0
279
    -2
289
     1
 69
     0
  7
STANDARD
140
0.25
170
     5
 62
     0
 63
     7
283
     0
274
    -2
284
     1
 64
     0
275
    -2
285
     1
 65
     0
276
    -2
286
     1
 66
     0
277
    -2
287
     1
 67
     0
278
    -2
288
     1
 68
     0
279
    -2
289
     1
 69
     0
  7
STANDARD
140
0.18
170
     5
 62
     0
 63
     7
283
     0
274
    -2
284
     1
 64
     0
275
    -2
285
     1
 65
     0
276
    -2
286
     1
 66
     0
277
    -2
287
     1
 67
     0
278
    -2
288
     1
 68
     0
279
    -2
289
     1
 69
     0
  0
VISUALSTYLE
  5
80B9
102
{ACAD_XDICTIONARY
360
81E2
102
}
102
{ACAD_REACTORS
330
80B3
102
}
330
80B3
100
AcDbVisualStyle
  2
2dWireframe
 70
     4
 71
     0
 72
     2
 73
     0
 90
        0
 40
-0.6
 41
-30.0
 62
     5
 63
     7
 74
     1
 91
        4
 64
     7
 65
   257
 75
     1
175
     1
 42
1.0
 92
        0
 66
   257
 43
1.0
 76
     1
 77
     6
 78
     2
 67
     7
 79
     5
170
     0
171
     0
290
     0
174
     0
 93
        1
 44
0.0
173
     0
291
     0
 45
0.0
1001
ACAD
1000
AcDbSavedByObjectVersion
1070
     0
  0
VISUALSTYLE
  5
80B8
102
{ACAD_XDICTIONARY
360
81E0
102
}
102
{ACAD_REACTORS
330
80B3
102
}
330
80B3
100
AcDbVisualStyle
  2
Basic
 70
     7
 71
     1
 72
     0
 73
     1
 90
        0
 40
-0.6
 41
-30.0
 62
     5
 63
     7
 74
     0
 91
        4
 64
     7
 65
   257
 75
     1
175
     1
 42
1.0
 92
        8
 66
     7
 43
1.0
 76
     1
 77
     6
 78
     2
 67
     7
 79
     5
170
     0
171
     0
290
     0
174
     0
 93
        1
 44
0.0
173
     0
291
     1
 45
0.0
1001
ACAD
1000
AcDbSavedByObjectVersion
1070
     0
  0
VISUALSTYLE
  5
80BF
102
{ACAD_XDICTIONARY
360
81EE
102
}
102
{ACAD_REACTORS
330
80B3
102
}
330
80B3
100
AcDbVisualStyle
  2
Brighten
 70
    12
 71
     2
 72
     2
 73
     0
 90
        0
 40
-0.6
 41
-30.0
 62
     5
 63
     7
 74
     1
 91
        4
 64
     7
 65
   257
 75
     1
175
     1
 42
1.0
 92
        8
 66
     7
 43
1.0
 76
     1
 77
     6
 78
     2
 67
     7
 79
     5
170
     0
171
     0
290
     0
174
     0
 93
        1
 44
50.0
173
     0
291
     1
 45
0.0
1001
ACAD
1000
AcDbSavedByObjectVersion
1070
     0
  0
VISUALSTYLE
  5
80C3
102
{ACAD_XDICTIONARY
360
81F6
102
}
102
{ACAD_REACTORS
330
80B3
102
}
330
80B3
100
AcDbVisualStyle
  2
ColorChange
 70
    16
 71
     2
 72
     2
 73
     3
 90
        0
 40
-0.6
 41
-30.0
 62
     5
 63
     8
 74
     1
 91
        4
 64
     7
 65
   257
 75
     1
175
     1
 42
1.0
 92
        8
 66
     8
 43
1.0
 76
     1
 77
     6
 78
     2
 67
     7
 79
     5
170
     0
171
     0
290
     0
174
     0
 93
        1
 44
0.0
173
     0
291
     1
 45
0.0
1001
ACAD
1000
AcDbSavedByObjectVersion
1070
     0
  0
VISUALSTYLE
  5
80BC
102
{ACAD_XDICTIONARY
360
81E8
102
}
102
{ACAD_REACTORS
330
80B3
102
}
330
80B3
100
AcDbVisualStyle
  2
Conceptual
 70
     9
 71
     3
 72
     2
 73
     0
 90
        0
 40
-0.6
 41
-30.0
 62
     5
 63
     7
 74
     2
 91
        2
 64
     7
 65
   257
 75
     1
175
     1
 42
179.0
 92
        8
 66
     7
 43
1.0
 76
     1
 77
     6
 78
     2
 67
     7
 79
     3
170
     0
171
     0
290
     0
174
     0
 93
        1
 44
0.0
173
     0
291
     0
 45
0.0
1001
ACAD
1000
AcDbSavedByObjectVersion
1070
     0
  0
VISUALSTYLE
  5
80BE
102
{ACAD_XDICTIONARY
360
81EC
102
}
102
{ACAD_REACTORS
330
80B3
102
}
330
80B3
100
AcDbVisualStyle
  2
Dim
 70
    11
 71
     2
 72
     2
 73
     0
 90
        0
 40
-0.6
 41
-30.0
 62
     5
 63
     7
 74
     1
 91
        4
 64
     7
 65
   257
 75
     1
175
     1
 42
1.0
 92
        8
 66
     7
 43
1.0
 76
     1
 77
     6
 78
     2
 67
     7
 79
     5
170
     0
171
     0
290
     0
174
     0
 93
        1
 44
-50.0
173
     0
291
     1
 45
0.0
1001
ACAD
1000
AcDbSavedByObjectVersion
1070
     0
  0
VISUALSTYLE
  5
80CB
102
{ACAD_XDICTIONARY
360
8206
102
}
102
{ACAD_REACTORS
330
80B3
102
}
330
80B3
100
AcDbVisualStyle
  2
EdgeColorOff
 70
    22
 71
     2
 72
     2
 73
     0
 90
        0
 40
-0.6
 41
-30.0
 62
     5
 63
     7
 74
     1
 91
        4
 64
     7
 65
   257
 75
     1
175
     1
 42
1.0
 92
        8
 66
     7
 43
1.0
 76
     1
 77
     6
 78
     2
 67
     7
 79
     5
170
     0
171
     0
290
     0
174
     0
 93
        1
 44
0.0
173
     0
291
     1
 45
0.0
1001
ACAD
1000
AcDbSavedByObjectVersion
1070
     0
  0
VISUALSTYLE
  5
80C2
102
{ACAD_XDICTIONARY
360
81F4
102
}
102
{ACAD_REACTORS
330
80B3
102
}
330
80B3
100
AcDbVisualStyle
  2
Facepattern
 70
    15
 71
     2
 72
     2
 73
     0
 90
        0
 40
-0.6
 41
-30.0
 62
     5
 63
     7
 74
     1
 91
        4
 64
     7
 65
   257
 75
     1
175
     1
 42
1.0
 92
        8
 66
     7
 43
1.0
 76
     1
 77
     6
 78
     2
 67
     7
 79
     5
170
     0
171
     0
290
     0
174
     0
 93
        1
 44
0.0
173
     0
291
     1
 45
0.0
1001
ACAD
1000
AcDbSavedByObjectVersion
1070
     0
  0
VISUALSTYLE
  5
80B4
102
{ACAD_XDICTIONARY
360
81D8
102
}
102
{ACAD_REACTORS
330
80B3
102
}
330
80B3
100
AcDbVisualStyle
  2
Flat
 70
     0
 71
     2
 72
     1
 73
     1
 90
        2
 40
-0.6
 41
30.0
 62
     5
 63
     7
 74
     0
 91
        0
 64
     7
 65
   257
 75
     1
175
     1
 42
1.0
 92
        8
 66
     7
 43
1.0
 76
     1
 77
     6
 78
     2
 67
     7
 79
     5
170
     0
171
     0
290
     0
174
     0
 93
       13
 44
0.0
173
     0
291
     1
 45
0.0
1001
ACAD
1000
AcDbSavedByObjectVersion
1070
     0
  0
VISUALSTYLE
  5
80B5
102
{ACAD_XDICTIONARY
360
81DA
102
}
102
{ACAD_REACTORS
330
80B3
102
}
330
80B3
100
AcDbVisualStyle
  2
FlatWithEdges
 70
     1
 71
     2
 72
     1
 73
     1
 90
        2
 40
-0.6
 41
30.0
 62
     5
 63
     7
 74
     1
 91
        0
 64
     7
 65
   257
 75
     1
175
     1
 42
1.0
 92
        0
 66
   257
 43
1.0
 76
     1
 77
     6
 78
     2
 67
     7
 79
     5
170
     0
171
     0
290
     0
174
     0
 93
       13
 44
0.0
173
     0
291
     1
 45
0.0
1001
ACAD
1000
AcDbSavedByObjectVersion
1070
     0
  0
VISUALSTYLE
  5
80B6
102
{ACAD_XDICTIONARY
360
81DC
102
}
102
{ACAD_REACTORS
330
80B3
102
}
330
80B3
100
AcDbVisualStyle
  2
Gouraud
 70
     2
 71
     2
 72
     2
 73
     1
 90
        2
 40
-0.6
 41
30.0
 62
     5
 63
     7
 74
     0
 91
        0
 64
     7
 65
   257
 75
     1
175
     1
 42
1.0
 92
        0
 66
     7
 43
1.0
 76
     1
 77
     6
 78
     2
 67
     7
 79
     5
170
     0
171
     0
290
     0
174
     0
 93
       13
 44
0.0
173
     0
291
     1
 45
0.0
1001
ACAD
1000
AcDbSavedByObjectVersion
1070
     0
  0
VISUALSTYLE
  5
80B7
102
{ACAD_XDICTIONARY
360
81DE
102
}
102
{ACAD_REACTORS
330
80B3
102
}
330
80B3
100
AcDbVisualStyle
  2
GouraudWithEdges
 70
     3
 71
     2
 72
     2
 73
     1
 90
        2
 40
-0.6
 41
30.0
 62
     5
 63
     7
 74
     1
 91
        0
 64
     7
 65
   257
 75
     1
175
     1
 42
1.0
 92
        0
 66
   257
 43
1.0
 76
     1
 77
     6
 78
     2
 67
     7
 79
     5
170
     0
171
     0
290
     0
174
     0
 93
       13
 44
0.0
173
     0
291
     1
 45
0.0
1001
ACAD
1000
AcDbSavedByObjectVersion
1070
     0
  0
VISUALSTYLE
  5
80BB
102
{ACAD_XDICTIONARY
360
81E6
102
}
102
{ACAD_REACTORS
330
80B3
102
}
330
80B3
100
AcDbVisualStyle
  2
Hidden
 70
     6
 71
     1
 72
     2
 73
     2
 90
        0
 40
-0.6
 41
-30.0
 62
     5
 63
     7
 74
     2
 91
        2
 64
     7
 65
   257
 75
     2
175
     1
 42
40.0
 92
        0
 66
   257
 43
1.0
 76
     1
 77
     6
 78
     2
 67
     7
 79
     3
170
     0
171
     0
290
     0
174
     0
 93
        1
 44
0.0
173
     0
291
     0
 45
0.0
1001
ACAD
1000
AcDbSavedByObjectVersion
1070
     0
  0
VISUALSTYLE
  5
80C9
102
{ACAD_XDICTIONARY
360
8202
102
}
102
{ACAD_REACTORS
330
80B3
102
}
330
80B3
100
AcDbVisualStyle
  2
JitterOff
 70
    20
 71
     2
 72
     2
 73
     0
 90
        0
 40
-0.6
 41
-30.0
 62
     5
 63
     7
 74
     1
 91
        4
 64
     7
 65
   257
 75
     1
175
     1
 42
1.0
 92
       10
 66
     7
 43
1.0
 76
     1
 77
     6
 78
     2
 67
     7
 79
     5
170
     0
171
     0
290
     0
174
     0
 93
        1
 44
0.0
173
     0
291
     1
 45
0.0
1001
ACAD
1000
AcDbSavedByObjectVersion
1070
     0
  0
VISUALSTYLE
  5
80C1
102
{ACAD_XDICTIONARY
360
81F2
102
}
102
{ACAD_REACTORS
330
80B3
102
}
330
80B3
100
AcDbVisualStyle
  2
Linepattern
 70
    14
 71
     2
 72
     2
 73
     0
 90
        0
 40
-0.6
 41
-30.0
 62
     5
 63
     7
 74
     1
 91
        4
 64
     7
 65
   257
 75
     7
175
     7
 42
1.0
 92
        8
 66
     7
 43
1.0
 76
     1
 77
     6
 78
     2
 67
     7
 79
     5
170
     0
171
     0
290
     0
174
     0
 93
        1
 44
0.0
173
     0
291
     1
 45
0.0
1001
ACAD
1000
AcDbSavedByObjectVersion
1070
     0
  0
VISUALSTYLE
  5
80CA
102
{ACAD_XDICTIONARY
360
8204
102
}
102
{ACAD_REACTORS
330
80B3
102
}
330
80B3
100
AcDbVisualStyle
  2
OverhangOff
 70
    21
 71
     2
 72
     2
 73
     0
 90
        0
 40
-0.6
 41
-30.0
 62
     5
 63
     7
 74
     1
 91
        4
 64
     7
 65
   257
 75
     1
175
     1
 42
1.0
 92
        9
 66
     7
 43
1.0
 76
     1
 77
     6
 78
     2
 67
     7
 79
     5
170
     0
171
     0
290
     0
174
     0
 93
        1
 44
0.0
173
     0
291
     1
 45
0.0
1001
ACAD
1000
AcDbSavedByObjectVersion
1070
     0
  0
VISUALSTYLE
  5
80BD
102
{ACAD_XDICTIONARY
360
81EA
102
}
102
{ACAD_REACTORS
330
80B3
102
}
330
80B3
100
AcDbVisualStyle
  2
Realistic
 70
     8
 71
     2
 72
     3
 73
     0
 90
        2
 40
-0.6
 41
30.0
 62
     5
 63
     7
 74
     0
 91
        0
 64
     7
 65
   257
 75
     1
175
     1
 42
1.0
 92
        8
 66
   257
 43
1.0
 76
     1
 77
     6
 78
     2
 67
     7
 79
     3
170
     0
171
     0
290
     0
174
     0
 93
       13
 44
0.0
173
     0
291
     0
 45
0.0
1001
ACAD
1000
AcDbSavedByObjectVersion
1070
     0
  0
VISUALSTYLE
  5
80C8
102
{ACAD_XDICTIONARY
360
8200
102
}
102
{ACAD_REACTORS
330
80B3
102
}
330
80B3
100
AcDbVisualStyle
  2
Shaded
 70
    27
 71
     2
 72
     2
 73
     1
 90
        2
 40
-0.6
 41
30.0
 62
     5
 63
     7
 74
     0
 91
        4
 64
     7
 65
   257
 75
     1
175
     1
 42
1.0
 92
        8
 66
   257
 43
1.0
 76
     1
 77
     6
 78
     2
 67
     8
 79
     3
170
     0
171
     0
290
     0
174
     0
 93
        5
 44
0.0
173
     0
291
     0
 45
0.0
1001
ACAD
1000
AcDbSavedByObjectVersion
1070
     0
  0
VISUALSTYLE
  5
80C7
102
{ACAD_XDICTIONARY
360
81FE
102
}
102
{ACAD_REACTORS
330
80B3
102
}
330
80B3
100
AcDbVisualStyle
  2
Shaded with edges
 70
    26
 71
     2
 72
     2
 73
     1
 90
        2
 40
-0.6
 41
30.0
 62
     5
 63
     7
 74
     1
 91
       10
 64
     7
 65
   257
 75
     2
175
     1
 42
1.0
 92
        8
 66
   257
 43
1.0
 76
     1
 77
     6
 78
     2
 67
     7
 79
     3
170
     0
171
     0
290
     0
174
     0
 93
        5
 44
0.0
173
     0
291
     0
 45
0.0
1001
ACAD
1000
AcDbSavedByObjectVersion
1070
     0
  0
VISUALSTYLE
  5
80C4
102
{ACAD_XDICTIONARY
360
81F8
102
}
102
{ACAD_REACTORS
330
80B3
102
}
330
80B3
100
AcDbVisualStyle
  2
Shades of Gray
 70
    23
 71
     2
 72
     2
 73
     3
 90
        0
 40
-0.6
 41
-30.0
 62
     5
 63
     7
 74
     2
 91
        2
 64
     7
 65
     7
 75
     1
175
     1
 42
40.0
 92
        8
 66
     7
 43
1.0
 76
     1
 77
     6
 78
     2
 67
     7
 79
     3
170
     0
171
     0
290
     0
174
     0
 93
        1
 44
0.0
173
     0
291
     0
 45
0.0
1001
ACAD
1000
AcDbSavedByObjectVersion
1070
     0
  0
VISUALSTYLE
  5
80C5
102
{ACAD_XDICTIONARY
360
81FA
102
}
102
{ACAD_REACTORS
330
80B3
102
}
330
80B3
100
AcDbVisualStyle
  2
Sketchy
 70
    24
 71
     1
 72
     2
 73
     2
 90
        0
 40
-0.6
 41
-30.0
 62
     5
 63
     7
 74
     2
 91
        2
 64
     7
 65
     7
 75
     1
175
     1
 42
40.0
 92
       11
 66
     7
 43
1.0
 76
     1
 77
     6
 78
     2
 67
     7
 79
     6
170
     0
171
     0
290
     0
174
     0
 93
        1
 44
0.0
173
     0
291
     0
 45
0.0
1001
ACAD
1000
AcDbSavedByObjectVersion
1070
     0
  0
VISUALSTYLE
  5
80C0
102
{ACAD_XDICTIONARY
360
81F0
102
}
102
{ACAD_REACTORS
330
80B3
102
}
330
80B3
100
AcDbVisualStyle
  2
Thicken
 70
    13
 71
     2
 72
     2
 73
     0
 90
        0
 40
-0.6
 41
-30.0
 62
     5
 63
     7
 74
     1
 91
        4
 64
     7
 65
   257
 75
     1
175
     1
 42
1.0
 92
       12
 66
     7
 43
1.0
 76
     1
 77
     6
 78
     2
 67
     7
 79
     5
170
     0
171
     0
290
     0
174
     0
 93
        1
 44
0.0
173
     0
291
     1
 45
0.0
1001
ACAD
1000
AcDbSavedByObjectVersion
1070
     0
  0
VISUALSTYLE
  5
80BA
102
{ACAD_XDICTIONARY
360
81E4
102
}
102
{ACAD_REACTORS
330
80B3
102
}
330
80B3
100
AcDbVisualStyle
  2
Wireframe
 70
     5
 71
     0
 72
     2
 73
     0
 90
        0
 40
-0.6
 41
-30.0
 62
     5
 63
     7
 74
     1
 91
        4
 64
     7
 65
   257
 75
     1
175
     1
 42
1.0
 92
        0
 66
   257
 43
1.0
 76
     1
 77
     6
 78
     2
 67
     7
 79
     3
170
     0
171
     0
290
     0
174
     0
 93
        1
 44
0.0
173
     0
291
     0
 45
0.0
1001
ACAD
1000
AcDbSavedByObjectVersion
1070
     0
  0
VISUALSTYLE
  5
80C6
102
{ACAD_XDICTIONARY
360
81FC
102
}
102
{ACAD_REACTORS
330
80B3
102
}
330
80B3
100
AcDbVisualStyle
  2
X-Ray
 70
    25
 71
     2
 72
     2
 73
     1
 90
        1
 40
0.5
 41
-30.0
 62
     5
 63
     7
 74
     1
 91
        0
 64
     7
 65
   257
 75
     1
175
     1
 42
1.0
 92
        8
 66
     7
 43
1.0
 76
     1
 77
     6
 78
     2
 67
     7
 79
     3
170
     0
171
     0
290
     0
174
     0
 93
       13
 44
0.0
173
     0
291
     0
 45
0.0
1001
ACAD
1000
AcDbSavedByObjectVersion
1070
     0
  0
DICTIONARYVAR
  5
81CB
102
{ACAD_REACTORS
330
81C6
102
}
330
81C6
100
DictionaryVariables
280
     0
  1
1:1
  0
DICTIONARYVAR
  5
81C8
102
{ACAD_REACTORS
330
81C6
102
}
330
81C6
100
DictionaryVariables
280
     0
  1
STANDARD
  0
DICTIONARYVAR
  5
81C7
102
{ACAD_REACTORS
330
81C6
102
}
330
81C6
100
DictionaryVariables
280
     0
  1
STANDARD
  0
DICTIONARYVAR
  5
81C9
102
{ACAD_REACTORS
330
81C6
102
}
330
81C6
100
DictionaryVariables
280
     0
  1
Imperial24
  0
DICTIONARYVAR
  5
81CA
102
{ACAD_REACTORS
330
81C6
102
}
330
81C6
100
DictionaryVariables
280
     0
  1
Imperial24
  0
DICTIONARYVAR
  5
81CE
102
{ACAD_REACTORS
330
81C6
102
}
330
81C6
100
DictionaryVariables
280
     0
  1
1
  0
DICTIONARYVAR
  5
81CD
102
{ACAD_REACTORS
330
81C6
102
}
330
81C6
100
DictionaryVariables
280
     0
  1
0
  0
DICTIONARYVAR
  5
81CC
102
{ACAD_REACTORS
330
81C6
102
}
330
81C6
100
DictionaryVariables
280
     0
  1
127
  0
DICTIONARYVAR
  5
81CF
102
{ACAD_REACTORS
330
81C6
102
}
330
81C6
100
DictionaryVariables
280
     0
  1
2
  0
DICTIONARY
  5
820C
330
80F4
100
AcDbDictionary
280
     1
281
     1
  3
ACAD_XREC_ROUNDTRIP
360
820D
  0
DICTIONARY
  5
8210
330
80FC
100
AcDbDictionary
280
     1
281
     1
  3
ACAD_XREC_ROUNDTRIP
360
8211
  0
DICTIONARY
  5
820E
330
80F8
100
AcDbDictionary
280
     1
281
     1
  3
ACAD_XREC_ROUNDTRIP
360
820F
  0
DICTIONARY
  5
80A4
330
80A3
100
AcDbDictionary
280
     1
281
     1
  3
ACAD_XREC_ROUNDTRIP
360
81D6
  3
BUMPTILE
360
80A6
  3
DIFFUSETILE
360
80A5
  3
OPACITYTILE
360
80A9
  3
REFLECTIONTILE
360
80A8
  3
REFRACTIONTILE
360
80AA
  3
SPECULARTILE
360
80A7
  0
DICTIONARY
  5
809C
330
809B
100
AcDbDictionary
280
     1
281
     1
  3
ACAD_XREC_ROUNDTRIP
360
81D5
  3
BUMPTILE
360
809E
  3
DIFFUSETILE
360
809D
  3
OPACITYTILE
360
80A1
  3
REFLECTIONTILE
360
80A0
  3
REFRACTIONTILE
360
80A2
  3
SPECULARTILE
360
809F
  0
DICTIONARY
  5
80AC
330
80AB
100
AcDbDictionary
280
     1
281
     1
  3
ACAD_XREC_ROUNDTRIP
360
81D7
  3
BUMPTILE
360
80AE
  3
DIFFUSETILE
360
80AD
  3
FBXASSET
360
8180
  3
OPACITYTILE
360
80B1
  3
REFLECTIONTILE
360
80B0
  3
REFRACTIONTILE
360
80B2
  3
SPECULARTILE
360
80AF
  0
DICTIONARY
  5
820A
330
80F2
100
AcDbDictionary
280
     1
281
     1
  3
ACAD_XREC_ROUNDTRIP
360
820B
  0
DICTIONARY
  5
81D1
330
80EE
100
AcDbDictionary
280
     1
281
     1
  3
ACAD_ROUNDTRIP_2008_TABLESTYLE_CELLSTYLEMAP
360
81D2
  3
ACAD_XREC_ROUNDTRIP
360
8208
  0
DICTIONARY
  5
81E2
330
80B9
100
AcDbDictionary
280
     1
281
     1
  3
ACAD_XREC_ROUNDTRIP
360
81E3
  0
DICTIONARY
  5
81E0
330
80B8
100
AcDbDictionary
280
     1
281
     1
  3
ACAD_XREC_ROUNDTRIP
360
81E1
  0
DICTIONARY
  5
81EE
330
80BF
100
AcDbDictionary
280
     1
281
     1
  3
ACAD_XREC_ROUNDTRIP
360
81EF
  0
DICTIONARY
  5
81F6
330
80C3
100
AcDbDictionary
280
     1
281
     1
  3
ACAD_XREC_ROUNDTRIP
360
81F7
  0
DICTIONARY
  5
81E8
330
80BC
100
AcDbDictionary
280
     1
281
     1
  3
ACAD_XREC_ROUNDTRIP
360
81E9
  0
DICTIONARY
  5
81EC
330
80BE
100
AcDbDictionary
280
     1
281
     1
  3
ACAD_XREC_ROUNDTRIP
360
81ED
  0
DICTIONARY
  5
8206
330
80CB
100
AcDbDictionary
280
     1
281
     1
  3
ACAD_XREC_ROUNDTRIP
360
8207
  0
DICTIONARY
  5
81F4
330
80C2
100
AcDbDictionary
280
     1
281
     1
  3
ACAD_XREC_ROUNDTRIP
360
81F5
  0
DICTIONARY
  5
81D8
330
80B4
100
AcDbDictionary
280
     1
281
     1
  3
ACAD_XREC_ROUNDTRIP
360
81D9
  0
DICTIONARY
  5
81DA
330
80B5
100
AcDbDictionary
280
     1
281
     1
  3
ACAD_XREC_ROUNDTRIP
360
81DB
  0
DICTIONARY
  5
81DC
330
80B6
100
AcDbDictionary
280
     1
281
     1
  3
ACAD_XREC_ROUNDTRIP
360
81DD
  0
DICTIONARY
  5
81DE
330
80B7
100
AcDbDictionary
280
     1
281
     1
  3
ACAD_XREC_ROUNDTRIP
360
81DF
  0
DICTIONARY
  5
81E6
330
80BB
100
AcDbDictionary
280
     1
281
     1
  3
ACAD_XREC_ROUNDTRIP
360
81E7
  0
DICTIONARY
  5
8202
330
80C9
100
AcDbDictionary
280
     1
281
     1
  3
ACAD_XREC_ROUNDTRIP
360
8203
  0
DICTIONARY
  5
81F2
330
80C1
100
AcDbDictionary
280
     1
281
     1
  3
ACAD_XREC_ROUNDTRIP
360
81F3
  0
DICTIONARY
  5
8204
330
80CA
100
AcDbDictionary
280
     1
281
     1
  3
ACAD_XREC_ROUNDTRIP
360
8205
  0
DICTIONARY
  5
81EA
330
80BD
100
AcDbDictionary
280
     1
281
     1
  3
ACAD_XREC_ROUNDTRIP
360
81EB
  0
DICTIONARY
  5
8200
330
80C8
100
AcDbDictionary
280
     1
281
     1
  3
ACAD_XREC_ROUNDTRIP
360
8201
  0
DICTIONARY
  5
81FE
330
80C7
100
AcDbDictionary
280
     1
281
     1
  3
ACAD_XREC_ROUNDTRIP
360
81FF
  0
DICTIONARY
  5
81F8
330
80C4
100
AcDbDictionary
280
     1
281
     1
  3
ACAD_XREC_ROUNDTRIP
360
81F9
  0
DICTIONARY
  5
81FA
330
80C5
100
AcDbDictionary
280
     1
281
     1
  3
ACAD_XREC_ROUNDTRIP
360
81FB
  0
DICTIONARY
  5
81F0
330
80C0
100
AcDbDictionary
280
     1
281
     1
  3
ACAD_XREC_ROUNDTRIP
360
81F1
  0
DICTIONARY
  5
81E4
330
80BA
100
AcDbDictionary
280
     1
281
     1
  3
ACAD_XREC_ROUNDTRIP
360
81E5
  0
DICTIONARY
  5
81FC
330
80C6
100
AcDbDictionary
280
     1
281
     1
  3
ACAD_XREC_ROUNDTRIP
360
81FD
  0
XRECORD
  5
820D
102
{ACAD_REACTORS
330
820C
102
}
330
820C
100
AcDbXrecord
280
     1
102
DISPLAYNAME
  1
Imperial24
102
FLAGS
 90
        0
  0
XRECORD
  5
8211
102
{ACAD_REACTORS
330
8210
102
}
330
8210
100
AcDbXrecord
280
     1
102
SHADEPLOT
 70
     0
102
SHADEPLOTRESLEVEL
 70
     2
102
SHADEPLOTCUSTOMDPI
 70
   300
  0
XRECORD
  5
820F
102
{ACAD_REACTORS
330
820E
102
}
330
820E
100
AcDbXrecord
280
     1
102
SHADEPLOT
 70
     0
102
SHADEPLOTRESLEVEL
 70
     2
102
SHADEPLOTCUSTOMDPI
 70
   300
  0
XRECORD
  5
81D6
102
{ACAD_REACTORS
330
80A4
102
}
330
80A4
100
AcDbXrecord
280
     1
102
MATERIAL
148
0.0
149
0.0
149
0.0
 93
        0
 94
      127
282
     0
 72
     0
 77
     0
171
     0
175
     0
179
     0
273
     0
  0
XRECORD
  5
80A6
102
{ACAD_REACTORS
330
80A4
102
}
330
80A4
100
AcDbXrecord
280
     1
270
     1
271
     1
  0
XRECORD
  5
80A5
102
{ACAD_REACTORS
330
80A4
102
}
330
80A4
100
AcDbXrecord
280
     1
270
     1
271
     1
  0
XRECORD
  5
80A9
102
{ACAD_REACTORS
330
80A4
102
}
330
80A4
100
AcDbXrecord
280
     1
270
     1
271
     1
  0
XRECORD
  5
80A8
102
{ACAD_REACTORS
330
80A4
102
}
330
80A4
100
AcDbXrecord
280
     1
270
     1
271
     1
  0
XRECORD
  5
80AA
102
{ACAD_REACTORS
330
80A4
102
}
330
80A4
100
AcDbXrecord
280
     1
270
     1
271
     1
  0
XRECORD
  5
80A7
102
{ACAD_REACTORS
330
80A4
102
}
330
80A4
100
AcDbXrecord
280
     1
270
     1
271
     1
  0
XRECORD
  5
81D5
102
{ACAD_REACTORS
330
809C
102
}
330
809C
100
AcDbXrecord
280
     1
102
MATERIAL
148
0.0
149
0.0
149
0.0
 93
        0
 94
      127
282
     0
 72
     0
 77
     0
171
     0
175
     0
179
     0
273
     0
  0
XRECORD
  5
809E
102
{ACAD_REACTORS
330
809C
102
}
330
809C
100
AcDbXrecord
280
     1
270
     1
271
     1
  0
XRECORD
  5
809D
102
{ACAD_REACTORS
330
809C
102
}
330
809C
100
AcDbXrecord
280
     1
270
     1
271
     1
  0
XRECORD
  5
80A1
102
{ACAD_REACTORS
330
809C
102
}
330
809C
100
AcDbXrecord
280
     1
270
     1
271
     1
  0
XRECORD
  5
80A0
102
{ACAD_REACTORS
330
809C
102
}
330
809C
100
AcDbXrecord
280
     1
270
     1
271
     1
  0
XRECORD
  5
80A2
102
{ACAD_REACTORS
330
809C
102
}
330
809C
100
AcDbXrecord
280
     1
270
     1
271
     1
  0
XRECORD
  5
809F
102
{ACAD_REACTORS
330
809C
102
}
330
809C
100
AcDbXrecord
280
     1
270
     1
271
     1
  0
XRECORD
  5
81D7
102
{ACAD_REACTORS
330
80AC
102
}
330
80AC
100
AcDbXrecord
280
     1
102
MATERIAL
148
0.0
149
0.0
149
0.0
 93
        0
 94
      127
282
     0
 72
     0
 77
     0
171
     0
175
     0
179
     0
273
     0
  0
XRECORD
  5
80AE
102
{ACAD_REACTORS
330
80AC
102
}
330
80AC
100
AcDbXrecord
280
     1
270
     1
271
     1
  0
XRECORD
  5
80AD
102
{ACAD_REACTORS
330
80AC
102
}
330
80AC
100
AcDbXrecord
280
     1
270
     1
271
     1
  0
XRECORD
  5
8180
102
{ACAD_REACTORS
330
80AC
102
}
330
80AC
100
AcDbXrecord
280
     1
 70
     1
 90
1959938040
 71
     1
  1
172832DB-417C-4345-953D-1A8DB6200A82
311
504B0304140006080800A17A6D574F1ACABBB6000000200100004F00000041353845333237452D354146422D344445392D413439452D4239454139363433393539372F4173736574446174612F446566696E6974696F6E4974657261746F7250726F706572746965732E62696EEB606060F80F0540260323103700495E20ED
311
9E9A975A94991C9C9C919A9BC8C00612C9C94F4ACC6147C831019920AE4B6A5A62694E0948976F6671726A4E4E625E6A7E69B12042A9426E6209D0B8C41C3D90264E20860914834C48875806B2DF0F88414E02D189290556F689C5C5A925B6FA694915FA864E9646A66606C6BA46CE6696BA262EC64EBA8E8626AEBACE16AE
311
E6C6CE2E66CEC686A6FA45A9C5F9A545C9A9C5FA46FA06F15093E30BF2D28D6D19FE938601504B0304140006080800A17A6D57803F2D4C10010000300200004500000041353845333237452D354146422D344445392D413439452D4239454139363433393539372F4173736574446174612F496E7374616E636550726F7065
311
72746965732E62696EEB606060F80F0540260323103700495E20ED9E9A975A94991C9C9C919A9BA80214303437B230367271D235313477D635313631D5B5343576D13574B470713233323070B430624768046931363471713532B5D435353131D635313332D4757273026A31373670367376B67474B5042A03DBCBA019D37F
311
E8ABC6157B20CD04146B0062181F4C03F940F0C11EA29A8141C08141002C0426541C106CAC2CA046088033B02A030AC2157C6006F21A8018AAF50194E6010A610250382264E08660284CD9E98021862280A91564B406929A0FF62C401E28B6F88038B83CB1243943D7A928312F253505249372EC89DD1CA0F41128AD721CC2
311
6F81D24FA0B4CB0988F81228CD7212C24F81D247A0B4CA29883800504B0304140006080800A17A6D5728BB58AF800100009E0500003D00000041353845333237452D354146422D344445392D413439452D4239454139363433393539372F536368656D61732F436F6D6D6F6E536368656D612E786D6CBD544D4FC23018BEFB
311
2B96DE15493C78601010A34B880709DEDFB52FD0D8B54BD70DF6EFED3AC0B12E6442E2716BFB3CEFF3D18E26FB440405EA8C2B1992E1C323095052C5B8DC842437EBFB673219DF8DA659866649B798C078B48AE6410122242F2A4994AC7F93815DF85C049C8564CA0A901499DD886B2EB9B1E02448F358701A9235880C49A0
311
119892A20C89D1B9FD768815CAD268CB5E0355B40B1E47F3E37A2020464BED06AA57CE8FCC20C3C3446D46761A2632A8C1283D07031EFF2AE7CCB1BFEEE916E406DFAC8E36FFD99A9D60A6944090EEDC3B670C7DC13DE86B6B2C5C240D6E503BB85ACD579D513F1B9F9A69DC9CC22AFA80C426D40AF0B21EA168559156B627
311
6F0F726A6BFF04DCD513A87A62CAD41FB24FCB2858B3952E3D852084DA25B9303C15687973CC8E8AAE11DF2836C38C6A9E765E8C1BA1BFB1DC29CDFE518C8B5A7655A4ED7E77291ABEB80DBD82EC866ADE1B8D05AF9E35CF09D7A061F38A986D9EC412B8F0F65E5D81534D9B231D1E5A8FE577A241F3A5FD01504B03041400
311
06080800A17A6D572CCEBD668A040000E01200003E00000041353845333237452D354146422D344445392D413439452D4239454139363433393539372F536368656D61732F47656E65726963536368656D612E786D6CD5586D6FDB380CFE7EBF42F0F7A649B70E1B90744856B4970F450FCD7A5F05459613EDE4174872DADC
311
AF3F522F8ED3B88D2F1D06AC4050DBA2493EE4438AF2F8EB73AEC8466823CB62928C06C384888297A92C5693A4B6D9D9E7E4EBD51FE3A931C22EF85AE4EC6AFC38BF261BA626C9AD288496DC3F4FCEAFC63366845F7A10452AF41DB320C0D44EC26EAB20918735565582695670811A6A49643A49A6E9069FA4604A64B29016
311
DC4B48552F95E4932463CA888468C1D2B250DB4962750DF7CE273069CE8363F1FF4EDB00E0A21999574AE4A2B00C353B93F3BD4777B8A61ED8F604ABFEDD79CE56A2B7BDFBDBC50996E0ADDE16FED26223C5D30956C29BDF4A55EA686E5E58B112DA45CE67F76F4FA27EFA3FB672FD7372FC388FAECDCA5209E693CAD167BA
311
DCD272F943701B3812F8A3D852008B1D2E32DB927B2F833C6EA95879925356D254582695095A3CE982924720BE5774A3CB9CDCDB350427D2DF20DA1B5532EBE2D5D6288D75D4F7E4FD9890A0EF8E3D93EBB8F8BA4758158EF6FB90A6F9520281C93DE7AAC6D24607DA296BB96018123F821A7D6A5C5884050C475DA4865442
311
732C8B95684A50165CBB3A32F25F783A4A480ED59AD7F924B968AEA50131F46303223E6A397B0E52976030DC1DCA81D7E7C1EDEEA42C19FF27635C505E2BD5198A599020DF50A2330FCB3AAF28CB0124108429553EF1B228802E2265D8F7CC2401042B155BCC7070F1E5C55F13B4A9577362CCCE46C32174E010C3C378C448
311
41A4BDA00FE3A12006CE11EE6AEC59894D3526DDE1CD59D503ECC324017F8061B7F162162FA62EDD81AE3308617770796DCBDAD2B2625C5AE8A63DE20B2C8AA5E95E76E5730823955956E33E705425A2187C185D36489A1B44D3DCEC2172F6BA2105C3546287A7194B2331768EBBE64F6E70A9930ABE0ADEA89E9E2C38523B
311
810287AD67A54A039C1606EAFE68F8304610BB9093DBDDABC0B2AE4E290DCDA15376D7E39F72B556F0B32EAB5D3D498B4C41ABADEC3A1434C422D87E8025A84BDCB2B1417ED750FAE4DA8976863974C577C7F902D3F156AD354DEA3540DE6BEAE2BEA52F7A2EB4CA43802ECE5BF2CE2EDC9347179FFB023CE412E60BE16DA0
311
BE29B374988A553F561DC04615DD35F7D2C8979F60E5955CE93DF29DED8AFA1EE6642D53418086C03C47C377910F75F7E8F5EF665F70B60FFB22AEDF897D119E8423C773E819A3C1E55E550599EE6EDCA34D0C86FD72057DF2CD46F16A470682471C164E4346D5306BF12D7D12D82CFF673D41636C347443FEB51B50D72EA1
311
71A8E4A58623A4A16E0FA2B8B10A0D23268D87C33896EE8FB73305A74BF224EDBADFA0BD674AB354D63DB7BD5D83426761C077DE767728235446A552754EB93B755891C3C4CC6CADE37CF0E912A7BB38DBA010F9DE1282EDF470CA69A9CDA482E334C4A6EA4107987980B17E72F31730EBF88BBD39E7C629F56797A3C0009C
311
2C5AE7951D9A05A02773440F02EEB4DE396A3B6A570C72CCFBCD823B0B8ED3F1D5CEDDFED772FA70236C83FB7D86C385D570B87107535572A60A96035F8F7C6A7192F13007246BBE0521855E6AC46F3E27689CEE7D186A6FD679D98CDCAD13333E04EBE7ED6F55FF01504B0304140006080800A17A6D576180134D5F010000
311
6B0300004500000041353845333237452D354146422D344445392D413439452D4239454139363433393539372F536368656D61732F52656E6465724D6174657269616C536368656D612E786D6CA5934D6FC2300C86EFFB1551EEE343DBA41D1A103009551ADAD40EAE28A4A68D9426284961FCFBE5A340113B2071746D3F76
311
5EBF4DC6BFB5407BD0862B49F0B037C0082453059725C18DDD3EBFE3F1E829991803366715D474942CD30FB4A782E00C64017A412D684E454CE3FE28995203B162A6EA5AC94B66997D225E109CD63B0135484BAD1B3C07E9080CA35DB3119C11BCA5C200461A68A1A438126C75E3E230D40FF81FB3F03C91D1E3A3A0AF79FE
311
28E25BC39EC3E17E4C2A2D94A0833A51AF55BCCA7D88572FCBAC529C4140B020FC3AAFA886621DCED7EAD7664CC86024E806DC297DA1BB393E4156543457A4537DB8817349A70F8ACBF09B3EEE2CB2F33E91B65D60786E4E3B39B77E3FEEEF5650424525DA657FB8B46BE6BF064646F0A0F7327C0BC1BC1B4CBBC1C419FA3C
311
CB23500007872A2580CAAE5461865565294E4EDB4617B62FF579DF9A5B2F54E834076A597573A020912FED777F9B3F504B0304140006080800A17A6D57610236E351000000570000004700000041353845333237452D354146422D344445392D413439452D4239454139363433393539372F4173736574446174612F417373
311
65745461626C654F66436F6E74656E74732E62696E53616060303437B230367271D235313477D635313631D5B5343576D13574B470713233323070B4301202AACB4D2C492DCA4CCC492C28484D2C4ACC4B4E050A82012F90744FCD03CA26072767A4E6260200504B0304140006080800A17A6D57F865834058000000680000
311
004500000041353845333237452D354146422D344445392D413439452D4239454139363433393539372F4173736574446174612F53747265616D56657273696F6E5461626C652E696E66558CBD0A80300C06F73E4B117FB66E451741D041DC5BF98480A492E4FDD18EAEC7DD4555D89EF28DF51A0B1BD8340C4DE7DD848B98
311
8C0ACF0649566493F2408C508DDEBB99D5129FF8F1AF8CF5B9503E20FAE5A16B5AF702504B0304140006080800A17A6D5780D8FF9B340100009A0400003600000041353845333237452D354146422D344445392D413439452D4239454139363433393539372F4173736574446174612F636E782E786D6CCD94314FC3301085
311
FF4AE43D769C0A09558E2B044B2790A818D8AECEA55875ECC8BE20F8F7D86D061088A943D7F3BBF3F327BF539B8FD155EF18930DBE639237AC426F426FFDA163330DF52DAB365AC510E89B8C551E46EC582933AD0E31CCD352EA7180D995AAB3FEB814EF5242DAC1DEE1E3701F3CA1A7C42AE320A58E25F38623709829F498
311
8EBC07022E79C414E668304F223BE232C94404C29EE9B66957B594B55CEDE4CDBA95EBA67D55A228B5DA87E016BDCD97C53055E67C2BD38D12E558AB39DA4553DEC2F45F1EF9DE7A25B252AB443133593AE873CA1D304DCE1AA08C4E0443487516218C4A9CC55A89C2E00789071CACB7A5659B8D0185F894ED61248B5747E4
311
3FAF9727B3F589C01BBC5E1EBF1D5E9EC2F3E907BD9C03794ACCB5E5E4B7436EFD70819488D31AC9A1295B457F01504B0304140006080800A17A6D5738599C04070100004F0300003400000041353845333237452D354146422D344445392D413439452D4239454139363433393539372F536368656D61732F636E782E786D
311
6CCD933F4F432114C5BFCA0B7BE1F11A13D3F0E8D0C1C9459DDC106E2B29705FF863F4DB0B4F863671D3A11B1C7E21E71C2E62FFE9DDF00131590C33E1742403048DC686D34C4A3E6EEEC9B0972222E60B8C0C41799849938914A78865E99281A32AAEA9CE8673170FE83D8667FD0E5E91413B95D24CD2BAA5AA643490CED4
311
A8AC28A7111296A8A1DE90AD877E838EA0321822A771DA6E38DFF0ED0BBFDB4D7C374EAF8235528A3744D7791B32445C068D7511AA9D51B0762C4589B6332D039197DE686D43B04A489172AC1D74327F2D9554CBE2AC56B956C556F0879182B5A857811F2040B4FA36135F99FBB7C84F100CC4C7FA4AD12A779BC97FF3F8B7
311
02D83AFB7504DA5790DF504B0304140006080800A17A6D57410A3D5871000000A40000002C00000041353845333237452D354146422D344445392D413439452D4239454139363433393539372F636E782E786D6C55CC4D0E82301086E1AB34B31774E7A22D31F1069E60020334B633A63FC6E34B0909B07DDE2F9FEE7EC1AB
311
2FC5E4840DDC9A2B28E25E06C7938192C7CB1D54677514C9871928C640062A83D55394F2D968A0118BAFEA1DBF377CA444F98919176EAB9FEAAB9F2960DA5BBB1E2ED3FA6FFF504B0304140006080800A17A6D570E17DD017F000000A300000007000000636E782E786D6C4D8CCB0E832014057F85DC3D7D09D59B000653FA
311
1FA6A2312234549A7E7EA171D1D549266746B49FD591B78DAF397809E7C30988F58F30CC7E9290B69136405A256208DBDF0D88EF572BA16050628A213D7734D8B14FAE5037FB65879A37A6BAD486727DEF28BB19A49AA1A11D1A8D575621C73A1BC7A2E4F9F5F296BCFA02504B0304140006080800A17A6D5716E99B5DA600
311
000035010000130000005B436F6E74656E745F54797065735D2E786D6C9590410E82301045AFD2740F4517C6180A0BF5065E60AC53688469D30E066F6F91AD9AB89CF9FFFD3F99BA9DC7413C3026E749CB4D59498164FCCD51A7E5C4B6D84BD136F5E5193089ECA5A465CF1C0E4A25D3E308A9F401292BD6C711388FB15301
311
CC1D3A54DBAADA29E38991B8E0254336F5092D4C038BF39CD76B6FC6A538AEBEA54A4B08617006389FA516557DE4AE8E7E70DE30729138228C5F021CD93F02D4FB0DCD0B504B0304140006080800A17A6D573DEE336E64000000790000001B0000006175746F6465736B2D64657369676E2D7061636B6167652E786D6C35CB
311
C10E83200C00D05F21DCA56CA76D41FC96062B120735B69A7DBE268BB7777961F8D5AF396893C2ADB70FE7ADA196782C2DF776D7A97B5933C430F15651E5469C55D70F80A4992A3ADC954792C525AE70A1E4D6AD9816CC044FEFDF01FE3FDE907802504B0304140006080800A17A6D572E9A272CF600000096010000370000
311
0041353845333237452D354146422D344445392D413439452D4239454139363433393539372F4173736574446174612F636F72652E786D6C8550CB6EC32010FC156BEFD80662A9893091ADC45FD0536F0888831283C5A3EAE71762576A4FBDB06876667677D8F96B79569FDA07E36C0FB86EA1D2563A65ECDC438A37F406D5
311
9933EF5CFC4583CA8A45F75060E06CF62EAD3B249D8DDA16D43AA5775084A02354F2993F3D0479D78BA8458A99111EF52AE443CCBAC6F5C6E32C25A376A951D9CDDC8CF6C0BB168F4347291A2ED3800ED391A291E4E73AE10CB7D7F1D01D5953C49C45B3FC4C975E8BA81570D2128A304698BEE3EE44F0A9251FAC294CCE42
311
F4F9E67D68B90EF850B6BE882858B375FFB8A655FDEF9A8C8D94ECAE9B2200C779C95783B3A6A494CB2BC25C4BA2FC1B504B0304140006080800A17A6D57CB3027EFF5000000940100003500000041353845333237452D354146422D344445392D413439452D4239454139363433393539372F536368656D61732F636F7265
311
2E786D6C8550CB6EC32010FC156BEFD80662A9893091ADC63FD09E7A43401C94182C1E553FBF10BB527BEA8545B333B3BBC3CE5FCBA3FAD43E18677BC0750B95B6D22963E71E52BCA217A8CE9C79E7E22F1A54562CBA87020367B37769DD21E96CD4B6A0D629BD8322041DA1928FFCE921C89B5E442D52CC8C70AF5721EF62
311
D635AE371E672919B54B8DCA6EE66AB407DEB5781C3A4AD1F03A0DE8301D291A497E2E13CE707B190FDD913545CC5934CBCF74E9B5885A01272DA1086384E93BEE4E049F5AF2C19AC2E42C449F6FDE8796EB80BF3DF70CACD97A7F3CD3AAFEF74CC6464A76CF4D1180E3BCE2B3C1595332CAE51960AE254FFE0D504B030414
311
0006080800A17A6D57A90C32CC02010000D70100002D00000041353845333237452D354146422D344445392D413439452D4239454139363433393539372F636F72652E786D6C9591C172832010865FC5D93B1A509B904132666A9FA0A7DE286C0C93088E60A78F5FAC76DADEDA13CCCFF7EFF2EF8AD3FB70CFDE700AD6BB06
311
68BE830C9DF6C6BABE81395EC801B2931493F7F1070699530336B0C820453FF979DC24ED5D44B7A8CE1BDC44150246C8F43D5D1A08FA8A83CAD51C13116EF9A8F44DF598D37CE5A48876F8B2EA0955440392ED58492825B47CA6F591D1E38EBD886221A598AD8B25DB9AE1F08A26F3634C9140D6A2585F13355BB331D6A43F
311
DA8BC509645B1FBA92ED3B52B74F67523D769CB415EFC899772D7FA84A5EF37D2A92CC528438A5C96C459619FCD5BE1A7F259B47F3CF64AB2380A4DFA18A65CC52149F3B48E7B212F901504B0304140006080800A17A6D5713162AEB06010000B201000008000000636F72652E786D6C8D50CB6EC32010FC15B4773F30B1D4
311
4498C856E32FE8A9376A88836283C5236AFFBE1053A9BDF5C2A299D99DD9A5E7CF75410F699D32BA035CD680A49E8C507AEE20F86BF102E8CCA835C6FF9201D27C951D2418189DAD095B8626A3BDD409D546C80C72E7A407342DF1D3819B6E72E5250F3E2ADCBDDCF874E7B32C71B9EB18F56AFD699DACE45E0A604DDD9002
311
E3029337DC9E1A7CAA9B775A2525A3212891AD9488EEEAAAA405D6D678E85B428AFE75EC8BC37824C5D0C4E732E208D797E1D01E69959A1975DEC69DF39098D323C71FC997563BC5E887314B16C4500219BD7C01AB6995883FA1C326FE115A694F9A3C70EF70C0700CF424A271BA602CCFF3C69AAECDBE01504B0102140014
311
0006080800A17A6D574F1ACABBB6000000200100004F000000000000000000000000000000000041353845333237452D354146422D344445392D413439452D4239454139363433393539372F4173736574446174612F446566696E6974696F6E4974657261746F7250726F706572746965732E62696E504B01021400140006
311
080800A17A6D57803F2D4C100100003002000045000000000000000000000000002301000041353845333237452D354146422D344445392D413439452D4239454139363433393539372F4173736574446174612F496E7374616E636550726F706572746965732E62696E504B01021400140006080800A17A6D5728BB58AF80
311
0100009E0500003D000000000000000000000000009602000041353845333237452D354146422D344445392D413439452D4239454139363433393539372F536368656D61732F436F6D6D6F6E536368656D612E786D6C504B01021400140006080800A17A6D572CCEBD668A040000E01200003E000000000000000000000000
311
007104000041353845333237452D354146422D344445392D413439452D4239454139363433393539372F536368656D61732F47656E65726963536368656D612E786D6C504B01021400140006080800A17A6D576180134D5F0100006B03000045000000000000000000000000005709000041353845333237452D354146422D
311
344445392D413439452D4239454139363433393539372F536368656D61732F52656E6465724D6174657269616C536368656D612E786D6C504B01021400140006080800A17A6D57610236E351000000570000004700000000000000000000000000190B000041353845333237452D354146422D344445392D413439452D4239
311
454139363433393539372F4173736574446174612F41737365745461626C654F66436F6E74656E74732E62696E504B01021400140006080800A17A6D57F865834058000000680000004500000000000000000000000000CF0B000041353845333237452D354146422D344445392D413439452D423945413936343339353937
311
2F4173736574446174612F53747265616D56657273696F6E5461626C652E696E66504B01021400140006080800A17A6D5780D8FF9B340100009A04000036000000000000000000000000008A0C000041353845333237452D354146422D344445392D413439452D4239454139363433393539372F4173736574446174612F63
311
6E782E786D6C504B01021400140006080800A17A6D5738599C04070100004F0300003400000000000000000000000000120E000041353845333237452D354146422D344445392D413439452D4239454139363433393539372F536368656D61732F636E782E786D6C504B01021400140006080800A17A6D57410A3D58710000
311
00A40000002C000000000000000000000000006B0F000041353845333237452D354146422D344445392D413439452D4239454139363433393539372F636E782E786D6C504B01021400140006080800A17A6D570E17DD017F000000A3000000070000000000000000000000000026100000636E782E786D6C504B0102140014
311
0006080800A17A6D5716E99B5DA6000000350100001300000000000000000000000000CA1000005B436F6E74656E745F54797065735D2E786D6C504B01021400140006080800A17A6D573DEE336E64000000790000001B00000000000000000000000000A11100006175746F6465736B2D64657369676E2D7061636B616765
311
2E786D6C504B01021400140006080800A17A6D572E9A272CF60000009601000037000000000000000000000000003E12000041353845333237452D354146422D344445392D413439452D4239454139363433393539372F4173736574446174612F636F72652E786D6C504B01021400140006080800A17A6D57CB3027EFF500
311
00009401000035000000000000000000000000008913000041353845333237452D354146422D344445392D413439452D4239454139363433393539372F536368656D61732F636F72652E786D6C504B01021400140006080800A17A6D57A90C32CC02010000D70100002D00000000000000000000000000D114000041353845
311
333237452D354146422D344445392D413439452D4239454139363433393539372F636F72652E786D6C504B01021400140006080800A17A6D5713162AEB06010000B201000008000000000000000000000000001E160000636F72652E786D6C504B050600000000110011005A0600004A1700000000
310
504B0304140006080800A17A6D57000000000000000000000000370000006662782F42314237434136302D374133372D344634342D393641312D3831433933343034424137342F617474726962757465732E62696E504B0304140006080800A17A6D57000000000000000000000000350000006662782F4231423743413630
310
2D374133372D344634342D393641312D3831433933343034424137342F76657274696365732E62696E504B0304140006080800A17A6D57F270F1330600000004000000360000006662782F42314237434136302D374133372D344634342D393641312D3831433933343034424137342F747269616E676C65732E62696E6366
310
60600000504B0304140006080800A17A6D5751464CB48900000043010000360000006662782F42314237434136302D374133372D344634342D393641312D3831433933343034424137342F6469726563746F72792E786D6C9D8F310EC2300C45AF127987122606C71DD918B841D4B851A43646695A717C52A85029031293A5
310
A76FBF6FACEF7DA7264E43906840EF0FA03836E242F406C6DCEE4EA06AC22492573150D1F66C60C640E8938CB705396EEDD86DE9B5042FE27813D640EA63BB001C722AF6E55CB61E4863F58284D5D3F53DD715CE1C3985E63FD7F1B7EBDD617E9F1E504B0304140006080800A17A6D57887C44EC37070000201C0000340000
310
006662782F42314237434136302D374133372D344634342D393641312D3831433933343034424137342F6F626A656374732E786D6CDD596D6FE23810FE2B56EECBDD87BC11A0B0A2AC0AB42BB4EA6EB5684FF72D32C1505FF3263B69E9FDFA1B3B76484280B4B72BADAE2B6DA971C633CFCC3C339E4C3EEEA3103D13C66912
310
5F1BAEE51888C441B2A1F1EEDAC8B3AD3932D0C7299AB024C92AFB0C14E3885C1B62D9984E762CC953B5B4215B9C87CDD5BBD95F88072426060A42CCF9B5C1834712610BE759B221FCC9DAE00C5BBBEDDE72AD62635DEC8EE1F4B171548A1989335015D66390A23470EB7F8249F674628B0DB56DBD6EDBBC33DB6C69785D51
310
1AF30CC7C191560D39BD6E5A796E7F71DB1B8CCD41BFEF99FD61CF356777B385E95E79CE7C389F8F6F6EC7069A4ED64912960E4849BC012FBE1A5377628B6F4AF3150A6D7A07491C9340A1D9B66143945C4A7813931AB0AE34ADE290C2D6CA82D7D1F813DB3A815253A986B6364EFFAE466FB2FE1B40E05DA2947122A29C67
310
0C7CADB02FF2C199D8C56ACD2F94A3086784511CA290AE1966E020D85A38A82646648B10850466D28B5A5E555708ECCBB9D4A6E5360F4391BFC654669A0FF948322E35A3FF1076D0BE7A1AE804D6E634CE46CAD8EC350511E3892D178BEFBC9EFAB200126D43BC83680133C526AFD7C06B2EB860B930A69FEFD6FB95E087F6
310
C35396A4846522F26432ABBCD31EAC8416045F07500A5CEBBE3BA0F20DA0FF02C897BAA009788ED17D7FDFD7B6331CF36DC222F00E7290E9C07F0E121F8F3E4DECF2E1294235AE3C8529A4ED0FC2B46646EDEC0AA4D3C933047DC23C65DC2AC021C4F43D8D459E43A0A0308125E0FBED7A6F4C9740A6B0084FE110AC877F13
310
5B7C44F0AB90037CD3F0501BFD7670944E98669E1D7CF5096286D1A07455CDC653F80E7E08BE378BD5E755CEB63820F72AB117644B639A41316D57A8067A2DE5BF2FBFC88C3CB2A7B62B80737689208E16BFAC945F90740CA822EA70E11AB9724F21DDC310C724C9B95A6F23AA200913E6AF5FFD22875BCFFA5307417118E4
310
B78880563283EA1E309A0A508CA932AF6442EB8093E0411580BBC2A9FE1A074F025E3F00C67A8F1E10B5983585E651EAE328C96341DFC7E1DD34CDF21CF9E3BAE39E33EE8DC6436D2C97E275F6686A289517E744383D71C8BCE62DC51A5A7291477D60CB360B02E899F2CC4F521CD0AC3D161A46A80C05B0CFAABCA1DB6DCE
310
81D45B6169686C79EE003995FFCB43CE6BAF0EF1698477C4DF6251E15ACFAB01540AD716B422B30B13CE694CB8EC508E98AB818A6301111471ABA5B60421E57E4432FC9EF89325AF117E8C6C431F7AA94C74B397A34F2BA8AAE72989A2734B625FDAFFEA731CA561D1A55DC2C0ED354E68C555282D8E788678F371E63B1B22
310
9BEE4BD24B5ED0F876923E7EB7F813F030FCD3E1D1475068BDA1465EF6AC6B0DDCB1F81901A90C07AE77A51D71092B7D54267A903087AE2978F55F08DD3D7623B44EE770126E7D1A8679E417F5202311B46038CB59A77C1D0E9C23E72B5E682444E5A42D0DA141EE4C9AB2F7D0DD0758259B8F53A45939068CA231DCD13A19
310
7264456B084B5FC8FBA8B8765DF6FEDBA5FE67BEACDE539EC8EB4BC236AD9AD6DB08DD81E98641D0A5AA70651C49C9D34935F9227971B98C435F0B51FC56DC12548430F24CC56042DE805AEF0FFC05670110E94AFE366790111BB239F41435716ACC614CE1502D4DF7A9D59B0E909D281FB5C66B290835826903163C7B2F3E
310
84DF30B81A3A3F6EABAEC62ED697A2B059305839E87146D6D74FAB861458E9FCF483C088BC3424A8D5B968E4CE88FABE3CF4AB0D09CAA2EFCB338F678F79B48E311595518405DEA41F3ECABBE4B50D1705DB9D8D7B83A1E399BDF9706CF617DECCBC71FBB7E67C747BE5CD17C339341036233CC95940B8DDB31D5FF74E69BC
310
D3815140D7E546015385CB573F1DCF4D07FF8F6F1461B2C6A762F157BD5094ED9E68C81AB9D8F542D14AD4EBB775FFEE1151B717B13775CEC5AC4007F8F9B20564A4EB7DF7D6428BD69D44BBCE958AF8C6C27BF2B6F2D36B4C8DD05BEB436D471BE5D7B918664F2D554ADF6E8B11C7556FE4F51633B3EF5ECDCDBED71F98E3
310
810733D89BD16236EC39CECDA86CA29B6C75A9AEFC121CAA8B60658C06D3609E841486F264837624811B104C1D3AF02B8B0897371B68005419D76F043A3CFD5CCC5433BC0EF5D3C12386C174A82A721EC050146E1DD7865A47BFC118544C22E570CA7A82C2A3A2DD4039A3D706844046A1BE586B1867C9E1A194DE185742E0
310
E27827EE4CC553E5DF87C7043A102B07BBCA3D5D705196D5A2138603A97C4F006CA71B92F79BAED54138838FEB3C2B8D392C1CAC5120E81702857130F57B52F0EE8178CEDBE55A724F0D924E93F9B37150483533CC7672BC5EC1FB66F1608BC9F8F22B4AC37C27DC79AEDED72499A2CF08F362083581C05066A658DCC3E71F
310
EC0796C02BA608DD510802F4FB7E34FCC39E275194C4C5927DA35E54A1D523BC76DAD87AE4078D8B037D8CEC7BD4581FE6569C5878C39F60015CCBA8988D1610D702A0A4A74A00688F085FC063B5FDCB055245A0D2C2562946C02367FA081249BCCB116953DD501940422E8056F2CBC307BD30B1190CC1A7FF02504B030414
310
0006080800A17A6D574E1F904B3D01000046050000300000006662782F42314237434136302D374133372D344634342D393641312D3831433933343034424137342F636E782E786D6CCD94C14EC3300C865FA5CABD69D309094D692671E00938206E69EA95B034AE1217B1B72719DD00A1210E93C62D727E4BFF67FFB2DCBC
310
8DAE7885102DFA96095EB302BCC1DEFAA165336DCB5B566C940C88F445C60AAF4768592E33258780F3B4947AD8EAD9E5AAB37EB7143551B0DD4C1059619C8EB165D13CC3A8B99E097B883BDE6BD25CF00011E76020F5931D61E937013441CF545337AB528852AC1EC4CDBA11EBBA799255562AD921BA456F3D41C0A930981E
310
3E99A96595BF959C835D349980A94F67BCB35E56E95FC998DCFA61D1D17ECABA6972D6684A63AAD010509944A047597D8895AC32EF37EAFBBBC7A383A2B7010C61D85F6900E2DC004EC6784AC2DFF80FC2DFB1B17B49B8D7DAF659D8C5D6C5508F698D29AE3FF79F52A4FDE0FE5FE84FC62E9FF9744AC89AFF877CF47521E2
310
EA70F2D2D2F30554EF504B0304140006080800A17A6D57935126037D000000A30000000B0000006662782F636E782E786D6C4D8CD10A832018465F45FE7B37A59F2C304383BD472C0B99E97039F6F8D3D1C5AE3E387CE7C8F1B37BF2B6E9E56218805F18101BEE7171611B201F2BED808C4AA6188FBF1B9030EF76808A41C9
310
2DC5FC3CD162D739FB4ABD0B8F131A6EC4A45B46856E04C51B22ED5BCD69C7A7BE4186460B2CC6B52A657EBDB235AFBE504B0304140006080800A17A6D57A6D797065F0000008200000007000000636E782E786D6C4DCB3B0E80201045D1AD90E9FD7516806B51190811670C8A61F982B1B0BAC9C97B72CA7B1037C6D33329
310
18DA1E04D2CAC69353902EDB8C20262D23F3F59B81A079470595414B17391D1F19B4730A5583A7ED43BBE4025D9592775E5ADFFA01504B0304140006080800A17A6D574FEB6A7CA0000000F4000000130000005B436F6E74656E745F54797065735D2E786D6C7D8F4B0EC2300C44AF1279DFA6B0400835ED02B8011730C16D
310
239A8F121795DB93D02D6269CFBC19BBED573B8B17C564BC53B0AB1B10E4B47F18372A5878A88E20FAAEBDBD032591BD2E299898C349CAA427B2986A1FC86565F0D122E7318E32A07EE24872DF3407A9BD63725C71C980AEBDD080CBCCE2BAE6F5D69B7110E7CD57AA146008B3D1C8F92C5954F993BB1BF787F39A89ABC491
310
D09600F9FDA2FB00504B0304140006080800A17A6D573DEE336E64000000790000001B0000006175746F6465736B2D64657369676E2D7061636B6167652E786D6C35CBC10E83200C00D05F21DCA56CA76D41FC96062B120735B69A7DBE268BB7777961F8D5AF396893C2ADB70FE7ADA196782C2DF776D7A97B5933C430F156
310
51E5469C55D70F80A4992A3ADC954792C525AE70A1E4D6AD9816CC044FEFDF01FE3FDE907802504B0304140006080800A17A6D576C992AF4F8000000960100003B0000006662782F42314237434136302D374133372D344634342D393641312D3831433933343034424137342F7265736F75726365732F636F72652E786D6C
310
8550496EC3300CFC8AC1BB6CCB7B02590112B82FE8A93741661C21B1146829FAFC4AB10BB4A79E480C6786E4B0D3D7FAC83ED13A65F408342F21432DCDACF43242F057324076E2CC1AE37FD120D362C511120C9C2DD684E70E49A33DEA846A33E30E0AE7D043261FB119C1C91BAE2217C14786BBE74F21EF62C19CE61B8FB3
310
10D4BC4BD51CDDD455A105FE36547DD376177238D417D234ED859CA76620753774535B9EFBBE9E5891C49C79B5FE6C971685C71978555635A194D0FA9DB6C78A1ECBEA831589C999F336FEBC2F4DDF01B7E84CB0121D2BB6E91FD7F09CFF770D4AFBBADA5D3785034EE391AF0167454A29965784B1A644F937504B03041400
310
06080800A17A6D57656C88ADF2000000B1010000310000006662782F42314237434136302D374133372D344634342D393641312D3831433933343034424137342F636F72652E786D6C8D50CB6EC32010FC156BEFD8C6A6711261223B52BFA0A7DE10100725068B4794CF2FC4AED4DE725A343BC3CC0E3D3DE77BF150CE6B6B
310
7AC0650D8532C24A6DA61E62B8A03D1427469DB5E10F0D0AC367D5438681D1C9D9B86C90B02628935163A5DA40EEBD0A50887B7AF4E0C555CDBCE4312486BF950B17373EA912972B8FD1A0E75FA9708A0725813575D3228C116EBFF0C7B1C1C7BAF9A65566321AA3969B9596C95D5FB472C0463C76E76157A36E683B443E09
310
4187DD80D11E9F0F2DA9C93874845659CCA80F2EDDBC7D92AF7B57BE0AFF658E8B7C23B336A16D36C355E181E194E7B560B4CA05A6F16A37CD5C36FB01504B0304140006080800A17A6D57C7AE860754010000DD0200000C0000006662782F636F72652E786D6C8D52DB8E832014FC15C33B2A5E5ADB204DDA74BF609FF68D
310
22B5A40A06C1F4F317BCC4F561BB1B132473CE993933019F5E6D130C5CF742C912A0300601974C5542D625B0E60E0B109C08D64A991F6D2090B4E525F03020B8D6CA7633C494345C7A54AA8ACF20ED7B6E40C01A772941CF1EBCA521B5C675F4CFB0A3EC496B1EA270EA23D85A51CDA3A2726CE22EB806E4A348F659BEBBC0
310
C321BDC02CCB2FF07CCD0A98EE8ADD358FCFFB7D7AC5911F26D8887651679A53C32B40923849214210A59F283F26E818275F38F29D04F7463BCFB3A87707C8FDF6C2D1846FF86C57FDCD6785346932F34D133D20C8AD3716088E7C3EEE3786B7CDD009BBFC0CBD358B85A78306CE8CD299AB54CAAEA58136963BEA38183F1C
310
4D55C73C12FCC693BCE179CFE182A2B276AB51E3AE376BBCFA76A78E6B38985720956E69B32E37ADB89EABD0C6D232CE54A3F47FA617AB4B98917F98E41B504B0304140006080800A17A6D57EEF40BA907010000B201000008000000636F72652E786D6C8D50CB6EC32010FC15B4776C839F89309162B95FD0536FD41017C5
310
06CBE0A8FDFB42EC4AEDADA74533B33BC3B0CBE73CA1875A9DB6A6059264809419ACD4666C61F337DC00BA70B65AEB7FC9001931AB16220C9C8DABDD96031AACF1CA44D458A90E5038A73CA0610A8F16DCF0A1669188CD0785BB278B18EE62540949761D675ECF3FABC3AA84571238CD688E09C1247F25E599927346DF581A
310
959C6D9B96879596C15DDFB45A81BF34B42ECAAAC3A753DEE1A2283B7CED8B06E75553F56576ADEBBC67695CE6CCF935FCF93812727AE4C423FAB274A7387BB7763A04219444D64C5FC0339646E24FE86D91FF08AD8DCFE97170DF70C04908F42482716C308C67BD61C6B6F937504B01021400140006080800A17A6D570000
310
000000000000000000003700000000000000000000000000000000006662782F42314237434136302D374133372D344634342D393641312D3831433933343034424137342F617474726962757465732E62696E504B01021400140006080800A17A6D5700000000000000000000000035000000000000000000000000005500
310
00006662782F42314237434136302D374133372D344634342D393641312D3831433933343034424137342F76657274696365732E62696E504B01021400140006080800A17A6D57F270F13306000000040000003600000000000000000000000000A80000006662782F42314237434136302D374133372D344634342D393641
310
312D3831433933343034424137342F747269616E676C65732E62696E504B01021400140006080800A17A6D5751464CB489000000430100003600000000000000000000000000020100006662782F42314237434136302D374133372D344634342D393641312D3831433933343034424137342F6469726563746F72792E786D
310
6C504B01021400140006080800A17A6D57887C44EC37070000201C00003400000000000000000000000000DF0100006662782F42314237434136302D374133372D344634342D393641312D3831433933343034424137342F6F626A656374732E786D6C504B01021400140006080800A17A6D574E1F904B3D01000046050000
310
3000000000000000000000000000680900006662782F42314237434136302D374133372D344634342D393641312D3831433933343034424137342F636E782E786D6C504B01021400140006080800A17A6D57935126037D000000A30000000B00000000000000000000000000F30A00006662782F636E782E786D6C504B0102
310
1400140006080800A17A6D57A6D797065F000000820000000700000000000000000000000000990B0000636E782E786D6C504B01021400140006080800A17A6D574FEB6A7CA0000000F400000013000000000000000000000000001D0C00005B436F6E74656E745F54797065735D2E786D6C504B01021400140006080800A1
310
7A6D573DEE336E64000000790000001B00000000000000000000000000EE0C00006175746F6465736B2D64657369676E2D7061636B6167652E786D6C504B01021400140006080800A17A6D576C992AF4F8000000960100003B000000000000000000000000008B0D00006662782F42314237434136302D374133372D344634
310
342D393641312D3831433933343034424137342F7265736F75726365732F636F72652E786D6C504B01021400140006080800A17A6D57656C88ADF2000000B10100003100000000000000000000000000DC0E00006662782F42314237434136302D374133372D344634342D393641312D3831433933343034424137342F636F
310
72652E786D6C504B01021400140006080800A17A6D57C7AE860754010000DD0200000C000000000000000000000000001D1000006662782F636F72652E786D6C504B01021400140006080800A17A6D57EEF40BA907010000B201000008000000000000000000000000009B110000636F72652E786D6C504B0506000000000E
310
000E0080040000C81200000000
  0
XRECORD
  5
80B1
102
{ACAD_REACTORS
330
80AC
102
}
330
80AC
100
AcDbXrecord
280
     1
270
     1
271
     1
  0
XRECORD
  5
80B0
102
{ACAD_REACTORS
330
80AC
102
}
330
80AC
100
AcDbXrecord
280
     1
270
     1
271
     1
  0
XRECORD
  5
80B2
102
{ACAD_REACTORS
330
80AC
102
}
330
80AC
100
AcDbXrecord
280
     1
270
     1
271
     1
  0
XRECORD
  5
80AF
102
{ACAD_REACTORS
330
80AC
102
}
330
80AC
100
AcDbXrecord
280
     1
270
     1
271
     1
  0
XRECORD
  5
820B
102
{ACAD_REACTORS
330
820A
102
}
330
820A
100
AcDbXrecord
280
     1
102
DISPLAYNAME
  1
Imperial24
102
FLAGS
 90
        0
  0
CELLSTYLEMAP
  5
81D2
102
{ACAD_REACTORS
330
81D1
102
}
330
81D1
100
AcDbCellStyleMap
 90
        3
300
CELLSTYLE
  1
TABLEFORMAT_BEGIN
 90
        5
170
     1
 91
        0
 92
    32768
 62
   257
 93
        1
300
CONTENTFORMAT
  1
CONTENTFORMAT_BEGIN
 90
        0
 91
        0
 92
      512
 93
        0
300

 40
0.0
140
1.0
 94
        5
 62
     0
340
80DF
144
0.25
309
CONTENTFORMAT_END
171
     0
 94
        0
309
TABLEFORMAT_END
  1
CELLSTYLE_BEGIN
 90
        1
 91
        1
300
_TITLE
309
CELLSTYLE_END
300
CELLSTYLE
  1
TABLEFORMAT_BEGIN
 90
        5
170
     1
 91
        0
 92
        0
 62
   257
 93
        1
300
CONTENTFORMAT
  1
CONTENTFORMAT_BEGIN
 90
        0
 91
        0
 92
      512
 93
        0
300

 40
0.0
140
1.0
 94
        5
 62
     0
340
80DF
144
0.18
309
CONTENTFORMAT_END
171
     0
 94
        0
309
TABLEFORMAT_END
  1
CELLSTYLE_BEGIN
 90
        2
 91
        1
300
_HEADER
309
CELLSTYLE_END
300
CELLSTYLE
  1
TABLEFORMAT_BEGIN
 90
        5
170
     1
 91
        0
 92
        0
 62
   257
 93
        1
300
CONTENTFORMAT
  1
CONTENTFORMAT_BEGIN
 90
        0
 91
        0
 92
      512
 93
        0
300

 40
0.0
140
1.0
 94
        2
 62
     0
340
80DF
144
0.18
309
CONTENTFORMAT_END
171
     0
 94
        0
309
TABLEFORMAT_END
  1
CELLSTYLE_BEGIN
 90
        3
 91
        2
300
_DATA
309
CELLSTYLE_END
  0
XRECORD
  5
8208
102
{ACAD_REACTORS
330
81D1
102
}
330
81D1
100
AcDbXrecord
280
     1
102
ACAD_ROUNDTRIP_PRE2007_TABLESTYLE
 90
      512
 91
        0
  1

 92
      512
 93
        0
  2

 94
      512
 95
        0
  3

  0
XRECORD
  5
81E3
102
{ACAD_REACTORS
330
81E2
102
}
330
81E2
100
AcDbXrecord
280
     1
102
RTVSPost2010Prop28
280
     1
102
RTVSPost2010PropOp28
 70
     1
102
RTVSPost2010Prop29
280
     1
102
RTVSPost2010PropOp29
 70
     1
102
RTVSPost2010Prop30
280
     0
102
RTVSPost2010PropOp30
 70
     1
102
RTVSPost2010Prop31
280
     0
102
RTVSPost2010PropOp31
 70
     1
102
RTVSPost2010Prop32
280
     0
102
RTVSPost2010PropOp32
 70
     1
102
RTVSPost2010Prop33
280
     0
102
RTVSPost2010PropOp33
 70
     1
102
RTVSPost2010Prop34
280
     0
102
RTVSPost2010PropOp34
 70
     1
102
RTVSPost2010Prop35
280
     0
102
RTVSPost2010PropOp35
 70
     1
102
RTVSPost2010Prop36
280
     0
102
RTVSPost2010PropOp36
 70
     1
102
RTVSPost2010Prop37
 90
       50
102
RTVSPost2010PropOp37
 70
     1
102
RTVSPost2010Prop38
140
0.0
102
RTVSPost2010PropOp38
 70
     1
102
RTVSPost2010Prop39
140
1.0
102
RTVSPost2010PropOp39
 70
     1
102
RTVSPost2010Prop40
 90
        0
102
RTVSPost2010PropOp40
 70
     1
102
RTVSPost2010Prop41ColorIndex
 90
       18
102
RTVSPost2010Prop41ColorRGB
 90
        0
102
RTVSPost2010PropOp41
 70
     1
102
RTVSPost2010Prop42
 90
       50
102
RTVSPost2010PropOp42
 70
     1
102
RTVSPost2010Prop43
 90
        3
102
RTVSPost2010PropOp43
 70
     1
102
RTVSPost2010Prop44ColorIndex
 90
        5
102
RTVSPost2010Prop44ColorRGB
 90
      255
102
RTVSPost2010PropOp44
 70
     1
102
RTVSPost2010Prop45
280
     0
102
RTVSPost2010PropOp45
 70
     1
102
RTVSPost2010Prop46
 90
       50
102
RTVSPost2010PropOp46
 70
     1
102
RTVSPost2010Prop47
 90
       50
102
RTVSPost2010PropOp47
 70
     1
102
RTVSPost2010Prop48
 90
       50
102
RTVSPost2010PropOp48
 70
     1
102
RTVSPost2010Prop49
280
     0
102
RTVSPost2010PropOp49
 70
     1
102
RTVSPost2010Prop50
 90
       50
102
RTVSPost2010PropOp50
 70
     1
102
RTVSPost2010Prop51ColorIndex
 90
      256
102
RTVSPost2010Prop51ColorRGB
 90
-16777216
102
RTVSPost2010PropOp51
 70
     0
102
RTVSPost2010Prop52
140
1.0
102
RTVSPost2010PropOp52
 70
     0
102
RTVSPost2010Prop53
 90
        2
102
RTVSPost2010PropOp53
 70
     1
102
RTVSPost2010Prop54
  1
strokes_ogs.tif
102
RTVSPost2010PropOp54
 70
     1
102
RTVSPost2010Prop55
280
     0
102
RTVSPost2010PropOp55
 70
     1
102
RTVSPost2010Prop56
140
1.0
102
RTVSPost2010PropOp56
 70
     1
102
RTVSPost2010Prop57
140
1.0
102
RTVSPost2010PropOp57
 70
     1
102
RTVSPropertyOp0
 70
     1
102
RTVSPropertyOp1
 70
     1
102
RTVSPropertyOp2
 70
     1
102
RTVSPropertyOp3
 70
     1
102
RTVSPropertyOp4
 70
     1
102
RTVSPropertyOp5
 70
     1
102
RTVSPropertyOp6
 70
     1
102
RTVSPropertyOp7
 70
     1
102
RTVSPropertyOp8
 70
     1
102
RTVSPropertyOp9
 70
     1
102
RTVSPropertyOp10
 70
     1
102
RTVSPropertyOp11
 70
     1
102
RTVSPropertyOp12
 70
     1
102
RTVSPropertyOp13
 70
     1
102
RTVSPropertyOp14
 70
     1
102
RTVSPropertyOp15
 70
     1
102
RTVSPropertyOp16
 70
     1
102
RTVSPropertyOp17
 70
     1
102
RTVSPropertyOp18
 70
     1
102
RTVSPropertyOp19
 70
     1
102
RTVSPropertyOp20
 70
     1
102
RTVSPropertyOp21
 70
     1
102
RTVSPropertyOp22
 70
     1
102
RTVSPropertyOp23
 70
     1
102
RTVSPropertyOp24
 70
     1
102
RTVSPropertyOp25
 70
     1
102
RTVSPropertyOp26
 70
     1
102
RTVSPropertyOp27
 70
     1
102
RTVSPropertyOp28
 70
     1
102
RTVSPropertyOp29
 70
     1
102
RTVSPropertyOp30
 70
     1
102
RTVSPropertyOp31
 70
     1
102
RTVSPropertyOp32
 70
     1
102
RTVSPropertyOp33
 70
     1
102
RTVSPropertyOp34
 70
     1
102
RTVSPropertyOp35
 70
     1
102
RTVSPropertyOp36
 70
     1
102
RTVSPropertyOp37
 70
     1
102
RTVSPropertyOp38
 70
     1
102
RTVSPropertyOp39
 70
     1
102
RTVSPropertyOp40
 70
     1
102
RTVSPropertyOp41
 70
     1
102
RTVSPropertyOp42
 70
     1
102
RTVSPropertyOp43
 70
     1
102
RTVSPropertyOp44
 70
     1
102
RTVSPropertyOp45
 70
     1
102
RTVSPropertyOp46
 70
     1
102
RTVSPropertyOp47
 70
     1
102
RTVSPropertyOp48
 70
     1
102
RTVSPropertyOp49
 70
     1
102
RTVSPropertyOp50
 70
     1
102
RTVSPropertyOp51
 70
     0
102
RTVSPropertyOp52
 70
     0
102
RTVSPropertyOp53
 70
     1
102
RTVSPropertyOp54
 70
     1
102
RTVSPropertyOp55
 70
     1
102
RTVSPropertyOp56
 70
     1
102
RTVSPropertyOp57
 70
     1
102
RTVSPropertyOp58
 70
     1
102
RTVSPropertyOp59
 70
     1
102
RTVSPropertyOp60
 70
     1
102
RTVSPropertyOp61
 70
     1
102
RTVSPropertyOp62
 70
     1
  0
XRECORD
  5
81E1
102
{ACAD_REACTORS
330
81E0
102
}
330
81E0
100
AcDbXrecord
280
     1
102
RTVSPost2010Prop28
280
     0
102
RTVSPost2010PropOp28
 70
     1
102
RTVSPost2010Prop29
280
     1
102
RTVSPost2010PropOp29
 70
     1
102
RTVSPost2010Prop30
280
     1
102
RTVSPost2010PropOp30
 70
     1
102
RTVSPost2010Prop31
280
     0
102
RTVSPost2010PropOp31
 70
     1
102
RTVSPost2010Prop32
280
     0
102
RTVSPost2010PropOp32
 70
     1
102
RTVSPost2010Prop33
280
     0
102
RTVSPost2010PropOp33
 70
     1
102
RTVSPost2010Prop34
280
     0
102
RTVSPost2010PropOp34
 70
     1
102
RTVSPost2010Prop35
280
     0
102
RTVSPost2010PropOp35
 70
     1
102
RTVSPost2010Prop36
280
     0
102
RTVSPost2010PropOp36
 70
     1
102
RTVSPost2010Prop37
 90
       50
102
RTVSPost2010PropOp37
 70
     1
102
RTVSPost2010Prop38
140
0.0
102
RTVSPost2010PropOp38
 70
     1
102
RTVSPost2010Prop39
140
1.0
102
RTVSPost2010PropOp39
 70
     1
102
RTVSPost2010Prop40
 90
        0
102
RTVSPost2010PropOp40
 70
     1
102
RTVSPost2010Prop41ColorIndex
 90
       18
102
RTVSPost2010Prop41ColorRGB
 90
        0
102
RTVSPost2010PropOp41
 70
     1
102
RTVSPost2010Prop42
 90
       50
102
RTVSPost2010PropOp42
 70
     1
102
RTVSPost2010Prop43
 90
        3
102
RTVSPost2010PropOp43
 70
     1
102
RTVSPost2010Prop44ColorIndex
 90
        5
102
RTVSPost2010Prop44ColorRGB
 90
      255
102
RTVSPost2010PropOp44
 70
     1
102
RTVSPost2010Prop45
280
     0
102
RTVSPost2010PropOp45
 70
     1
102
RTVSPost2010Prop46
 90
       50
102
RTVSPost2010PropOp46
 70
     1
102
RTVSPost2010Prop47
 90
       50
102
RTVSPost2010PropOp47
 70
     1
102
RTVSPost2010Prop48
 90
       50
102
RTVSPost2010PropOp48
 70
     1
102
RTVSPost2010Prop49
280
     0
102
RTVSPost2010PropOp49
 70
     1
102
RTVSPost2010Prop50
 90
       50
102
RTVSPost2010PropOp50
 70
     1
102
RTVSPost2010Prop51ColorIndex
 90
      256
102
RTVSPost2010Prop51ColorRGB
 90
-16777216
102
RTVSPost2010PropOp51
 70
     0
102
RTVSPost2010Prop52
140
1.0
102
RTVSPost2010PropOp52
 70
     0
102
RTVSPost2010Prop53
 90
        2
102
RTVSPost2010PropOp53
 70
     1
102
RTVSPost2010Prop54
  1
strokes_ogs.tif
102
RTVSPost2010PropOp54
 70
     1
102
RTVSPost2010Prop55
280
     0
102
RTVSPost2010PropOp55
 70
     1
102
RTVSPost2010Prop56
140
1.0
102
RTVSPost2010PropOp56
 70
     1
102
RTVSPost2010Prop57
140
1.0
102
RTVSPost2010PropOp57
 70
     1
102
RTVSPropertyOp0
 70
     1
102
RTVSPropertyOp1
 70
     1
102
RTVSPropertyOp2
 70
     1
102
RTVSPropertyOp3
 70
     1
102
RTVSPropertyOp4
 70
     1
102
RTVSPropertyOp5
 70
     1
102
RTVSPropertyOp6
 70
     1
102
RTVSPropertyOp7
 70
     1
102
RTVSPropertyOp8
 70
     1
102
RTVSPropertyOp9
 70
     1
102
RTVSPropertyOp10
 70
     1
102
RTVSPropertyOp11
 70
     1
102
RTVSPropertyOp12
 70
     1
102
RTVSPropertyOp13
 70
     1
102
RTVSPropertyOp14
 70
     1
102
RTVSPropertyOp15
 70
     1
102
RTVSPropertyOp16
 70
     1
102
RTVSPropertyOp17
 70
     1
102
RTVSPropertyOp18
 70
     1
102
RTVSPropertyOp19
 70
     1
102
RTVSPropertyOp20
 70
     1
102
RTVSPropertyOp21
 70
     1
102
RTVSPropertyOp22
 70
     1
102
RTVSPropertyOp23
 70
     1
102
RTVSPropertyOp24
 70
     1
102
RTVSPropertyOp25
 70
     1
102
RTVSPropertyOp26
 70
     1
102
RTVSPropertyOp27
 70
     1
102
RTVSPropertyOp28
 70
     1
102
RTVSPropertyOp29
 70
     1
102
RTVSPropertyOp30
 70
     1
102
RTVSPropertyOp31
 70
     1
102
RTVSPropertyOp32
 70
     1
102
RTVSPropertyOp33
 70
     1
102
RTVSPropertyOp34
 70
     1
102
RTVSPropertyOp35
 70
     1
102
RTVSPropertyOp36
 70
     1
102
RTVSPropertyOp37
 70
     1
102
RTVSPropertyOp38
 70
     1
102
RTVSPropertyOp39
 70
     1
102
RTVSPropertyOp40
 70
     1
102
RTVSPropertyOp41
 70
     1
102
RTVSPropertyOp42
 70
     1
102
RTVSPropertyOp43
 70
     1
102
RTVSPropertyOp44
 70
     1
102
RTVSPropertyOp45
 70
     1
102
RTVSPropertyOp46
 70
     1
102
RTVSPropertyOp47
 70
     1
102
RTVSPropertyOp48
 70
     1
102
RTVSPropertyOp49
 70
     1
102
RTVSPropertyOp50
 70
     1
102
RTVSPropertyOp51
 70
     0
102
RTVSPropertyOp52
 70
     0
102
RTVSPropertyOp53
 70
     1
102
RTVSPropertyOp54
 70
     1
102
RTVSPropertyOp55
 70
     1
102
RTVSPropertyOp56
 70
     1
102
RTVSPropertyOp57
 70
     1
102
RTVSPropertyOp58
 70
     1
102
RTVSPropertyOp59
 70
     1
102
RTVSPropertyOp60
 70
     1
102
RTVSPropertyOp61
 70
     1
102
RTVSPropertyOp62
 70
     1
  0
XRECORD
  5
81EF
102
{ACAD_REACTORS
330
81EE
102
}
330
81EE
100
AcDbXrecord
280
     1
102
RTVSPost2010Prop28
280
     0
102
RTVSPost2010PropOp28
 70
     1
102
RTVSPost2010Prop29
280
     1
102
RTVSPost2010PropOp29
 70
     1
102
RTVSPost2010Prop30
280
     1
102
RTVSPost2010PropOp30
 70
     1
102
RTVSPost2010Prop31
280
     0
102
RTVSPost2010PropOp31
 70
     1
102
RTVSPost2010Prop32
280
     0
102
RTVSPost2010PropOp32
 70
     1
102
RTVSPost2010Prop33
280
     0
102
RTVSPost2010PropOp33
 70
     1
102
RTVSPost2010Prop34
280
     0
102
RTVSPost2010PropOp34
 70
     1
102
RTVSPost2010Prop35
280
     0
102
RTVSPost2010PropOp35
 70
     1
102
RTVSPost2010Prop36
280
     0
102
RTVSPost2010PropOp36
 70
     1
102
RTVSPost2010Prop37
 90
       50
102
RTVSPost2010PropOp37
 70
     1
102
RTVSPost2010Prop38
140
0.0
102
RTVSPost2010PropOp38
 70
     1
102
RTVSPost2010Prop39
140
1.0
102
RTVSPost2010PropOp39
 70
     1
102
RTVSPost2010Prop40
 90
        0
102
RTVSPost2010PropOp40
 70
     1
102
RTVSPost2010Prop41ColorIndex
 90
       18
102
RTVSPost2010Prop41ColorRGB
 90
        0
102
RTVSPost2010PropOp41
 70
     1
102
RTVSPost2010Prop42
 90
       50
102
RTVSPost2010PropOp42
 70
     1
102
RTVSPost2010Prop43
 90
        3
102
RTVSPost2010PropOp43
 70
     1
102
RTVSPost2010Prop44ColorIndex
 90
        5
102
RTVSPost2010Prop44ColorRGB
 90
      255
102
RTVSPost2010PropOp44
 70
     1
102
RTVSPost2010Prop45
280
     0
102
RTVSPost2010PropOp45
 70
     1
102
RTVSPost2010Prop46
 90
       50
102
RTVSPost2010PropOp46
 70
     1
102
RTVSPost2010Prop47
 90
       50
102
RTVSPost2010PropOp47
 70
     1
102
RTVSPost2010Prop48
 90
       50
102
RTVSPost2010PropOp48
 70
     1
102
RTVSPost2010Prop49
280
     0
102
RTVSPost2010PropOp49
 70
     1
102
RTVSPost2010Prop50
 90
       50
102
RTVSPost2010PropOp50
 70
     1
102
RTVSPost2010Prop51ColorIndex
 90
      256
102
RTVSPost2010Prop51ColorRGB
 90
-16777216
102
RTVSPost2010PropOp51
 70
     0
102
RTVSPost2010Prop52
140
1.0
102
RTVSPost2010PropOp52
 70
     0
102
RTVSPost2010Prop53
 90
        2
102
RTVSPost2010PropOp53
 70
     1
102
RTVSPost2010Prop54
  1
strokes_ogs.tif
102
RTVSPost2010PropOp54
 70
     1
102
RTVSPost2010Prop55
280
     0
102
RTVSPost2010PropOp55
 70
     1
102
RTVSPost2010Prop56
140
1.0
102
RTVSPost2010PropOp56
 70
     1
102
RTVSPost2010Prop57
140
1.0
102
RTVSPost2010PropOp57
 70
     1
102
RTVSPropertyOp0
 70
     1
102
RTVSPropertyOp1
 70
     1
102
RTVSPropertyOp2
 70
     1
102
RTVSPropertyOp3
 70
     1
102
RTVSPropertyOp4
 70
     1
102
RTVSPropertyOp5
 70
     1
102
RTVSPropertyOp6
 70
     1
102
RTVSPropertyOp7
 70
     1
102
RTVSPropertyOp8
 70
     1
102
RTVSPropertyOp9
 70
     1
102
RTVSPropertyOp10
 70
     1
102
RTVSPropertyOp11
 70
     1
102
RTVSPropertyOp12
 70
     1
102
RTVSPropertyOp13
 70
     1
102
RTVSPropertyOp14
 70
     1
102
RTVSPropertyOp15
 70
     1
102
RTVSPropertyOp16
 70
     1
102
RTVSPropertyOp17
 70
     1
102
RTVSPropertyOp18
 70
     1
102
RTVSPropertyOp19
 70
     1
102
RTVSPropertyOp20
 70
     1
102
RTVSPropertyOp21
 70
     1
102
RTVSPropertyOp22
 70
     1
102
RTVSPropertyOp23
 70
     1
102
RTVSPropertyOp24
 70
     1
102
RTVSPropertyOp25
 70
     1
102
RTVSPropertyOp26
 70
     1
102
RTVSPropertyOp27
 70
     1
102
RTVSPropertyOp28
 70
     1
102
RTVSPropertyOp29
 70
     1
102
RTVSPropertyOp30
 70
     1
102
RTVSPropertyOp31
 70
     1
102
RTVSPropertyOp32
 70
     1
102
RTVSPropertyOp33
 70
     1
102
RTVSPropertyOp34
 70
     1
102
RTVSPropertyOp35
 70
     1
102
RTVSPropertyOp36
 70
     1
102
RTVSPropertyOp37
 70
     1
102
RTVSPropertyOp38
 70
     1
102
RTVSPropertyOp39
 70
     1
102
RTVSPropertyOp40
 70
     1
102
RTVSPropertyOp41
 70
     1
102
RTVSPropertyOp42
 70
     1
102
RTVSPropertyOp43
 70
     1
102
RTVSPropertyOp44
 70
     1
102
RTVSPropertyOp45
 70
     1
102
RTVSPropertyOp46
 70
     1
102
RTVSPropertyOp47
 70
     1
102
RTVSPropertyOp48
 70
     1
102
RTVSPropertyOp49
 70
     1
102
RTVSPropertyOp50
 70
     1
102
RTVSPropertyOp51
 70
     0
102
RTVSPropertyOp52
 70
     0
102
RTVSPropertyOp53
 70
     1
102
RTVSPropertyOp54
 70
     1
102
RTVSPropertyOp55
 70
     1
102
RTVSPropertyOp56
 70
     1
102
RTVSPropertyOp57
 70
     1
102
RTVSPropertyOp58
 70
     1
102
RTVSPropertyOp59
 70
     1
102
RTVSPropertyOp60
 70
     1
102
RTVSPropertyOp61
 70
     1
102
RTVSPropertyOp62
 70
     1
  0
XRECORD
  5
81F7
102
{ACAD_REACTORS
330
81F6
102
}
330
81F6
100
AcDbXrecord
280
     1
102
RTVSPost2010Prop28
280
     0
102
RTVSPost2010PropOp28
 70
     1
102
RTVSPost2010Prop29
280
     1
102
RTVSPost2010PropOp29
 70
     1
102
RTVSPost2010Prop30
280
     1
102
RTVSPost2010PropOp30
 70
     1
102
RTVSPost2010Prop31
280
     0
102
RTVSPost2010PropOp31
 70
     1
102
RTVSPost2010Prop32
280
     0
102
RTVSPost2010PropOp32
 70
     1
102
RTVSPost2010Prop33
280
     0
102
RTVSPost2010PropOp33
 70
     1
102
RTVSPost2010Prop34
280
     0
102
RTVSPost2010PropOp34
 70
     1
102
RTVSPost2010Prop35
280
     0
102
RTVSPost2010PropOp35
 70
     1
102
RTVSPost2010Prop36
280
     0
102
RTVSPost2010PropOp36
 70
     1
102
RTVSPost2010Prop37
 90
       50
102
RTVSPost2010PropOp37
 70
     1
102
RTVSPost2010Prop38
140
0.0
102
RTVSPost2010PropOp38
 70
     1
102
RTVSPost2010Prop39
140
1.0
102
RTVSPost2010PropOp39
 70
     1
102
RTVSPost2010Prop40
 90
        0
102
RTVSPost2010PropOp40
 70
     1
102
RTVSPost2010Prop41ColorIndex
 90
       18
102
RTVSPost2010Prop41ColorRGB
 90
        0
102
RTVSPost2010PropOp41
 70
     1
102
RTVSPost2010Prop42
 90
       50
102
RTVSPost2010PropOp42
 70
     1
102
RTVSPost2010Prop43
 90
        3
102
RTVSPost2010PropOp43
 70
     1
102
RTVSPost2010Prop44ColorIndex
 90
        5
102
RTVSPost2010Prop44ColorRGB
 90
      255
102
RTVSPost2010PropOp44
 70
     1
102
RTVSPost2010Prop45
280
     0
102
RTVSPost2010PropOp45
 70
     1
102
RTVSPost2010Prop46
 90
       50
102
RTVSPost2010PropOp46
 70
     1
102
RTVSPost2010Prop47
 90
       50
102
RTVSPost2010PropOp47
 70
     1
102
RTVSPost2010Prop48
 90
       50
102
RTVSPost2010PropOp48
 70
     1
102
RTVSPost2010Prop49
280
     0
102
RTVSPost2010PropOp49
 70
     1
102
RTVSPost2010Prop50
 90
       50
102
RTVSPost2010PropOp50
 70
     1
102
RTVSPost2010Prop51ColorIndex
 90
      256
102
RTVSPost2010Prop51ColorRGB
 90
-16777216
102
RTVSPost2010PropOp51
 70
     0
102
RTVSPost2010Prop52
140
1.0
102
RTVSPost2010PropOp52
 70
     0
102
RTVSPost2010Prop53
 90
        2
102
RTVSPost2010PropOp53
 70
     1
102
RTVSPost2010Prop54
  1
strokes_ogs.tif
102
RTVSPost2010PropOp54
 70
     1
102
RTVSPost2010Prop55
280
     0
102
RTVSPost2010PropOp55
 70
     1
102
RTVSPost2010Prop56
140
1.0
102
RTVSPost2010PropOp56
 70
     1
102
RTVSPost2010Prop57
140
1.0
102
RTVSPost2010PropOp57
 70
     1
102
RTVSPropertyOp0
 70
     1
102
RTVSPropertyOp1
 70
     1
102
RTVSPropertyOp2
 70
     1
102
RTVSPropertyOp3
 70
     1
102
RTVSPropertyOp4
 70
     1
102
RTVSPropertyOp5
 70
     1
102
RTVSPropertyOp6
 70
     1
102
RTVSPropertyOp7
 70
     1
102
RTVSPropertyOp8
 70
     1
102
RTVSPropertyOp9
 70
     1
102
RTVSPropertyOp10
 70
     1
102
RTVSPropertyOp11
 70
     1
102
RTVSPropertyOp12
 70
     1
102
RTVSPropertyOp13
 70
     1
102
RTVSPropertyOp14
 70
     1
102
RTVSPropertyOp15
 70
     1
102
RTVSPropertyOp16
 70
     1
102
RTVSPropertyOp17
 70
     1
102
RTVSPropertyOp18
 70
     1
102
RTVSPropertyOp19
 70
     1
102
RTVSPropertyOp20
 70
     1
102
RTVSPropertyOp21
 70
     1
102
RTVSPropertyOp22
 70
     1
102
RTVSPropertyOp23
 70
     1
102
RTVSPropertyOp24
 70
     1
102
RTVSPropertyOp25
 70
     1
102
RTVSPropertyOp26
 70
     1
102
RTVSPropertyOp27
 70
     1
102
RTVSPropertyOp28
 70
     1
102
RTVSPropertyOp29
 70
     1
102
RTVSPropertyOp30
 70
     1
102
RTVSPropertyOp31
 70
     1
102
RTVSPropertyOp32
 70
     1
102
RTVSPropertyOp33
 70
     1
102
RTVSPropertyOp34
 70
     1
102
RTVSPropertyOp35
 70
     1
102
RTVSPropertyOp36
 70
     1
102
RTVSPropertyOp37
 70
     1
102
RTVSPropertyOp38
 70
     1
102
RTVSPropertyOp39
 70
     1
102
RTVSPropertyOp40
 70
     1
102
RTVSPropertyOp41
 70
     1
102
RTVSPropertyOp42
 70
     1
102
RTVSPropertyOp43
 70
     1
102
RTVSPropertyOp44
 70
     1
102
RTVSPropertyOp45
 70
     1
102
RTVSPropertyOp46
 70
     1
102
RTVSPropertyOp47
 70
     1
102
RTVSPropertyOp48
 70
     1
102
RTVSPropertyOp49
 70
     1
102
RTVSPropertyOp50
 70
     1
102
RTVSPropertyOp51
 70
     0
102
RTVSPropertyOp52
 70
     0
102
RTVSPropertyOp53
 70
     1
102
RTVSPropertyOp54
 70
     1
102
RTVSPropertyOp55
 70
     1
102
RTVSPropertyOp56
 70
     1
102
RTVSPropertyOp57
 70
     1
102
RTVSPropertyOp58
 70
     1
102
RTVSPropertyOp59
 70
     1
102
RTVSPropertyOp60
 70
     1
102
RTVSPropertyOp61
 70
     1
102
RTVSPropertyOp62
 70
     1
  0
XRECORD
  5
81E9
102
{ACAD_REACTORS
330
81E8
102
}
330
81E8
100
AcDbXrecord
280
     1
102
RTVSPost2010Prop28
280
     0
102
RTVSPost2010PropOp28
 70
     1
102
RTVSPost2010Prop29
280
     1
102
RTVSPost2010PropOp29
 70
     1
102
RTVSPost2010Prop30
280
     1
102
RTVSPost2010PropOp30
 70
     1
102
RTVSPost2010Prop31
280
     0
102
RTVSPost2010PropOp31
 70
     1
102
RTVSPost2010Prop32
280
     0
102
RTVSPost2010PropOp32
 70
     1
102
RTVSPost2010Prop33
280
     0
102
RTVSPost2010PropOp33
 70
     1
102
RTVSPost2010Prop34
280
     0
102
RTVSPost2010PropOp34
 70
     1
102
RTVSPost2010Prop35
280
     0
102
RTVSPost2010PropOp35
 70
     1
102
RTVSPost2010Prop36
280
     0
102
RTVSPost2010PropOp36
 70
     1
102
RTVSPost2010Prop37
 90
       50
102
RTVSPost2010PropOp37
 70
     1
102
RTVSPost2010Prop38
140
0.0
102
RTVSPost2010PropOp38
 70
     1
102
RTVSPost2010Prop39
140
1.0
102
RTVSPost2010PropOp39
 70
     1
102
RTVSPost2010Prop40
 90
        0
102
RTVSPost2010PropOp40
 70
     1
102
RTVSPost2010Prop41ColorIndex
 90
       18
102
RTVSPost2010Prop41ColorRGB
 90
        0
102
RTVSPost2010PropOp41
 70
     1
102
RTVSPost2010Prop42
 90
       50
102
RTVSPost2010PropOp42
 70
     1
102
RTVSPost2010Prop43
 90
        3
102
RTVSPost2010PropOp43
 70
     1
102
RTVSPost2010Prop44ColorIndex
 90
        5
102
RTVSPost2010Prop44ColorRGB
 90
      255
102
RTVSPost2010PropOp44
 70
     1
102
RTVSPost2010Prop45
280
     0
102
RTVSPost2010PropOp45
 70
     1
102
RTVSPost2010Prop46
 90
       50
102
RTVSPost2010PropOp46
 70
     1
102
RTVSPost2010Prop47
 90
       50
102
RTVSPost2010PropOp47
 70
     1
102
RTVSPost2010Prop48
 90
       50
102
RTVSPost2010PropOp48
 70
     1
102
RTVSPost2010Prop49
280
     0
102
RTVSPost2010PropOp49
 70
     1
102
RTVSPost2010Prop50
 90
       50
102
RTVSPost2010PropOp50
 70
     1
102
RTVSPost2010Prop51ColorIndex
 90
      256
102
RTVSPost2010Prop51ColorRGB
 90
-16777216
102
RTVSPost2010PropOp51
 70
     0
102
RTVSPost2010Prop52
140
1.0
102
RTVSPost2010PropOp52
 70
     0
102
RTVSPost2010Prop53
 90
        2
102
RTVSPost2010PropOp53
 70
     1
102
RTVSPost2010Prop54
  1
strokes_ogs.tif
102
RTVSPost2010PropOp54
 70
     1
102
RTVSPost2010Prop55
280
     0
102
RTVSPost2010PropOp55
 70
     1
102
RTVSPost2010Prop56
140
1.0
102
RTVSPost2010PropOp56
 70
     1
102
RTVSPost2010Prop57
140
1.0
102
RTVSPost2010PropOp57
 70
     1
102
RTVSPropertyOp0
 70
     1
102
RTVSPropertyOp1
 70
     1
102
RTVSPropertyOp2
 70
     1
102
RTVSPropertyOp3
 70
     1
102
RTVSPropertyOp4
 70
     1
102
RTVSPropertyOp5
 70
     1
102
RTVSPropertyOp6
 70
     1
102
RTVSPropertyOp7
 70
     1
102
RTVSPropertyOp8
 70
     1
102
RTVSPropertyOp9
 70
     1
102
RTVSPropertyOp10
 70
     1
102
RTVSPropertyOp11
 70
     1
102
RTVSPropertyOp12
 70
     1
102
RTVSPropertyOp13
 70
     1
102
RTVSPropertyOp14
 70
     1
102
RTVSPropertyOp15
 70
     1
102
RTVSPropertyOp16
 70
     1
102
RTVSPropertyOp17
 70
     1
102
RTVSPropertyOp18
 70
     1
102
RTVSPropertyOp19
 70
     1
102
RTVSPropertyOp20
 70
     1
102
RTVSPropertyOp21
 70
     1
102
RTVSPropertyOp22
 70
     1
102
RTVSPropertyOp23
 70
     1
102
RTVSPropertyOp24
 70
     1
102
RTVSPropertyOp25
 70
     1
102
RTVSPropertyOp26
 70
     1
102
RTVSPropertyOp27
 70
     1
102
RTVSPropertyOp28
 70
     1
102
RTVSPropertyOp29
 70
     1
102
RTVSPropertyOp30
 70
     1
102
RTVSPropertyOp31
 70
     1
102
RTVSPropertyOp32
 70
     1
102
RTVSPropertyOp33
 70
     1
102
RTVSPropertyOp34
 70
     1
102
RTVSPropertyOp35
 70
     1
102
RTVSPropertyOp36
 70
     1
102
RTVSPropertyOp37
 70
     1
102
RTVSPropertyOp38
 70
     1
102
RTVSPropertyOp39
 70
     1
102
RTVSPropertyOp40
 70
     1
102
RTVSPropertyOp41
 70
     1
102
RTVSPropertyOp42
 70
     1
102
RTVSPropertyOp43
 70
     1
102
RTVSPropertyOp44
 70
     1
102
RTVSPropertyOp45
 70
     1
102
RTVSPropertyOp46
 70
     1
102
RTVSPropertyOp47
 70
     1
102
RTVSPropertyOp48
 70
     1
102
RTVSPropertyOp49
 70
     1
102
RTVSPropertyOp50
 70
     1
102
RTVSPropertyOp51
 70
     0
102
RTVSPropertyOp52
 70
     0
102
RTVSPropertyOp53
 70
     1
102
RTVSPropertyOp54
 70
     1
102
RTVSPropertyOp55
 70
     1
102
RTVSPropertyOp56
 70
     1
102
RTVSPropertyOp57
 70
     1
102
RTVSPropertyOp58
 70
     1
102
RTVSPropertyOp59
 70
     1
102
RTVSPropertyOp60
 70
     1
102
RTVSPropertyOp61
 70
     1
102
RTVSPropertyOp62
 70
     1
  0
XRECORD
  5
81ED
102
{ACAD_REACTORS
330
81EC
102
}
330
81EC
100
AcDbXrecord
280
     1
102
RTVSPost2010Prop28
280
     0
102
RTVSPost2010PropOp28
 70
     1
102
RTVSPost2010Prop29
280
     1
102
RTVSPost2010PropOp29
 70
     1
102
RTVSPost2010Prop30
280
     1
102
RTVSPost2010PropOp30
 70
     1
102
RTVSPost2010Prop31
280
     0
102
RTVSPost2010PropOp31
 70
     1
102
RTVSPost2010Prop32
280
     0
102
RTVSPost2010PropOp32
 70
     1
102
RTVSPost2010Prop33
280
     0
102
RTVSPost2010PropOp33
 70
     1
102
RTVSPost2010Prop34
280
     0
102
RTVSPost2010PropOp34
 70
     1
102
RTVSPost2010Prop35
280
     0
102
RTVSPost2010PropOp35
 70
     1
102
RTVSPost2010Prop36
280
     0
102
RTVSPost2010PropOp36
 70
     1
102
RTVSPost2010Prop37
 90
       50
102
RTVSPost2010PropOp37
 70
     1
102
RTVSPost2010Prop38
140
0.0
102
RTVSPost2010PropOp38
 70
     1
102
RTVSPost2010Prop39
140
1.0
102
RTVSPost2010PropOp39
 70
     1
102
RTVSPost2010Prop40
 90
        0
102
RTVSPost2010PropOp40
 70
     1
102
RTVSPost2010Prop41ColorIndex
 90
       18
102
RTVSPost2010Prop41ColorRGB
 90
        0
102
RTVSPost2010PropOp41
 70
     1
102
RTVSPost2010Prop42
 90
       50
102
RTVSPost2010PropOp42
 70
     1
102
RTVSPost2010Prop43
 90
        3
102
RTVSPost2010PropOp43
 70
     1
102
RTVSPost2010Prop44ColorIndex
 90
        5
102
RTVSPost2010Prop44ColorRGB
 90
      255
102
RTVSPost2010PropOp44
 70
     1
102
RTVSPost2010Prop45
280
     0
102
RTVSPost2010PropOp45
 70
     1
102
RTVSPost2010Prop46
 90
       50
102
RTVSPost2010PropOp46
 70
     1
102
RTVSPost2010Prop47
 90
       50
102
RTVSPost2010PropOp47
 70
     1
102
RTVSPost2010Prop48
 90
       50
102
RTVSPost2010PropOp48
 70
     1
102
RTVSPost2010Prop49
280
     0
102
RTVSPost2010PropOp49
 70
     1
102
RTVSPost2010Prop50
 90
       50
102
RTVSPost2010PropOp50
 70
     1
102
RTVSPost2010Prop51ColorIndex
 90
      256
102
RTVSPost2010Prop51ColorRGB
 90
-16777216
102
RTVSPost2010PropOp51
 70
     0
102
RTVSPost2010Prop52
140
1.0
102
RTVSPost2010PropOp52
 70
     0
102
RTVSPost2010Prop53
 90
        2
102
RTVSPost2010PropOp53
 70
     1
102
RTVSPost2010Prop54
  1
strokes_ogs.tif
102
RTVSPost2010PropOp54
 70
     1
102
RTVSPost2010Prop55
280
     0
102
RTVSPost2010PropOp55
 70
     1
102
RTVSPost2010Prop56
140
1.0
102
RTVSPost2010PropOp56
 70
     1
102
RTVSPost2010Prop57
140
1.0
102
RTVSPost2010PropOp57
 70
     1
102
RTVSPropertyOp0
 70
     1
102
RTVSPropertyOp1
 70
     1
102
RTVSPropertyOp2
 70
     1
102
RTVSPropertyOp3
 70
     1
102
RTVSPropertyOp4
 70
     1
102
RTVSPropertyOp5
 70
     1
102
RTVSPropertyOp6
 70
     1
102
RTVSPropertyOp7
 70
     1
102
RTVSPropertyOp8
 70
     1
102
RTVSPropertyOp9
 70
     1
102
RTVSPropertyOp10
 70
     1
102
RTVSPropertyOp11
 70
     1
102
RTVSPropertyOp12
 70
     1
102
RTVSPropertyOp13
 70
     1
102
RTVSPropertyOp14
 70
     1
102
RTVSPropertyOp15
 70
     1
102
RTVSPropertyOp16
 70
     1
102
RTVSPropertyOp17
 70
     1
102
RTVSPropertyOp18
 70
     1
102
RTVSPropertyOp19
 70
     1
102
RTVSPropertyOp20
 70
     1
102
RTVSPropertyOp21
 70
     1
102
RTVSPropertyOp22
 70
     1
102
RTVSPropertyOp23
 70
     1
102
RTVSPropertyOp24
 70
     1
102
RTVSPropertyOp25
 70
     1
102
RTVSPropertyOp26
 70
     1
102
RTVSPropertyOp27
 70
     1
102
RTVSPropertyOp28
 70
     1
102
RTVSPropertyOp29
 70
     1
102
RTVSPropertyOp30
 70
     1
102
RTVSPropertyOp31
 70
     1
102
RTVSPropertyOp32
 70
     1
102
RTVSPropertyOp33
 70
     1
102
RTVSPropertyOp34
 70
     1
102
RTVSPropertyOp35
 70
     1
102
RTVSPropertyOp36
 70
     1
102
RTVSPropertyOp37
 70
     1
102
RTVSPropertyOp38
 70
     1
102
RTVSPropertyOp39
 70
     1
102
RTVSPropertyOp40
 70
     1
102
RTVSPropertyOp41
 70
     1
102
RTVSPropertyOp42
 70
     1
102
RTVSPropertyOp43
 70
     1
102
RTVSPropertyOp44
 70
     1
102
RTVSPropertyOp45
 70
     1
102
RTVSPropertyOp46
 70
     1
102
RTVSPropertyOp47
 70
     1
102
RTVSPropertyOp48
 70
     1
102
RTVSPropertyOp49
 70
     1
102
RTVSPropertyOp50
 70
     1
102
RTVSPropertyOp51
 70
     0
102
RTVSPropertyOp52
 70
     0
102
RTVSPropertyOp53
 70
     1
102
RTVSPropertyOp54
 70
     1
102
RTVSPropertyOp55
 70
     1
102
RTVSPropertyOp56
 70
     1
102
RTVSPropertyOp57
 70
     1
102
RTVSPropertyOp58
 70
     1
102
RTVSPropertyOp59
 70
     1
102
RTVSPropertyOp60
 70
     1
102
RTVSPropertyOp61
 70
     1
102
RTVSPropertyOp62
 70
     1
  0
XRECORD
  5
8207
102
{ACAD_REACTORS
330
8206
102
}
330
8206
100
AcDbXrecord
280
     1
102
RTVSPost2010Prop28
280
     0
102
RTVSPost2010PropOp28
 70
     1
102
RTVSPost2010Prop29
280
     1
102
RTVSPost2010PropOp29
 70
     1
102
RTVSPost2010Prop30
280
     1
102
RTVSPost2010PropOp30
 70
     1
102
RTVSPost2010Prop31
280
     0
102
RTVSPost2010PropOp31
 70
     1
102
RTVSPost2010Prop32
280
     0
102
RTVSPost2010PropOp32
 70
     1
102
RTVSPost2010Prop33
280
     0
102
RTVSPost2010PropOp33
 70
     1
102
RTVSPost2010Prop34
280
     0
102
RTVSPost2010PropOp34
 70
     1
102
RTVSPost2010Prop35
280
     0
102
RTVSPost2010PropOp35
 70
     1
102
RTVSPost2010Prop36
280
     0
102
RTVSPost2010PropOp36
 70
     1
102
RTVSPost2010Prop37
 90
       50
102
RTVSPost2010PropOp37
 70
     0
102
RTVSPost2010Prop38
140
0.0
102
RTVSPost2010PropOp38
 70
     0
102
RTVSPost2010Prop39
140
1.0
102
RTVSPost2010PropOp39
 70
     0
102
RTVSPost2010Prop40
 90
        0
102
RTVSPost2010PropOp40
 70
     0
102
RTVSPost2010Prop41ColorIndex
 90
       18
102
RTVSPost2010Prop41ColorRGB
 90
        0
102
RTVSPost2010PropOp41
 70
     0
102
RTVSPost2010Prop42
 90
       50
102
RTVSPost2010PropOp42
 70
     0
102
RTVSPost2010Prop43
 90
        3
102
RTVSPost2010PropOp43
 70
     0
102
RTVSPost2010Prop44ColorIndex
 90
        5
102
RTVSPost2010Prop44ColorRGB
 90
      255
102
RTVSPost2010PropOp44
 70
     0
102
RTVSPost2010Prop45
280
     0
102
RTVSPost2010PropOp45
 70
     1
102
RTVSPost2010Prop46
 90
       50
102
RTVSPost2010PropOp46
 70
     0
102
RTVSPost2010Prop47
 90
       50
102
RTVSPost2010PropOp47
 70
     0
102
RTVSPost2010Prop48
 90
       50
102
RTVSPost2010PropOp48
 70
     0
102
RTVSPost2010Prop49
280
     0
102
RTVSPost2010PropOp49
 70
     1
102
RTVSPost2010Prop50
 90
       50
102
RTVSPost2010PropOp50
 70
     0
102
RTVSPost2010Prop51ColorIndex
 90
      256
102
RTVSPost2010Prop51ColorRGB
 90
-16777216
102
RTVSPost2010PropOp51
 70
     0
102
RTVSPost2010Prop52
140
1.0
102
RTVSPost2010PropOp52
 70
     0
102
RTVSPost2010Prop53
 90
        2
102
RTVSPost2010PropOp53
 70
     0
102
RTVSPost2010Prop54
  1
strokes_ogs.tif
102
RTVSPost2010PropOp54
 70
     0
102
RTVSPost2010Prop55
280
     0
102
RTVSPost2010PropOp55
 70
     1
102
RTVSPost2010Prop56
140
1.0
102
RTVSPost2010PropOp56
 70
     0
102
RTVSPost2010Prop57
140
1.0
102
RTVSPost2010PropOp57
 70
     0
102
RTVSPropertyOp0
 70
     0
102
RTVSPropertyOp1
 70
     0
102
RTVSPropertyOp2
 70
     0
102
RTVSPropertyOp3
 70
     0
102
RTVSPropertyOp4
 70
     0
102
RTVSPropertyOp5
 70
     0
102
RTVSPropertyOp6
 70
     0
102
RTVSPropertyOp7
 70
     0
102
RTVSPropertyOp8
 70
     0
102
RTVSPropertyOp9
 70
     0
102
RTVSPropertyOp10
 70
     0
102
RTVSPropertyOp11
 70
     0
102
RTVSPropertyOp12
 70
     0
102
RTVSPropertyOp13
 70
     0
102
RTVSPropertyOp14
 70
     2
102
RTVSPropertyOp15
 70
     0
102
RTVSPropertyOp16
 70
     0
102
RTVSPropertyOp17
 70
     0
102
RTVSPropertyOp18
 70
     0
102
RTVSPropertyOp19
 70
     0
102
RTVSPropertyOp20
 70
     0
102
RTVSPropertyOp21
 70
     0
102
RTVSPropertyOp22
 70
     0
102
RTVSPropertyOp23
 70
     0
102
RTVSPropertyOp24
 70
     0
102
RTVSPropertyOp25
 70
     0
102
RTVSPropertyOp26
 70
     0
102
RTVSPropertyOp27
 70
     0
102
RTVSPropertyOp28
 70
     1
102
RTVSPropertyOp29
 70
     1
102
RTVSPropertyOp30
 70
     1
102
RTVSPropertyOp31
 70
     1
102
RTVSPropertyOp32
 70
     1
102
RTVSPropertyOp33
 70
     1
102
RTVSPropertyOp34
 70
     1
102
RTVSPropertyOp35
 70
     1
102
RTVSPropertyOp36
 70
     1
102
RTVSPropertyOp37
 70
     0
102
RTVSPropertyOp38
 70
     0
102
RTVSPropertyOp39
 70
     0
102
RTVSPropertyOp40
 70
     0
102
RTVSPropertyOp41
 70
     0
102
RTVSPropertyOp42
 70
     0
102
RTVSPropertyOp43
 70
     0
102
RTVSPropertyOp44
 70
     0
102
RTVSPropertyOp45
 70
     1
102
RTVSPropertyOp46
 70
     0
102
RTVSPropertyOp47
 70
     0
102
RTVSPropertyOp48
 70
     0
102
RTVSPropertyOp49
 70
     1
102
RTVSPropertyOp50
 70
     0
102
RTVSPropertyOp51
 70
     0
102
RTVSPropertyOp52
 70
     0
102
RTVSPropertyOp53
 70
     0
102
RTVSPropertyOp54
 70
     0
102
RTVSPropertyOp55
 70
     1
102
RTVSPropertyOp56
 70
     0
102
RTVSPropertyOp57
 70
     0
102
RTVSPropertyOp58
 70
     0
102
RTVSPropertyOp59
 70
     0
102
RTVSPropertyOp60
 70
     0
102
RTVSPropertyOp61
 70
     0
102
RTVSPropertyOp62
 70
     0
  0
XRECORD
  5
81F5
102
{ACAD_REACTORS
330
81F4
102
}
330
81F4
100
AcDbXrecord
280
     1
102
RTVSPost2010Prop28
280
     0
102
RTVSPost2010PropOp28
 70
     1
102
RTVSPost2010Prop29
280
     1
102
RTVSPost2010PropOp29
 70
     1
102
RTVSPost2010Prop30
280
     1
102
RTVSPost2010PropOp30
 70
     1
102
RTVSPost2010Prop31
280
     0
102
RTVSPost2010PropOp31
 70
     1
102
RTVSPost2010Prop32
280
     0
102
RTVSPost2010PropOp32
 70
     1
102
RTVSPost2010Prop33
280
     0
102
RTVSPost2010PropOp33
 70
     1
102
RTVSPost2010Prop34
280
     0
102
RTVSPost2010PropOp34
 70
     1
102
RTVSPost2010Prop35
280
     0
102
RTVSPost2010PropOp35
 70
     1
102
RTVSPost2010Prop36
280
     0
102
RTVSPost2010PropOp36
 70
     1
102
RTVSPost2010Prop37
 90
       50
102
RTVSPost2010PropOp37
 70
     1
102
RTVSPost2010Prop38
140
0.0
102
RTVSPost2010PropOp38
 70
     1
102
RTVSPost2010Prop39
140
1.0
102
RTVSPost2010PropOp39
 70
     1
102
RTVSPost2010Prop40
 90
        0
102
RTVSPost2010PropOp40
 70
     1
102
RTVSPost2010Prop41ColorIndex
 90
       18
102
RTVSPost2010Prop41ColorRGB
 90
        0
102
RTVSPost2010PropOp41
 70
     1
102
RTVSPost2010Prop42
 90
       50
102
RTVSPost2010PropOp42
 70
     1
102
RTVSPost2010Prop43
 90
        3
102
RTVSPost2010PropOp43
 70
     1
102
RTVSPost2010Prop44ColorIndex
 90
        5
102
RTVSPost2010Prop44ColorRGB
 90
      255
102
RTVSPost2010PropOp44
 70
     1
102
RTVSPost2010Prop45
280
     0
102
RTVSPost2010PropOp45
 70
     1
102
RTVSPost2010Prop46
 90
       50
102
RTVSPost2010PropOp46
 70
     1
102
RTVSPost2010Prop47
 90
       50
102
RTVSPost2010PropOp47
 70
     1
102
RTVSPost2010Prop48
 90
       50
102
RTVSPost2010PropOp48
 70
     1
102
RTVSPost2010Prop49
280
     0
102
RTVSPost2010PropOp49
 70
     1
102
RTVSPost2010Prop50
 90
       50
102
RTVSPost2010PropOp50
 70
     1
102
RTVSPost2010Prop51ColorIndex
 90
      256
102
RTVSPost2010Prop51ColorRGB
 90
-16777216
102
RTVSPost2010PropOp51
 70
     0
102
RTVSPost2010Prop52
140
1.0
102
RTVSPost2010PropOp52
 70
     0
102
RTVSPost2010Prop53
 90
        2
102
RTVSPost2010PropOp53
 70
     1
102
RTVSPost2010Prop54
  1
strokes_ogs.tif
102
RTVSPost2010PropOp54
 70
     1
102
RTVSPost2010Prop55
280
     0
102
RTVSPost2010PropOp55
 70
     1
102
RTVSPost2010Prop56
140
1.0
102
RTVSPost2010PropOp56
 70
     1
102
RTVSPost2010Prop57
140
1.0
102
RTVSPost2010PropOp57
 70
     1
102
RTVSPropertyOp0
 70
     1
102
RTVSPropertyOp1
 70
     1
102
RTVSPropertyOp2
 70
     1
102
RTVSPropertyOp3
 70
     1
102
RTVSPropertyOp4
 70
     1
102
RTVSPropertyOp5
 70
     1
102
RTVSPropertyOp6
 70
     1
102
RTVSPropertyOp7
 70
     1
102
RTVSPropertyOp8
 70
     1
102
RTVSPropertyOp9
 70
     1
102
RTVSPropertyOp10
 70
     1
102
RTVSPropertyOp11
 70
     1
102
RTVSPropertyOp12
 70
     1
102
RTVSPropertyOp13
 70
     1
102
RTVSPropertyOp14
 70
     1
102
RTVSPropertyOp15
 70
     1
102
RTVSPropertyOp16
 70
     1
102
RTVSPropertyOp17
 70
     1
102
RTVSPropertyOp18
 70
     1
102
RTVSPropertyOp19
 70
     1
102
RTVSPropertyOp20
 70
     1
102
RTVSPropertyOp21
 70
     1
102
RTVSPropertyOp22
 70
     1
102
RTVSPropertyOp23
 70
     1
102
RTVSPropertyOp24
 70
     1
102
RTVSPropertyOp25
 70
     1
102
RTVSPropertyOp26
 70
     1
102
RTVSPropertyOp27
 70
     1
102
RTVSPropertyOp28
 70
     1
102
RTVSPropertyOp29
 70
     1
102
RTVSPropertyOp30
 70
     1
102
RTVSPropertyOp31
 70
     1
102
RTVSPropertyOp32
 70
     1
102
RTVSPropertyOp33
 70
     1
102
RTVSPropertyOp34
 70
     1
102
RTVSPropertyOp35
 70
     1
102
RTVSPropertyOp36
 70
     1
102
RTVSPropertyOp37
 70
     1
102
RTVSPropertyOp38
 70
     1
102
RTVSPropertyOp39
 70
     1
102
RTVSPropertyOp40
 70
     1
102
RTVSPropertyOp41
 70
     1
102
RTVSPropertyOp42
 70
     1
102
RTVSPropertyOp43
 70
     1
102
RTVSPropertyOp44
 70
     1
102
RTVSPropertyOp45
 70
     1
102
RTVSPropertyOp46
 70
     1
102
RTVSPropertyOp47
 70
     1
102
RTVSPropertyOp48
 70
     1
102
RTVSPropertyOp49
 70
     1
102
RTVSPropertyOp50
 70
     1
102
RTVSPropertyOp51
 70
     0
102
RTVSPropertyOp52
 70
     0
102
RTVSPropertyOp53
 70
     1
102
RTVSPropertyOp54
 70
     1
102
RTVSPropertyOp55
 70
     1
102
RTVSPropertyOp56
 70
     1
102
RTVSPropertyOp57
 70
     1
102
RTVSPropertyOp58
 70
     1
102
RTVSPropertyOp59
 70
     1
102
RTVSPropertyOp60
 70
     1
102
RTVSPropertyOp61
 70
     1
102
RTVSPropertyOp62
 70
     1
  0
XRECORD
  5
81D9
102
{ACAD_REACTORS
330
81D8
102
}
330
81D8
100
AcDbXrecord
280
     1
102
RTVSPost2010Prop28
280
     0
102
RTVSPost2010PropOp28
 70
     1
102
RTVSPost2010Prop29
280
     1
102
RTVSPost2010PropOp29
 70
     1
102
RTVSPost2010Prop30
280
     1
102
RTVSPost2010PropOp30
 70
     1
102
RTVSPost2010Prop31
280
     0
102
RTVSPost2010PropOp31
 70
     1
102
RTVSPost2010Prop32
280
     0
102
RTVSPost2010PropOp32
 70
     1
102
RTVSPost2010Prop33
280
     0
102
RTVSPost2010PropOp33
 70
     1
102
RTVSPost2010Prop34
280
     0
102
RTVSPost2010PropOp34
 70
     1
102
RTVSPost2010Prop35
280
     0
102
RTVSPost2010PropOp35
 70
     1
102
RTVSPost2010Prop36
280
     0
102
RTVSPost2010PropOp36
 70
     1
102
RTVSPost2010Prop37
 90
       50
102
RTVSPost2010PropOp37
 70
     1
102
RTVSPost2010Prop38
140
0.0
102
RTVSPost2010PropOp38
 70
     1
102
RTVSPost2010Prop39
140
1.0
102
RTVSPost2010PropOp39
 70
     1
102
RTVSPost2010Prop40
 90
        0
102
RTVSPost2010PropOp40
 70
     1
102
RTVSPost2010Prop41ColorIndex
 90
       18
102
RTVSPost2010Prop41ColorRGB
 90
        0
102
RTVSPost2010PropOp41
 70
     1
102
RTVSPost2010Prop42
 90
       50
102
RTVSPost2010PropOp42
 70
     1
102
RTVSPost2010Prop43
 90
        3
102
RTVSPost2010PropOp43
 70
     1
102
RTVSPost2010Prop44ColorIndex
 90
        5
102
RTVSPost2010Prop44ColorRGB
 90
      255
102
RTVSPost2010PropOp44
 70
     1
102
RTVSPost2010Prop45
280
     0
102
RTVSPost2010PropOp45
 70
     1
102
RTVSPost2010Prop46
 90
       50
102
RTVSPost2010PropOp46
 70
     1
102
RTVSPost2010Prop47
 90
       50
102
RTVSPost2010PropOp47
 70
     1
102
RTVSPost2010Prop48
 90
       50
102
RTVSPost2010PropOp48
 70
     1
102
RTVSPost2010Prop49
280
     0
102
RTVSPost2010PropOp49
 70
     1
102
RTVSPost2010Prop50
 90
       50
102
RTVSPost2010PropOp50
 70
     1
102
RTVSPost2010Prop51ColorIndex
 90
      256
102
RTVSPost2010Prop51ColorRGB
 90
-16777216
102
RTVSPost2010PropOp51
 70
     0
102
RTVSPost2010Prop52
140
1.0
102
RTVSPost2010PropOp52
 70
     0
102
RTVSPost2010Prop53
 90
        2
102
RTVSPost2010PropOp53
 70
     1
102
RTVSPost2010Prop54
  1
strokes_ogs.tif
102
RTVSPost2010PropOp54
 70
     1
102
RTVSPost2010Prop55
280
     0
102
RTVSPost2010PropOp55
 70
     1
102
RTVSPost2010Prop56
140
1.0
102
RTVSPost2010PropOp56
 70
     1
102
RTVSPost2010Prop57
140
1.0
102
RTVSPost2010PropOp57
 70
     1
102
RTVSPropertyOp0
 70
     1
102
RTVSPropertyOp1
 70
     1
102
RTVSPropertyOp2
 70
     1
102
RTVSPropertyOp3
 70
     1
102
RTVSPropertyOp4
 70
     1
102
RTVSPropertyOp5
 70
     1
102
RTVSPropertyOp6
 70
     1
102
RTVSPropertyOp7
 70
     1
102
RTVSPropertyOp8
 70
     1
102
RTVSPropertyOp9
 70
     1
102
RTVSPropertyOp10
 70
     1
102
RTVSPropertyOp11
 70
     1
102
RTVSPropertyOp12
 70
     1
102
RTVSPropertyOp13
 70
     1
102
RTVSPropertyOp14
 70
     1
102
RTVSPropertyOp15
 70
     1
102
RTVSPropertyOp16
 70
     1
102
RTVSPropertyOp17
 70
     1
102
RTVSPropertyOp18
 70
     1
102
RTVSPropertyOp19
 70
     1
102
RTVSPropertyOp20
 70
     1
102
RTVSPropertyOp21
 70
     1
102
RTVSPropertyOp22
 70
     1
102
RTVSPropertyOp23
 70
     1
102
RTVSPropertyOp24
 70
     1
102
RTVSPropertyOp25
 70
     1
102
RTVSPropertyOp26
 70
     1
102
RTVSPropertyOp27
 70
     1
102
RTVSPropertyOp28
 70
     1
102
RTVSPropertyOp29
 70
     1
102
RTVSPropertyOp30
 70
     1
102
RTVSPropertyOp31
 70
     1
102
RTVSPropertyOp32
 70
     1
102
RTVSPropertyOp33
 70
     1
102
RTVSPropertyOp34
 70
     1
102
RTVSPropertyOp35
 70
     1
102
RTVSPropertyOp36
 70
     1
102
RTVSPropertyOp37
 70
     1
102
RTVSPropertyOp38
 70
     1
102
RTVSPropertyOp39
 70
     1
102
RTVSPropertyOp40
 70
     1
102
RTVSPropertyOp41
 70
     1
102
RTVSPropertyOp42
 70
     1
102
RTVSPropertyOp43
 70
     1
102
RTVSPropertyOp44
 70
     1
102
RTVSPropertyOp45
 70
     1
102
RTVSPropertyOp46
 70
     1
102
RTVSPropertyOp47
 70
     1
102
RTVSPropertyOp48
 70
     1
102
RTVSPropertyOp49
 70
     1
102
RTVSPropertyOp50
 70
     1
102
RTVSPropertyOp51
 70
     0
102
RTVSPropertyOp52
 70
     0
102
RTVSPropertyOp53
 70
     1
102
RTVSPropertyOp54
 70
     1
102
RTVSPropertyOp55
 70
     1
102
RTVSPropertyOp56
 70
     1
102
RTVSPropertyOp57
 70
     1
102
RTVSPropertyOp58
 70
     1
102
RTVSPropertyOp59
 70
     1
102
RTVSPropertyOp60
 70
     1
102
RTVSPropertyOp61
 70
     1
102
RTVSPropertyOp62
 70
     1
  0
XRECORD
  5
81DB
102
{ACAD_REACTORS
330
81DA
102
}
330
81DA
100
AcDbXrecord
280
     1
102
RTVSPost2010Prop28
280
     0
102
RTVSPost2010PropOp28
 70
     1
102
RTVSPost2010Prop29
280
     1
102
RTVSPost2010PropOp29
 70
     1
102
RTVSPost2010Prop30
280
     1
102
RTVSPost2010PropOp30
 70
     1
102
RTVSPost2010Prop31
280
     0
102
RTVSPost2010PropOp31
 70
     1
102
RTVSPost2010Prop32
280
     0
102
RTVSPost2010PropOp32
 70
     1
102
RTVSPost2010Prop33
280
     0
102
RTVSPost2010PropOp33
 70
     1
102
RTVSPost2010Prop34
280
     0
102
RTVSPost2010PropOp34
 70
     1
102
RTVSPost2010Prop35
280
     0
102
RTVSPost2010PropOp35
 70
     1
102
RTVSPost2010Prop36
280
     0
102
RTVSPost2010PropOp36
 70
     1
102
RTVSPost2010Prop37
 90
       50
102
RTVSPost2010PropOp37
 70
     1
102
RTVSPost2010Prop38
140
0.0
102
RTVSPost2010PropOp38
 70
     1
102
RTVSPost2010Prop39
140
1.0
102
RTVSPost2010PropOp39
 70
     1
102
RTVSPost2010Prop40
 90
        0
102
RTVSPost2010PropOp40
 70
     1
102
RTVSPost2010Prop41ColorIndex
 90
       18
102
RTVSPost2010Prop41ColorRGB
 90
        0
102
RTVSPost2010PropOp41
 70
     1
102
RTVSPost2010Prop42
 90
       50
102
RTVSPost2010PropOp42
 70
     1
102
RTVSPost2010Prop43
 90
        3
102
RTVSPost2010PropOp43
 70
     1
102
RTVSPost2010Prop44ColorIndex
 90
        5
102
RTVSPost2010Prop44ColorRGB
 90
      255
102
RTVSPost2010PropOp44
 70
     1
102
RTVSPost2010Prop45
280
     0
102
RTVSPost2010PropOp45
 70
     1
102
RTVSPost2010Prop46
 90
       50
102
RTVSPost2010PropOp46
 70
     1
102
RTVSPost2010Prop47
 90
       50
102
RTVSPost2010PropOp47
 70
     1
102
RTVSPost2010Prop48
 90
       50
102
RTVSPost2010PropOp48
 70
     1
102
RTVSPost2010Prop49
280
     0
102
RTVSPost2010PropOp49
 70
     1
102
RTVSPost2010Prop50
 90
       50
102
RTVSPost2010PropOp50
 70
     1
102
RTVSPost2010Prop51ColorIndex
 90
      256
102
RTVSPost2010Prop51ColorRGB
 90
-16777216
102
RTVSPost2010PropOp51
 70
     0
102
RTVSPost2010Prop52
140
1.0
102
RTVSPost2010PropOp52
 70
     0
102
RTVSPost2010Prop53
 90
        2
102
RTVSPost2010PropOp53
 70
     1
102
RTVSPost2010Prop54
  1
strokes_ogs.tif
102
RTVSPost2010PropOp54
 70
     1
102
RTVSPost2010Prop55
280
     0
102
RTVSPost2010PropOp55
 70
     1
102
RTVSPost2010Prop56
140
1.0
102
RTVSPost2010PropOp56
 70
     1
102
RTVSPost2010Prop57
140
1.0
102
RTVSPost2010PropOp57
 70
     1
102
RTVSPropertyOp0
 70
     1
102
RTVSPropertyOp1
 70
     1
102
RTVSPropertyOp2
 70
     1
102
RTVSPropertyOp3
 70
     1
102
RTVSPropertyOp4
 70
     1
102
RTVSPropertyOp5
 70
     1
102
RTVSPropertyOp6
 70
     1
102
RTVSPropertyOp7
 70
     1
102
RTVSPropertyOp8
 70
     1
102
RTVSPropertyOp9
 70
     1
102
RTVSPropertyOp10
 70
     1
102
RTVSPropertyOp11
 70
     1
102
RTVSPropertyOp12
 70
     1
102
RTVSPropertyOp13
 70
     1
102
RTVSPropertyOp14
 70
     1
102
RTVSPropertyOp15
 70
     1
102
RTVSPropertyOp16
 70
     1
102
RTVSPropertyOp17
 70
     1
102
RTVSPropertyOp18
 70
     1
102
RTVSPropertyOp19
 70
     1
102
RTVSPropertyOp20
 70
     1
102
RTVSPropertyOp21
 70
     1
102
RTVSPropertyOp22
 70
     1
102
RTVSPropertyOp23
 70
     1
102
RTVSPropertyOp24
 70
     1
102
RTVSPropertyOp25
 70
     1
102
RTVSPropertyOp26
 70
     1
102
RTVSPropertyOp27
 70
     1
102
RTVSPropertyOp28
 70
     1
102
RTVSPropertyOp29
 70
     1
102
RTVSPropertyOp30
 70
     1
102
RTVSPropertyOp31
 70
     1
102
RTVSPropertyOp32
 70
     1
102
RTVSPropertyOp33
 70
     1
102
RTVSPropertyOp34
 70
     1
102
RTVSPropertyOp35
 70
     1
102
RTVSPropertyOp36
 70
     1
102
RTVSPropertyOp37
 70
     1
102
RTVSPropertyOp38
 70
     1
102
RTVSPropertyOp39
 70
     1
102
RTVSPropertyOp40
 70
     1
102
RTVSPropertyOp41
 70
     1
102
RTVSPropertyOp42
 70
     1
102
RTVSPropertyOp43
 70
     1
102
RTVSPropertyOp44
 70
     1
102
RTVSPropertyOp45
 70
     1
102
RTVSPropertyOp46
 70
     1
102
RTVSPropertyOp47
 70
     1
102
RTVSPropertyOp48
 70
     1
102
RTVSPropertyOp49
 70
     1
102
RTVSPropertyOp50
 70
     1
102
RTVSPropertyOp51
 70
     0
102
RTVSPropertyOp52
 70
     0
102
RTVSPropertyOp53
 70
     1
102
RTVSPropertyOp54
 70
     1
102
RTVSPropertyOp55
 70
     1
102
RTVSPropertyOp56
 70
     1
102
RTVSPropertyOp57
 70
     1
102
RTVSPropertyOp58
 70
     1
102
RTVSPropertyOp59
 70
     1
102
RTVSPropertyOp60
 70
     1
102
RTVSPropertyOp61
 70
     1
102
RTVSPropertyOp62
 70
     1
  0
XRECORD
  5
81DD
102
{ACAD_REACTORS
330
81DC
102
}
330
81DC
100
AcDbXrecord
280
     1
102
RTVSPost2010Prop28
280
     0
102
RTVSPost2010PropOp28
 70
     1
102
RTVSPost2010Prop29
280
     1
102
RTVSPost2010PropOp29
 70
     1
102
RTVSPost2010Prop30
280
     1
102
RTVSPost2010PropOp30
 70
     1
102
RTVSPost2010Prop31
280
     0
102
RTVSPost2010PropOp31
 70
     1
102
RTVSPost2010Prop32
280
     0
102
RTVSPost2010PropOp32
 70
     1
102
RTVSPost2010Prop33
280
     0
102
RTVSPost2010PropOp33
 70
     1
102
RTVSPost2010Prop34
280
     0
102
RTVSPost2010PropOp34
 70
     1
102
RTVSPost2010Prop35
280
     0
102
RTVSPost2010PropOp35
 70
     1
102
RTVSPost2010Prop36
280
     0
102
RTVSPost2010PropOp36
 70
     1
102
RTVSPost2010Prop37
 90
       50
102
RTVSPost2010PropOp37
 70
     1
102
RTVSPost2010Prop38
140
0.0
102
RTVSPost2010PropOp38
 70
     1
102
RTVSPost2010Prop39
140
1.0
102
RTVSPost2010PropOp39
 70
     1
102
RTVSPost2010Prop40
 90
        0
102
RTVSPost2010PropOp40
 70
     1
102
RTVSPost2010Prop41ColorIndex
 90
       18
102
RTVSPost2010Prop41ColorRGB
 90
        0
102
RTVSPost2010PropOp41
 70
     1
102
RTVSPost2010Prop42
 90
       50
102
RTVSPost2010PropOp42
 70
     1
102
RTVSPost2010Prop43
 90
        3
102
RTVSPost2010PropOp43
 70
     1
102
RTVSPost2010Prop44ColorIndex
 90
        5
102
RTVSPost2010Prop44ColorRGB
 90
      255
102
RTVSPost2010PropOp44
 70
     1
102
RTVSPost2010Prop45
280
     0
102
RTVSPost2010PropOp45
 70
     1
102
RTVSPost2010Prop46
 90
       50
102
RTVSPost2010PropOp46
 70
     1
102
RTVSPost2010Prop47
 90
       50
102
RTVSPost2010PropOp47
 70
     1
102
RTVSPost2010Prop48
 90
       50
102
RTVSPost2010PropOp48
 70
     1
102
RTVSPost2010Prop49
280
     0
102
RTVSPost2010PropOp49
 70
     1
102
RTVSPost2010Prop50
 90
       50
102
RTVSPost2010PropOp50
 70
     1
102
RTVSPost2010Prop51ColorIndex
 90
      256
102
RTVSPost2010Prop51ColorRGB
 90
-16777216
102
RTVSPost2010PropOp51
 70
     0
102
RTVSPost2010Prop52
140
1.0
102
RTVSPost2010PropOp52
 70
     0
102
RTVSPost2010Prop53
 90
        2
102
RTVSPost2010PropOp53
 70
     1
102
RTVSPost2010Prop54
  1
strokes_ogs.tif
102
RTVSPost2010PropOp54
 70
     1
102
RTVSPost2010Prop55
280
     0
102
RTVSPost2010PropOp55
 70
     1
102
RTVSPost2010Prop56
140
1.0
102
RTVSPost2010PropOp56
 70
     1
102
RTVSPost2010Prop57
140
1.0
102
RTVSPost2010PropOp57
 70
     1
102
RTVSPropertyOp0
 70
     1
102
RTVSPropertyOp1
 70
     1
102
RTVSPropertyOp2
 70
     1
102
RTVSPropertyOp3
 70
     1
102
RTVSPropertyOp4
 70
     1
102
RTVSPropertyOp5
 70
     1
102
RTVSPropertyOp6
 70
     1
102
RTVSPropertyOp7
 70
     1
102
RTVSPropertyOp8
 70
     1
102
RTVSPropertyOp9
 70
     1
102
RTVSPropertyOp10
 70
     1
102
RTVSPropertyOp11
 70
     1
102
RTVSPropertyOp12
 70
     1
102
RTVSPropertyOp13
 70
     1
102
RTVSPropertyOp14
 70
     1
102
RTVSPropertyOp15
 70
     1
102
RTVSPropertyOp16
 70
     1
102
RTVSPropertyOp17
 70
     1
102
RTVSPropertyOp18
 70
     1
102
RTVSPropertyOp19
 70
     1
102
RTVSPropertyOp20
 70
     1
102
RTVSPropertyOp21
 70
     1
102
RTVSPropertyOp22
 70
     1
102
RTVSPropertyOp23
 70
     1
102
RTVSPropertyOp24
 70
     1
102
RTVSPropertyOp25
 70
     1
102
RTVSPropertyOp26
 70
     1
102
RTVSPropertyOp27
 70
     1
102
RTVSPropertyOp28
 70
     1
102
RTVSPropertyOp29
 70
     1
102
RTVSPropertyOp30
 70
     1
102
RTVSPropertyOp31
 70
     1
102
RTVSPropertyOp32
 70
     1
102
RTVSPropertyOp33
 70
     1
102
RTVSPropertyOp34
 70
     1
102
RTVSPropertyOp35
 70
     1
102
RTVSPropertyOp36
 70
     1
102
RTVSPropertyOp37
 70
     1
102
RTVSPropertyOp38
 70
     1
102
RTVSPropertyOp39
 70
     1
102
RTVSPropertyOp40
 70
     1
102
RTVSPropertyOp41
 70
     1
102
RTVSPropertyOp42
 70
     1
102
RTVSPropertyOp43
 70
     1
102
RTVSPropertyOp44
 70
     1
102
RTVSPropertyOp45
 70
     1
102
RTVSPropertyOp46
 70
     1
102
RTVSPropertyOp47
 70
     1
102
RTVSPropertyOp48
 70
     1
102
RTVSPropertyOp49
 70
     1
102
RTVSPropertyOp50
 70
     1
102
RTVSPropertyOp51
 70
     0
102
RTVSPropertyOp52
 70
     0
102
RTVSPropertyOp53
 70
     1
102
RTVSPropertyOp54
 70
     1
102
RTVSPropertyOp55
 70
     1
102
RTVSPropertyOp56
 70
     1
102
RTVSPropertyOp57
 70
     1
102
RTVSPropertyOp58
 70
     1
102
RTVSPropertyOp59
 70
     1
102
RTVSPropertyOp60
 70
     1
102
RTVSPropertyOp61
 70
     1
102
RTVSPropertyOp62
 70
     1
  0
XRECORD
  5
81DF
102
{ACAD_REACTORS
330
81DE
102
}
330
81DE
100
AcDbXrecord
280
     1
102
RTVSPost2010Prop28
280
     0
102
RTVSPost2010PropOp28
 70
     1
102
RTVSPost2010Prop29
280
     1
102
RTVSPost2010PropOp29
 70
     1
102
RTVSPost2010Prop30
280
     1
102
RTVSPost2010PropOp30
 70
     1
102
RTVSPost2010Prop31
280
     0
102
RTVSPost2010PropOp31
 70
     1
102
RTVSPost2010Prop32
280
     0
102
RTVSPost2010PropOp32
 70
     1
102
RTVSPost2010Prop33
280
     0
102
RTVSPost2010PropOp33
 70
     1
102
RTVSPost2010Prop34
280
     0
102
RTVSPost2010PropOp34
 70
     1
102
RTVSPost2010Prop35
280
     0
102
RTVSPost2010PropOp35
 70
     1
102
RTVSPost2010Prop36
280
     0
102
RTVSPost2010PropOp36
 70
     1
102
RTVSPost2010Prop37
 90
       50
102
RTVSPost2010PropOp37
 70
     1
102
RTVSPost2010Prop38
140
0.0
102
RTVSPost2010PropOp38
 70
     1
102
RTVSPost2010Prop39
140
1.0
102
RTVSPost2010PropOp39
 70
     1
102
RTVSPost2010Prop40
 90
        0
102
RTVSPost2010PropOp40
 70
     1
102
RTVSPost2010Prop41ColorIndex
 90
       18
102
RTVSPost2010Prop41ColorRGB
 90
        0
102
RTVSPost2010PropOp41
 70
     1
102
RTVSPost2010Prop42
 90
       50
102
RTVSPost2010PropOp42
 70
     1
102
RTVSPost2010Prop43
 90
        3
102
RTVSPost2010PropOp43
 70
     1
102
RTVSPost2010Prop44ColorIndex
 90
        5
102
RTVSPost2010Prop44ColorRGB
 90
      255
102
RTVSPost2010PropOp44
 70
     1
102
RTVSPost2010Prop45
280
     0
102
RTVSPost2010PropOp45
 70
     1
102
RTVSPost2010Prop46
 90
       50
102
RTVSPost2010PropOp46
 70
     1
102
RTVSPost2010Prop47
 90
       50
102
RTVSPost2010PropOp47
 70
     1
102
RTVSPost2010Prop48
 90
       50
102
RTVSPost2010PropOp48
 70
     1
102
RTVSPost2010Prop49
280
     0
102
RTVSPost2010PropOp49
 70
     1
102
RTVSPost2010Prop50
 90
       50
102
RTVSPost2010PropOp50
 70
     1
102
RTVSPost2010Prop51ColorIndex
 90
      256
102
RTVSPost2010Prop51ColorRGB
 90
-16777216
102
RTVSPost2010PropOp51
 70
     0
102
RTVSPost2010Prop52
140
1.0
102
RTVSPost2010PropOp52
 70
     0
102
RTVSPost2010Prop53
 90
        2
102
RTVSPost2010PropOp53
 70
     1
102
RTVSPost2010Prop54
  1
strokes_ogs.tif
102
RTVSPost2010PropOp54
 70
     1
102
RTVSPost2010Prop55
280
     0
102
RTVSPost2010PropOp55
 70
     1
102
RTVSPost2010Prop56
140
1.0
102
RTVSPost2010PropOp56
 70
     1
102
RTVSPost2010Prop57
140
1.0
102
RTVSPost2010PropOp57
 70
     1
102
RTVSPropertyOp0
 70
     1
102
RTVSPropertyOp1
 70
     1
102
RTVSPropertyOp2
 70
     1
102
RTVSPropertyOp3
 70
     1
102
RTVSPropertyOp4
 70
     1
102
RTVSPropertyOp5
 70
     1
102
RTVSPropertyOp6
 70
     1
102
RTVSPropertyOp7
 70
     1
102
RTVSPropertyOp8
 70
     1
102
RTVSPropertyOp9
 70
     1
102
RTVSPropertyOp10
 70
     1
102
RTVSPropertyOp11
 70
     1
102
RTVSPropertyOp12
 70
     1
102
RTVSPropertyOp13
 70
     1
102
RTVSPropertyOp14
 70
     1
102
RTVSPropertyOp15
 70
     1
102
RTVSPropertyOp16
 70
     1
102
RTVSPropertyOp17
 70
     1
102
RTVSPropertyOp18
 70
     1
102
RTVSPropertyOp19
 70
     1
102
RTVSPropertyOp20
 70
     1
102
RTVSPropertyOp21
 70
     1
102
RTVSPropertyOp22
 70
     1
102
RTVSPropertyOp23
 70
     1
102
RTVSPropertyOp24
 70
     1
102
RTVSPropertyOp25
 70
     1
102
RTVSPropertyOp26
 70
     1
102
RTVSPropertyOp27
 70
     1
102
RTVSPropertyOp28
 70
     1
102
RTVSPropertyOp29
 70
     1
102
RTVSPropertyOp30
 70
     1
102
RTVSPropertyOp31
 70
     1
102
RTVSPropertyOp32
 70
     1
102
RTVSPropertyOp33
 70
     1
102
RTVSPropertyOp34
 70
     1
102
RTVSPropertyOp35
 70
     1
102
RTVSPropertyOp36
 70
     1
102
RTVSPropertyOp37
 70
     1
102
RTVSPropertyOp38
 70
     1
102
RTVSPropertyOp39
 70
     1
102
RTVSPropertyOp40
 70
     1
102
RTVSPropertyOp41
 70
     1
102
RTVSPropertyOp42
 70
     1
102
RTVSPropertyOp43
 70
     1
102
RTVSPropertyOp44
 70
     1
102
RTVSPropertyOp45
 70
     1
102
RTVSPropertyOp46
 70
     1
102
RTVSPropertyOp47
 70
     1
102
RTVSPropertyOp48
 70
     1
102
RTVSPropertyOp49
 70
     1
102
RTVSPropertyOp50
 70
     1
102
RTVSPropertyOp51
 70
     0
102
RTVSPropertyOp52
 70
     0
102
RTVSPropertyOp53
 70
     1
102
RTVSPropertyOp54
 70
     1
102
RTVSPropertyOp55
 70
     1
102
RTVSPropertyOp56
 70
     1
102
RTVSPropertyOp57
 70
     1
102
RTVSPropertyOp58
 70
     1
102
RTVSPropertyOp59
 70
     1
102
RTVSPropertyOp60
 70
     1
102
RTVSPropertyOp61
 70
     1
102
RTVSPropertyOp62
 70
     1
  0
XRECORD
  5
81E7
102
{ACAD_REACTORS
330
81E6
102
}
330
81E6
100
AcDbXrecord
280
     1
102
RTVSPost2010Prop28
280
     0
102
RTVSPost2010PropOp28
 70
     1
102
RTVSPost2010Prop29
280
     1
102
RTVSPost2010PropOp29
 70
     1
102
RTVSPost2010Prop30
280
     1
102
RTVSPost2010PropOp30
 70
     1
102
RTVSPost2010Prop31
280
     0
102
RTVSPost2010PropOp31
 70
     1
102
RTVSPost2010Prop32
280
     0
102
RTVSPost2010PropOp32
 70
     1
102
RTVSPost2010Prop33
280
     0
102
RTVSPost2010PropOp33
 70
     1
102
RTVSPost2010Prop34
280
     0
102
RTVSPost2010PropOp34
 70
     1
102
RTVSPost2010Prop35
280
     0
102
RTVSPost2010PropOp35
 70
     1
102
RTVSPost2010Prop36
280
     0
102
RTVSPost2010PropOp36
 70
     1
102
RTVSPost2010Prop37
 90
       50
102
RTVSPost2010PropOp37
 70
     1
102
RTVSPost2010Prop38
140
0.0
102
RTVSPost2010PropOp38
 70
     1
102
RTVSPost2010Prop39
140
1.0
102
RTVSPost2010PropOp39
 70
     1
102
RTVSPost2010Prop40
 90
        0
102
RTVSPost2010PropOp40
 70
     1
102
RTVSPost2010Prop41ColorIndex
 90
       18
102
RTVSPost2010Prop41ColorRGB
 90
        0
102
RTVSPost2010PropOp41
 70
     1
102
RTVSPost2010Prop42
 90
       50
102
RTVSPost2010PropOp42
 70
     1
102
RTVSPost2010Prop43
 90
        3
102
RTVSPost2010PropOp43
 70
     1
102
RTVSPost2010Prop44ColorIndex
 90
        5
102
RTVSPost2010Prop44ColorRGB
 90
      255
102
RTVSPost2010PropOp44
 70
     1
102
RTVSPost2010Prop45
280
     0
102
RTVSPost2010PropOp45
 70
     1
102
RTVSPost2010Prop46
 90
       50
102
RTVSPost2010PropOp46
 70
     1
102
RTVSPost2010Prop47
 90
       50
102
RTVSPost2010PropOp47
 70
     1
102
RTVSPost2010Prop48
 90
       50
102
RTVSPost2010PropOp48
 70
     1
102
RTVSPost2010Prop49
280
     0
102
RTVSPost2010PropOp49
 70
     1
102
RTVSPost2010Prop50
 90
       50
102
RTVSPost2010PropOp50
 70
     1
102
RTVSPost2010Prop51ColorIndex
 90
      256
102
RTVSPost2010Prop51ColorRGB
 90
-16777216
102
RTVSPost2010PropOp51
 70
     0
102
RTVSPost2010Prop52
140
1.0
102
RTVSPost2010PropOp52
 70
     0
102
RTVSPost2010Prop53
 90
        2
102
RTVSPost2010PropOp53
 70
     1
102
RTVSPost2010Prop54
  1
strokes_ogs.tif
102
RTVSPost2010PropOp54
 70
     1
102
RTVSPost2010Prop55
280
     0
102
RTVSPost2010PropOp55
 70
     1
102
RTVSPost2010Prop56
140
1.0
102
RTVSPost2010PropOp56
 70
     1
102
RTVSPost2010Prop57
140
1.0
102
RTVSPost2010PropOp57
 70
     1
102
RTVSPropertyOp0
 70
     1
102
RTVSPropertyOp1
 70
     1
102
RTVSPropertyOp2
 70
     1
102
RTVSPropertyOp3
 70
     1
102
RTVSPropertyOp4
 70
     1
102
RTVSPropertyOp5
 70
     1
102
RTVSPropertyOp6
 70
     1
102
RTVSPropertyOp7
 70
     1
102
RTVSPropertyOp8
 70
     1
102
RTVSPropertyOp9
 70
     1
102
RTVSPropertyOp10
 70
     1
102
RTVSPropertyOp11
 70
     1
102
RTVSPropertyOp12
 70
     1
102
RTVSPropertyOp13
 70
     1
102
RTVSPropertyOp14
 70
     1
102
RTVSPropertyOp15
 70
     1
102
RTVSPropertyOp16
 70
     1
102
RTVSPropertyOp17
 70
     1
102
RTVSPropertyOp18
 70
     1
102
RTVSPropertyOp19
 70
     1
102
RTVSPropertyOp20
 70
     1
102
RTVSPropertyOp21
 70
     1
102
RTVSPropertyOp22
 70
     1
102
RTVSPropertyOp23
 70
     1
102
RTVSPropertyOp24
 70
     1
102
RTVSPropertyOp25
 70
     1
102
RTVSPropertyOp26
 70
     1
102
RTVSPropertyOp27
 70
     1
102
RTVSPropertyOp28
 70
     1
102
RTVSPropertyOp29
 70
     1
102
RTVSPropertyOp30
 70
     1
102
RTVSPropertyOp31
 70
     1
102
RTVSPropertyOp32
 70
     1
102
RTVSPropertyOp33
 70
     1
102
RTVSPropertyOp34
 70
     1
102
RTVSPropertyOp35
 70
     1
102
RTVSPropertyOp36
 70
     1
102
RTVSPropertyOp37
 70
     1
102
RTVSPropertyOp38
 70
     1
102
RTVSPropertyOp39
 70
     1
102
RTVSPropertyOp40
 70
     1
102
RTVSPropertyOp41
 70
     1
102
RTVSPropertyOp42
 70
     1
102
RTVSPropertyOp43
 70
     1
102
RTVSPropertyOp44
 70
     1
102
RTVSPropertyOp45
 70
     1
102
RTVSPropertyOp46
 70
     1
102
RTVSPropertyOp47
 70
     1
102
RTVSPropertyOp48
 70
     1
102
RTVSPropertyOp49
 70
     1
102
RTVSPropertyOp50
 70
     1
102
RTVSPropertyOp51
 70
     0
102
RTVSPropertyOp52
 70
     0
102
RTVSPropertyOp53
 70
     1
102
RTVSPropertyOp54
 70
     1
102
RTVSPropertyOp55
 70
     1
102
RTVSPropertyOp56
 70
     1
102
RTVSPropertyOp57
 70
     1
102
RTVSPropertyOp58
 70
     1
102
RTVSPropertyOp59
 70
     1
102
RTVSPropertyOp60
 70
     1
102
RTVSPropertyOp61
 70
     1
102
RTVSPropertyOp62
 70
     1
  0
XRECORD
  5
8203
102
{ACAD_REACTORS
330
8202
102
}
330
8202
100
AcDbXrecord
280
     1
102
RTVSPost2010Prop28
280
     0
102
RTVSPost2010PropOp28
 70
     1
102
RTVSPost2010Prop29
280
     1
102
RTVSPost2010PropOp29
 70
     1
102
RTVSPost2010Prop30
280
     1
102
RTVSPost2010PropOp30
 70
     1
102
RTVSPost2010Prop31
280
     0
102
RTVSPost2010PropOp31
 70
     1
102
RTVSPost2010Prop32
280
     0
102
RTVSPost2010PropOp32
 70
     1
102
RTVSPost2010Prop33
280
     0
102
RTVSPost2010PropOp33
 70
     1
102
RTVSPost2010Prop34
280
     0
102
RTVSPost2010PropOp34
 70
     1
102
RTVSPost2010Prop35
280
     0
102
RTVSPost2010PropOp35
 70
     1
102
RTVSPost2010Prop36
280
     0
102
RTVSPost2010PropOp36
 70
     1
102
RTVSPost2010Prop37
 90
       50
102
RTVSPost2010PropOp37
 70
     0
102
RTVSPost2010Prop38
140
0.0
102
RTVSPost2010PropOp38
 70
     0
102
RTVSPost2010Prop39
140
1.0
102
RTVSPost2010PropOp39
 70
     0
102
RTVSPost2010Prop40
 90
        0
102
RTVSPost2010PropOp40
 70
     0
102
RTVSPost2010Prop41ColorIndex
 90
       18
102
RTVSPost2010Prop41ColorRGB
 90
        0
102
RTVSPost2010PropOp41
 70
     0
102
RTVSPost2010Prop42
 90
       50
102
RTVSPost2010PropOp42
 70
     0
102
RTVSPost2010Prop43
 90
        3
102
RTVSPost2010PropOp43
 70
     0
102
RTVSPost2010Prop44ColorIndex
 90
        5
102
RTVSPost2010Prop44ColorRGB
 90
      255
102
RTVSPost2010PropOp44
 70
     0
102
RTVSPost2010Prop45
280
     0
102
RTVSPost2010PropOp45
 70
     1
102
RTVSPost2010Prop46
 90
       50
102
RTVSPost2010PropOp46
 70
     0
102
RTVSPost2010Prop47
 90
       50
102
RTVSPost2010PropOp47
 70
     0
102
RTVSPost2010Prop48
 90
       50
102
RTVSPost2010PropOp48
 70
     0
102
RTVSPost2010Prop49
280
     0
102
RTVSPost2010PropOp49
 70
     1
102
RTVSPost2010Prop50
 90
       50
102
RTVSPost2010PropOp50
 70
     0
102
RTVSPost2010Prop51ColorIndex
 90
      256
102
RTVSPost2010Prop51ColorRGB
 90
-16777216
102
RTVSPost2010PropOp51
 70
     0
102
RTVSPost2010Prop52
140
1.0
102
RTVSPost2010PropOp52
 70
     0
102
RTVSPost2010Prop53
 90
        2
102
RTVSPost2010PropOp53
 70
     0
102
RTVSPost2010Prop54
  1
strokes_ogs.tif
102
RTVSPost2010PropOp54
 70
     0
102
RTVSPost2010Prop55
280
     0
102
RTVSPost2010PropOp55
 70
     1
102
RTVSPost2010Prop56
140
1.0
102
RTVSPost2010PropOp56
 70
     0
102
RTVSPost2010Prop57
140
1.0
102
RTVSPost2010PropOp57
 70
     0
102
RTVSPropertyOp0
 70
     0
102
RTVSPropertyOp1
 70
     0
102
RTVSPropertyOp2
 70
     0
102
RTVSPropertyOp3
 70
     0
102
RTVSPropertyOp4
 70
     0
102
RTVSPropertyOp5
 70
     0
102
RTVSPropertyOp6
 70
     0
102
RTVSPropertyOp7
 70
     0
102
RTVSPropertyOp8
 70
     0
102
RTVSPropertyOp9
 70
     0
102
RTVSPropertyOp10
 70
     0
102
RTVSPropertyOp11
 70
     0
102
RTVSPropertyOp12
 70
     0
102
RTVSPropertyOp13
 70
     0
102
RTVSPropertyOp14
 70
     2
102
RTVSPropertyOp15
 70
     0
102
RTVSPropertyOp16
 70
     0
102
RTVSPropertyOp17
 70
     0
102
RTVSPropertyOp18
 70
     0
102
RTVSPropertyOp19
 70
     0
102
RTVSPropertyOp20
 70
     0
102
RTVSPropertyOp21
 70
     0
102
RTVSPropertyOp22
 70
     0
102
RTVSPropertyOp23
 70
     0
102
RTVSPropertyOp24
 70
     0
102
RTVSPropertyOp25
 70
     0
102
RTVSPropertyOp26
 70
     0
102
RTVSPropertyOp27
 70
     0
102
RTVSPropertyOp28
 70
     1
102
RTVSPropertyOp29
 70
     1
102
RTVSPropertyOp30
 70
     1
102
RTVSPropertyOp31
 70
     1
102
RTVSPropertyOp32
 70
     1
102
RTVSPropertyOp33
 70
     1
102
RTVSPropertyOp34
 70
     1
102
RTVSPropertyOp35
 70
     1
102
RTVSPropertyOp36
 70
     1
102
RTVSPropertyOp37
 70
     0
102
RTVSPropertyOp38
 70
     0
102
RTVSPropertyOp39
 70
     0
102
RTVSPropertyOp40
 70
     0
102
RTVSPropertyOp41
 70
     0
102
RTVSPropertyOp42
 70
     0
102
RTVSPropertyOp43
 70
     0
102
RTVSPropertyOp44
 70
     0
102
RTVSPropertyOp45
 70
     1
102
RTVSPropertyOp46
 70
     0
102
RTVSPropertyOp47
 70
     0
102
RTVSPropertyOp48
 70
     0
102
RTVSPropertyOp49
 70
     1
102
RTVSPropertyOp50
 70
     0
102
RTVSPropertyOp51
 70
     0
102
RTVSPropertyOp52
 70
     0
102
RTVSPropertyOp53
 70
     0
102
RTVSPropertyOp54
 70
     0
102
RTVSPropertyOp55
 70
     1
102
RTVSPropertyOp56
 70
     0
102
RTVSPropertyOp57
 70
     0
102
RTVSPropertyOp58
 70
     0
102
RTVSPropertyOp59
 70
     0
102
RTVSPropertyOp60
 70
     0
102
RTVSPropertyOp61
 70
     0
102
RTVSPropertyOp62
 70
     0
  0
XRECORD
  5
81F3
102
{ACAD_REACTORS
330
81F2
102
}
330
81F2
100
AcDbXrecord
280
     1
102
RTVSPost2010Prop28
280
     0
102
RTVSPost2010PropOp28
 70
     1
102
RTVSPost2010Prop29
280
     1
102
RTVSPost2010PropOp29
 70
     1
102
RTVSPost2010Prop30
280
     1
102
RTVSPost2010PropOp30
 70
     1
102
RTVSPost2010Prop31
280
     0
102
RTVSPost2010PropOp31
 70
     1
102
RTVSPost2010Prop32
280
     0
102
RTVSPost2010PropOp32
 70
     1
102
RTVSPost2010Prop33
280
     0
102
RTVSPost2010PropOp33
 70
     1
102
RTVSPost2010Prop34
280
     0
102
RTVSPost2010PropOp34
 70
     1
102
RTVSPost2010Prop35
280
     0
102
RTVSPost2010PropOp35
 70
     1
102
RTVSPost2010Prop36
280
     0
102
RTVSPost2010PropOp36
 70
     1
102
RTVSPost2010Prop37
 90
       50
102
RTVSPost2010PropOp37
 70
     1
102
RTVSPost2010Prop38
140
0.0
102
RTVSPost2010PropOp38
 70
     1
102
RTVSPost2010Prop39
140
1.0
102
RTVSPost2010PropOp39
 70
     1
102
RTVSPost2010Prop40
 90
        0
102
RTVSPost2010PropOp40
 70
     1
102
RTVSPost2010Prop41ColorIndex
 90
       18
102
RTVSPost2010Prop41ColorRGB
 90
        0
102
RTVSPost2010PropOp41
 70
     1
102
RTVSPost2010Prop42
 90
       50
102
RTVSPost2010PropOp42
 70
     1
102
RTVSPost2010Prop43
 90
        3
102
RTVSPost2010PropOp43
 70
     1
102
RTVSPost2010Prop44ColorIndex
 90
        5
102
RTVSPost2010Prop44ColorRGB
 90
      255
102
RTVSPost2010PropOp44
 70
     1
102
RTVSPost2010Prop45
280
     0
102
RTVSPost2010PropOp45
 70
     1
102
RTVSPost2010Prop46
 90
       50
102
RTVSPost2010PropOp46
 70
     1
102
RTVSPost2010Prop47
 90
       50
102
RTVSPost2010PropOp47
 70
     1
102
RTVSPost2010Prop48
 90
       50
102
RTVSPost2010PropOp48
 70
     1
102
RTVSPost2010Prop49
280
     0
102
RTVSPost2010PropOp49
 70
     1
102
RTVSPost2010Prop50
 90
       50
102
RTVSPost2010PropOp50
 70
     1
102
RTVSPost2010Prop51ColorIndex
 90
      256
102
RTVSPost2010Prop51ColorRGB
 90
-16777216
102
RTVSPost2010PropOp51
 70
     0
102
RTVSPost2010Prop52
140
1.0
102
RTVSPost2010PropOp52
 70
     0
102
RTVSPost2010Prop53
 90
        2
102
RTVSPost2010PropOp53
 70
     1
102
RTVSPost2010Prop54
  1
strokes_ogs.tif
102
RTVSPost2010PropOp54
 70
     1
102
RTVSPost2010Prop55
280
     0
102
RTVSPost2010PropOp55
 70
     1
102
RTVSPost2010Prop56
140
1.0
102
RTVSPost2010PropOp56
 70
     1
102
RTVSPost2010Prop57
140
1.0
102
RTVSPost2010PropOp57
 70
     1
102
RTVSPropertyOp0
 70
     1
102
RTVSPropertyOp1
 70
     1
102
RTVSPropertyOp2
 70
     1
102
RTVSPropertyOp3
 70
     1
102
RTVSPropertyOp4
 70
     1
102
RTVSPropertyOp5
 70
     1
102
RTVSPropertyOp6
 70
     1
102
RTVSPropertyOp7
 70
     1
102
RTVSPropertyOp8
 70
     1
102
RTVSPropertyOp9
 70
     1
102
RTVSPropertyOp10
 70
     1
102
RTVSPropertyOp11
 70
     1
102
RTVSPropertyOp12
 70
     1
102
RTVSPropertyOp13
 70
     1
102
RTVSPropertyOp14
 70
     1
102
RTVSPropertyOp15
 70
     1
102
RTVSPropertyOp16
 70
     1
102
RTVSPropertyOp17
 70
     1
102
RTVSPropertyOp18
 70
     1
102
RTVSPropertyOp19
 70
     1
102
RTVSPropertyOp20
 70
     1
102
RTVSPropertyOp21
 70
     1
102
RTVSPropertyOp22
 70
     1
102
RTVSPropertyOp23
 70
     1
102
RTVSPropertyOp24
 70
     1
102
RTVSPropertyOp25
 70
     1
102
RTVSPropertyOp26
 70
     1
102
RTVSPropertyOp27
 70
     1
102
RTVSPropertyOp28
 70
     1
102
RTVSPropertyOp29
 70
     1
102
RTVSPropertyOp30
 70
     1
102
RTVSPropertyOp31
 70
     1
102
RTVSPropertyOp32
 70
     1
102
RTVSPropertyOp33
 70
     1
102
RTVSPropertyOp34
 70
     1
102
RTVSPropertyOp35
 70
     1
102
RTVSPropertyOp36
 70
     1
102
RTVSPropertyOp37
 70
     1
102
RTVSPropertyOp38
 70
     1
102
RTVSPropertyOp39
 70
     1
102
RTVSPropertyOp40
 70
     1
102
RTVSPropertyOp41
 70
     1
102
RTVSPropertyOp42
 70
     1
102
RTVSPropertyOp43
 70
     1
102
RTVSPropertyOp44
 70
     1
102
RTVSPropertyOp45
 70
     1
102
RTVSPropertyOp46
 70
     1
102
RTVSPropertyOp47
 70
     1
102
RTVSPropertyOp48
 70
     1
102
RTVSPropertyOp49
 70
     1
102
RTVSPropertyOp50
 70
     1
102
RTVSPropertyOp51
 70
     0
102
RTVSPropertyOp52
 70
     0
102
RTVSPropertyOp53
 70
     1
102
RTVSPropertyOp54
 70
     1
102
RTVSPropertyOp55
 70
     1
102
RTVSPropertyOp56
 70
     1
102
RTVSPropertyOp57
 70
     1
102
RTVSPropertyOp58
 70
     1
102
RTVSPropertyOp59
 70
     1
102
RTVSPropertyOp60
 70
     1
102
RTVSPropertyOp61
 70
     1
102
RTVSPropertyOp62
 70
     1
  0
XRECORD
  5
8205
102
{ACAD_REACTORS
330
8204
102
}
330
8204
100
AcDbXrecord
280
     1
102
RTVSPost2010Prop28
280
     0
102
RTVSPost2010PropOp28
 70
     1
102
RTVSPost2010Prop29
280
     1
102
RTVSPost2010PropOp29
 70
     1
102
RTVSPost2010Prop30
280
     1
102
RTVSPost2010PropOp30
 70
     1
102
RTVSPost2010Prop31
280
     0
102
RTVSPost2010PropOp31
 70
     1
102
RTVSPost2010Prop32
280
     0
102
RTVSPost2010PropOp32
 70
     1
102
RTVSPost2010Prop33
280
     0
102
RTVSPost2010PropOp33
 70
     1
102
RTVSPost2010Prop34
280
     0
102
RTVSPost2010PropOp34
 70
     1
102
RTVSPost2010Prop35
280
     0
102
RTVSPost2010PropOp35
 70
     1
102
RTVSPost2010Prop36
280
     0
102
RTVSPost2010PropOp36
 70
     1
102
RTVSPost2010Prop37
 90
       50
102
RTVSPost2010PropOp37
 70
     0
102
RTVSPost2010Prop38
140
0.0
102
RTVSPost2010PropOp38
 70
     0
102
RTVSPost2010Prop39
140
1.0
102
RTVSPost2010PropOp39
 70
     0
102
RTVSPost2010Prop40
 90
        0
102
RTVSPost2010PropOp40
 70
     0
102
RTVSPost2010Prop41ColorIndex
 90
       18
102
RTVSPost2010Prop41ColorRGB
 90
        0
102
RTVSPost2010PropOp41
 70
     0
102
RTVSPost2010Prop42
 90
       50
102
RTVSPost2010PropOp42
 70
     0
102
RTVSPost2010Prop43
 90
        3
102
RTVSPost2010PropOp43
 70
     0
102
RTVSPost2010Prop44ColorIndex
 90
        5
102
RTVSPost2010Prop44ColorRGB
 90
      255
102
RTVSPost2010PropOp44
 70
     0
102
RTVSPost2010Prop45
280
     0
102
RTVSPost2010PropOp45
 70
     1
102
RTVSPost2010Prop46
 90
       50
102
RTVSPost2010PropOp46
 70
     0
102
RTVSPost2010Prop47
 90
       50
102
RTVSPost2010PropOp47
 70
     0
102
RTVSPost2010Prop48
 90
       50
102
RTVSPost2010PropOp48
 70
     0
102
RTVSPost2010Prop49
280
     0
102
RTVSPost2010PropOp49
 70
     1
102
RTVSPost2010Prop50
 90
       50
102
RTVSPost2010PropOp50
 70
     0
102
RTVSPost2010Prop51ColorIndex
 90
      256
102
RTVSPost2010Prop51ColorRGB
 90
-16777216
102
RTVSPost2010PropOp51
 70
     0
102
RTVSPost2010Prop52
140
1.0
102
RTVSPost2010PropOp52
 70
     0
102
RTVSPost2010Prop53
 90
        2
102
RTVSPost2010PropOp53
 70
     0
102
RTVSPost2010Prop54
  1
strokes_ogs.tif
102
RTVSPost2010PropOp54
 70
     0
102
RTVSPost2010Prop55
280
     0
102
RTVSPost2010PropOp55
 70
     1
102
RTVSPost2010Prop56
140
1.0
102
RTVSPost2010PropOp56
 70
     0
102
RTVSPost2010Prop57
140
1.0
102
RTVSPost2010PropOp57
 70
     0
102
RTVSPropertyOp0
 70
     0
102
RTVSPropertyOp1
 70
     0
102
RTVSPropertyOp2
 70
     0
102
RTVSPropertyOp3
 70
     0
102
RTVSPropertyOp4
 70
     0
102
RTVSPropertyOp5
 70
     0
102
RTVSPropertyOp6
 70
     0
102
RTVSPropertyOp7
 70
     0
102
RTVSPropertyOp8
 70
     0
102
RTVSPropertyOp9
 70
     0
102
RTVSPropertyOp10
 70
     0
102
RTVSPropertyOp11
 70
     0
102
RTVSPropertyOp12
 70
     0
102
RTVSPropertyOp13
 70
     0
102
RTVSPropertyOp14
 70
     2
102
RTVSPropertyOp15
 70
     0
102
RTVSPropertyOp16
 70
     0
102
RTVSPropertyOp17
 70
     0
102
RTVSPropertyOp18
 70
     0
102
RTVSPropertyOp19
 70
     0
102
RTVSPropertyOp20
 70
     0
102
RTVSPropertyOp21
 70
     0
102
RTVSPropertyOp22
 70
     0
102
RTVSPropertyOp23
 70
     0
102
RTVSPropertyOp24
 70
     0
102
RTVSPropertyOp25
 70
     0
102
RTVSPropertyOp26
 70
     0
102
RTVSPropertyOp27
 70
     0
102
RTVSPropertyOp28
 70
     1
102
RTVSPropertyOp29
 70
     1
102
RTVSPropertyOp30
 70
     1
102
RTVSPropertyOp31
 70
     1
102
RTVSPropertyOp32
 70
     1
102
RTVSPropertyOp33
 70
     1
102
RTVSPropertyOp34
 70
     1
102
RTVSPropertyOp35
 70
     1
102
RTVSPropertyOp36
 70
     1
102
RTVSPropertyOp37
 70
     0
102
RTVSPropertyOp38
 70
     0
102
RTVSPropertyOp39
 70
     0
102
RTVSPropertyOp40
 70
     0
102
RTVSPropertyOp41
 70
     0
102
RTVSPropertyOp42
 70
     0
102
RTVSPropertyOp43
 70
     0
102
RTVSPropertyOp44
 70
     0
102
RTVSPropertyOp45
 70
     1
102
RTVSPropertyOp46
 70
     0
102
RTVSPropertyOp47
 70
     0
102
RTVSPropertyOp48
 70
     0
102
RTVSPropertyOp49
 70
     1
102
RTVSPropertyOp50
 70
     0
102
RTVSPropertyOp51
 70
     0
102
RTVSPropertyOp52
 70
     0
102
RTVSPropertyOp53
 70
     0
102
RTVSPropertyOp54
 70
     0
102
RTVSPropertyOp55
 70
     1
102
RTVSPropertyOp56
 70
     0
102
RTVSPropertyOp57
 70
     0
102
RTVSPropertyOp58
 70
     0
102
RTVSPropertyOp59
 70
     0
102
RTVSPropertyOp60
 70
     0
102
RTVSPropertyOp61
 70
     0
102
RTVSPropertyOp62
 70
     0
  0
XRECORD
  5
81EB
102
{ACAD_REACTORS
330
81EA
102
}
330
81EA
100
AcDbXrecord
280
     1
102
RTVSPost2010Prop28
280
     0
102
RTVSPost2010PropOp28
 70
     1
102
RTVSPost2010Prop29
280
     1
102
RTVSPost2010PropOp29
 70
     1
102
RTVSPost2010Prop30
280
     1
102
RTVSPost2010PropOp30
 70
     1
102
RTVSPost2010Prop31
280
     0
102
RTVSPost2010PropOp31
 70
     1
102
RTVSPost2010Prop32
280
     0
102
RTVSPost2010PropOp32
 70
     1
102
RTVSPost2010Prop33
280
     0
102
RTVSPost2010PropOp33
 70
     1
102
RTVSPost2010Prop34
280
     0
102
RTVSPost2010PropOp34
 70
     1
102
RTVSPost2010Prop35
280
     0
102
RTVSPost2010PropOp35
 70
     1
102
RTVSPost2010Prop36
280
     0
102
RTVSPost2010PropOp36
 70
     1
102
RTVSPost2010Prop37
 90
       50
102
RTVSPost2010PropOp37
 70
     1
102
RTVSPost2010Prop38
140
0.0
102
RTVSPost2010PropOp38
 70
     1
102
RTVSPost2010Prop39
140
1.0
102
RTVSPost2010PropOp39
 70
     1
102
RTVSPost2010Prop40
 90
        0
102
RTVSPost2010PropOp40
 70
     1
102
RTVSPost2010Prop41ColorIndex
 90
       18
102
RTVSPost2010Prop41ColorRGB
 90
        0
102
RTVSPost2010PropOp41
 70
     1
102
RTVSPost2010Prop42
 90
       50
102
RTVSPost2010PropOp42
 70
     1
102
RTVSPost2010Prop43
 90
        3
102
RTVSPost2010PropOp43
 70
     1
102
RTVSPost2010Prop44ColorIndex
 90
        5
102
RTVSPost2010Prop44ColorRGB
 90
      255
102
RTVSPost2010PropOp44
 70
     1
102
RTVSPost2010Prop45
280
     0
102
RTVSPost2010PropOp45
 70
     1
102
RTVSPost2010Prop46
 90
       50
102
RTVSPost2010PropOp46
 70
     1
102
RTVSPost2010Prop47
 90
       50
102
RTVSPost2010PropOp47
 70
     1
102
RTVSPost2010Prop48
 90
       50
102
RTVSPost2010PropOp48
 70
     1
102
RTVSPost2010Prop49
280
     0
102
RTVSPost2010PropOp49
 70
     1
102
RTVSPost2010Prop50
 90
       50
102
RTVSPost2010PropOp50
 70
     1
102
RTVSPost2010Prop51ColorIndex
 90
      256
102
RTVSPost2010Prop51ColorRGB
 90
-16777216
102
RTVSPost2010PropOp51
 70
     0
102
RTVSPost2010Prop52
140
1.0
102
RTVSPost2010PropOp52
 70
     0
102
RTVSPost2010Prop53
 90
        2
102
RTVSPost2010PropOp53
 70
     1
102
RTVSPost2010Prop54
  1
strokes_ogs.tif
102
RTVSPost2010PropOp54
 70
     1
102
RTVSPost2010Prop55
280
     0
102
RTVSPost2010PropOp55
 70
     1
102
RTVSPost2010Prop56
140
1.0
102
RTVSPost2010PropOp56
 70
     1
102
RTVSPost2010Prop57
140
1.0
102
RTVSPost2010PropOp57
 70
     1
102
RTVSPropertyOp0
 70
     1
102
RTVSPropertyOp1
 70
     1
102
RTVSPropertyOp2
 70
     1
102
RTVSPropertyOp3
 70
     1
102
RTVSPropertyOp4
 70
     1
102
RTVSPropertyOp5
 70
     1
102
RTVSPropertyOp6
 70
     1
102
RTVSPropertyOp7
 70
     1
102
RTVSPropertyOp8
 70
     1
102
RTVSPropertyOp9
 70
     1
102
RTVSPropertyOp10
 70
     1
102
RTVSPropertyOp11
 70
     1
102
RTVSPropertyOp12
 70
     1
102
RTVSPropertyOp13
 70
     1
102
RTVSPropertyOp14
 70
     1
102
RTVSPropertyOp15
 70
     1
102
RTVSPropertyOp16
 70
     1
102
RTVSPropertyOp17
 70
     1
102
RTVSPropertyOp18
 70
     1
102
RTVSPropertyOp19
 70
     1
102
RTVSPropertyOp20
 70
     1
102
RTVSPropertyOp21
 70
     1
102
RTVSPropertyOp22
 70
     1
102
RTVSPropertyOp23
 70
     1
102
RTVSPropertyOp24
 70
     1
102
RTVSPropertyOp25
 70
     1
102
RTVSPropertyOp26
 70
     1
102
RTVSPropertyOp27
 70
     1
102
RTVSPropertyOp28
 70
     1
102
RTVSPropertyOp29
 70
     1
102
RTVSPropertyOp30
 70
     1
102
RTVSPropertyOp31
 70
     1
102
RTVSPropertyOp32
 70
     1
102
RTVSPropertyOp33
 70
     1
102
RTVSPropertyOp34
 70
     1
102
RTVSPropertyOp35
 70
     1
102
RTVSPropertyOp36
 70
     1
102
RTVSPropertyOp37
 70
     1
102
RTVSPropertyOp38
 70
     1
102
RTVSPropertyOp39
 70
     1
102
RTVSPropertyOp40
 70
     1
102
RTVSPropertyOp41
 70
     1
102
RTVSPropertyOp42
 70
     1
102
RTVSPropertyOp43
 70
     1
102
RTVSPropertyOp44
 70
     1
102
RTVSPropertyOp45
 70
     1
102
RTVSPropertyOp46
 70
     1
102
RTVSPropertyOp47
 70
     1
102
RTVSPropertyOp48
 70
     1
102
RTVSPropertyOp49
 70
     1
102
RTVSPropertyOp50
 70
     1
102
RTVSPropertyOp51
 70
     0
102
RTVSPropertyOp52
 70
     0
102
RTVSPropertyOp53
 70
     1
102
RTVSPropertyOp54
 70
     1
102
RTVSPropertyOp55
 70
     1
102
RTVSPropertyOp56
 70
     1
102
RTVSPropertyOp57
 70
     1
102
RTVSPropertyOp58
 70
     1
102
RTVSPropertyOp59
 70
     1
102
RTVSPropertyOp60
 70
     1
102
RTVSPropertyOp61
 70
     1
102
RTVSPropertyOp62
 70
     1
  0
XRECORD
  5
8201
102
{ACAD_REACTORS
330
8200
102
}
330
8200
100
AcDbXrecord
280
     1
102
RTVSPost2010Prop28
280
     0
102
RTVSPost2010PropOp28
 70
     1
102
RTVSPost2010Prop29
280
     1
102
RTVSPost2010PropOp29
 70
     1
102
RTVSPost2010Prop30
280
     1
102
RTVSPost2010PropOp30
 70
     1
102
RTVSPost2010Prop31
280
     0
102
RTVSPost2010PropOp31
 70
     1
102
RTVSPost2010Prop32
280
     0
102
RTVSPost2010PropOp32
 70
     1
102
RTVSPost2010Prop33
280
     0
102
RTVSPost2010PropOp33
 70
     1
102
RTVSPost2010Prop34
280
     0
102
RTVSPost2010PropOp34
 70
     1
102
RTVSPost2010Prop35
280
     0
102
RTVSPost2010PropOp35
 70
     1
102
RTVSPost2010Prop36
280
     0
102
RTVSPost2010PropOp36
 70
     1
102
RTVSPost2010Prop37
 90
       50
102
RTVSPost2010PropOp37
 70
     1
102
RTVSPost2010Prop38
140
0.0
102
RTVSPost2010PropOp38
 70
     1
102
RTVSPost2010Prop39
140
1.0
102
RTVSPost2010PropOp39
 70
     1
102
RTVSPost2010Prop40
 90
        0
102
RTVSPost2010PropOp40
 70
     1
102
RTVSPost2010Prop41ColorIndex
 90
       18
102
RTVSPost2010Prop41ColorRGB
 90
        0
102
RTVSPost2010PropOp41
 70
     1
102
RTVSPost2010Prop42
 90
       50
102
RTVSPost2010PropOp42
 70
     1
102
RTVSPost2010Prop43
 90
        3
102
RTVSPost2010PropOp43
 70
     1
102
RTVSPost2010Prop44ColorIndex
 90
        5
102
RTVSPost2010Prop44ColorRGB
 90
      255
102
RTVSPost2010PropOp44
 70
     1
102
RTVSPost2010Prop45
280
     0
102
RTVSPost2010PropOp45
 70
     1
102
RTVSPost2010Prop46
 90
       50
102
RTVSPost2010PropOp46
 70
     1
102
RTVSPost2010Prop47
 90
       50
102
RTVSPost2010PropOp47
 70
     1
102
RTVSPost2010Prop48
 90
       50
102
RTVSPost2010PropOp48
 70
     1
102
RTVSPost2010Prop49
280
     0
102
RTVSPost2010PropOp49
 70
     1
102
RTVSPost2010Prop50
 90
       50
102
RTVSPost2010PropOp50
 70
     1
102
RTVSPost2010Prop51ColorIndex
 90
      256
102
RTVSPost2010Prop51ColorRGB
 90
-16777216
102
RTVSPost2010PropOp51
 70
     0
102
RTVSPost2010Prop52
140
1.0
102
RTVSPost2010PropOp52
 70
     0
102
RTVSPost2010Prop53
 90
        2
102
RTVSPost2010PropOp53
 70
     1
102
RTVSPost2010Prop54
  1
strokes_ogs.tif
102
RTVSPost2010PropOp54
 70
     1
102
RTVSPost2010Prop55
280
     0
102
RTVSPost2010PropOp55
 70
     1
102
RTVSPost2010Prop56
140
1.0
102
RTVSPost2010PropOp56
 70
     1
102
RTVSPost2010Prop57
140
1.0
102
RTVSPost2010PropOp57
 70
     1
102
RTVSPropertyOp0
 70
     1
102
RTVSPropertyOp1
 70
     1
102
RTVSPropertyOp2
 70
     1
102
RTVSPropertyOp3
 70
     1
102
RTVSPropertyOp4
 70
     1
102
RTVSPropertyOp5
 70
     1
102
RTVSPropertyOp6
 70
     1
102
RTVSPropertyOp7
 70
     1
102
RTVSPropertyOp8
 70
     1
102
RTVSPropertyOp9
 70
     1
102
RTVSPropertyOp10
 70
     1
102
RTVSPropertyOp11
 70
     1
102
RTVSPropertyOp12
 70
     1
102
RTVSPropertyOp13
 70
     1
102
RTVSPropertyOp14
 70
     1
102
RTVSPropertyOp15
 70
     1
102
RTVSPropertyOp16
 70
     1
102
RTVSPropertyOp17
 70
     1
102
RTVSPropertyOp18
 70
     1
102
RTVSPropertyOp19
 70
     1
102
RTVSPropertyOp20
 70
     1
102
RTVSPropertyOp21
 70
     1
102
RTVSPropertyOp22
 70
     1
102
RTVSPropertyOp23
 70
     1
102
RTVSPropertyOp24
 70
     1
102
RTVSPropertyOp25
 70
     1
102
RTVSPropertyOp26
 70
     1
102
RTVSPropertyOp27
 70
     1
102
RTVSPropertyOp28
 70
     1
102
RTVSPropertyOp29
 70
     1
102
RTVSPropertyOp30
 70
     1
102
RTVSPropertyOp31
 70
     1
102
RTVSPropertyOp32
 70
     1
102
RTVSPropertyOp33
 70
     1
102
RTVSPropertyOp34
 70
     1
102
RTVSPropertyOp35
 70
     1
102
RTVSPropertyOp36
 70
     1
102
RTVSPropertyOp37
 70
     1
102
RTVSPropertyOp38
 70
     1
102
RTVSPropertyOp39
 70
     1
102
RTVSPropertyOp40
 70
     1
102
RTVSPropertyOp41
 70
     1
102
RTVSPropertyOp42
 70
     1
102
RTVSPropertyOp43
 70
     1
102
RTVSPropertyOp44
 70
     1
102
RTVSPropertyOp45
 70
     1
102
RTVSPropertyOp46
 70
     1
102
RTVSPropertyOp47
 70
     1
102
RTVSPropertyOp48
 70
     1
102
RTVSPropertyOp49
 70
     1
102
RTVSPropertyOp50
 70
     1
102
RTVSPropertyOp51
 70
     0
102
RTVSPropertyOp52
 70
     0
102
RTVSPropertyOp53
 70
     1
102
RTVSPropertyOp54
 70
     1
102
RTVSPropertyOp55
 70
     1
102
RTVSPropertyOp56
 70
     1
102
RTVSPropertyOp57
 70
     1
102
RTVSPropertyOp58
 70
     1
102
RTVSPropertyOp59
 70
     1
102
RTVSPropertyOp60
 70
     1
102
RTVSPropertyOp61
 70
     1
102
RTVSPropertyOp62
 70
     1
  0
XRECORD
  5
81FF
102
{ACAD_REACTORS
330
81FE
102
}
330
81FE
100
AcDbXrecord
280
     1
102
RTVSPost2010Prop28
280
     0
102
RTVSPost2010PropOp28
 70
     1
102
RTVSPost2010Prop29
280
     1
102
RTVSPost2010PropOp29
 70
     1
102
RTVSPost2010Prop30
280
     1
102
RTVSPost2010PropOp30
 70
     1
102
RTVSPost2010Prop31
280
     0
102
RTVSPost2010PropOp31
 70
     1
102
RTVSPost2010Prop32
280
     0
102
RTVSPost2010PropOp32
 70
     1
102
RTVSPost2010Prop33
280
     0
102
RTVSPost2010PropOp33
 70
     1
102
RTVSPost2010Prop34
280
     0
102
RTVSPost2010PropOp34
 70
     1
102
RTVSPost2010Prop35
280
     0
102
RTVSPost2010PropOp35
 70
     1
102
RTVSPost2010Prop36
280
     0
102
RTVSPost2010PropOp36
 70
     1
102
RTVSPost2010Prop37
 90
       50
102
RTVSPost2010PropOp37
 70
     1
102
RTVSPost2010Prop38
140
0.0
102
RTVSPost2010PropOp38
 70
     1
102
RTVSPost2010Prop39
140
1.0
102
RTVSPost2010PropOp39
 70
     1
102
RTVSPost2010Prop40
 90
        0
102
RTVSPost2010PropOp40
 70
     1
102
RTVSPost2010Prop41ColorIndex
 90
       18
102
RTVSPost2010Prop41ColorRGB
 90
        0
102
RTVSPost2010PropOp41
 70
     1
102
RTVSPost2010Prop42
 90
       50
102
RTVSPost2010PropOp42
 70
     1
102
RTVSPost2010Prop43
 90
        3
102
RTVSPost2010PropOp43
 70
     1
102
RTVSPost2010Prop44ColorIndex
 90
        5
102
RTVSPost2010Prop44ColorRGB
 90
      255
102
RTVSPost2010PropOp44
 70
     1
102
RTVSPost2010Prop45
280
     0
102
RTVSPost2010PropOp45
 70
     1
102
RTVSPost2010Prop46
 90
       50
102
RTVSPost2010PropOp46
 70
     1
102
RTVSPost2010Prop47
 90
       50
102
RTVSPost2010PropOp47
 70
     1
102
RTVSPost2010Prop48
 90
       50
102
RTVSPost2010PropOp48
 70
     1
102
RTVSPost2010Prop49
280
     0
102
RTVSPost2010PropOp49
 70
     1
102
RTVSPost2010Prop50
 90
       50
102
RTVSPost2010PropOp50
 70
     1
102
RTVSPost2010Prop51ColorIndex
 90
      256
102
RTVSPost2010Prop51ColorRGB
 90
-16777216
102
RTVSPost2010PropOp51
 70
     0
102
RTVSPost2010Prop52
140
1.0
102
RTVSPost2010PropOp52
 70
     0
102
RTVSPost2010Prop53
 90
        2
102
RTVSPost2010PropOp53
 70
     1
102
RTVSPost2010Prop54
  1
strokes_ogs.tif
102
RTVSPost2010PropOp54
 70
     1
102
RTVSPost2010Prop55
280
     0
102
RTVSPost2010PropOp55
 70
     1
102
RTVSPost2010Prop56
140
1.0
102
RTVSPost2010PropOp56
 70
     1
102
RTVSPost2010Prop57
140
1.0
102
RTVSPost2010PropOp57
 70
     1
102
RTVSPropertyOp0
 70
     1
102
RTVSPropertyOp1
 70
     1
102
RTVSPropertyOp2
 70
     1
102
RTVSPropertyOp3
 70
     1
102
RTVSPropertyOp4
 70
     1
102
RTVSPropertyOp5
 70
     1
102
RTVSPropertyOp6
 70
     1
102
RTVSPropertyOp7
 70
     1
102
RTVSPropertyOp8
 70
     1
102
RTVSPropertyOp9
 70
     1
102
RTVSPropertyOp10
 70
     1
102
RTVSPropertyOp11
 70
     1
102
RTVSPropertyOp12
 70
     1
102
RTVSPropertyOp13
 70
     1
102
RTVSPropertyOp14
 70
     1
102
RTVSPropertyOp15
 70
     1
102
RTVSPropertyOp16
 70
     1
102
RTVSPropertyOp17
 70
     1
102
RTVSPropertyOp18
 70
     1
102
RTVSPropertyOp19
 70
     1
102
RTVSPropertyOp20
 70
     1
102
RTVSPropertyOp21
 70
     1
102
RTVSPropertyOp22
 70
     1
102
RTVSPropertyOp23
 70
     1
102
RTVSPropertyOp24
 70
     1
102
RTVSPropertyOp25
 70
     1
102
RTVSPropertyOp26
 70
     1
102
RTVSPropertyOp27
 70
     1
102
RTVSPropertyOp28
 70
     1
102
RTVSPropertyOp29
 70
     1
102
RTVSPropertyOp30
 70
     1
102
RTVSPropertyOp31
 70
     1
102
RTVSPropertyOp32
 70
     1
102
RTVSPropertyOp33
 70
     1
102
RTVSPropertyOp34
 70
     1
102
RTVSPropertyOp35
 70
     1
102
RTVSPropertyOp36
 70
     1
102
RTVSPropertyOp37
 70
     1
102
RTVSPropertyOp38
 70
     1
102
RTVSPropertyOp39
 70
     1
102
RTVSPropertyOp40
 70
     1
102
RTVSPropertyOp41
 70
     1
102
RTVSPropertyOp42
 70
     1
102
RTVSPropertyOp43
 70
     1
102
RTVSPropertyOp44
 70
     1
102
RTVSPropertyOp45
 70
     1
102
RTVSPropertyOp46
 70
     1
102
RTVSPropertyOp47
 70
     1
102
RTVSPropertyOp48
 70
     1
102
RTVSPropertyOp49
 70
     1
102
RTVSPropertyOp50
 70
     1
102
RTVSPropertyOp51
 70
     0
102
RTVSPropertyOp52
 70
     0
102
RTVSPropertyOp53
 70
     1
102
RTVSPropertyOp54
 70
     1
102
RTVSPropertyOp55
 70
     1
102
RTVSPropertyOp56
 70
     1
102
RTVSPropertyOp57
 70
     1
102
RTVSPropertyOp58
 70
     1
102
RTVSPropertyOp59
 70
     1
102
RTVSPropertyOp60
 70
     1
102
RTVSPropertyOp61
 70
     1
102
RTVSPropertyOp62
 70
     1
  0
XRECORD
  5
81F9
102
{ACAD_REACTORS
330
81F8
102
}
330
81F8
100
AcDbXrecord
280
     1
102
RTVSPost2010Prop28
280
     0
102
RTVSPost2010PropOp28
 70
     1
102
RTVSPost2010Prop29
280
     1
102
RTVSPost2010PropOp29
 70
     1
102
RTVSPost2010Prop30
280
     1
102
RTVSPost2010PropOp30
 70
     1
102
RTVSPost2010Prop31
280
     0
102
RTVSPost2010PropOp31
 70
     1
102
RTVSPost2010Prop32
280
     0
102
RTVSPost2010PropOp32
 70
     1
102
RTVSPost2010Prop33
280
     0
102
RTVSPost2010PropOp33
 70
     1
102
RTVSPost2010Prop34
280
     0
102
RTVSPost2010PropOp34
 70
     1
102
RTVSPost2010Prop35
280
     0
102
RTVSPost2010PropOp35
 70
     1
102
RTVSPost2010Prop36
280
     0
102
RTVSPost2010PropOp36
 70
     1
102
RTVSPost2010Prop37
 90
       50
102
RTVSPost2010PropOp37
 70
     1
102
RTVSPost2010Prop38
140
0.0
102
RTVSPost2010PropOp38
 70
     1
102
RTVSPost2010Prop39
140
1.0
102
RTVSPost2010PropOp39
 70
     1
102
RTVSPost2010Prop40
 90
        0
102
RTVSPost2010PropOp40
 70
     1
102
RTVSPost2010Prop41ColorIndex
 90
       18
102
RTVSPost2010Prop41ColorRGB
 90
        0
102
RTVSPost2010PropOp41
 70
     1
102
RTVSPost2010Prop42
 90
       50
102
RTVSPost2010PropOp42
 70
     1
102
RTVSPost2010Prop43
 90
        3
102
RTVSPost2010PropOp43
 70
     1
102
RTVSPost2010Prop44ColorIndex
 90
        5
102
RTVSPost2010Prop44ColorRGB
 90
      255
102
RTVSPost2010PropOp44
 70
     1
102
RTVSPost2010Prop45
280
     0
102
RTVSPost2010PropOp45
 70
     1
102
RTVSPost2010Prop46
 90
       50
102
RTVSPost2010PropOp46
 70
     1
102
RTVSPost2010Prop47
 90
       50
102
RTVSPost2010PropOp47
 70
     1
102
RTVSPost2010Prop48
 90
       50
102
RTVSPost2010PropOp48
 70
     1
102
RTVSPost2010Prop49
280
     0
102
RTVSPost2010PropOp49
 70
     1
102
RTVSPost2010Prop50
 90
       50
102
RTVSPost2010PropOp50
 70
     1
102
RTVSPost2010Prop51ColorIndex
 90
      256
102
RTVSPost2010Prop51ColorRGB
 90
-16777216
102
RTVSPost2010PropOp51
 70
     0
102
RTVSPost2010Prop52
140
1.0
102
RTVSPost2010PropOp52
 70
     0
102
RTVSPost2010Prop53
 90
        2
102
RTVSPost2010PropOp53
 70
     1
102
RTVSPost2010Prop54
  1
strokes_ogs.tif
102
RTVSPost2010PropOp54
 70
     1
102
RTVSPost2010Prop55
280
     0
102
RTVSPost2010PropOp55
 70
     1
102
RTVSPost2010Prop56
140
1.0
102
RTVSPost2010PropOp56
 70
     1
102
RTVSPost2010Prop57
140
1.0
102
RTVSPost2010PropOp57
 70
     1
102
RTVSPropertyOp0
 70
     1
102
RTVSPropertyOp1
 70
     1
102
RTVSPropertyOp2
 70
     1
102
RTVSPropertyOp3
 70
     1
102
RTVSPropertyOp4
 70
     1
102
RTVSPropertyOp5
 70
     1
102
RTVSPropertyOp6
 70
     1
102
RTVSPropertyOp7
 70
     1
102
RTVSPropertyOp8
 70
     1
102
RTVSPropertyOp9
 70
     1
102
RTVSPropertyOp10
 70
     1
102
RTVSPropertyOp11
 70
     1
102
RTVSPropertyOp12
 70
     1
102
RTVSPropertyOp13
 70
     1
102
RTVSPropertyOp14
 70
     1
102
RTVSPropertyOp15
 70
     1
102
RTVSPropertyOp16
 70
     1
102
RTVSPropertyOp17
 70
     1
102
RTVSPropertyOp18
 70
     1
102
RTVSPropertyOp19
 70
     1
102
RTVSPropertyOp20
 70
     1
102
RTVSPropertyOp21
 70
     1
102
RTVSPropertyOp22
 70
     1
102
RTVSPropertyOp23
 70
     1
102
RTVSPropertyOp24
 70
     1
102
RTVSPropertyOp25
 70
     1
102
RTVSPropertyOp26
 70
     1
102
RTVSPropertyOp27
 70
     1
102
RTVSPropertyOp28
 70
     1
102
RTVSPropertyOp29
 70
     1
102
RTVSPropertyOp30
 70
     1
102
RTVSPropertyOp31
 70
     1
102
RTVSPropertyOp32
 70
     1
102
RTVSPropertyOp33
 70
     1
102
RTVSPropertyOp34
 70
     1
102
RTVSPropertyOp35
 70
     1
102
RTVSPropertyOp36
 70
     1
102
RTVSPropertyOp37
 70
     1
102
RTVSPropertyOp38
 70
     1
102
RTVSPropertyOp39
 70
     1
102
RTVSPropertyOp40
 70
     1
102
RTVSPropertyOp41
 70
     1
102
RTVSPropertyOp42
 70
     1
102
RTVSPropertyOp43
 70
     1
102
RTVSPropertyOp44
 70
     1
102
RTVSPropertyOp45
 70
     1
102
RTVSPropertyOp46
 70
     1
102
RTVSPropertyOp47
 70
     1
102
RTVSPropertyOp48
 70
     1
102
RTVSPropertyOp49
 70
     1
102
RTVSPropertyOp50
 70
     1
102
RTVSPropertyOp51
 70
     0
102
RTVSPropertyOp52
 70
     0
102
RTVSPropertyOp53
 70
     1
102
RTVSPropertyOp54
 70
     1
102
RTVSPropertyOp55
 70
     1
102
RTVSPropertyOp56
 70
     1
102
RTVSPropertyOp57
 70
     1
102
RTVSPropertyOp58
 70
     1
102
RTVSPropertyOp59
 70
     1
102
RTVSPropertyOp60
 70
     1
102
RTVSPropertyOp61
 70
     1
102
RTVSPropertyOp62
 70
     1
  0
XRECORD
  5
81FB
102
{ACAD_REACTORS
330
81FA
102
}
330
81FA
100
AcDbXrecord
280
     1
102
RTVSPost2010Prop28
280
     0
102
RTVSPost2010PropOp28
 70
     1
102
RTVSPost2010Prop29
280
     1
102
RTVSPost2010PropOp29
 70
     1
102
RTVSPost2010Prop30
280
     1
102
RTVSPost2010PropOp30
 70
     1
102
RTVSPost2010Prop31
280
     0
102
RTVSPost2010PropOp31
 70
     1
102
RTVSPost2010Prop32
280
     0
102
RTVSPost2010PropOp32
 70
     1
102
RTVSPost2010Prop33
280
     0
102
RTVSPost2010PropOp33
 70
     1
102
RTVSPost2010Prop34
280
     0
102
RTVSPost2010PropOp34
 70
     1
102
RTVSPost2010Prop35
280
     0
102
RTVSPost2010PropOp35
 70
     1
102
RTVSPost2010Prop36
280
     0
102
RTVSPost2010PropOp36
 70
     1
102
RTVSPost2010Prop37
 90
       50
102
RTVSPost2010PropOp37
 70
     1
102
RTVSPost2010Prop38
140
0.0
102
RTVSPost2010PropOp38
 70
     1
102
RTVSPost2010Prop39
140
1.0
102
RTVSPost2010PropOp39
 70
     1
102
RTVSPost2010Prop40
 90
        0
102
RTVSPost2010PropOp40
 70
     1
102
RTVSPost2010Prop41ColorIndex
 90
       18
102
RTVSPost2010Prop41ColorRGB
 90
        0
102
RTVSPost2010PropOp41
 70
     1
102
RTVSPost2010Prop42
 90
       50
102
RTVSPost2010PropOp42
 70
     1
102
RTVSPost2010Prop43
 90
        3
102
RTVSPost2010PropOp43
 70
     1
102
RTVSPost2010Prop44ColorIndex
 90
        5
102
RTVSPost2010Prop44ColorRGB
 90
      255
102
RTVSPost2010PropOp44
 70
     1
102
RTVSPost2010Prop45
280
     0
102
RTVSPost2010PropOp45
 70
     1
102
RTVSPost2010Prop46
 90
       50
102
RTVSPost2010PropOp46
 70
     1
102
RTVSPost2010Prop47
 90
       50
102
RTVSPost2010PropOp47
 70
     1
102
RTVSPost2010Prop48
 90
       50
102
RTVSPost2010PropOp48
 70
     1
102
RTVSPost2010Prop49
280
     0
102
RTVSPost2010PropOp49
 70
     1
102
RTVSPost2010Prop50
 90
       50
102
RTVSPost2010PropOp50
 70
     1
102
RTVSPost2010Prop51ColorIndex
 90
      256
102
RTVSPost2010Prop51ColorRGB
 90
-16777216
102
RTVSPost2010PropOp51
 70
     0
102
RTVSPost2010Prop52
140
1.0
102
RTVSPost2010PropOp52
 70
     0
102
RTVSPost2010Prop53
 90
        2
102
RTVSPost2010PropOp53
 70
     1
102
RTVSPost2010Prop54
  1
strokes_ogs.tif
102
RTVSPost2010PropOp54
 70
     1
102
RTVSPost2010Prop55
280
     0
102
RTVSPost2010PropOp55
 70
     1
102
RTVSPost2010Prop56
140
1.0
102
RTVSPost2010PropOp56
 70
     1
102
RTVSPost2010Prop57
140
1.0
102
RTVSPost2010PropOp57
 70
     1
102
RTVSPropertyOp0
 70
     1
102
RTVSPropertyOp1
 70
     1
102
RTVSPropertyOp2
 70
     1
102
RTVSPropertyOp3
 70
     1
102
RTVSPropertyOp4
 70
     1
102
RTVSPropertyOp5
 70
     1
102
RTVSPropertyOp6
 70
     1
102
RTVSPropertyOp7
 70
     1
102
RTVSPropertyOp8
 70
     1
102
RTVSPropertyOp9
 70
     1
102
RTVSPropertyOp10
 70
     1
102
RTVSPropertyOp11
 70
     1
102
RTVSPropertyOp12
 70
     1
102
RTVSPropertyOp13
 70
     1
102
RTVSPropertyOp14
 70
     1
102
RTVSPropertyOp15
 70
     1
102
RTVSPropertyOp16
 70
     1
102
RTVSPropertyOp17
 70
     1
102
RTVSPropertyOp18
 70
     1
102
RTVSPropertyOp19
 70
     1
102
RTVSPropertyOp20
 70
     1
102
RTVSPropertyOp21
 70
     1
102
RTVSPropertyOp22
 70
     1
102
RTVSPropertyOp23
 70
     1
102
RTVSPropertyOp24
 70
     1
102
RTVSPropertyOp25
 70
     1
102
RTVSPropertyOp26
 70
     1
102
RTVSPropertyOp27
 70
     1
102
RTVSPropertyOp28
 70
     1
102
RTVSPropertyOp29
 70
     1
102
RTVSPropertyOp30
 70
     1
102
RTVSPropertyOp31
 70
     1
102
RTVSPropertyOp32
 70
     1
102
RTVSPropertyOp33
 70
     1
102
RTVSPropertyOp34
 70
     1
102
RTVSPropertyOp35
 70
     1
102
RTVSPropertyOp36
 70
     1
102
RTVSPropertyOp37
 70
     1
102
RTVSPropertyOp38
 70
     1
102
RTVSPropertyOp39
 70
     1
102
RTVSPropertyOp40
 70
     1
102
RTVSPropertyOp41
 70
     1
102
RTVSPropertyOp42
 70
     1
102
RTVSPropertyOp43
 70
     1
102
RTVSPropertyOp44
 70
     1
102
RTVSPropertyOp45
 70
     1
102
RTVSPropertyOp46
 70
     1
102
RTVSPropertyOp47
 70
     1
102
RTVSPropertyOp48
 70
     1
102
RTVSPropertyOp49
 70
     1
102
RTVSPropertyOp50
 70
     1
102
RTVSPropertyOp51
 70
     0
102
RTVSPropertyOp52
 70
     0
102
RTVSPropertyOp53
 70
     1
102
RTVSPropertyOp54
 70
     1
102
RTVSPropertyOp55
 70
     1
102
RTVSPropertyOp56
 70
     1
102
RTVSPropertyOp57
 70
     1
102
RTVSPropertyOp58
 70
     1
102
RTVSPropertyOp59
 70
     1
102
RTVSPropertyOp60
 70
     1
102
RTVSPropertyOp61
 70
     1
102
RTVSPropertyOp62
 70
     1
  0
XRECORD
  5
81F1
102
{ACAD_REACTORS
330
81F0
102
}
330
81F0
100
AcDbXrecord
280
     1
102
RTVSPost2010Prop28
280
     0
102
RTVSPost2010PropOp28
 70
     1
102
RTVSPost2010Prop29
280
     1
102
RTVSPost2010PropOp29
 70
     1
102
RTVSPost2010Prop30
280
     1
102
RTVSPost2010PropOp30
 70
     1
102
RTVSPost2010Prop31
280
     0
102
RTVSPost2010PropOp31
 70
     1
102
RTVSPost2010Prop32
280
     0
102
RTVSPost2010PropOp32
 70
     1
102
RTVSPost2010Prop33
280
     0
102
RTVSPost2010PropOp33
 70
     1
102
RTVSPost2010Prop34
280
     0
102
RTVSPost2010PropOp34
 70
     1
102
RTVSPost2010Prop35
280
     0
102
RTVSPost2010PropOp35
 70
     1
102
RTVSPost2010Prop36
280
     0
102
RTVSPost2010PropOp36
 70
     1
102
RTVSPost2010Prop37
 90
       50
102
RTVSPost2010PropOp37
 70
     1
102
RTVSPost2010Prop38
140
0.0
102
RTVSPost2010PropOp38
 70
     1
102
RTVSPost2010Prop39
140
1.0
102
RTVSPost2010PropOp39
 70
     1
102
RTVSPost2010Prop40
 90
        0
102
RTVSPost2010PropOp40
 70
     1
102
RTVSPost2010Prop41ColorIndex
 90
       18
102
RTVSPost2010Prop41ColorRGB
 90
        0
102
RTVSPost2010PropOp41
 70
     1
102
RTVSPost2010Prop42
 90
       50
102
RTVSPost2010PropOp42
 70
     1
102
RTVSPost2010Prop43
 90
        3
102
RTVSPost2010PropOp43
 70
     1
102
RTVSPost2010Prop44ColorIndex
 90
        5
102
RTVSPost2010Prop44ColorRGB
 90
      255
102
RTVSPost2010PropOp44
 70
     1
102
RTVSPost2010Prop45
280
     0
102
RTVSPost2010PropOp45
 70
     1
102
RTVSPost2010Prop46
 90
       50
102
RTVSPost2010PropOp46
 70
     1
102
RTVSPost2010Prop47
 90
       50
102
RTVSPost2010PropOp47
 70
     1
102
RTVSPost2010Prop48
 90
       50
102
RTVSPost2010PropOp48
 70
     1
102
RTVSPost2010Prop49
280
     0
102
RTVSPost2010PropOp49
 70
     1
102
RTVSPost2010Prop50
 90
       50
102
RTVSPost2010PropOp50
 70
     1
102
RTVSPost2010Prop51ColorIndex
 90
      256
102
RTVSPost2010Prop51ColorRGB
 90
-16777216
102
RTVSPost2010PropOp51
 70
     0
102
RTVSPost2010Prop52
140
1.0
102
RTVSPost2010PropOp52
 70
     0
102
RTVSPost2010Prop53
 90
        2
102
RTVSPost2010PropOp53
 70
     1
102
RTVSPost2010Prop54
  1
strokes_ogs.tif
102
RTVSPost2010PropOp54
 70
     1
102
RTVSPost2010Prop55
280
     0
102
RTVSPost2010PropOp55
 70
     1
102
RTVSPost2010Prop56
140
1.0
102
RTVSPost2010PropOp56
 70
     1
102
RTVSPost2010Prop57
140
1.0
102
RTVSPost2010PropOp57
 70
     1
102
RTVSPropertyOp0
 70
     1
102
RTVSPropertyOp1
 70
     1
102
RTVSPropertyOp2
 70
     1
102
RTVSPropertyOp3
 70
     1
102
RTVSPropertyOp4
 70
     1
102
RTVSPropertyOp5
 70
     1
102
RTVSPropertyOp6
 70
     1
102
RTVSPropertyOp7
 70
     1
102
RTVSPropertyOp8
 70
     1
102
RTVSPropertyOp9
 70
     1
102
RTVSPropertyOp10
 70
     1
102
RTVSPropertyOp11
 70
     1
102
RTVSPropertyOp12
 70
     1
102
RTVSPropertyOp13
 70
     1
102
RTVSPropertyOp14
 70
     1
102
RTVSPropertyOp15
 70
     1
102
RTVSPropertyOp16
 70
     1
102
RTVSPropertyOp17
 70
     1
102
RTVSPropertyOp18
 70
     1
102
RTVSPropertyOp19
 70
     1
102
RTVSPropertyOp20
 70
     1
102
RTVSPropertyOp21
 70
     1
102
RTVSPropertyOp22
 70
     1
102
RTVSPropertyOp23
 70
     1
102
RTVSPropertyOp24
 70
     1
102
RTVSPropertyOp25
 70
     1
102
RTVSPropertyOp26
 70
     1
102
RTVSPropertyOp27
 70
     1
102
RTVSPropertyOp28
 70
     1
102
RTVSPropertyOp29
 70
     1
102
RTVSPropertyOp30
 70
     1
102
RTVSPropertyOp31
 70
     1
102
RTVSPropertyOp32
 70
     1
102
RTVSPropertyOp33
 70
     1
102
RTVSPropertyOp34
 70
     1
102
RTVSPropertyOp35
 70
     1
102
RTVSPropertyOp36
 70
     1
102
RTVSPropertyOp37
 70
     1
102
RTVSPropertyOp38
 70
     1
102
RTVSPropertyOp39
 70
     1
102
RTVSPropertyOp40
 70
     1
102
RTVSPropertyOp41
 70
     1
102
RTVSPropertyOp42
 70
     1
102
RTVSPropertyOp43
 70
     1
102
RTVSPropertyOp44
 70
     1
102
RTVSPropertyOp45
 70
     1
102
RTVSPropertyOp46
 70
     1
102
RTVSPropertyOp47
 70
     1
102
RTVSPropertyOp48
 70
     1
102
RTVSPropertyOp49
 70
     1
102
RTVSPropertyOp50
 70
     1
102
RTVSPropertyOp51
 70
     0
102
RTVSPropertyOp52
 70
     0
102
RTVSPropertyOp53
 70
     1
102
RTVSPropertyOp54
 70
     1
102
RTVSPropertyOp55
 70
     1
102
RTVSPropertyOp56
 70
     1
102
RTVSPropertyOp57
 70
     1
102
RTVSPropertyOp58
 70
     1
102
RTVSPropertyOp59
 70
     1
102
RTVSPropertyOp60
 70
     1
102
RTVSPropertyOp61
 70
     1
102
RTVSPropertyOp62
 70
     1
  0
XRECORD
  5
81E5
102
{ACAD_REACTORS
330
81E4
102
}
330
81E4
100
AcDbXrecord
280
     1
102
RTVSPost2010Prop28
280
     0
102
RTVSPost2010PropOp28
 70
     1
102
RTVSPost2010Prop29
280
     1
102
RTVSPost2010PropOp29
 70
     1
102
RTVSPost2010Prop30
280
     1
102
RTVSPost2010PropOp30
 70
     1
102
RTVSPost2010Prop31
280
     0
102
RTVSPost2010PropOp31
 70
     1
102
RTVSPost2010Prop32
280
     0
102
RTVSPost2010PropOp32
 70
     1
102
RTVSPost2010Prop33
280
     0
102
RTVSPost2010PropOp33
 70
     1
102
RTVSPost2010Prop34
280
     0
102
RTVSPost2010PropOp34
 70
     1
102
RTVSPost2010Prop35
280
     0
102
RTVSPost2010PropOp35
 70
     1
102
RTVSPost2010Prop36
280
     0
102
RTVSPost2010PropOp36
 70
     1
102
RTVSPost2010Prop37
 90
       50
102
RTVSPost2010PropOp37
 70
     1
102
RTVSPost2010Prop38
140
0.0
102
RTVSPost2010PropOp38
 70
     1
102
RTVSPost2010Prop39
140
1.0
102
RTVSPost2010PropOp39
 70
     1
102
RTVSPost2010Prop40
 90
        0
102
RTVSPost2010PropOp40
 70
     1
102
RTVSPost2010Prop41ColorIndex
 90
       18
102
RTVSPost2010Prop41ColorRGB
 90
        0
102
RTVSPost2010PropOp41
 70
     1
102
RTVSPost2010Prop42
 90
       50
102
RTVSPost2010PropOp42
 70
     1
102
RTVSPost2010Prop43
 90
        3
102
RTVSPost2010PropOp43
 70
     1
102
RTVSPost2010Prop44ColorIndex
 90
        5
102
RTVSPost2010Prop44ColorRGB
 90
      255
102
RTVSPost2010PropOp44
 70
     1
102
RTVSPost2010Prop45
280
     0
102
RTVSPost2010PropOp45
 70
     1
102
RTVSPost2010Prop46
 90
       50
102
RTVSPost2010PropOp46
 70
     1
102
RTVSPost2010Prop47
 90
       50
102
RTVSPost2010PropOp47
 70
     1
102
RTVSPost2010Prop48
 90
       50
102
RTVSPost2010PropOp48
 70
     1
102
RTVSPost2010Prop49
280
     0
102
RTVSPost2010PropOp49
 70
     1
102
RTVSPost2010Prop50
 90
       50
102
RTVSPost2010PropOp50
 70
     1
102
RTVSPost2010Prop51ColorIndex
 90
      256
102
RTVSPost2010Prop51ColorRGB
 90
-16777216
102
RTVSPost2010PropOp51
 70
     0
102
RTVSPost2010Prop52
140
1.0
102
RTVSPost2010PropOp52
 70
     0
102
RTVSPost2010Prop53
 90
        2
102
RTVSPost2010PropOp53
 70
     1
102
RTVSPost2010Prop54
  1
strokes_ogs.tif
102
RTVSPost2010PropOp54
 70
     1
102
RTVSPost2010Prop55
280
     0
102
RTVSPost2010PropOp55
 70
     1
102
RTVSPost2010Prop56
140
1.0
102
RTVSPost2010PropOp56
 70
     1
102
RTVSPost2010Prop57
140
1.0
102
RTVSPost2010PropOp57
 70
     1
102
RTVSPropertyOp0
 70
     1
102
RTVSPropertyOp1
 70
     1
102
RTVSPropertyOp2
 70
     1
102
RTVSPropertyOp3
 70
     1
102
RTVSPropertyOp4
 70
     1
102
RTVSPropertyOp5
 70
     1
102
RTVSPropertyOp6
 70
     1
102
RTVSPropertyOp7
 70
     1
102
RTVSPropertyOp8
 70
     1
102
RTVSPropertyOp9
 70
     1
102
RTVSPropertyOp10
 70
     1
102
RTVSPropertyOp11
 70
     1
102
RTVSPropertyOp12
 70
     1
102
RTVSPropertyOp13
 70
     1
102
RTVSPropertyOp14
 70
     1
102
RTVSPropertyOp15
 70
     1
102
RTVSPropertyOp16
 70
     1
102
RTVSPropertyOp17
 70
     1
102
RTVSPropertyOp18
 70
     1
102
RTVSPropertyOp19
 70
     1
102
RTVSPropertyOp20
 70
     1
102
RTVSPropertyOp21
 70
     1
102
RTVSPropertyOp22
 70
     1
102
RTVSPropertyOp23
 70
     1
102
RTVSPropertyOp24
 70
     1
102
RTVSPropertyOp25
 70
     1
102
RTVSPropertyOp26
 70
     1
102
RTVSPropertyOp27
 70
     1
102
RTVSPropertyOp28
 70
     1
102
RTVSPropertyOp29
 70
     1
102
RTVSPropertyOp30
 70
     1
102
RTVSPropertyOp31
 70
     1
102
RTVSPropertyOp32
 70
     1
102
RTVSPropertyOp33
 70
     1
102
RTVSPropertyOp34
 70
     1
102
RTVSPropertyOp35
 70
     1
102
RTVSPropertyOp36
 70
     1
102
RTVSPropertyOp37
 70
     1
102
RTVSPropertyOp38
 70
     1
102
RTVSPropertyOp39
 70
     1
102
RTVSPropertyOp40
 70
     1
102
RTVSPropertyOp41
 70
     1
102
RTVSPropertyOp42
 70
     1
102
RTVSPropertyOp43
 70
     1
102
RTVSPropertyOp44
 70
     1
102
RTVSPropertyOp45
 70
     1
102
RTVSPropertyOp46
 70
     1
102
RTVSPropertyOp47
 70
     1
102
RTVSPropertyOp48
 70
     1
102
RTVSPropertyOp49
 70
     1
102
RTVSPropertyOp50
 70
     1
102
RTVSPropertyOp51
 70
     0
102
RTVSPropertyOp52
 70
     0
102
RTVSPropertyOp53
 70
     1
102
RTVSPropertyOp54
 70
     1
102
RTVSPropertyOp55
 70
     1
102
RTVSPropertyOp56
 70
     1
102
RTVSPropertyOp57
 70
     1
102
RTVSPropertyOp58
 70
     1
102
RTVSPropertyOp59
 70
     1
102
RTVSPropertyOp60
 70
     1
102
RTVSPropertyOp61
 70
     1
102
RTVSPropertyOp62
 70
     1
  0
XRECORD
  5
81FD
102
{ACAD_REACTORS
330
81FC
102
}
330
81FC
100
AcDbXrecord
280
     1
102
RTVSPost2010Prop28
280
     0
102
RTVSPost2010PropOp28
 70
     1
102
RTVSPost2010Prop29
280
     1
102
RTVSPost2010PropOp29
 70
     1
102
RTVSPost2010Prop30
280
     1
102
RTVSPost2010PropOp30
 70
     1
102
RTVSPost2010Prop31
280
     0
102
RTVSPost2010PropOp31
 70
     1
102
RTVSPost2010Prop32
280
     0
102
RTVSPost2010PropOp32
 70
     1
102
RTVSPost2010Prop33
280
     0
102
RTVSPost2010PropOp33
 70
     1
102
RTVSPost2010Prop34
280
     0
102
RTVSPost2010PropOp34
 70
     1
102
RTVSPost2010Prop35
280
     0
102
RTVSPost2010PropOp35
 70
     1
102
RTVSPost2010Prop36
280
     0
102
RTVSPost2010PropOp36
 70
     1
102
RTVSPost2010Prop37
 90
       50
102
RTVSPost2010PropOp37
 70
     1
102
RTVSPost2010Prop38
140
0.0
102
RTVSPost2010PropOp38
 70
     1
102
RTVSPost2010Prop39
140
1.0
102
RTVSPost2010PropOp39
 70
     1
102
RTVSPost2010Prop40
 90
        0
102
RTVSPost2010PropOp40
 70
     1
102
RTVSPost2010Prop41ColorIndex
 90
       18
102
RTVSPost2010Prop41ColorRGB
 90
        0
102
RTVSPost2010PropOp41
 70
     1
102
RTVSPost2010Prop42
 90
       50
102
RTVSPost2010PropOp42
 70
     1
102
RTVSPost2010Prop43
 90
        3
102
RTVSPost2010PropOp43
 70
     1
102
RTVSPost2010Prop44ColorIndex
 90
        5
102
RTVSPost2010Prop44ColorRGB
 90
      255
102
RTVSPost2010PropOp44
 70
     1
102
RTVSPost2010Prop45
280
     0
102
RTVSPost2010PropOp45
 70
     1
102
RTVSPost2010Prop46
 90
       50
102
RTVSPost2010PropOp46
 70
     1
102
RTVSPost2010Prop47
 90
       50
102
RTVSPost2010PropOp47
 70
     1
102
RTVSPost2010Prop48
 90
       50
102
RTVSPost2010PropOp48
 70
     1
102
RTVSPost2010Prop49
280
     0
102
RTVSPost2010PropOp49
 70
     1
102
RTVSPost2010Prop50
 90
       50
102
RTVSPost2010PropOp50
 70
     1
102
RTVSPost2010Prop51ColorIndex
 90
      256
102
RTVSPost2010Prop51ColorRGB
 90
-16777216
102
RTVSPost2010PropOp51
 70
     0
102
RTVSPost2010Prop52
140
1.0
102
RTVSPost2010PropOp52
 70
     0
102
RTVSPost2010Prop53
 90
        2
102
RTVSPost2010PropOp53
 70
     1
102
RTVSPost2010Prop54
  1
strokes_ogs.tif
102
RTVSPost2010PropOp54
 70
     1
102
RTVSPost2010Prop55
280
     0
102
RTVSPost2010PropOp55
 70
     1
102
RTVSPost2010Prop56
140
1.0
102
RTVSPost2010PropOp56
 70
     1
102
RTVSPost2010Prop57
140
1.0
102
RTVSPost2010PropOp57
 70
     1
102
RTVSPropertyOp0
 70
     1
102
RTVSPropertyOp1
 70
     1
102
RTVSPropertyOp2
 70
     1
102
RTVSPropertyOp3
 70
     1
102
RTVSPropertyOp4
 70
     1
102
RTVSPropertyOp5
 70
     1
102
RTVSPropertyOp6
 70
     1
102
RTVSPropertyOp7
 70
     1
102
RTVSPropertyOp8
 70
     1
102
RTVSPropertyOp9
 70
     1
102
RTVSPropertyOp10
 70
     1
102
RTVSPropertyOp11
 70
     1
102
RTVSPropertyOp12
 70
     1
102
RTVSPropertyOp13
 70
     1
102
RTVSPropertyOp14
 70
     1
102
RTVSPropertyOp15
 70
     1
102
RTVSPropertyOp16
 70
     1
102
RTVSPropertyOp17
 70
     1
102
RTVSPropertyOp18
 70
     1
102
RTVSPropertyOp19
 70
     1
102
RTVSPropertyOp20
 70
     1
102
RTVSPropertyOp21
 70
     1
102
RTVSPropertyOp22
 70
     1
102
RTVSPropertyOp23
 70
     1
102
RTVSPropertyOp24
 70
     1
102
RTVSPropertyOp25
 70
     1
102
RTVSPropertyOp26
 70
     1
102
RTVSPropertyOp27
 70
     1
102
RTVSPropertyOp28
 70
     1
102
RTVSPropertyOp29
 70
     1
102
RTVSPropertyOp30
 70
     1
102
RTVSPropertyOp31
 70
     1
102
RTVSPropertyOp32
 70
     1
102
RTVSPropertyOp33
 70
     1
102
RTVSPropertyOp34
 70
     1
102
RTVSPropertyOp35
 70
     1
102
RTVSPropertyOp36
 70
     1
102
RTVSPropertyOp37
 70
     1
102
RTVSPropertyOp38
 70
     1
102
RTVSPropertyOp39
 70
     1
102
RTVSPropertyOp40
 70
     1
102
RTVSPropertyOp41
 70
     1
102
RTVSPropertyOp42
 70
     1
102
RTVSPropertyOp43
 70
     1
102
RTVSPropertyOp44
 70
     1
102
RTVSPropertyOp45
 70
     1
102
RTVSPropertyOp46
 70
     1
102
RTVSPropertyOp47
 70
     1
102
RTVSPropertyOp48
 70
     1
102
RTVSPropertyOp49
 70
     1
102
RTVSPropertyOp50
 70
     1
102
RTVSPropertyOp51
 70
     0
102
RTVSPropertyOp52
 70
     0
102
RTVSPropertyOp53
 70
     1
102
RTVSPropertyOp54
 70
     1
102
RTVSPropertyOp55
 70
     1
102
RTVSPropertyOp56
 70
     1
102
RTVSPropertyOp57
 70
     1
102
RTVSPropertyOp58
 70
     1
102
RTVSPropertyOp59
 70
     1
102
RTVSPropertyOp60
 70
     1
102
RTVSPropertyOp61
 70
     1
102
RTVSPropertyOp62
 70
     1
  0
ENDSEC
  0
EOF
