  0
SECTION
  2
HEADER
  9
$ACADVER
  1
AC1015
  9
$ACADMAINTVER
 70
    20
  9
$DWGCODEPAGE
  3
ANSI_932
  9
$INSBASE
 10
0.0
 20
0.0
 30
0.0
  9
$EXTMIN
 10
-0.1281640493871237
 20
-0.1800399741405272
 30
-0.0015258207003583
  9
$EXTMAX
 10
4200.128183607161
 20
5900.180067448153
 30
0.0000000349246037
  9
$LIMMIN
 10
0.0
 20
0.0
  9
$LIMMAX
 10
297.0
 20
210.0
  9
$ORTHOMODE
 70
     1
  9
$REGENMODE
 70
     1
  9
$FILLMODE
 70
     0
  9
$QTEXTMODE
 70
     0
  9
$MIRRTEXT
 70
     1
  9
$LTSCALE
 40
100.0
  9
$ATTMODE
 70
     1
  9
$TEXTSIZE
 40
180.0
  9
$TRACEWID
 40
0.05
  9
$TEXTSTYLE
  7
STANDARD
  9
$CLAYER
  8
3
  9
$CELTYPE
  6
ByLayer
  9
$CECOLOR
 62
   256
  9
$CELTSCALE
 40
1.0
  9
$DISPSILH
 70
     0
  9
$DIMSCALE
 40
20.0
  9
$DIMASZ
 40
2.0
  9
$DIMEXO
 40
1.0
  9
$DIMDLI
 40
10.0
  9
$DIMRND
 40
0.0
  9
$DIMDLE
 40
0.0
  9
$DIMEXE
 40
1.0
  9
$DIMTP
 40
1.0
  9
$DIMTM
 40
1.0
  9
$DIMTXT
 40
3.0
  9
$DIMCEN
 40
0.0
  9
$DIMTSZ
 40
0.0
  9
$DIMTOL
 70
     0
  9
$DIMLIM
 70
     0
  9
$DIMTIH
 70
     0
  9
$DIMTOH
 70
     0
  9
$DIMSE1
 70
     0
  9
$DIMSE2
 70
     0
  9
$DIMTAD
 70
     1
  9
$DIMZIN
 70
     8
  9
$DIMBLK
  1

  9
$DIMASO
 70
     1
  9
$DIMSHO
 70
     1
  9
$DIMPOST
  1

  9
$DIMAPOST
  1

  9
$DIMALT
 70
     0
  9
$DIMALTD
 70
     2
  9
$DIMALTF
 40
0.039
  9
$DIMLFAC
 40
1.0
  9
$DIMTOFL
 70
     1
  9
$DIMTVP
 40
0.0
  9
$DIMTIX
 70
     0
  9
$DIMSOXD
 70
     0
  9
$DIMSAH
 70
     1
  9
$DIMBLK1
  1
OPEN
  9
$DIMBLK2
  1
OPEN
  9
$DIMSTYLE
  2
IGA
  9
$DIMCLRD
 70
     0
  9
$DIMCLRE
 70
     0
  9
$DIMCLRT
 70
     0
  9
$DIMTFAC
 40
10.0
  9
$DIMGAP
 40
1.0
  9
$DIMJUST
 70
     0
  9
$DIMSD1
 70
     0
  9
$DIMSD2
 70
     0
  9
$DIMTOLJ
 70
     1
  9
$DIMTZIN
 70
     0
  9
$DIMALTZ
 70
     0
  9
$DIMALTTZ
 70
     0
  9
$DIMUPT
 70
     0
  9
$DIMDEC
 70
     4
  9
$DIMTDEC
 70
     4
  9
$DIMALTU
 70
     2
  9
$DIMALTTD
 70
     2
  9
$DIMTXSTY
  7
STANDARD
  9
$DIMAUNIT
 70
     0
  9
$DIMADEC
 70
     0
  9
$DIMALTRND
 40
0.0
  9
$DIMAZIN
 70
     0
  9
$DIMDSEP
 70
    46
  9
$DIMATFIT
 70
     3
  9
$DIMFRAC
 70
     0
  9
$DIMLDRBLK
  1
OPEN
  9
$DIMLUNIT
 70
     2
  9
$DIMLWD
 70
    -2
  9
$DIMLWE
 70
    -2
  9
$DIMTMOVE
 70
     0
  9
$LUNITS
 70
     2
  9
$LUPREC
 70
     3
  9
$SKETCHINC
 40
0.1
  9
$FILLETRAD
 40
50.0
  9
$AUNITS
 70
     0
  9
$AUPREC
 70
     0
  9
$MENU
  1
acad
  9
$ELEVATION
 40
0.0
  9
$PELEVATION
 40
0.0
  9
$THICKNESS
 40
0.0
  9
$LIMCHECK
 70
     0
  9
$CHAMFERA
 40
0.5
  9
$CHAMFERB
 40
0.5
  9
$CHAMFERC
 40
0.0
  9
$CHAMFERD
 40
0.0
  9
$SKPOLY
 70
     0
  9
$TDCREATE
 40
2451387.576625463
  9
$TDUCREATE
 40
2451387.201625463
  9
$TDUPDATE
 40
2460262.638706204
  9
$TDUUPDATE
 40
2460262.263706204
  9
$TDINDWG
 40
0.0118856713
  9
$TDUSRTIMER
 40
0.0118856481
  9
$USRTIMER
 70
     1
  9
$ANGBASE
 50
0.0
  9
$ANGDIR
 70
     0
  9
$PDMODE
 70
     0
  9
$PDSIZE
 40
0.0
  9
$PLINEWID
 40
0.0
  9
$SPLFRAME
 70
     0
  9
$SPLINETYPE
 70
     6
  9
$SPLINESEGS
 70
     8
  9
$HANDSEED
  5
83CE
  9
$SURFTAB1
 70
     6
  9
$SURFTAB2
 70
     6
  9
$SURFTYPE
 70
     6
  9
$SURFU
 70
     6
  9
$SURFV
 70
     6
  9
$UCSBASE
  2

  9
$UCSNAME
  2

  9
$UCSORG
 10
0.0
 20
0.0
 30
0.0
  9
$UCSXDIR
 10
1.0
 20
0.0
 30
0.0
  9
$UCSYDIR
 10
0.0
 20
1.0
 30
0.0
  9
$UCSORTHOREF
  2

  9
$UCSORTHOVIEW
 70
     0
  9
$UCSORGTOP
 10
0.0
 20
0.0
 30
0.0
  9
$UCSORGBOTTOM
 10
0.0
 20
0.0
 30
0.0
  9
$UCSORGLEFT
 10
0.0
 20
0.0
 30
0.0
  9
$UCSORGRIGHT
 10
0.0
 20
0.0
 30
0.0
  9
$UCSORGFRONT
 10
0.0
 20
0.0
 30
0.0
  9
$UCSORGBACK
 10
0.0
 20
0.0
 30
0.0
  9
$PUCSBASE
  2

  9
$PUCSNAME
  2

  9
$PUCSORG
 10
0.0
 20
0.0
 30
0.0
  9
$PUCSXDIR
 10
1.0
 20
0.0
 30
0.0
  9
$PUCSYDIR
 10
0.0
 20
1.0
 30
0.0
  9
$PUCSORTHOREF
  2

  9
$PUCSORTHOVIEW
 70
     0
  9
$PUCSORGTOP
 10
0.0
 20
0.0
 30
0.0
  9
$PUCSORGBOTTOM
 10
0.0
 20
0.0
 30
0.0
  9
$PUCSORGLEFT
 10
0.0
 20
0.0
 30
0.0
  9
$PUCSORGRIGHT
 10
0.0
 20
0.0
 30
0.0
  9
$PUCSORGFRONT
 10
0.0
 20
0.0
 30
0.0
  9
$PUCSORGBACK
 10
0.0
 20
0.0
 30
0.0
  9
$USERI1
 70
     0
  9
$USERI2
 70
     0
  9
$USERI3
 70
     0
  9
$USERI4
 70
     0
  9
$USERI5
 70
     0
  9
$USERR1
 40
0.0
  9
$USERR2
 40
0.0
  9
$USERR3
 40
0.0
  9
$USERR4
 40
0.0
  9
$USERR5
 40
0.0
  9
$WORLDVIEW
 70
     1
  9
$SHADEDGE
 70
     3
  9
$SHADEDIF
 70
    70
  9
$TILEMODE
 70
     1
  9
$MAXACTVP
 70
    16
  9
$PINSBASE
 10
0.0
 20
0.0
 30
0.0
  9
$PLIMCHECK
 70
     0
  9
$PEXTMIN
 10
1.000000000000000E+20
 20
1.000000000000000E+20
 30
1.000000000000000E+20
  9
$PEXTMAX
 10
-1.000000000000000E+20
 20
-1.000000000000000E+20
 30
-1.000000000000000E+20
  9
$PLIMMIN
 10
0.0
 20
0.0
  9
$PLIMMAX
 10
12.0
 20
9.0
  9
$UNITMODE
 70
     0
  9
$VISRETAIN
 70
     0
  9
$PLINEGEN
 70
     0
  9
$PSLTSCALE
 70
     1
  9
$TREEDEPTH
 70
  3020
  9
$CMLSTYLE
  2
Standard
  9
$CMLJUST
 70
     0
  9
$CMLSCALE
 40
1.0
  9
$PROXYGRAPHICS
 70
     1
  9
$MEASUREMENT
 70
     0
  9
$CELWEIGHT
370
    -1
  9
$ENDCAPS
280
     0
  9
$JOINSTYLE
280
     0
  9
$LWDISPLAY
290
     0
  9
$INSUNITS
 70
     0
  9
$HYPERLINKBASE
  1

  9
$STYLESHEET
  1

  9
$XEDIT
290
     1
  9
$CEPSNTYPE
380
     0
  9
$PSTYLEMODE
290
     1
  9
$FINGERPRINTGUID
  2
{0233109D-7CE9-4DA6-A384-AF0B69412DFD}
  9
$VERSIONGUID
  2
{72D778A3-CC42-406E-B137-EDCCC00A8F23}
  9
$EXTNAMES
290
     1
  9
$PSVPSCALE
 40
0.0
  9
$OLESTARTUP
290
     0
  0
ENDSEC
  0
SECTION
  2
CLASSES
  0
CLASS
  1
ACDBDICTIONARYWDFLT
  2
AcDbDictionaryWithDefault
  3
ObjectDBX Classes
 90
        0
280
     0
281
     0
  0
CLASS
  1
MATERIAL
  2
AcDbMaterial
  3
ObjectDBX Classes
 90
     1153
280
     0
281
     0
  0
CLASS
  1
VISUALSTYLE
  2
AcDbVisualStyle
  3
ObjectDBX Classes
 90
     4095
280
     0
281
     0
  0
CLASS
  1
SCALE
  2
AcDbScale
  3
ObjectDBX Classes
 90
     1153
280
     0
281
     0
  0
CLASS
  1
TABLESTYLE
  2
AcDbTableStyle
  3
ObjectDBX Classes
 90
     4095
280
     0
281
     0
  0
CLASS
  1
MLEADERSTYLE
  2
AcDbMLeaderStyle
  3
ACDB_MLEADERSTYLE_CLASS
 90
     4095
280
     0
281
     0
  0
CLASS
  1
ACDBSECTIONVIEWSTYLE
  2
AcDbSectionViewStyle
  3
ObjectDBX Classes
 90
     1025
280
     0
281
     0
  0
CLASS
  1
ACDBDETAILVIEWSTYLE
  2
AcDbDetailViewStyle
  3
ObjectDBX Classes
 90
     1025
280
     0
281
     0
  0
CLASS
  1
DICTIONARYVAR
  2
AcDbDictionaryVar
  3
ObjectDBX Classes
 90
        0
280
     0
281
     0
  0
CLASS
  1
CELLSTYLEMAP
  2
AcDbCellStyleMap
  3
ObjectDBX Classes
 90
     1152
280
     0
281
     0
  0
CLASS
  1
ACDBPLACEHOLDER
  2
AcDbPlaceHolder
  3
ObjectDBX Classes
 90
        0
280
     0
281
     0
  0
CLASS
  1
LAYOUT
  2
AcDbLayout
  3
ObjectDBX Classes
 90
        0
280
     0
281
     0
  0
ENDSEC
  0
SECTION
  2
TABLES
  0
TABLE
  2
VPORT
  5
80C9
330
0
100
AcDbSymbolTable
 70
     1
  0
VPORT
  5
8135
330
80C9
100
AcDbSymbolTableRecord
100
AcDbViewportTableRecord
  2
*ACTIVE
 70
     0
 10
0.0
 20
0.0
 11
1.0
 21
1.0
 12
2100.000009778887
 22
2950.000013737006
 13
0.0
 23
0.0
 14
10.0
 24
10.0
 15
10.0
 25
10.0
 16
0.0
 26
0.0
 36
1.0
 17
0.0
 27
0.0
 37
0.0
 40
5938.142562752639
 41
2.050213675213675
 42
50.0
 43
0.0
 44
0.0
 50
0.0
 51
0.0
 71
     0
 72
   100
 73
     1
 74
     0
 75
     0
 76
     0
 77
     0
 78
     0
281
     0
 65
     1
110
0.0
120
0.0
130
0.0
111
1.0
121
0.0
131
0.0
112
0.0
122
1.0
132
0.0
 79
     0
146
0.0
1001
ACAD_NAV_VCDISPLAY
1070
     3
  0
ENDTAB
  0
TABLE
  2
LTYPE
  5
80C6
330
0
100
AcDbSymbolTable
 70
     3
  0
LTYPE
  5
811B
330
80C6
100
AcDbSymbolTableRecord
100
AcDbLinetypeTableRecord
  2
ByBlock
 70
     0
  3

 72
    65
 73
     0
 40
0.0
  0
LTYPE
  5
811C
330
80C6
100
AcDbSymbolTableRecord
100
AcDbLinetypeTableRecord
  2
ByLayer
 70
     0
  3

 72
    65
 73
     0
 40
0.0
  0
LTYPE
  5
811D
330
80C6
100
AcDbSymbolTableRecord
100
AcDbLinetypeTableRecord
  2
CONTINUOUS
 70
     0
  3
Solid line
 72
    65
 73
     0
 40
0.0
  0
LTYPE
  5
8136
330
80C6
100
AcDbSymbolTableRecord
100
AcDbLinetypeTableRecord
  2
CENTER
 70
     0
  3
____ _ ____ _ ____ _ ____ _ ____ _ ____ _ ____ 
 72
    65
 73
     4
 40
2.0
 49
1.25
 74
     0
 49
-0.25
 74
     0
 49
0.25
 74
     0
 49
-0.25
 74
     0
  0
ENDTAB
  0
TABLE
  2
LAYER
  5
80C3
330
0
100
AcDbSymbolTable
 70
     6
  0
LAYER
  5
8115
102
{ACAD_XDICTIONARY
360
8337
102
}
330
80C3
100
AcDbSymbolTableRecord
100
AcDbLayerTableRecord
  2
0
 70
     0
 62
     7
  6
CONTINUOUS
370
    -3
390
80D0
  0
LAYER
  5
8134
102
{ACAD_XDICTIONARY
360
8339
102
}
330
80C3
100
AcDbSymbolTableRecord
100
AcDbLayerTableRecord
  2
3
 70
     0
 62
     2
  6
CONTINUOUS
370
    -3
390
80D0
  0
LAYER
  5
8137
102
{ACAD_XDICTIONARY
360
833B
102
}
330
80C3
100
AcDbSymbolTableRecord
100
AcDbLayerTableRecord
  2
2
 70
     0
 62
     3
  6
CENTER
370
    -3
390
80D0
  0
LAYER
  5
8138
102
{ACAD_XDICTIONARY
360
833D
102
}
330
80C3
100
AcDbSymbolTableRecord
100
AcDbLayerTableRecord
  2
1
 70
     0
 62
     4
  6
CONTINUOUS
370
    -3
390
80D0
  0
LAYER
  5
8139
102
{ACAD_XDICTIONARY
360
833F
102
}
330
80C3
100
AcDbSymbolTableRecord
100
AcDbLayerTableRecord
  2
4
 70
     0
 62
     7
  6
CONTINUOUS
370
    -3
390
80D0
  0
LAYER
  5
813A
330
80C3
100
AcDbSymbolTableRecord
100
AcDbLayerTableRecord
  2
DEFPOINTS
 70
     0
 62
     7
  6
CONTINUOUS
290
     0
370
    -3
390
80D0
  0
ENDTAB
  0
TABLE
  2
STYLE
  5
80C4
330
0
100
AcDbSymbolTable
 70
     2
  0
STYLE
  5
8116
330
80C4
100
AcDbSymbolTableRecord
100
AcDbTextStyleTableRecord
  2
STANDARD
 70
     0
 40
0.0
 41
1.0
 50
0.0
 71
     0
 42
180.0
  3
simplex.shx
  4
extfont.shx
  0
STYLE
  5
811A
330
80C4
100
AcDbSymbolTableRecord
100
AcDbTextStyleTableRecord
  2
Annotative
 70
     0
 40
0.0
 41
1.0
 50
0.0
 71
     0
 42
0.2
  3
txt
  4

1001
AcadAnnotative
1000
AnnotativeData
1002
{
1070
     1
1070
     1
1002
}
  0
ENDTAB
  0
TABLE
  2
VIEW
  5
80C7
330
0
100
AcDbSymbolTable
 70
     0
  0
ENDTAB
  0
TABLE
  2
UCS
  5
80C8
330
0
100
AcDbSymbolTable
 70
     0
  0
ENDTAB
  0
TABLE
  2
APPID
  5
80CA
330
0
100
AcDbSymbolTable
 70
     8
  0
APPID
  5
8117
330
80CA
100
AcDbSymbolTableRecord
100
AcDbRegAppTableRecord
  2
ACAD
 70
     0
  0
APPID
  5
811E
330
80CA
100
AcDbSymbolTableRecord
100
AcDbRegAppTableRecord
  2
AcadAnnotative
 70
     0
  0
APPID
  5
817C
330
80CA
100
AcDbSymbolTableRecord
100
AcDbRegAppTableRecord
  2
ACAD_DSTYLE_DIMJAG
 70
     0
  0
APPID
  5
817D
330
80CA
100
AcDbSymbolTableRecord
100
AcDbRegAppTableRecord
  2
ACAD_DSTYLE_DIMTALN
 70
     0
  0
APPID
  5
81B3
330
80CA
100
AcDbSymbolTableRecord
100
AcDbRegAppTableRecord
  2
AcadAnnoMonitorAlertIconDisabled
 70
     0
  0
APPID
  5
81B4
330
80CA
100
AcDbSymbolTableRecord
100
AcDbRegAppTableRecord
  2
ACAD_EXEMPT_FROM_CAD_STANDARDS
 70
     0
  0
APPID
  5
834B
330
80CA
100
AcDbSymbolTableRecord
100
AcDbRegAppTableRecord
  2
ACAD_NAV_VCDISPLAY
 70
     0
  0
APPID
  5
83C5
330
80CA
100
AcDbSymbolTableRecord
100
AcDbRegAppTableRecord
  2
ACAD_MLEADERVER
 70
     0
  0
ENDTAB
  0
TABLE
  2
DIMSTYLE
  5
80CB
330
0
100
AcDbSymbolTable
 70
     4
100
AcDbDimStyleTable
 71
     1
340
813B
  0
DIMSTYLE
105
8118
102
{ACAD_REACTORS
330
7C26
330
7C27
330
7C4E
330
7C51
330
7C84
330
7C85
330
7C86
330
7C8C
330
7C9C
330
7C9E
330
7CA1
330
7FD2
330
7FDF
330
7FEC
330
7FF9
102
}
330
80CB
100
AcDbSymbolTableRecord
100
AcDbDimStyleTableRecord
  2
Standard
 70
     0
340
8116
  0
DIMSTYLE
105
8119
330
80CB
100
AcDbSymbolTableRecord
100
AcDbDimStyleTableRecord
  2
Annotative
 70
     0
340
8116
1001
AcadAnnotative
1000
AnnotativeData
1002
{
1070
     1
1070
     1
1002
}
  0
DIMSTYLE
105
813B
102
{ACAD_REACTORS
330
817E
330
818B
330
81EC
330
81F9
330
820F
330
821C
330
8286
330
8318
102
}
330
80CB
100
AcDbSymbolTableRecord
100
AcDbDimStyleTableRecord
  2
IGA
 70
     0
 40
2.0
 41
2.0
 42
0.5
 43
10.0
 44
1.0
 47
1.0
 48
1.0
 73
     0
 74
     0
 77
     1
 78
     8
140
3.0
141
0.0
143
0.03937
146
10.0
147
1.0
173
     1
271
     3
272
     3
279
     2
284
     8
285
     8
286
     8
340
8116
  0
DIMSTYLE
105
813C
330
80CB
100
AcDbSymbolTableRecord
100
AcDbDimStyleTableRecord
  2
MATSU
 70
     0
 41
2.0
 42
1.0
 43
10.0
 44
1.0
 73
     0
 74
     0
 77
     1
 78
     8
140
3.0
141
0.0
143
0.03937
147
0.5
172
     1
173
     1
176
   256
177
   256
178
   256
271
     3
272
     3
279
     2
284
     8
285
     8
286
     8
340
8116
  0
ENDTAB
  0
TABLE
  2
BLOCK_RECORD
  5
80C2
330
0
100
AcDbSymbolTable
 70
    38
  0
BLOCK_RECORD
  5
8130
330
80C2
100
AcDbSymbolTableRecord
100
AcDbBlockTableRecord
  2
*Model_Space
340
8133
  0
BLOCK_RECORD
  5
812C
330
80C2
100
AcDbSymbolTableRecord
100
AcDbBlockTableRecord
  2
*Paper_Space
340
812F
  0
BLOCK_RECORD
  5
8140
330
80C2
100
AcDbSymbolTableRecord
100
AcDbBlockTableRecord
  2
$MODEL_SPACE
340
0
  0
BLOCK_RECORD
  5
8142
330
80C2
100
AcDbSymbolTableRecord
100
AcDbBlockTableRecord
  2
$PAPER_SPACE
340
0
  0
BLOCK_RECORD
  5
8144
330
80C2
100
AcDbSymbolTableRecord
100
AcDbBlockTableRecord
  2
_OPEN
340
0
102
{BLKREFS
331
81DD
331
81DE
331
81E6
331
81E7
331
81F3
331
81F4
331
8209
331
820A
331
7DE2
331
7DE3
331
7DED
331
7DEE
331
7DF8
331
7DF9
331
7E19
331
7E1A
331
7E2F
331
7E30
331
7E3A
331
7E3B
331
7E45
331
7E46
331
7F9E
331
7F9F
331
7EF4
331
7EF5
331
7EFF
331
7FB7
331
7FB8
331
8090
331
8091
331
8098
331
8099
331
7F00
331
80A0
331
80A1
331
7FF2
331
7FF3
331
800E
331
800F
331
7EB0
331
7EB1
331
80A8
331
80A9
331
80B4
331
7FCB
331
7FCC
331
7FD8
331
7FD9
331
7FE5
331
7FE6
331
8256
331
8257
331
829F
331
82A0
331
8313
331
8331
331
8332
102
}
  0
BLOCK_RECORD
  5
8146
330
80C2
100
AcDbSymbolTableRecord
100
AcDbBlockTableRecord
  2
YA_N
340
0
102
{BLKREFS
331
7BF8
331
7C0D
102
}
  0
BLOCK_RECORD
  5
8148
330
80C2
100
AcDbSymbolTableRecord
100
AcDbBlockTableRecord
  2
*D4
340
0
  0
BLOCK_RECORD
  5
814A
330
80C2
100
AcDbSymbolTableRecord
100
AcDbBlockTableRecord
  2
*D5
340
0
  0
BLOCK_RECORD
  5
814C
330
80C2
100
AcDbSymbolTableRecord
100
AcDbBlockTableRecord
  2
*D6
340
0
  0
BLOCK_RECORD
  5
814E
330
80C2
100
AcDbSymbolTableRecord
100
AcDbBlockTableRecord
  2
*D7
340
0
  0
BLOCK_RECORD
  5
8150
330
80C2
100
AcDbSymbolTableRecord
100
AcDbBlockTableRecord
  2
*D8
340
0
  0
BLOCK_RECORD
  5
8152
330
80C2
100
AcDbSymbolTableRecord
100
AcDbBlockTableRecord
  2
*D9
340
0
  0
BLOCK_RECORD
  5
8154
330
80C2
100
AcDbSymbolTableRecord
100
AcDbBlockTableRecord
  2
*D10
340
0
  0
BLOCK_RECORD
  5
8156
330
80C2
100
AcDbSymbolTableRecord
100
AcDbBlockTableRecord
  2
*D11
340
0
  0
BLOCK_RECORD
  5
8158
330
80C2
100
AcDbSymbolTableRecord
100
AcDbBlockTableRecord
  2
*D12
340
0
  0
BLOCK_RECORD
  5
815A
330
80C2
100
AcDbSymbolTableRecord
100
AcDbBlockTableRecord
  2
*D13
340
0
  0
BLOCK_RECORD
  5
815C
330
80C2
100
AcDbSymbolTableRecord
100
AcDbBlockTableRecord
  2
*D14
340
0
  0
BLOCK_RECORD
  5
815E
330
80C2
100
AcDbSymbolTableRecord
100
AcDbBlockTableRecord
  2
*D15
340
0
  0
BLOCK_RECORD
  5
8160
330
80C2
100
AcDbSymbolTableRecord
100
AcDbBlockTableRecord
  2
*D16
340
0
  0
BLOCK_RECORD
  5
8162
330
80C2
100
AcDbSymbolTableRecord
100
AcDbBlockTableRecord
  2
*D17
340
0
  0
BLOCK_RECORD
  5
8164
330
80C2
100
AcDbSymbolTableRecord
100
AcDbBlockTableRecord
  2
*D18
340
0
  0
BLOCK_RECORD
  5
8166
330
80C2
100
AcDbSymbolTableRecord
100
AcDbBlockTableRecord
  2
*D19
340
0
  0
BLOCK_RECORD
  5
8168
330
80C2
100
AcDbSymbolTableRecord
100
AcDbBlockTableRecord
  2
*D20
340
0
  0
BLOCK_RECORD
  5
816A
330
80C2
100
AcDbSymbolTableRecord
100
AcDbBlockTableRecord
  2
_DOT
340
0
102
{BLKREFS
331
80B3
102
}
  0
BLOCK_RECORD
  5
816C
330
80C2
100
AcDbSymbolTableRecord
100
AcDbBlockTableRecord
  2
*D22
340
0
  0
BLOCK_RECORD
  5
816E
330
80C2
100
AcDbSymbolTableRecord
100
AcDbBlockTableRecord
  2
*D23
340
0
  0
BLOCK_RECORD
  5
8170
330
80C2
100
AcDbSymbolTableRecord
100
AcDbBlockTableRecord
  2
*D24
340
0
  0
BLOCK_RECORD
  5
8172
330
80C2
100
AcDbSymbolTableRecord
100
AcDbBlockTableRecord
  2
*D25
340
0
  0
BLOCK_RECORD
  5
8174
330
80C2
100
AcDbSymbolTableRecord
100
AcDbBlockTableRecord
  2
_NONE
340
0
  0
BLOCK_RECORD
  5
8176
330
80C2
100
AcDbSymbolTableRecord
100
AcDbBlockTableRecord
  2
*D27
340
0
  0
BLOCK_RECORD
  5
8178
330
80C2
100
AcDbSymbolTableRecord
100
AcDbBlockTableRecord
  2
*D28
340
0
  0
BLOCK_RECORD
  5
817F
330
80C2
100
AcDbSymbolTableRecord
100
AcDbBlockTableRecord
  2
*D29
340
0
  0
BLOCK_RECORD
  5
818C
330
80C2
100
AcDbSymbolTableRecord
100
AcDbBlockTableRecord
  2
*D30
340
0
  0
BLOCK_RECORD
  5
81ED
330
80C2
100
AcDbSymbolTableRecord
100
AcDbBlockTableRecord
  2
*D31
340
0
  0
BLOCK_RECORD
  5
81FA
330
80C2
100
AcDbSymbolTableRecord
100
AcDbBlockTableRecord
  2
*D32
340
0
  0
BLOCK_RECORD
  5
8210
330
80C2
100
AcDbSymbolTableRecord
100
AcDbBlockTableRecord
  2
*D33
340
0
  0
BLOCK_RECORD
  5
821D
330
80C2
100
AcDbSymbolTableRecord
100
AcDbBlockTableRecord
  2
*D34
340
0
  0
BLOCK_RECORD
  5
8287
330
80C2
100
AcDbSymbolTableRecord
100
AcDbBlockTableRecord
  2
*D35
340
0
  0
BLOCK_RECORD
  5
8306
330
80C2
100
AcDbSymbolTableRecord
100
AcDbBlockTableRecord
  2
_DotSmall
340
0
102
{BLKREFS
331
8314
102
}
  0
BLOCK_RECORD
  5
8319
330
80C2
100
AcDbSymbolTableRecord
100
AcDbBlockTableRecord
  2
*D37
340
0
  0
ENDTAB
  0
ENDSEC
  0
SECTION
  2
BLOCKS
  0
BLOCK
  5
8131
330
8130
100
AcDbEntity
  8
0
100
AcDbBlockBegin
  2
*Model_Space
 70
     0
 10
0.0
 20
0.0
 30
0.0
  3
*Model_Space
  1

  0
ENDBLK
  5
8132
330
8130
100
AcDbEntity
  8
0
100
AcDbBlockEnd
  0
BLOCK
  5
812D
330
812C
100
AcDbEntity
 67
     1
  8
0
100
AcDbBlockBegin
  2
*Paper_Space
 70
     0
 10
0.0
 20
0.0
 30
0.0
  3
*Paper_Space
  1

  0
ENDBLK
  5
812E
330
812C
100
AcDbEntity
 67
     1
  8
0
100
AcDbBlockEnd
  0
BLOCK
  5
8141
330
8140
100
AcDbEntity
  8
0
100
AcDbBlockBegin
  2
$MODEL_SPACE
 70
     0
 10
0.0
 20
0.0
 30
0.0
  3
$MODEL_SPACE
  1

  0
ENDBLK
  5
1B
330
8140
100
AcDbEntity
  8
0
100
AcDbBlockEnd
  0
BLOCK
  5
8143
330
8142
100
AcDbEntity
  8
0
100
AcDbBlockBegin
  2
$PAPER_SPACE
 70
     0
 10
0.0
 20
0.0
 30
0.0
  3
$PAPER_SPACE
  1

  0
ENDBLK
  5
18
330
8142
100
AcDbEntity
  8
0
100
AcDbBlockEnd
  0
BLOCK
  5
8145
330
8144
100
AcDbEntity
  8
0
100
AcDbBlockBegin
  2
_OPEN
 70
     0
 10
0.0
 20
0.0
 30
0.0
  3
_OPEN
  1

  0
LINE
  5
79FD
330
8144
100
AcDbEntity
  8
0
  6
ByBlock
 62
     0
100
AcDbLine
 10
-1.0
 20
0.1666666666666666
 30
0.0
 11
0.0
 21
0.0
 31
0.0
  0
LINE
  5
79FE
330
8144
100
AcDbEntity
  8
0
  6
ByBlock
 62
     0
100
AcDbLine
 10
0.0
 20
0.0
 30
0.0
 11
-1.0
 21
-0.1666666666666666
 31
0.0
  0
LINE
  5
79FF
330
8144
100
AcDbEntity
  8
0
  6
ByBlock
 62
     0
100
AcDbLine
 10
0.0
 20
0.0
 30
0.0
 11
-1.0
 21
0.0
 31
0.0
  0
ENDBLK
  5
7A01
330
8144
100
AcDbEntity
  8
0
100
AcDbBlockEnd
  0
BLOCK
  5
8147
330
8146
100
AcDbEntity
  8
0
100
AcDbBlockBegin
  2
YA_N
 70
     0
 10
0.0
 20
0.0
 30
0.0
  3
YA_N
  1

  0
ENDBLK
  5
7A0C
330
8146
100
AcDbEntity
  8
0
100
AcDbBlockEnd
  0
BLOCK
  5
8149
330
8148
100
AcDbEntity
  8
0
100
AcDbBlockBegin
  2
*D4
 70
     1
 10
0.0
 20
0.0
 30
0.0
  3
*D4
  1

  0
LINE
  5
7DDF
330
8148
100
AcDbEntity
  8
0
  6
ByBlock
100
AcDbLine
 10
1059.652996394238
 20
-109.9023735498794
 30
0.0
 11
1188.214531100795
 21
-109.9023735498794
 31
0.0
  0
LINE
  5
7DE0
330
8148
100
AcDbEntity
  8
0
  6
ByBlock
100
AcDbLine
 10
1059.652996394238
 20
540.0976264501204
 30
0.0
 11
1188.214531100795
 21
540.0976264501204
 31
0.0
  0
LINE
  5
7DE1
330
8148
100
AcDbEntity
  8
0
  6
ByBlock
100
AcDbLine
 10
1168.214531100795
 20
-69.9023735498795
 30
0.0
 11
1168.214531100795
 21
500.0976264501204
 31
0.0
  0
INSERT
  5
7DE2
330
8148
100
AcDbEntity
  8
0
  6
ByBlock
100
AcDbBlockReference
  2
_OPEN
 10
1168.214531100795
 20
-109.9023735498794
 30
0.0
 41
40.0
 42
40.0
 43
40.0
 50
270.0
  0
INSERT
  5
7DE3
330
8148
100
AcDbEntity
  8
0
  6
ByBlock
100
AcDbBlockReference
  2
_OPEN
 10
1168.214531100795
 20
540.0976264501204
 30
0.0
 41
40.0
 42
40.0
 43
40.0
 50
90.0
  0
TEXT
  5
7DE4
330
8148
100
AcDbEntity
  8
3
100
AcDbText
 10
1158.214531100795
 20
137.9547693072633
 30
0.0
 40
60.0
  1
650
 50
90.0
100
AcDbText
  0
POINT
  5
7DE5
330
8148
100
AcDbEntity
  8
DEFPOINTS
  6
ByBlock
 62
     0
100
AcDbPoint
 10
1039.652996394238
 20
-109.9023735498794
 30
0.0
  0
POINT
  5
7DE6
330
8148
100
AcDbEntity
  8
DEFPOINTS
  6
ByBlock
 62
     0
100
AcDbPoint
 10
1039.652996394238
 20
540.0976264501204
 30
0.0
  0
POINT
  5
7DE7
330
8148
100
AcDbEntity
  8
DEFPOINTS
  6
ByBlock
 62
     0
100
AcDbPoint
 10
1168.214531100795
 20
540.0976264501204
 30
0.0
  0
ENDBLK
  5
7DE8
330
8148
100
AcDbEntity
  8
0
100
AcDbBlockEnd
  0
BLOCK
  5
814B
330
814A
100
AcDbEntity
  8
0
100
AcDbBlockBegin
  2
*D5
 70
     1
 10
0.0
 20
0.0
 30
0.0
  3
*D5
  1

  0
LINE
  5
7DEA
330
814A
100
AcDbEntity
  8
0
  6
ByBlock
100
AcDbLine
 10
1059.652996394238
 20
-109.9023735498794
 30
0.0
 11
1307.803589676992
 21
-109.9023735498794
 31
0.0
  0
LINE
  5
7DEB
330
814A
100
AcDbEntity
  8
0
  6
ByBlock
100
AcDbLine
 10
1106.545969497234
 20
568.0976264501205
 30
0.0
 11
1307.803589676992
 21
568.0976264501205
 31
0.0
  0
LINE
  5
7DEC
330
814A
100
AcDbEntity
  8
0
  6
ByBlock
100
AcDbLine
 10
1287.803589676992
 20
-69.9023735498795
 30
0.0
 11
1287.803589676992
 21
528.0976264501203
 31
0.0
  0
INSERT
  5
7DED
330
814A
100
AcDbEntity
  8
0
  6
ByBlock
100
AcDbBlockReference
  2
_OPEN
 10
1287.803589676992
 20
-109.9023735498794
 30
0.0
 41
40.0
 42
40.0
 43
40.0
 50
270.0
  0
INSERT
  5
7DEE
330
814A
100
AcDbEntity
  8
0
  6
ByBlock
100
AcDbBlockReference
  2
_OPEN
 10
1287.803589676992
 20
568.0976264501205
 30
0.0
 41
40.0
 42
40.0
 43
40.0
 50
90.0
  0
TEXT
  5
7DEF
330
814A
100
AcDbEntity
  8
3
100
AcDbText
 10
1277.803589676992
 20
151.9547693072633
 30
0.0
 40
60.0
  1
678
 50
90.0
100
AcDbText
  0
POINT
  5
7DF0
330
814A
100
AcDbEntity
  8
DEFPOINTS
  6
ByBlock
 62
     0
100
AcDbPoint
 10
1039.652996394238
 20
-109.9023735498794
 30
0.0
  0
POINT
  5
7DF1
330
814A
100
AcDbEntity
  8
DEFPOINTS
  6
ByBlock
 62
     0
100
AcDbPoint
 10
1086.545969497234
 20
568.0976264501205
 30
0.0
  0
POINT
  5
7DF2
330
814A
100
AcDbEntity
  8
DEFPOINTS
  6
ByBlock
 62
     0
100
AcDbPoint
 10
1287.803589676992
 20
568.0976264501205
 30
0.0
  0
ENDBLK
  5
7DF3
330
814A
100
AcDbEntity
  8
0
100
AcDbBlockEnd
  0
BLOCK
  5
814D
330
814C
100
AcDbEntity
  8
0
100
AcDbBlockBegin
  2
*D6
 70
     1
 10
0.0
 20
0.0
 30
0.0
  3
*D6
  1

  0
LINE
  5
7DF5
330
814C
100
AcDbEntity
  8
0
  6
ByBlock
100
AcDbLine
 10
2992.796193483283
 20
903.0976264501203
 30
0.0
 11
3240.833227053947
 21
903.0976264501203
 31
0.0
  0
LINE
  5
7DF6
330
814C
100
AcDbEntity
  8
0
  6
ByBlock
100
AcDbLine
 10
2992.796193483283
 20
233.0976264501205
 30
0.0
 11
3240.833227053947
 21
233.0976264501205
 31
0.0
  0
LINE
  5
7DF7
330
814C
100
AcDbEntity
  8
0
  6
ByBlock
100
AcDbLine
 10
3220.833227053946
 20
863.0976264501205
 30
0.0
 11
3220.833227053946
 21
273.0976264501205
 31
0.0
  0
INSERT
  5
7DF8
330
814C
100
AcDbEntity
  8
0
  6
ByBlock
100
AcDbBlockReference
  2
_OPEN
 10
3220.833227053946
 20
903.0976264501203
 30
0.0
 41
40.0
 42
40.0
 43
40.0
 50
90.0
  0
INSERT
  5
7DF9
330
814C
100
AcDbEntity
  8
0
  6
ByBlock
100
AcDbBlockReference
  2
_OPEN
 10
3220.833227053946
 20
233.0976264501205
 30
0.0
 41
40.0
 42
40.0
 43
40.0
 50
270.0
  0
TEXT
  5
7DFA
330
814C
100
AcDbEntity
  8
3
100
AcDbText
 10
3210.833227053947
 20
460.9547693072634
 30
0.0
 40
60.0
  1
\U+03C6670
 50
90.0
100
AcDbText
  0
POINT
  5
7DFB
330
814C
100
AcDbEntity
  8
DEFPOINTS
  6
ByBlock
 62
     0
100
AcDbPoint
 10
2972.796193483283
 20
903.0976264501203
 30
0.0
  0
POINT
  5
7DFC
330
814C
100
AcDbEntity
  8
DEFPOINTS
  6
ByBlock
 62
     0
100
AcDbPoint
 10
2972.796193483283
 20
233.0976264501205
 30
0.0
  0
POINT
  5
7DFD
330
814C
100
AcDbEntity
  8
DEFPOINTS
  6
ByBlock
 62
     0
100
AcDbPoint
 10
3220.833227053946
 20
233.0976264501205
 30
0.0
  0
ENDBLK
  5
7DFE
330
814C
100
AcDbEntity
  8
0
100
AcDbBlockEnd
  0
BLOCK
  5
814F
330
814E
100
AcDbEntity
  8
0
100
AcDbBlockBegin
  2
*D7
 70
     1
 10
0.0
 20
0.0
 30
0.0
  3
*D7
  1

  0
LINE
  5
7E16
330
814E
100
AcDbEntity
  8
0
  6
ByBlock
100
AcDbLine
 10
2167.296193483282
 20
1018.497617330824
 30
0.0
 11
2167.296193483282
 21
1113.682524828345
 31
0.0
  0
LINE
  5
7E17
330
814E
100
AcDbEntity
  8
0
  6
ByBlock
100
AcDbLine
 10
2967.296193483282
 20
1018.497617330824
 30
0.0
 11
2967.296193483282
 21
1113.682524828345
 31
0.0
  0
LINE
  5
7E18
330
814E
100
AcDbEntity
  8
0
  6
ByBlock
100
AcDbLine
 10
2207.296193483281
 20
1093.682524828345
 30
0.0
 11
2927.296193483282
 21
1093.682524828345
 31
0.0
  0
INSERT
  5
7E19
330
814E
100
AcDbEntity
  8
0
  6
ByBlock
100
AcDbBlockReference
  2
_OPEN
 10
2167.296193483282
 20
1093.682524828345
 30
0.0
 41
40.0
 42
40.0
 43
40.0
 50
180.0
  0
INSERT
  5
7E1A
330
814E
100
AcDbEntity
  8
0
  6
ByBlock
100
AcDbBlockReference
  2
_OPEN
 10
2967.296193483282
 20
1093.682524828345
 30
0.0
 41
40.0
 42
40.0
 43
40.0
  0
TEXT
  5
7E1B
330
814E
100
AcDbEntity
  8
3
100
AcDbText
 10
2490.153336340425
 20
1103.682524828345
 30
0.0
 40
60.0
  1
800
100
AcDbText
  0
POINT
  5
7E1C
330
814E
100
AcDbEntity
  8
DEFPOINTS
  6
ByBlock
 62
     0
100
AcDbPoint
 10
2167.296193483282
 20
998.4976173308242
 30
0.0
  0
POINT
  5
7E1D
330
814E
100
AcDbEntity
  8
DEFPOINTS
  6
ByBlock
 62
     0
100
AcDbPoint
 10
2967.296193483282
 20
998.4976173308238
 30
0.0
  0
POINT
  5
7E1E
330
814E
100
AcDbEntity
  8
DEFPOINTS
  6
ByBlock
 62
     0
100
AcDbPoint
 10
2967.296193483282
 20
1093.682524828345
 30
0.0
  0
ENDBLK
  5
7E1F
330
814E
100
AcDbEntity
  8
0
100
AcDbBlockEnd
  0
BLOCK
  5
8151
330
8150
100
AcDbEntity
  8
0
100
AcDbBlockBegin
  2
*D8
 70
     1
 10
0.0
 20
0.0
 30
0.0
  3
*D8
  1

  0
LINE
  5
7E2C
330
8150
100
AcDbEntity
  8
0
  6
ByBlock
100
AcDbLine
 10
-470.3470036057614
 20
2138.414968530632
 30
0.0
 11
-470.3470036057614
 21
1863.01337041143
 31
0.0
  0
LINE
  5
7E2D
330
8150
100
AcDbEntity
  8
0
  6
ByBlock
100
AcDbLine
 10
979.6529963942385
 20
2138.414968530633
 30
0.0
 11
979.6529963942385
 21
1863.01337041143
 31
0.0
  0
LINE
  5
7E2E
330
8150
100
AcDbEntity
  8
0
  6
ByBlock
100
AcDbLine
 10
-430.3470036057614
 20
1883.01337041143
 30
0.0
 11
939.6529963942384
 21
1883.01337041143
 31
0.0
  0
INSERT
  5
7E2F
330
8150
100
AcDbEntity
  8
0
  6
ByBlock
100
AcDbBlockReference
  2
_OPEN
 10
-470.3470036057614
 20
1883.01337041143
 30
0.0
 41
40.0
 42
40.0
 43
40.0
 50
180.0
  0
INSERT
  5
7E30
330
8150
100
AcDbEntity
  8
0
  6
ByBlock
100
AcDbBlockReference
  2
_OPEN
 10
979.6529963942385
 20
1883.01337041143
 30
0.0
 41
40.0
 42
40.0
 43
40.0
  0
TEXT
  5
7E31
330
8150
100
AcDbEntity
  8
3
100
AcDbText
 10
154.6529963942385
 20
1893.01337041143
 30
0.0
 40
60.0
  1
1450
100
AcDbText
  0
POINT
  5
7E32
330
8150
100
AcDbEntity
  8
DEFPOINTS
  6
ByBlock
 62
     0
100
AcDbPoint
 10
-470.3470036057614
 20
2158.414968530632
 30
0.0
  0
POINT
  5
7E33
330
8150
100
AcDbEntity
  8
DEFPOINTS
  6
ByBlock
 62
     0
100
AcDbPoint
 10
979.6529963942385
 20
2158.414968530633
 30
0.0
  0
POINT
  5
7E34
330
8150
100
AcDbEntity
  8
DEFPOINTS
  6
ByBlock
 62
     0
100
AcDbPoint
 10
979.6529963942385
 20
1883.01337041143
 30
0.0
  0
ENDBLK
  5
7E35
330
8150
100
AcDbEntity
  8
0
100
AcDbBlockEnd
  0
BLOCK
  5
8153
330
8152
100
AcDbEntity
  8
0
100
AcDbBlockBegin
  2
*D9
 70
     1
 10
0.0
 20
0.0
 30
0.0
  3
*D9
  1

  0
LINE
  5
7E37
330
8152
100
AcDbEntity
  8
0
  6
ByBlock
100
AcDbLine
 10
999.6529963942384
 20
2158.414968530633
 30
0.0
 11
1208.444967392846
 21
2158.414968530633
 31
0.0
  0
LINE
  5
7E38
330
8152
100
AcDbEntity
  8
0
  6
ByBlock
100
AcDbLine
 10
999.6529963942387
 20
3164.414968530635
 30
0.0
 11
1208.444967392846
 21
3164.414968530635
 31
0.0
  0
LINE
  5
7E39
330
8152
100
AcDbEntity
  8
0
  6
ByBlock
100
AcDbLine
 10
1188.444967392846
 20
2198.414968530633
 30
0.0
 11
1188.444967392846
 21
3124.414968530635
 31
0.0
  0
INSERT
  5
7E3A
330
8152
100
AcDbEntity
  8
0
  6
ByBlock
100
AcDbBlockReference
  2
_OPEN
 10
1188.444967392846
 20
2158.414968530633
 30
0.0
 41
40.0
 42
40.0
 43
40.0
 50
270.0
  0
INSERT
  5
7E3B
330
8152
100
AcDbEntity
  8
0
  6
ByBlock
100
AcDbBlockReference
  2
_OPEN
 10
1188.444967392846
 20
3164.414968530635
 30
0.0
 41
40.0
 42
40.0
 43
40.0
 50
90.0
  0
TEXT
  5
7E3C
330
8152
100
AcDbEntity
  8
3
100
AcDbText
 10
1178.444967392846
 20
2562.843539959205
 30
0.0
 40
60.0
  1
1006
 50
90.0
100
AcDbText
  0
POINT
  5
7E3D
330
8152
100
AcDbEntity
  8
DEFPOINTS
  6
ByBlock
 62
     0
100
AcDbPoint
 10
979.6529963942385
 20
2158.414968530633
 30
0.0
  0
POINT
  5
7E3E
330
8152
100
AcDbEntity
  8
DEFPOINTS
  6
ByBlock
 62
     0
100
AcDbPoint
 10
979.6529963942386
 20
3164.414968530635
 30
0.0
  0
POINT
  5
7E3F
330
8152
100
AcDbEntity
  8
DEFPOINTS
  6
ByBlock
 62
     0
100
AcDbPoint
 10
1188.444967392846
 20
3164.414968530635
 30
0.0
  0
ENDBLK
  5
7E40
330
8152
100
AcDbEntity
  8
0
100
AcDbBlockEnd
  0
BLOCK
  5
8155
330
8154
100
AcDbEntity
  8
0
100
AcDbBlockBegin
  2
*D10
 70
     1
 10
0.0
 20
0.0
 30
0.0
  3
*D10
  1

  0
LINE
  5
7E42
330
8154
100
AcDbEntity
  8
0
  6
ByBlock
100
AcDbLine
 10
179.6529963942384
 20
3184.414968530634
 30
0.0
 11
179.6529963942384
 21
3333.020259029039
 31
0.0
  0
LINE
  5
7E43
330
8154
100
AcDbEntity
  8
0
  6
ByBlock
100
AcDbLine
 10
979.6529963942386
 20
3184.414968530635
 30
0.0
 11
979.6529963942386
 21
3333.020259029039
 31
0.0
  0
LINE
  5
7E44
330
8154
100
AcDbEntity
  8
0
  6
ByBlock
100
AcDbLine
 10
219.6529963942384
 20
3313.020259029039
 30
0.0
 11
939.652996394239
 21
3313.020259029039
 31
0.0
  0
INSERT
  5
7E45
330
8154
100
AcDbEntity
  8
0
  6
ByBlock
100
AcDbBlockReference
  2
_OPEN
 10
179.6529963942384
 20
3313.020259029039
 30
0.0
 41
40.0
 42
40.0
 43
40.0
 50
180.0
  0
INSERT
  5
7E46
330
8154
100
AcDbEntity
  8
0
  6
ByBlock
100
AcDbBlockReference
  2
_OPEN
 10
979.6529963942386
 20
3313.020259029039
 30
0.0
 41
40.0
 42
40.0
 43
40.0
  0
TEXT
  5
7E47
330
8154
100
AcDbEntity
  8
3
100
AcDbText
 10
502.5101392513816
 20
3323.020259029039
 30
0.0
 40
60.0
  1
800
100
AcDbText
  0
POINT
  5
7E48
330
8154
100
AcDbEntity
  8
DEFPOINTS
  6
ByBlock
 62
     0
100
AcDbPoint
 10
179.6529963942384
 20
3164.414968530634
 30
0.0
  0
POINT
  5
7E49
330
8154
100
AcDbEntity
  8
DEFPOINTS
  6
ByBlock
 62
     0
100
AcDbPoint
 10
979.6529963942386
 20
3164.414968530635
 30
0.0
  0
POINT
  5
7E4A
330
8154
100
AcDbEntity
  8
DEFPOINTS
  6
ByBlock
 62
     0
100
AcDbPoint
 10
979.6529963942386
 20
3313.020259029039
 30
0.0
  0
ENDBLK
  5
7E4B
330
8154
100
AcDbEntity
  8
0
100
AcDbBlockEnd
  0
BLOCK
  5
8157
330
8156
100
AcDbEntity
  8
0
100
AcDbBlockBegin
  2
*D11
 70
     1
 10
0.0
 20
0.0
 30
0.0
  3
*D11
  1

  0
LINE
  5
7F9B
330
8156
100
AcDbEntity
  8
0
  6
ByBlock
100
AcDbLine
 10
335.0964112281989
 20
4072.318859462983
 30
0.0
 11
216.3514467743152
 21
4072.318859462983
 31
0.0
  0
LINE
  5
7F9C
330
8156
100
AcDbEntity
  8
0
  6
ByBlock
100
AcDbLine
 10
335.0964112281989
 20
3472.318859462983
 30
0.0
 11
216.3514467743152
 21
3472.318859462983
 31
0.0
  0
LINE
  5
7F9D
330
8156
100
AcDbEntity
  8
0
  6
ByBlock
100
AcDbLine
 10
236.3514467743152
 20
4032.318859462981
 30
0.0
 11
236.3514467743152
 21
3512.318859462983
 31
0.0
  0
INSERT
  5
7F9E
330
8156
100
AcDbEntity
  8
0
  6
ByBlock
100
AcDbBlockReference
  2
_OPEN
 10
236.3514467743152
 20
4072.318859462983
 30
0.0
 41
40.0
 42
40.0
 43
40.0
 50
90.0
  0
INSERT
  5
7F9F
330
8156
100
AcDbEntity
  8
0
  6
ByBlock
100
AcDbBlockReference
  2
_OPEN
 10
236.3514467743152
 20
3472.318859462983
 30
0.0
 41
40.0
 42
40.0
 43
40.0
 50
270.0
  0
TEXT
  5
7FA0
330
8156
100
AcDbEntity
  8
3
100
AcDbText
 10
226.3514467743152
 20
3695.176002320125
 30
0.0
 40
60.0
  1
600
 50
90.0
100
AcDbText
  0
POINT
  5
7FA1
330
8156
100
AcDbEntity
  8
DEFPOINTS
  6
ByBlock
 62
     0
100
AcDbPoint
 10
355.0964112281989
 20
4072.318859462983
 30
0.0
  0
POINT
  5
7FA2
330
8156
100
AcDbEntity
  8
DEFPOINTS
  6
ByBlock
 62
     0
100
AcDbPoint
 10
355.0964112281989
 20
3472.318859462983
 30
0.0
  0
POINT
  5
7FA3
330
8156
100
AcDbEntity
  8
DEFPOINTS
  6
ByBlock
 62
     0
100
AcDbPoint
 10
236.3514467743152
 20
3472.318859462983
 30
0.0
  0
ENDBLK
  5
7FA4
330
8156
100
AcDbEntity
  8
0
100
AcDbBlockEnd
  0
BLOCK
  5
8159
330
8158
100
AcDbEntity
  8
0
100
AcDbBlockBegin
  2
*D12
 70
     1
 10
0.0
 20
0.0
 30
0.0
  3
*D12
  1

  0
LINE
  5
7EF1
330
8158
100
AcDbEntity
  8
0
  6
ByBlock
100
AcDbLine
 10
355.0964112281989
 20
1695.847673143363
 30
0.0
 11
355.0964112281989
 21
3065.340322853661
 31
0.0
  0
LINE
  5
7EF2
330
8158
100
AcDbEntity
  8
0
  6
ByBlock
100
AcDbLine
 10
1865.096411228199
 20
2336.0123657914
 30
0.0
 11
1865.096411228199
 21
3065.340322853661
 31
0.0
  0
LINE
  5
7EF3
330
8158
100
AcDbEntity
  8
0
  6
ByBlock
100
AcDbLine
 10
395.0964112281989
 20
3045.340322853661
 30
0.0
 11
1825.096411228199
 21
3045.340322853661
 31
0.0
  0
INSERT
  5
7EF4
330
8158
100
AcDbEntity
  8
0
  6
ByBlock
100
AcDbBlockReference
  2
_OPEN
 10
355.0964112281989
 20
3045.340322853661
 30
0.0
 41
40.0
 42
40.0
 43
40.0
 50
180.0
  0
INSERT
  5
7EF5
330
8158
100
AcDbEntity
  8
0
  6
ByBlock
100
AcDbBlockReference
  2
_OPEN
 10
1865.096411228199
 20
3045.340322853661
 30
0.0
 41
40.0
 42
40.0
 43
40.0
  0
TEXT
  5
7EF6
330
8158
100
AcDbEntity
  8
3
100
AcDbText
 10
1015.810696942484
 20
3055.340322853661
 30
0.0
 40
60.0
  1
1510
100
AcDbText
  0
POINT
  5
7EF7
330
8158
100
AcDbEntity
  8
DEFPOINTS
  6
ByBlock
 62
     0
100
AcDbPoint
 10
355.0964112281989
 20
1675.847673143364
 30
0.0
  0
POINT
  5
7EF8
330
8158
100
AcDbEntity
  8
DEFPOINTS
  6
ByBlock
 62
     0
100
AcDbPoint
 10
1865.096411228199
 20
2316.0123657914
 30
0.0
  0
POINT
  5
7EF9
330
8158
100
AcDbEntity
  8
DEFPOINTS
  6
ByBlock
 62
     0
100
AcDbPoint
 10
1865.096411228199
 20
3045.340322853661
 30
0.0
  0
ENDBLK
  5
7EFA
330
8158
100
AcDbEntity
  8
0
100
AcDbBlockEnd
  0
BLOCK
  5
815B
330
815A
100
AcDbEntity
  8
0
100
AcDbBlockBegin
  2
*D13
 70
     1
 10
0.0
 20
0.0
 30
0.0
  3
*D13
  1

  0
LINE
  5
7FB4
330
815A
100
AcDbEntity
  8
0
  6
ByBlock
100
AcDbLine
 10
3892.739608317243
 20
2325.847673143363
 30
0.0
 11
3892.739608317243
 21
3027.283743687152
 31
0.0
  0
LINE
  5
7FB5
330
815A
100
AcDbEntity
  8
0
  6
ByBlock
100
AcDbLine
 10
3392.739608317243
 20
2974.862072621314
 30
0.0
 11
3392.739608317243
 21
3027.283743687152
 31
0.0
  0
LINE
  5
7FB6
330
815A
100
AcDbEntity
  8
0
  6
ByBlock
100
AcDbLine
 10
3852.739608317243
 20
3007.283743687152
 30
0.0
 11
3432.739608317243
 21
3007.283743687152
 31
0.0
  0
INSERT
  5
7FB7
330
815A
100
AcDbEntity
  8
0
  6
ByBlock
100
AcDbBlockReference
  2
_OPEN
 10
3892.739608317243
 20
3007.283743687152
 30
0.0
 41
40.0
 42
40.0
 43
40.0
  0
INSERT
  5
7FB8
330
815A
100
AcDbEntity
  8
0
  6
ByBlock
100
AcDbBlockReference
  2
_OPEN
 10
3392.739608317243
 20
3007.283743687152
 30
0.0
 41
40.0
 42
40.0
 43
40.0
 50
180.0
  0
TEXT
  5
7FB9
330
815A
100
AcDbEntity
  8
3
100
AcDbText
 10
3532.739608317243
 20
3042.998029401438
 30
0.0
 40
60.0
  1
(510)
100
AcDbText
  0
POINT
  5
7FBA
330
815A
100
AcDbEntity
  8
DEFPOINTS
  6
ByBlock
 62
     0
100
AcDbPoint
 10
3892.739608317243
 20
2305.847673143363
 30
0.0
  0
POINT
  5
7FBB
330
815A
100
AcDbEntity
  8
DEFPOINTS
  6
ByBlock
 62
     0
100
AcDbPoint
 10
3392.739608317243
 20
2954.862072621314
 30
0.0
  0
POINT
  5
7FBC
330
815A
100
AcDbEntity
  8
DEFPOINTS
  6
ByBlock
 62
     0
100
AcDbPoint
 10
3392.739608317243
 20
3007.283743687152
 30
0.0
  0
ENDBLK
  5
7FBD
330
815A
100
AcDbEntity
  8
0
100
AcDbBlockEnd
  0
BLOCK
  5
815D
330
815C
100
AcDbEntity
  8
0
100
AcDbBlockBegin
  2
*D14
 70
     1
 10
0.0
 20
0.0
 30
0.0
  3
*D14
  1

  0
LINE
  5
808E
330
815C
100
AcDbEntity
  8
3
100
AcDbLine
 10
2712.739608317243
 20
2505.847673143364
 30
0.0
 11
2712.739608317243
 21
3027.283743687152
 31
0.0
  0
LINE
  5
808F
330
815C
100
AcDbEntity
  8
3
100
AcDbLine
 10
3352.739608317243
 20
3007.283743687152
 30
0.0
 11
2752.739608317243
 21
3007.283743687152
 31
0.0
  0
INSERT
  5
8090
330
815C
100
AcDbEntity
  8
3
100
AcDbBlockReference
  2
_OPEN
 10
3392.739608317243
 20
3007.283743687152
 30
0.0
 41
40.0
 42
40.0
 43
40.0
  0
INSERT
  5
8091
330
815C
100
AcDbEntity
  8
3
100
AcDbBlockReference
  2
_OPEN
 10
2712.739608317243
 20
3007.283743687152
 30
0.0
 41
40.0
 42
40.0
 43
40.0
 50
180.0
  0
TEXT
  5
80BC
330
815C
100
AcDbEntity
  8
3
100
AcDbText
 10
2932.74
 20
2991.08
 30
0.0
 40
60.0
  1
MAX
100
AcDbText
  0
TEXT
  5
80BD
330
815C
100
AcDbEntity
  8
3
100
AcDbText
 10
2932.74
 20
2913.08
 30
0.0
 40
60.0
  1
710
100
AcDbText
  0
POINT
  5
8093
330
815C
100
AcDbEntity
  8
DEFPOINTS
 62
     0
100
AcDbPoint
 10
3392.739608317243
 20
2954.862072621314
 30
0.0
  0
POINT
  5
8094
330
815C
100
AcDbEntity
  8
DEFPOINTS
 62
     0
100
AcDbPoint
 10
2712.739608317243
 20
2485.847673143364
 30
0.0
  0
POINT
  5
8095
330
815C
100
AcDbEntity
  8
DEFPOINTS
 62
     0
100
AcDbPoint
 10
2712.739608317243
 20
3007.283743687152
 30
0.0
  0
ENDBLK
  5
7FB2
330
815C
100
AcDbEntity
  8
0
100
AcDbBlockEnd
  0
BLOCK
  5
815F
330
815E
100
AcDbEntity
  8
0
100
AcDbBlockBegin
  2
*D15
 70
     1
 10
0.0
 20
0.0
 30
0.0
  3
*D15
  1

  0
LINE
  5
8096
330
815E
100
AcDbEntity
  8
3
100
AcDbLine
 10
460.7051632629889
 20
4092.318859462981
 30
0.0
 11
460.705163262989
 21
4646.924149961389
 31
0.0
  0
LINE
  5
8097
330
815E
100
AcDbEntity
  8
3
100
AcDbLine
 10
1070.705163262988
 20
4626.924149961388
 30
0.0
 11
500.7051632629892
 21
4626.924149961388
 31
0.0
  0
INSERT
  5
8098
330
815E
100
AcDbEntity
  8
3
100
AcDbBlockReference
  2
_OPEN
 10
1110.705163262988
 20
4626.924149961388
 30
0.0
 41
40.0
 42
40.0
 43
40.0
  0
INSERT
  5
8099
330
815E
100
AcDbEntity
  8
3
100
AcDbBlockReference
  2
_OPEN
 10
460.705163262989
 20
4626.924149961388
 30
0.0
 41
40.0
 42
40.0
 43
40.0
 50
180.0
  0
TEXT
  5
80BE
330
815E
100
AcDbEntity
  8
3
100
AcDbText
 10
665.705
 20
4560.72
 30
0.0
 40
60.0
  1
650
100
AcDbText
  0
POINT
  5
809B
330
815E
100
AcDbEntity
  8
DEFPOINTS
 62
     0
100
AcDbPoint
 10
1110.705163262988
 20
4478.318859462985
 30
0.0
  0
POINT
  5
809C
330
815E
100
AcDbEntity
  8
DEFPOINTS
 62
     0
100
AcDbPoint
 10
460.7051632629889
 20
4072.31885946298
 30
0.0
  0
POINT
  5
809D
330
815E
100
AcDbEntity
  8
DEFPOINTS
 62
     0
100
AcDbPoint
 10
460.705163262989
 20
4626.924149961388
 30
0.0
  0
ENDBLK
  5
7E96
330
815E
100
AcDbEntity
  8
0
100
AcDbBlockEnd
  0
BLOCK
  5
8161
330
8160
100
AcDbEntity
  8
0
100
AcDbBlockBegin
  2
*D16
 70
     1
 10
0.0
 20
0.0
 30
0.0
  3
*D16
  1

  0
LINE
  5
7EFC
330
8160
100
AcDbEntity
  8
0
  6
ByBlock
100
AcDbLine
 10
1865.096411228199
 20
2355.847673143363
 30
0.0
 11
1865.096411228199
 21
2945.066613388714
 31
0.0
  0
LINE
  5
7EFD
330
8160
100
AcDbEntity
  8
0
  6
ByBlock
100
AcDbLine
 10
1405.096411228199
 20
2885.447817660772
 30
0.0
 11
1405.096411228199
 21
2945.066613388714
 31
0.0
  0
LINE
  5
7EFE
330
8160
100
AcDbEntity
  8
0
  6
ByBlock
100
AcDbLine
 10
1825.096411228199
 20
2925.066613388714
 30
0.0
 11
1445.096411228199
 21
2925.066613388714
 31
0.0
  0
INSERT
  5
7EFF
330
8160
100
AcDbEntity
  8
0
  6
ByBlock
100
AcDbBlockReference
  2
_OPEN
 10
1865.096411228199
 20
2925.066613388714
 30
0.0
 41
40.0
 42
40.0
 43
40.0
  0
INSERT
  5
7F00
330
8160
100
AcDbEntity
  8
0
  6
ByBlock
100
AcDbBlockReference
  2
_OPEN
 10
1405.096411228199
 20
2925.066613388714
 30
0.0
 41
40.0
 42
40.0
 43
40.0
 50
180.0
  0
TEXT
  5
7F01
330
8160
100
AcDbEntity
  8
3
100
AcDbText
 10
1557.953554085341
 20
2935.066613388713
 30
0.0
 40
60.0
  1
460
100
AcDbText
  0
POINT
  5
7F02
330
8160
100
AcDbEntity
  8
DEFPOINTS
  6
ByBlock
 62
     0
100
AcDbPoint
 10
1865.096411228199
 20
2335.847673143363
 30
0.0
  0
POINT
  5
7F03
330
8160
100
AcDbEntity
  8
DEFPOINTS
  6
ByBlock
 62
     0
100
AcDbPoint
 10
1405.096411228199
 20
2865.447817660772
 30
0.0
  0
POINT
  5
7F04
330
8160
100
AcDbEntity
  8
DEFPOINTS
  6
ByBlock
 62
     0
100
AcDbPoint
 10
1405.096411228199
 20
2925.066613388714
 30
0.0
  0
ENDBLK
  5
7F05
330
8160
100
AcDbEntity
  8
0
100
AcDbBlockEnd
  0
BLOCK
  5
8163
330
8162
100
AcDbEntity
  8
0
100
AcDbBlockBegin
  2
*D17
 70
     1
 10
0.0
 20
0.0
 30
0.0
  3
*D17
  1

  0
LINE
  5
809E
330
8162
100
AcDbEntity
  8
3
100
AcDbLine
 10
962.7051632629893
 20
2308.847673143364
 30
0.0
 11
962.7051632629893
 21
2945.066613388714
 31
0.0
  0
LINE
  5
809F
330
8162
100
AcDbEntity
  8
3
100
AcDbLine
 10
1470.705163262989
 20
2925.066613388714
 30
0.0
 11
1002.705163262989
 21
2925.066613388714
 31
0.0
  0
INSERT
  5
80A0
330
8162
100
AcDbEntity
  8
3
100
AcDbBlockReference
  2
_OPEN
 10
1510.705163262989
 20
2925.066613388714
 30
0.0
 41
40.0
 42
40.0
 43
40.0
  0
INSERT
  5
80A1
330
8162
100
AcDbEntity
  8
3
100
AcDbBlockReference
  2
_OPEN
 10
962.7051632629893
 20
2925.066613388714
 30
0.0
 41
40.0
 42
40.0
 43
40.0
 50
180.0
  0
TEXT
  5
80BF
330
8162
100
AcDbEntity
  8
3
100
AcDbText
 10
1116.71
 20
2858.87
 30
0.0
 40
60.0
  1
548
100
AcDbText
  0
POINT
  5
80A3
330
8162
100
AcDbEntity
  8
DEFPOINTS
 62
     0
100
AcDbPoint
 10
1510.705163262989
 20
2865.447817660772
 30
0.0
  0
POINT
  5
80A4
330
8162
100
AcDbEntity
  8
DEFPOINTS
 62
     0
100
AcDbPoint
 10
962.7051632629893
 20
2288.847673143363
 30
0.0
  0
POINT
  5
80A5
330
8162
100
AcDbEntity
  8
DEFPOINTS
 62
     0
100
AcDbPoint
 10
962.7051632629893
 20
2925.066613388714
 30
0.0
  0
ENDBLK
  5
7F0F
330
8162
100
AcDbEntity
  8
0
100
AcDbBlockEnd
  0
BLOCK
  5
8165
330
8164
100
AcDbEntity
  8
0
100
AcDbBlockBegin
  2
*D18
 70
     1
 10
0.0
 20
0.0
 30
0.0
  3
*D18
  1

  0
LINE
  5
7EAD
330
8164
100
AcDbEntity
  8
0
  6
ByBlock
100
AcDbLine
 10
552.6529963942383
 20
1022.09762645012
 30
0.0
 11
1415.23174880838
 21
1022.09762645012
 31
0.0
  0
LINE
  5
7EAE
330
8164
100
AcDbEntity
  8
0
  6
ByBlock
100
AcDbLine
 10
1126.545969497234
 20
568.0976264501205
 30
0.0
 11
1415.23174880838
 21
568.0976264501205
 31
0.0
  0
LINE
  5
7EAF
330
8164
100
AcDbEntity
  8
0
  6
ByBlock
100
AcDbLine
 10
1395.23174880838
 20
982.0976264501204
 30
0.0
 11
1395.23174880838
 21
608.0976264501205
 31
0.0
  0
INSERT
  5
7EB0
330
8164
100
AcDbEntity
  8
0
  6
ByBlock
100
AcDbBlockReference
  2
_OPEN
 10
1395.23174880838
 20
1022.09762645012
 30
0.0
 41
40.0
 42
40.0
 43
40.0
 50
90.0
  0
INSERT
  5
7EB1
330
8164
100
AcDbEntity
  8
0
  6
ByBlock
100
AcDbBlockReference
  2
_OPEN
 10
1395.23174880838
 20
568.0976264501205
 30
0.0
 41
40.0
 42
40.0
 43
40.0
 50
270.0
  0
TEXT
  5
7EB2
330
8164
100
AcDbEntity
  8
3
100
AcDbText
 10
1385.23174880838
 20
716.526197878692
 30
0.0
 40
60.0
  1
454
 50
90.0
100
AcDbText
  0
POINT
  5
7EB3
330
8164
100
AcDbEntity
  8
DEFPOINTS
  6
ByBlock
 62
     0
100
AcDbPoint
 10
532.6529963942383
 20
1022.09762645012
 30
0.0
  0
POINT
  5
7EB4
330
8164
100
AcDbEntity
  8
DEFPOINTS
  6
ByBlock
 62
     0
100
AcDbPoint
 10
1106.545969497234
 20
568.0976264501205
 30
0.0
  0
POINT
  5
7EB5
330
8164
100
AcDbEntity
  8
DEFPOINTS
  6
ByBlock
 62
     0
100
AcDbPoint
 10
1395.23174880838
 20
568.0976264501205
 30
0.0
  0
ENDBLK
  5
7EB6
330
8164
100
AcDbEntity
  8
0
100
AcDbBlockEnd
  0
BLOCK
  5
8167
330
8166
100
AcDbEntity
  8
0
100
AcDbBlockBegin
  2
*D19
 70
     1
 10
0.0
 20
0.0
 30
0.0
  3
*D19
  1

  0
LINE
  5
80A6
330
8166
100
AcDbEntity
  8
3
100
AcDbLine
 10
1930.705163262989
 20
1535.847673143363
 30
0.0
 11
2346.283915677131
 21
1535.847673143363
 31
0.0
  0
LINE
  5
80A7
330
8166
100
AcDbEntity
  8
3
100
AcDbLine
 10
2326.283915677131
 20
2295.847673143363
 30
0.0
 11
2326.283915677131
 21
1575.847673143363
 31
0.0
  0
INSERT
  5
80A8
330
8166
100
AcDbEntity
  8
3
100
AcDbBlockReference
  2
_OPEN
 10
2326.283915677131
 20
2335.847673143363
 30
0.0
 41
40.0
 42
40.0
 43
40.0
 50
90.0
  0
INSERT
  5
80A9
330
8166
100
AcDbEntity
  8
3
100
AcDbBlockReference
  2
_OPEN
 10
2326.283915677131
 20
1535.847673143363
 30
0.0
 41
40.0
 42
40.0
 43
40.0
 50
270.0
  0
TEXT
  5
80C0
330
8166
100
AcDbEntity
  8
3
100
AcDbText
 10
2166.28
 20
1829.65
 30
0.0
 40
60.0
  1
800
100
AcDbText
  0
POINT
  5
80AB
330
8166
100
AcDbEntity
  8
DEFPOINTS
 62
     0
100
AcDbPoint
 10
2037.598136365985
 20
2335.847673143363
 30
0.0
  0
POINT
  5
80AC
330
8166
100
AcDbEntity
  8
DEFPOINTS
 62
     0
100
AcDbPoint
 10
1910.705163262989
 20
1535.847673143363
 30
0.0
  0
POINT
  5
80AD
330
8166
100
AcDbEntity
  8
DEFPOINTS
 62
     0
100
AcDbPoint
 10
2326.283915677131
 20
1535.847673143363
 30
0.0
  0
ENDBLK
  5
7EC0
330
8166
100
AcDbEntity
  8
0
100
AcDbBlockEnd
  0
BLOCK
  5
8169
330
8168
100
AcDbEntity
  8
0
100
AcDbBlockBegin
  2
*D20
 70
     1
 10
0.0
 20
0.0
 30
0.0
  3
*D20
  1

  0
LINE
  5
80AE
330
8168
100
AcDbEntity
  8
3
 62
     0
100
AcDbLine
 10
1920.705163262988
 20
1508.847673143363
 30
0.0
 11
2346.283915677131
 21
1508.847673143363
 31
0.0
  0
LINE
  5
80AF
330
8168
100
AcDbEntity
  8
3
 62
     0
100
AcDbLine
 10
1920.705163262988
 20
1408.847673143363
 30
0.0
 11
2346.283915677131
 21
1408.847673143363
 31
0.0
  0
LINE
  5
80B0
330
8168
100
AcDbEntity
  8
3
 62
     0
100
AcDbLine
 10
2326.283915677131
 20
1548.847673143364
 30
0.0
 11
2326.283915677131
 21
1588.847673143364
 31
0.0
  0
LINE
  5
80B1
330
8168
100
AcDbEntity
  8
3
 62
     0
100
AcDbLine
 10
2326.283915677131
 20
1368.847673143363
 30
0.0
 11
2326.283915677131
 21
1145.99053028622
 31
0.0
  0
LINE
  5
80B2
330
8168
100
AcDbEntity
  8
3
 62
     0
100
AcDbLine
 10
2326.283915677131
 20
1508.847673143363
 30
0.0
 11
2326.283915677131
 21
1408.847673143363
 31
0.0
  0
INSERT
  5
80B3
330
8168
100
AcDbEntity
  8
3
 62
     0
100
AcDbBlockReference
  2
_DOT
 10
2326.283915677131
 20
1508.847673143363
 30
0.0
 41
40.0
 42
40.0
 43
40.0
 50
270.0
  0
INSERT
  5
80B4
330
8168
100
AcDbEntity
  8
3
 62
     0
100
AcDbBlockReference
  2
_OPEN
 10
2326.283915677131
 20
1408.847673143363
 30
0.0
 41
40.0
 42
40.0
 43
40.0
 50
90.0
  0
TEXT
  5
80C1
330
8168
100
AcDbEntity
  8
3
 62
     0
100
AcDbText
 10
2156.28
 20
1131.22
 30
0.0
 40
60.0
  1
100
100
AcDbText
  0
POINT
  5
80B6
330
8168
100
AcDbEntity
  8
DEFPOINTS
 62
     0
100
AcDbPoint
 10
1910.705163262989
 20
1508.847673143363
 30
0.0
  0
POINT
  5
80B7
330
8168
100
AcDbEntity
  8
DEFPOINTS
 62
     0
100
AcDbPoint
 10
1910.705163262989
 20
1408.847673143363
 30
0.0
  0
POINT
  5
80B8
330
8168
100
AcDbEntity
  8
DEFPOINTS
 62
     0
100
AcDbPoint
 10
2326.283915677131
 20
1408.847673143363
 30
0.0
  0
ENDBLK
  5
7F8C
330
8168
100
AcDbEntity
  8
0
100
AcDbBlockEnd
  0
BLOCK
  5
816B
330
816A
100
AcDbEntity
  8
0
100
AcDbBlockBegin
  2
_DOT
 70
     0
 10
0.0
 20
0.0
 30
0.0
  3
_DOT
  1

  0
LWPOLYLINE
  5
7F8F
330
816A
100
AcDbEntity
  8
0
  6
ByBlock
 62
     0
100
AcDbPolyline
 90
        2
 70
     1
 43
0.25
 10
-0.125
 20
0.0
 42
1.0
 10
0.125
 20
0.0
 42
1.0
  0
LINE
  5
7F93
330
816A
100
AcDbEntity
  8
0
  6
ByBlock
 62
     0
100
AcDbLine
 10
-0.25
 20
0.0
 30
0.0
 11
-1.0
 21
0.0
 31
0.0
  0
ENDBLK
  5
7F72
330
816A
100
AcDbEntity
  8
0
100
AcDbBlockEnd
  0
BLOCK
  5
816D
330
816C
100
AcDbEntity
  8
0
100
AcDbBlockBegin
  2
*D22
 70
     1
 10
0.0
 20
0.0
 30
0.0
  3
*D22
  1

  0
LINE
  5
7FC8
330
816C
100
AcDbEntity
  8
0
  6
ByBlock
 62
     0
100
AcDbLine
 10
460.7051632629889
 20
1388.847673143364
 30
0.0
 11
460.7051632629889
 21
1234.019137452367
 31
0.0
  0
LINE
  5
7FC9
330
816C
100
AcDbEntity
  8
0
  6
ByBlock
 62
     0
100
AcDbLine
 10
1510.705163262989
 20
1388.847673143364
 30
0.0
 11
1510.705163262989
 21
1234.019137452367
 31
0.0
  0
LINE
  5
7FCA
330
816C
100
AcDbEntity
  8
0
  6
ByBlock
 62
     0
100
AcDbLine
 10
500.7051632629891
 20
1254.019137452367
 30
0.0
 11
1470.705163262989
 21
1254.019137452367
 31
0.0
  0
INSERT
  5
7FCB
330
816C
100
AcDbEntity
  8
0
  6
ByBlock
 62
     0
100
AcDbBlockReference
  2
_OPEN
 10
460.7051632629889
 20
1254.019137452367
 30
0.0
 41
40.0
 42
40.0
 43
40.0
 50
180.0
  0
INSERT
  5
7FCC
330
816C
100
AcDbEntity
  8
0
  6
ByBlock
 62
     0
100
AcDbBlockReference
  2
_OPEN
 10
1510.705163262989
 20
1254.019137452367
 30
0.0
 41
40.0
 42
40.0
 43
40.0
  0
TEXT
  5
7FCD
330
816C
100
AcDbEntity
  8
3
 62
     0
100
AcDbText
 10
885.705163262989
 20
1274.019137452367
 30
0.0
 40
60.0
  1
1050
100
AcDbText
  0
POINT
  5
7FCE
330
816C
100
AcDbEntity
  8
DEFPOINTS
  6
ByBlock
 62
     0
100
AcDbPoint
 10
460.7051632629889
 20
1408.847673143363
 30
0.0
  0
POINT
  5
7FCF
330
816C
100
AcDbEntity
  8
DEFPOINTS
  6
ByBlock
 62
     0
100
AcDbPoint
 10
1510.705163262989
 20
1408.847673143363
 30
0.0
  0
POINT
  5
7FD0
330
816C
100
AcDbEntity
  8
DEFPOINTS
  6
ByBlock
 62
     0
100
AcDbPoint
 10
1510.705163262989
 20
1254.019137452367
 30
0.0
  0
ENDBLK
  5
7FD1
330
816C
100
AcDbEntity
  8
0
100
AcDbBlockEnd
  0
BLOCK
  5
816F
330
816E
100
AcDbEntity
  8
0
100
AcDbBlockBegin
  2
*D23
 70
     1
 10
0.0
 20
0.0
 30
0.0
  3
*D23
  1

  0
LINE
  5
7FD5
330
816E
100
AcDbEntity
  8
0
  6
ByBlock
 62
     0
100
AcDbLine
 10
1510.705163262989
 20
1388.847673143364
 30
0.0
 11
1510.705163262989
 21
1234.019137452367
 31
0.0
  0
LINE
  5
7FD6
330
816E
100
AcDbEntity
  8
0
  6
ByBlock
 62
     0
100
AcDbLine
 10
1910.705163262989
 20
1388.847673143364
 30
0.0
 11
1910.705163262989
 21
1234.019137452367
 31
0.0
  0
LINE
  5
7FD7
330
816E
100
AcDbEntity
  8
0
  6
ByBlock
 62
     0
100
AcDbLine
 10
1550.705163262988
 20
1254.019137452367
 30
0.0
 11
1870.705163262989
 21
1254.019137452367
 31
0.0
  0
INSERT
  5
7FD8
330
816E
100
AcDbEntity
  8
0
  6
ByBlock
 62
     0
100
AcDbBlockReference
  2
_OPEN
 10
1510.705163262989
 20
1254.019137452367
 30
0.0
 41
40.0
 42
40.0
 43
40.0
 50
180.0
  0
INSERT
  5
7FD9
330
816E
100
AcDbEntity
  8
0
  6
ByBlock
 62
     0
100
AcDbBlockReference
  2
_OPEN
 10
1910.705163262989
 20
1254.019137452367
 30
0.0
 41
40.0
 42
40.0
 43
40.0
  0
TEXT
  5
7FDA
330
816E
100
AcDbEntity
  8
3
 62
     0
100
AcDbText
 10
1633.562306120132
 20
1274.019137452367
 30
0.0
 40
60.0
  1
400
100
AcDbText
  0
POINT
  5
7FDB
330
816E
100
AcDbEntity
  8
DEFPOINTS
  6
ByBlock
 62
     0
100
AcDbPoint
 10
1510.705163262989
 20
1408.847673143363
 30
0.0
  0
POINT
  5
7FDC
330
816E
100
AcDbEntity
  8
DEFPOINTS
  6
ByBlock
 62
     0
100
AcDbPoint
 10
1910.705163262989
 20
1408.847673143363
 30
0.0
  0
POINT
  5
7FDD
330
816E
100
AcDbEntity
  8
DEFPOINTS
  6
ByBlock
 62
     0
100
AcDbPoint
 10
1910.705163262989
 20
1254.019137452367
 30
0.0
  0
ENDBLK
  5
7FDE
330
816E
100
AcDbEntity
  8
0
100
AcDbBlockEnd
  0
BLOCK
  5
8171
330
8170
100
AcDbEntity
  8
0
100
AcDbBlockBegin
  2
*D24
 70
     1
 10
0.0
 20
0.0
 30
0.0
  3
*D24
  1

  0
LINE
  5
7FE2
330
8170
100
AcDbEntity
  8
0
  6
ByBlock
 62
     0
100
AcDbLine
 10
2839.739608317243
 20
1388.847673143364
 30
0.0
 11
2839.739608317243
 21
1234.019137452367
 31
0.0
  0
LINE
  5
7FE3
330
8170
100
AcDbEntity
  8
0
  6
ByBlock
 62
     0
100
AcDbLine
 10
3392.739608317243
 20
1388.847673143364
 30
0.0
 11
3392.739608317243
 21
1234.019137452367
 31
0.0
  0
LINE
  5
7FE4
330
8170
100
AcDbEntity
  8
0
  6
ByBlock
 62
     0
100
AcDbLine
 10
2879.739608317243
 20
1254.019137452367
 30
0.0
 11
3352.739608317243
 21
1254.019137452367
 31
0.0
  0
INSERT
  5
7FE5
330
8170
100
AcDbEntity
  8
0
  6
ByBlock
 62
     0
100
AcDbBlockReference
  2
_OPEN
 10
2839.739608317243
 20
1254.019137452367
 30
0.0
 41
40.0
 42
40.0
 43
40.0
 50
180.0
  0
INSERT
  5
7FE6
330
8170
100
AcDbEntity
  8
0
  6
ByBlock
 62
     0
100
AcDbBlockReference
  2
_OPEN
 10
3392.739608317243
 20
1254.019137452367
 30
0.0
 41
40.0
 42
40.0
 43
40.0
  0
TEXT
  5
7FE7
330
8170
100
AcDbEntity
  8
3
 62
     0
100
AcDbText
 10
3039.096751174386
 20
1274.019137452367
 30
0.0
 40
60.0
  1
553
100
AcDbText
  0
POINT
  5
7FE8
330
8170
100
AcDbEntity
  8
DEFPOINTS
  6
ByBlock
 62
     0
100
AcDbPoint
 10
2839.739608317243
 20
1408.847673143363
 30
0.0
  0
POINT
  5
7FE9
330
8170
100
AcDbEntity
  8
DEFPOINTS
  6
ByBlock
 62
     0
100
AcDbPoint
 10
3392.739608317243
 20
1408.847673143363
 30
0.0
  0
POINT
  5
7FEA
330
8170
100
AcDbEntity
  8
DEFPOINTS
  6
ByBlock
 62
     0
100
AcDbPoint
 10
3392.739608317243
 20
1254.019137452367
 30
0.0
  0
ENDBLK
  5
7FEB
330
8170
100
AcDbEntity
  8
0
100
AcDbBlockEnd
  0
BLOCK
  5
8173
330
8172
100
AcDbEntity
  8
0
100
AcDbBlockBegin
  2
*D25
 70
     1
 10
0.0
 20
0.0
 30
0.0
  3
*D25
  1

  0
LINE
  5
7FEF
330
8172
100
AcDbEntity
  8
0
  6
ByBlock
 62
     0
100
AcDbLine
 10
3392.739608317243
 20
1388.847673143364
 30
0.0
 11
3392.739608317243
 21
1234.019137452367
 31
0.0
  0
LINE
  5
7FF0
330
8172
100
AcDbEntity
  8
0
  6
ByBlock
 62
     0
100
AcDbLine
 10
3845.739608317244
 20
1388.847673143364
 30
0.0
 11
3845.739608317244
 21
1234.019137452367
 31
0.0
  0
LINE
  5
7FF1
330
8172
100
AcDbEntity
  8
0
  6
ByBlock
 62
     0
100
AcDbLine
 10
3432.739608317243
 20
1254.019137452367
 30
0.0
 11
3805.739608317243
 21
1254.019137452367
 31
0.0
  0
INSERT
  5
7FF2
330
8172
100
AcDbEntity
  8
0
  6
ByBlock
 62
     0
100
AcDbBlockReference
  2
_OPEN
 10
3392.739608317243
 20
1254.019137452367
 30
0.0
 41
40.0
 42
40.0
 43
40.0
 50
180.0
  0
INSERT
  5
7FF3
330
8172
100
AcDbEntity
  8
0
  6
ByBlock
 62
     0
100
AcDbBlockReference
  2
_OPEN
 10
3845.739608317244
 20
1254.019137452367
 30
0.0
 41
40.0
 42
40.0
 43
40.0
  0
TEXT
  5
7FF4
330
8172
100
AcDbEntity
  8
3
 62
     0
100
AcDbText
 10
3542.096751174386
 20
1274.019137452367
 30
0.0
 40
60.0
  1
453
100
AcDbText
  0
POINT
  5
7FF5
330
8172
100
AcDbEntity
  8
DEFPOINTS
  6
ByBlock
 62
     0
100
AcDbPoint
 10
3392.739608317243
 20
1408.847673143363
 30
0.0
  0
POINT
  5
7FF6
330
8172
100
AcDbEntity
  8
DEFPOINTS
  6
ByBlock
 62
     0
100
AcDbPoint
 10
3845.739608317244
 20
1408.847673143363
 30
0.0
  0
POINT
  5
7FF7
330
8172
100
AcDbEntity
  8
DEFPOINTS
  6
ByBlock
 62
     0
100
AcDbPoint
 10
3845.739608317244
 20
1254.019137452367
 30
0.0
  0
ENDBLK
  5
7FF8
330
8172
100
AcDbEntity
  8
0
100
AcDbBlockEnd
  0
BLOCK
  5
8175
330
8174
100
AcDbEntity
  8
0
100
AcDbBlockBegin
  2
_NONE
 70
     0
 10
0.0
 20
0.0
 30
0.0
  3
_NONE
  1

  0
CIRCLE
  5
7FFC
330
8174
100
AcDbEntity
  8
0
  6
ByBlock
 62
     0
100
AcDbCircle
 10
0.0
 20
0.0
 30
0.0
 40
0.25
  0
ENDBLK
  5
7FFD
330
8174
100
AcDbEntity
  8
0
100
AcDbBlockEnd
  0
BLOCK
  5
8177
330
8176
100
AcDbEntity
  8
0
100
AcDbBlockBegin
  2
*D27
 70
     1
 10
0.0
 20
0.0
 30
0.0
  3
*D27
  1

  0
LINE
  5
8000
330
8176
100
AcDbEntity
  8
0
  6
ByBlock
 62
     0
100
AcDbLine
 10
2327.690978840954
 20
1508.847673143363
 30
0.0
 11
2327.690978840954
 21
1508.847673143363
 31
0.0
  0
LINE
  5
8001
330
8176
100
AcDbEntity
  8
0
  6
ByBlock
 62
     0
100
AcDbLine
 10
2327.690978840954
 20
1535.847673143363
 30
0.0
 11
2327.690978840954
 21
1615.847673143363
 31
0.0
  0
TEXT
  5
8002
330
8176
100
AcDbEntity
  8
3
 62
     0
100
AcDbText
 10
2443.40526455524
 20
1435.204816000506
 30
0.0
 40
60.0
  1
(27)
 50
90.0
100
AcDbText
  0
LINE
  5
8003
330
8176
100
AcDbEntity
  8
0
  6
ByBlock
 62
     0
100
AcDbLine
 10
2327.690978840954
 20
1508.847673143363
 30
0.0
 11
2327.690978840954
 21
1535.847673143363
 31
0.0
  0
POINT
  5
8004
330
8176
100
AcDbEntity
  8
DEFPOINTS
  6
ByBlock
 62
     0
100
AcDbPoint
 10
1910.705163262989
 20
1508.847673143363
 30
0.0
  0
POINT
  5
8005
330
8176
100
AcDbEntity
  8
DEFPOINTS
  6
ByBlock
 62
     0
100
AcDbPoint
 10
1910.705163262989
 20
1535.847673143363
 30
0.0
  0
POINT
  5
8006
330
8176
100
AcDbEntity
  8
DEFPOINTS
  6
ByBlock
 62
     0
100
AcDbPoint
 10
2327.690978840954
 20
1535.847673143363
 30
0.0
  0
ENDBLK
  5
8007
330
8176
100
AcDbEntity
  8
0
100
AcDbBlockEnd
  0
BLOCK
  5
8179
330
8178
100
AcDbEntity
  8
0
100
AcDbBlockBegin
  2
*D28
 70
     1
 10
0.0
 20
0.0
 30
0.0
  3
*D28
  1

  0
LINE
  5
800B
330
8178
100
AcDbEntity
  8
0
  6
ByBlock
 62
     0
100
AcDbLine
 10
1930.705163262989
 20
1408.847673143363
 30
0.0
 11
2506.226558193681
 21
1408.847673143363
 31
0.0
  0
LINE
  5
800C
330
8178
100
AcDbEntity
  8
0
  6
ByBlock
 62
     0
100
AcDbLine
 10
1503.705163262989
 20
2789.847673143365
 30
0.0
 11
2506.226558193681
 21
2789.847673143365
 31
0.0
  0
LINE
  5
800D
330
8178
100
AcDbEntity
  8
0
  6
ByBlock
 62
     0
100
AcDbLine
 10
2486.226558193681
 20
1448.847673143363
 30
0.0
 11
2486.226558193681
 21
2749.847673143364
 31
0.0
  0
INSERT
  5
800E
330
8178
100
AcDbEntity
  8
0
  6
ByBlock
 62
     0
100
AcDbBlockReference
  2
_OPEN
 10
2486.226558193681
 20
1408.847673143363
 30
0.0
 41
40.0
 42
40.0
 43
40.0
 50
270.0
  0
INSERT
  5
800F
330
8178
100
AcDbEntity
  8
0
  6
ByBlock
 62
     0
100
AcDbBlockReference
  2
_OPEN
 10
2486.226558193681
 20
2789.847673143365
 30
0.0
 41
40.0
 42
40.0
 43
40.0
 50
90.0
  0
TEXT
  5
8010
330
8178
100
AcDbEntity
  8
3
 62
     0
100
AcDbText
 10
2440.512272479395
 20
1966.49053028622
 30
0.0
 40
60.0
  1
(1381)
 50
90.0
100
AcDbText
  0
POINT
  5
8011
330
8178
100
AcDbEntity
  8
DEFPOINTS
  6
ByBlock
 62
     0
100
AcDbPoint
 10
1910.705163262989
 20
1408.847673143363
 30
0.0
  0
POINT
  5
8012
330
8178
100
AcDbEntity
  8
DEFPOINTS
  6
ByBlock
 62
     0
100
AcDbPoint
 10
1483.705163262989
 20
2789.847673143365
 30
0.0
  0
POINT
  5
8013
330
8178
100
AcDbEntity
  8
DEFPOINTS
  6
ByBlock
 62
     0
100
AcDbPoint
 10
2486.226558193681
 20
2789.847673143365
 30
0.0
  0
ENDBLK
  5
8014
330
8178
100
AcDbEntity
  8
0
100
AcDbBlockEnd
  0
BLOCK
  5
8180
330
817F
100
AcDbEntity
  8
0
100
AcDbBlockBegin
  2
*D29
 70
     1
 10
0.0
 20
0.0
 30
0.0
  3
*D29
  1

  0
LINE
  5
81E3
330
817F
100
AcDbEntity
  8
3
 62
     0
370
    -2
100
AcDbLine
 10
2612.739608317244
 20
2505.847673143364
 30
0.0
 11
2612.739608317244
 21
3023.438415746741
 31
0.0
  0
LINE
  5
81E4
330
817F
100
AcDbEntity
  8
3
 62
     0
370
    -2
100
AcDbLine
 10
3392.739608317243
 20
2951.432571521588
 30
0.0
 11
3392.739608317243
 21
3023.438415746741
 31
0.0
  0
LINE
  5
81E5
330
817F
100
AcDbEntity
  8
3
 62
     0
370
    -2
100
AcDbLine
 10
2652.739608317244
 20
3003.438415746741
 30
0.0
 11
3352.739608317243
 21
3003.438415746741
 31
0.0
  0
INSERT
  5
81E6
330
817F
100
AcDbEntity
  8
3
 62
     0
370
    -2
100
AcDbBlockReference
  2
_OPEN
 10
2612.739608317244
 20
3003.438415746741
 30
0.0
 41
40.0
 42
40.0
 43
40.0
 50
180.0
  0
INSERT
  5
81E7
330
817F
100
AcDbEntity
  8
3
 62
     0
370
    -2
100
AcDbBlockReference
  2
_OPEN
 10
3392.739608317243
 20
3003.438415746741
 30
0.0
 41
40.0
 42
40.0
 43
40.0
  0
MTEXT
  5
81E8
330
817F
100
AcDbEntity
  8
3
 62
     0
100
AcDbMText
 10
3002.739608317244
 20
3069.152701461027
 30
0.0
 40
60.0
 41
0.0
 71
     5
 72
     1
  1
\A1;(780)
 73
     1
 44
1.0
1001
ACAD
1000
MTEXTBEGIN
1070
    73
1070
     1
1070
    44
1040
1.0
1070
    74
1070
     0
1000
MTEXTEND
  0
POINT
  5
81E9
330
817F
100
AcDbEntity
  8
DEFPOINTS
 62
     0
100
AcDbPoint
 10
2612.739608317244
 20
2485.847673143364
 30
0.0
  0
POINT
  5
81EA
330
817F
100
AcDbEntity
  8
DEFPOINTS
 62
     0
100
AcDbPoint
 10
3392.739608317243
 20
2931.432571521588
 30
0.0
  0
POINT
  5
81EB
330
817F
100
AcDbEntity
  8
DEFPOINTS
 62
     0
100
AcDbPoint
 10
3392.739608317243
 20
3003.438415746741
 30
0.0
  0
ENDBLK
  5
8181
330
817F
100
AcDbEntity
  8
0
100
AcDbBlockEnd
  0
BLOCK
  5
818D
330
818C
100
AcDbEntity
  8
0
100
AcDbBlockBegin
  2
*D30
 70
     1
 10
0.0
 20
0.0
 30
0.0
  3
*D30
  1

  0
LINE
  5
81DA
330
818C
100
AcDbEntity
  8
3
 62
     0
370
    -2
100
AcDbLine
 10
3392.739608317243
 20
2951.432571521588
 30
0.0
 11
3392.739608317243
 21
3023.438415746741
 31
0.0
  0
LINE
  5
81DB
330
818C
100
AcDbEntity
  8
3
 62
     0
370
    -2
100
AcDbLine
 10
3902.739608317244
 20
2325.847673143363
 30
0.0
 11
3902.739608317244
 21
3023.438415746741
 31
0.0
  0
LINE
  5
81DC
330
818C
100
AcDbEntity
  8
3
 62
     0
370
    -2
100
AcDbLine
 10
3432.739608317243
 20
3003.438415746741
 30
0.0
 11
3862.739608317244
 21
3003.438415746741
 31
0.0
  0
INSERT
  5
81DD
330
818C
100
AcDbEntity
  8
3
 62
     0
370
    -2
100
AcDbBlockReference
  2
_OPEN
 10
3392.739608317243
 20
3003.438415746741
 30
0.0
 41
40.0
 42
40.0
 43
40.0
 50
180.0
  0
INSERT
  5
81DE
330
818C
100
AcDbEntity
  8
3
 62
     0
370
    -2
100
AcDbBlockReference
  2
_OPEN
 10
3902.739608317244
 20
3003.438415746741
 30
0.0
 41
40.0
 42
40.0
 43
40.0
  0
MTEXT
  5
81DF
330
818C
100
AcDbEntity
  8
3
 62
     0
100
AcDbMText
 10
3647.739608317244
 20
3069.152701461027
 30
0.0
 40
60.0
 41
0.0
 71
     5
 72
     1
  1
\A1;(510)
 73
     1
 44
1.0
1001
ACAD
1000
MTEXTBEGIN
1070
    73
1070
     1
1070
    44
1040
1.0
1070
    74
1070
     0
1000
MTEXTEND
  0
POINT
  5
81E0
330
818C
100
AcDbEntity
  8
DEFPOINTS
 62
     0
100
AcDbPoint
 10
3392.739608317243
 20
2931.432571521588
 30
0.0
  0
POINT
  5
81E1
330
818C
100
AcDbEntity
  8
DEFPOINTS
 62
     0
100
AcDbPoint
 10
3902.739608317244
 20
2305.847673143363
 30
0.0
  0
POINT
  5
81E2
330
818C
100
AcDbEntity
  8
DEFPOINTS
 62
     0
100
AcDbPoint
 10
3902.739608317244
 20
3003.438415746741
 30
0.0
  0
ENDBLK
  5
818E
330
818C
100
AcDbEntity
  8
0
100
AcDbBlockEnd
  0
BLOCK
  5
81EE
330
81ED
100
AcDbEntity
  8
0
100
AcDbBlockBegin
  2
*D31
 70
     1
 10
0.0
 20
0.0
 30
0.0
  3
*D31
  1

  0
LINE
  5
81F0
330
81ED
100
AcDbEntity
  8
3
 62
     0
370
    -2
100
AcDbLine
 10
460.7051632629889
 20
3452.318859462983
 30
0.0
 11
460.7051632629889
 21
3115.081896789272
 31
0.0
  0
LINE
  5
81F1
330
81ED
100
AcDbEntity
  8
3
 62
     0
370
    -2
100
AcDbLine
 10
1910.705163262989
 20
3452.318859462983
 30
0.0
 11
1910.705163262989
 21
3115.081896789272
 31
0.0
  0
LINE
  5
81F2
330
81ED
100
AcDbEntity
  8
3
 62
     0
370
    -2
100
AcDbLine
 10
500.7051632629889
 20
3135.081896789272
 30
0.0
 11
1870.705163262989
 21
3135.081896789272
 31
0.0
  0
INSERT
  5
81F3
330
81ED
100
AcDbEntity
  8
3
 62
     0
370
    -2
100
AcDbBlockReference
  2
_OPEN
 10
460.7051632629889
 20
3135.081896789272
 30
0.0
 41
40.0
 42
40.0
 43
40.0
 50
180.0
  0
INSERT
  5
81F4
330
81ED
100
AcDbEntity
  8
3
 62
     0
370
    -2
100
AcDbBlockReference
  2
_OPEN
 10
1910.705163262989
 20
3135.081896789272
 30
0.0
 41
40.0
 42
40.0
 43
40.0
  0
MTEXT
  5
81F5
330
81ED
100
AcDbEntity
  8
3
 62
     0
100
AcDbMText
 10
1185.705163262989
 20
3185.081896789272
 30
0.0
 40
60.0
 41
0.0
 71
     5
 72
     1
  1
\A1;1450
 73
     1
 44
1.0
1001
ACAD
1000
MTEXTBEGIN
1070
    73
1070
     1
1070
    44
1040
1.0
1070
    74
1070
     0
1000
MTEXTEND
  0
POINT
  5
81F6
330
81ED
100
AcDbEntity
  8
DEFPOINTS
 62
     0
100
AcDbPoint
 10
460.7051632629889
 20
3472.318859462983
 30
0.0
  0
POINT
  5
81F7
330
81ED
100
AcDbEntity
  8
DEFPOINTS
 62
     0
100
AcDbPoint
 10
1910.705163262989
 20
3472.318859462983
 30
0.0
  0
POINT
  5
81F8
330
81ED
100
AcDbEntity
  8
DEFPOINTS
 62
     0
100
AcDbPoint
 10
1910.705163262989
 20
3135.081896789272
 30
0.0
  0
ENDBLK
  5
81EF
330
81ED
100
AcDbEntity
  8
0
100
AcDbBlockEnd
  0
BLOCK
  5
81FB
330
81FA
100
AcDbEntity
  8
0
100
AcDbBlockBegin
  2
*D32
 70
     1
 10
0.0
 20
0.0
 30
0.0
  3
*D32
  1

  0
LINE
  5
8206
330
81FA
100
AcDbEntity
  8
3
 62
     0
370
    -2
100
AcDbLine
 10
1510.705163262989
 20
2885.447817660772
 30
0.0
 11
1510.705163262989
 21
2945.066613388714
 31
0.0
  0
LINE
  5
8207
330
81FA
100
AcDbEntity
  8
3
 62
     0
370
    -2
100
AcDbLine
 10
962.7051632629889
 20
2308.847673143363
 30
0.0
 11
962.7051632629889
 21
2945.066613388714
 31
0.0
  0
LINE
  5
8208
330
81FA
100
AcDbEntity
  8
3
 62
     0
370
    -2
100
AcDbLine
 10
1470.705163262989
 20
2925.066613388714
 30
0.0
 11
1002.705163262989
 21
2925.066613388714
 31
0.0
  0
INSERT
  5
8209
330
81FA
100
AcDbEntity
  8
3
 62
     0
370
    -2
100
AcDbBlockReference
  2
_OPEN
 10
1510.705163262989
 20
2925.066613388714
 30
0.0
 41
40.0
 42
40.0
 43
40.0
  0
INSERT
  5
820A
330
81FA
100
AcDbEntity
  8
3
 62
     0
370
    -2
100
AcDbBlockReference
  2
_OPEN
 10
962.7051632629889
 20
2925.066613388714
 30
0.0
 41
40.0
 42
40.0
 43
40.0
 50
180.0
  0
MTEXT
  5
820B
330
81FA
100
AcDbEntity
  8
3
 62
     0
100
AcDbMText
 10
1236.705163262989
 20
2975.066613388714
 30
0.0
 40
60.0
 41
0.0
 71
     5
 72
     1
  1
\A1;548
 73
     1
 44
1.0
1001
ACAD
1000
MTEXTBEGIN
1070
    73
1070
     1
1070
    44
1040
1.0
1070
    74
1070
     0
1000
MTEXTEND
  0
POINT
  5
820C
330
81FA
100
AcDbEntity
  8
DEFPOINTS
 62
     0
100
AcDbPoint
 10
1510.705163262989
 20
2865.447817660772
 30
0.0
  0
POINT
  5
820D
330
81FA
100
AcDbEntity
  8
DEFPOINTS
 62
     0
100
AcDbPoint
 10
962.7051632629889
 20
2288.847673143363
 30
0.0
  0
POINT
  5
820E
330
81FA
100
AcDbEntity
  8
DEFPOINTS
 62
     0
100
AcDbPoint
 10
962.7051632629889
 20
2925.066613388714
 30
0.0
  0
ENDBLK
  5
81FC
330
81FA
100
AcDbEntity
  8
0
100
AcDbBlockEnd
  0
BLOCK
  5
8211
330
8210
100
AcDbEntity
  8
0
100
AcDbBlockBegin
  2
*D33
 70
     1
 10
0.0
 20
0.0
 30
0.0
  3
*D33
  1

  0
LINE
  5
8253
330
8210
100
AcDbEntity
  8
3
 62
     0
370
    -2
100
AcDbLine
 10
2037.598136365984
 20
2335.847673143363
 30
0.0
 11
2346.283915677131
 21
2335.847673143363
 31
0.0
  0
LINE
  5
8254
330
8210
100
AcDbEntity
  8
3
 62
     0
370
    -2
100
AcDbLine
 10
1930.705163262989
 20
1535.847673143363
 30
0.0
 11
2346.283915677131
 21
1535.847673143363
 31
0.0
  0
LINE
  5
8255
330
8210
100
AcDbEntity
  8
3
 62
     0
370
    -2
100
AcDbLine
 10
2326.283915677131
 20
2295.847673143363
 30
0.0
 11
2326.283915677131
 21
1575.847673143363
 31
0.0
  0
INSERT
  5
8256
330
8210
100
AcDbEntity
  8
3
 62
     0
370
    -2
100
AcDbBlockReference
  2
_OPEN
 10
2326.283915677131
 20
2335.847673143363
 30
0.0
 41
40.0
 42
40.0
 43
40.0
 50
90.0
  0
INSERT
  5
8257
330
8210
100
AcDbEntity
  8
3
 62
     0
370
    -2
100
AcDbBlockReference
  2
_OPEN
 10
2326.283915677131
 20
1535.847673143363
 30
0.0
 41
40.0
 42
40.0
 43
40.0
 50
270.0
  0
MTEXT
  5
8258
330
8210
100
AcDbEntity
  8
3
 62
     0
100
AcDbMText
 10
2276.28391567713
 20
1935.847673143363
 30
0.0
 40
60.0
 41
0.0
 71
     5
 72
     1
  1
\A1;800
 11
0.0000000000000001
 21
1.0
 31
0.0
 73
     1
 44
1.0
1001
ACAD
1000
MTEXTBEGIN
1070
    73
1070
     1
1070
    44
1040
1.0
1070
    74
1070
     0
1000
MTEXTEND
  0
POINT
  5
8259
330
8210
100
AcDbEntity
  8
DEFPOINTS
 62
     0
100
AcDbPoint
 10
2017.598136365984
 20
2335.847673143363
 30
0.0
  0
POINT
  5
825A
330
8210
100
AcDbEntity
  8
DEFPOINTS
 62
     0
100
AcDbPoint
 10
1910.705163262989
 20
1535.847673143363
 30
0.0
  0
POINT
  5
825B
330
8210
100
AcDbEntity
  8
DEFPOINTS
 62
     0
100
AcDbPoint
 10
2326.283915677131
 20
1535.847673143363
 30
0.0
  0
ENDBLK
  5
8212
330
8210
100
AcDbEntity
  8
0
100
AcDbBlockEnd
  0
BLOCK
  5
821E
330
821D
100
AcDbEntity
  8
0
100
AcDbBlockBegin
  2
*D34
 70
     1
 10
0.0
 20
0.0
 30
0.0
  3
*D34
  1

  0
LINE
  5
830A
330
821D
100
AcDbEntity
  8
3
 62
     0
370
    -2
100
AcDbLine
 10
1930.705163262989
 20
1535.847673143363
 30
0.0
 11
2346.283915677131
 21
1535.847673143363
 31
0.0
  0
LINE
  5
830B
330
821D
100
AcDbEntity
  8
3
 62
     0
370
    -2
100
AcDbLine
 10
1930.705163262989
 20
1508.847673143363
 30
0.0
 11
2346.283915677131
 21
1508.847673143363
 31
0.0
  0
LINE
  5
830C
330
821D
100
AcDbEntity
  8
3
 62
     0
370
    -2
100
AcDbLine
 10
2326.283915677131
 20
1575.847673143363
 30
0.0
 11
2326.283915677131
 21
1615.847673143363
 31
0.0
  0
LINE
  5
830D
330
821D
100
AcDbEntity
  8
3
 62
     0
370
    -2
100
AcDbLine
 10
2326.283915677131
 20
1508.847673143363
 30
0.0
 11
2326.283915677131
 21
1468.847673143363
 31
0.0
  0
LINE
  5
830E
330
821D
100
AcDbEntity
  8
3
 62
     0
370
    -2
100
AcDbLine
 10
2326.283915677131
 20
1522.347673143363
 30
0.0
 11
2466.689246338142
 21
1558.49053028622
 31
0.0
  0
LINE
  5
830F
330
821D
100
AcDbEntity
  8
3
 62
     0
370
    -2
100
AcDbLine
 10
2466.689246338142
 20
1558.49053028622
 30
0.0
 11
2466.689246338142
 21
1772.776244571934
 31
0.0
  0
MTEXT
  5
8310
330
821D
100
AcDbEntity
  8
3
 62
     0
100
AcDbMText
 10
2400.974960623856
 20
1665.633387429077
 30
0.0
 40
60.0
 41
0.0
 71
     5
 72
     1
  1
\A1;(27)
 11
0.0000000000000001
 21
1.0
 31
0.0
 73
     1
 44
1.0
1001
ACAD
1000
MTEXTBEGIN
1070
    73
1070
     1
1070
    44
1040
1.0
1070
    74
1070
     0
1000
MTEXTEND
  0
LINE
  5
8311
330
821D
100
AcDbEntity
  8
3
 62
     0
370
    -2
100
AcDbLine
 10
2326.283915677131
 20
1535.847673143363
 30
0.0
 11
2326.283915677131
 21
1508.847673143363
 31
0.0
  0
LINE
  5
8312
330
821D
100
AcDbEntity
  8
3
 62
     0
370
    -2
100
AcDbLine
 10
2326.283915677131
 20
1535.847673143363
 30
0.0
 11
2326.283915677131
 21
1508.847673143363
 31
0.0
  0
INSERT
  5
8313
330
821D
100
AcDbEntity
  8
3
 62
     0
370
    -2
100
AcDbBlockReference
  2
_OPEN
 10
2326.283915677131
 20
1535.847673143363
 30
0.0
 41
40.0
 42
40.0
 43
40.0
 50
270.0
  0
INSERT
  5
8314
330
821D
100
AcDbEntity
  8
3
 62
     0
370
    -2
100
AcDbBlockReference
  2
_DotSmall
 10
2326.283915677131
 20
1508.847673143363
 30
0.0
 41
40.0
 42
40.0
 43
40.0
 50
90.0
  0
POINT
  5
8315
330
821D
100
AcDbEntity
  8
DEFPOINTS
 62
     0
100
AcDbPoint
 10
1910.705163262989
 20
1535.847673143363
 30
0.0
  0
POINT
  5
8316
330
821D
100
AcDbEntity
  8
DEFPOINTS
 62
     0
100
AcDbPoint
 10
1910.705163262989
 20
1508.847673143363
 30
0.0
  0
POINT
  5
8317
330
821D
100
AcDbEntity
  8
DEFPOINTS
 62
     0
100
AcDbPoint
 10
2326.283915677131
 20
1508.847673143363
 30
0.0
  0
ENDBLK
  5
821F
330
821D
100
AcDbEntity
  8
0
100
AcDbBlockEnd
  0
BLOCK
  5
8288
330
8287
100
AcDbEntity
  8
0
100
AcDbBlockBegin
  2
*D35
 70
     1
 10
0.0
 20
0.0
 30
0.0
  3
*D35
  1

  0
LINE
  5
829C
330
8287
100
AcDbEntity
  8
3
 62
     0
370
    -2
100
AcDbLine
 10
1930.705163262989
 20
1408.847673143363
 30
0.0
 11
2541.006734501909
 21
1408.847673143363
 31
0.0
  0
LINE
  5
829D
330
8287
100
AcDbEntity
  8
3
 62
     0
370
    -2
100
AcDbLine
 10
1483.705163262989
 20
2789.847673143363
 30
0.0
 11
2541.006734501909
 21
2789.847673143363
 31
0.0
  0
LINE
  5
829E
330
8287
100
AcDbEntity
  8
3
 62
     0
370
    -2
100
AcDbLine
 10
2521.006734501909
 20
1448.847673143363
 30
0.0
 11
2521.006734501909
 21
2749.847673143363
 31
0.0
  0
INSERT
  5
829F
330
8287
100
AcDbEntity
  8
3
 62
     0
370
    -2
100
AcDbBlockReference
  2
_OPEN
 10
2521.006734501909
 20
1408.847673143363
 30
0.0
 41
40.0
 42
40.0
 43
40.0
 50
270.0
  0
INSERT
  5
82A0
330
8287
100
AcDbEntity
  8
3
 62
     0
370
    -2
100
AcDbBlockReference
  2
_OPEN
 10
2521.006734501909
 20
2789.847673143363
 30
0.0
 41
40.0
 42
40.0
 43
40.0
 50
90.0
  0
MTEXT
  5
82A1
330
8287
100
AcDbEntity
  8
3
 62
     0
100
AcDbMText
 10
2455.292448787623
 20
2099.347673143364
 30
0.0
 40
60.0
 41
0.0
 71
     5
 72
     1
  1
\A1;(1381)
 11
0.0000000000000001
 21
1.0
 31
0.0
 73
     1
 44
1.0
1001
ACAD
1000
MTEXTBEGIN
1070
    73
1070
     1
1070
    44
1040
1.0
1070
    74
1070
     0
1000
MTEXTEND
  0
POINT
  5
82A2
330
8287
100
AcDbEntity
  8
DEFPOINTS
 62
     0
100
AcDbPoint
 10
1910.705163262989
 20
1408.847673143363
 30
0.0
  0
POINT
  5
82A3
330
8287
100
AcDbEntity
  8
DEFPOINTS
 62
     0
100
AcDbPoint
 10
1463.705163262989
 20
2789.847673143363
 30
0.0
  0
POINT
  5
82A4
330
8287
100
AcDbEntity
  8
DEFPOINTS
 62
     0
100
AcDbPoint
 10
2521.006734501909
 20
2789.847673143363
 30
0.0
  0
ENDBLK
  5
8289
330
8287
100
AcDbEntity
  8
0
100
AcDbBlockEnd
  0
BLOCK
  5
8308
330
8306
100
AcDbEntity
  8
0
100
AcDbBlockBegin
  2
_DotSmall
 70
     0
 10
0.0
 20
0.0
 30
0.0
  3
_DotSmall
  1

  0
LWPOLYLINE
  5
8307
330
8306
100
AcDbEntity
  8
0
  6
ByBlock
 62
     0
100
AcDbPolyline
 90
        2
 70
     1
 43
0.5
 10
-0.0625
 20
0.0
 42
1.0
 10
0.0625
 20
0.0
 42
1.0
  0
ENDBLK
  5
8309
330
8306
100
AcDbEntity
  8
0
100
AcDbBlockEnd
  0
BLOCK
  5
831A
330
8319
100
AcDbEntity
  8
0
100
AcDbBlockBegin
  2
*D37
 70
     1
 10
0.0
 20
0.0
 30
0.0
  3
*D37
  1

  0
LINE
  5
832E
330
8319
100
AcDbEntity
  8
3
 62
     0
370
    -2
100
AcDbLine
 10
1110.705163262988
 20
4498.318859462986
 30
0.0
 11
1110.705163262988
 21
4646.924149961387
 31
0.0
  0
LINE
  5
832F
330
8319
100
AcDbEntity
  8
3
 62
     0
370
    -2
100
AcDbLine
 10
460.7051632629889
 20
4092.318859462981
 30
0.0
 11
460.705163262989
 21
4646.924149961387
 31
0.0
  0
LINE
  5
8330
330
8319
100
AcDbEntity
  8
3
 62
     0
370
    -2
100
AcDbLine
 10
1070.705163262988
 20
4626.924149961388
 30
0.0
 11
500.705163262989
 21
4626.924149961388
 31
0.0
  0
INSERT
  5
8331
330
8319
100
AcDbEntity
  8
3
 62
     0
370
    -2
100
AcDbBlockReference
  2
_OPEN
 10
1110.705163262988
 20
4626.924149961388
 30
0.0
 41
40.0
 42
40.0
 43
40.0
  0
INSERT
  5
8332
330
8319
100
AcDbEntity
  8
3
 62
     0
370
    -2
100
AcDbBlockReference
  2
_OPEN
 10
460.705163262989
 20
4626.924149961388
 30
0.0
 41
40.0
 42
40.0
 43
40.0
 50
180.0
  0
MTEXT
  5
8333
330
8319
100
AcDbEntity
  8
3
 62
     0
100
AcDbMText
 10
785.7051632629889
 20
4676.924149961387
 30
0.0
 40
60.0
 41
0.0
 71
     5
 72
     1
  1
\A1;650
 73
     1
 44
1.0
1001
ACAD
1000
MTEXTBEGIN
1070
    73
1070
     1
1070
    44
1040
1.0
1070
    74
1070
     0
1000
MTEXTEND
  0
POINT
  5
8334
330
8319
100
AcDbEntity
  8
DEFPOINTS
 62
     0
100
AcDbPoint
 10
1110.705163262988
 20
4478.318859462985
 30
0.0
  0
POINT
  5
8335
330
8319
100
AcDbEntity
  8
DEFPOINTS
 62
     0
100
AcDbPoint
 10
460.7051632629889
 20
4072.31885946298
 30
0.0
  0
POINT
  5
8336
330
8319
100
AcDbEntity
  8
DEFPOINTS
 62
     0
100
AcDbPoint
 10
460.705163262989
 20
4626.924149961388
 30
0.0
  0
ENDBLK
  5
831B
330
8319
100
AcDbEntity
  8
0
100
AcDbBlockEnd
  0
ENDSEC
  0
SECTION
  2
ENTITIES
  0
INSERT
  5
7BF8
330
8130
100
AcDbEntity
  8
0
100
AcDbBlockReference
  2
YA_N
 10
6.0
 20
5.0
 30
0.0
  0
LINE
  5
7BFA
330
8130
100
AcDbEntity
  8
2
100
AcDbLine
 10
899.4514209570624
 20
2335.847673143363
 30
0.0
 11
2017.598136365984
 21
2335.847673143363
 31
0.0
  0
LINE
  5
7BFB
330
8130
100
AcDbEntity
  8
2
100
AcDbLine
 10
1510.705163262989
 20
2865.447817660772
 30
0.0
 11
1510.705163262989
 21
1408.847673143363
 31
0.0
  0
ARC
  5
7BFC
330
8130
100
AcDbEntity
  8
1
100
AcDbCircle
 10
1557.705163262989
 20
2288.847673143363
 30
0.0
 40
595.0
100
AcDbArc
 50
175.4693949573172
 51
265.4693949573172
  0
ARC
  5
7BFD
330
8130
100
AcDbEntity
  8
1
100
AcDbCircle
 10
1463.705163262989
 20
2288.847673143363
 30
0.0
 40
501.0
100
AcDbArc
 50
84.61703135011868
 51
174.6170313501186
  0
ARC
  5
7BFE
330
8130
100
AcDbEntity
  8
1
100
AcDbCircle
 10
1472.705163262989
 20
2373.847673143364
 30
0.0
 40
416.0
100
AcDbArc
 50
354.7589449387032
 51
84.75894493870329
  0
LINE
  5
7BFF
330
8130
100
AcDbEntity
  8
1
100
AcDbLine
 10
1970.705163262989
 20
1615.847673143363
 30
0.0
 11
1970.705163262989
 21
2349.847673143363
 31
0.0
  0
LINE
  5
7C00
330
8130
100
AcDbEntity
  8
1
100
AcDbLine
 10
1970.705163262989
 20
1657.847673143364
 30
0.0
 11
1510.705163262989
 21
1695.706880413678
 31
0.0
  0
LINE
  5
7C01
330
8130
100
AcDbEntity
  8
1
100
AcDbLine
 10
1887.666699762404
 20
2307.847673143363
 30
0.0
 11
1970.705163262989
 21
2307.847673143363
 31
0.0
  0
LINE
  5
7C02
330
8130
100
AcDbEntity
  8
1
100
AcDbLine
 10
1930.705163262989
 20
1661.13977812339
 30
0.0
 11
1930.705163262989
 21
2307.847673143363
 31
0.0
  0
LINE
  5
7C03
330
8130
100
AcDbEntity
  8
1
100
AcDbLine
 10
1967.705163262989
 20
1615.847673143363
 30
0.0
 11
1970.705163262989
 21
1615.847673143363
 31
0.0
  0
LINE
  5
7C04
330
8130
100
AcDbEntity
  8
1
100
AcDbLine
 10
1967.705163262989
 20
2349.847673143363
 30
0.0
 11
1970.705163262989
 21
2349.847673143363
 31
0.0
  0
LINE
  5
7C05
330
8130
100
AcDbEntity
  8
1
100
AcDbLine
 10
1967.705163262989
 20
1615.847673143363
 30
0.0
 11
1967.705163262989
 21
2349.847673143363
 31
0.0
  0
LINE
  5
7C06
330
8130
100
AcDbEntity
  8
2
100
AcDbLine
 10
3392.739608317243
 20
2844.960429163517
 30
0.0
 11
3392.739608317243
 21
1408.847673143363
 31
0.0
  0
LINE
  5
7C07
330
8130
100
AcDbEntity
  8
2
100
AcDbLine
 10
2610.739608317242
 20
2335.847673143363
 30
0.0
 11
3898.411282939392
 21
2335.847673143363
 31
0.0
  0
LINE
  5
7C08
330
8130
100
AcDbEntity
  8
1
100
AcDbLine
 10
3845.739608317244
 20
1635.847673143364
 30
0.0
 11
3845.739608317244
 21
1630.377541930178
 31
0.0
  0
LINE
  5
7C09
330
8130
100
AcDbEntity
  8
1
100
AcDbLine
 10
3792.739608317243
 20
2789.847673143365
 30
0.0
 11
3792.739608317243
 21
2363.847673143363
 31
0.0
  0
LINE
  5
7C0A
330
8130
100
AcDbEntity
  8
1
100
AcDbLine
 10
3792.739608317243
 20
2363.847673143363
 30
0.0
 11
3792.739608317245
 21
1657.847673143364
 31
0.0
  0
LINE
  5
7C0B
330
8130
100
AcDbEntity
  8
2
100
AcDbLine
 10
1510.705163262989
 20
4506.116945967806
 30
0.0
 11
1510.705163262989
 21
3221.765576191286
 31
0.0
  0
LINE
  5
7C0C
330
8130
100
AcDbEntity
  8
2
100
AcDbLine
 10
908.8573135641707
 20
4025.318859462981
 30
0.0
 11
2020.215697946813
 21
4025.318859462982
 31
0.0
  0
INSERT
  5
7C0D
330
8130
100
AcDbEntity
  8
0
100
AcDbBlockReference
  2
YA_N
 10
-1221.011981710642
 20
-542.7332483964637
 30
0.0
 41
15.0
 42
15.0
 43
15.0
  0
LINE
  5
7C0F
330
8130
100
AcDbEntity
  8
1
100
AcDbLine
 10
460.7051632629889
 20
1408.847673143363
 30
0.0
 11
1910.705163262989
 21
1408.847673143363
 31
0.0
  0
LINE
  5
7C10
330
8130
100
AcDbEntity
  8
1
100
AcDbLine
 10
460.7051632629889
 20
1508.847673143363
 30
0.0
 11
1910.705163262989
 21
1508.847673143363
 31
0.0
1001
ACAD
1000
ASC_BOUNDS
1002
{
1070
    19
1005
0
1005
0
1002
}
  0
LINE
  5
7C11
330
8130
100
AcDbEntity
  8
1
100
AcDbLine
 10
460.7051632629889
 20
1508.847673143363
 30
0.0
 11
460.7051632629889
 21
1408.847673143363
 31
0.0
  0
LINE
  5
7C12
330
8130
100
AcDbEntity
  8
1
100
AcDbLine
 10
1910.705163262989
 20
1508.847673143363
 30
0.0
 11
1910.705163262989
 21
1408.847673143363
 31
0.0
  0
ARC
  5
7C13
330
8130
100
AcDbEntity
  8
1
100
AcDbCircle
 10
660.705163262989
 20
1852.847673143363
 30
0.0
 40
142.5
100
AcDbArc
 50
326.966192328012
 51
0.0
  0
ARC
  5
7C14
330
8130
100
AcDbEntity
  8
1
100
AcDbCircle
 10
660.705163262989
 20
1852.847673143363
 30
0.0
 40
142.5
100
AcDbArc
 50
0.0
 51
213.0338683823617
  0
LINE
  5
7C15
330
8130
100
AcDbEntity
  8
2
100
AcDbLine
 10
660.705163262989
 20
2014.446414260623
 30
0.0
 11
660.705163262989
 21
1408.847673143364
 31
0.0
  0
LINE
  5
7C16
330
8130
100
AcDbEntity
  8
1
100
AcDbLine
 10
541.2405052540663
 20
1775.165979760616
 30
0.0
 11
530.7051632629891
 21
1735.847673143364
 31
0.0
  0
LINE
  5
7C17
330
8130
100
AcDbEntity
  8
1
100
AcDbLine
 10
530.7051632629891
 20
1735.650273143364
 30
0.0
 11
530.7051632629891
 21
1720.847673143363
 31
0.0
  0
LINE
  5
7C18
330
8130
100
AcDbEntity
  8
1
100
AcDbLine
 10
780.1699035830497
 20
1775.166106344923
 30
0.0
 11
790.7051632629892
 21
1735.847673143364
 31
0.0
  0
LINE
  5
7C19
330
8130
100
AcDbEntity
  8
1
100
AcDbLine
 10
790.7051632629892
 20
1735.650273143364
 30
0.0
 11
790.7051632629892
 21
1720.847673143363
 31
0.0
  0
LINE
  5
7C1A
330
8130
100
AcDbEntity
  8
2
100
AcDbLine
 10
490.1675984473985
 20
1852.847673143363
 30
0.0
 11
829.2059287886495
 21
1852.847673143363
 31
0.0
  0
LINE
  5
7C1B
330
8130
100
AcDbEntity
  8
1
100
AcDbLine
 10
860.7051632629891
 20
1675.847673143364
 30
0.0
 11
860.7051632629891
 21
1635.847673143364
 31
0.0
  0
LINE
  5
7C1C
330
8130
100
AcDbEntity
  8
1
100
AcDbLine
 10
460.7051632629889
 20
1675.847673143364
 30
0.0
 11
460.7051632629889
 21
1635.847673143364
 31
0.0
  0
LINE
  5
7C1D
330
8130
100
AcDbEntity
  8
1
100
AcDbLine
 10
460.7051632629889
 20
1675.847673143364
 30
0.0
 11
485.7051632629889
 21
1675.847673143364
 31
0.0
  0
LINE
  5
7C1E
330
8130
100
AcDbEntity
  8
1
100
AcDbLine
 10
496.8695066491944
 20
1720.847673143363
 30
0.0
 11
823.3276746543159
 21
1720.847673143363
 31
0.0
  0
LINE
  5
7C1F
330
8130
100
AcDbEntity
  8
1
100
AcDbLine
 10
485.7051632629889
 20
1675.847673143364
 30
0.0
 11
496.8695066491944
 21
1720.847673143363
 31
0.0
  0
LINE
  5
7C20
330
8130
100
AcDbEntity
  8
1
100
AcDbLine
 10
835.7051632629891
 20
1675.847673143364
 30
0.0
 11
823.3276746543159
 21
1720.847673143363
 31
0.0
  0
LINE
  5
7C21
330
8130
100
AcDbEntity
  8
1
100
AcDbLine
 10
2839.739608317243
 20
1508.847673143363
 30
0.0
 11
3845.739608317244
 21
1508.847673143363
 31
0.0
1001
ACAD
1000
ASC_BOUNDS
1002
{
1070
    19
1002
}
  0
LINE
  5
7C22
330
8130
100
AcDbEntity
  8
1
100
AcDbLine
 10
2839.739608317243
 20
1408.847673143363
 30
0.0
 11
3845.739608317244
 21
1408.847673143363
 31
0.0
  0
LINE
  5
7C23
330
8130
100
AcDbEntity
  8
1
100
AcDbLine
 10
2839.739608317243
 20
1508.847673143363
 30
0.0
 11
2839.739608317243
 21
1408.847673143363
 31
0.0
  0
LINE
  5
7C24
330
8130
100
AcDbEntity
  8
1
100
AcDbLine
 10
3845.739608317244
 20
1508.847673143363
 30
0.0
 11
3845.739608317244
 21
1408.847673143363
 31
0.0
  0
DIMENSION
  5
7C26
330
8130
100
AcDbEntity
  8
3
100
AcDbDimension
  2
*D4
 10
2099.266697969545
 20
2307.847673143363
 30
0.0
 11
2059.266697969545
 21
1982.847673143363
 31
0.0
 12
931.0521668687504
 22
1767.750046693243
 32
0.0
 71
     5
 42
-1.0
  3
Standard
100
AcDbAlignedDimension
 13
1970.705163262989
 23
1657.847673143364
 33
0.0
 14
1970.705163262989
 24
2307.847673143363
 34
0.0
 50
90.0
100
AcDbRotatedDimension
1001
ACAD
1000
DSTYLE
1002
{
1070
    40
1040
20.0
1002
}
  0
DIMENSION
  5
7C27
330
8130
100
AcDbEntity
  8
3
100
AcDbDimension
  2
*D5
 10
2218.855756545743
 20
2335.847673143363
 30
0.0
 11
2178.855756545743
 21
1996.847673143363
 31
0.0
 12
931.0521668687504
 22
1767.750046693243
 32
0.0
 71
     5
 42
-1.0
  3
Standard
100
AcDbAlignedDimension
 13
1970.705163262989
 23
1657.847673143364
 33
0.0
 14
2017.598136365984
 24
2335.847673143363
 34
0.0
 50
90.0
100
AcDbRotatedDimension
1001
ACAD
1000
DSTYLE
1002
{
1070
    40
1040
20.0
1002
}
  0
POINT
  5
7C28
330
8130
100
AcDbEntity
  8
1
100
AcDbPoint
 10
1910.705163262989
 20
1408.847673143363
 30
0.0
  0
LINE
  5
7C29
330
8130
100
AcDbEntity
  8
2
100
AcDbLine
 10
2610.739608317242
 20
1852.847673143363
 30
0.0
 11
2992.739608317242
 21
1852.847673143363
 31
0.0
  0
LINE
  5
7C2B
330
8130
100
AcDbEntity
  8
1
100
AcDbLine
 10
2992.739608317242
 20
2789.847673143365
 30
0.0
 11
2992.739608317242
 21
2363.847673143363
 31
0.0
  0
LINE
  5
7C2C
330
8130
100
AcDbEntity
  8
1
100
AcDbLine
 10
2992.739608317242
 20
2363.847673143363
 30
0.0
 11
2992.739608317242
 21
1657.847673143364
 31
0.0
  0
LINE
  5
7C2D
330
8130
100
AcDbEntity
  8
1
100
AcDbLine
 10
3902.739608317244
 20
2305.847673143363
 30
0.0
 11
3902.739608317244
 21
2205.847673143363
 31
0.0
  0
ARC
  5
7C2E
330
8130
100
AcDbEntity
  8
1
100
AcDbCircle
 10
3892.739608317245
 20
2305.847673143363
 30
0.0
 40
10.0
100
AcDbArc
 50
0.0
 51
90.0
  0
ARC
  5
7C2F
330
8130
100
AcDbEntity
  8
1
100
AcDbCircle
 10
3892.739608317245
 20
2205.847673143363
 30
0.0
 40
10.0
100
AcDbArc
 50
270.0
 51
0.0
  0
LINE
  5
7C30
330
8130
100
AcDbEntity
  8
1
100
AcDbLine
 10
3792.739608317243
 20
2195.847673143363
 30
0.0
 11
3892.739608317245
 21
2195.847673143363
 31
0.0
  0
LINE
  5
7C31
330
8130
100
AcDbEntity
  8
1
100
AcDbLine
 10
3792.739608317243
 20
2315.847673143363
 30
0.0
 11
3892.739608317245
 21
2315.847673143363
 31
0.0
  0
CIRCLE
  5
7C32
330
8130
100
AcDbEntity
  8
1
100
AcDbCircle
 10
660.705163262989
 20
1852.847673143363
 30
0.0
 40
79.0
  0
CIRCLE
  5
7C33
330
8130
100
AcDbEntity
  8
1
100
AcDbCircle
 10
1510.705163262989
 20
2335.847673143363
 30
0.0
 40
88.9
  0
ARC
  5
7C34
330
8130
100
AcDbEntity
  8
1
100
AcDbCircle
 10
1510.705163262989
 20
2335.847673143363
 30
0.0
 40
150.0
100
AcDbArc
 50
282.4716975566092
 51
102.4716975566092
  0
ARC
  5
7C35
330
8130
100
AcDbEntity
  8
1
100
AcDbCircle
 10
660.705163262989
 20
1852.847673143363
 30
0.0
 40
150.0
100
AcDbArc
 50
102.4716975566092
 51
282.4716975566092
  0
LINE
  5
7C36
330
8130
100
AcDbEntity
  8
1
100
AcDbLine
 10
1478.311564391689
 20
2482.308093572111
 30
0.0
 11
628.3115643916898
 21
1999.308093572111
 31
0.0
  0
LINE
  5
7C37
330
8130
100
AcDbEntity
  8
1
100
AcDbLine
 10
1490.5206645961
 20
2422.425938392595
 30
0.0
 11
642.7684321641791
 21
1929.7844892816
 31
0.0
  0
LINE
  5
7C38
330
8130
100
AcDbEntity
  8
1
100
AcDbLine
 10
1528.915394138617
 20
2248.832746312065
 30
0.0
 11
676.8874831637161
 21
1775.522822528373
 31
0.0
  0
LINE
  5
7C39
330
8130
100
AcDbEntity
  8
1
100
AcDbLine
 10
1543.098762134288
 20
2189.387252714616
 30
0.0
 11
693.0987621342883
 21
1706.387252714616
 31
0.0
  0
LINE
  5
7C3A
330
8130
100
AcDbEntity
  8
1
100
AcDbLine
 10
2740.739608317243
 20
2424.747673143364
 30
0.0
 11
2740.739608317242
 21
2246.947673143363
 31
0.0
  0
LINE
  5
7C3B
330
8130
100
AcDbEntity
  8
1
100
AcDbLine
 10
2822.739608317244
 20
2424.747673143364
 30
0.0
 11
2822.739608317242
 21
2246.947673143364
 31
0.0
  0
LINE
  5
7C3C
330
8130
100
AcDbEntity
  8
1
100
AcDbLine
 10
2740.739608317243
 20
2424.747673143364
 30
0.0
 11
2822.739608317244
 21
2424.747673143364
 31
0.0
  0
LINE
  5
7C3D
330
8130
100
AcDbEntity
  8
1
100
AcDbLine
 10
2740.739608317242
 20
2246.947673143363
 30
0.0
 11
2822.739608317242
 21
2246.947673143364
 31
0.0
  0
LINE
  5
7C3E
330
8130
100
AcDbEntity
  8
1
100
AcDbLine
 10
2740.739608317242
 20
1931.847673143363
 30
0.0
 11
2822.739608317242
 21
1931.847673143363
 31
0.0
  0
LINE
  5
7C3F
330
8130
100
AcDbEntity
  8
1
100
AcDbLine
 10
2740.739608317241
 20
1773.847673143364
 30
0.0
 11
2822.739608317241
 21
1773.847673143364
 31
0.0
  0
LINE
  5
7C40
330
8130
100
AcDbEntity
  8
1
100
AcDbLine
 10
2612.739608317243
 20
2485.847673143364
 30
0.0
 11
2612.739608317241
 21
1702.847673143363
 31
0.0
  0
LINE
  5
7C41
330
8130
100
AcDbEntity
  8
1
100
AcDbLine
 10
2872.739608317243
 20
2485.847673143364
 30
0.0
 11
2872.739608317245
 21
2465.847673143363
 31
0.0
  0
LINE
  5
7C42
330
8130
100
AcDbEntity
  8
1
100
AcDbLine
 10
2612.739608317244
 20
2485.847673143364
 30
0.0
 11
2872.739608317243
 21
2485.847673143364
 31
0.0
  0
LINE
  5
7C43
330
8130
100
AcDbEntity
  8
1
100
AcDbLine
 10
2612.739608317241
 20
1702.847673143363
 30
0.0
 11
2872.739608317241
 21
1702.847673143363
 31
0.0
  0
LINE
  5
7C44
330
8130
100
AcDbEntity
  8
1
100
AcDbLine
 10
2872.739608317241
 20
1710.347673143363
 30
0.0
 11
2872.739608317241
 21
1702.847673143363
 31
0.0
  0
LINE
  5
7C45
330
8130
100
AcDbEntity
  8
1
100
AcDbLine
 10
1110.705163262988
 20
4478.318859462985
 30
0.0
 11
1910.705163262989
 21
4478.318859462985
 31
0.0
  0
LINE
  5
7C46
330
8130
100
AcDbEntity
  8
1
100
AcDbLine
 10
460.7051632629889
 20
3472.318859462983
 30
0.0
 11
1910.705163262989
 21
3472.318859462983
 31
0.0
  0
LINE
  5
7C47
330
8130
100
AcDbEntity
  8
1
100
AcDbLine
 10
1910.705163262989
 20
4478.318859462985
 30
0.0
 11
1910.705163262989
 21
4425.318859462985
 31
0.0
  0
LINE
  5
7C48
330
8130
100
AcDbEntity
  8
1
100
AcDbLine
 10
1110.705163262988
 20
4478.318859462985
 30
0.0
 11
1110.705163262988
 21
4425.318859462982
 31
0.0
  0
LINE
  5
7C49
330
8130
100
AcDbEntity
  8
1
100
AcDbLine
 10
460.7051632629889
 20
4072.318859462983
 30
0.0
 11
460.7051632629889
 21
3472.318859462983
 31
0.0
  0
LINE
  5
7C4A
330
8130
100
AcDbEntity
  8
1
100
AcDbLine
 10
460.7051632629889
 20
4072.31885946298
 30
0.0
 11
962.7051632629893
 21
4072.318859462983
 31
0.0
  0
POINT
  5
7C4B
330
8130
100
AcDbEntity
  8
1
100
AcDbPoint
 10
1910.705163262989
 20
1508.847673143363
 30
0.0
  0
POINT
  5
7C4C
330
8130
100
AcDbEntity
  8
1
100
AcDbPoint
 10
1910.705163262989
 20
1408.847673143363
 30
0.0
  0
POINT
  5
7C4D
330
8130
100
AcDbEntity
  8
1
100
AcDbPoint
 10
1910.705163262989
 20
1508.847673143363
 30
0.0
  0
DIMENSION
  5
7C4E
330
8130
100
AcDbEntity
  8
3
100
AcDbDimension
  2
*D6
 10
4046.276641887906
 20
2000.847673143363
 30
0.0
 11
4006.276641887906
 21
2335.847673143363
 31
0.0
 12
825.4434148339605
 22
1767.750046693243
 32
0.0
 71
     5
 42
-1.0
  3
Standard
100
AcDbAlignedDimension
 13
3798.239608317245
 23
2670.847673143363
 33
0.0
 14
3798.239608317245
 24
2000.847673143363
 34
0.0
 50
90.0
100
AcDbRotatedDimension
1001
ACAD
1000
DSTYLE
1002
{
1070
    40
1040
20.0
1070
     3
1000
\U+03C6<>
1002
}
  0
DIMENSION
  5
7C51
330
8130
100
AcDbEntity
  8
3
100
AcDbDimension
  2
*D7
 10
3792.739608317243
 20
2861.432571521589
 30
0.0
 11
3392.739608317242
 21
2901.432571521589
 31
0.0
 12
825.4434148339605
 22
1767.750046693243
 32
0.0
 71
     5
 42
-1.0
  3
Standard
100
AcDbAlignedDimension
 13
2992.739608317242
 23
2766.247664024067
 33
0.0
 14
3792.739608317243
 24
2766.247664024067
 34
0.0
100
AcDbRotatedDimension
1001
ACAD
1000
DSTYLE
1002
{
1070
    40
1040
20.0
1002
}
  0
ARC
  5
7C52
330
8130
100
AcDbEntity
  8
1
100
AcDbCircle
 10
2900.239608317242
 20
2302.647673143363
 30
0.0
 40
10.0
100
AcDbArc
 50
90.0
 51
180.0
  0
ARC
  5
7C53
330
8130
100
AcDbEntity
  8
1
100
AcDbCircle
 10
2900.239608317242
 20
2202.647673143363
 30
0.0
 40
10.0
100
AcDbArc
 50
180.0
 51
270.0
  0
LINE
  5
7C54
330
8130
100
AcDbEntity
  8
1
100
AcDbLine
 10
2992.739608317242
 20
2192.647673143363
 30
0.0
 11
2900.239608317242
 21
2192.647673143363
 31
0.0
  0
LINE
  5
7C55
330
8130
100
AcDbEntity
  8
1
100
AcDbLine
 10
2992.739608317242
 20
2312.647673143363
 30
0.0
 11
2900.239608317242
 21
2312.647673143363
 31
0.0
  0
LINE
  5
7C56
330
8130
100
AcDbEntity
  8
1
100
AcDbLine
 10
2890.239608317243
 20
2302.647673143363
 30
0.0
 11
2890.239608317243
 21
2202.647673143363
 31
0.0
  0
LINE
  5
7C57
330
8130
100
AcDbEntity
  8
1
100
AcDbLine
 10
2822.739608317242
 20
2310.847673143364
 30
0.0
 11
2894.639608317243
 21
2310.847673143364
 31
0.0
  0
LINE
  5
7C59
330
8130
100
AcDbEntity
  8
1
100
AcDbLine
 10
1910.705163262989
 20
1635.847673143364
 30
0.0
 11
1910.705163262989
 21
1535.847673143363
 31
0.0
  0
LINE
  5
7C5A
330
8130
100
AcDbEntity
  8
1
100
AcDbLine
 10
460.7051632629889
 20
1635.847673143364
 30
0.0
 11
1910.705163262989
 21
1635.847673143364
 31
0.0
1001
ACAD
1000
ASC_BOUNDS
1002
{
1070
    19
1005
0
1005
0
1002
}
  0
LINE
  5
7C5B
330
8130
100
AcDbEntity
  8
1
100
AcDbLine
 10
460.7051632629889
 20
1535.847673143363
 30
0.0
 11
1910.705163262989
 21
1535.847673143363
 31
0.0
  0
LINE
  5
7C5C
330
8130
100
AcDbEntity
  8
1
100
AcDbLine
 10
460.7051632629889
 20
1635.847673143364
 30
0.0
 11
460.7051632629889
 21
1535.847673143363
 31
0.0
  0
LINE
  5
7C5D
330
8130
100
AcDbEntity
  8
1
100
AcDbLine
 10
2839.739608317243
 20
1635.847673143364
 30
0.0
 11
3845.039608317243
 21
1635.847673143364
 31
0.0
1001
ACAD
1000
ASC_BOUNDS
1002
{
1070
    19
1002
}
  0
LINE
  5
7C5E
330
8130
100
AcDbEntity
  8
1
100
AcDbLine
 10
2839.739608317243
 20
1635.847673143364
 30
0.0
 11
2839.739608317243
 21
1535.847673143363
 31
0.0
  0
LINE
  5
7C5F
330
8130
100
AcDbEntity
  8
1
100
AcDbLine
 10
2839.739608317243
 20
1535.847673143363
 30
0.0
 11
3845.739608317241
 21
1535.847673143363
 31
0.0
  0
LINE
  5
7C60
330
8130
100
AcDbEntity
  8
1
100
AcDbLine
 10
3845.739608317244
 20
1635.847673143364
 30
0.0
 11
3845.739608317244
 21
1535.847673143363
 31
0.0
  0
ARC
  5
7C61
330
8130
100
AcDbEntity
  8
1
100
AcDbCircle
 10
1510.705163262989
 20
2335.847673143363
 30
0.0
 40
378.0
100
AcDbArc
 50
355.7519773332714
 51
0.0
  0
LINE
  5
7C62
330
8130
100
AcDbEntity
  8
1
100
AcDbLine
 10
962.7051632629893
 20
4425.318859462982
 30
0.0
 11
1970.705163262989
 21
4425.318859462985
 31
0.0
  0
LINE
  5
7C63
330
8130
100
AcDbEntity
  8
1
100
AcDbLine
 10
962.7051632629893
 20
3625.318859462981
 30
0.0
 11
1970.705163262989
 21
3625.318859462984
 31
0.0
  0
LINE
  5
7C64
330
8130
100
AcDbEntity
  8
1
100
AcDbLine
 10
1970.705163262989
 20
4465.318859462985
 30
0.0
 11
1970.705163262989
 21
3585.318859462983
 31
0.0
  0
LINE
  5
7C65
330
8130
100
AcDbEntity
  8
1
100
AcDbLine
 10
962.7051632629893
 20
4425.318859462982
 30
0.0
 11
962.7051632629893
 21
3625.318859462981
 31
0.0
  0
LINE
  5
7C66
330
8130
100
AcDbEntity
  8
1
100
AcDbLine
 10
1930.705163262988
 20
4425.318859462985
 30
0.0
 11
1930.705163262989
 21
3625.318859462984
 31
0.0
  0
LINE
  5
7C67
330
8130
100
AcDbEntity
  8
1
100
AcDbLine
 10
1910.705163262989
 20
3625.318859462981
 30
0.0
 11
1910.705163262989
 21
3472.318859462983
 31
0.0
  0
LINE
  5
7C68
330
8130
100
AcDbEntity
  8
1
100
AcDbLine
 10
581.705163262989
 20
3373.318859462983
 30
0.0
 11
739.705163262989
 21
3373.318859462983
 31
0.0
  0
LINE
  5
7C69
330
8130
100
AcDbEntity
  8
1
100
AcDbLine
 10
581.705163262989
 20
3455.318859462984
 30
0.0
 11
739.705163262989
 21
3455.318859462984
 31
0.0
  0
LINE
  5
7C6A
330
8130
100
AcDbEntity
  8
1
100
AcDbLine
 10
1599.605163262989
 20
3455.318859462983
 30
0.0
 11
1599.605163262989
 21
3373.318859462983
 31
0.0
  0
LINE
  5
7C6B
330
8130
100
AcDbEntity
  8
1
100
AcDbLine
 10
1421.805163262988
 20
3455.318859462983
 30
0.0
 11
1421.805163262988
 21
3373.318859462983
 31
0.0
  0
LINE
  5
7C6C
330
8130
100
AcDbEntity
  8
1
100
AcDbLine
 10
739.705163262989
 20
3455.318859462983
 30
0.0
 11
739.705163262989
 21
3373.318859462983
 31
0.0
  0
LINE
  5
7C6D
330
8130
100
AcDbEntity
  8
1
100
AcDbLine
 10
581.705163262989
 20
3455.318859462983
 30
0.0
 11
581.705163262989
 21
3373.318859462983
 31
0.0
  0
LINE
  5
7C6E
330
8130
100
AcDbEntity
  8
1
100
AcDbLine
 10
510.7051632629889
 20
3245.318859462983
 30
0.0
 11
1660.705163262989
 21
3245.318859462983
 31
0.0
  0
LINE
  5
7C6F
330
8130
100
AcDbEntity
  8
1
100
AcDbLine
 10
1660.705163262989
 20
3505.318859462983
 30
0.0
 11
1660.705163262989
 21
3245.318859462983
 31
0.0
  0
LINE
  5
7C70
330
8130
100
AcDbEntity
  8
1
100
AcDbLine
 10
510.7051632629889
 20
3505.318859462983
 30
0.0
 11
510.7051632629889
 21
3245.318859462983
 31
0.0
  0
LINE
  5
7C71
330
8130
100
AcDbEntity
  8
1
100
AcDbLine
 10
510.7051632629889
 20
3505.318859462983
 30
0.0
 11
1660.705163262989
 21
3505.318859462983
 31
0.0
  0
LINE
  5
7C72
330
8130
100
AcDbEntity
  8
1
100
AcDbLine
 10
1421.805163262989
 20
3455.318859462983
 30
0.0
 11
1599.605163262989
 21
3455.318859462983
 31
0.0
  0
LINE
  5
7C73
330
8130
100
AcDbEntity
  8
1
100
AcDbLine
 10
1421.805163262988
 20
3373.318859462983
 30
0.0
 11
1599.605163262989
 21
3373.318859462983
 31
0.0
  0
LINE
  5
7C74
330
8130
100
AcDbEntity
  8
2
100
AcDbLine
 10
660.705163262989
 20
3933.909752629606
 30
0.0
 11
660.705163262989
 21
3221.765576191286
 31
0.0
  0
LINE
  5
7C75
330
8130
100
AcDbEntity
  8
1
100
AcDbLine
 10
803.205163262989
 20
3892.318559462983
 30
0.0
 11
518.2051632629891
 21
3892.318559462983
 31
0.0
  0
LINE
  5
7C76
330
8130
100
AcDbEntity
  8
1
100
AcDbLine
 10
803.205163262989
 20
3502.318859462983
 30
0.0
 11
518.2051632629891
 21
3502.318859462983
 31
0.0
  0
LINE
  5
7C77
330
8130
100
AcDbEntity
  8
1
100
AcDbLine
 10
641.7051632629891
 20
3502.318859462983
 30
0.0
 11
641.7051632629891
 21
3455.318859462984
 31
0.0
  0
LINE
  5
7C78
330
8130
100
AcDbEntity
  8
1
100
AcDbLine
 10
679.7051632629891
 20
3502.318859462983
 30
0.0
 11
679.7051632629891
 21
3455.318859462984
 31
0.0
  0
LINE
  5
7C79
330
8130
100
AcDbEntity
  8
1
100
AcDbLine
 10
518.2051632629891
 20
3892.318559462983
 30
0.0
 11
518.2051632629891
 21
3502.318859462983
 31
0.0
  0
LINE
  5
7C7A
330
8130
100
AcDbEntity
  8
1
100
AcDbLine
 10
803.205163262989
 20
3892.318559462983
 30
0.0
 11
803.205163262989
 21
3502.318859462983
 31
0.0
  0
LINE
  5
7C7B
330
8130
100
AcDbEntity
  8
1
100
AcDbLine
 10
1535.705163262989
 20
3625.318859462981
 30
0.0
 11
1535.705163262989
 21
3455.318859462983
 31
0.0
  0
LINE
  5
7C7C
330
8130
100
AcDbEntity
  8
1
100
AcDbLine
 10
1485.705163262989
 20
3625.318859462981
 30
0.0
 11
1485.705163262989
 21
3455.318859462983
 31
0.0
  0
LINE
  5
7C7D
330
8130
100
AcDbEntity
  8
1
100
AcDbLine
 10
2822.739608317243
 20
2360.847673143364
 30
0.0
 11
2992.739608317242
 21
2360.847673143364
 31
0.0
  0
CIRCLE
  5
7C7E
330
8130
100
AcDbEntity
  8
1
100
AcDbCircle
 10
1510.705163262989
 20
2335.847673143363
 30
0.0
 40
335.0
  0
CIRCLE
  5
7C7F
330
8130
100
AcDbEntity
  8
1
100
AcDbCircle
 10
1510.705163262989
 20
2335.847673143363
 30
0.0
 40
375.0
  0
LINE
  5
7C80
330
8130
100
AcDbEntity
  8
1
100
AcDbLine
 10
835.7051632629891
 20
1675.847673143364
 30
0.0
 11
860.7051632629891
 21
1675.847673143364
 31
0.0
  0
POINT
  5
7C81
330
8130
100
AcDbEntity
  8
1
100
AcDbPoint
 10
3902.739608317244
 20
2305.847673143363
 30
0.0
  0
POINT
  5
7C82
330
8130
100
AcDbEntity
  8
1
100
AcDbPoint
 10
2612.739608317243
 20
2485.847673143364
 30
0.0
  0
DIMENSION
  5
7C84
330
8130
100
AcDbEntity
  8
3
100
AcDbDimension
  2
*D9
 10
2119.497134261597
 20
4478.318859462985
 30
0.0
 11
2079.497134261597
 21
3975.318859462984
 31
0.0
 12
931.0521668687504
 22
1313.903890932349
 32
0.0
 71
     5
 42
-1.0
  3
Standard
100
AcDbAlignedDimension
 13
1910.705163262989
 23
3472.318859462983
 33
0.0
 14
1910.705163262989
 24
4478.318859462985
 34
0.0
 50
90.0
100
AcDbRotatedDimension
1001
ACAD
1000
DSTYLE
1002
{
1070
    40
1040
20.0
1002
}
  0
DIMENSION
  5
7C85
330
8130
100
AcDbEntity
  8
3
100
AcDbDimension
  2
*D10
 10
1910.705163262989
 20
4626.924149961388
 30
0.0
 11
1510.705163262989
 21
4666.924149961388
 31
0.0
 12
931.0521668687504
 22
1313.903890932349
 32
0.0
 71
     5
 42
-1.0
  3
Standard
100
AcDbAlignedDimension
 13
1110.705163262988
 23
4478.318859462985
 33
0.0
 14
1910.705163262989
 24
4478.318859462985
 34
0.0
100
AcDbRotatedDimension
1001
ACAD
1000
DSTYLE
1002
{
1070
    40
1040
20.0
1002
}
  0
DIMENSION
  5
7C86
330
8130
100
AcDbEntity
  8
3
100
AcDbDimension
  2
*D11
 10
341.9601988091053
 20
3472.318859462983
 30
0.0
 11
301.9601988091052
 21
3772.318859462983
 31
0.0
 12
105.60875203479
 22
0.0
 32
0.0
 71
     5
 42
-1.0
  3
Standard
100
AcDbAlignedDimension
 13
460.7051632629889
 23
4072.318859462983
 33
0.0
 14
460.7051632629889
 24
3472.318859462983
 34
0.0
 50
90.0
100
AcDbRotatedDimension
1001
ACAD
1000
DSTYLE
1002
{
1070
    40
1040
20.0
1002
}
  0
DIMENSION
  5
7C8C
330
8130
100
AcDbEntity
  8
3
100
AcDbDimension
  2
*D12
 10
1970.705163262989
 20
3045.340322853661
 30
0.0
 11
1215.705163262988
 21
3085.340322853661
 31
0.0
 12
105.60875203479
 22
0.0
 32
0.0
 71
     5
 42
-1.0
  3
Standard
100
AcDbAlignedDimension
 13
460.7051632629889
 23
1675.847673143364
 33
0.0
 14
1970.705163262989
 24
2316.0123657914
 34
0.0
100
AcDbRotatedDimension
1001
ACAD
1000
DSTYLE
1002
{
1070
    40
1040
20.0
1002
}
  0
LINE
  5
7C8D
330
8130
100
AcDbEntity
  8
1
100
AcDbLine
 10
2869.739608317242
 20
1710.347673143363
 30
0.0
 11
2869.739608317242
 21
1995.347673143363
 31
0.0
  0
LINE
  5
7C8E
330
8130
100
AcDbEntity
  8
1
100
AcDbLine
 10
2992.739608317242
 20
1995.347673143363
 30
0.0
 11
2869.739608317243
 21
1995.347673143363
 31
0.0
  0
LINE
  5
7C8F
330
8130
100
AcDbEntity
  8
1
100
AcDbLine
 10
2869.739608317242
 20
1833.847673143364
 30
0.0
 11
2822.739608317243
 21
1833.847673143364
 31
0.0
  0
LINE
  5
7C90
330
8130
100
AcDbEntity
  8
1
100
AcDbLine
 10
2869.739608317242
 20
1871.847673143363
 30
0.0
 11
2822.739608317243
 21
1871.847673143363
 31
0.0
  0
LINE
  5
7C91
330
8130
100
AcDbEntity
  8
1
100
AcDbLine
 10
2992.739608317242
 20
1710.347673143363
 30
0.0
 11
2869.739608317242
 21
1710.347673143363
 31
0.0
  0
POINT
  5
7C92
330
8130
100
AcDbEntity
  8
1
100
AcDbPoint
 10
1910.705163262989
 20
1508.847673143363
 30
0.0
  0
POINT
  5
7C93
330
8130
100
AcDbEntity
  8
1
100
AcDbPoint
 10
1910.705163262989
 20
1535.847673143363
 30
0.0
  0
LINE
  5
7C94
330
8130
100
AcDbEntity
  8
1
100
AcDbLine
 10
2822.73960831724
 20
1931.847673143363
 30
0.0
 11
2822.73960831724
 21
1773.847673143364
 31
0.0
  0
LINE
  5
7C95
330
8130
100
AcDbEntity
  8
1
100
AcDbLine
 10
2740.739608317241
 20
1931.847673143363
 30
0.0
 11
2740.739608317239
 21
1773.847673143364
 31
0.0
  0
DIMENSION
  5
7C9C
330
8130
100
AcDbEntity
  8
3
100
AcDbDimension
  2
*D16
 10
1510.705163262989
 20
2925.066613388714
 30
0.0
 11
1740.705163262989
 21
2965.066613388714
 31
0.0
 12
105.60875203479
 22
0.0
 32
0.0
 71
     5
 42
-1.0
  3
Standard
100
AcDbAlignedDimension
 13
1970.705163262989
 23
2335.847673143363
 33
0.0
 14
1510.705163262989
 24
2865.447817660772
 34
0.0
100
AcDbRotatedDimension
1001
ACAD
1000
DSTYLE
1002
{
1070
    40
1040
20.0
1002
}
  0
DIMENSION
  5
7C9E
330
8130
100
AcDbEntity
  8
3
100
AcDbDimension
  2
*D18
 10
2326.283915677131
 20
2335.847673143363
 30
0.0
 11
2286.283915677131
 21
2562.847673143364
 31
0.0
 12
931.0521668687504
 22
1767.750046693243
 32
0.0
 71
     5
 42
-1.0
  3
Standard
100
AcDbAlignedDimension
 13
1463.705163262989
 23
2789.847673143365
 33
0.0
 14
2037.598136365985
 24
2335.847673143363
 34
0.0
 50
90.0
100
AcDbRotatedDimension
1001
ACAD
1000
DSTYLE
1002
{
1070
    40
1040
20.0
1002
}
  0
DIMENSION
  5
7CA1
330
8130
100
AcDbEntity
  8
3
100
AcDbDimension
  2
*D20
 10
2326.283915677131
 20
1408.847673143363
 30
0.0
 11
2276.283915677131
 21
1237.419101714792
 31
0.0
 71
     5
 42
-1.0
  3
Standard
100
AcDbAlignedDimension
 13
1910.705163262989
 23
1508.847673143363
 33
0.0
 14
1910.705163262989
 24
1408.847673143363
 34
0.0
 50
90.0
100
AcDbRotatedDimension
1001
ACAD
1000
DSTYLE
1002
{
1070
   287
1070
     3
1070
   287
1070
     3
1070
    40
1040
20.0
1070
   143
1040
0.039
1070
   172
1070
     1
1070
   271
1070
     0
1070
   279
1070
     0
1070
   288
1070
     1
1070
     6
1000
DOT
1002
}
  0
LINE
  5
7CA2
330
8130
100
AcDbEntity
  8
1
100
AcDbLine
 10
2992.739608317242
 20
2789.847673143365
 30
0.0
 11
3792.739608317243
 21
2789.847673143365
 31
0.0
  0
LINE
  5
7CA3
330
8130
100
AcDbEntity
  8
1
100
AcDbLine
 10
2992.739608317243
 20
1657.847673143364
 30
0.0
 11
3792.739608317245
 21
1657.847673143364
 31
0.0
  0
LINE
  5
7CA4
330
8130
100
AcDbEntity
  8
1
100
AcDbLine
 10
2992.739608317242
 20
2307.847673143363
 30
0.0
 11
3792.739608317243
 21
2307.847673143363
 31
0.0
  0
LINE
  5
7CA5
330
8130
100
AcDbEntity
  8
1
100
AcDbLine
 10
3792.739608317243
 20
2307.847673143363
 30
0.0
 11
2992.739608317242
 21
1657.847673143364
 31
0.0
  0
LINE
  5
7CA6
330
8130
100
AcDbEntity
  8
1
100
AcDbLine
 10
2992.739608317242
 20
2307.847673143363
 30
0.0
 11
3792.739608317245
 21
1657.847673143364
 31
0.0
  0
LINE
  5
7F25
330
8130
100
AcDbEntity
  8
4
100
AcDbLine
 10
3700.0
 20
1000.0
 30
0.0
 11
3700.0
 21
600.0
 31
0.0
  0
LINE
  5
7F26
330
8130
100
AcDbEntity
  8
4
100
AcDbLine
 10
2300.0
 20
1000.0
 30
0.0
 11
2300.0
 21
600.0
 31
0.0
  0
LINE
  5
7F27
330
8130
100
AcDbEntity
  8
4
100
AcDbLine
 10
1300.0
 20
1000.0
 30
0.0
 11
1300.0
 21
600.0
 31
0.0
  0
LINE
  5
7F2A
330
8130
100
AcDbEntity
  8
4
100
AcDbLine
 10
1300.0
 20
600.0
 30
0.0
 11
3700.0
 21
600.0
 31
0.0
  0
LINE
  5
7F2B
330
8130
100
AcDbEntity
  8
4
100
AcDbLine
 10
1300.0
 20
800.0
 30
0.0
 11
3700.0
 21
800.0
 31
0.0
  0
TEXT
  5
7F2C
330
8130
100
AcDbEntity
  8
4
100
AcDbText
 10
1377.004161693803
 20
863.0860517332255
 30
0.0
 40
100.0
  1
機器名称
100
AcDbText
  0
TEXT
  5
7F2D
330
8130
100
AcDbEntity
  8
4
100
AcDbText
 10
1372.516212049595
 20
643.2903134640219
 30
0.0
 40
100.0
  1
機器型番
100
AcDbText
  0
TEXT
  5
7F2E
330
8130
100
AcDbEntity
  8
4
100
AcDbText
 10
2355.357490975329
 20
845.1435379151371
 30
0.0
 40
100.0
  1
ミツヤ多翼送風機
100
AcDbText
  0
TEXT
  5
7F2F
330
8130
100
AcDbEntity
  8
4
100
AcDbText
 10
2373.308991170961
 20
634.3191685598867
 30
0.0
 40
100.0
  1
MF#4-5
100
AcDbText
  0
TEXT
  5
7F31
330
8130
100
AcDbEntity
  8
4
100
AcDbText
 10
1630.036683960145
 20
4766.857682665031
 30
0.0
 40
107.9999999999999
  1
床置防振ベット
100
AcDbText
  0
TEXT
  5
7F32
330
8130
100
AcDbEntity
  8
4
100
AcDbText
 10
632.3351866588928
 20
5067.761952398596
 30
0.0
 40
144.0
  1
遠心式両吸込両持多翼ファン
100
AcDbText
  0
LINE
  5
7F33
330
8130
100
AcDbEntity
  8
4
100
AcDbLine
 10
500.0
 20
4938.817508529609
 30
0.0
 11
3700.0
 21
4938.817508529609
 31
0.0
  0
LINE
  5
7F34
330
8130
100
AcDbEntity
  8
4
100
AcDbLine
 10
500.0
 20
5338.81750852961
 30
0.0
 11
3700.0
 21
5338.81750852961
 31
0.0
  0
LINE
  5
7F35
330
8130
100
AcDbEntity
  8
4
100
AcDbLine
 10
1300.0
 20
1000.0
 30
0.0
 11
3700.0
 21
1000.0
 31
0.0
  0
LINE
  5
7F36
330
8130
100
AcDbEntity
  8
4
100
AcDbLine
 10
500.0
 20
5338.81750852961
 30
0.0
 11
500.0
 21
4938.817508529609
 31
0.0
  0
TEXT
  5
7F37
330
8130
100
AcDbEntity
  8
4
100
AcDbText
 10
758.3190194747404
 20
4764.638955092687
 30
0.0
 40
107.9999999999999
  1
左回転右横向
100
AcDbText
  0
TEXT
  5
7F38
330
8130
100
AcDbEntity
  8
4
100
AcDbText
 10
2937.939118498579
 20
5412.122162990619
 30
0.0
 40
112.0
  1
No.
100
AcDbText
  0
TEXT
  5
7F39
330
8130
100
AcDbEntity
  8
4
100
AcDbText
 10
2622.592125200027
 20
4766.857682665031
 30
0.0
 40
107.9999999999999
  1
縮尺：1/20
100
AcDbText
  0
LINE
  5
7F3A
330
8130
100
AcDbEntity
  8
4
100
AcDbLine
 10
3700.0
 20
5338.81750852961
 30
0.0
 11
3700.0
 21
4938.817508529609
 31
0.0
  0
LINE
  5
7F3B
330
8130
100
AcDbEntity
  8
4
100
AcDbLine
 10
4200.0
 20
5900.0
 30
0.0
 11
4200.0
 21
5900.0
 31
0.0
  0
LINE
  5
7F3C
330
8130
100
AcDbEntity
  8
4
100
AcDbLine
 10
2881.234844719729
 20
5362.527166250802
 30
0.0
 11
2881.234844719729
 21
5573.304523099504
 31
0.0
  0
LINE
  5
7F3D
330
8130
100
AcDbEntity
  8
4
100
AcDbLine
 10
2881.234844719729
 20
5573.304523099504
 30
0.0
 11
3700.0
 21
5573.304523099504
 31
0.0
  0
LINE
  5
7F3E
330
8130
100
AcDbEntity
  8
4
100
AcDbLine
 10
3700.0
 20
5573.304523099504
 30
0.0
 11
3700.0
 21
5362.527166250802
 31
0.0
  0
LINE
  5
7F3F
330
8130
100
AcDbEntity
  8
4
100
AcDbLine
 10
3700.0
 20
5362.527166250802
 30
0.0
 11
2881.234844719729
 21
5362.527166250802
 31
0.0
  0
LINE
  5
7F40
330
8130
100
AcDbEntity
  8
4
100
AcDbLine
 10
0.0
 20
0.0
 30
0.0
 11
0.0
 21
5900.0
 31
0.0
  0
LINE
  5
7F41
330
8130
100
AcDbEntity
  8
4
100
AcDbLine
 10
0.0
 20
5900.0
 30
0.0
 11
4200.0
 21
5900.0
 31
0.0
  0
LINE
  5
7F42
330
8130
100
AcDbEntity
  8
4
100
AcDbLine
 10
4200.0
 20
5900.0
 30
0.0
 11
4200.0
 21
0.0
 31
0.0
  0
LINE
  5
7F43
330
8130
100
AcDbEntity
  8
4
100
AcDbLine
 10
4200.0
 20
0.0
 30
0.0
 11
0.0
 21
0.0
 31
0.0
  0
DIMENSION
  5
7FD2
330
8130
100
AcDbEntity
  8
3
100
AcDbDimension
  2
*D22
 10
1510.705163262989
 20
1254.019137452367
 30
0.0
 11
985.705163262989
 21
1304.019137452367
 31
0.0
 71
     5
 42
-1.0
  3
Standard
100
AcDbAlignedDimension
 13
460.7051632629889
 23
1408.847673143363
 33
0.0
 14
1510.705163262989
 24
1408.847673143363
 34
0.0
100
AcDbRotatedDimension
1001
ACAD
1000
DSTYLE
1002
{
1070
   172
1070
     1
1070
    40
1040
20.0
1070
    42
1040
1.0
1070
   271
1070
     0
1070
   143
1040
0.039
1002
}
  0
DIMENSION
  5
7FDF
330
8130
100
AcDbEntity
  8
3
100
AcDbDimension
  2
*D23
 10
1910.705163262989
 20
1254.019137452367
 30
0.0
 11
1710.705163262989
 21
1304.019137452367
 31
0.0
 71
     5
 42
-1.0
  3
Standard
100
AcDbAlignedDimension
 13
1510.705163262989
 23
1408.847673143363
 33
0.0
 14
1910.705163262989
 24
1408.847673143363
 34
0.0
100
AcDbRotatedDimension
1001
ACAD
1000
DSTYLE
1002
{
1070
   172
1070
     1
1070
    40
1040
20.0
1070
    42
1040
1.0
1070
   271
1070
     0
1070
   143
1040
0.039
1002
}
  0
DIMENSION
  5
7FEC
330
8130
100
AcDbEntity
  8
3
100
AcDbDimension
  2
*D24
 10
3392.739608317243
 20
1254.019137452367
 30
0.0
 11
3116.239608317243
 21
1304.019137452367
 31
0.0
 71
     5
 42
-1.0
  3
Standard
100
AcDbAlignedDimension
 13
2839.739608317243
 23
1408.847673143363
 33
0.0
 14
3392.739608317243
 24
1408.847673143363
 34
0.0
100
AcDbRotatedDimension
1001
ACAD
1000
DSTYLE
1002
{
1070
   172
1070
     1
1070
    40
1040
20.0
1070
    42
1040
1.0
1070
   271
1070
     0
1070
   143
1040
0.039
1002
}
  0
DIMENSION
  5
7FF9
330
8130
100
AcDbEntity
  8
3
100
AcDbDimension
  2
*D25
 10
3845.739608317244
 20
1254.019137452367
 30
0.0
 11
3619.239608317244
 21
1304.019137452367
 31
0.0
 71
     5
 42
-1.0
  3
Standard
100
AcDbAlignedDimension
 13
3392.739608317243
 23
1408.847673143363
 33
0.0
 14
3845.739608317244
 24
1408.847673143363
 34
0.0
100
AcDbRotatedDimension
1001
ACAD
1000
DSTYLE
1002
{
1070
   172
1070
     1
1070
    40
1040
20.0
1070
    42
1040
1.0
1070
   271
1070
     0
1070
   143
1040
0.039
1002
}
  0
DIMENSION
  5
817E
330
8130
100
AcDbEntity
  8
3
100
AcDbDimension
  2
*D29
 10
3392.739608317243
 20
3003.438415746741
 30
0.0
 11
3002.739608317244
 21
3069.152701461027
 31
0.0
 70
    32
  1
(<>)
 71
     5
 42
779.999999999999
  3
IGA
100
AcDbAlignedDimension
 13
2612.739608317244
 23
2485.847673143364
 33
0.0
 14
3392.739608317243
 24
2931.432571521588
 34
0.0
100
AcDbRotatedDimension
1001
ACAD
1000
DSTYLE
1002
{
1070
    40
1040
20.0
1070
    42
1040
1.0
1070
   143
1040
0.039
1070
   172
1070
     1
1070
   271
1070
     4
1070
   272
1070
     4
1070
   279
1070
     0
1070
   284
1070
     0
1070
   285
1070
     0
1070
   286
1070
     0
1070
   341
1005
8144
1070
   343
1005
8144
1070
   344
1005
8144
1002
}
  0
DIMENSION
  5
818B
330
8130
100
AcDbEntity
  8
3
100
AcDbDimension
  2
*D30
 10
3902.739608317244
 20
3003.438415746741
 30
0.0
 11
3647.739608317244
 21
3069.152701461027
 31
0.0
 70
    32
  1
(<>)
 71
     5
 42
510.0000000000013
  3
IGA
100
AcDbAlignedDimension
 13
3392.739608317243
 23
2931.432571521588
 33
0.0
 14
3902.739608317244
 24
2305.847673143363
 34
0.0
100
AcDbRotatedDimension
1001
ACAD
1000
DSTYLE
1002
{
1070
    40
1040
20.0
1070
    42
1040
1.0
1070
   143
1040
0.039
1070
   172
1070
     1
1070
   271
1070
     4
1070
   272
1070
     4
1070
   279
1070
     1
1070
   284
1070
     0
1070
   285
1070
     0
1070
   286
1070
     0
1070
   341
1005
8144
1070
   343
1005
8144
1070
   344
1005
8144
1002
}
  0
DIMENSION
  5
81EC
330
8130
100
AcDbEntity
  8
3
100
AcDbDimension
  2
*D31
 10
1910.705163262989
 20
3135.081896789272
 30
0.0
 11
1185.705163262989
 21
3185.081896789272
 31
0.0
 70
    32
 71
     5
 42
1450.0
  3
IGA
100
AcDbAlignedDimension
 13
460.7051632629889
 23
3472.318859462983
 33
0.0
 14
1910.705163262989
 24
3472.318859462983
 34
0.0
100
AcDbRotatedDimension
1001
ACAD
1000
DSTYLE
1002
{
1070
    40
1040
20.0
1070
    42
1040
1.0
1070
   143
1040
0.039
1070
   172
1070
     1
1070
   271
1070
     4
1070
   272
1070
     4
1070
   279
1070
     0
1070
   284
1070
     0
1070
   285
1070
     0
1070
   286
1070
     0
1070
   341
1005
8144
1070
   343
1005
8144
1070
   344
1005
8144
1002
}
  0
DIMENSION
  5
81F9
330
8130
100
AcDbEntity
  8
3
100
AcDbDimension
  2
*D32
 10
962.7051632629889
 20
2925.066613388714
 30
0.0
 11
1236.705163262989
 21
2975.066613388714
 31
0.0
 70
    32
 71
     5
 42
548.0
  3
IGA
100
AcDbAlignedDimension
 13
1510.705163262989
 23
2865.447817660772
 33
0.0
 14
962.7051632629889
 24
2288.847673143363
 34
0.0
100
AcDbRotatedDimension
1001
ACAD
1000
DSTYLE
1002
{
1070
    40
1040
20.0
1070
    42
1040
1.0
1070
   143
1040
0.039
1070
   172
1070
     1
1070
   271
1070
     4
1070
   272
1070
     4
1070
   279
1070
     0
1070
   284
1070
     0
1070
   285
1070
     0
1070
   286
1070
     0
1070
   341
1005
8144
1070
   343
1005
8144
1070
   344
1005
8144
1002
}
  0
DIMENSION
  5
820F
330
8130
100
AcDbEntity
  8
3
100
AcDbDimension
  2
*D33
 10
2326.283915677131
 20
1535.847673143363
 30
0.0
 11
2276.28391567713
 21
1935.847673143363
 31
0.0
 70
    32
 71
     5
 42
800.0
  3
IGA
100
AcDbAlignedDimension
 13
2017.598136365984
 23
2335.847673143363
 33
0.0
 14
1910.705163262989
 24
1535.847673143363
 34
0.0
 50
90.0
100
AcDbRotatedDimension
1001
ACAD
1000
DSTYLE
1002
{
1070
    40
1040
20.0
1070
    42
1040
1.0
1070
   143
1040
0.039
1070
   172
1070
     1
1070
   271
1070
     4
1070
   272
1070
     4
1070
   279
1070
     0
1070
   284
1070
     0
1070
   285
1070
     0
1070
   286
1070
     0
1070
   341
1005
8144
1070
   343
1005
8144
1070
   344
1005
8144
1002
}
  0
DIMENSION
  5
821C
330
8130
100
AcDbEntity
  8
3
100
AcDbDimension
  2
*D34
 10
2326.283915677131
 20
1508.847673143363
 30
0.0
 11
2466.689246338141
 21
1578.49053028622
 31
0.0
 70
   160
  1
(<>)
 71
     5
 42
27.0
  3
IGA
100
AcDbAlignedDimension
 13
1910.705163262989
 23
1535.847673143363
 33
0.0
 14
1910.705163262989
 24
1508.847673143363
 34
0.0
 50
90.0
100
AcDbRotatedDimension
1001
ACAD
1000
DSTYLE
1002
{
1070
    40
1040
20.0
1070
    42
1040
1.0
1070
   143
1040
0.039
1070
   172
1070
     1
1070
   271
1070
     4
1070
   272
1070
     4
1070
   279
1070
     1
1070
   284
1070
     0
1070
   285
1070
     0
1070
   286
1070
     0
1070
   341
1005
8144
1070
   343
1005
8144
1070
   344
1005
8306
1002
}
  0
DIMENSION
  5
8286
330
8130
100
AcDbEntity
  8
3
100
AcDbDimension
  2
*D35
 10
2521.006734501909
 20
2789.847673143363
 30
0.0
 11
2455.292448787623
 21
2099.347673143364
 31
0.0
 70
    32
  1
(<>)
 71
     5
 42
1381.0
  3
IGA
100
AcDbAlignedDimension
 13
1910.705163262989
 23
1408.847673143363
 33
0.0
 14
1463.705163262989
 24
2789.847673143363
 34
0.0
 50
90.0
100
AcDbRotatedDimension
1001
ACAD
1000
DSTYLE
1002
{
1070
    40
1040
20.0
1070
    42
1040
1.0
1070
   143
1040
0.039
1070
   172
1070
     1
1070
   271
1070
     4
1070
   272
1070
     4
1070
   279
1070
     0
1070
   284
1070
     0
1070
   285
1070
     0
1070
   286
1070
     0
1070
   341
1005
8144
1070
   343
1005
8144
1070
   344
1005
8144
1002
}
  0
DIMENSION
  5
8318
330
8130
100
AcDbEntity
  8
3
100
AcDbDimension
  2
*D37
 10
460.705163262989
 20
4626.924149961388
 30
0.0
 11
785.7051632629889
 21
4676.924149961387
 31
0.0
 70
    32
 71
     5
 42
649.9999999999998
  3
IGA
100
AcDbAlignedDimension
 13
1110.705163262988
 23
4478.318859462985
 33
0.0
 14
460.7051632629889
 24
4072.31885946298
 34
0.0
100
AcDbRotatedDimension
1001
ACAD
1000
DSTYLE
1002
{
1070
    40
1040
20.0
1070
    42
1040
1.0
1070
   143
1040
0.039
1070
   172
1070
     1
1070
   271
1070
     4
1070
   272
1070
     4
1070
   279
1070
     0
1070
   284
1070
     0
1070
   285
1070
     0
1070
   286
1070
     0
1070
   341
1005
8144
1070
   343
1005
8144
1070
   344
1005
8144
1002
}
  0
ENDSEC
  0
SECTION
  2
OBJECTS
  0
DICTIONARY
  5
80CD
330
0
100
AcDbDictionary
281
     1
  3
ACAD_CIP_PREVIOUS_PRODUCT_INFO
350
817A
  3
ACAD_COLOR
350
8123
  3
ACAD_DETAILVIEWSTYLE
350
812A
  3
ACAD_GROUP
350
80CE
  3
ACAD_LAYOUT
350
8122
  3
ACAD_MATERIAL
350
80D1
  3
ACAD_MLEADERSTYLE
350
8126
  3
ACAD_MLINESTYLE
350
811F
  3
ACAD_PLOTSETTINGS
350
8121
  3
ACAD_PLOTSTYLENAME
350
80CF
  3
ACAD_SCALELIST
350
8103
  3
ACAD_SECTIONVIEWSTYLE
350
8128
  3
ACAD_TABLESTYLE
350
8124
  3
ACAD_VISUALSTYLE
350
80EA
  3
ACDB_RECOMPOSE_DATA
350
838F
  3
AcDbVariableDictionary
350
8341
  3
DWGPROPS
350
8390
  0
DICTIONARY
  5
8337
330
8115
100
AcDbDictionary
280
     1
281
     1
  3
ADSK_XREC_LAYER_RECONCILED
360
8338
  0
DICTIONARY
  5
8339
330
8134
100
AcDbDictionary
280
     1
281
     1
  3
ADSK_XREC_LAYER_RECONCILED
360
833A
  0
DICTIONARY
  5
833B
330
8137
100
AcDbDictionary
280
     1
281
     1
  3
ADSK_XREC_LAYER_RECONCILED
360
833C
  0
DICTIONARY
  5
833D
330
8138
100
AcDbDictionary
280
     1
281
     1
  3
ADSK_XREC_LAYER_RECONCILED
360
833E
  0
DICTIONARY
  5
833F
330
8139
100
AcDbDictionary
280
     1
281
     1
  3
ADSK_XREC_LAYER_RECONCILED
360
8340
  0
XRECORD
  5
817A
102
{ACAD_REACTORS
330
80CD
102
}
330
80CD
100
AcDbXrecord
280
     1
300
ACDLT
300
2015
300
INVLTS_F_S
  0
DICTIONARY
  5
8123
102
{ACAD_REACTORS
330
80CD
102
}
330
80CD
100
AcDbDictionary
281
     1
  0
DICTIONARY
  5
812A
102
{ACAD_REACTORS
330
80CD
102
}
330
80CD
100
AcDbDictionary
281
     1
  3
Imperial24
350
812B
  0
DICTIONARY
  5
80CE
102
{ACAD_REACTORS
330
80CD
102
}
330
80CD
100
AcDbDictionary
281
     1
  0
DICTIONARY
  5
8122
102
{ACAD_REACTORS
330
80CD
102
}
330
80CD
100
AcDbDictionary
281
     1
  3
Model
350
8133
  3
レイアウト1
350
812F
  0
DICTIONARY
  5
80D1
102
{ACAD_REACTORS
330
80CD
102
}
330
80CD
100
AcDbDictionary
281
     1
  3
ByBlock
350
80DA
  3
ByLayer
350
80D2
  3
Global
350
80E2
  0
DICTIONARY
  5
8126
102
{ACAD_REACTORS
330
80CD
102
}
330
80CD
100
AcDbDictionary
281
     1
  3
Standard
350
8127
  0
DICTIONARY
  5
811F
102
{ACAD_REACTORS
330
80CD
102
}
330
80CD
100
AcDbDictionary
281
     1
  3
Standard
350
8120
  0
DICTIONARY
  5
8121
102
{ACAD_REACTORS
330
80CD
102
}
330
80CD
100
AcDbDictionary
281
     1
  0
ACDBDICTIONARYWDFLT
  5
80CF
102
{ACAD_REACTORS
330
80CD
102
}
330
80CD
100
AcDbDictionary
281
     1
  3
Normal
350
80D0
100
AcDbDictionaryWithDefault
340
80D0
  0
DICTIONARY
  5
8103
102
{ACAD_REACTORS
330
80CD
102
}
330
80CD
100
AcDbDictionary
281
     1
  3
A0
350
8104
  3
A1
350
8105
  3
A2
350
8106
  3
A3
350
8107
  3
A4
350
8108
  3
A5
350
8109
  3
A6
350
810A
  3
A7
350
810B
  3
A8
350
810C
  3
A9
350
810D
  3
B0
350
810E
  3
B1
350
810F
  3
B2
350
8110
  3
B3
350
8111
  3
B4
350
8112
  3
B5
350
8113
  3
B6
350
8114
  0
DICTIONARY
  5
8128
102
{ACAD_REACTORS
330
80CD
102
}
330
80CD
100
AcDbDictionary
281
     1
  3
Imperial24
350
8129
  0
DICTIONARY
  5
8124
102
{ACAD_REACTORS
330
80CD
102
}
330
80CD
100
AcDbDictionary
281
     1
  3
Standard
350
8125
  0
DICTIONARY
  5
80EA
102
{ACAD_REACTORS
330
80CD
102
}
330
80CD
100
AcDbDictionary
281
     1
  3
2dWireframe
350
80F0
  3
Basic
350
80EF
  3
Brighten
350
80F6
  3
ColorChange
350
80FA
  3
Conceptual
350
80F3
  3
Dim
350
80F5
  3
EdgeColorOff
350
8102
  3
Facepattern
350
80F9
  3
Flat
350
80EB
  3
FlatWithEdges
350
80EC
  3
Gouraud
350
80ED
  3
GouraudWithEdges
350
80EE
  3
Hidden
350
80F2
  3
JitterOff
350
8100
  3
Linepattern
350
80F8
  3
OverhangOff
350
8101
  3
Realistic
350
80F4
  3
Shaded
350
80FF
  3
Shaded with edges
350
80FE
  3
Shades of Gray
350
80FB
  3
Sketchy
350
80FC
  3
Thicken
350
80F7
  3
Wireframe
350
80F1
  3
X-Ray
350
80FD
  0
XRECORD
  5
838F
102
{ACAD_REACTORS
330
80CD
102
}
330
80CD
100
AcDbXrecord
280
     1
 90
        1
330
8125
  0
DICTIONARY
  5
8341
102
{ACAD_REACTORS
330
80CD
102
}
330
80CD
100
AcDbDictionary
281
     1
  3
CANNOSCALE
350
8346
  3
CMLEADERSTYLE
350
8343
  3
CTABLESTYLE
350
8342
  3
CVIEWDETAILSTYLE
350
8344
  3
CVIEWSECTIONSTYLE
350
8345
  3
DIMASSOC
350
8349
  3
INDEXCTL
350
8348
  3
SORTENTS
350
8347
  3
XCLIPFRAME
350
834A
  0
XRECORD
  5
8390
102
{ACAD_REACTORS
330
80CD
102
}
330
80CD
100
AcDbXrecord
280
     1
  1
DWGPROPS COOKIE
  2

  3

  4

  6

  7

  8
yasukiyo.ogawa
  9

300
=
301
=
302
=
303
=
304
=
305
=
306
=
307
=
308
=
309
=
 40
0.0118847800925926
 41
2451387.576625463
 42
2460262.638706204
  1

 90
        0
  0
XRECORD
  5
8338
102
{ACAD_REACTORS
330
8337
102
}
330
8337
100
AcDbXrecord
280
     1
290
     1
  0
XRECORD
  5
833A
102
{ACAD_REACTORS
330
8339
102
}
330
8339
100
AcDbXrecord
280
     1
290
     1
  0
XRECORD
  5
833C
102
{ACAD_REACTORS
330
833B
102
}
330
833B
100
AcDbXrecord
280
     1
290
     1
  0
XRECORD
  5
833E
102
{ACAD_REACTORS
330
833D
102
}
330
833D
100
AcDbXrecord
280
     1
290
     1
  0
XRECORD
  5
8340
102
{ACAD_REACTORS
330
833F
102
}
330
833F
100
AcDbXrecord
280
     1
290
     1
  0
ACDBDETAILVIEWSTYLE
  5
812B
102
{ACAD_XDICTIONARY
360
83C8
102
}
102
{ACAD_REACTORS
330
812A
102
}
330
812A
100
AcDbModelDocViewStyle
 70
     0
  3
Imperial24
290
     0
100
AcDbDetailViewStyle
 70
     0
 71
     0
 90
        3
 71
     1
340
8116
 40
0.24
340
0
 40
0.24
300

 40
0.36
280
     3
 71
     2
340
811D
 90
       25
 71
     3
340
8116
 40
0.24
 90
        1
 40
0.75
 90
        1
300
%<\AcVar ViewType \f "%tc1">% %<\AcVar ViewDetailId>%\PSCALE %<\AcVar ViewScale \f "%sn">%
 71
     4
340
811D
 90
       25
340
811D
 90
       25
280
     0
  0
LAYOUT
  5
8133
102
{ACAD_XDICTIONARY
360
83CC
102
}
102
{ACAD_REACTORS
330
8122
102
}
330
8122
100
AcDbPlotSettings
  1

  2
RICOH imagio MP W3600 RPCS
  4

  6

 40
0.0
 41
0.0
 42
0.0
 43
0.0
 44
0.0
 45
0.0
 46
0.0
 47
0.0
 48
0.0
 49
0.0
140
0.0
141
0.0
142
1.0
143
1.0
 70
  1712
 72
     0
 73
     0
 74
     0
  7

 75
     0
147
1.0
148
0.0
149
0.0
100
AcDbLayout
  1
Model
 70
     1
 71
     0
 10
0.0
 20
0.0
 11
12.0
 21
9.0
 12
0.0
 22
0.0
 32
0.0
 14
0.0
 24
0.0
 34
0.0
 15
0.0
 25
0.0
 35
0.0
146
0.0
 13
0.0
 23
0.0
 33
0.0
 16
1.0
 26
0.0
 36
0.0
 17
0.0
 27
1.0
 37
0.0
 76
     0
330
8130
331
8135
  0
LAYOUT
  5
812F
102
{ACAD_XDICTIONARY
360
83CA
102
}
102
{ACAD_REACTORS
330
8122
102
}
330
8122
100
AcDbPlotSettings
  1

  2
RICOH imagio MP W3600 RPCS
  4

  6

 40
0.0
 41
0.0
 42
0.0
 43
0.0
 44
0.0
 45
0.0
 46
0.0
 47
0.0
 48
0.0
 49
0.0
140
0.0
141
0.0
142
1.0
143
1.0
 70
   688
 72
     0
 73
     0
 74
     5
  7

 75
    16
147
1.0
148
0.0
149
0.0
100
AcDbLayout
  1
レイアウト1
 70
     1
 71
     1
 10
0.0
 20
0.0
 11
12.0
 21
9.0
 12
0.0
 22
0.0
 32
0.0
 14
1.000000000000000E+20
 24
1.000000000000000E+20
 34
1.000000000000000E+20
 15
-1.000000000000000E+20
 25
-1.000000000000000E+20
 35
-1.000000000000000E+20
146
0.0
 13
0.0
 23
0.0
 33
0.0
 16
1.0
 26
0.0
 36
0.0
 17
0.0
 27
1.0
 37
0.0
 76
     0
330
812C
  0
MATERIAL
  5
80DA
102
{ACAD_XDICTIONARY
360
80DB
102
}
102
{ACAD_REACTORS
330
80D1
102
}
330
80D1
100
AcDbMaterial
  1
ByBlock
 72
     0
 43
0.0208333333333333
 43
0.0
 43
0.0
 43
0.0
 43
0.0
 43
0.0208333333333333
 43
0.0
 43
0.0
 43
0.0
 43
0.0
 43
1.0
 43
0.0
 43
0.0
 43
0.0
 43
0.0
 43
1.0
 77
     0
 47
0.0208333333333333
 47
0.0
 47
0.0
 47
0.0
 47
0.0
 47
0.0208333333333333
 47
0.0
 47
0.0
 47
0.0
 47
0.0
 47
1.0
 47
0.0
 47
0.0
 47
0.0
 47
0.0
 47
1.0
171
     0
 49
0.0208333333333333
 49
0.0
 49
0.0
 49
0.0
 49
0.0
 49
0.0208333333333333
 49
0.0
 49
0.0
 49
0.0
 49
0.0
 49
1.0
 49
0.0
 49
0.0
 49
0.0
 49
0.0
 49
1.0
175
     0
142
0.0208333333333333
142
0.0
142
0.0
142
0.0
142
0.0
142
0.0208333333333333
142
0.0
142
0.0
142
0.0
142
0.0
142
1.0
142
0.0
142
0.0
142
0.0
142
0.0
142
1.0
179
     0
144
0.0208333333333333
144
0.0
144
0.0
144
0.0
144
0.0
144
0.0208333333333333
144
0.0
144
0.0
144
0.0
144
0.0
144
1.0
144
0.0
144
0.0
144
0.0
144
0.0
144
1.0
147
0.0208333333333333
147
0.0
147
0.0
147
0.0
147
0.0
147
0.0208333333333333
147
0.0
147
0.0
147
0.0
147
0.0
147
1.0
147
0.0
147
0.0
147
0.0
147
0.0
147
1.0
  0
MATERIAL
  5
80D2
102
{ACAD_XDICTIONARY
360
80D3
102
}
102
{ACAD_REACTORS
330
80D1
102
}
330
80D1
100
AcDbMaterial
  1
ByLayer
 72
     0
 43
0.0208333333333333
 43
0.0
 43
0.0
 43
0.0
 43
0.0
 43
0.0208333333333333
 43
0.0
 43
0.0
 43
0.0
 43
0.0
 43
1.0
 43
0.0
 43
0.0
 43
0.0
 43
0.0
 43
1.0
 77
     0
 47
0.0208333333333333
 47
0.0
 47
0.0
 47
0.0
 47
0.0
 47
0.0208333333333333
 47
0.0
 47
0.0
 47
0.0
 47
0.0
 47
1.0
 47
0.0
 47
0.0
 47
0.0
 47
0.0
 47
1.0
171
     0
 49
0.0208333333333333
 49
0.0
 49
0.0
 49
0.0
 49
0.0
 49
0.0208333333333333
 49
0.0
 49
0.0
 49
0.0
 49
0.0
 49
1.0
 49
0.0
 49
0.0
 49
0.0
 49
0.0
 49
1.0
175
     0
142
0.0208333333333333
142
0.0
142
0.0
142
0.0
142
0.0
142
0.0208333333333333
142
0.0
142
0.0
142
0.0
142
0.0
142
1.0
142
0.0
142
0.0
142
0.0
142
0.0
142
1.0
179
     0
144
0.0208333333333333
144
0.0
144
0.0
144
0.0
144
0.0
144
0.0208333333333333
144
0.0
144
0.0
144
0.0
144
0.0
144
1.0
144
0.0
144
0.0
144
0.0
144
0.0
144
1.0
147
0.0208333333333333
147
0.0
147
0.0
147
0.0
147
0.0
147
0.0208333333333333
147
0.0
147
0.0
147
0.0
147
0.0
147
1.0
147
0.0
147
0.0
147
0.0
147
0.0
147
1.0
  0
MATERIAL
  5
80E2
102
{ACAD_XDICTIONARY
360
80E3
102
}
102
{ACAD_REACTORS
330
80D1
102
}
330
80D1
100
AcDbMaterial
  1
Global
 72
     0
 43
0.0208333333333333
 43
0.0
 43
0.0
 43
0.0
 43
0.0
 43
0.0208333333333333
 43
0.0
 43
0.0
 43
0.0
 43
0.0
 43
1.0
 43
0.0
 43
0.0
 43
0.0
 43
0.0
 43
1.0
 77
     0
 47
0.0208333333333333
 47
0.0
 47
0.0
 47
0.0
 47
0.0
 47
0.0208333333333333
 47
0.0
 47
0.0
 47
0.0
 47
0.0
 47
1.0
 47
0.0
 47
0.0
 47
0.0
 47
0.0
 47
1.0
171
     0
 49
0.0208333333333333
 49
0.0
 49
0.0
 49
0.0
 49
0.0
 49
0.0208333333333333
 49
0.0
 49
0.0
 49
0.0
 49
0.0
 49
1.0
 49
0.0
 49
0.0
 49
0.0
 49
0.0
 49
1.0
175
     0
142
0.0208333333333333
142
0.0
142
0.0
142
0.0
142
0.0
142
0.0208333333333333
142
0.0
142
0.0
142
0.0
142
0.0
142
1.0
142
0.0
142
0.0
142
0.0
142
0.0
142
1.0
179
     0
144
0.0208333333333333
144
0.0
144
0.0
144
0.0
144
0.0
144
0.0208333333333333
144
0.0
144
0.0
144
0.0
144
0.0
144
1.0
144
0.0
144
0.0
144
0.0
144
0.0
144
1.0
147
0.0208333333333333
147
0.0
147
0.0
147
0.0
147
0.0
147
0.0208333333333333
147
0.0
147
0.0
147
0.0
147
0.0
147
1.0
147
0.0
147
0.0
147
0.0
147
0.0
147
1.0
  0
MLEADERSTYLE
  5
8127
102
{ACAD_REACTORS
330
8126
102
}
330
8126
100
AcDbMLeaderStyle
170
     2
171
     1
172
     0
 90
        2
 40
0.0
 41
0.0
173
     1
 91
-1056964608
340
811B
 92
       -2
290
     1
 42
0.09
291
     1
 43
0.36
  3
Standard
 44
0.18
300

342
8116
174
     1
178
     6
175
     1
176
     0
 93
-1056964608
 45
0.18
292
     0
297
     0
 46
0.18
 94
-1056964608
 47
1.0
 49
1.0
140
1.0
293
     1
141
0.0
294
     1
177
     0
142
1.0
295
     0
296
     0
143
0.125
1001
ACAD_MLEADERVER
1070
     2
  0
MLINESTYLE
  5
8120
102
{ACAD_REACTORS
330
811F
102
}
330
811F
100
AcDbMlineStyle
  2
STANDARD
 70
     0
  3

 62
   256
 51
90.0
 52
90.0
 71
     2
 49
0.5
 62
   256
  6
BYLAYER
 49
-0.5
 62
   256
  6
BYLAYER
  0
ACDBPLACEHOLDER
  5
80D0
102
{ACAD_REACTORS
330
80CF
102
}
330
80CF
  0
SCALE
  5
8104
102
{ACAD_REACTORS
330
8103
102
}
330
8103
100
AcDbScale
 70
     0
300
1:1
140
1.0
141
1.0
290
     1
  0
SCALE
  5
8105
102
{ACAD_REACTORS
330
8103
102
}
330
8103
100
AcDbScale
 70
     0
300
1/128" = 1'-0"
140
0.0078125
141
12.0
290
     0
  0
SCALE
  5
8106
102
{ACAD_REACTORS
330
8103
102
}
330
8103
100
AcDbScale
 70
     0
300
1/64" = 1'-0"
140
0.015625
141
12.0
290
     0
  0
SCALE
  5
8107
102
{ACAD_REACTORS
330
8103
102
}
330
8103
100
AcDbScale
 70
     0
300
1/32" = 1'-0"
140
0.03125
141
12.0
290
     0
  0
SCALE
  5
8108
102
{ACAD_REACTORS
330
8103
102
}
330
8103
100
AcDbScale
 70
     0
300
1/16" = 1'-0"
140
0.0625
141
12.0
290
     0
  0
SCALE
  5
8109
102
{ACAD_REACTORS
330
8103
102
}
330
8103
100
AcDbScale
 70
     0
300
3/32" = 1'-0"
140
0.09375
141
12.0
290
     0
  0
SCALE
  5
810A
102
{ACAD_REACTORS
330
8103
102
}
330
8103
100
AcDbScale
 70
     0
300
1/8" = 1'-0"
140
0.125
141
12.0
290
     0
  0
SCALE
  5
810B
102
{ACAD_REACTORS
330
8103
102
}
330
8103
100
AcDbScale
 70
     0
300
3/16" = 1'-0"
140
0.1875
141
12.0
290
     0
  0
SCALE
  5
810C
102
{ACAD_REACTORS
330
8103
102
}
330
8103
100
AcDbScale
 70
     0
300
1/4" = 1'-0"
140
0.25
141
12.0
290
     0
  0
SCALE
  5
810D
102
{ACAD_REACTORS
330
8103
102
}
330
8103
100
AcDbScale
 70
     0
300
3/8" = 1'-0"
140
0.375
141
12.0
290
     0
  0
SCALE
  5
810E
102
{ACAD_REACTORS
330
8103
102
}
330
8103
100
AcDbScale
 70
     0
300
1/2" = 1'-0"
140
0.5
141
12.0
290
     0
  0
SCALE
  5
810F
102
{ACAD_REACTORS
330
8103
102
}
330
8103
100
AcDbScale
 70
     0
300
3/4" = 1'-0"
140
0.75
141
12.0
290
     0
  0
SCALE
  5
8110
102
{ACAD_REACTORS
330
8103
102
}
330
8103
100
AcDbScale
 70
     0
300
1" = 1'-0"
140
1.0
141
12.0
290
     0
  0
SCALE
  5
8111
102
{ACAD_REACTORS
330
8103
102
}
330
8103
100
AcDbScale
 70
     0
300
1-1/2" = 1'-0"
140
1.5
141
12.0
290
     0
  0
SCALE
  5
8112
102
{ACAD_REACTORS
330
8103
102
}
330
8103
100
AcDbScale
 70
     0
300
3" = 1'-0"
140
3.0
141
12.0
290
     0
  0
SCALE
  5
8113
102
{ACAD_REACTORS
330
8103
102
}
330
8103
100
AcDbScale
 70
     0
300
6" = 1'-0"
140
6.0
141
12.0
290
     0
  0
SCALE
  5
8114
102
{ACAD_REACTORS
330
8103
102
}
330
8103
100
AcDbScale
 70
     0
300
1'-0" = 1'-0"
140
12.0
141
12.0
290
     0
  0
ACDBSECTIONVIEWSTYLE
  5
8129
102
{ACAD_XDICTIONARY
360
83C6
102
}
102
{ACAD_REACTORS
330
8128
102
}
330
8128
100
AcDbModelDocViewStyle
 70
     0
  3
Imperial24
290
     0
100
AcDbSectionViewStyle
 70
     0
 71
     0
 90
       78
 71
     1
340
8116
 40
0.24
340
0
340
0
 40
0.24
300
I, O, Q, S, X, Z
 40
0.48
 90
        3
 40
0.18
 90
        1
 71
     2
340
811D
 90
       25
340
811D
 90
       50
 40
0.24
 40
0.0
 40
0.24
 71
     3
340
8116
 40
0.24
 90
        1
 40
0.75
 90
        1
300
%<\AcVar ViewType \f "%tc1">% %<\AcVar ViewSectionStartId>%-%<\AcVar ViewSectionEndId>%\PSCALE %<\AcVar ViewScale \f "%sn">%
 71
     4
300
ANSI31
 40
1.0
 90
        0
290
     0
290
     0
 90
        6
 40
0.0
 40
1.570796326794896
 40
0.2617993877991494
 40
1.308996938995747
 40
-0.2617993877991494
 40
1.832595714594046
  0
TABLESTYLE
  5
8125
102
{ACAD_XDICTIONARY
360
838D
102
}
102
{ACAD_REACTORS
330
8124
102
}
330
8124
100
AcDbTableStyle
  3
Standard
 70
     0
 71
     0
 40
0.06
 41
0.06
280
     0
281
     0
  7
STANDARD
140
0.18
170
     2
 62
     0
 63
     7
283
     0
274
    -2
284
     1
 64
     0
275
    -2
285
     1
 65
     0
276
    -2
286
     1
 66
     0
277
    -2
287
     1
 67
     0
278
    -2
288
     1
 68
     0
279
    -2
289
     1
 69
     0
  7
STANDARD
140
0.25
170
     5
 62
     0
 63
     7
283
     0
274
    -2
284
     1
 64
     0
275
    -2
285
     1
 65
     0
276
    -2
286
     1
 66
     0
277
    -2
287
     1
 67
     0
278
    -2
288
     1
 68
     0
279
    -2
289
     1
 69
     0
  7
STANDARD
140
0.18
170
     5
 62
     0
 63
     7
283
     0
274
    -2
284
     1
 64
     0
275
    -2
285
     1
 65
     0
276
    -2
286
     1
 66
     0
277
    -2
287
     1
 67
     0
278
    -2
288
     1
 68
     0
279
    -2
289
     1
 69
     0
  0
VISUALSTYLE
  5
80F0
102
{ACAD_XDICTIONARY
360
839E
102
}
102
{ACAD_REACTORS
330
80EA
102
}
330
80EA
100
AcDbVisualStyle
  2
2dWireframe
 70
     4
 71
     0
 72
     2
 73
     0
 90
        0
 40
-0.6
 41
-30.0
 62
     5
 63
     7
 74
     1
 91
        4
 64
     7
 65
   257
 75
     1
175
     1
 42
1.0
 92
        0
 66
   257
 43
1.0
 76
     1
 77
     6
 78
     2
 67
     7
 79
     5
170
     0
171
     0
290
     0
174
     0
 93
        1
 44
0.0
173
     0
291
     0
 45
0.0
1001
ACAD
1000
AcDbSavedByObjectVersion
1070
     0
  0
VISUALSTYLE
  5
80EF
102
{ACAD_XDICTIONARY
360
839C
102
}
102
{ACAD_REACTORS
330
80EA
102
}
330
80EA
100
AcDbVisualStyle
  2
Basic
 70
     7
 71
     1
 72
     0
 73
     1
 90
        0
 40
-0.6
 41
-30.0
 62
     5
 63
     7
 74
     0
 91
        4
 64
     7
 65
   257
 75
     1
175
     1
 42
1.0
 92
        8
 66
     7
 43
1.0
 76
     1
 77
     6
 78
     2
 67
     7
 79
     5
170
     0
171
     0
290
     0
174
     0
 93
        1
 44
0.0
173
     0
291
     1
 45
0.0
1001
ACAD
1000
AcDbSavedByObjectVersion
1070
     0
  0
VISUALSTYLE
  5
80F6
102
{ACAD_XDICTIONARY
360
83AA
102
}
102
{ACAD_REACTORS
330
80EA
102
}
330
80EA
100
AcDbVisualStyle
  2
Brighten
 70
    12
 71
     2
 72
     2
 73
     0
 90
        0
 40
-0.6
 41
-30.0
 62
     5
 63
     7
 74
     1
 91
        4
 64
     7
 65
   257
 75
     1
175
     1
 42
1.0
 92
        8
 66
     7
 43
1.0
 76
     1
 77
     6
 78
     2
 67
     7
 79
     5
170
     0
171
     0
290
     0
174
     0
 93
        1
 44
50.0
173
     0
291
     1
 45
0.0
1001
ACAD
1000
AcDbSavedByObjectVersion
1070
     0
  0
VISUALSTYLE
  5
80FA
102
{ACAD_XDICTIONARY
360
83B2
102
}
102
{ACAD_REACTORS
330
80EA
102
}
330
80EA
100
AcDbVisualStyle
  2
ColorChange
 70
    16
 71
     2
 72
     2
 73
     3
 90
        0
 40
-0.6
 41
-30.0
 62
     5
 63
     8
 74
     1
 91
        4
 64
     7
 65
   257
 75
     1
175
     1
 42
1.0
 92
        8
 66
     8
 43
1.0
 76
     1
 77
     6
 78
     2
 67
     7
 79
     5
170
     0
171
     0
290
     0
174
     0
 93
        1
 44
0.0
173
     0
291
     1
 45
0.0
1001
ACAD
1000
AcDbSavedByObjectVersion
1070
     0
  0
VISUALSTYLE
  5
80F3
102
{ACAD_XDICTIONARY
360
83A4
102
}
102
{ACAD_REACTORS
330
80EA
102
}
330
80EA
100
AcDbVisualStyle
  2
Conceptual
 70
     9
 71
     3
 72
     2
 73
     0
 90
        0
 40
-0.6
 41
-30.0
 62
     5
 63
     7
 74
     2
 91
        2
 64
     7
 65
   257
 75
     1
175
     1
 42
179.0
 92
        8
 66
     7
 43
1.0
 76
     1
 77
     6
 78
     2
 67
     7
 79
     3
170
     0
171
     0
290
     0
174
     0
 93
        1
 44
0.0
173
     0
291
     0
 45
0.0
1001
ACAD
1000
AcDbSavedByObjectVersion
1070
     0
  0
VISUALSTYLE
  5
80F5
102
{ACAD_XDICTIONARY
360
83A8
102
}
102
{ACAD_REACTORS
330
80EA
102
}
330
80EA
100
AcDbVisualStyle
  2
Dim
 70
    11
 71
     2
 72
     2
 73
     0
 90
        0
 40
-0.6
 41
-30.0
 62
     5
 63
     7
 74
     1
 91
        4
 64
     7
 65
   257
 75
     1
175
     1
 42
1.0
 92
        8
 66
     7
 43
1.0
 76
     1
 77
     6
 78
     2
 67
     7
 79
     5
170
     0
171
     0
290
     0
174
     0
 93
        1
 44
-50.0
173
     0
291
     1
 45
0.0
1001
ACAD
1000
AcDbSavedByObjectVersion
1070
     0
  0
VISUALSTYLE
  5
8102
102
{ACAD_XDICTIONARY
360
83C2
102
}
102
{ACAD_REACTORS
330
80EA
102
}
330
80EA
100
AcDbVisualStyle
  2
EdgeColorOff
 70
    22
 71
     2
 72
     2
 73
     0
 90
        0
 40
-0.6
 41
-30.0
 62
     5
 63
     7
 74
     1
 91
        4
 64
     7
 65
   257
 75
     1
175
     1
 42
1.0
 92
        8
 66
     7
 43
1.0
 76
     1
 77
     6
 78
     2
 67
     7
 79
     5
170
     0
171
     0
290
     0
174
     0
 93
        1
 44
0.0
173
     0
291
     1
 45
0.0
1001
ACAD
1000
AcDbSavedByObjectVersion
1070
     0
  0
VISUALSTYLE
  5
80F9
102
{ACAD_XDICTIONARY
360
83B0
102
}
102
{ACAD_REACTORS
330
80EA
102
}
330
80EA
100
AcDbVisualStyle
  2
Facepattern
 70
    15
 71
     2
 72
     2
 73
     0
 90
        0
 40
-0.6
 41
-30.0
 62
     5
 63
     7
 74
     1
 91
        4
 64
     7
 65
   257
 75
     1
175
     1
 42
1.0
 92
        8
 66
     7
 43
1.0
 76
     1
 77
     6
 78
     2
 67
     7
 79
     5
170
     0
171
     0
290
     0
174
     0
 93
        1
 44
0.0
173
     0
291
     1
 45
0.0
1001
ACAD
1000
AcDbSavedByObjectVersion
1070
     0
  0
VISUALSTYLE
  5
80EB
102
{ACAD_XDICTIONARY
360
8394
102
}
102
{ACAD_REACTORS
330
80EA
102
}
330
80EA
100
AcDbVisualStyle
  2
Flat
 70
     0
 71
     2
 72
     1
 73
     1
 90
        2
 40
-0.6
 41
30.0
 62
     5
 63
     7
 74
     0
 91
        0
 64
     7
 65
   257
 75
     1
175
     1
 42
1.0
 92
        8
 66
     7
 43
1.0
 76
     1
 77
     6
 78
     2
 67
     7
 79
     5
170
     0
171
     0
290
     0
174
     0
 93
       13
 44
0.0
173
     0
291
     1
 45
0.0
1001
ACAD
1000
AcDbSavedByObjectVersion
1070
     0
  0
VISUALSTYLE
  5
80EC
102
{ACAD_XDICTIONARY
360
8396
102
}
102
{ACAD_REACTORS
330
80EA
102
}
330
80EA
100
AcDbVisualStyle
  2
FlatWithEdges
 70
     1
 71
     2
 72
     1
 73
     1
 90
        2
 40
-0.6
 41
30.0
 62
     5
 63
     7
 74
     1
 91
        0
 64
     7
 65
   257
 75
     1
175
     1
 42
1.0
 92
        0
 66
   257
 43
1.0
 76
     1
 77
     6
 78
     2
 67
     7
 79
     5
170
     0
171
     0
290
     0
174
     0
 93
       13
 44
0.0
173
     0
291
     1
 45
0.0
1001
ACAD
1000
AcDbSavedByObjectVersion
1070
     0
  0
VISUALSTYLE
  5
80ED
102
{ACAD_XDICTIONARY
360
8398
102
}
102
{ACAD_REACTORS
330
80EA
102
}
330
80EA
100
AcDbVisualStyle
  2
Gouraud
 70
     2
 71
     2
 72
     2
 73
     1
 90
        2
 40
-0.6
 41
30.0
 62
     5
 63
     7
 74
     0
 91
        0
 64
     7
 65
   257
 75
     1
175
     1
 42
1.0
 92
        0
 66
     7
 43
1.0
 76
     1
 77
     6
 78
     2
 67
     7
 79
     5
170
     0
171
     0
290
     0
174
     0
 93
       13
 44
0.0
173
     0
291
     1
 45
0.0
1001
ACAD
1000
AcDbSavedByObjectVersion
1070
     0
  0
VISUALSTYLE
  5
80EE
102
{ACAD_XDICTIONARY
360
839A
102
}
102
{ACAD_REACTORS
330
80EA
102
}
330
80EA
100
AcDbVisualStyle
  2
GouraudWithEdges
 70
     3
 71
     2
 72
     2
 73
     1
 90
        2
 40
-0.6
 41
30.0
 62
     5
 63
     7
 74
     1
 91
        0
 64
     7
 65
   257
 75
     1
175
     1
 42
1.0
 92
        0
 66
   257
 43
1.0
 76
     1
 77
     6
 78
     2
 67
     7
 79
     5
170
     0
171
     0
290
     0
174
     0
 93
       13
 44
0.0
173
     0
291
     1
 45
0.0
1001
ACAD
1000
AcDbSavedByObjectVersion
1070
     0
  0
VISUALSTYLE
  5
80F2
102
{ACAD_XDICTIONARY
360
83A2
102
}
102
{ACAD_REACTORS
330
80EA
102
}
330
80EA
100
AcDbVisualStyle
  2
Hidden
 70
     6
 71
     1
 72
     2
 73
     2
 90
        0
 40
-0.6
 41
-30.0
 62
     5
 63
     7
 74
     2
 91
        2
 64
     7
 65
   257
 75
     2
175
     1
 42
40.0
 92
        0
 66
   257
 43
1.0
 76
     1
 77
     6
 78
     2
 67
     7
 79
     3
170
     0
171
     0
290
     0
174
     0
 93
        1
 44
0.0
173
     0
291
     0
 45
0.0
1001
ACAD
1000
AcDbSavedByObjectVersion
1070
     0
  0
VISUALSTYLE
  5
8100
102
{ACAD_XDICTIONARY
360
83BE
102
}
102
{ACAD_REACTORS
330
80EA
102
}
330
80EA
100
AcDbVisualStyle
  2
JitterOff
 70
    20
 71
     2
 72
     2
 73
     0
 90
        0
 40
-0.6
 41
-30.0
 62
     5
 63
     7
 74
     1
 91
        4
 64
     7
 65
   257
 75
     1
175
     1
 42
1.0
 92
       10
 66
     7
 43
1.0
 76
     1
 77
     6
 78
     2
 67
     7
 79
     5
170
     0
171
     0
290
     0
174
     0
 93
        1
 44
0.0
173
     0
291
     1
 45
0.0
1001
ACAD
1000
AcDbSavedByObjectVersion
1070
     0
  0
VISUALSTYLE
  5
80F8
102
{ACAD_XDICTIONARY
360
83AE
102
}
102
{ACAD_REACTORS
330
80EA
102
}
330
80EA
100
AcDbVisualStyle
  2
Linepattern
 70
    14
 71
     2
 72
     2
 73
     0
 90
        0
 40
-0.6
 41
-30.0
 62
     5
 63
     7
 74
     1
 91
        4
 64
     7
 65
   257
 75
     7
175
     7
 42
1.0
 92
        8
 66
     7
 43
1.0
 76
     1
 77
     6
 78
     2
 67
     7
 79
     5
170
     0
171
     0
290
     0
174
     0
 93
        1
 44
0.0
173
     0
291
     1
 45
0.0
1001
ACAD
1000
AcDbSavedByObjectVersion
1070
     0
  0
VISUALSTYLE
  5
8101
102
{ACAD_XDICTIONARY
360
83C0
102
}
102
{ACAD_REACTORS
330
80EA
102
}
330
80EA
100
AcDbVisualStyle
  2
OverhangOff
 70
    21
 71
     2
 72
     2
 73
     0
 90
        0
 40
-0.6
 41
-30.0
 62
     5
 63
     7
 74
     1
 91
        4
 64
     7
 65
   257
 75
     1
175
     1
 42
1.0
 92
        9
 66
     7
 43
1.0
 76
     1
 77
     6
 78
     2
 67
     7
 79
     5
170
     0
171
     0
290
     0
174
     0
 93
        1
 44
0.0
173
     0
291
     1
 45
0.0
1001
ACAD
1000
AcDbSavedByObjectVersion
1070
     0
  0
VISUALSTYLE
  5
80F4
102
{ACAD_XDICTIONARY
360
83A6
102
}
102
{ACAD_REACTORS
330
80EA
102
}
330
80EA
100
AcDbVisualStyle
  2
Realistic
 70
     8
 71
     2
 72
     3
 73
     0
 90
        2
 40
-0.6
 41
30.0
 62
     5
 63
     7
 74
     0
 91
        0
 64
     7
 65
   257
 75
     1
175
     1
 42
1.0
 92
        8
 66
   257
 43
1.0
 76
     1
 77
     6
 78
     2
 67
     7
 79
     3
170
     0
171
     0
290
     0
174
     0
 93
       13
 44
0.0
173
     0
291
     0
 45
0.0
1001
ACAD
1000
AcDbSavedByObjectVersion
1070
     0
  0
VISUALSTYLE
  5
80FF
102
{ACAD_XDICTIONARY
360
83BC
102
}
102
{ACAD_REACTORS
330
80EA
102
}
330
80EA
100
AcDbVisualStyle
  2
Shaded
 70
    27
 71
     2
 72
     2
 73
     1
 90
        2
 40
-0.6
 41
30.0
 62
     5
 63
     7
 74
     0
 91
        4
 64
     7
 65
   257
 75
     1
175
     1
 42
1.0
 92
        8
 66
   257
 43
1.0
 76
     1
 77
     6
 78
     2
 67
     8
 79
     3
170
     0
171
     0
290
     0
174
     0
 93
        5
 44
0.0
173
     0
291
     0
 45
0.0
1001
ACAD
1000
AcDbSavedByObjectVersion
1070
     0
  0
VISUALSTYLE
  5
80FE
102
{ACAD_XDICTIONARY
360
83BA
102
}
102
{ACAD_REACTORS
330
80EA
102
}
330
80EA
100
AcDbVisualStyle
  2
Shaded with edges
 70
    26
 71
     2
 72
     2
 73
     1
 90
        2
 40
-0.6
 41
30.0
 62
     5
 63
     7
 74
     1
 91
       10
 64
     7
 65
   257
 75
     2
175
     1
 42
1.0
 92
        8
 66
   257
 43
1.0
 76
     1
 77
     6
 78
     2
 67
     7
 79
     3
170
     0
171
     0
290
     0
174
     0
 93
        5
 44
0.0
173
     0
291
     0
 45
0.0
1001
ACAD
1000
AcDbSavedByObjectVersion
1070
     0
  0
VISUALSTYLE
  5
80FB
102
{ACAD_XDICTIONARY
360
83B4
102
}
102
{ACAD_REACTORS
330
80EA
102
}
330
80EA
100
AcDbVisualStyle
  2
Shades of Gray
 70
    23
 71
     2
 72
     2
 73
     3
 90
        0
 40
-0.6
 41
-30.0
 62
     5
 63
     7
 74
     2
 91
        2
 64
     7
 65
     7
 75
     1
175
     1
 42
40.0
 92
        8
 66
     7
 43
1.0
 76
     1
 77
     6
 78
     2
 67
     7
 79
     3
170
     0
171
     0
290
     0
174
     0
 93
        1
 44
0.0
173
     0
291
     0
 45
0.0
1001
ACAD
1000
AcDbSavedByObjectVersion
1070
     0
  0
VISUALSTYLE
  5
80FC
102
{ACAD_XDICTIONARY
360
83B6
102
}
102
{ACAD_REACTORS
330
80EA
102
}
330
80EA
100
AcDbVisualStyle
  2
Sketchy
 70
    24
 71
     1
 72
     2
 73
     2
 90
        0
 40
-0.6
 41
-30.0
 62
     5
 63
     7
 74
     2
 91
        2
 64
     7
 65
     7
 75
     1
175
     1
 42
40.0
 92
       11
 66
     7
 43
1.0
 76
     1
 77
     6
 78
     2
 67
     7
 79
     6
170
     0
171
     0
290
     0
174
     0
 93
        1
 44
0.0
173
     0
291
     0
 45
0.0
1001
ACAD
1000
AcDbSavedByObjectVersion
1070
     0
  0
VISUALSTYLE
  5
80F7
102
{ACAD_XDICTIONARY
360
83AC
102
}
102
{ACAD_REACTORS
330
80EA
102
}
330
80EA
100
AcDbVisualStyle
  2
Thicken
 70
    13
 71
     2
 72
     2
 73
     0
 90
        0
 40
-0.6
 41
-30.0
 62
     5
 63
     7
 74
     1
 91
        4
 64
     7
 65
   257
 75
     1
175
     1
 42
1.0
 92
       12
 66
     7
 43
1.0
 76
     1
 77
     6
 78
     2
 67
     7
 79
     5
170
     0
171
     0
290
     0
174
     0
 93
        1
 44
0.0
173
     0
291
     1
 45
0.0
1001
ACAD
1000
AcDbSavedByObjectVersion
1070
     0
  0
VISUALSTYLE
  5
80F1
102
{ACAD_XDICTIONARY
360
83A0
102
}
102
{ACAD_REACTORS
330
80EA
102
}
330
80EA
100
AcDbVisualStyle
  2
Wireframe
 70
     5
 71
     0
 72
     2
 73
     0
 90
        0
 40
-0.6
 41
-30.0
 62
     5
 63
     7
 74
     1
 91
        4
 64
     7
 65
   257
 75
     1
175
     1
 42
1.0
 92
        0
 66
   257
 43
1.0
 76
     1
 77
     6
 78
     2
 67
     7
 79
     3
170
     0
171
     0
290
     0
174
     0
 93
        1
 44
0.0
173
     0
291
     0
 45
0.0
1001
ACAD
1000
AcDbSavedByObjectVersion
1070
     0
  0
VISUALSTYLE
  5
80FD
102
{ACAD_XDICTIONARY
360
83B8
102
}
102
{ACAD_REACTORS
330
80EA
102
}
330
80EA
100
AcDbVisualStyle
  2
X-Ray
 70
    25
 71
     2
 72
     2
 73
     1
 90
        1
 40
0.5
 41
-30.0
 62
     5
 63
     7
 74
     1
 91
        0
 64
     7
 65
   257
 75
     1
175
     1
 42
1.0
 92
        8
 66
     7
 43
1.0
 76
     1
 77
     6
 78
     2
 67
     7
 79
     3
170
     0
171
     0
290
     0
174
     0
 93
       13
 44
0.0
173
     0
291
     0
 45
0.0
1001
ACAD
1000
AcDbSavedByObjectVersion
1070
     0
  0
DICTIONARYVAR
  5
8346
102
{ACAD_REACTORS
330
8341
102
}
330
8341
100
DictionaryVariables
280
     0
  1
1:1
  0
DICTIONARYVAR
  5
8343
102
{ACAD_REACTORS
330
8341
102
}
330
8341
100
DictionaryVariables
280
     0
  1
STANDARD
  0
DICTIONARYVAR
  5
8342
102
{ACAD_REACTORS
330
8341
102
}
330
8341
100
DictionaryVariables
280
     0
  1
STANDARD
  0
DICTIONARYVAR
  5
8344
102
{ACAD_REACTORS
330
8341
102
}
330
8341
100
DictionaryVariables
280
     0
  1
Imperial24
  0
DICTIONARYVAR
  5
8345
102
{ACAD_REACTORS
330
8341
102
}
330
8341
100
DictionaryVariables
280
     0
  1
Imperial24
  0
DICTIONARYVAR
  5
8349
102
{ACAD_REACTORS
330
8341
102
}
330
8341
100
DictionaryVariables
280
     0
  1
1
  0
DICTIONARYVAR
  5
8348
102
{ACAD_REACTORS
330
8341
102
}
330
8341
100
DictionaryVariables
280
     0
  1
0
  0
DICTIONARYVAR
  5
8347
102
{ACAD_REACTORS
330
8341
102
}
330
8341
100
DictionaryVariables
280
     0
  1
127
  0
DICTIONARYVAR
  5
834A
102
{ACAD_REACTORS
330
8341
102
}
330
8341
100
DictionaryVariables
280
     0
  1
2
  0
DICTIONARY
  5
83C8
330
812B
100
AcDbDictionary
280
     1
281
     1
  3
ACAD_XREC_ROUNDTRIP
360
83C9
  0
DICTIONARY
  5
83CC
330
8133
100
AcDbDictionary
280
     1
281
     1
  3
ACAD_XREC_ROUNDTRIP
360
83CD
  0
DICTIONARY
  5
83CA
330
812F
100
AcDbDictionary
280
     1
281
     1
  3
ACAD_XREC_ROUNDTRIP
360
83CB
  0
DICTIONARY
  5
80DB
330
80DA
100
AcDbDictionary
280
     1
281
     1
  3
ACAD_XREC_ROUNDTRIP
360
8392
  3
BUMPTILE
360
80DD
  3
DIFFUSETILE
360
80DC
  3
OPACITYTILE
360
80E0
  3
REFLECTIONTILE
360
80DF
  3
REFRACTIONTILE
360
80E1
  3
SPECULARTILE
360
80DE
  0
DICTIONARY
  5
80D3
330
80D2
100
AcDbDictionary
280
     1
281
     1
  3
ACAD_XREC_ROUNDTRIP
360
8391
  3
BUMPTILE
360
80D5
  3
DIFFUSETILE
360
80D4
  3
OPACITYTILE
360
80D8
  3
REFLECTIONTILE
360
80D7
  3
REFRACTIONTILE
360
80D9
  3
SPECULARTILE
360
80D6
  0
DICTIONARY
  5
80E3
330
80E2
100
AcDbDictionary
280
     1
281
     1
  3
ACAD_XREC_ROUNDTRIP
360
8393
  3
BUMPTILE
360
80E5
  3
DIFFUSETILE
360
80E4
  3
FBXASSET
360
817B
  3
OPACITYTILE
360
80E8
  3
REFLECTIONTILE
360
80E7
  3
REFRACTIONTILE
360
80E9
  3
SPECULARTILE
360
80E6
  0
DICTIONARY
  5
83C6
330
8129
100
AcDbDictionary
280
     1
281
     1
  3
ACAD_XREC_ROUNDTRIP
360
83C7
  0
DICTIONARY
  5
838D
330
8125
100
AcDbDictionary
280
     1
281
     1
  3
ACAD_ROUNDTRIP_2008_TABLESTYLE_CELLSTYLEMAP
360
838E
  3
ACAD_XREC_ROUNDTRIP
360
83C4
  0
DICTIONARY
  5
839E
330
80F0
100
AcDbDictionary
280
     1
281
     1
  3
ACAD_XREC_ROUNDTRIP
360
839F
  0
DICTIONARY
  5
839C
330
80EF
100
AcDbDictionary
280
     1
281
     1
  3
ACAD_XREC_ROUNDTRIP
360
839D
  0
DICTIONARY
  5
83AA
330
80F6
100
AcDbDictionary
280
     1
281
     1
  3
ACAD_XREC_ROUNDTRIP
360
83AB
  0
DICTIONARY
  5
83B2
330
80FA
100
AcDbDictionary
280
     1
281
     1
  3
ACAD_XREC_ROUNDTRIP
360
83B3
  0
DICTIONARY
  5
83A4
330
80F3
100
AcDbDictionary
280
     1
281
     1
  3
ACAD_XREC_ROUNDTRIP
360
83A5
  0
DICTIONARY
  5
83A8
330
80F5
100
AcDbDictionary
280
     1
281
     1
  3
ACAD_XREC_ROUNDTRIP
360
83A9
  0
DICTIONARY
  5
83C2
330
8102
100
AcDbDictionary
280
     1
281
     1
  3
ACAD_XREC_ROUNDTRIP
360
83C3
  0
DICTIONARY
  5
83B0
330
80F9
100
AcDbDictionary
280
     1
281
     1
  3
ACAD_XREC_ROUNDTRIP
360
83B1
  0
DICTIONARY
  5
8394
330
80EB
100
AcDbDictionary
280
     1
281
     1
  3
ACAD_XREC_ROUNDTRIP
360
8395
  0
DICTIONARY
  5
8396
330
80EC
100
AcDbDictionary
280
     1
281
     1
  3
ACAD_XREC_ROUNDTRIP
360
8397
  0
DICTIONARY
  5
8398
330
80ED
100
AcDbDictionary
280
     1
281
     1
  3
ACAD_XREC_ROUNDTRIP
360
8399
  0
DICTIONARY
  5
839A
330
80EE
100
AcDbDictionary
280
     1
281
     1
  3
ACAD_XREC_ROUNDTRIP
360
839B
  0
DICTIONARY
  5
83A2
330
80F2
100
AcDbDictionary
280
     1
281
     1
  3
ACAD_XREC_ROUNDTRIP
360
83A3
  0
DICTIONARY
  5
83BE
330
8100
100
AcDbDictionary
280
     1
281
     1
  3
ACAD_XREC_ROUNDTRIP
360
83BF
  0
DICTIONARY
  5
83AE
330
80F8
100
AcDbDictionary
280
     1
281
     1
  3
ACAD_XREC_ROUNDTRIP
360
83AF
  0
DICTIONARY
  5
83C0
330
8101
100
AcDbDictionary
280
     1
281
     1
  3
ACAD_XREC_ROUNDTRIP
360
83C1
  0
DICTIONARY
  5
83A6
330
80F4
100
AcDbDictionary
280
     1
281
     1
  3
ACAD_XREC_ROUNDTRIP
360
83A7
  0
DICTIONARY
  5
83BC
330
80FF
100
AcDbDictionary
280
     1
281
     1
  3
ACAD_XREC_ROUNDTRIP
360
83BD
  0
DICTIONARY
  5
83BA
330
80FE
100
AcDbDictionary
280
     1
281
     1
  3
ACAD_XREC_ROUNDTRIP
360
83BB
  0
DICTIONARY
  5
83B4
330
80FB
100
AcDbDictionary
280
     1
281
     1
  3
ACAD_XREC_ROUNDTRIP
360
83B5
  0
DICTIONARY
  5
83B6
330
80FC
100
AcDbDictionary
280
     1
281
     1
  3
ACAD_XREC_ROUNDTRIP
360
83B7
  0
DICTIONARY
  5
83AC
330
80F7
100
AcDbDictionary
280
     1
281
     1
  3
ACAD_XREC_ROUNDTRIP
360
83AD
  0
DICTIONARY
  5
83A0
330
80F1
100
AcDbDictionary
280
     1
281
     1
  3
ACAD_XREC_ROUNDTRIP
360
83A1
  0
DICTIONARY
  5
83B8
330
80FD
100
AcDbDictionary
280
     1
281
     1
  3
ACAD_XREC_ROUNDTRIP
360
83B9
  0
XRECORD
  5
83C9
102
{ACAD_REACTORS
330
83C8
102
}
330
83C8
100
AcDbXrecord
280
     1
102
DISPLAYNAME
  1
Imperial24
102
FLAGS
 90
        0
  0
XRECORD
  5
83CD
102
{ACAD_REACTORS
330
83CC
102
}
330
83CC
100
AcDbXrecord
280
     1
102
SHADEPLOT
 70
     0
102
SHADEPLOTRESLEVEL
 70
     2
102
SHADEPLOTCUSTOMDPI
 70
   300
  0
XRECORD
  5
83CB
102
{ACAD_REACTORS
330
83CA
102
}
330
83CA
100
AcDbXrecord
280
     1
102
SHADEPLOT
 70
     0
102
SHADEPLOTRESLEVEL
 70
     2
102
SHADEPLOTCUSTOMDPI
 70
   300
  0
XRECORD
  5
8392
102
{ACAD_REACTORS
330
80DB
102
}
330
80DB
100
AcDbXrecord
280
     1
102
MATERIAL
148
0.0
149
0.0
149
0.0
 93
        0
 94
      127
282
     0
 72
     0
 77
     0
171
     0
175
     0
179
     0
273
     0
  0
XRECORD
  5
80DD
102
{ACAD_REACTORS
330
80DB
102
}
330
80DB
100
AcDbXrecord
280
     1
270
     1
271
     1
  0
XRECORD
  5
80DC
102
{ACAD_REACTORS
330
80DB
102
}
330
80DB
100
AcDbXrecord
280
     1
270
     1
271
     1
  0
XRECORD
  5
80E0
102
{ACAD_REACTORS
330
80DB
102
}
330
80DB
100
AcDbXrecord
280
     1
270
     1
271
     1
  0
XRECORD
  5
80DF
102
{ACAD_REACTORS
330
80DB
102
}
330
80DB
100
AcDbXrecord
280
     1
270
     1
271
     1
  0
XRECORD
  5
80E1
102
{ACAD_REACTORS
330
80DB
102
}
330
80DB
100
AcDbXrecord
280
     1
270
     1
271
     1
  0
XRECORD
  5
80DE
102
{ACAD_REACTORS
330
80DB
102
}
330
80DB
100
AcDbXrecord
280
     1
270
     1
271
     1
  0
XRECORD
  5
8391
102
{ACAD_REACTORS
330
80D3
102
}
330
80D3
100
AcDbXrecord
280
     1
102
MATERIAL
148
0.0
149
0.0
149
0.0
 93
        0
 94
      127
282
     0
 72
     0
 77
     0
171
     0
175
     0
179
     0
273
     0
  0
XRECORD
  5
80D5
102
{ACAD_REACTORS
330
80D3
102
}
330
80D3
100
AcDbXrecord
280
     1
270
     1
271
     1
  0
XRECORD
  5
80D4
102
{ACAD_REACTORS
330
80D3
102
}
330
80D3
100
AcDbXrecord
280
     1
270
     1
271
     1
  0
XRECORD
  5
80D8
102
{ACAD_REACTORS
330
80D3
102
}
330
80D3
100
AcDbXrecord
280
     1
270
     1
271
     1
  0
XRECORD
  5
80D7
102
{ACAD_REACTORS
330
80D3
102
}
330
80D3
100
AcDbXrecord
280
     1
270
     1
271
     1
  0
XRECORD
  5
80D9
102
{ACAD_REACTORS
330
80D3
102
}
330
80D3
100
AcDbXrecord
280
     1
270
     1
271
     1
  0
XRECORD
  5
80D6
102
{ACAD_REACTORS
330
80D3
102
}
330
80D3
100
AcDbXrecord
280
     1
270
     1
271
     1
  0
XRECORD
  5
8393
102
{ACAD_REACTORS
330
80E3
102
}
330
80E3
100
AcDbXrecord
280
     1
102
MATERIAL
148
0.0
149
0.0
149
0.0
 93
        0
 94
      127
282
     0
 72
     0
 77
     0
171
     0
175
     0
179
     0
273
     0
  0
XRECORD
  5
80E5
102
{ACAD_REACTORS
330
80E3
102
}
330
80E3
100
AcDbXrecord
280
     1
270
     1
271
     1
  0
XRECORD
  5
80E4
102
{ACAD_REACTORS
330
80E3
102
}
330
80E3
100
AcDbXrecord
280
     1
270
     1
271
     1
  0
XRECORD
  5
817B
102
{ACAD_REACTORS
330
80E3
102
}
330
80E3
100
AcDbXrecord
280
     1
 70
     1
 90
1959938040
 71
     1
  1
E42F19B0-B28E-4CA8-841F-2F864D71CDF7
311
504B0304140006080800EB796D576AA24F74D8000000200100004F00000043344343393033442D464343452D343938362D413341362D4145333735464143314641372F4173736574446174612F446566696E6974696F6E4974657261746F7250726F706572746965732E62696E454E3B6FC2400CBE32507560E83F40ECD7CB
311
DD9150100F9504756A9776EA82CCC5D0489704E51289B123FF9ADA2A15963FBFFDD96721C4E52A148A3BC20FD901F957ACB029DC87FBC612449F2BBEDE81BFBFF57A14729AE11E3ADFF2D65B111C7A0F15D65D78BC8D0E4B68890EFC132F3D10FE0B81190E7FC7F8FE3B815F620FF971B68210B05DA8FDEEA4F47A6AE224B2
311
D2A4C9548E33BB962F7ABC91E9F36662D32C49AD8E5583A1EE1A874119156DAFCCDB637528F2E5BC2D4A1C5650E262E41AA49FF2D1D244C64AADA5B69F3A9E911AF335573CF90B504B0304140006080800EB796D57ABFE251FFE000000300200004500000043344343393033442D464343452D343938362D413341362D4145
311
333735464143314641372F4173736574446174612F496E7374616E636550726F706572746965732E62696EEB606060F80F0540260323103700495E20ED9E9A975A94991C9C9C919A9BA802147035317233B47432D07532B270D5357176B4D0B5303174D33572B3303371313774767133674768046931363471713532B5D435
311
353131D635313332D475727372D13534373670367376B67474B5042A03DBCBA019D37FE8ABC6157B20CD04146B0062181F4C03F940F0C11EA29A8141C08141002C0426541C106CAC2CA046088033B02A030AC2157C6006F21A8018AAF50194E6010A610250382264E08660284CD9E98021862280A91564B406929A0FF62C40
311
1E28B6F88038B83CB1243943D7A928312F25350524430868375CBDDAA08D4555E82AA04DAB42B1C8808500504B0304140006080800EB796D5728BB58AF800100009E0500003D00000043344343393033442D464343452D343938362D413341362D4145333735464143314641372F536368656D61732F436F6D6D6F6E536368
311
656D612E786D6CBD544D4FC23018BEFB2B96DE15493C78601010A34B880709DEDFB52FD0D8B54BD70DF6EFED3AC0B12E6442E2716BFB3CEFF3D18E26FB440405EA8C2B1992E1C323095052C5B8DC842437EBFB673219DF8DA659866649B798C078B48AE6410122242F2A4994AC7F93815DF85C049C8564CA0A901499DD886B
311
2EB9B1E02448F358701A9235880C49A0119892A20C89D1B9FD768815CAD268CB5E0355B40B1E47F3E37A2020464BED06AA57CE8FCC20C3C3446D46761A2632A8C1283D07031EFF2AE7CCB1BFEEE916E406DFAC8E36FFD99A9D60A6944090EEDC3B670C7DC13DE86B6B2C5C240D6E503BB85ACD579D513F1B9F9A69DC9CC22A
311
FA80C426D40AF0B21EA168559156B6276F0F726A6BFF04DCD513A87A62CAD41FB24FCB2858B3952E3D852084DA25B9303C15687973CC8E8AAE11DF2836C38C6A9E765E8C1BA1BFB1DC29CDFE518C8B5A7655A4ED7E77291ABEB80DBD82EC866ADE1B8D05AF9E35CF09D7A061F38A986D9EC412B8F0F65E5D81534D9B231D1E
311
5A8FE577A241F3A5FD01504B0304140006080800EB796D572CCEBD668A040000E01200003E00000043344343393033442D464343452D343938362D413341362D4145333735464143314641372F536368656D61732F47656E65726963536368656D612E786D6CD5586D6FDB380CFE7EBF42F0F7A649B70E1B90744856B4970F
311
450FCD7A5F05459613EDE4174872DADCAF3F522F8ED3B88D2F1D06AC4050DBA2493EE4438AF2F8EB73AEC8466823CB62928C06C384888297A92C5693A4B6D9D9E7E4EBD51FE3A931C22EF85AE4EC6AFC38BF261BA626C9AD288496DC3F4FCEAFC63366845F7A10452AF41DB320C0D44EC26EAB20918735565582695670811A
311
6A49643A49A6E9069FA4604A64B29016DC4B48552F95E4932463CA888468C1D2B250DB4962750DF7CE273069CE8363F1FF4EDB00E0A21999574AE4A2B00C353B93F3BD4777B8A61ED8F604ABFEDD79CE56A2B7BDFBDBC50996E0ADDE16FED26223C5D30956C29BDF4A55EA686E5E58B112DA45CE67F76F4FA27EFA3FB672FD
311
7372FC388FAECDCA5209E693CAD167BADCD272F943701B3812F8A3D852008B1D2E32DB927B2F833C6EA95879925356D254582695095A3CE982924720BE5774A3CB9CDCDB350427D2DF20DA1B5532EBE2D5D6288D75D4F7E4FD9890A0EF8E3D93EBB8F8BA4758158EF6FB90A6F9520281C93DE7AAC6D24607DA296BB9601812
311
3F821A7D6A5C5884050C475DA4865442732C8B95684A50165CBB3A32F25F783A4A480ED59AD7F924B968AEA50131F46303223E6A397B0E52976030DC1DCA81D7E7C1EDEEA42C19FF27635C505E2BD5198A599020DF50A2330FCB3AAF28CB0124108429553EF1B228802E2265D8F7CC2401042B155BCC7070F1E5C55F13B4A9
311
577362CCCE46C32174E010C3C378C44841A4BDA00FE3A12006CE11EE6AEC59894D3526DDE1CD59D503ECC324017F8061B7F162162FA62EDD81AE3308617770796DCBDAD2B2625C5AE8A63DE20B2C8AA5E95E76E5730823955956E33E705425A2187C185D36489A1B44D3DCEC2172F6BA2105C3546287A7194B2331768EBBE6
311
4F6E70A9930ABE0ADEA89E9E2C38523B810287AD67A54A039C1606EAFE68F8304610BB9093DBDDABC0B2AE4E290DCDA15376D7E39F72B556F0B32EAB5D3D498B4C41ABADEC3A1434C422D87E8025A84BDCB2B1417ED750FAE4DA8976863974C577C7F902D3F156AD354DEA3540DE6BEAE2BEA52F7A2EB4CA43802ECE5BF2CE
311
2EDC9347179FFB023CE412E60BE16DA0BE29B374988A553F561DC04615DD35F7D2C8979F60E5955CE93DF29DED8AFA1EE6642D53418086C03C47C377910F75F7E8F5EF665F70B60FFB22AEDF897D119E8423C773E819A3C1E55E550599EE6EDCA34D0C86FD72057DF2CD46F16A470682471C164E4346D5306BF12D7D12D82C
311
FF673D41636C347443FEB51B50D72EA171A8E4A58623A4A16E0FA2B8B10A0D23268D87C33896EE8FB73305A74BF224EDBADFA0BD674AB354D63DB7BD5D83426761C077DE767728235446A552754EB93B755891C3C4CC6CADE37CF0E912A7BB38DBA010F9DE1282EDF470CA69A9CDA482E334C4A6EA4107987980B17E72F317
311
30EBF88BBD39E7C629F56797A3C0009C2C5AE7951D9A05A02773440F02EEB4DE396A3B6A570C72CCFBCD823B0B8ED3F1D5CEDDFED772FA70236C83FB7D86C385D570B87107535572A60A96035F8F7C6A7192F13007246BBE0521855E6AC46F3E27689CEE7D186A6FD679D98CDCAD13333E04EBE7ED6F55FF01504B03041400
311
06080800EB796D576180134D5F0100006B0300004500000043344343393033442D464343452D343938362D413341362D4145333735464143314641372F536368656D61732F52656E6465724D6174657269616C536368656D612E786D6CA5934D6FC2300C86EFFB1551EEE343DBA41D1A103009551ADAD40EAE28A4A68D9426
311
284961FCFBE5A340113B2071746D3F765EBF4DC6BFB5407BD0862B49F0B037C0082453059725C18DDD3EBFE3F1E829991803366715D474942CD30FB4A782E00C64017A412D684E454CE3FE28995203B162A6EA5AC94B66997D225E109CD63B0135484BAD1B3C07E9080CA35DB3119C11BCA5C200461A68A1A438126C75E3E2
311
30D40FF81FB3F03C91D1E3A3A0AF79FE28E25BC39EC3E17E4C2A2D94A0833A51AF55BCCA7D88572FCBAC529C4140B020FC3AAFA886621DCED7EAD7664CC86024E806DC297DA1BB393E4156543457A4537DB8817349A70F8ACBF09B3EEE2CB2F33E91B65D60786E4E3B39B77E3FEEEF5650424525DA657FB8B46BE6BF064646
311
F0A0F7327C0BC1BC1B4CBBC1C419FA3CCB23500007872A2580CAAE5461865565294E4EDB4617B62FF579DF9A5B2F54E834076A597573A020912FED777F9B3F504B0304140006080800EB796D57549DDB8A51000000570000004700000043344343393033442D464343452D343938362D413341362D41453337354641433146
311
41372F4173736574446174612F41737365745461626C654F66436F6E74656E74732E62696E536160607035317233B47432D07532B270D5357176B4D0B5303174D33572B33033713137747671331702AACB4D2C492DCA4CCC492C28484D2C4ACC4B4E050A82012F90744FCD03CA26072767A4E6260200504B03041400060808
311
00EB796D57F865834058000000680000004500000043344343393033442D464343452D343938362D413341362D4145333735464143314641372F4173736574446174612F53747265616D56657273696F6E5461626C652E696E66558CBD0A80300C06F73E4B117FB66E451741D041DC5BF98480A492E4FDD18EAEC7DD4555D8
311
9EF28DF51A0B1BD8340C4DE7DD848B988C0ACF0649566493F2408C508DDEBB99D5129FF8F1AF8CF5B9503E20FAE5A16B5AF702504B0304140006080800EB796D574F8B1D57330100009A0400003600000043344343393033442D464343452D343938362D413341362D4145333735464143314641372F417373657444617461
311
2F636E782E786D6CCD54B14EC33010FD95C87BEC241512428E2B044B2790A818D8AECEA55875ECC8BE20F87BEC2403A888A943254FCFEFEE9E9FFC4E6E3F075B7C6088C6BB96D5BC62053AED3BE38E2D9BA82F6F59B15532784F3F68AC703060CB32CC943C063F8D2BD4610F93CDA835EEB482F73122EDE160F1A97FF08ED0
311
516485B61063CBA27EC701384CE43B8C27DE0101AF79C0E8A7A031752233E0DA490704C28EA9A66A36655D97F5665FDFDCA5D3346F5264A69207EFEDCA376958F063A197A94C5552E46B25A760564E7E0B537F69E407E3A4484C252385E4C95A415F63AA8071B4460325EB84D784542612C220C5425652640F7E39F188BD71
311
2697EC9230201F9E933C0C64F0EA1CF94FEBE59DD9B948E0345EAF1FE70A2FEFC2CBFC835E9740CE89B9B69C9C2BE4C6F517488998D7480A4DDE2AEA1B504B0304140006080800EB796D57DEDE4265070100004F0300003400000043344343393033442D464343452D343938362D413341362D414533373546414331464137
311
2F536368656D61732F636E782E786D6CCD933F4F042110C5BFCA867E61D98B89312C575858D9A8951DC2DC490E980D7F8C7E7B61A5B84BECB4B884021EBF4CE63D06B1FFF46EF880982C8685703A9101824663C37121251FC65B32ECA58888F90C2343501E16D26422C5316259BB64E0A08A6BAAB3E1D4C57BF41EC3B37E07
311
AFC8A09D4A6921693B5255321A48276A545694D308094BD4502B64EBA157D011540643E43CCDBB91F391EF5EF8CD5D5DF3FC2A5823A57843749DB72143C475D05837A1B63309D6AEA528D176A67920F2BC375AD310AC1252A41C6B069DCC5F6B25D5BA3AAB55AE51B10DFC61A460CDEA85E1070810ADBE4EC717CDFD9BE527
311
0806E2637DA56895BB4EE7BFF5F8B700D836FB7504DA5790DF504B0304140006080800EB796D57410A3D5871000000A40000002C00000043344343393033442D464343452D343938362D413341362D4145333735464143314641372F636E782E786D6C55CC4D0E82301086E1AB34B31774E7A22D31F1069E60020334B633A6
311
3FC6E34B0909B07DDE2F9FEE7EC1AB2FC5E4840DDC9A2B28E25E06C7938192C7CB1D54677514C9871928C640062A83D55394F2D968A0118BAFEA1DBF377CA444F98919176EAB9FEAAB9F2960DA5BBB1E2ED3FA6FFF504B0304140006080800EB796D5763E680267E000000A300000007000000636E782E786D6C4D8CD10A83
311
2018855F45FE7BB7C2B60AD4907FF91EB12C64A6C3E5D8E34F4717BB391F7C9C73F8F0D91C799BF8B2C10BA84F1510E3EF61B67E1590F685764006C96308FB5F0D889F3623A068907C8D213D0F359B654AAE5867FDE390D820F615BB518D38D2A6EFAE5431956364ED452BACB56AF3E25C2619BFBFCC722FBF504B03041400
311
06080800EB796D5716E99B5DA600000035010000130000005B436F6E74656E745F54797065735D2E786D6C9590410E82301045AFD2740F4517C6180A0BF5065E60AC53688469D30E066F6F91AD9AB89CF9FFFD3F99BA9DC7413C3026E749CB4D59498164FCCD51A7E5C4B6D84BD136F5E5193089ECA5A465CF1C0E4A25D3E3
311
08A9F401292BD6C711388FB15301CC1D3A54DBAADA29E38991B8E0254336F5092D4C038BF39CD76B6FC6A538AEBEA54A4B08617006389FA516557DE4AE8E7E70DE30729138228C5F021CD93F02D4FB0DCD0B504B0304140006080800EB796D573DEE336E64000000790000001B0000006175746F6465736B2D64657369676E
311
2D7061636B6167652E786D6C35CBC10E83200C00D05F21DCA56CA76D41FC96062B120735B69A7DBE268BB7777961F8D5AF396893C2ADB70FE7ADA196782C2DF776D7A97B5933C430F15651E5469C55D70F80A4992A3ADC954792C525AE70A1E4D6AD9816CC044FEFDF01FE3FDE907802504B0304140006080800EB796D575C
311
CCD309F6000000960100003700000043344343393033442D464343452D343938362D413341362D4145333735464143314641372F4173736574446174612F636F72652E786D6C8550CB6EC32010FC156BEF60C04DDB5498C8B5F3073DF58680B82831583CAA7E7E2176A5F6540969D1ECCCECEEF0D3D7726B3E4D88D6BB1E28
311
26D018A7BCB66EEE21A70B7A86E62478F03EFDA241E3E4627AA830083E079FD71D52DE25E32AEABC363B286334091A752B9F1EA2FA308BC432A7C28857BC4A7595B3C1146F3CC173B67A975A5DDCECC59A00828D67429F68870825AFE86162141DCFE384063290C3E3384CECC8785BC58227BBFC4C57C1C86474D113D6214A
311
11EDDEE8E1A53CC6DE795B9982C714CACDFBD07A1D88A16E3DC92479BB75FFB8E655FFEF9AAD4B1DDB5D37450441CB92F786E06D4DA9947B84A5D644C537504B0304140006080800EB796D5781C12637F5000000940100003500000043344343393033442D464343452D343938362D413341362D4145333735464143314641
311
372F536368656D61732F636F72652E786D6C8550CB6EC32010FC156BEFD8809BB68930916BE70BDA536F08888B1283C5A3EAE7176C576A4F959016CDCECCEE0E3B7FCDF7EA53FB609CED80D4182A6DA553C64E1DA47845CF509D39F3CEC55F34A8AC9875070506CE26EFD2B243D2D9A86D41AD537A0745083A4225EFF9D341
311
901F7A16B5483133C2AD5E84BC8949D7A4DE789CA564D42E352ABB99ABD11E381D2E983C911661825FD0C348093A5E8611F5B8C787C7A11FE991B2A688398B66FE992EBD1651ABACC7B4458420D2BE91C3293F4ADF5953989C85E8F3CDFBD0721DF0D775CFC09AADF7C7332DEA7FCF646C6CE9EEB929027092575C1B9C3525
311
A35CD600732D79F26F504B0304140006080800EB796D57A2189A1B00010000D70100002D00000043344343393033442D464343452D343938362D413341362D4145333735464143314641372F636F72652E786D6C9551CB6EC32010FC15B4773F3071F31026B268FC053DF546CDC64589C132B8EAE7176A576D6FAD846035CC
311
2CCC2C3FBF8F77F286B337CE3640F31208DADE696387069670CD0E40CE82CFCE851F3420568DD8408241F06176CBB441BDB3016D42ADD3B881CA7B0C40FA7B2C1AF0FD2B8E2A574B880C7FCB27D5DFD48039CD579EE0C18C5FD27E46155083A8CA8A659466943DD1FA1457553DF32231055F8C0DACDA1EC3F1053571538896
311
40D4BC586F236B317AE3181DFF68AE0667107227E5B1648F5927E525DB1D0F0F59CBDAB85DD8BEEE5A49BB761F9B44B1E03ECC3199AD49CAE0AFF255F8CBD932E97F3A5B151E04FD3655A498052F3E6710CF3412F101504B0304140006080800EB796D575D1CE97B05010000B201000008000000636F72652E786D6C8D50CB
311
6EC32010FC15C41D1B70D336112672EDFC414FBD51202E8A0D168FA8FDFB4242A5F6560969D1ECCCCEECB2E3E7BA80ABF6C138DB43D26008B4954E193BF730C5337A86E0C899772EFEA24160C5AA7B5860C8D9EC5DDA2A249D8DDA16D43AA52B2842D01102B9E44F0F83FCD0AB68448A99112ECD26E445CCBA21CD9DC75934
311
EB8F547A2DA25690534C3B440822DD2BD91DF2A3F48DB585C9594A46552BA3B2BB391BEDB3643C61F2443A84097E410F1325687F1A2734E001EF1EC761A27BCADA22E62C449F77AE4372CE0882B8165FD6DE5B9CBD3BB754420EA580B3CB17E498B5A5F12774DAD43F421B1B3B5A07DE1501729203DD1AD9B85C3097DB7973
311
2DD7E6DF504B01021400140006080800EB796D576AA24F74D8000000200100004F000000000000000000000000000000000043344343393033442D464343452D343938362D413341362D4145333735464143314641372F4173736574446174612F446566696E6974696F6E4974657261746F7250726F706572746965732E62
311
696E504B01021400140006080800EB796D57ABFE251FFE0000003002000045000000000000000000000000004501000043344343393033442D464343452D343938362D413341362D4145333735464143314641372F4173736574446174612F496E7374616E636550726F706572746965732E62696E504B0102140014000608
311
0800EB796D5728BB58AF800100009E0500003D00000000000000000000000000A602000043344343393033442D464343452D343938362D413341362D4145333735464143314641372F536368656D61732F436F6D6D6F6E536368656D612E786D6C504B01021400140006080800EB796D572CCEBD668A040000E01200003E00
311
0000000000000000000000008104000043344343393033442D464343452D343938362D413341362D4145333735464143314641372F536368656D61732F47656E65726963536368656D612E786D6C504B01021400140006080800EB796D576180134D5F0100006B030000450000000000000000000000000067090000433443
311
43393033442D464343452D343938362D413341362D4145333735464143314641372F536368656D61732F52656E6465724D6174657269616C536368656D612E786D6C504B01021400140006080800EB796D57549DDB8A51000000570000004700000000000000000000000000290B000043344343393033442D464343452D34
311
3938362D413341362D4145333735464143314641372F4173736574446174612F41737365745461626C654F66436F6E74656E74732E62696E504B01021400140006080800EB796D57F865834058000000680000004500000000000000000000000000DF0B000043344343393033442D464343452D343938362D413341362D41
311
45333735464143314641372F4173736574446174612F53747265616D56657273696F6E5461626C652E696E66504B01021400140006080800EB796D574F8B1D57330100009A04000036000000000000000000000000009A0C000043344343393033442D464343452D343938362D413341362D4145333735464143314641372F
311
4173736574446174612F636E782E786D6C504B01021400140006080800EB796D57DEDE4265070100004F0300003400000000000000000000000000210E000043344343393033442D464343452D343938362D413341362D4145333735464143314641372F536368656D61732F636E782E786D6C504B01021400140006080800
311
EB796D57410A3D5871000000A40000002C000000000000000000000000007A0F000043344343393033442D464343452D343938362D413341362D4145333735464143314641372F636E782E786D6C504B01021400140006080800EB796D5763E680267E000000A3000000070000000000000000000000000035100000636E78
311
2E786D6C504B01021400140006080800EB796D5716E99B5DA6000000350100001300000000000000000000000000D81000005B436F6E74656E745F54797065735D2E786D6C504B01021400140006080800EB796D573DEE336E64000000790000001B00000000000000000000000000AF1100006175746F6465736B2D646573
311
69676E2D7061636B6167652E786D6C504B01021400140006080800EB796D575CCCD309F60000009601000037000000000000000000000000004C12000043344343393033442D464343452D343938362D413341362D4145333735464143314641372F4173736574446174612F636F72652E786D6C504B010214001400060808
311
00EB796D5781C12637F50000009401000035000000000000000000000000009713000043344343393033442D464343452D343938362D413341362D4145333735464143314641372F536368656D61732F636F72652E786D6C504B01021400140006080800EB796D57A2189A1B00010000D70100002D00000000000000000000
311
000000DF14000043344343393033442D464343452D343938362D413341362D4145333735464143314641372F636F72652E786D6C504B01021400140006080800EB796D575D1CE97B05010000B201000008000000000000000000000000002A160000636F72652E786D6C504B050600000000110011005A0600005517000000
311
00
310
504B0304140006080800EB796D57000000000000000000000000370000006662782F43374443364346462D363334342D344631452D413935362D3032453745363143463945462F617474726962757465732E62696E504B0304140006080800EB796D57000000000000000000000000350000006662782F4337444336434646
310
2D363334342D344631452D413935362D3032453745363143463945462F76657274696365732E62696E504B0304140006080800EB796D57F270F1330600000004000000360000006662782F43374443364346462D363334342D344631452D413935362D3032453745363143463945462F747269616E676C65732E62696E6366
310
60600000504B0304140006080800EB796D5751464CB48900000043010000360000006662782F43374443364346462D363334342D344631452D413935362D3032453745363143463945462F6469726563746F72792E786D6C9D8F310EC2300C45AF127987122606C71DD918B841D4B851A43646695A717C52A85029031293A5
310
A76FBF6FACEF7DA7264E43906840EF0FA03836E242F406C6DCEE4EA06AC22492573150D1F66C60C640E8938CB705396EEDD86DE9B5042FE27813D640EA63BB001C722AF6E55CB61E4863F58284D5D3F53DD715CE1C3985E63FD7F1B7EBDD617E9F1E504B0304140006080800EB796D5753D228A538070000201C0000340000
310
006662782F43374443364346462D363334342D344631452D413935362D3032453745363143463945462F6F626A656374732E786D6CDD59DB6EDB3810FD1542FBB2FBA09B6FB10BC5456CC78551A42D6A74B16F022DD30E37BA81941267BF7E8714294BB26C2BDD162836011287A186336766CE0C47DEFB4314A267C2384DE2
310
5BC3B51C03913848B634DEDF1A79B633C7067A3F451E4B92ACB2CF40318EC8AD21968DA9B767499EAAA52DD9E13C6CAE2E677F211E909818280831E7B7060F1E49842D9C67C996F0276B8B336CED7707CBB58A8D75B17B86D3C7C651296624CE4055588F418AD2C0ADFF0926D953CF161B6ADB7ADDB6F52F6CB3A5E1754569
310
CC331C07275A35E4F4BA69D577078BFBDE70620E0783BE3918F55C73B69C2D4CF7A6EFCC47F3F9E4EE7E62A0A9B74992B074404AE22D78F1D598BA9E2DFE539AAF5068D33B48E298040ACDB60D5BA2E452C29B98D48075A569158714B65616FA1D8D3FB3AD132835956A686BE3F4EF6AF4269BBF0104DE254A192722CA79C6
310
C0D70AFB221F1CCF2E566B7EA11C4538238CE2108574C3300307C1D6C2413531225B84282430935ED4F2AABA42605FCFA5362D7779188AFC35A632D37CC8479271A919FD87B0A3F6D5D34027B036A7713656C666AF29889878B65C2CFED7EFA97F1640A25D88F7102D60A6D8D4EF35F09A0B2E582D8CE9C7E5E6B016FCD07E
310
78CA9294B04C449E4C669577DA8395D082E0EB004A816BDD774754BE02F49F00F95217E481E7183D0C0E036D3BC331DF252C02EF2007990EFC7090F878F2C9B3CB87A708D5B8F21CA690B63F08D39A19B5B32B904EBD6708FA84F59571EB008710D30F3416790E8182C2049680EF779B83315D0199C2223C8543B01EBE3D5B
310
7C44F0AB90037CD3F0501BFD7670944E98669E1D7DF5016286D1A07455CDC673F80E7F08BE778BF5C775CE7638200F2AB1176447639A41316D57A8067A2DE5BFAD3EC98C3CB1A7B62B8073F689208E16BFAC955F90740CA822EA70E11AB9F24021DDC310C724C9B95A6F23AA200913E66F5EFD22875BCFFA5307417118E4B7
310
8880563283EA1E309A0A508CA932AF6442EB8893E0411580FBC2A9FE06074F025E3F00C6FA1E3D206A316B0ACDA3D4C75192C782BE4FC3BB699AD577E497EB4E7ACEA4379E8CB4B15C8AD7D9A3A9A1545E9C13E1F4CC21F39AB7146B68C9451E0D802DDB2C08A067CA333F497140B3F6586818A13214C0BEA8F296EE763907
310
526F85A5A1B1D57787C8A9FC2C0FB9ACBD3AC4A711DE137F8745856B3DAF0650295C5BD08ACC3E4C38A731E1B2433961AE062A8E054450C4AD96DA128494FB11C9F0F7C49F2C798DF0636417FAD04B65A29BBD1E7D5A41553DCF49149D5B12FBD2FE579FE3280D8B2EED1A066EAF71422BAE426971C433C49B8F33DFD912D9
310
745F935EF282C6B793F4C9778B3F030FC33F1D1E7D0485D61B6AE475CFBAD6D09D88AF3190CA68E8F66FB423AE61A58FCA440F12E6D03505AFFE0BA1FBC76E84D6E91C4EC29D4FC3308FFCA21E642482160C6739EB94AFA3A173E27CC50B8D84A89CB4A32134C89D4953F61EBAFB00AB64F3718E342BC7805134863B5A2743
310
4EAC680D61E90B791F15D7AEEBDE7FBBD4FFCC97D57BCA13797D49D8B655D37A1BA13B30DD3008BA5415AE8C232979EA55932F921797EB380CB410C56FC52D41450823CF540C26E40DA8F5FEC05F70160091AEE56F730619B125DB634F5113A7C61CC6140ED5D2749F5ABDE900D989F2516BBC56825023983660C1B30FE243
310
F81583ABA1F3E3B6EA6AEC627D250A9B058395A31E17647DFEB06E488195CE4F7F111891978604B53A178DDC0551DF56C77EB5214159F46D75E1F1EC318F3631A6A2328AB0C0DBF4DD7B7997BCB5E1A260BBB3496F3872FA666F3E9A9883457F66DEB9837B733EBEBFE9CF17A339341036233CC95940B8DDB31D5FF74E69BC
310
D7815140D7E546015385EB573F1DCF4D07FF8F6F1461B2C1E762F157BD5094ED9E68C81AB9D8F542D14AD49BB775FFEE0951B717B13775CEC5AC4007F8E5B20564A4EB7DF7D6428BD69D44BBCE958AF8C6C27BF6B6F2D36B4C8DD05BEB436D471BE5D7B918664F2D554ADF6E25AFDD0F7A4B773273CC596F7C6F0EE6776373
310
3C7097666F391E0D1637EE7CB13CF66EAA1676AD2BBF04876A652B63349806F324A43094275BB42709DC8060EAD0815F5944B8BCD94003A0CAB87E23D0E1E9E762A69AE14DA89F0E1E310CA6435591F30086A270EBB835D43AFA0DC6A06212298753D613141E15ED06CA19BD352004320AF5C5DAC0384B0E0FA5F4C6B812DC
310
86E3BDB833154F957F1F1F13E840AC1CED2AF774C14559568B4E180EA4F23D01B09D6E48BEDF74AD0EC2197CDCE45969CC71E1688D0241BF10288C83A9DF9382F700C473D92ED7927B6A90749ACC5F8C8342AA9961B697E3F50ADE778B2FB6988CAF3EA334CCF7C29D97EA7D4D9229FA8C302F86501E04863233C5E21E3E7F
310
677F6109BC628AD0924210A0DF0FE3D11FF63C89A2242E96EC3BF5A20AAD1FE1B5D3D6D6233F685C1CE86364DFA3C6FA30B7E2C4C25BFE040BE05A46C56CB480B81600253D5502407B44F8021EABED5F2D902A029516B6DABA0A78E44C1F4122897739226DAA1B2A0348C805D0AA98D3961FF482673318824FFF05504B0304
310
140006080800EB796D572A7A5F763D01000046050000300000006662782F43374443364346462D363334342D344631452D413935362D3032453745363143463945462F636E782E786D6CCD94C14AC43010865FA5E4DE76D3451049B3E0C127F020DED274B6C64D3325998AFBF6266BBA2AB2E26161177208933FF07F333F23
310
36EFA32DDEC00783AE65BC5AB1029CC6DEB8A165336DCB5B566CA4F088F44DC60AA74668592A3329068FF3944B3D6CD56C53D51AB7CB4545E44D3713045668AB426859D02F30AA4ACD843D845DD52B5215AF3C049CBD86F89FCC08F9BFF6A0087A269B55B32E392FF9FA91DFDCC5D334CFA24E4A293A449BF5C611789C0A8D
310
F1E2A29995A8D3B314B33759930898FC725675C6893ABE4B11A25B37641DEDA7A49B266BB4A2D8A61A35019551046A14F5A7588A3AF1FEA07EB87F5A1C14BDF1A009FDFE420DE0A71A703456C524FC8FFF20FC1B1BBBD7887BA9699F84CDB6CE86BAA435C4B8FE9E7F4C917283BDBED01F8D9D3FF3719590D1D787BCF83A13
310
717D587971E86903CA0F504B0304140006080800EB796D574138DD127E000000A30000000B0000006662782F636E782E786D6C4D8CD10AC22018465F45FE7B6B96B906EA08D3F718CD0D99D3B0193D7E1ABBE8EA83C3770EEF3FAB476F9B5E2E0601E4D000B2E11147176601799BF015502F798A71FBBB010AC36A05540C92
310
CF29E6E78E463B0DD957EA5D5876A8DABB62CA18CCCE94626A88C6B7EEC27073D2AD6644994E9B621CAB52E6D72B5BF3F20B504B0304140006080800EB796D57A6D797065F0000008200000007000000636E782E786D6C4DCB3B0E80201045D1AD90E9FD7516806B51190811670C8A61F982B1B0BAC9C97B72CA7B1037C6D3
310
332918DA1E04D2CAC69353902EDB8C20262D23F3F59B81A079470595414B17391D1F19B4730A5583A7ED43BBE4025D9592775E5ADFFA01504B0304140006080800EB796D574FEB6A7CA0000000F4000000130000005B436F6E74656E745F54797065735D2E786D6C7D8F4B0EC2300C44AF1279DFA6B0400835ED02B8011730
310
C16D239A8F121795DB93D02D6269CFBC19BBED573B8B17C564BC53B0AB1B10E4B47F18372A5878A88E20FAAEBDBD032591BD2E299898C349CAA427B2986A1FC86565F0D122E7318E32A07EE24872DF3407A9BD63725C71C980AEBDD080CBCCE2BAE6F5D69B7110E7CD57AA146008B3D1C8F92C5954F993BB1BF787F39A89AB
310
C491D09600F9FDA2FB00504B0304140006080800EB796D573DEE336E64000000790000001B0000006175746F6465736B2D64657369676E2D7061636B6167652E786D6C35CBC10E83200C00D05F21DCA56CA76D41FC96062B120735B69A7DBE268BB7777961F8D5AF396893C2ADB70FE7ADA196782C2DF776D7A97B5933C430
310
F15651E5469C55D70F80A4992A3ADC954792C525AE70A1E4D6AD9816CC044FEFDF01FE3FDE907802504B0304140006080800EB796D57E563EE3AF8000000960100003B0000006662782F43374443364346462D363334342D344631452D413935362D3032453745363143463945462F7265736F75726365732F636F72652E78
310
6D6C8550CB6AC33010FC15B377D996EC3AA1C80AB171BFA0A7DE84BC714462C9E851FAF9951217DA5341B06276667677F8E96BBD179FE8BCB6A6075AD650A05176D666E921860B39427112DC591B7ED1A03072C51E320C822FCEC66D879435014D468D9D7107A5F718A050F7F4E9C1AB2BAEB294312486BF959B5437B96049
310
CB274FF018F5BC4BF59CDCF445A30331BEB51D1B594BDA7377262DED8E64E8D844C67AA80F6C9A86433BF12A8B050F7AFD99AE1CCA80330856B386504A68F34E5F5ED363EC83579929B80F2EDDBC0FCDD78170E86D740A3DAF9EDD3FAE719BFF778DDA8486EDAE4F850741D3928F86E0554E29954784A9E644C537504B0304
310
140006080800EB796D579A97387FF2000000B1010000310000006662782F43374443364346462D363334342D344631452D413935362D3032453745363143463945462F636F72652E786D6C8D504B6EC32014BC8AF5F6D8063B4E1361A2CAB54FD0557708888B1283C5A7EAF10BB12BB5BB48480F0D33CCBCA197EFE55E7C29
310
E7B5353DE0B286421961A536730F315CD10B1417469DB5E10F0D0AC317D5438681D1D9D9B8EE90B02628935163A5DA41EEBD0A50887BBAF4E0C5A75A78C963480C7F2B572E6E7C56252E371EA3412FBF52E1140F4A0223356910C60837EFF8704E87900F5A6526A3316AB95B6999DCF5552B076C38BE0DDD304DA86BDA16B5
310
131ED1EBE9D0A19A8CC7B1C3C3741A275A6531A33EB8B4F3FE49DEEE59F926FC9739AEF289CCDA8486EC869BC203C329CFE381D12A1798C6A3DD3473D9EC07504B0304140006080800EB796D57E968E35252010000DD0200000C0000006662782F636F72652E786D6C8D52CB6E833010FC15E4BB013B945495719444F40B7A
310
EACD310EB502363236CAE7777929E5D0B402616B76677667043BDCDB261A94EBB5350522718A2265A4ADB4A90B14FC15BFA2E8C099B3D6FF68439111AD2AD00823CE6A6743B740D21AAFCC881A5BA905147DAF3C8A64039702F5F24BB52216C143477F8B3B216FA2563189E73ECE42D0D542D515A8E9AB560EF1F37B96D333
310
CD7076CC8F3823F92B3EE5B4C4E7F494EE69599EF659C99291CC99D7ED3A5D3A25BCAA10A729DD614230D97D9097377829FD64C9D8C959EF1D785E868EEE10BF5EEE2C99F18D5EE8AABFF582367E4717BD99D1234E60BDA9C05932E603C714DE3643180CF9797169560B37800625BD7519542A1B1EA541344181741A4D0F4B
310
E62A284F02BFE9D0273ACF352028616A584D78B85E821FA76F77EA94C383BF47C6BA56348FE5E6151FDFC7A08DA5952E6D63DD7FD8ABD535CC64FC31F937504B0304140006080800EB796D577A58A52E07010000B201000008000000636F72652E786D6C8D50416EC32010FC0ADA3BB6C1AE13559828B6DC17F4D41B05E2A2
310
D8601988DADF1712576A6F959016CDCCEECC2E3B7D2E33BAE9CD1B673B204505485BE994B15307315CF011D089B3CDB9F04B06C88A45779061E06CDA5C5C77483A1BB4CDA8754AEFA0F05E0740724E9F0EBCFCD08B28440C49E1AFC52AE4554CBA20C543C75930CB4FABDCB4085A01A715AD312198D4AFE4E9393D4ADF5899
310
959CC568D46E6554723717A337E0C34BD3D28136B839B767DC90F688FB968E78A8FAEA40C7B13F34232B7333673E6C69E77D48CA199017B7ECCBCA07C5D9BB73F32E48A1147276FE025EB132137F42C755FD23B4B1A1A6FBC04787074E52A03B918CF30553B99F37D57C6DFE0D504B01021400140006080800EB796D570000
310
000000000000000000003700000000000000000000000000000000006662782F43374443364346462D363334342D344631452D413935362D3032453745363143463945462F617474726962757465732E62696E504B01021400140006080800EB796D5700000000000000000000000035000000000000000000000000005500
310
00006662782F43374443364346462D363334342D344631452D413935362D3032453745363143463945462F76657274696365732E62696E504B01021400140006080800EB796D57F270F13306000000040000003600000000000000000000000000A80000006662782F43374443364346462D363334342D344631452D413935
310
362D3032453745363143463945462F747269616E676C65732E62696E504B01021400140006080800EB796D5751464CB489000000430100003600000000000000000000000000020100006662782F43374443364346462D363334342D344631452D413935362D3032453745363143463945462F6469726563746F72792E786D
310
6C504B01021400140006080800EB796D5753D228A538070000201C00003400000000000000000000000000DF0100006662782F43374443364346462D363334342D344631452D413935362D3032453745363143463945462F6F626A656374732E786D6C504B01021400140006080800EB796D572A7A5F763D01000046050000
310
3000000000000000000000000000690900006662782F43374443364346462D363334342D344631452D413935362D3032453745363143463945462F636E782E786D6C504B01021400140006080800EB796D574138DD127E000000A30000000B00000000000000000000000000F40A00006662782F636E782E786D6C504B0102
310
1400140006080800EB796D57A6D797065F0000008200000007000000000000000000000000009B0B0000636E782E786D6C504B01021400140006080800EB796D574FEB6A7CA0000000F400000013000000000000000000000000001F0C00005B436F6E74656E745F54797065735D2E786D6C504B01021400140006080800EB
310
796D573DEE336E64000000790000001B00000000000000000000000000F00C00006175746F6465736B2D64657369676E2D7061636B6167652E786D6C504B01021400140006080800EB796D57E563EE3AF8000000960100003B000000000000000000000000008D0D00006662782F43374443364346462D363334342D344631
310
452D413935362D3032453745363143463945462F7265736F75726365732F636F72652E786D6C504B01021400140006080800EB796D579A97387FF2000000B10100003100000000000000000000000000DE0E00006662782F43374443364346462D363334342D344631452D413935362D3032453745363143463945462F636F
310
72652E786D6C504B01021400140006080800EB796D57E968E35252010000DD0200000C000000000000000000000000001F1000006662782F636F72652E786D6C504B01021400140006080800EB796D577A58A52E07010000B201000008000000000000000000000000009B110000636F72652E786D6C504B0506000000000E
310
000E0080040000C81200000000
  0
XRECORD
  5
80E8
102
{ACAD_REACTORS
330
80E3
102
}
330
80E3
100
AcDbXrecord
280
     1
270
     1
271
     1
  0
XRECORD
  5
80E7
102
{ACAD_REACTORS
330
80E3
102
}
330
80E3
100
AcDbXrecord
280
     1
270
     1
271
     1
  0
XRECORD
  5
80E9
102
{ACAD_REACTORS
330
80E3
102
}
330
80E3
100
AcDbXrecord
280
     1
270
     1
271
     1
  0
XRECORD
  5
80E6
102
{ACAD_REACTORS
330
80E3
102
}
330
80E3
100
AcDbXrecord
280
     1
270
     1
271
     1
  0
XRECORD
  5
83C7
102
{ACAD_REACTORS
330
83C6
102
}
330
83C6
100
AcDbXrecord
280
     1
102
DISPLAYNAME
  1
Imperial24
102
FLAGS
 90
        0
  0
CELLSTYLEMAP
  5
838E
102
{ACAD_REACTORS
330
838D
102
}
330
838D
100
AcDbCellStyleMap
 90
        3
300
CELLSTYLE
  1
TABLEFORMAT_BEGIN
 90
        5
170
     1
 91
        0
 92
    32768
 62
   257
 93
        1
300
CONTENTFORMAT
  1
CONTENTFORMAT_BEGIN
 90
        0
 91
        0
 92
      512
 93
        0
300

 40
0.0
140
1.0
 94
        5
 62
     0
340
8116
144
0.25
309
CONTENTFORMAT_END
171
     0
 94
        0
309
TABLEFORMAT_END
  1
CELLSTYLE_BEGIN
 90
        1
 91
        1
300
_TITLE
309
CELLSTYLE_END
300
CELLSTYLE
  1
TABLEFORMAT_BEGIN
 90
        5
170
     1
 91
        0
 92
        0
 62
   257
 93
        1
300
CONTENTFORMAT
  1
CONTENTFORMAT_BEGIN
 90
        0
 91
        0
 92
      512
 93
        0
300

 40
0.0
140
1.0
 94
        5
 62
     0
340
8116
144
0.18
309
CONTENTFORMAT_END
171
     0
 94
        0
309
TABLEFORMAT_END
  1
CELLSTYLE_BEGIN
 90
        2
 91
        1
300
_HEADER
309
CELLSTYLE_END
300
CELLSTYLE
  1
TABLEFORMAT_BEGIN
 90
        5
170
     1
 91
        0
 92
        0
 62
   257
 93
        1
300
CONTENTFORMAT
  1
CONTENTFORMAT_BEGIN
 90
        0
 91
        0
 92
      512
 93
        0
300

 40
0.0
140
1.0
 94
        2
 62
     0
340
8116
144
0.18
309
CONTENTFORMAT_END
171
     0
 94
        0
309
TABLEFORMAT_END
  1
CELLSTYLE_BEGIN
 90
        3
 91
        2
300
_DATA
309
CELLSTYLE_END
  0
XRECORD
  5
83C4
102
{ACAD_REACTORS
330
838D
102
}
330
838D
100
AcDbXrecord
280
     1
102
ACAD_ROUNDTRIP_PRE2007_TABLESTYLE
 90
      512
 91
        0
  1

 92
      512
 93
        0
  2

 94
      512
 95
        0
  3

  0
XRECORD
  5
839F
102
{ACAD_REACTORS
330
839E
102
}
330
839E
100
AcDbXrecord
280
     1
102
RTVSPost2010Prop28
280
     1
102
RTVSPost2010PropOp28
 70
     1
102
RTVSPost2010Prop29
280
     1
102
RTVSPost2010PropOp29
 70
     1
102
RTVSPost2010Prop30
280
     0
102
RTVSPost2010PropOp30
 70
     1
102
RTVSPost2010Prop31
280
     0
102
RTVSPost2010PropOp31
 70
     1
102
RTVSPost2010Prop32
280
     0
102
RTVSPost2010PropOp32
 70
     1
102
RTVSPost2010Prop33
280
     0
102
RTVSPost2010PropOp33
 70
     1
102
RTVSPost2010Prop34
280
     0
102
RTVSPost2010PropOp34
 70
     1
102
RTVSPost2010Prop35
280
     0
102
RTVSPost2010PropOp35
 70
     1
102
RTVSPost2010Prop36
280
     0
102
RTVSPost2010PropOp36
 70
     1
102
RTVSPost2010Prop37
 90
       50
102
RTVSPost2010PropOp37
 70
     1
102
RTVSPost2010Prop38
140
0.0
102
RTVSPost2010PropOp38
 70
     1
102
RTVSPost2010Prop39
140
1.0
102
RTVSPost2010PropOp39
 70
     1
102
RTVSPost2010Prop40
 90
        0
102
RTVSPost2010PropOp40
 70
     1
102
RTVSPost2010Prop41ColorIndex
 90
       18
102
RTVSPost2010Prop41ColorRGB
 90
        0
102
RTVSPost2010PropOp41
 70
     1
102
RTVSPost2010Prop42
 90
       50
102
RTVSPost2010PropOp42
 70
     1
102
RTVSPost2010Prop43
 90
        3
102
RTVSPost2010PropOp43
 70
     1
102
RTVSPost2010Prop44ColorIndex
 90
        5
102
RTVSPost2010Prop44ColorRGB
 90
      255
102
RTVSPost2010PropOp44
 70
     1
102
RTVSPost2010Prop45
280
     0
102
RTVSPost2010PropOp45
 70
     1
102
RTVSPost2010Prop46
 90
       50
102
RTVSPost2010PropOp46
 70
     1
102
RTVSPost2010Prop47
 90
       50
102
RTVSPost2010PropOp47
 70
     1
102
RTVSPost2010Prop48
 90
       50
102
RTVSPost2010PropOp48
 70
     1
102
RTVSPost2010Prop49
280
     0
102
RTVSPost2010PropOp49
 70
     1
102
RTVSPost2010Prop50
 90
       50
102
RTVSPost2010PropOp50
 70
     1
102
RTVSPost2010Prop51ColorIndex
 90
      256
102
RTVSPost2010Prop51ColorRGB
 90
-16777216
102
RTVSPost2010PropOp51
 70
     0
102
RTVSPost2010Prop52
140
1.0
102
RTVSPost2010PropOp52
 70
     0
102
RTVSPost2010Prop53
 90
        2
102
RTVSPost2010PropOp53
 70
     1
102
RTVSPost2010Prop54
  1
strokes_ogs.tif
102
RTVSPost2010PropOp54
 70
     1
102
RTVSPost2010Prop55
280
     0
102
RTVSPost2010PropOp55
 70
     1
102
RTVSPost2010Prop56
140
1.0
102
RTVSPost2010PropOp56
 70
     1
102
RTVSPost2010Prop57
140
1.0
102
RTVSPost2010PropOp57
 70
     1
102
RTVSPropertyOp0
 70
     1
102
RTVSPropertyOp1
 70
     1
102
RTVSPropertyOp2
 70
     1
102
RTVSPropertyOp3
 70
     1
102
RTVSPropertyOp4
 70
     1
102
RTVSPropertyOp5
 70
     1
102
RTVSPropertyOp6
 70
     1
102
RTVSPropertyOp7
 70
     1
102
RTVSPropertyOp8
 70
     1
102
RTVSPropertyOp9
 70
     1
102
RTVSPropertyOp10
 70
     1
102
RTVSPropertyOp11
 70
     1
102
RTVSPropertyOp12
 70
     1
102
RTVSPropertyOp13
 70
     1
102
RTVSPropertyOp14
 70
     1
102
RTVSPropertyOp15
 70
     1
102
RTVSPropertyOp16
 70
     1
102
RTVSPropertyOp17
 70
     1
102
RTVSPropertyOp18
 70
     1
102
RTVSPropertyOp19
 70
     1
102
RTVSPropertyOp20
 70
     1
102
RTVSPropertyOp21
 70
     1
102
RTVSPropertyOp22
 70
     1
102
RTVSPropertyOp23
 70
     1
102
RTVSPropertyOp24
 70
     1
102
RTVSPropertyOp25
 70
     1
102
RTVSPropertyOp26
 70
     1
102
RTVSPropertyOp27
 70
     1
102
RTVSPropertyOp28
 70
     1
102
RTVSPropertyOp29
 70
     1
102
RTVSPropertyOp30
 70
     1
102
RTVSPropertyOp31
 70
     1
102
RTVSPropertyOp32
 70
     1
102
RTVSPropertyOp33
 70
     1
102
RTVSPropertyOp34
 70
     1
102
RTVSPropertyOp35
 70
     1
102
RTVSPropertyOp36
 70
     1
102
RTVSPropertyOp37
 70
     1
102
RTVSPropertyOp38
 70
     1
102
RTVSPropertyOp39
 70
     1
102
RTVSPropertyOp40
 70
     1
102
RTVSPropertyOp41
 70
     1
102
RTVSPropertyOp42
 70
     1
102
RTVSPropertyOp43
 70
     1
102
RTVSPropertyOp44
 70
     1
102
RTVSPropertyOp45
 70
     1
102
RTVSPropertyOp46
 70
     1
102
RTVSPropertyOp47
 70
     1
102
RTVSPropertyOp48
 70
     1
102
RTVSPropertyOp49
 70
     1
102
RTVSPropertyOp50
 70
     1
102
RTVSPropertyOp51
 70
     0
102
RTVSPropertyOp52
 70
     0
102
RTVSPropertyOp53
 70
     1
102
RTVSPropertyOp54
 70
     1
102
RTVSPropertyOp55
 70
     1
102
RTVSPropertyOp56
 70
     1
102
RTVSPropertyOp57
 70
     1
102
RTVSPropertyOp58
 70
     1
102
RTVSPropertyOp59
 70
     1
102
RTVSPropertyOp60
 70
     1
102
RTVSPropertyOp61
 70
     1
102
RTVSPropertyOp62
 70
     1
  0
XRECORD
  5
839D
102
{ACAD_REACTORS
330
839C
102
}
330
839C
100
AcDbXrecord
280
     1
102
RTVSPost2010Prop28
280
     0
102
RTVSPost2010PropOp28
 70
     1
102
RTVSPost2010Prop29
280
     1
102
RTVSPost2010PropOp29
 70
     1
102
RTVSPost2010Prop30
280
     1
102
RTVSPost2010PropOp30
 70
     1
102
RTVSPost2010Prop31
280
     0
102
RTVSPost2010PropOp31
 70
     1
102
RTVSPost2010Prop32
280
     0
102
RTVSPost2010PropOp32
 70
     1
102
RTVSPost2010Prop33
280
     0
102
RTVSPost2010PropOp33
 70
     1
102
RTVSPost2010Prop34
280
     0
102
RTVSPost2010PropOp34
 70
     1
102
RTVSPost2010Prop35
280
     0
102
RTVSPost2010PropOp35
 70
     1
102
RTVSPost2010Prop36
280
     0
102
RTVSPost2010PropOp36
 70
     1
102
RTVSPost2010Prop37
 90
       50
102
RTVSPost2010PropOp37
 70
     1
102
RTVSPost2010Prop38
140
0.0
102
RTVSPost2010PropOp38
 70
     1
102
RTVSPost2010Prop39
140
1.0
102
RTVSPost2010PropOp39
 70
     1
102
RTVSPost2010Prop40
 90
        0
102
RTVSPost2010PropOp40
 70
     1
102
RTVSPost2010Prop41ColorIndex
 90
       18
102
RTVSPost2010Prop41ColorRGB
 90
        0
102
RTVSPost2010PropOp41
 70
     1
102
RTVSPost2010Prop42
 90
       50
102
RTVSPost2010PropOp42
 70
     1
102
RTVSPost2010Prop43
 90
        3
102
RTVSPost2010PropOp43
 70
     1
102
RTVSPost2010Prop44ColorIndex
 90
        5
102
RTVSPost2010Prop44ColorRGB
 90
      255
102
RTVSPost2010PropOp44
 70
     1
102
RTVSPost2010Prop45
280
     0
102
RTVSPost2010PropOp45
 70
     1
102
RTVSPost2010Prop46
 90
       50
102
RTVSPost2010PropOp46
 70
     1
102
RTVSPost2010Prop47
 90
       50
102
RTVSPost2010PropOp47
 70
     1
102
RTVSPost2010Prop48
 90
       50
102
RTVSPost2010PropOp48
 70
     1
102
RTVSPost2010Prop49
280
     0
102
RTVSPost2010PropOp49
 70
     1
102
RTVSPost2010Prop50
 90
       50
102
RTVSPost2010PropOp50
 70
     1
102
RTVSPost2010Prop51ColorIndex
 90
      256
102
RTVSPost2010Prop51ColorRGB
 90
-16777216
102
RTVSPost2010PropOp51
 70
     0
102
RTVSPost2010Prop52
140
1.0
102
RTVSPost2010PropOp52
 70
     0
102
RTVSPost2010Prop53
 90
        2
102
RTVSPost2010PropOp53
 70
     1
102
RTVSPost2010Prop54
  1
strokes_ogs.tif
102
RTVSPost2010PropOp54
 70
     1
102
RTVSPost2010Prop55
280
     0
102
RTVSPost2010PropOp55
 70
     1
102
RTVSPost2010Prop56
140
1.0
102
RTVSPost2010PropOp56
 70
     1
102
RTVSPost2010Prop57
140
1.0
102
RTVSPost2010PropOp57
 70
     1
102
RTVSPropertyOp0
 70
     1
102
RTVSPropertyOp1
 70
     1
102
RTVSPropertyOp2
 70
     1
102
RTVSPropertyOp3
 70
     1
102
RTVSPropertyOp4
 70
     1
102
RTVSPropertyOp5
 70
     1
102
RTVSPropertyOp6
 70
     1
102
RTVSPropertyOp7
 70
     1
102
RTVSPropertyOp8
 70
     1
102
RTVSPropertyOp9
 70
     1
102
RTVSPropertyOp10
 70
     1
102
RTVSPropertyOp11
 70
     1
102
RTVSPropertyOp12
 70
     1
102
RTVSPropertyOp13
 70
     1
102
RTVSPropertyOp14
 70
     1
102
RTVSPropertyOp15
 70
     1
102
RTVSPropertyOp16
 70
     1
102
RTVSPropertyOp17
 70
     1
102
RTVSPropertyOp18
 70
     1
102
RTVSPropertyOp19
 70
     1
102
RTVSPropertyOp20
 70
     1
102
RTVSPropertyOp21
 70
     1
102
RTVSPropertyOp22
 70
     1
102
RTVSPropertyOp23
 70
     1
102
RTVSPropertyOp24
 70
     1
102
RTVSPropertyOp25
 70
     1
102
RTVSPropertyOp26
 70
     1
102
RTVSPropertyOp27
 70
     1
102
RTVSPropertyOp28
 70
     1
102
RTVSPropertyOp29
 70
     1
102
RTVSPropertyOp30
 70
     1
102
RTVSPropertyOp31
 70
     1
102
RTVSPropertyOp32
 70
     1
102
RTVSPropertyOp33
 70
     1
102
RTVSPropertyOp34
 70
     1
102
RTVSPropertyOp35
 70
     1
102
RTVSPropertyOp36
 70
     1
102
RTVSPropertyOp37
 70
     1
102
RTVSPropertyOp38
 70
     1
102
RTVSPropertyOp39
 70
     1
102
RTVSPropertyOp40
 70
     1
102
RTVSPropertyOp41
 70
     1
102
RTVSPropertyOp42
 70
     1
102
RTVSPropertyOp43
 70
     1
102
RTVSPropertyOp44
 70
     1
102
RTVSPropertyOp45
 70
     1
102
RTVSPropertyOp46
 70
     1
102
RTVSPropertyOp47
 70
     1
102
RTVSPropertyOp48
 70
     1
102
RTVSPropertyOp49
 70
     1
102
RTVSPropertyOp50
 70
     1
102
RTVSPropertyOp51
 70
     0
102
RTVSPropertyOp52
 70
     0
102
RTVSPropertyOp53
 70
     1
102
RTVSPropertyOp54
 70
     1
102
RTVSPropertyOp55
 70
     1
102
RTVSPropertyOp56
 70
     1
102
RTVSPropertyOp57
 70
     1
102
RTVSPropertyOp58
 70
     1
102
RTVSPropertyOp59
 70
     1
102
RTVSPropertyOp60
 70
     1
102
RTVSPropertyOp61
 70
     1
102
RTVSPropertyOp62
 70
     1
  0
XRECORD
  5
83AB
102
{ACAD_REACTORS
330
83AA
102
}
330
83AA
100
AcDbXrecord
280
     1
102
RTVSPost2010Prop28
280
     0
102
RTVSPost2010PropOp28
 70
     1
102
RTVSPost2010Prop29
280
     1
102
RTVSPost2010PropOp29
 70
     1
102
RTVSPost2010Prop30
280
     1
102
RTVSPost2010PropOp30
 70
     1
102
RTVSPost2010Prop31
280
     0
102
RTVSPost2010PropOp31
 70
     1
102
RTVSPost2010Prop32
280
     0
102
RTVSPost2010PropOp32
 70
     1
102
RTVSPost2010Prop33
280
     0
102
RTVSPost2010PropOp33
 70
     1
102
RTVSPost2010Prop34
280
     0
102
RTVSPost2010PropOp34
 70
     1
102
RTVSPost2010Prop35
280
     0
102
RTVSPost2010PropOp35
 70
     1
102
RTVSPost2010Prop36
280
     0
102
RTVSPost2010PropOp36
 70
     1
102
RTVSPost2010Prop37
 90
       50
102
RTVSPost2010PropOp37
 70
     1
102
RTVSPost2010Prop38
140
0.0
102
RTVSPost2010PropOp38
 70
     1
102
RTVSPost2010Prop39
140
1.0
102
RTVSPost2010PropOp39
 70
     1
102
RTVSPost2010Prop40
 90
        0
102
RTVSPost2010PropOp40
 70
     1
102
RTVSPost2010Prop41ColorIndex
 90
       18
102
RTVSPost2010Prop41ColorRGB
 90
        0
102
RTVSPost2010PropOp41
 70
     1
102
RTVSPost2010Prop42
 90
       50
102
RTVSPost2010PropOp42
 70
     1
102
RTVSPost2010Prop43
 90
        3
102
RTVSPost2010PropOp43
 70
     1
102
RTVSPost2010Prop44ColorIndex
 90
        5
102
RTVSPost2010Prop44ColorRGB
 90
      255
102
RTVSPost2010PropOp44
 70
     1
102
RTVSPost2010Prop45
280
     0
102
RTVSPost2010PropOp45
 70
     1
102
RTVSPost2010Prop46
 90
       50
102
RTVSPost2010PropOp46
 70
     1
102
RTVSPost2010Prop47
 90
       50
102
RTVSPost2010PropOp47
 70
     1
102
RTVSPost2010Prop48
 90
       50
102
RTVSPost2010PropOp48
 70
     1
102
RTVSPost2010Prop49
280
     0
102
RTVSPost2010PropOp49
 70
     1
102
RTVSPost2010Prop50
 90
       50
102
RTVSPost2010PropOp50
 70
     1
102
RTVSPost2010Prop51ColorIndex
 90
      256
102
RTVSPost2010Prop51ColorRGB
 90
-16777216
102
RTVSPost2010PropOp51
 70
     0
102
RTVSPost2010Prop52
140
1.0
102
RTVSPost2010PropOp52
 70
     0
102
RTVSPost2010Prop53
 90
        2
102
RTVSPost2010PropOp53
 70
     1
102
RTVSPost2010Prop54
  1
strokes_ogs.tif
102
RTVSPost2010PropOp54
 70
     1
102
RTVSPost2010Prop55
280
     0
102
RTVSPost2010PropOp55
 70
     1
102
RTVSPost2010Prop56
140
1.0
102
RTVSPost2010PropOp56
 70
     1
102
RTVSPost2010Prop57
140
1.0
102
RTVSPost2010PropOp57
 70
     1
102
RTVSPropertyOp0
 70
     1
102
RTVSPropertyOp1
 70
     1
102
RTVSPropertyOp2
 70
     1
102
RTVSPropertyOp3
 70
     1
102
RTVSPropertyOp4
 70
     1
102
RTVSPropertyOp5
 70
     1
102
RTVSPropertyOp6
 70
     1
102
RTVSPropertyOp7
 70
     1
102
RTVSPropertyOp8
 70
     1
102
RTVSPropertyOp9
 70
     1
102
RTVSPropertyOp10
 70
     1
102
RTVSPropertyOp11
 70
     1
102
RTVSPropertyOp12
 70
     1
102
RTVSPropertyOp13
 70
     1
102
RTVSPropertyOp14
 70
     1
102
RTVSPropertyOp15
 70
     1
102
RTVSPropertyOp16
 70
     1
102
RTVSPropertyOp17
 70
     1
102
RTVSPropertyOp18
 70
     1
102
RTVSPropertyOp19
 70
     1
102
RTVSPropertyOp20
 70
     1
102
RTVSPropertyOp21
 70
     1
102
RTVSPropertyOp22
 70
     1
102
RTVSPropertyOp23
 70
     1
102
RTVSPropertyOp24
 70
     1
102
RTVSPropertyOp25
 70
     1
102
RTVSPropertyOp26
 70
     1
102
RTVSPropertyOp27
 70
     1
102
RTVSPropertyOp28
 70
     1
102
RTVSPropertyOp29
 70
     1
102
RTVSPropertyOp30
 70
     1
102
RTVSPropertyOp31
 70
     1
102
RTVSPropertyOp32
 70
     1
102
RTVSPropertyOp33
 70
     1
102
RTVSPropertyOp34
 70
     1
102
RTVSPropertyOp35
 70
     1
102
RTVSPropertyOp36
 70
     1
102
RTVSPropertyOp37
 70
     1
102
RTVSPropertyOp38
 70
     1
102
RTVSPropertyOp39
 70
     1
102
RTVSPropertyOp40
 70
     1
102
RTVSPropertyOp41
 70
     1
102
RTVSPropertyOp42
 70
     1
102
RTVSPropertyOp43
 70
     1
102
RTVSPropertyOp44
 70
     1
102
RTVSPropertyOp45
 70
     1
102
RTVSPropertyOp46
 70
     1
102
RTVSPropertyOp47
 70
     1
102
RTVSPropertyOp48
 70
     1
102
RTVSPropertyOp49
 70
     1
102
RTVSPropertyOp50
 70
     1
102
RTVSPropertyOp51
 70
     0
102
RTVSPropertyOp52
 70
     0
102
RTVSPropertyOp53
 70
     1
102
RTVSPropertyOp54
 70
     1
102
RTVSPropertyOp55
 70
     1
102
RTVSPropertyOp56
 70
     1
102
RTVSPropertyOp57
 70
     1
102
RTVSPropertyOp58
 70
     1
102
RTVSPropertyOp59
 70
     1
102
RTVSPropertyOp60
 70
     1
102
RTVSPropertyOp61
 70
     1
102
RTVSPropertyOp62
 70
     1
  0
XRECORD
  5
83B3
102
{ACAD_REACTORS
330
83B2
102
}
330
83B2
100
AcDbXrecord
280
     1
102
RTVSPost2010Prop28
280
     0
102
RTVSPost2010PropOp28
 70
     1
102
RTVSPost2010Prop29
280
     1
102
RTVSPost2010PropOp29
 70
     1
102
RTVSPost2010Prop30
280
     1
102
RTVSPost2010PropOp30
 70
     1
102
RTVSPost2010Prop31
280
     0
102
RTVSPost2010PropOp31
 70
     1
102
RTVSPost2010Prop32
280
     0
102
RTVSPost2010PropOp32
 70
     1
102
RTVSPost2010Prop33
280
     0
102
RTVSPost2010PropOp33
 70
     1
102
RTVSPost2010Prop34
280
     0
102
RTVSPost2010PropOp34
 70
     1
102
RTVSPost2010Prop35
280
     0
102
RTVSPost2010PropOp35
 70
     1
102
RTVSPost2010Prop36
280
     0
102
RTVSPost2010PropOp36
 70
     1
102
RTVSPost2010Prop37
 90
       50
102
RTVSPost2010PropOp37
 70
     1
102
RTVSPost2010Prop38
140
0.0
102
RTVSPost2010PropOp38
 70
     1
102
RTVSPost2010Prop39
140
1.0
102
RTVSPost2010PropOp39
 70
     1
102
RTVSPost2010Prop40
 90
        0
102
RTVSPost2010PropOp40
 70
     1
102
RTVSPost2010Prop41ColorIndex
 90
       18
102
RTVSPost2010Prop41ColorRGB
 90
        0
102
RTVSPost2010PropOp41
 70
     1
102
RTVSPost2010Prop42
 90
       50
102
RTVSPost2010PropOp42
 70
     1
102
RTVSPost2010Prop43
 90
        3
102
RTVSPost2010PropOp43
 70
     1
102
RTVSPost2010Prop44ColorIndex
 90
        5
102
RTVSPost2010Prop44ColorRGB
 90
      255
102
RTVSPost2010PropOp44
 70
     1
102
RTVSPost2010Prop45
280
     0
102
RTVSPost2010PropOp45
 70
     1
102
RTVSPost2010Prop46
 90
       50
102
RTVSPost2010PropOp46
 70
     1
102
RTVSPost2010Prop47
 90
       50
102
RTVSPost2010PropOp47
 70
     1
102
RTVSPost2010Prop48
 90
       50
102
RTVSPost2010PropOp48
 70
     1
102
RTVSPost2010Prop49
280
     0
102
RTVSPost2010PropOp49
 70
     1
102
RTVSPost2010Prop50
 90
       50
102
RTVSPost2010PropOp50
 70
     1
102
RTVSPost2010Prop51ColorIndex
 90
      256
102
RTVSPost2010Prop51ColorRGB
 90
-16777216
102
RTVSPost2010PropOp51
 70
     0
102
RTVSPost2010Prop52
140
1.0
102
RTVSPost2010PropOp52
 70
     0
102
RTVSPost2010Prop53
 90
        2
102
RTVSPost2010PropOp53
 70
     1
102
RTVSPost2010Prop54
  1
strokes_ogs.tif
102
RTVSPost2010PropOp54
 70
     1
102
RTVSPost2010Prop55
280
     0
102
RTVSPost2010PropOp55
 70
     1
102
RTVSPost2010Prop56
140
1.0
102
RTVSPost2010PropOp56
 70
     1
102
RTVSPost2010Prop57
140
1.0
102
RTVSPost2010PropOp57
 70
     1
102
RTVSPropertyOp0
 70
     1
102
RTVSPropertyOp1
 70
     1
102
RTVSPropertyOp2
 70
     1
102
RTVSPropertyOp3
 70
     1
102
RTVSPropertyOp4
 70
     1
102
RTVSPropertyOp5
 70
     1
102
RTVSPropertyOp6
 70
     1
102
RTVSPropertyOp7
 70
     1
102
RTVSPropertyOp8
 70
     1
102
RTVSPropertyOp9
 70
     1
102
RTVSPropertyOp10
 70
     1
102
RTVSPropertyOp11
 70
     1
102
RTVSPropertyOp12
 70
     1
102
RTVSPropertyOp13
 70
     1
102
RTVSPropertyOp14
 70
     1
102
RTVSPropertyOp15
 70
     1
102
RTVSPropertyOp16
 70
     1
102
RTVSPropertyOp17
 70
     1
102
RTVSPropertyOp18
 70
     1
102
RTVSPropertyOp19
 70
     1
102
RTVSPropertyOp20
 70
     1
102
RTVSPropertyOp21
 70
     1
102
RTVSPropertyOp22
 70
     1
102
RTVSPropertyOp23
 70
     1
102
RTVSPropertyOp24
 70
     1
102
RTVSPropertyOp25
 70
     1
102
RTVSPropertyOp26
 70
     1
102
RTVSPropertyOp27
 70
     1
102
RTVSPropertyOp28
 70
     1
102
RTVSPropertyOp29
 70
     1
102
RTVSPropertyOp30
 70
     1
102
RTVSPropertyOp31
 70
     1
102
RTVSPropertyOp32
 70
     1
102
RTVSPropertyOp33
 70
     1
102
RTVSPropertyOp34
 70
     1
102
RTVSPropertyOp35
 70
     1
102
RTVSPropertyOp36
 70
     1
102
RTVSPropertyOp37
 70
     1
102
RTVSPropertyOp38
 70
     1
102
RTVSPropertyOp39
 70
     1
102
RTVSPropertyOp40
 70
     1
102
RTVSPropertyOp41
 70
     1
102
RTVSPropertyOp42
 70
     1
102
RTVSPropertyOp43
 70
     1
102
RTVSPropertyOp44
 70
     1
102
RTVSPropertyOp45
 70
     1
102
RTVSPropertyOp46
 70
     1
102
RTVSPropertyOp47
 70
     1
102
RTVSPropertyOp48
 70
     1
102
RTVSPropertyOp49
 70
     1
102
RTVSPropertyOp50
 70
     1
102
RTVSPropertyOp51
 70
     0
102
RTVSPropertyOp52
 70
     0
102
RTVSPropertyOp53
 70
     1
102
RTVSPropertyOp54
 70
     1
102
RTVSPropertyOp55
 70
     1
102
RTVSPropertyOp56
 70
     1
102
RTVSPropertyOp57
 70
     1
102
RTVSPropertyOp58
 70
     1
102
RTVSPropertyOp59
 70
     1
102
RTVSPropertyOp60
 70
     1
102
RTVSPropertyOp61
 70
     1
102
RTVSPropertyOp62
 70
     1
  0
XRECORD
  5
83A5
102
{ACAD_REACTORS
330
83A4
102
}
330
83A4
100
AcDbXrecord
280
     1
102
RTVSPost2010Prop28
280
     0
102
RTVSPost2010PropOp28
 70
     1
102
RTVSPost2010Prop29
280
     1
102
RTVSPost2010PropOp29
 70
     1
102
RTVSPost2010Prop30
280
     1
102
RTVSPost2010PropOp30
 70
     1
102
RTVSPost2010Prop31
280
     0
102
RTVSPost2010PropOp31
 70
     1
102
RTVSPost2010Prop32
280
     0
102
RTVSPost2010PropOp32
 70
     1
102
RTVSPost2010Prop33
280
     0
102
RTVSPost2010PropOp33
 70
     1
102
RTVSPost2010Prop34
280
     0
102
RTVSPost2010PropOp34
 70
     1
102
RTVSPost2010Prop35
280
     0
102
RTVSPost2010PropOp35
 70
     1
102
RTVSPost2010Prop36
280
     0
102
RTVSPost2010PropOp36
 70
     1
102
RTVSPost2010Prop37
 90
       50
102
RTVSPost2010PropOp37
 70
     1
102
RTVSPost2010Prop38
140
0.0
102
RTVSPost2010PropOp38
 70
     1
102
RTVSPost2010Prop39
140
1.0
102
RTVSPost2010PropOp39
 70
     1
102
RTVSPost2010Prop40
 90
        0
102
RTVSPost2010PropOp40
 70
     1
102
RTVSPost2010Prop41ColorIndex
 90
       18
102
RTVSPost2010Prop41ColorRGB
 90
        0
102
RTVSPost2010PropOp41
 70
     1
102
RTVSPost2010Prop42
 90
       50
102
RTVSPost2010PropOp42
 70
     1
102
RTVSPost2010Prop43
 90
        3
102
RTVSPost2010PropOp43
 70
     1
102
RTVSPost2010Prop44ColorIndex
 90
        5
102
RTVSPost2010Prop44ColorRGB
 90
      255
102
RTVSPost2010PropOp44
 70
     1
102
RTVSPost2010Prop45
280
     0
102
RTVSPost2010PropOp45
 70
     1
102
RTVSPost2010Prop46
 90
       50
102
RTVSPost2010PropOp46
 70
     1
102
RTVSPost2010Prop47
 90
       50
102
RTVSPost2010PropOp47
 70
     1
102
RTVSPost2010Prop48
 90
       50
102
RTVSPost2010PropOp48
 70
     1
102
RTVSPost2010Prop49
280
     0
102
RTVSPost2010PropOp49
 70
     1
102
RTVSPost2010Prop50
 90
       50
102
RTVSPost2010PropOp50
 70
     1
102
RTVSPost2010Prop51ColorIndex
 90
      256
102
RTVSPost2010Prop51ColorRGB
 90
-16777216
102
RTVSPost2010PropOp51
 70
     0
102
RTVSPost2010Prop52
140
1.0
102
RTVSPost2010PropOp52
 70
     0
102
RTVSPost2010Prop53
 90
        2
102
RTVSPost2010PropOp53
 70
     1
102
RTVSPost2010Prop54
  1
strokes_ogs.tif
102
RTVSPost2010PropOp54
 70
     1
102
RTVSPost2010Prop55
280
     0
102
RTVSPost2010PropOp55
 70
     1
102
RTVSPost2010Prop56
140
1.0
102
RTVSPost2010PropOp56
 70
     1
102
RTVSPost2010Prop57
140
1.0
102
RTVSPost2010PropOp57
 70
     1
102
RTVSPropertyOp0
 70
     1
102
RTVSPropertyOp1
 70
     1
102
RTVSPropertyOp2
 70
     1
102
RTVSPropertyOp3
 70
     1
102
RTVSPropertyOp4
 70
     1
102
RTVSPropertyOp5
 70
     1
102
RTVSPropertyOp6
 70
     1
102
RTVSPropertyOp7
 70
     1
102
RTVSPropertyOp8
 70
     1
102
RTVSPropertyOp9
 70
     1
102
RTVSPropertyOp10
 70
     1
102
RTVSPropertyOp11
 70
     1
102
RTVSPropertyOp12
 70
     1
102
RTVSPropertyOp13
 70
     1
102
RTVSPropertyOp14
 70
     1
102
RTVSPropertyOp15
 70
     1
102
RTVSPropertyOp16
 70
     1
102
RTVSPropertyOp17
 70
     1
102
RTVSPropertyOp18
 70
     1
102
RTVSPropertyOp19
 70
     1
102
RTVSPropertyOp20
 70
     1
102
RTVSPropertyOp21
 70
     1
102
RTVSPropertyOp22
 70
     1
102
RTVSPropertyOp23
 70
     1
102
RTVSPropertyOp24
 70
     1
102
RTVSPropertyOp25
 70
     1
102
RTVSPropertyOp26
 70
     1
102
RTVSPropertyOp27
 70
     1
102
RTVSPropertyOp28
 70
     1
102
RTVSPropertyOp29
 70
     1
102
RTVSPropertyOp30
 70
     1
102
RTVSPropertyOp31
 70
     1
102
RTVSPropertyOp32
 70
     1
102
RTVSPropertyOp33
 70
     1
102
RTVSPropertyOp34
 70
     1
102
RTVSPropertyOp35
 70
     1
102
RTVSPropertyOp36
 70
     1
102
RTVSPropertyOp37
 70
     1
102
RTVSPropertyOp38
 70
     1
102
RTVSPropertyOp39
 70
     1
102
RTVSPropertyOp40
 70
     1
102
RTVSPropertyOp41
 70
     1
102
RTVSPropertyOp42
 70
     1
102
RTVSPropertyOp43
 70
     1
102
RTVSPropertyOp44
 70
     1
102
RTVSPropertyOp45
 70
     1
102
RTVSPropertyOp46
 70
     1
102
RTVSPropertyOp47
 70
     1
102
RTVSPropertyOp48
 70
     1
102
RTVSPropertyOp49
 70
     1
102
RTVSPropertyOp50
 70
     1
102
RTVSPropertyOp51
 70
     0
102
RTVSPropertyOp52
 70
     0
102
RTVSPropertyOp53
 70
     1
102
RTVSPropertyOp54
 70
     1
102
RTVSPropertyOp55
 70
     1
102
RTVSPropertyOp56
 70
     1
102
RTVSPropertyOp57
 70
     1
102
RTVSPropertyOp58
 70
     1
102
RTVSPropertyOp59
 70
     1
102
RTVSPropertyOp60
 70
     1
102
RTVSPropertyOp61
 70
     1
102
RTVSPropertyOp62
 70
     1
  0
XRECORD
  5
83A9
102
{ACAD_REACTORS
330
83A8
102
}
330
83A8
100
AcDbXrecord
280
     1
102
RTVSPost2010Prop28
280
     0
102
RTVSPost2010PropOp28
 70
     1
102
RTVSPost2010Prop29
280
     1
102
RTVSPost2010PropOp29
 70
     1
102
RTVSPost2010Prop30
280
     1
102
RTVSPost2010PropOp30
 70
     1
102
RTVSPost2010Prop31
280
     0
102
RTVSPost2010PropOp31
 70
     1
102
RTVSPost2010Prop32
280
     0
102
RTVSPost2010PropOp32
 70
     1
102
RTVSPost2010Prop33
280
     0
102
RTVSPost2010PropOp33
 70
     1
102
RTVSPost2010Prop34
280
     0
102
RTVSPost2010PropOp34
 70
     1
102
RTVSPost2010Prop35
280
     0
102
RTVSPost2010PropOp35
 70
     1
102
RTVSPost2010Prop36
280
     0
102
RTVSPost2010PropOp36
 70
     1
102
RTVSPost2010Prop37
 90
       50
102
RTVSPost2010PropOp37
 70
     1
102
RTVSPost2010Prop38
140
0.0
102
RTVSPost2010PropOp38
 70
     1
102
RTVSPost2010Prop39
140
1.0
102
RTVSPost2010PropOp39
 70
     1
102
RTVSPost2010Prop40
 90
        0
102
RTVSPost2010PropOp40
 70
     1
102
RTVSPost2010Prop41ColorIndex
 90
       18
102
RTVSPost2010Prop41ColorRGB
 90
        0
102
RTVSPost2010PropOp41
 70
     1
102
RTVSPost2010Prop42
 90
       50
102
RTVSPost2010PropOp42
 70
     1
102
RTVSPost2010Prop43
 90
        3
102
RTVSPost2010PropOp43
 70
     1
102
RTVSPost2010Prop44ColorIndex
 90
        5
102
RTVSPost2010Prop44ColorRGB
 90
      255
102
RTVSPost2010PropOp44
 70
     1
102
RTVSPost2010Prop45
280
     0
102
RTVSPost2010PropOp45
 70
     1
102
RTVSPost2010Prop46
 90
       50
102
RTVSPost2010PropOp46
 70
     1
102
RTVSPost2010Prop47
 90
       50
102
RTVSPost2010PropOp47
 70
     1
102
RTVSPost2010Prop48
 90
       50
102
RTVSPost2010PropOp48
 70
     1
102
RTVSPost2010Prop49
280
     0
102
RTVSPost2010PropOp49
 70
     1
102
RTVSPost2010Prop50
 90
       50
102
RTVSPost2010PropOp50
 70
     1
102
RTVSPost2010Prop51ColorIndex
 90
      256
102
RTVSPost2010Prop51ColorRGB
 90
-16777216
102
RTVSPost2010PropOp51
 70
     0
102
RTVSPost2010Prop52
140
1.0
102
RTVSPost2010PropOp52
 70
     0
102
RTVSPost2010Prop53
 90
        2
102
RTVSPost2010PropOp53
 70
     1
102
RTVSPost2010Prop54
  1
strokes_ogs.tif
102
RTVSPost2010PropOp54
 70
     1
102
RTVSPost2010Prop55
280
     0
102
RTVSPost2010PropOp55
 70
     1
102
RTVSPost2010Prop56
140
1.0
102
RTVSPost2010PropOp56
 70
     1
102
RTVSPost2010Prop57
140
1.0
102
RTVSPost2010PropOp57
 70
     1
102
RTVSPropertyOp0
 70
     1
102
RTVSPropertyOp1
 70
     1
102
RTVSPropertyOp2
 70
     1
102
RTVSPropertyOp3
 70
     1
102
RTVSPropertyOp4
 70
     1
102
RTVSPropertyOp5
 70
     1
102
RTVSPropertyOp6
 70
     1
102
RTVSPropertyOp7
 70
     1
102
RTVSPropertyOp8
 70
     1
102
RTVSPropertyOp9
 70
     1
102
RTVSPropertyOp10
 70
     1
102
RTVSPropertyOp11
 70
     1
102
RTVSPropertyOp12
 70
     1
102
RTVSPropertyOp13
 70
     1
102
RTVSPropertyOp14
 70
     1
102
RTVSPropertyOp15
 70
     1
102
RTVSPropertyOp16
 70
     1
102
RTVSPropertyOp17
 70
     1
102
RTVSPropertyOp18
 70
     1
102
RTVSPropertyOp19
 70
     1
102
RTVSPropertyOp20
 70
     1
102
RTVSPropertyOp21
 70
     1
102
RTVSPropertyOp22
 70
     1
102
RTVSPropertyOp23
 70
     1
102
RTVSPropertyOp24
 70
     1
102
RTVSPropertyOp25
 70
     1
102
RTVSPropertyOp26
 70
     1
102
RTVSPropertyOp27
 70
     1
102
RTVSPropertyOp28
 70
     1
102
RTVSPropertyOp29
 70
     1
102
RTVSPropertyOp30
 70
     1
102
RTVSPropertyOp31
 70
     1
102
RTVSPropertyOp32
 70
     1
102
RTVSPropertyOp33
 70
     1
102
RTVSPropertyOp34
 70
     1
102
RTVSPropertyOp35
 70
     1
102
RTVSPropertyOp36
 70
     1
102
RTVSPropertyOp37
 70
     1
102
RTVSPropertyOp38
 70
     1
102
RTVSPropertyOp39
 70
     1
102
RTVSPropertyOp40
 70
     1
102
RTVSPropertyOp41
 70
     1
102
RTVSPropertyOp42
 70
     1
102
RTVSPropertyOp43
 70
     1
102
RTVSPropertyOp44
 70
     1
102
RTVSPropertyOp45
 70
     1
102
RTVSPropertyOp46
 70
     1
102
RTVSPropertyOp47
 70
     1
102
RTVSPropertyOp48
 70
     1
102
RTVSPropertyOp49
 70
     1
102
RTVSPropertyOp50
 70
     1
102
RTVSPropertyOp51
 70
     0
102
RTVSPropertyOp52
 70
     0
102
RTVSPropertyOp53
 70
     1
102
RTVSPropertyOp54
 70
     1
102
RTVSPropertyOp55
 70
     1
102
RTVSPropertyOp56
 70
     1
102
RTVSPropertyOp57
 70
     1
102
RTVSPropertyOp58
 70
     1
102
RTVSPropertyOp59
 70
     1
102
RTVSPropertyOp60
 70
     1
102
RTVSPropertyOp61
 70
     1
102
RTVSPropertyOp62
 70
     1
  0
XRECORD
  5
83C3
102
{ACAD_REACTORS
330
83C2
102
}
330
83C2
100
AcDbXrecord
280
     1
102
RTVSPost2010Prop28
280
     0
102
RTVSPost2010PropOp28
 70
     1
102
RTVSPost2010Prop29
280
     1
102
RTVSPost2010PropOp29
 70
     1
102
RTVSPost2010Prop30
280
     1
102
RTVSPost2010PropOp30
 70
     1
102
RTVSPost2010Prop31
280
     0
102
RTVSPost2010PropOp31
 70
     1
102
RTVSPost2010Prop32
280
     0
102
RTVSPost2010PropOp32
 70
     1
102
RTVSPost2010Prop33
280
     0
102
RTVSPost2010PropOp33
 70
     1
102
RTVSPost2010Prop34
280
     0
102
RTVSPost2010PropOp34
 70
     1
102
RTVSPost2010Prop35
280
     0
102
RTVSPost2010PropOp35
 70
     1
102
RTVSPost2010Prop36
280
     0
102
RTVSPost2010PropOp36
 70
     1
102
RTVSPost2010Prop37
 90
       50
102
RTVSPost2010PropOp37
 70
     0
102
RTVSPost2010Prop38
140
0.0
102
RTVSPost2010PropOp38
 70
     0
102
RTVSPost2010Prop39
140
1.0
102
RTVSPost2010PropOp39
 70
     0
102
RTVSPost2010Prop40
 90
        0
102
RTVSPost2010PropOp40
 70
     0
102
RTVSPost2010Prop41ColorIndex
 90
       18
102
RTVSPost2010Prop41ColorRGB
 90
        0
102
RTVSPost2010PropOp41
 70
     0
102
RTVSPost2010Prop42
 90
       50
102
RTVSPost2010PropOp42
 70
     0
102
RTVSPost2010Prop43
 90
        3
102
RTVSPost2010PropOp43
 70
     0
102
RTVSPost2010Prop44ColorIndex
 90
        5
102
RTVSPost2010Prop44ColorRGB
 90
      255
102
RTVSPost2010PropOp44
 70
     0
102
RTVSPost2010Prop45
280
     0
102
RTVSPost2010PropOp45
 70
     1
102
RTVSPost2010Prop46
 90
       50
102
RTVSPost2010PropOp46
 70
     0
102
RTVSPost2010Prop47
 90
       50
102
RTVSPost2010PropOp47
 70
     0
102
RTVSPost2010Prop48
 90
       50
102
RTVSPost2010PropOp48
 70
     0
102
RTVSPost2010Prop49
280
     0
102
RTVSPost2010PropOp49
 70
     1
102
RTVSPost2010Prop50
 90
       50
102
RTVSPost2010PropOp50
 70
     0
102
RTVSPost2010Prop51ColorIndex
 90
      256
102
RTVSPost2010Prop51ColorRGB
 90
-16777216
102
RTVSPost2010PropOp51
 70
     0
102
RTVSPost2010Prop52
140
1.0
102
RTVSPost2010PropOp52
 70
     0
102
RTVSPost2010Prop53
 90
        2
102
RTVSPost2010PropOp53
 70
     0
102
RTVSPost2010Prop54
  1
strokes_ogs.tif
102
RTVSPost2010PropOp54
 70
     0
102
RTVSPost2010Prop55
280
     0
102
RTVSPost2010PropOp55
 70
     1
102
RTVSPost2010Prop56
140
1.0
102
RTVSPost2010PropOp56
 70
     0
102
RTVSPost2010Prop57
140
1.0
102
RTVSPost2010PropOp57
 70
     0
102
RTVSPropertyOp0
 70
     0
102
RTVSPropertyOp1
 70
     0
102
RTVSPropertyOp2
 70
     0
102
RTVSPropertyOp3
 70
     0
102
RTVSPropertyOp4
 70
     0
102
RTVSPropertyOp5
 70
     0
102
RTVSPropertyOp6
 70
     0
102
RTVSPropertyOp7
 70
     0
102
RTVSPropertyOp8
 70
     0
102
RTVSPropertyOp9
 70
     0
102
RTVSPropertyOp10
 70
     0
102
RTVSPropertyOp11
 70
     0
102
RTVSPropertyOp12
 70
     0
102
RTVSPropertyOp13
 70
     0
102
RTVSPropertyOp14
 70
     2
102
RTVSPropertyOp15
 70
     0
102
RTVSPropertyOp16
 70
     0
102
RTVSPropertyOp17
 70
     0
102
RTVSPropertyOp18
 70
     0
102
RTVSPropertyOp19
 70
     0
102
RTVSPropertyOp20
 70
     0
102
RTVSPropertyOp21
 70
     0
102
RTVSPropertyOp22
 70
     0
102
RTVSPropertyOp23
 70
     0
102
RTVSPropertyOp24
 70
     0
102
RTVSPropertyOp25
 70
     0
102
RTVSPropertyOp26
 70
     0
102
RTVSPropertyOp27
 70
     0
102
RTVSPropertyOp28
 70
     1
102
RTVSPropertyOp29
 70
     1
102
RTVSPropertyOp30
 70
     1
102
RTVSPropertyOp31
 70
     1
102
RTVSPropertyOp32
 70
     1
102
RTVSPropertyOp33
 70
     1
102
RTVSPropertyOp34
 70
     1
102
RTVSPropertyOp35
 70
     1
102
RTVSPropertyOp36
 70
     1
102
RTVSPropertyOp37
 70
     0
102
RTVSPropertyOp38
 70
     0
102
RTVSPropertyOp39
 70
     0
102
RTVSPropertyOp40
 70
     0
102
RTVSPropertyOp41
 70
     0
102
RTVSPropertyOp42
 70
     0
102
RTVSPropertyOp43
 70
     0
102
RTVSPropertyOp44
 70
     0
102
RTVSPropertyOp45
 70
     1
102
RTVSPropertyOp46
 70
     0
102
RTVSPropertyOp47
 70
     0
102
RTVSPropertyOp48
 70
     0
102
RTVSPropertyOp49
 70
     1
102
RTVSPropertyOp50
 70
     0
102
RTVSPropertyOp51
 70
     0
102
RTVSPropertyOp52
 70
     0
102
RTVSPropertyOp53
 70
     0
102
RTVSPropertyOp54
 70
     0
102
RTVSPropertyOp55
 70
     1
102
RTVSPropertyOp56
 70
     0
102
RTVSPropertyOp57
 70
     0
102
RTVSPropertyOp58
 70
     0
102
RTVSPropertyOp59
 70
     0
102
RTVSPropertyOp60
 70
     0
102
RTVSPropertyOp61
 70
     0
102
RTVSPropertyOp62
 70
     0
  0
XRECORD
  5
83B1
102
{ACAD_REACTORS
330
83B0
102
}
330
83B0
100
AcDbXrecord
280
     1
102
RTVSPost2010Prop28
280
     0
102
RTVSPost2010PropOp28
 70
     1
102
RTVSPost2010Prop29
280
     1
102
RTVSPost2010PropOp29
 70
     1
102
RTVSPost2010Prop30
280
     1
102
RTVSPost2010PropOp30
 70
     1
102
RTVSPost2010Prop31
280
     0
102
RTVSPost2010PropOp31
 70
     1
102
RTVSPost2010Prop32
280
     0
102
RTVSPost2010PropOp32
 70
     1
102
RTVSPost2010Prop33
280
     0
102
RTVSPost2010PropOp33
 70
     1
102
RTVSPost2010Prop34
280
     0
102
RTVSPost2010PropOp34
 70
     1
102
RTVSPost2010Prop35
280
     0
102
RTVSPost2010PropOp35
 70
     1
102
RTVSPost2010Prop36
280
     0
102
RTVSPost2010PropOp36
 70
     1
102
RTVSPost2010Prop37
 90
       50
102
RTVSPost2010PropOp37
 70
     1
102
RTVSPost2010Prop38
140
0.0
102
RTVSPost2010PropOp38
 70
     1
102
RTVSPost2010Prop39
140
1.0
102
RTVSPost2010PropOp39
 70
     1
102
RTVSPost2010Prop40
 90
        0
102
RTVSPost2010PropOp40
 70
     1
102
RTVSPost2010Prop41ColorIndex
 90
       18
102
RTVSPost2010Prop41ColorRGB
 90
        0
102
RTVSPost2010PropOp41
 70
     1
102
RTVSPost2010Prop42
 90
       50
102
RTVSPost2010PropOp42
 70
     1
102
RTVSPost2010Prop43
 90
        3
102
RTVSPost2010PropOp43
 70
     1
102
RTVSPost2010Prop44ColorIndex
 90
        5
102
RTVSPost2010Prop44ColorRGB
 90
      255
102
RTVSPost2010PropOp44
 70
     1
102
RTVSPost2010Prop45
280
     0
102
RTVSPost2010PropOp45
 70
     1
102
RTVSPost2010Prop46
 90
       50
102
RTVSPost2010PropOp46
 70
     1
102
RTVSPost2010Prop47
 90
       50
102
RTVSPost2010PropOp47
 70
     1
102
RTVSPost2010Prop48
 90
       50
102
RTVSPost2010PropOp48
 70
     1
102
RTVSPost2010Prop49
280
     0
102
RTVSPost2010PropOp49
 70
     1
102
RTVSPost2010Prop50
 90
       50
102
RTVSPost2010PropOp50
 70
     1
102
RTVSPost2010Prop51ColorIndex
 90
      256
102
RTVSPost2010Prop51ColorRGB
 90
-16777216
102
RTVSPost2010PropOp51
 70
     0
102
RTVSPost2010Prop52
140
1.0
102
RTVSPost2010PropOp52
 70
     0
102
RTVSPost2010Prop53
 90
        2
102
RTVSPost2010PropOp53
 70
     1
102
RTVSPost2010Prop54
  1
strokes_ogs.tif
102
RTVSPost2010PropOp54
 70
     1
102
RTVSPost2010Prop55
280
     0
102
RTVSPost2010PropOp55
 70
     1
102
RTVSPost2010Prop56
140
1.0
102
RTVSPost2010PropOp56
 70
     1
102
RTVSPost2010Prop57
140
1.0
102
RTVSPost2010PropOp57
 70
     1
102
RTVSPropertyOp0
 70
     1
102
RTVSPropertyOp1
 70
     1
102
RTVSPropertyOp2
 70
     1
102
RTVSPropertyOp3
 70
     1
102
RTVSPropertyOp4
 70
     1
102
RTVSPropertyOp5
 70
     1
102
RTVSPropertyOp6
 70
     1
102
RTVSPropertyOp7
 70
     1
102
RTVSPropertyOp8
 70
     1
102
RTVSPropertyOp9
 70
     1
102
RTVSPropertyOp10
 70
     1
102
RTVSPropertyOp11
 70
     1
102
RTVSPropertyOp12
 70
     1
102
RTVSPropertyOp13
 70
     1
102
RTVSPropertyOp14
 70
     1
102
RTVSPropertyOp15
 70
     1
102
RTVSPropertyOp16
 70
     1
102
RTVSPropertyOp17
 70
     1
102
RTVSPropertyOp18
 70
     1
102
RTVSPropertyOp19
 70
     1
102
RTVSPropertyOp20
 70
     1
102
RTVSPropertyOp21
 70
     1
102
RTVSPropertyOp22
 70
     1
102
RTVSPropertyOp23
 70
     1
102
RTVSPropertyOp24
 70
     1
102
RTVSPropertyOp25
 70
     1
102
RTVSPropertyOp26
 70
     1
102
RTVSPropertyOp27
 70
     1
102
RTVSPropertyOp28
 70
     1
102
RTVSPropertyOp29
 70
     1
102
RTVSPropertyOp30
 70
     1
102
RTVSPropertyOp31
 70
     1
102
RTVSPropertyOp32
 70
     1
102
RTVSPropertyOp33
 70
     1
102
RTVSPropertyOp34
 70
     1
102
RTVSPropertyOp35
 70
     1
102
RTVSPropertyOp36
 70
     1
102
RTVSPropertyOp37
 70
     1
102
RTVSPropertyOp38
 70
     1
102
RTVSPropertyOp39
 70
     1
102
RTVSPropertyOp40
 70
     1
102
RTVSPropertyOp41
 70
     1
102
RTVSPropertyOp42
 70
     1
102
RTVSPropertyOp43
 70
     1
102
RTVSPropertyOp44
 70
     1
102
RTVSPropertyOp45
 70
     1
102
RTVSPropertyOp46
 70
     1
102
RTVSPropertyOp47
 70
     1
102
RTVSPropertyOp48
 70
     1
102
RTVSPropertyOp49
 70
     1
102
RTVSPropertyOp50
 70
     1
102
RTVSPropertyOp51
 70
     0
102
RTVSPropertyOp52
 70
     0
102
RTVSPropertyOp53
 70
     1
102
RTVSPropertyOp54
 70
     1
102
RTVSPropertyOp55
 70
     1
102
RTVSPropertyOp56
 70
     1
102
RTVSPropertyOp57
 70
     1
102
RTVSPropertyOp58
 70
     1
102
RTVSPropertyOp59
 70
     1
102
RTVSPropertyOp60
 70
     1
102
RTVSPropertyOp61
 70
     1
102
RTVSPropertyOp62
 70
     1
  0
XRECORD
  5
8395
102
{ACAD_REACTORS
330
8394
102
}
330
8394
100
AcDbXrecord
280
     1
102
RTVSPost2010Prop28
280
     0
102
RTVSPost2010PropOp28
 70
     1
102
RTVSPost2010Prop29
280
     1
102
RTVSPost2010PropOp29
 70
     1
102
RTVSPost2010Prop30
280
     1
102
RTVSPost2010PropOp30
 70
     1
102
RTVSPost2010Prop31
280
     0
102
RTVSPost2010PropOp31
 70
     1
102
RTVSPost2010Prop32
280
     0
102
RTVSPost2010PropOp32
 70
     1
102
RTVSPost2010Prop33
280
     0
102
RTVSPost2010PropOp33
 70
     1
102
RTVSPost2010Prop34
280
     0
102
RTVSPost2010PropOp34
 70
     1
102
RTVSPost2010Prop35
280
     0
102
RTVSPost2010PropOp35
 70
     1
102
RTVSPost2010Prop36
280
     0
102
RTVSPost2010PropOp36
 70
     1
102
RTVSPost2010Prop37
 90
       50
102
RTVSPost2010PropOp37
 70
     1
102
RTVSPost2010Prop38
140
0.0
102
RTVSPost2010PropOp38
 70
     1
102
RTVSPost2010Prop39
140
1.0
102
RTVSPost2010PropOp39
 70
     1
102
RTVSPost2010Prop40
 90
        0
102
RTVSPost2010PropOp40
 70
     1
102
RTVSPost2010Prop41ColorIndex
 90
       18
102
RTVSPost2010Prop41ColorRGB
 90
        0
102
RTVSPost2010PropOp41
 70
     1
102
RTVSPost2010Prop42
 90
       50
102
RTVSPost2010PropOp42
 70
     1
102
RTVSPost2010Prop43
 90
        3
102
RTVSPost2010PropOp43
 70
     1
102
RTVSPost2010Prop44ColorIndex
 90
        5
102
RTVSPost2010Prop44ColorRGB
 90
      255
102
RTVSPost2010PropOp44
 70
     1
102
RTVSPost2010Prop45
280
     0
102
RTVSPost2010PropOp45
 70
     1
102
RTVSPost2010Prop46
 90
       50
102
RTVSPost2010PropOp46
 70
     1
102
RTVSPost2010Prop47
 90
       50
102
RTVSPost2010PropOp47
 70
     1
102
RTVSPost2010Prop48
 90
       50
102
RTVSPost2010PropOp48
 70
     1
102
RTVSPost2010Prop49
280
     0
102
RTVSPost2010PropOp49
 70
     1
102
RTVSPost2010Prop50
 90
       50
102
RTVSPost2010PropOp50
 70
     1
102
RTVSPost2010Prop51ColorIndex
 90
      256
102
RTVSPost2010Prop51ColorRGB
 90
-16777216
102
RTVSPost2010PropOp51
 70
     0
102
RTVSPost2010Prop52
140
1.0
102
RTVSPost2010PropOp52
 70
     0
102
RTVSPost2010Prop53
 90
        2
102
RTVSPost2010PropOp53
 70
     1
102
RTVSPost2010Prop54
  1
strokes_ogs.tif
102
RTVSPost2010PropOp54
 70
     1
102
RTVSPost2010Prop55
280
     0
102
RTVSPost2010PropOp55
 70
     1
102
RTVSPost2010Prop56
140
1.0
102
RTVSPost2010PropOp56
 70
     1
102
RTVSPost2010Prop57
140
1.0
102
RTVSPost2010PropOp57
 70
     1
102
RTVSPropertyOp0
 70
     1
102
RTVSPropertyOp1
 70
     1
102
RTVSPropertyOp2
 70
     1
102
RTVSPropertyOp3
 70
     1
102
RTVSPropertyOp4
 70
     1
102
RTVSPropertyOp5
 70
     1
102
RTVSPropertyOp6
 70
     1
102
RTVSPropertyOp7
 70
     1
102
RTVSPropertyOp8
 70
     1
102
RTVSPropertyOp9
 70
     1
102
RTVSPropertyOp10
 70
     1
102
RTVSPropertyOp11
 70
     1
102
RTVSPropertyOp12
 70
     1
102
RTVSPropertyOp13
 70
     1
102
RTVSPropertyOp14
 70
     1
102
RTVSPropertyOp15
 70
     1
102
RTVSPropertyOp16
 70
     1
102
RTVSPropertyOp17
 70
     1
102
RTVSPropertyOp18
 70
     1
102
RTVSPropertyOp19
 70
     1
102
RTVSPropertyOp20
 70
     1
102
RTVSPropertyOp21
 70
     1
102
RTVSPropertyOp22
 70
     1
102
RTVSPropertyOp23
 70
     1
102
RTVSPropertyOp24
 70
     1
102
RTVSPropertyOp25
 70
     1
102
RTVSPropertyOp26
 70
     1
102
RTVSPropertyOp27
 70
     1
102
RTVSPropertyOp28
 70
     1
102
RTVSPropertyOp29
 70
     1
102
RTVSPropertyOp30
 70
     1
102
RTVSPropertyOp31
 70
     1
102
RTVSPropertyOp32
 70
     1
102
RTVSPropertyOp33
 70
     1
102
RTVSPropertyOp34
 70
     1
102
RTVSPropertyOp35
 70
     1
102
RTVSPropertyOp36
 70
     1
102
RTVSPropertyOp37
 70
     1
102
RTVSPropertyOp38
 70
     1
102
RTVSPropertyOp39
 70
     1
102
RTVSPropertyOp40
 70
     1
102
RTVSPropertyOp41
 70
     1
102
RTVSPropertyOp42
 70
     1
102
RTVSPropertyOp43
 70
     1
102
RTVSPropertyOp44
 70
     1
102
RTVSPropertyOp45
 70
     1
102
RTVSPropertyOp46
 70
     1
102
RTVSPropertyOp47
 70
     1
102
RTVSPropertyOp48
 70
     1
102
RTVSPropertyOp49
 70
     1
102
RTVSPropertyOp50
 70
     1
102
RTVSPropertyOp51
 70
     0
102
RTVSPropertyOp52
 70
     0
102
RTVSPropertyOp53
 70
     1
102
RTVSPropertyOp54
 70
     1
102
RTVSPropertyOp55
 70
     1
102
RTVSPropertyOp56
 70
     1
102
RTVSPropertyOp57
 70
     1
102
RTVSPropertyOp58
 70
     1
102
RTVSPropertyOp59
 70
     1
102
RTVSPropertyOp60
 70
     1
102
RTVSPropertyOp61
 70
     1
102
RTVSPropertyOp62
 70
     1
  0
XRECORD
  5
8397
102
{ACAD_REACTORS
330
8396
102
}
330
8396
100
AcDbXrecord
280
     1
102
RTVSPost2010Prop28
280
     0
102
RTVSPost2010PropOp28
 70
     1
102
RTVSPost2010Prop29
280
     1
102
RTVSPost2010PropOp29
 70
     1
102
RTVSPost2010Prop30
280
     1
102
RTVSPost2010PropOp30
 70
     1
102
RTVSPost2010Prop31
280
     0
102
RTVSPost2010PropOp31
 70
     1
102
RTVSPost2010Prop32
280
     0
102
RTVSPost2010PropOp32
 70
     1
102
RTVSPost2010Prop33
280
     0
102
RTVSPost2010PropOp33
 70
     1
102
RTVSPost2010Prop34
280
     0
102
RTVSPost2010PropOp34
 70
     1
102
RTVSPost2010Prop35
280
     0
102
RTVSPost2010PropOp35
 70
     1
102
RTVSPost2010Prop36
280
     0
102
RTVSPost2010PropOp36
 70
     1
102
RTVSPost2010Prop37
 90
       50
102
RTVSPost2010PropOp37
 70
     1
102
RTVSPost2010Prop38
140
0.0
102
RTVSPost2010PropOp38
 70
     1
102
RTVSPost2010Prop39
140
1.0
102
RTVSPost2010PropOp39
 70
     1
102
RTVSPost2010Prop40
 90
        0
102
RTVSPost2010PropOp40
 70
     1
102
RTVSPost2010Prop41ColorIndex
 90
       18
102
RTVSPost2010Prop41ColorRGB
 90
        0
102
RTVSPost2010PropOp41
 70
     1
102
RTVSPost2010Prop42
 90
       50
102
RTVSPost2010PropOp42
 70
     1
102
RTVSPost2010Prop43
 90
        3
102
RTVSPost2010PropOp43
 70
     1
102
RTVSPost2010Prop44ColorIndex
 90
        5
102
RTVSPost2010Prop44ColorRGB
 90
      255
102
RTVSPost2010PropOp44
 70
     1
102
RTVSPost2010Prop45
280
     0
102
RTVSPost2010PropOp45
 70
     1
102
RTVSPost2010Prop46
 90
       50
102
RTVSPost2010PropOp46
 70
     1
102
RTVSPost2010Prop47
 90
       50
102
RTVSPost2010PropOp47
 70
     1
102
RTVSPost2010Prop48
 90
       50
102
RTVSPost2010PropOp48
 70
     1
102
RTVSPost2010Prop49
280
     0
102
RTVSPost2010PropOp49
 70
     1
102
RTVSPost2010Prop50
 90
       50
102
RTVSPost2010PropOp50
 70
     1
102
RTVSPost2010Prop51ColorIndex
 90
      256
102
RTVSPost2010Prop51ColorRGB
 90
-16777216
102
RTVSPost2010PropOp51
 70
     0
102
RTVSPost2010Prop52
140
1.0
102
RTVSPost2010PropOp52
 70
     0
102
RTVSPost2010Prop53
 90
        2
102
RTVSPost2010PropOp53
 70
     1
102
RTVSPost2010Prop54
  1
strokes_ogs.tif
102
RTVSPost2010PropOp54
 70
     1
102
RTVSPost2010Prop55
280
     0
102
RTVSPost2010PropOp55
 70
     1
102
RTVSPost2010Prop56
140
1.0
102
RTVSPost2010PropOp56
 70
     1
102
RTVSPost2010Prop57
140
1.0
102
RTVSPost2010PropOp57
 70
     1
102
RTVSPropertyOp0
 70
     1
102
RTVSPropertyOp1
 70
     1
102
RTVSPropertyOp2
 70
     1
102
RTVSPropertyOp3
 70
     1
102
RTVSPropertyOp4
 70
     1
102
RTVSPropertyOp5
 70
     1
102
RTVSPropertyOp6
 70
     1
102
RTVSPropertyOp7
 70
     1
102
RTVSPropertyOp8
 70
     1
102
RTVSPropertyOp9
 70
     1
102
RTVSPropertyOp10
 70
     1
102
RTVSPropertyOp11
 70
     1
102
RTVSPropertyOp12
 70
     1
102
RTVSPropertyOp13
 70
     1
102
RTVSPropertyOp14
 70
     1
102
RTVSPropertyOp15
 70
     1
102
RTVSPropertyOp16
 70
     1
102
RTVSPropertyOp17
 70
     1
102
RTVSPropertyOp18
 70
     1
102
RTVSPropertyOp19
 70
     1
102
RTVSPropertyOp20
 70
     1
102
RTVSPropertyOp21
 70
     1
102
RTVSPropertyOp22
 70
     1
102
RTVSPropertyOp23
 70
     1
102
RTVSPropertyOp24
 70
     1
102
RTVSPropertyOp25
 70
     1
102
RTVSPropertyOp26
 70
     1
102
RTVSPropertyOp27
 70
     1
102
RTVSPropertyOp28
 70
     1
102
RTVSPropertyOp29
 70
     1
102
RTVSPropertyOp30
 70
     1
102
RTVSPropertyOp31
 70
     1
102
RTVSPropertyOp32
 70
     1
102
RTVSPropertyOp33
 70
     1
102
RTVSPropertyOp34
 70
     1
102
RTVSPropertyOp35
 70
     1
102
RTVSPropertyOp36
 70
     1
102
RTVSPropertyOp37
 70
     1
102
RTVSPropertyOp38
 70
     1
102
RTVSPropertyOp39
 70
     1
102
RTVSPropertyOp40
 70
     1
102
RTVSPropertyOp41
 70
     1
102
RTVSPropertyOp42
 70
     1
102
RTVSPropertyOp43
 70
     1
102
RTVSPropertyOp44
 70
     1
102
RTVSPropertyOp45
 70
     1
102
RTVSPropertyOp46
 70
     1
102
RTVSPropertyOp47
 70
     1
102
RTVSPropertyOp48
 70
     1
102
RTVSPropertyOp49
 70
     1
102
RTVSPropertyOp50
 70
     1
102
RTVSPropertyOp51
 70
     0
102
RTVSPropertyOp52
 70
     0
102
RTVSPropertyOp53
 70
     1
102
RTVSPropertyOp54
 70
     1
102
RTVSPropertyOp55
 70
     1
102
RTVSPropertyOp56
 70
     1
102
RTVSPropertyOp57
 70
     1
102
RTVSPropertyOp58
 70
     1
102
RTVSPropertyOp59
 70
     1
102
RTVSPropertyOp60
 70
     1
102
RTVSPropertyOp61
 70
     1
102
RTVSPropertyOp62
 70
     1
  0
XRECORD
  5
8399
102
{ACAD_REACTORS
330
8398
102
}
330
8398
100
AcDbXrecord
280
     1
102
RTVSPost2010Prop28
280
     0
102
RTVSPost2010PropOp28
 70
     1
102
RTVSPost2010Prop29
280
     1
102
RTVSPost2010PropOp29
 70
     1
102
RTVSPost2010Prop30
280
     1
102
RTVSPost2010PropOp30
 70
     1
102
RTVSPost2010Prop31
280
     0
102
RTVSPost2010PropOp31
 70
     1
102
RTVSPost2010Prop32
280
     0
102
RTVSPost2010PropOp32
 70
     1
102
RTVSPost2010Prop33
280
     0
102
RTVSPost2010PropOp33
 70
     1
102
RTVSPost2010Prop34
280
     0
102
RTVSPost2010PropOp34
 70
     1
102
RTVSPost2010Prop35
280
     0
102
RTVSPost2010PropOp35
 70
     1
102
RTVSPost2010Prop36
280
     0
102
RTVSPost2010PropOp36
 70
     1
102
RTVSPost2010Prop37
 90
       50
102
RTVSPost2010PropOp37
 70
     1
102
RTVSPost2010Prop38
140
0.0
102
RTVSPost2010PropOp38
 70
     1
102
RTVSPost2010Prop39
140
1.0
102
RTVSPost2010PropOp39
 70
     1
102
RTVSPost2010Prop40
 90
        0
102
RTVSPost2010PropOp40
 70
     1
102
RTVSPost2010Prop41ColorIndex
 90
       18
102
RTVSPost2010Prop41ColorRGB
 90
        0
102
RTVSPost2010PropOp41
 70
     1
102
RTVSPost2010Prop42
 90
       50
102
RTVSPost2010PropOp42
 70
     1
102
RTVSPost2010Prop43
 90
        3
102
RTVSPost2010PropOp43
 70
     1
102
RTVSPost2010Prop44ColorIndex
 90
        5
102
RTVSPost2010Prop44ColorRGB
 90
      255
102
RTVSPost2010PropOp44
 70
     1
102
RTVSPost2010Prop45
280
     0
102
RTVSPost2010PropOp45
 70
     1
102
RTVSPost2010Prop46
 90
       50
102
RTVSPost2010PropOp46
 70
     1
102
RTVSPost2010Prop47
 90
       50
102
RTVSPost2010PropOp47
 70
     1
102
RTVSPost2010Prop48
 90
       50
102
RTVSPost2010PropOp48
 70
     1
102
RTVSPost2010Prop49
280
     0
102
RTVSPost2010PropOp49
 70
     1
102
RTVSPost2010Prop50
 90
       50
102
RTVSPost2010PropOp50
 70
     1
102
RTVSPost2010Prop51ColorIndex
 90
      256
102
RTVSPost2010Prop51ColorRGB
 90
-16777216
102
RTVSPost2010PropOp51
 70
     0
102
RTVSPost2010Prop52
140
1.0
102
RTVSPost2010PropOp52
 70
     0
102
RTVSPost2010Prop53
 90
        2
102
RTVSPost2010PropOp53
 70
     1
102
RTVSPost2010Prop54
  1
strokes_ogs.tif
102
RTVSPost2010PropOp54
 70
     1
102
RTVSPost2010Prop55
280
     0
102
RTVSPost2010PropOp55
 70
     1
102
RTVSPost2010Prop56
140
1.0
102
RTVSPost2010PropOp56
 70
     1
102
RTVSPost2010Prop57
140
1.0
102
RTVSPost2010PropOp57
 70
     1
102
RTVSPropertyOp0
 70
     1
102
RTVSPropertyOp1
 70
     1
102
RTVSPropertyOp2
 70
     1
102
RTVSPropertyOp3
 70
     1
102
RTVSPropertyOp4
 70
     1
102
RTVSPropertyOp5
 70
     1
102
RTVSPropertyOp6
 70
     1
102
RTVSPropertyOp7
 70
     1
102
RTVSPropertyOp8
 70
     1
102
RTVSPropertyOp9
 70
     1
102
RTVSPropertyOp10
 70
     1
102
RTVSPropertyOp11
 70
     1
102
RTVSPropertyOp12
 70
     1
102
RTVSPropertyOp13
 70
     1
102
RTVSPropertyOp14
 70
     1
102
RTVSPropertyOp15
 70
     1
102
RTVSPropertyOp16
 70
     1
102
RTVSPropertyOp17
 70
     1
102
RTVSPropertyOp18
 70
     1
102
RTVSPropertyOp19
 70
     1
102
RTVSPropertyOp20
 70
     1
102
RTVSPropertyOp21
 70
     1
102
RTVSPropertyOp22
 70
     1
102
RTVSPropertyOp23
 70
     1
102
RTVSPropertyOp24
 70
     1
102
RTVSPropertyOp25
 70
     1
102
RTVSPropertyOp26
 70
     1
102
RTVSPropertyOp27
 70
     1
102
RTVSPropertyOp28
 70
     1
102
RTVSPropertyOp29
 70
     1
102
RTVSPropertyOp30
 70
     1
102
RTVSPropertyOp31
 70
     1
102
RTVSPropertyOp32
 70
     1
102
RTVSPropertyOp33
 70
     1
102
RTVSPropertyOp34
 70
     1
102
RTVSPropertyOp35
 70
     1
102
RTVSPropertyOp36
 70
     1
102
RTVSPropertyOp37
 70
     1
102
RTVSPropertyOp38
 70
     1
102
RTVSPropertyOp39
 70
     1
102
RTVSPropertyOp40
 70
     1
102
RTVSPropertyOp41
 70
     1
102
RTVSPropertyOp42
 70
     1
102
RTVSPropertyOp43
 70
     1
102
RTVSPropertyOp44
 70
     1
102
RTVSPropertyOp45
 70
     1
102
RTVSPropertyOp46
 70
     1
102
RTVSPropertyOp47
 70
     1
102
RTVSPropertyOp48
 70
     1
102
RTVSPropertyOp49
 70
     1
102
RTVSPropertyOp50
 70
     1
102
RTVSPropertyOp51
 70
     0
102
RTVSPropertyOp52
 70
     0
102
RTVSPropertyOp53
 70
     1
102
RTVSPropertyOp54
 70
     1
102
RTVSPropertyOp55
 70
     1
102
RTVSPropertyOp56
 70
     1
102
RTVSPropertyOp57
 70
     1
102
RTVSPropertyOp58
 70
     1
102
RTVSPropertyOp59
 70
     1
102
RTVSPropertyOp60
 70
     1
102
RTVSPropertyOp61
 70
     1
102
RTVSPropertyOp62
 70
     1
  0
XRECORD
  5
839B
102
{ACAD_REACTORS
330
839A
102
}
330
839A
100
AcDbXrecord
280
     1
102
RTVSPost2010Prop28
280
     0
102
RTVSPost2010PropOp28
 70
     1
102
RTVSPost2010Prop29
280
     1
102
RTVSPost2010PropOp29
 70
     1
102
RTVSPost2010Prop30
280
     1
102
RTVSPost2010PropOp30
 70
     1
102
RTVSPost2010Prop31
280
     0
102
RTVSPost2010PropOp31
 70
     1
102
RTVSPost2010Prop32
280
     0
102
RTVSPost2010PropOp32
 70
     1
102
RTVSPost2010Prop33
280
     0
102
RTVSPost2010PropOp33
 70
     1
102
RTVSPost2010Prop34
280
     0
102
RTVSPost2010PropOp34
 70
     1
102
RTVSPost2010Prop35
280
     0
102
RTVSPost2010PropOp35
 70
     1
102
RTVSPost2010Prop36
280
     0
102
RTVSPost2010PropOp36
 70
     1
102
RTVSPost2010Prop37
 90
       50
102
RTVSPost2010PropOp37
 70
     1
102
RTVSPost2010Prop38
140
0.0
102
RTVSPost2010PropOp38
 70
     1
102
RTVSPost2010Prop39
140
1.0
102
RTVSPost2010PropOp39
 70
     1
102
RTVSPost2010Prop40
 90
        0
102
RTVSPost2010PropOp40
 70
     1
102
RTVSPost2010Prop41ColorIndex
 90
       18
102
RTVSPost2010Prop41ColorRGB
 90
        0
102
RTVSPost2010PropOp41
 70
     1
102
RTVSPost2010Prop42
 90
       50
102
RTVSPost2010PropOp42
 70
     1
102
RTVSPost2010Prop43
 90
        3
102
RTVSPost2010PropOp43
 70
     1
102
RTVSPost2010Prop44ColorIndex
 90
        5
102
RTVSPost2010Prop44ColorRGB
 90
      255
102
RTVSPost2010PropOp44
 70
     1
102
RTVSPost2010Prop45
280
     0
102
RTVSPost2010PropOp45
 70
     1
102
RTVSPost2010Prop46
 90
       50
102
RTVSPost2010PropOp46
 70
     1
102
RTVSPost2010Prop47
 90
       50
102
RTVSPost2010PropOp47
 70
     1
102
RTVSPost2010Prop48
 90
       50
102
RTVSPost2010PropOp48
 70
     1
102
RTVSPost2010Prop49
280
     0
102
RTVSPost2010PropOp49
 70
     1
102
RTVSPost2010Prop50
 90
       50
102
RTVSPost2010PropOp50
 70
     1
102
RTVSPost2010Prop51ColorIndex
 90
      256
102
RTVSPost2010Prop51ColorRGB
 90
-16777216
102
RTVSPost2010PropOp51
 70
     0
102
RTVSPost2010Prop52
140
1.0
102
RTVSPost2010PropOp52
 70
     0
102
RTVSPost2010Prop53
 90
        2
102
RTVSPost2010PropOp53
 70
     1
102
RTVSPost2010Prop54
  1
strokes_ogs.tif
102
RTVSPost2010PropOp54
 70
     1
102
RTVSPost2010Prop55
280
     0
102
RTVSPost2010PropOp55
 70
     1
102
RTVSPost2010Prop56
140
1.0
102
RTVSPost2010PropOp56
 70
     1
102
RTVSPost2010Prop57
140
1.0
102
RTVSPost2010PropOp57
 70
     1
102
RTVSPropertyOp0
 70
     1
102
RTVSPropertyOp1
 70
     1
102
RTVSPropertyOp2
 70
     1
102
RTVSPropertyOp3
 70
     1
102
RTVSPropertyOp4
 70
     1
102
RTVSPropertyOp5
 70
     1
102
RTVSPropertyOp6
 70
     1
102
RTVSPropertyOp7
 70
     1
102
RTVSPropertyOp8
 70
     1
102
RTVSPropertyOp9
 70
     1
102
RTVSPropertyOp10
 70
     1
102
RTVSPropertyOp11
 70
     1
102
RTVSPropertyOp12
 70
     1
102
RTVSPropertyOp13
 70
     1
102
RTVSPropertyOp14
 70
     1
102
RTVSPropertyOp15
 70
     1
102
RTVSPropertyOp16
 70
     1
102
RTVSPropertyOp17
 70
     1
102
RTVSPropertyOp18
 70
     1
102
RTVSPropertyOp19
 70
     1
102
RTVSPropertyOp20
 70
     1
102
RTVSPropertyOp21
 70
     1
102
RTVSPropertyOp22
 70
     1
102
RTVSPropertyOp23
 70
     1
102
RTVSPropertyOp24
 70
     1
102
RTVSPropertyOp25
 70
     1
102
RTVSPropertyOp26
 70
     1
102
RTVSPropertyOp27
 70
     1
102
RTVSPropertyOp28
 70
     1
102
RTVSPropertyOp29
 70
     1
102
RTVSPropertyOp30
 70
     1
102
RTVSPropertyOp31
 70
     1
102
RTVSPropertyOp32
 70
     1
102
RTVSPropertyOp33
 70
     1
102
RTVSPropertyOp34
 70
     1
102
RTVSPropertyOp35
 70
     1
102
RTVSPropertyOp36
 70
     1
102
RTVSPropertyOp37
 70
     1
102
RTVSPropertyOp38
 70
     1
102
RTVSPropertyOp39
 70
     1
102
RTVSPropertyOp40
 70
     1
102
RTVSPropertyOp41
 70
     1
102
RTVSPropertyOp42
 70
     1
102
RTVSPropertyOp43
 70
     1
102
RTVSPropertyOp44
 70
     1
102
RTVSPropertyOp45
 70
     1
102
RTVSPropertyOp46
 70
     1
102
RTVSPropertyOp47
 70
     1
102
RTVSPropertyOp48
 70
     1
102
RTVSPropertyOp49
 70
     1
102
RTVSPropertyOp50
 70
     1
102
RTVSPropertyOp51
 70
     0
102
RTVSPropertyOp52
 70
     0
102
RTVSPropertyOp53
 70
     1
102
RTVSPropertyOp54
 70
     1
102
RTVSPropertyOp55
 70
     1
102
RTVSPropertyOp56
 70
     1
102
RTVSPropertyOp57
 70
     1
102
RTVSPropertyOp58
 70
     1
102
RTVSPropertyOp59
 70
     1
102
RTVSPropertyOp60
 70
     1
102
RTVSPropertyOp61
 70
     1
102
RTVSPropertyOp62
 70
     1
  0
XRECORD
  5
83A3
102
{ACAD_REACTORS
330
83A2
102
}
330
83A2
100
AcDbXrecord
280
     1
102
RTVSPost2010Prop28
280
     0
102
RTVSPost2010PropOp28
 70
     1
102
RTVSPost2010Prop29
280
     1
102
RTVSPost2010PropOp29
 70
     1
102
RTVSPost2010Prop30
280
     1
102
RTVSPost2010PropOp30
 70
     1
102
RTVSPost2010Prop31
280
     0
102
RTVSPost2010PropOp31
 70
     1
102
RTVSPost2010Prop32
280
     0
102
RTVSPost2010PropOp32
 70
     1
102
RTVSPost2010Prop33
280
     0
102
RTVSPost2010PropOp33
 70
     1
102
RTVSPost2010Prop34
280
     0
102
RTVSPost2010PropOp34
 70
     1
102
RTVSPost2010Prop35
280
     0
102
RTVSPost2010PropOp35
 70
     1
102
RTVSPost2010Prop36
280
     0
102
RTVSPost2010PropOp36
 70
     1
102
RTVSPost2010Prop37
 90
       50
102
RTVSPost2010PropOp37
 70
     1
102
RTVSPost2010Prop38
140
0.0
102
RTVSPost2010PropOp38
 70
     1
102
RTVSPost2010Prop39
140
1.0
102
RTVSPost2010PropOp39
 70
     1
102
RTVSPost2010Prop40
 90
        0
102
RTVSPost2010PropOp40
 70
     1
102
RTVSPost2010Prop41ColorIndex
 90
       18
102
RTVSPost2010Prop41ColorRGB
 90
        0
102
RTVSPost2010PropOp41
 70
     1
102
RTVSPost2010Prop42
 90
       50
102
RTVSPost2010PropOp42
 70
     1
102
RTVSPost2010Prop43
 90
        3
102
RTVSPost2010PropOp43
 70
     1
102
RTVSPost2010Prop44ColorIndex
 90
        5
102
RTVSPost2010Prop44ColorRGB
 90
      255
102
RTVSPost2010PropOp44
 70
     1
102
RTVSPost2010Prop45
280
     0
102
RTVSPost2010PropOp45
 70
     1
102
RTVSPost2010Prop46
 90
       50
102
RTVSPost2010PropOp46
 70
     1
102
RTVSPost2010Prop47
 90
       50
102
RTVSPost2010PropOp47
 70
     1
102
RTVSPost2010Prop48
 90
       50
102
RTVSPost2010PropOp48
 70
     1
102
RTVSPost2010Prop49
280
     0
102
RTVSPost2010PropOp49
 70
     1
102
RTVSPost2010Prop50
 90
       50
102
RTVSPost2010PropOp50
 70
     1
102
RTVSPost2010Prop51ColorIndex
 90
      256
102
RTVSPost2010Prop51ColorRGB
 90
-16777216
102
RTVSPost2010PropOp51
 70
     0
102
RTVSPost2010Prop52
140
1.0
102
RTVSPost2010PropOp52
 70
     0
102
RTVSPost2010Prop53
 90
        2
102
RTVSPost2010PropOp53
 70
     1
102
RTVSPost2010Prop54
  1
strokes_ogs.tif
102
RTVSPost2010PropOp54
 70
     1
102
RTVSPost2010Prop55
280
     0
102
RTVSPost2010PropOp55
 70
     1
102
RTVSPost2010Prop56
140
1.0
102
RTVSPost2010PropOp56
 70
     1
102
RTVSPost2010Prop57
140
1.0
102
RTVSPost2010PropOp57
 70
     1
102
RTVSPropertyOp0
 70
     1
102
RTVSPropertyOp1
 70
     1
102
RTVSPropertyOp2
 70
     1
102
RTVSPropertyOp3
 70
     1
102
RTVSPropertyOp4
 70
     1
102
RTVSPropertyOp5
 70
     1
102
RTVSPropertyOp6
 70
     1
102
RTVSPropertyOp7
 70
     1
102
RTVSPropertyOp8
 70
     1
102
RTVSPropertyOp9
 70
     1
102
RTVSPropertyOp10
 70
     1
102
RTVSPropertyOp11
 70
     1
102
RTVSPropertyOp12
 70
     1
102
RTVSPropertyOp13
 70
     1
102
RTVSPropertyOp14
 70
     1
102
RTVSPropertyOp15
 70
     1
102
RTVSPropertyOp16
 70
     1
102
RTVSPropertyOp17
 70
     1
102
RTVSPropertyOp18
 70
     1
102
RTVSPropertyOp19
 70
     1
102
RTVSPropertyOp20
 70
     1
102
RTVSPropertyOp21
 70
     1
102
RTVSPropertyOp22
 70
     1
102
RTVSPropertyOp23
 70
     1
102
RTVSPropertyOp24
 70
     1
102
RTVSPropertyOp25
 70
     1
102
RTVSPropertyOp26
 70
     1
102
RTVSPropertyOp27
 70
     1
102
RTVSPropertyOp28
 70
     1
102
RTVSPropertyOp29
 70
     1
102
RTVSPropertyOp30
 70
     1
102
RTVSPropertyOp31
 70
     1
102
RTVSPropertyOp32
 70
     1
102
RTVSPropertyOp33
 70
     1
102
RTVSPropertyOp34
 70
     1
102
RTVSPropertyOp35
 70
     1
102
RTVSPropertyOp36
 70
     1
102
RTVSPropertyOp37
 70
     1
102
RTVSPropertyOp38
 70
     1
102
RTVSPropertyOp39
 70
     1
102
RTVSPropertyOp40
 70
     1
102
RTVSPropertyOp41
 70
     1
102
RTVSPropertyOp42
 70
     1
102
RTVSPropertyOp43
 70
     1
102
RTVSPropertyOp44
 70
     1
102
RTVSPropertyOp45
 70
     1
102
RTVSPropertyOp46
 70
     1
102
RTVSPropertyOp47
 70
     1
102
RTVSPropertyOp48
 70
     1
102
RTVSPropertyOp49
 70
     1
102
RTVSPropertyOp50
 70
     1
102
RTVSPropertyOp51
 70
     0
102
RTVSPropertyOp52
 70
     0
102
RTVSPropertyOp53
 70
     1
102
RTVSPropertyOp54
 70
     1
102
RTVSPropertyOp55
 70
     1
102
RTVSPropertyOp56
 70
     1
102
RTVSPropertyOp57
 70
     1
102
RTVSPropertyOp58
 70
     1
102
RTVSPropertyOp59
 70
     1
102
RTVSPropertyOp60
 70
     1
102
RTVSPropertyOp61
 70
     1
102
RTVSPropertyOp62
 70
     1
  0
XRECORD
  5
83BF
102
{ACAD_REACTORS
330
83BE
102
}
330
83BE
100
AcDbXrecord
280
     1
102
RTVSPost2010Prop28
280
     0
102
RTVSPost2010PropOp28
 70
     1
102
RTVSPost2010Prop29
280
     1
102
RTVSPost2010PropOp29
 70
     1
102
RTVSPost2010Prop30
280
     1
102
RTVSPost2010PropOp30
 70
     1
102
RTVSPost2010Prop31
280
     0
102
RTVSPost2010PropOp31
 70
     1
102
RTVSPost2010Prop32
280
     0
102
RTVSPost2010PropOp32
 70
     1
102
RTVSPost2010Prop33
280
     0
102
RTVSPost2010PropOp33
 70
     1
102
RTVSPost2010Prop34
280
     0
102
RTVSPost2010PropOp34
 70
     1
102
RTVSPost2010Prop35
280
     0
102
RTVSPost2010PropOp35
 70
     1
102
RTVSPost2010Prop36
280
     0
102
RTVSPost2010PropOp36
 70
     1
102
RTVSPost2010Prop37
 90
       50
102
RTVSPost2010PropOp37
 70
     0
102
RTVSPost2010Prop38
140
0.0
102
RTVSPost2010PropOp38
 70
     0
102
RTVSPost2010Prop39
140
1.0
102
RTVSPost2010PropOp39
 70
     0
102
RTVSPost2010Prop40
 90
        0
102
RTVSPost2010PropOp40
 70
     0
102
RTVSPost2010Prop41ColorIndex
 90
       18
102
RTVSPost2010Prop41ColorRGB
 90
        0
102
RTVSPost2010PropOp41
 70
     0
102
RTVSPost2010Prop42
 90
       50
102
RTVSPost2010PropOp42
 70
     0
102
RTVSPost2010Prop43
 90
        3
102
RTVSPost2010PropOp43
 70
     0
102
RTVSPost2010Prop44ColorIndex
 90
        5
102
RTVSPost2010Prop44ColorRGB
 90
      255
102
RTVSPost2010PropOp44
 70
     0
102
RTVSPost2010Prop45
280
     0
102
RTVSPost2010PropOp45
 70
     1
102
RTVSPost2010Prop46
 90
       50
102
RTVSPost2010PropOp46
 70
     0
102
RTVSPost2010Prop47
 90
       50
102
RTVSPost2010PropOp47
 70
     0
102
RTVSPost2010Prop48
 90
       50
102
RTVSPost2010PropOp48
 70
     0
102
RTVSPost2010Prop49
280
     0
102
RTVSPost2010PropOp49
 70
     1
102
RTVSPost2010Prop50
 90
       50
102
RTVSPost2010PropOp50
 70
     0
102
RTVSPost2010Prop51ColorIndex
 90
      256
102
RTVSPost2010Prop51ColorRGB
 90
-16777216
102
RTVSPost2010PropOp51
 70
     0
102
RTVSPost2010Prop52
140
1.0
102
RTVSPost2010PropOp52
 70
     0
102
RTVSPost2010Prop53
 90
        2
102
RTVSPost2010PropOp53
 70
     0
102
RTVSPost2010Prop54
  1
strokes_ogs.tif
102
RTVSPost2010PropOp54
 70
     0
102
RTVSPost2010Prop55
280
     0
102
RTVSPost2010PropOp55
 70
     1
102
RTVSPost2010Prop56
140
1.0
102
RTVSPost2010PropOp56
 70
     0
102
RTVSPost2010Prop57
140
1.0
102
RTVSPost2010PropOp57
 70
     0
102
RTVSPropertyOp0
 70
     0
102
RTVSPropertyOp1
 70
     0
102
RTVSPropertyOp2
 70
     0
102
RTVSPropertyOp3
 70
     0
102
RTVSPropertyOp4
 70
     0
102
RTVSPropertyOp5
 70
     0
102
RTVSPropertyOp6
 70
     0
102
RTVSPropertyOp7
 70
     0
102
RTVSPropertyOp8
 70
     0
102
RTVSPropertyOp9
 70
     0
102
RTVSPropertyOp10
 70
     0
102
RTVSPropertyOp11
 70
     0
102
RTVSPropertyOp12
 70
     0
102
RTVSPropertyOp13
 70
     0
102
RTVSPropertyOp14
 70
     2
102
RTVSPropertyOp15
 70
     0
102
RTVSPropertyOp16
 70
     0
102
RTVSPropertyOp17
 70
     0
102
RTVSPropertyOp18
 70
     0
102
RTVSPropertyOp19
 70
     0
102
RTVSPropertyOp20
 70
     0
102
RTVSPropertyOp21
 70
     0
102
RTVSPropertyOp22
 70
     0
102
RTVSPropertyOp23
 70
     0
102
RTVSPropertyOp24
 70
     0
102
RTVSPropertyOp25
 70
     0
102
RTVSPropertyOp26
 70
     0
102
RTVSPropertyOp27
 70
     0
102
RTVSPropertyOp28
 70
     1
102
RTVSPropertyOp29
 70
     1
102
RTVSPropertyOp30
 70
     1
102
RTVSPropertyOp31
 70
     1
102
RTVSPropertyOp32
 70
     1
102
RTVSPropertyOp33
 70
     1
102
RTVSPropertyOp34
 70
     1
102
RTVSPropertyOp35
 70
     1
102
RTVSPropertyOp36
 70
     1
102
RTVSPropertyOp37
 70
     0
102
RTVSPropertyOp38
 70
     0
102
RTVSPropertyOp39
 70
     0
102
RTVSPropertyOp40
 70
     0
102
RTVSPropertyOp41
 70
     0
102
RTVSPropertyOp42
 70
     0
102
RTVSPropertyOp43
 70
     0
102
RTVSPropertyOp44
 70
     0
102
RTVSPropertyOp45
 70
     1
102
RTVSPropertyOp46
 70
     0
102
RTVSPropertyOp47
 70
     0
102
RTVSPropertyOp48
 70
     0
102
RTVSPropertyOp49
 70
     1
102
RTVSPropertyOp50
 70
     0
102
RTVSPropertyOp51
 70
     0
102
RTVSPropertyOp52
 70
     0
102
RTVSPropertyOp53
 70
     0
102
RTVSPropertyOp54
 70
     0
102
RTVSPropertyOp55
 70
     1
102
RTVSPropertyOp56
 70
     0
102
RTVSPropertyOp57
 70
     0
102
RTVSPropertyOp58
 70
     0
102
RTVSPropertyOp59
 70
     0
102
RTVSPropertyOp60
 70
     0
102
RTVSPropertyOp61
 70
     0
102
RTVSPropertyOp62
 70
     0
  0
XRECORD
  5
83AF
102
{ACAD_REACTORS
330
83AE
102
}
330
83AE
100
AcDbXrecord
280
     1
102
RTVSPost2010Prop28
280
     0
102
RTVSPost2010PropOp28
 70
     1
102
RTVSPost2010Prop29
280
     1
102
RTVSPost2010PropOp29
 70
     1
102
RTVSPost2010Prop30
280
     1
102
RTVSPost2010PropOp30
 70
     1
102
RTVSPost2010Prop31
280
     0
102
RTVSPost2010PropOp31
 70
     1
102
RTVSPost2010Prop32
280
     0
102
RTVSPost2010PropOp32
 70
     1
102
RTVSPost2010Prop33
280
     0
102
RTVSPost2010PropOp33
 70
     1
102
RTVSPost2010Prop34
280
     0
102
RTVSPost2010PropOp34
 70
     1
102
RTVSPost2010Prop35
280
     0
102
RTVSPost2010PropOp35
 70
     1
102
RTVSPost2010Prop36
280
     0
102
RTVSPost2010PropOp36
 70
     1
102
RTVSPost2010Prop37
 90
       50
102
RTVSPost2010PropOp37
 70
     1
102
RTVSPost2010Prop38
140
0.0
102
RTVSPost2010PropOp38
 70
     1
102
RTVSPost2010Prop39
140
1.0
102
RTVSPost2010PropOp39
 70
     1
102
RTVSPost2010Prop40
 90
        0
102
RTVSPost2010PropOp40
 70
     1
102
RTVSPost2010Prop41ColorIndex
 90
       18
102
RTVSPost2010Prop41ColorRGB
 90
        0
102
RTVSPost2010PropOp41
 70
     1
102
RTVSPost2010Prop42
 90
       50
102
RTVSPost2010PropOp42
 70
     1
102
RTVSPost2010Prop43
 90
        3
102
RTVSPost2010PropOp43
 70
     1
102
RTVSPost2010Prop44ColorIndex
 90
        5
102
RTVSPost2010Prop44ColorRGB
 90
      255
102
RTVSPost2010PropOp44
 70
     1
102
RTVSPost2010Prop45
280
     0
102
RTVSPost2010PropOp45
 70
     1
102
RTVSPost2010Prop46
 90
       50
102
RTVSPost2010PropOp46
 70
     1
102
RTVSPost2010Prop47
 90
       50
102
RTVSPost2010PropOp47
 70
     1
102
RTVSPost2010Prop48
 90
       50
102
RTVSPost2010PropOp48
 70
     1
102
RTVSPost2010Prop49
280
     0
102
RTVSPost2010PropOp49
 70
     1
102
RTVSPost2010Prop50
 90
       50
102
RTVSPost2010PropOp50
 70
     1
102
RTVSPost2010Prop51ColorIndex
 90
      256
102
RTVSPost2010Prop51ColorRGB
 90
-16777216
102
RTVSPost2010PropOp51
 70
     0
102
RTVSPost2010Prop52
140
1.0
102
RTVSPost2010PropOp52
 70
     0
102
RTVSPost2010Prop53
 90
        2
102
RTVSPost2010PropOp53
 70
     1
102
RTVSPost2010Prop54
  1
strokes_ogs.tif
102
RTVSPost2010PropOp54
 70
     1
102
RTVSPost2010Prop55
280
     0
102
RTVSPost2010PropOp55
 70
     1
102
RTVSPost2010Prop56
140
1.0
102
RTVSPost2010PropOp56
 70
     1
102
RTVSPost2010Prop57
140
1.0
102
RTVSPost2010PropOp57
 70
     1
102
RTVSPropertyOp0
 70
     1
102
RTVSPropertyOp1
 70
     1
102
RTVSPropertyOp2
 70
     1
102
RTVSPropertyOp3
 70
     1
102
RTVSPropertyOp4
 70
     1
102
RTVSPropertyOp5
 70
     1
102
RTVSPropertyOp6
 70
     1
102
RTVSPropertyOp7
 70
     1
102
RTVSPropertyOp8
 70
     1
102
RTVSPropertyOp9
 70
     1
102
RTVSPropertyOp10
 70
     1
102
RTVSPropertyOp11
 70
     1
102
RTVSPropertyOp12
 70
     1
102
RTVSPropertyOp13
 70
     1
102
RTVSPropertyOp14
 70
     1
102
RTVSPropertyOp15
 70
     1
102
RTVSPropertyOp16
 70
     1
102
RTVSPropertyOp17
 70
     1
102
RTVSPropertyOp18
 70
     1
102
RTVSPropertyOp19
 70
     1
102
RTVSPropertyOp20
 70
     1
102
RTVSPropertyOp21
 70
     1
102
RTVSPropertyOp22
 70
     1
102
RTVSPropertyOp23
 70
     1
102
RTVSPropertyOp24
 70
     1
102
RTVSPropertyOp25
 70
     1
102
RTVSPropertyOp26
 70
     1
102
RTVSPropertyOp27
 70
     1
102
RTVSPropertyOp28
 70
     1
102
RTVSPropertyOp29
 70
     1
102
RTVSPropertyOp30
 70
     1
102
RTVSPropertyOp31
 70
     1
102
RTVSPropertyOp32
 70
     1
102
RTVSPropertyOp33
 70
     1
102
RTVSPropertyOp34
 70
     1
102
RTVSPropertyOp35
 70
     1
102
RTVSPropertyOp36
 70
     1
102
RTVSPropertyOp37
 70
     1
102
RTVSPropertyOp38
 70
     1
102
RTVSPropertyOp39
 70
     1
102
RTVSPropertyOp40
 70
     1
102
RTVSPropertyOp41
 70
     1
102
RTVSPropertyOp42
 70
     1
102
RTVSPropertyOp43
 70
     1
102
RTVSPropertyOp44
 70
     1
102
RTVSPropertyOp45
 70
     1
102
RTVSPropertyOp46
 70
     1
102
RTVSPropertyOp47
 70
     1
102
RTVSPropertyOp48
 70
     1
102
RTVSPropertyOp49
 70
     1
102
RTVSPropertyOp50
 70
     1
102
RTVSPropertyOp51
 70
     0
102
RTVSPropertyOp52
 70
     0
102
RTVSPropertyOp53
 70
     1
102
RTVSPropertyOp54
 70
     1
102
RTVSPropertyOp55
 70
     1
102
RTVSPropertyOp56
 70
     1
102
RTVSPropertyOp57
 70
     1
102
RTVSPropertyOp58
 70
     1
102
RTVSPropertyOp59
 70
     1
102
RTVSPropertyOp60
 70
     1
102
RTVSPropertyOp61
 70
     1
102
RTVSPropertyOp62
 70
     1
  0
XRECORD
  5
83C1
102
{ACAD_REACTORS
330
83C0
102
}
330
83C0
100
AcDbXrecord
280
     1
102
RTVSPost2010Prop28
280
     0
102
RTVSPost2010PropOp28
 70
     1
102
RTVSPost2010Prop29
280
     1
102
RTVSPost2010PropOp29
 70
     1
102
RTVSPost2010Prop30
280
     1
102
RTVSPost2010PropOp30
 70
     1
102
RTVSPost2010Prop31
280
     0
102
RTVSPost2010PropOp31
 70
     1
102
RTVSPost2010Prop32
280
     0
102
RTVSPost2010PropOp32
 70
     1
102
RTVSPost2010Prop33
280
     0
102
RTVSPost2010PropOp33
 70
     1
102
RTVSPost2010Prop34
280
     0
102
RTVSPost2010PropOp34
 70
     1
102
RTVSPost2010Prop35
280
     0
102
RTVSPost2010PropOp35
 70
     1
102
RTVSPost2010Prop36
280
     0
102
RTVSPost2010PropOp36
 70
     1
102
RTVSPost2010Prop37
 90
       50
102
RTVSPost2010PropOp37
 70
     0
102
RTVSPost2010Prop38
140
0.0
102
RTVSPost2010PropOp38
 70
     0
102
RTVSPost2010Prop39
140
1.0
102
RTVSPost2010PropOp39
 70
     0
102
RTVSPost2010Prop40
 90
        0
102
RTVSPost2010PropOp40
 70
     0
102
RTVSPost2010Prop41ColorIndex
 90
       18
102
RTVSPost2010Prop41ColorRGB
 90
        0
102
RTVSPost2010PropOp41
 70
     0
102
RTVSPost2010Prop42
 90
       50
102
RTVSPost2010PropOp42
 70
     0
102
RTVSPost2010Prop43
 90
        3
102
RTVSPost2010PropOp43
 70
     0
102
RTVSPost2010Prop44ColorIndex
 90
        5
102
RTVSPost2010Prop44ColorRGB
 90
      255
102
RTVSPost2010PropOp44
 70
     0
102
RTVSPost2010Prop45
280
     0
102
RTVSPost2010PropOp45
 70
     1
102
RTVSPost2010Prop46
 90
       50
102
RTVSPost2010PropOp46
 70
     0
102
RTVSPost2010Prop47
 90
       50
102
RTVSPost2010PropOp47
 70
     0
102
RTVSPost2010Prop48
 90
       50
102
RTVSPost2010PropOp48
 70
     0
102
RTVSPost2010Prop49
280
     0
102
RTVSPost2010PropOp49
 70
     1
102
RTVSPost2010Prop50
 90
       50
102
RTVSPost2010PropOp50
 70
     0
102
RTVSPost2010Prop51ColorIndex
 90
      256
102
RTVSPost2010Prop51ColorRGB
 90
-16777216
102
RTVSPost2010PropOp51
 70
     0
102
RTVSPost2010Prop52
140
1.0
102
RTVSPost2010PropOp52
 70
     0
102
RTVSPost2010Prop53
 90
        2
102
RTVSPost2010PropOp53
 70
     0
102
RTVSPost2010Prop54
  1
strokes_ogs.tif
102
RTVSPost2010PropOp54
 70
     0
102
RTVSPost2010Prop55
280
     0
102
RTVSPost2010PropOp55
 70
     1
102
RTVSPost2010Prop56
140
1.0
102
RTVSPost2010PropOp56
 70
     0
102
RTVSPost2010Prop57
140
1.0
102
RTVSPost2010PropOp57
 70
     0
102
RTVSPropertyOp0
 70
     0
102
RTVSPropertyOp1
 70
     0
102
RTVSPropertyOp2
 70
     0
102
RTVSPropertyOp3
 70
     0
102
RTVSPropertyOp4
 70
     0
102
RTVSPropertyOp5
 70
     0
102
RTVSPropertyOp6
 70
     0
102
RTVSPropertyOp7
 70
     0
102
RTVSPropertyOp8
 70
     0
102
RTVSPropertyOp9
 70
     0
102
RTVSPropertyOp10
 70
     0
102
RTVSPropertyOp11
 70
     0
102
RTVSPropertyOp12
 70
     0
102
RTVSPropertyOp13
 70
     0
102
RTVSPropertyOp14
 70
     2
102
RTVSPropertyOp15
 70
     0
102
RTVSPropertyOp16
 70
     0
102
RTVSPropertyOp17
 70
     0
102
RTVSPropertyOp18
 70
     0
102
RTVSPropertyOp19
 70
     0
102
RTVSPropertyOp20
 70
     0
102
RTVSPropertyOp21
 70
     0
102
RTVSPropertyOp22
 70
     0
102
RTVSPropertyOp23
 70
     0
102
RTVSPropertyOp24
 70
     0
102
RTVSPropertyOp25
 70
     0
102
RTVSPropertyOp26
 70
     0
102
RTVSPropertyOp27
 70
     0
102
RTVSPropertyOp28
 70
     1
102
RTVSPropertyOp29
 70
     1
102
RTVSPropertyOp30
 70
     1
102
RTVSPropertyOp31
 70
     1
102
RTVSPropertyOp32
 70
     1
102
RTVSPropertyOp33
 70
     1
102
RTVSPropertyOp34
 70
     1
102
RTVSPropertyOp35
 70
     1
102
RTVSPropertyOp36
 70
     1
102
RTVSPropertyOp37
 70
     0
102
RTVSPropertyOp38
 70
     0
102
RTVSPropertyOp39
 70
     0
102
RTVSPropertyOp40
 70
     0
102
RTVSPropertyOp41
 70
     0
102
RTVSPropertyOp42
 70
     0
102
RTVSPropertyOp43
 70
     0
102
RTVSPropertyOp44
 70
     0
102
RTVSPropertyOp45
 70
     1
102
RTVSPropertyOp46
 70
     0
102
RTVSPropertyOp47
 70
     0
102
RTVSPropertyOp48
 70
     0
102
RTVSPropertyOp49
 70
     1
102
RTVSPropertyOp50
 70
     0
102
RTVSPropertyOp51
 70
     0
102
RTVSPropertyOp52
 70
     0
102
RTVSPropertyOp53
 70
     0
102
RTVSPropertyOp54
 70
     0
102
RTVSPropertyOp55
 70
     1
102
RTVSPropertyOp56
 70
     0
102
RTVSPropertyOp57
 70
     0
102
RTVSPropertyOp58
 70
     0
102
RTVSPropertyOp59
 70
     0
102
RTVSPropertyOp60
 70
     0
102
RTVSPropertyOp61
 70
     0
102
RTVSPropertyOp62
 70
     0
  0
XRECORD
  5
83A7
102
{ACAD_REACTORS
330
83A6
102
}
330
83A6
100
AcDbXrecord
280
     1
102
RTVSPost2010Prop28
280
     0
102
RTVSPost2010PropOp28
 70
     1
102
RTVSPost2010Prop29
280
     1
102
RTVSPost2010PropOp29
 70
     1
102
RTVSPost2010Prop30
280
     1
102
RTVSPost2010PropOp30
 70
     1
102
RTVSPost2010Prop31
280
     0
102
RTVSPost2010PropOp31
 70
     1
102
RTVSPost2010Prop32
280
     0
102
RTVSPost2010PropOp32
 70
     1
102
RTVSPost2010Prop33
280
     0
102
RTVSPost2010PropOp33
 70
     1
102
RTVSPost2010Prop34
280
     0
102
RTVSPost2010PropOp34
 70
     1
102
RTVSPost2010Prop35
280
     0
102
RTVSPost2010PropOp35
 70
     1
102
RTVSPost2010Prop36
280
     0
102
RTVSPost2010PropOp36
 70
     1
102
RTVSPost2010Prop37
 90
       50
102
RTVSPost2010PropOp37
 70
     1
102
RTVSPost2010Prop38
140
0.0
102
RTVSPost2010PropOp38
 70
     1
102
RTVSPost2010Prop39
140
1.0
102
RTVSPost2010PropOp39
 70
     1
102
RTVSPost2010Prop40
 90
        0
102
RTVSPost2010PropOp40
 70
     1
102
RTVSPost2010Prop41ColorIndex
 90
       18
102
RTVSPost2010Prop41ColorRGB
 90
        0
102
RTVSPost2010PropOp41
 70
     1
102
RTVSPost2010Prop42
 90
       50
102
RTVSPost2010PropOp42
 70
     1
102
RTVSPost2010Prop43
 90
        3
102
RTVSPost2010PropOp43
 70
     1
102
RTVSPost2010Prop44ColorIndex
 90
        5
102
RTVSPost2010Prop44ColorRGB
 90
      255
102
RTVSPost2010PropOp44
 70
     1
102
RTVSPost2010Prop45
280
     0
102
RTVSPost2010PropOp45
 70
     1
102
RTVSPost2010Prop46
 90
       50
102
RTVSPost2010PropOp46
 70
     1
102
RTVSPost2010Prop47
 90
       50
102
RTVSPost2010PropOp47
 70
     1
102
RTVSPost2010Prop48
 90
       50
102
RTVSPost2010PropOp48
 70
     1
102
RTVSPost2010Prop49
280
     0
102
RTVSPost2010PropOp49
 70
     1
102
RTVSPost2010Prop50
 90
       50
102
RTVSPost2010PropOp50
 70
     1
102
RTVSPost2010Prop51ColorIndex
 90
      256
102
RTVSPost2010Prop51ColorRGB
 90
-16777216
102
RTVSPost2010PropOp51
 70
     0
102
RTVSPost2010Prop52
140
1.0
102
RTVSPost2010PropOp52
 70
     0
102
RTVSPost2010Prop53
 90
        2
102
RTVSPost2010PropOp53
 70
     1
102
RTVSPost2010Prop54
  1
strokes_ogs.tif
102
RTVSPost2010PropOp54
 70
     1
102
RTVSPost2010Prop55
280
     0
102
RTVSPost2010PropOp55
 70
     1
102
RTVSPost2010Prop56
140
1.0
102
RTVSPost2010PropOp56
 70
     1
102
RTVSPost2010Prop57
140
1.0
102
RTVSPost2010PropOp57
 70
     1
102
RTVSPropertyOp0
 70
     1
102
RTVSPropertyOp1
 70
     1
102
RTVSPropertyOp2
 70
     1
102
RTVSPropertyOp3
 70
     1
102
RTVSPropertyOp4
 70
     1
102
RTVSPropertyOp5
 70
     1
102
RTVSPropertyOp6
 70
     1
102
RTVSPropertyOp7
 70
     1
102
RTVSPropertyOp8
 70
     1
102
RTVSPropertyOp9
 70
     1
102
RTVSPropertyOp10
 70
     1
102
RTVSPropertyOp11
 70
     1
102
RTVSPropertyOp12
 70
     1
102
RTVSPropertyOp13
 70
     1
102
RTVSPropertyOp14
 70
     1
102
RTVSPropertyOp15
 70
     1
102
RTVSPropertyOp16
 70
     1
102
RTVSPropertyOp17
 70
     1
102
RTVSPropertyOp18
 70
     1
102
RTVSPropertyOp19
 70
     1
102
RTVSPropertyOp20
 70
     1
102
RTVSPropertyOp21
 70
     1
102
RTVSPropertyOp22
 70
     1
102
RTVSPropertyOp23
 70
     1
102
RTVSPropertyOp24
 70
     1
102
RTVSPropertyOp25
 70
     1
102
RTVSPropertyOp26
 70
     1
102
RTVSPropertyOp27
 70
     1
102
RTVSPropertyOp28
 70
     1
102
RTVSPropertyOp29
 70
     1
102
RTVSPropertyOp30
 70
     1
102
RTVSPropertyOp31
 70
     1
102
RTVSPropertyOp32
 70
     1
102
RTVSPropertyOp33
 70
     1
102
RTVSPropertyOp34
 70
     1
102
RTVSPropertyOp35
 70
     1
102
RTVSPropertyOp36
 70
     1
102
RTVSPropertyOp37
 70
     1
102
RTVSPropertyOp38
 70
     1
102
RTVSPropertyOp39
 70
     1
102
RTVSPropertyOp40
 70
     1
102
RTVSPropertyOp41
 70
     1
102
RTVSPropertyOp42
 70
     1
102
RTVSPropertyOp43
 70
     1
102
RTVSPropertyOp44
 70
     1
102
RTVSPropertyOp45
 70
     1
102
RTVSPropertyOp46
 70
     1
102
RTVSPropertyOp47
 70
     1
102
RTVSPropertyOp48
 70
     1
102
RTVSPropertyOp49
 70
     1
102
RTVSPropertyOp50
 70
     1
102
RTVSPropertyOp51
 70
     0
102
RTVSPropertyOp52
 70
     0
102
RTVSPropertyOp53
 70
     1
102
RTVSPropertyOp54
 70
     1
102
RTVSPropertyOp55
 70
     1
102
RTVSPropertyOp56
 70
     1
102
RTVSPropertyOp57
 70
     1
102
RTVSPropertyOp58
 70
     1
102
RTVSPropertyOp59
 70
     1
102
RTVSPropertyOp60
 70
     1
102
RTVSPropertyOp61
 70
     1
102
RTVSPropertyOp62
 70
     1
  0
XRECORD
  5
83BD
102
{ACAD_REACTORS
330
83BC
102
}
330
83BC
100
AcDbXrecord
280
     1
102
RTVSPost2010Prop28
280
     0
102
RTVSPost2010PropOp28
 70
     1
102
RTVSPost2010Prop29
280
     1
102
RTVSPost2010PropOp29
 70
     1
102
RTVSPost2010Prop30
280
     1
102
RTVSPost2010PropOp30
 70
     1
102
RTVSPost2010Prop31
280
     0
102
RTVSPost2010PropOp31
 70
     1
102
RTVSPost2010Prop32
280
     0
102
RTVSPost2010PropOp32
 70
     1
102
RTVSPost2010Prop33
280
     0
102
RTVSPost2010PropOp33
 70
     1
102
RTVSPost2010Prop34
280
     0
102
RTVSPost2010PropOp34
 70
     1
102
RTVSPost2010Prop35
280
     0
102
RTVSPost2010PropOp35
 70
     1
102
RTVSPost2010Prop36
280
     0
102
RTVSPost2010PropOp36
 70
     1
102
RTVSPost2010Prop37
 90
       50
102
RTVSPost2010PropOp37
 70
     1
102
RTVSPost2010Prop38
140
0.0
102
RTVSPost2010PropOp38
 70
     1
102
RTVSPost2010Prop39
140
1.0
102
RTVSPost2010PropOp39
 70
     1
102
RTVSPost2010Prop40
 90
        0
102
RTVSPost2010PropOp40
 70
     1
102
RTVSPost2010Prop41ColorIndex
 90
       18
102
RTVSPost2010Prop41ColorRGB
 90
        0
102
RTVSPost2010PropOp41
 70
     1
102
RTVSPost2010Prop42
 90
       50
102
RTVSPost2010PropOp42
 70
     1
102
RTVSPost2010Prop43
 90
        3
102
RTVSPost2010PropOp43
 70
     1
102
RTVSPost2010Prop44ColorIndex
 90
        5
102
RTVSPost2010Prop44ColorRGB
 90
      255
102
RTVSPost2010PropOp44
 70
     1
102
RTVSPost2010Prop45
280
     0
102
RTVSPost2010PropOp45
 70
     1
102
RTVSPost2010Prop46
 90
       50
102
RTVSPost2010PropOp46
 70
     1
102
RTVSPost2010Prop47
 90
       50
102
RTVSPost2010PropOp47
 70
     1
102
RTVSPost2010Prop48
 90
       50
102
RTVSPost2010PropOp48
 70
     1
102
RTVSPost2010Prop49
280
     0
102
RTVSPost2010PropOp49
 70
     1
102
RTVSPost2010Prop50
 90
       50
102
RTVSPost2010PropOp50
 70
     1
102
RTVSPost2010Prop51ColorIndex
 90
      256
102
RTVSPost2010Prop51ColorRGB
 90
-16777216
102
RTVSPost2010PropOp51
 70
     0
102
RTVSPost2010Prop52
140
1.0
102
RTVSPost2010PropOp52
 70
     0
102
RTVSPost2010Prop53
 90
        2
102
RTVSPost2010PropOp53
 70
     1
102
RTVSPost2010Prop54
  1
strokes_ogs.tif
102
RTVSPost2010PropOp54
 70
     1
102
RTVSPost2010Prop55
280
     0
102
RTVSPost2010PropOp55
 70
     1
102
RTVSPost2010Prop56
140
1.0
102
RTVSPost2010PropOp56
 70
     1
102
RTVSPost2010Prop57
140
1.0
102
RTVSPost2010PropOp57
 70
     1
102
RTVSPropertyOp0
 70
     1
102
RTVSPropertyOp1
 70
     1
102
RTVSPropertyOp2
 70
     1
102
RTVSPropertyOp3
 70
     1
102
RTVSPropertyOp4
 70
     1
102
RTVSPropertyOp5
 70
     1
102
RTVSPropertyOp6
 70
     1
102
RTVSPropertyOp7
 70
     1
102
RTVSPropertyOp8
 70
     1
102
RTVSPropertyOp9
 70
     1
102
RTVSPropertyOp10
 70
     1
102
RTVSPropertyOp11
 70
     1
102
RTVSPropertyOp12
 70
     1
102
RTVSPropertyOp13
 70
     1
102
RTVSPropertyOp14
 70
     1
102
RTVSPropertyOp15
 70
     1
102
RTVSPropertyOp16
 70
     1
102
RTVSPropertyOp17
 70
     1
102
RTVSPropertyOp18
 70
     1
102
RTVSPropertyOp19
 70
     1
102
RTVSPropertyOp20
 70
     1
102
RTVSPropertyOp21
 70
     1
102
RTVSPropertyOp22
 70
     1
102
RTVSPropertyOp23
 70
     1
102
RTVSPropertyOp24
 70
     1
102
RTVSPropertyOp25
 70
     1
102
RTVSPropertyOp26
 70
     1
102
RTVSPropertyOp27
 70
     1
102
RTVSPropertyOp28
 70
     1
102
RTVSPropertyOp29
 70
     1
102
RTVSPropertyOp30
 70
     1
102
RTVSPropertyOp31
 70
     1
102
RTVSPropertyOp32
 70
     1
102
RTVSPropertyOp33
 70
     1
102
RTVSPropertyOp34
 70
     1
102
RTVSPropertyOp35
 70
     1
102
RTVSPropertyOp36
 70
     1
102
RTVSPropertyOp37
 70
     1
102
RTVSPropertyOp38
 70
     1
102
RTVSPropertyOp39
 70
     1
102
RTVSPropertyOp40
 70
     1
102
RTVSPropertyOp41
 70
     1
102
RTVSPropertyOp42
 70
     1
102
RTVSPropertyOp43
 70
     1
102
RTVSPropertyOp44
 70
     1
102
RTVSPropertyOp45
 70
     1
102
RTVSPropertyOp46
 70
     1
102
RTVSPropertyOp47
 70
     1
102
RTVSPropertyOp48
 70
     1
102
RTVSPropertyOp49
 70
     1
102
RTVSPropertyOp50
 70
     1
102
RTVSPropertyOp51
 70
     0
102
RTVSPropertyOp52
 70
     0
102
RTVSPropertyOp53
 70
     1
102
RTVSPropertyOp54
 70
     1
102
RTVSPropertyOp55
 70
     1
102
RTVSPropertyOp56
 70
     1
102
RTVSPropertyOp57
 70
     1
102
RTVSPropertyOp58
 70
     1
102
RTVSPropertyOp59
 70
     1
102
RTVSPropertyOp60
 70
     1
102
RTVSPropertyOp61
 70
     1
102
RTVSPropertyOp62
 70
     1
  0
XRECORD
  5
83BB
102
{ACAD_REACTORS
330
83BA
102
}
330
83BA
100
AcDbXrecord
280
     1
102
RTVSPost2010Prop28
280
     0
102
RTVSPost2010PropOp28
 70
     1
102
RTVSPost2010Prop29
280
     1
102
RTVSPost2010PropOp29
 70
     1
102
RTVSPost2010Prop30
280
     1
102
RTVSPost2010PropOp30
 70
     1
102
RTVSPost2010Prop31
280
     0
102
RTVSPost2010PropOp31
 70
     1
102
RTVSPost2010Prop32
280
     0
102
RTVSPost2010PropOp32
 70
     1
102
RTVSPost2010Prop33
280
     0
102
RTVSPost2010PropOp33
 70
     1
102
RTVSPost2010Prop34
280
     0
102
RTVSPost2010PropOp34
 70
     1
102
RTVSPost2010Prop35
280
     0
102
RTVSPost2010PropOp35
 70
     1
102
RTVSPost2010Prop36
280
     0
102
RTVSPost2010PropOp36
 70
     1
102
RTVSPost2010Prop37
 90
       50
102
RTVSPost2010PropOp37
 70
     1
102
RTVSPost2010Prop38
140
0.0
102
RTVSPost2010PropOp38
 70
     1
102
RTVSPost2010Prop39
140
1.0
102
RTVSPost2010PropOp39
 70
     1
102
RTVSPost2010Prop40
 90
        0
102
RTVSPost2010PropOp40
 70
     1
102
RTVSPost2010Prop41ColorIndex
 90
       18
102
RTVSPost2010Prop41ColorRGB
 90
        0
102
RTVSPost2010PropOp41
 70
     1
102
RTVSPost2010Prop42
 90
       50
102
RTVSPost2010PropOp42
 70
     1
102
RTVSPost2010Prop43
 90
        3
102
RTVSPost2010PropOp43
 70
     1
102
RTVSPost2010Prop44ColorIndex
 90
        5
102
RTVSPost2010Prop44ColorRGB
 90
      255
102
RTVSPost2010PropOp44
 70
     1
102
RTVSPost2010Prop45
280
     0
102
RTVSPost2010PropOp45
 70
     1
102
RTVSPost2010Prop46
 90
       50
102
RTVSPost2010PropOp46
 70
     1
102
RTVSPost2010Prop47
 90
       50
102
RTVSPost2010PropOp47
 70
     1
102
RTVSPost2010Prop48
 90
       50
102
RTVSPost2010PropOp48
 70
     1
102
RTVSPost2010Prop49
280
     0
102
RTVSPost2010PropOp49
 70
     1
102
RTVSPost2010Prop50
 90
       50
102
RTVSPost2010PropOp50
 70
     1
102
RTVSPost2010Prop51ColorIndex
 90
      256
102
RTVSPost2010Prop51ColorRGB
 90
-16777216
102
RTVSPost2010PropOp51
 70
     0
102
RTVSPost2010Prop52
140
1.0
102
RTVSPost2010PropOp52
 70
     0
102
RTVSPost2010Prop53
 90
        2
102
RTVSPost2010PropOp53
 70
     1
102
RTVSPost2010Prop54
  1
strokes_ogs.tif
102
RTVSPost2010PropOp54
 70
     1
102
RTVSPost2010Prop55
280
     0
102
RTVSPost2010PropOp55
 70
     1
102
RTVSPost2010Prop56
140
1.0
102
RTVSPost2010PropOp56
 70
     1
102
RTVSPost2010Prop57
140
1.0
102
RTVSPost2010PropOp57
 70
     1
102
RTVSPropertyOp0
 70
     1
102
RTVSPropertyOp1
 70
     1
102
RTVSPropertyOp2
 70
     1
102
RTVSPropertyOp3
 70
     1
102
RTVSPropertyOp4
 70
     1
102
RTVSPropertyOp5
 70
     1
102
RTVSPropertyOp6
 70
     1
102
RTVSPropertyOp7
 70
     1
102
RTVSPropertyOp8
 70
     1
102
RTVSPropertyOp9
 70
     1
102
RTVSPropertyOp10
 70
     1
102
RTVSPropertyOp11
 70
     1
102
RTVSPropertyOp12
 70
     1
102
RTVSPropertyOp13
 70
     1
102
RTVSPropertyOp14
 70
     1
102
RTVSPropertyOp15
 70
     1
102
RTVSPropertyOp16
 70
     1
102
RTVSPropertyOp17
 70
     1
102
RTVSPropertyOp18
 70
     1
102
RTVSPropertyOp19
 70
     1
102
RTVSPropertyOp20
 70
     1
102
RTVSPropertyOp21
 70
     1
102
RTVSPropertyOp22
 70
     1
102
RTVSPropertyOp23
 70
     1
102
RTVSPropertyOp24
 70
     1
102
RTVSPropertyOp25
 70
     1
102
RTVSPropertyOp26
 70
     1
102
RTVSPropertyOp27
 70
     1
102
RTVSPropertyOp28
 70
     1
102
RTVSPropertyOp29
 70
     1
102
RTVSPropertyOp30
 70
     1
102
RTVSPropertyOp31
 70
     1
102
RTVSPropertyOp32
 70
     1
102
RTVSPropertyOp33
 70
     1
102
RTVSPropertyOp34
 70
     1
102
RTVSPropertyOp35
 70
     1
102
RTVSPropertyOp36
 70
     1
102
RTVSPropertyOp37
 70
     1
102
RTVSPropertyOp38
 70
     1
102
RTVSPropertyOp39
 70
     1
102
RTVSPropertyOp40
 70
     1
102
RTVSPropertyOp41
 70
     1
102
RTVSPropertyOp42
 70
     1
102
RTVSPropertyOp43
 70
     1
102
RTVSPropertyOp44
 70
     1
102
RTVSPropertyOp45
 70
     1
102
RTVSPropertyOp46
 70
     1
102
RTVSPropertyOp47
 70
     1
102
RTVSPropertyOp48
 70
     1
102
RTVSPropertyOp49
 70
     1
102
RTVSPropertyOp50
 70
     1
102
RTVSPropertyOp51
 70
     0
102
RTVSPropertyOp52
 70
     0
102
RTVSPropertyOp53
 70
     1
102
RTVSPropertyOp54
 70
     1
102
RTVSPropertyOp55
 70
     1
102
RTVSPropertyOp56
 70
     1
102
RTVSPropertyOp57
 70
     1
102
RTVSPropertyOp58
 70
     1
102
RTVSPropertyOp59
 70
     1
102
RTVSPropertyOp60
 70
     1
102
RTVSPropertyOp61
 70
     1
102
RTVSPropertyOp62
 70
     1
  0
XRECORD
  5
83B5
102
{ACAD_REACTORS
330
83B4
102
}
330
83B4
100
AcDbXrecord
280
     1
102
RTVSPost2010Prop28
280
     0
102
RTVSPost2010PropOp28
 70
     1
102
RTVSPost2010Prop29
280
     1
102
RTVSPost2010PropOp29
 70
     1
102
RTVSPost2010Prop30
280
     1
102
RTVSPost2010PropOp30
 70
     1
102
RTVSPost2010Prop31
280
     0
102
RTVSPost2010PropOp31
 70
     1
102
RTVSPost2010Prop32
280
     0
102
RTVSPost2010PropOp32
 70
     1
102
RTVSPost2010Prop33
280
     0
102
RTVSPost2010PropOp33
 70
     1
102
RTVSPost2010Prop34
280
     0
102
RTVSPost2010PropOp34
 70
     1
102
RTVSPost2010Prop35
280
     0
102
RTVSPost2010PropOp35
 70
     1
102
RTVSPost2010Prop36
280
     0
102
RTVSPost2010PropOp36
 70
     1
102
RTVSPost2010Prop37
 90
       50
102
RTVSPost2010PropOp37
 70
     1
102
RTVSPost2010Prop38
140
0.0
102
RTVSPost2010PropOp38
 70
     1
102
RTVSPost2010Prop39
140
1.0
102
RTVSPost2010PropOp39
 70
     1
102
RTVSPost2010Prop40
 90
        0
102
RTVSPost2010PropOp40
 70
     1
102
RTVSPost2010Prop41ColorIndex
 90
       18
102
RTVSPost2010Prop41ColorRGB
 90
        0
102
RTVSPost2010PropOp41
 70
     1
102
RTVSPost2010Prop42
 90
       50
102
RTVSPost2010PropOp42
 70
     1
102
RTVSPost2010Prop43
 90
        3
102
RTVSPost2010PropOp43
 70
     1
102
RTVSPost2010Prop44ColorIndex
 90
        5
102
RTVSPost2010Prop44ColorRGB
 90
      255
102
RTVSPost2010PropOp44
 70
     1
102
RTVSPost2010Prop45
280
     0
102
RTVSPost2010PropOp45
 70
     1
102
RTVSPost2010Prop46
 90
       50
102
RTVSPost2010PropOp46
 70
     1
102
RTVSPost2010Prop47
 90
       50
102
RTVSPost2010PropOp47
 70
     1
102
RTVSPost2010Prop48
 90
       50
102
RTVSPost2010PropOp48
 70
     1
102
RTVSPost2010Prop49
280
     0
102
RTVSPost2010PropOp49
 70
     1
102
RTVSPost2010Prop50
 90
       50
102
RTVSPost2010PropOp50
 70
     1
102
RTVSPost2010Prop51ColorIndex
 90
      256
102
RTVSPost2010Prop51ColorRGB
 90
-16777216
102
RTVSPost2010PropOp51
 70
     0
102
RTVSPost2010Prop52
140
1.0
102
RTVSPost2010PropOp52
 70
     0
102
RTVSPost2010Prop53
 90
        2
102
RTVSPost2010PropOp53
 70
     1
102
RTVSPost2010Prop54
  1
strokes_ogs.tif
102
RTVSPost2010PropOp54
 70
     1
102
RTVSPost2010Prop55
280
     0
102
RTVSPost2010PropOp55
 70
     1
102
RTVSPost2010Prop56
140
1.0
102
RTVSPost2010PropOp56
 70
     1
102
RTVSPost2010Prop57
140
1.0
102
RTVSPost2010PropOp57
 70
     1
102
RTVSPropertyOp0
 70
     1
102
RTVSPropertyOp1
 70
     1
102
RTVSPropertyOp2
 70
     1
102
RTVSPropertyOp3
 70
     1
102
RTVSPropertyOp4
 70
     1
102
RTVSPropertyOp5
 70
     1
102
RTVSPropertyOp6
 70
     1
102
RTVSPropertyOp7
 70
     1
102
RTVSPropertyOp8
 70
     1
102
RTVSPropertyOp9
 70
     1
102
RTVSPropertyOp10
 70
     1
102
RTVSPropertyOp11
 70
     1
102
RTVSPropertyOp12
 70
     1
102
RTVSPropertyOp13
 70
     1
102
RTVSPropertyOp14
 70
     1
102
RTVSPropertyOp15
 70
     1
102
RTVSPropertyOp16
 70
     1
102
RTVSPropertyOp17
 70
     1
102
RTVSPropertyOp18
 70
     1
102
RTVSPropertyOp19
 70
     1
102
RTVSPropertyOp20
 70
     1
102
RTVSPropertyOp21
 70
     1
102
RTVSPropertyOp22
 70
     1
102
RTVSPropertyOp23
 70
     1
102
RTVSPropertyOp24
 70
     1
102
RTVSPropertyOp25
 70
     1
102
RTVSPropertyOp26
 70
     1
102
RTVSPropertyOp27
 70
     1
102
RTVSPropertyOp28
 70
     1
102
RTVSPropertyOp29
 70
     1
102
RTVSPropertyOp30
 70
     1
102
RTVSPropertyOp31
 70
     1
102
RTVSPropertyOp32
 70
     1
102
RTVSPropertyOp33
 70
     1
102
RTVSPropertyOp34
 70
     1
102
RTVSPropertyOp35
 70
     1
102
RTVSPropertyOp36
 70
     1
102
RTVSPropertyOp37
 70
     1
102
RTVSPropertyOp38
 70
     1
102
RTVSPropertyOp39
 70
     1
102
RTVSPropertyOp40
 70
     1
102
RTVSPropertyOp41
 70
     1
102
RTVSPropertyOp42
 70
     1
102
RTVSPropertyOp43
 70
     1
102
RTVSPropertyOp44
 70
     1
102
RTVSPropertyOp45
 70
     1
102
RTVSPropertyOp46
 70
     1
102
RTVSPropertyOp47
 70
     1
102
RTVSPropertyOp48
 70
     1
102
RTVSPropertyOp49
 70
     1
102
RTVSPropertyOp50
 70
     1
102
RTVSPropertyOp51
 70
     0
102
RTVSPropertyOp52
 70
     0
102
RTVSPropertyOp53
 70
     1
102
RTVSPropertyOp54
 70
     1
102
RTVSPropertyOp55
 70
     1
102
RTVSPropertyOp56
 70
     1
102
RTVSPropertyOp57
 70
     1
102
RTVSPropertyOp58
 70
     1
102
RTVSPropertyOp59
 70
     1
102
RTVSPropertyOp60
 70
     1
102
RTVSPropertyOp61
 70
     1
102
RTVSPropertyOp62
 70
     1
  0
XRECORD
  5
83B7
102
{ACAD_REACTORS
330
83B6
102
}
330
83B6
100
AcDbXrecord
280
     1
102
RTVSPost2010Prop28
280
     0
102
RTVSPost2010PropOp28
 70
     1
102
RTVSPost2010Prop29
280
     1
102
RTVSPost2010PropOp29
 70
     1
102
RTVSPost2010Prop30
280
     1
102
RTVSPost2010PropOp30
 70
     1
102
RTVSPost2010Prop31
280
     0
102
RTVSPost2010PropOp31
 70
     1
102
RTVSPost2010Prop32
280
     0
102
RTVSPost2010PropOp32
 70
     1
102
RTVSPost2010Prop33
280
     0
102
RTVSPost2010PropOp33
 70
     1
102
RTVSPost2010Prop34
280
     0
102
RTVSPost2010PropOp34
 70
     1
102
RTVSPost2010Prop35
280
     0
102
RTVSPost2010PropOp35
 70
     1
102
RTVSPost2010Prop36
280
     0
102
RTVSPost2010PropOp36
 70
     1
102
RTVSPost2010Prop37
 90
       50
102
RTVSPost2010PropOp37
 70
     1
102
RTVSPost2010Prop38
140
0.0
102
RTVSPost2010PropOp38
 70
     1
102
RTVSPost2010Prop39
140
1.0
102
RTVSPost2010PropOp39
 70
     1
102
RTVSPost2010Prop40
 90
        0
102
RTVSPost2010PropOp40
 70
     1
102
RTVSPost2010Prop41ColorIndex
 90
       18
102
RTVSPost2010Prop41ColorRGB
 90
        0
102
RTVSPost2010PropOp41
 70
     1
102
RTVSPost2010Prop42
 90
       50
102
RTVSPost2010PropOp42
 70
     1
102
RTVSPost2010Prop43
 90
        3
102
RTVSPost2010PropOp43
 70
     1
102
RTVSPost2010Prop44ColorIndex
 90
        5
102
RTVSPost2010Prop44ColorRGB
 90
      255
102
RTVSPost2010PropOp44
 70
     1
102
RTVSPost2010Prop45
280
     0
102
RTVSPost2010PropOp45
 70
     1
102
RTVSPost2010Prop46
 90
       50
102
RTVSPost2010PropOp46
 70
     1
102
RTVSPost2010Prop47
 90
       50
102
RTVSPost2010PropOp47
 70
     1
102
RTVSPost2010Prop48
 90
       50
102
RTVSPost2010PropOp48
 70
     1
102
RTVSPost2010Prop49
280
     0
102
RTVSPost2010PropOp49
 70
     1
102
RTVSPost2010Prop50
 90
       50
102
RTVSPost2010PropOp50
 70
     1
102
RTVSPost2010Prop51ColorIndex
 90
      256
102
RTVSPost2010Prop51ColorRGB
 90
-16777216
102
RTVSPost2010PropOp51
 70
     0
102
RTVSPost2010Prop52
140
1.0
102
RTVSPost2010PropOp52
 70
     0
102
RTVSPost2010Prop53
 90
        2
102
RTVSPost2010PropOp53
 70
     1
102
RTVSPost2010Prop54
  1
strokes_ogs.tif
102
RTVSPost2010PropOp54
 70
     1
102
RTVSPost2010Prop55
280
     0
102
RTVSPost2010PropOp55
 70
     1
102
RTVSPost2010Prop56
140
1.0
102
RTVSPost2010PropOp56
 70
     1
102
RTVSPost2010Prop57
140
1.0
102
RTVSPost2010PropOp57
 70
     1
102
RTVSPropertyOp0
 70
     1
102
RTVSPropertyOp1
 70
     1
102
RTVSPropertyOp2
 70
     1
102
RTVSPropertyOp3
 70
     1
102
RTVSPropertyOp4
 70
     1
102
RTVSPropertyOp5
 70
     1
102
RTVSPropertyOp6
 70
     1
102
RTVSPropertyOp7
 70
     1
102
RTVSPropertyOp8
 70
     1
102
RTVSPropertyOp9
 70
     1
102
RTVSPropertyOp10
 70
     1
102
RTVSPropertyOp11
 70
     1
102
RTVSPropertyOp12
 70
     1
102
RTVSPropertyOp13
 70
     1
102
RTVSPropertyOp14
 70
     1
102
RTVSPropertyOp15
 70
     1
102
RTVSPropertyOp16
 70
     1
102
RTVSPropertyOp17
 70
     1
102
RTVSPropertyOp18
 70
     1
102
RTVSPropertyOp19
 70
     1
102
RTVSPropertyOp20
 70
     1
102
RTVSPropertyOp21
 70
     1
102
RTVSPropertyOp22
 70
     1
102
RTVSPropertyOp23
 70
     1
102
RTVSPropertyOp24
 70
     1
102
RTVSPropertyOp25
 70
     1
102
RTVSPropertyOp26
 70
     1
102
RTVSPropertyOp27
 70
     1
102
RTVSPropertyOp28
 70
     1
102
RTVSPropertyOp29
 70
     1
102
RTVSPropertyOp30
 70
     1
102
RTVSPropertyOp31
 70
     1
102
RTVSPropertyOp32
 70
     1
102
RTVSPropertyOp33
 70
     1
102
RTVSPropertyOp34
 70
     1
102
RTVSPropertyOp35
 70
     1
102
RTVSPropertyOp36
 70
     1
102
RTVSPropertyOp37
 70
     1
102
RTVSPropertyOp38
 70
     1
102
RTVSPropertyOp39
 70
     1
102
RTVSPropertyOp40
 70
     1
102
RTVSPropertyOp41
 70
     1
102
RTVSPropertyOp42
 70
     1
102
RTVSPropertyOp43
 70
     1
102
RTVSPropertyOp44
 70
     1
102
RTVSPropertyOp45
 70
     1
102
RTVSPropertyOp46
 70
     1
102
RTVSPropertyOp47
 70
     1
102
RTVSPropertyOp48
 70
     1
102
RTVSPropertyOp49
 70
     1
102
RTVSPropertyOp50
 70
     1
102
RTVSPropertyOp51
 70
     0
102
RTVSPropertyOp52
 70
     0
102
RTVSPropertyOp53
 70
     1
102
RTVSPropertyOp54
 70
     1
102
RTVSPropertyOp55
 70
     1
102
RTVSPropertyOp56
 70
     1
102
RTVSPropertyOp57
 70
     1
102
RTVSPropertyOp58
 70
     1
102
RTVSPropertyOp59
 70
     1
102
RTVSPropertyOp60
 70
     1
102
RTVSPropertyOp61
 70
     1
102
RTVSPropertyOp62
 70
     1
  0
XRECORD
  5
83AD
102
{ACAD_REACTORS
330
83AC
102
}
330
83AC
100
AcDbXrecord
280
     1
102
RTVSPost2010Prop28
280
     0
102
RTVSPost2010PropOp28
 70
     1
102
RTVSPost2010Prop29
280
     1
102
RTVSPost2010PropOp29
 70
     1
102
RTVSPost2010Prop30
280
     1
102
RTVSPost2010PropOp30
 70
     1
102
RTVSPost2010Prop31
280
     0
102
RTVSPost2010PropOp31
 70
     1
102
RTVSPost2010Prop32
280
     0
102
RTVSPost2010PropOp32
 70
     1
102
RTVSPost2010Prop33
280
     0
102
RTVSPost2010PropOp33
 70
     1
102
RTVSPost2010Prop34
280
     0
102
RTVSPost2010PropOp34
 70
     1
102
RTVSPost2010Prop35
280
     0
102
RTVSPost2010PropOp35
 70
     1
102
RTVSPost2010Prop36
280
     0
102
RTVSPost2010PropOp36
 70
     1
102
RTVSPost2010Prop37
 90
       50
102
RTVSPost2010PropOp37
 70
     1
102
RTVSPost2010Prop38
140
0.0
102
RTVSPost2010PropOp38
 70
     1
102
RTVSPost2010Prop39
140
1.0
102
RTVSPost2010PropOp39
 70
     1
102
RTVSPost2010Prop40
 90
        0
102
RTVSPost2010PropOp40
 70
     1
102
RTVSPost2010Prop41ColorIndex
 90
       18
102
RTVSPost2010Prop41ColorRGB
 90
        0
102
RTVSPost2010PropOp41
 70
     1
102
RTVSPost2010Prop42
 90
       50
102
RTVSPost2010PropOp42
 70
     1
102
RTVSPost2010Prop43
 90
        3
102
RTVSPost2010PropOp43
 70
     1
102
RTVSPost2010Prop44ColorIndex
 90
        5
102
RTVSPost2010Prop44ColorRGB
 90
      255
102
RTVSPost2010PropOp44
 70
     1
102
RTVSPost2010Prop45
280
     0
102
RTVSPost2010PropOp45
 70
     1
102
RTVSPost2010Prop46
 90
       50
102
RTVSPost2010PropOp46
 70
     1
102
RTVSPost2010Prop47
 90
       50
102
RTVSPost2010PropOp47
 70
     1
102
RTVSPost2010Prop48
 90
       50
102
RTVSPost2010PropOp48
 70
     1
102
RTVSPost2010Prop49
280
     0
102
RTVSPost2010PropOp49
 70
     1
102
RTVSPost2010Prop50
 90
       50
102
RTVSPost2010PropOp50
 70
     1
102
RTVSPost2010Prop51ColorIndex
 90
      256
102
RTVSPost2010Prop51ColorRGB
 90
-16777216
102
RTVSPost2010PropOp51
 70
     0
102
RTVSPost2010Prop52
140
1.0
102
RTVSPost2010PropOp52
 70
     0
102
RTVSPost2010Prop53
 90
        2
102
RTVSPost2010PropOp53
 70
     1
102
RTVSPost2010Prop54
  1
strokes_ogs.tif
102
RTVSPost2010PropOp54
 70
     1
102
RTVSPost2010Prop55
280
     0
102
RTVSPost2010PropOp55
 70
     1
102
RTVSPost2010Prop56
140
1.0
102
RTVSPost2010PropOp56
 70
     1
102
RTVSPost2010Prop57
140
1.0
102
RTVSPost2010PropOp57
 70
     1
102
RTVSPropertyOp0
 70
     1
102
RTVSPropertyOp1
 70
     1
102
RTVSPropertyOp2
 70
     1
102
RTVSPropertyOp3
 70
     1
102
RTVSPropertyOp4
 70
     1
102
RTVSPropertyOp5
 70
     1
102
RTVSPropertyOp6
 70
     1
102
RTVSPropertyOp7
 70
     1
102
RTVSPropertyOp8
 70
     1
102
RTVSPropertyOp9
 70
     1
102
RTVSPropertyOp10
 70
     1
102
RTVSPropertyOp11
 70
     1
102
RTVSPropertyOp12
 70
     1
102
RTVSPropertyOp13
 70
     1
102
RTVSPropertyOp14
 70
     1
102
RTVSPropertyOp15
 70
     1
102
RTVSPropertyOp16
 70
     1
102
RTVSPropertyOp17
 70
     1
102
RTVSPropertyOp18
 70
     1
102
RTVSPropertyOp19
 70
     1
102
RTVSPropertyOp20
 70
     1
102
RTVSPropertyOp21
 70
     1
102
RTVSPropertyOp22
 70
     1
102
RTVSPropertyOp23
 70
     1
102
RTVSPropertyOp24
 70
     1
102
RTVSPropertyOp25
 70
     1
102
RTVSPropertyOp26
 70
     1
102
RTVSPropertyOp27
 70
     1
102
RTVSPropertyOp28
 70
     1
102
RTVSPropertyOp29
 70
     1
102
RTVSPropertyOp30
 70
     1
102
RTVSPropertyOp31
 70
     1
102
RTVSPropertyOp32
 70
     1
102
RTVSPropertyOp33
 70
     1
102
RTVSPropertyOp34
 70
     1
102
RTVSPropertyOp35
 70
     1
102
RTVSPropertyOp36
 70
     1
102
RTVSPropertyOp37
 70
     1
102
RTVSPropertyOp38
 70
     1
102
RTVSPropertyOp39
 70
     1
102
RTVSPropertyOp40
 70
     1
102
RTVSPropertyOp41
 70
     1
102
RTVSPropertyOp42
 70
     1
102
RTVSPropertyOp43
 70
     1
102
RTVSPropertyOp44
 70
     1
102
RTVSPropertyOp45
 70
     1
102
RTVSPropertyOp46
 70
     1
102
RTVSPropertyOp47
 70
     1
102
RTVSPropertyOp48
 70
     1
102
RTVSPropertyOp49
 70
     1
102
RTVSPropertyOp50
 70
     1
102
RTVSPropertyOp51
 70
     0
102
RTVSPropertyOp52
 70
     0
102
RTVSPropertyOp53
 70
     1
102
RTVSPropertyOp54
 70
     1
102
RTVSPropertyOp55
 70
     1
102
RTVSPropertyOp56
 70
     1
102
RTVSPropertyOp57
 70
     1
102
RTVSPropertyOp58
 70
     1
102
RTVSPropertyOp59
 70
     1
102
RTVSPropertyOp60
 70
     1
102
RTVSPropertyOp61
 70
     1
102
RTVSPropertyOp62
 70
     1
  0
XRECORD
  5
83A1
102
{ACAD_REACTORS
330
83A0
102
}
330
83A0
100
AcDbXrecord
280
     1
102
RTVSPost2010Prop28
280
     0
102
RTVSPost2010PropOp28
 70
     1
102
RTVSPost2010Prop29
280
     1
102
RTVSPost2010PropOp29
 70
     1
102
RTVSPost2010Prop30
280
     1
102
RTVSPost2010PropOp30
 70
     1
102
RTVSPost2010Prop31
280
     0
102
RTVSPost2010PropOp31
 70
     1
102
RTVSPost2010Prop32
280
     0
102
RTVSPost2010PropOp32
 70
     1
102
RTVSPost2010Prop33
280
     0
102
RTVSPost2010PropOp33
 70
     1
102
RTVSPost2010Prop34
280
     0
102
RTVSPost2010PropOp34
 70
     1
102
RTVSPost2010Prop35
280
     0
102
RTVSPost2010PropOp35
 70
     1
102
RTVSPost2010Prop36
280
     0
102
RTVSPost2010PropOp36
 70
     1
102
RTVSPost2010Prop37
 90
       50
102
RTVSPost2010PropOp37
 70
     1
102
RTVSPost2010Prop38
140
0.0
102
RTVSPost2010PropOp38
 70
     1
102
RTVSPost2010Prop39
140
1.0
102
RTVSPost2010PropOp39
 70
     1
102
RTVSPost2010Prop40
 90
        0
102
RTVSPost2010PropOp40
 70
     1
102
RTVSPost2010Prop41ColorIndex
 90
       18
102
RTVSPost2010Prop41ColorRGB
 90
        0
102
RTVSPost2010PropOp41
 70
     1
102
RTVSPost2010Prop42
 90
       50
102
RTVSPost2010PropOp42
 70
     1
102
RTVSPost2010Prop43
 90
        3
102
RTVSPost2010PropOp43
 70
     1
102
RTVSPost2010Prop44ColorIndex
 90
        5
102
RTVSPost2010Prop44ColorRGB
 90
      255
102
RTVSPost2010PropOp44
 70
     1
102
RTVSPost2010Prop45
280
     0
102
RTVSPost2010PropOp45
 70
     1
102
RTVSPost2010Prop46
 90
       50
102
RTVSPost2010PropOp46
 70
     1
102
RTVSPost2010Prop47
 90
       50
102
RTVSPost2010PropOp47
 70
     1
102
RTVSPost2010Prop48
 90
       50
102
RTVSPost2010PropOp48
 70
     1
102
RTVSPost2010Prop49
280
     0
102
RTVSPost2010PropOp49
 70
     1
102
RTVSPost2010Prop50
 90
       50
102
RTVSPost2010PropOp50
 70
     1
102
RTVSPost2010Prop51ColorIndex
 90
      256
102
RTVSPost2010Prop51ColorRGB
 90
-16777216
102
RTVSPost2010PropOp51
 70
     0
102
RTVSPost2010Prop52
140
1.0
102
RTVSPost2010PropOp52
 70
     0
102
RTVSPost2010Prop53
 90
        2
102
RTVSPost2010PropOp53
 70
     1
102
RTVSPost2010Prop54
  1
strokes_ogs.tif
102
RTVSPost2010PropOp54
 70
     1
102
RTVSPost2010Prop55
280
     0
102
RTVSPost2010PropOp55
 70
     1
102
RTVSPost2010Prop56
140
1.0
102
RTVSPost2010PropOp56
 70
     1
102
RTVSPost2010Prop57
140
1.0
102
RTVSPost2010PropOp57
 70
     1
102
RTVSPropertyOp0
 70
     1
102
RTVSPropertyOp1
 70
     1
102
RTVSPropertyOp2
 70
     1
102
RTVSPropertyOp3
 70
     1
102
RTVSPropertyOp4
 70
     1
102
RTVSPropertyOp5
 70
     1
102
RTVSPropertyOp6
 70
     1
102
RTVSPropertyOp7
 70
     1
102
RTVSPropertyOp8
 70
     1
102
RTVSPropertyOp9
 70
     1
102
RTVSPropertyOp10
 70
     1
102
RTVSPropertyOp11
 70
     1
102
RTVSPropertyOp12
 70
     1
102
RTVSPropertyOp13
 70
     1
102
RTVSPropertyOp14
 70
     1
102
RTVSPropertyOp15
 70
     1
102
RTVSPropertyOp16
 70
     1
102
RTVSPropertyOp17
 70
     1
102
RTVSPropertyOp18
 70
     1
102
RTVSPropertyOp19
 70
     1
102
RTVSPropertyOp20
 70
     1
102
RTVSPropertyOp21
 70
     1
102
RTVSPropertyOp22
 70
     1
102
RTVSPropertyOp23
 70
     1
102
RTVSPropertyOp24
 70
     1
102
RTVSPropertyOp25
 70
     1
102
RTVSPropertyOp26
 70
     1
102
RTVSPropertyOp27
 70
     1
102
RTVSPropertyOp28
 70
     1
102
RTVSPropertyOp29
 70
     1
102
RTVSPropertyOp30
 70
     1
102
RTVSPropertyOp31
 70
     1
102
RTVSPropertyOp32
 70
     1
102
RTVSPropertyOp33
 70
     1
102
RTVSPropertyOp34
 70
     1
102
RTVSPropertyOp35
 70
     1
102
RTVSPropertyOp36
 70
     1
102
RTVSPropertyOp37
 70
     1
102
RTVSPropertyOp38
 70
     1
102
RTVSPropertyOp39
 70
     1
102
RTVSPropertyOp40
 70
     1
102
RTVSPropertyOp41
 70
     1
102
RTVSPropertyOp42
 70
     1
102
RTVSPropertyOp43
 70
     1
102
RTVSPropertyOp44
 70
     1
102
RTVSPropertyOp45
 70
     1
102
RTVSPropertyOp46
 70
     1
102
RTVSPropertyOp47
 70
     1
102
RTVSPropertyOp48
 70
     1
102
RTVSPropertyOp49
 70
     1
102
RTVSPropertyOp50
 70
     1
102
RTVSPropertyOp51
 70
     0
102
RTVSPropertyOp52
 70
     0
102
RTVSPropertyOp53
 70
     1
102
RTVSPropertyOp54
 70
     1
102
RTVSPropertyOp55
 70
     1
102
RTVSPropertyOp56
 70
     1
102
RTVSPropertyOp57
 70
     1
102
RTVSPropertyOp58
 70
     1
102
RTVSPropertyOp59
 70
     1
102
RTVSPropertyOp60
 70
     1
102
RTVSPropertyOp61
 70
     1
102
RTVSPropertyOp62
 70
     1
  0
XRECORD
  5
83B9
102
{ACAD_REACTORS
330
83B8
102
}
330
83B8
100
AcDbXrecord
280
     1
102
RTVSPost2010Prop28
280
     0
102
RTVSPost2010PropOp28
 70
     1
102
RTVSPost2010Prop29
280
     1
102
RTVSPost2010PropOp29
 70
     1
102
RTVSPost2010Prop30
280
     1
102
RTVSPost2010PropOp30
 70
     1
102
RTVSPost2010Prop31
280
     0
102
RTVSPost2010PropOp31
 70
     1
102
RTVSPost2010Prop32
280
     0
102
RTVSPost2010PropOp32
 70
     1
102
RTVSPost2010Prop33
280
     0
102
RTVSPost2010PropOp33
 70
     1
102
RTVSPost2010Prop34
280
     0
102
RTVSPost2010PropOp34
 70
     1
102
RTVSPost2010Prop35
280
     0
102
RTVSPost2010PropOp35
 70
     1
102
RTVSPost2010Prop36
280
     0
102
RTVSPost2010PropOp36
 70
     1
102
RTVSPost2010Prop37
 90
       50
102
RTVSPost2010PropOp37
 70
     1
102
RTVSPost2010Prop38
140
0.0
102
RTVSPost2010PropOp38
 70
     1
102
RTVSPost2010Prop39
140
1.0
102
RTVSPost2010PropOp39
 70
     1
102
RTVSPost2010Prop40
 90
        0
102
RTVSPost2010PropOp40
 70
     1
102
RTVSPost2010Prop41ColorIndex
 90
       18
102
RTVSPost2010Prop41ColorRGB
 90
        0
102
RTVSPost2010PropOp41
 70
     1
102
RTVSPost2010Prop42
 90
       50
102
RTVSPost2010PropOp42
 70
     1
102
RTVSPost2010Prop43
 90
        3
102
RTVSPost2010PropOp43
 70
     1
102
RTVSPost2010Prop44ColorIndex
 90
        5
102
RTVSPost2010Prop44ColorRGB
 90
      255
102
RTVSPost2010PropOp44
 70
     1
102
RTVSPost2010Prop45
280
     0
102
RTVSPost2010PropOp45
 70
     1
102
RTVSPost2010Prop46
 90
       50
102
RTVSPost2010PropOp46
 70
     1
102
RTVSPost2010Prop47
 90
       50
102
RTVSPost2010PropOp47
 70
     1
102
RTVSPost2010Prop48
 90
       50
102
RTVSPost2010PropOp48
 70
     1
102
RTVSPost2010Prop49
280
     0
102
RTVSPost2010PropOp49
 70
     1
102
RTVSPost2010Prop50
 90
       50
102
RTVSPost2010PropOp50
 70
     1
102
RTVSPost2010Prop51ColorIndex
 90
      256
102
RTVSPost2010Prop51ColorRGB
 90
-16777216
102
RTVSPost2010PropOp51
 70
     0
102
RTVSPost2010Prop52
140
1.0
102
RTVSPost2010PropOp52
 70
     0
102
RTVSPost2010Prop53
 90
        2
102
RTVSPost2010PropOp53
 70
     1
102
RTVSPost2010Prop54
  1
strokes_ogs.tif
102
RTVSPost2010PropOp54
 70
     1
102
RTVSPost2010Prop55
280
     0
102
RTVSPost2010PropOp55
 70
     1
102
RTVSPost2010Prop56
140
1.0
102
RTVSPost2010PropOp56
 70
     1
102
RTVSPost2010Prop57
140
1.0
102
RTVSPost2010PropOp57
 70
     1
102
RTVSPropertyOp0
 70
     1
102
RTVSPropertyOp1
 70
     1
102
RTVSPropertyOp2
 70
     1
102
RTVSPropertyOp3
 70
     1
102
RTVSPropertyOp4
 70
     1
102
RTVSPropertyOp5
 70
     1
102
RTVSPropertyOp6
 70
     1
102
RTVSPropertyOp7
 70
     1
102
RTVSPropertyOp8
 70
     1
102
RTVSPropertyOp9
 70
     1
102
RTVSPropertyOp10
 70
     1
102
RTVSPropertyOp11
 70
     1
102
RTVSPropertyOp12
 70
     1
102
RTVSPropertyOp13
 70
     1
102
RTVSPropertyOp14
 70
     1
102
RTVSPropertyOp15
 70
     1
102
RTVSPropertyOp16
 70
     1
102
RTVSPropertyOp17
 70
     1
102
RTVSPropertyOp18
 70
     1
102
RTVSPropertyOp19
 70
     1
102
RTVSPropertyOp20
 70
     1
102
RTVSPropertyOp21
 70
     1
102
RTVSPropertyOp22
 70
     1
102
RTVSPropertyOp23
 70
     1
102
RTVSPropertyOp24
 70
     1
102
RTVSPropertyOp25
 70
     1
102
RTVSPropertyOp26
 70
     1
102
RTVSPropertyOp27
 70
     1
102
RTVSPropertyOp28
 70
     1
102
RTVSPropertyOp29
 70
     1
102
RTVSPropertyOp30
 70
     1
102
RTVSPropertyOp31
 70
     1
102
RTVSPropertyOp32
 70
     1
102
RTVSPropertyOp33
 70
     1
102
RTVSPropertyOp34
 70
     1
102
RTVSPropertyOp35
 70
     1
102
RTVSPropertyOp36
 70
     1
102
RTVSPropertyOp37
 70
     1
102
RTVSPropertyOp38
 70
     1
102
RTVSPropertyOp39
 70
     1
102
RTVSPropertyOp40
 70
     1
102
RTVSPropertyOp41
 70
     1
102
RTVSPropertyOp42
 70
     1
102
RTVSPropertyOp43
 70
     1
102
RTVSPropertyOp44
 70
     1
102
RTVSPropertyOp45
 70
     1
102
RTVSPropertyOp46
 70
     1
102
RTVSPropertyOp47
 70
     1
102
RTVSPropertyOp48
 70
     1
102
RTVSPropertyOp49
 70
     1
102
RTVSPropertyOp50
 70
     1
102
RTVSPropertyOp51
 70
     0
102
RTVSPropertyOp52
 70
     0
102
RTVSPropertyOp53
 70
     1
102
RTVSPropertyOp54
 70
     1
102
RTVSPropertyOp55
 70
     1
102
RTVSPropertyOp56
 70
     1
102
RTVSPropertyOp57
 70
     1
102
RTVSPropertyOp58
 70
     1
102
RTVSPropertyOp59
 70
     1
102
RTVSPropertyOp60
 70
     1
102
RTVSPropertyOp61
 70
     1
102
RTVSPropertyOp62
 70
     1
  0
ENDSEC
  0
EOF
