  0
SECTION
  2
HEADER
  9
$ACADVER
  1
AC1015
  9
$ACADMAINTVER
 70
    20
  9
$DWGCODEPAGE
  3
ANSI_932
  9
$INSBASE
 10
0.0
 20
0.0
 30
0.0
  9
$EXTMIN
 10
-0.1281640493871237
 20
-0.1800399741405272
 30
-0.0015258207003583
  9
$EXTMAX
 10
4200.128183607161
 20
5900.180067448153
 30
0.0000000349246037
  9
$LIMMIN
 10
0.0
 20
0.0
  9
$LIMMAX
 10
297.0
 20
210.0
  9
$ORTHOMODE
 70
     1
  9
$REGENMODE
 70
     1
  9
$FILLMODE
 70
     0
  9
$QTEXTMODE
 70
     0
  9
$MIRRTEXT
 70
     1
  9
$LTSCALE
 40
100.0
  9
$ATTMODE
 70
     1
  9
$TEXTSIZE
 40
180.0
  9
$TRACEWID
 40
0.05
  9
$TEXTSTYLE
  7
STANDARD
  9
$CLAYER
  8
3
  9
$CELTYPE
  6
ByLayer
  9
$CECOLOR
 62
   256
  9
$CELTSCALE
 40
1.0
  9
$DISPSILH
 70
     0
  9
$DIMSCALE
 40
20.0
  9
$DIMASZ
 40
2.0
  9
$DIMEXO
 40
1.0
  9
$DIMDLI
 40
10.0
  9
$DIMRND
 40
0.0
  9
$DIMDLE
 40
0.0
  9
$DIMEXE
 40
1.0
  9
$DIMTP
 40
1.0
  9
$DIMTM
 40
1.0
  9
$DIMTXT
 40
3.0
  9
$DIMCEN
 40
0.0
  9
$DIMTSZ
 40
0.0
  9
$DIMTOL
 70
     0
  9
$DIMLIM
 70
     0
  9
$DIMTIH
 70
     0
  9
$DIMTOH
 70
     0
  9
$DIMSE1
 70
     0
  9
$DIMSE2
 70
     0
  9
$DIMTAD
 70
     1
  9
$DIMZIN
 70
     8
  9
$DIMBLK
  1

  9
$DIMASO
 70
     1
  9
$DIMSHO
 70
     1
  9
$DIMPOST
  1

  9
$DIMAPOST
  1

  9
$DIMALT
 70
     0
  9
$DIMALTD
 70
     2
  9
$DIMALTF
 40
0.039
  9
$DIMLFAC
 40
1.0
  9
$DIMTOFL
 70
     1
  9
$DIMTVP
 40
0.0
  9
$DIMTIX
 70
     0
  9
$DIMSOXD
 70
     0
  9
$DIMSAH
 70
     1
  9
$DIMBLK1
  1
OPEN
  9
$DIMBLK2
  1
OPEN
  9
$DIMSTYLE
  2
IGA
  9
$DIMCLRD
 70
     0
  9
$DIMCLRE
 70
     0
  9
$DIMCLRT
 70
     0
  9
$DIMTFAC
 40
10.0
  9
$DIMGAP
 40
1.0
  9
$DIMJUST
 70
     0
  9
$DIMSD1
 70
     0
  9
$DIMSD2
 70
     0
  9
$DIMTOLJ
 70
     1
  9
$DIMTZIN
 70
     0
  9
$DIMALTZ
 70
     0
  9
$DIMALTTZ
 70
     0
  9
$DIMUPT
 70
     0
  9
$DIMDEC
 70
     4
  9
$DIMTDEC
 70
     4
  9
$DIMALTU
 70
     2
  9
$DIMALTTD
 70
     2
  9
$DIMTXSTY
  7
STANDARD
  9
$DIMAUNIT
 70
     0
  9
$DIMADEC
 70
     0
  9
$DIMALTRND
 40
0.0
  9
$DIMAZIN
 70
     0
  9
$DIMDSEP
 70
    46
  9
$DIMATFIT
 70
     3
  9
$DIMFRAC
 70
     0
  9
$DIMLDRBLK
  1
OPEN
  9
$DIMLUNIT
 70
     2
  9
$DIMLWD
 70
    -2
  9
$DIMLWE
 70
    -2
  9
$DIMTMOVE
 70
     0
  9
$LUNITS
 70
     2
  9
$LUPREC
 70
     3
  9
$SKETCHINC
 40
0.1
  9
$FILLETRAD
 40
50.0
  9
$AUNITS
 70
     0
  9
$AUPREC
 70
     0
  9
$MENU
  1
acad
  9
$ELEVATION
 40
0.0
  9
$PELEVATION
 40
0.0
  9
$THICKNESS
 40
0.0
  9
$LIMCHECK
 70
     0
  9
$CHAMFERA
 40
0.5
  9
$CHAMFERB
 40
0.5
  9
$CHAMFERC
 40
0.0
  9
$CHAMFERD
 40
0.0
  9
$SKPOLY
 70
     0
  9
$TDCREATE
 40
2451387.570972685
  9
$TDUCREATE
 40
2451387.195972685
  9
$TDUPDATE
 40
2460262.635176134
  9
$TDUUPDATE
 40
2460262.260176135
  9
$TDINDWG
 40
0.0130335648
  9
$TDUSRTIMER
 40
0.0130335532
  9
$USRTIMER
 70
     1
  9
$ANGBASE
 50
0.0
  9
$ANGDIR
 70
     0
  9
$PDMODE
 70
     0
  9
$PDSIZE
 40
0.0
  9
$PLINEWID
 40
0.0
  9
$SPLFRAME
 70
     0
  9
$SPLINETYPE
 70
     6
  9
$SPLINESEGS
 70
     8
  9
$HANDSEED
  5
8333
  9
$SURFTAB1
 70
     6
  9
$SURFTAB2
 70
     6
  9
$SURFTYPE
 70
     6
  9
$SURFU
 70
     6
  9
$SURFV
 70
     6
  9
$UCSBASE
  2

  9
$UCSNAME
  2

  9
$UCSORG
 10
0.0
 20
0.0
 30
0.0
  9
$UCSXDIR
 10
1.0
 20
0.0
 30
0.0
  9
$UCSYDIR
 10
0.0
 20
1.0
 30
0.0
  9
$UCSORTHOREF
  2

  9
$UCSORTHOVIEW
 70
     0
  9
$UCSORGTOP
 10
0.0
 20
0.0
 30
0.0
  9
$UCSORGBOTTOM
 10
0.0
 20
0.0
 30
0.0
  9
$UCSORGLEFT
 10
0.0
 20
0.0
 30
0.0
  9
$UCSORGRIGHT
 10
0.0
 20
0.0
 30
0.0
  9
$UCSORGFRONT
 10
0.0
 20
0.0
 30
0.0
  9
$UCSORGBACK
 10
0.0
 20
0.0
 30
0.0
  9
$PUCSBASE
  2

  9
$PUCSNAME
  2

  9
$PUCSORG
 10
0.0
 20
0.0
 30
0.0
  9
$PUCSXDIR
 10
1.0
 20
0.0
 30
0.0
  9
$PUCSYDIR
 10
0.0
 20
1.0
 30
0.0
  9
$PUCSORTHOREF
  2

  9
$PUCSORTHOVIEW
 70
     0
  9
$PUCSORGTOP
 10
0.0
 20
0.0
 30
0.0
  9
$PUCSORGBOTTOM
 10
0.0
 20
0.0
 30
0.0
  9
$PUCSORGLEFT
 10
0.0
 20
0.0
 30
0.0
  9
$PUCSORGRIGHT
 10
0.0
 20
0.0
 30
0.0
  9
$PUCSORGFRONT
 10
0.0
 20
0.0
 30
0.0
  9
$PUCSORGBACK
 10
0.0
 20
0.0
 30
0.0
  9
$USERI1
 70
     0
  9
$USERI2
 70
     0
  9
$USERI3
 70
     0
  9
$USERI4
 70
     0
  9
$USERI5
 70
     0
  9
$USERR1
 40
0.0
  9
$USERR2
 40
0.0
  9
$USERR3
 40
0.0
  9
$USERR4
 40
0.0
  9
$USERR5
 40
0.0
  9
$WORLDVIEW
 70
     1
  9
$SHADEDGE
 70
     3
  9
$SHADEDIF
 70
    70
  9
$TILEMODE
 70
     1
  9
$MAXACTVP
 70
    16
  9
$PINSBASE
 10
0.0
 20
0.0
 30
0.0
  9
$PLIMCHECK
 70
     0
  9
$PEXTMIN
 10
1.000000000000000E+20
 20
1.000000000000000E+20
 30
1.000000000000000E+20
  9
$PEXTMAX
 10
-1.000000000000000E+20
 20
-1.000000000000000E+20
 30
-1.000000000000000E+20
  9
$PLIMMIN
 10
0.0
 20
0.0
  9
$PLIMMAX
 10
12.0
 20
9.0
  9
$UNITMODE
 70
     0
  9
$VISRETAIN
 70
     0
  9
$PLINEGEN
 70
     0
  9
$PSLTSCALE
 70
     1
  9
$TREEDEPTH
 70
  3020
  9
$CMLSTYLE
  2
Standard
  9
$CMLJUST
 70
     0
  9
$CMLSCALE
 40
1.0
  9
$PROXYGRAPHICS
 70
     1
  9
$MEASUREMENT
 70
     0
  9
$CELWEIGHT
370
    -1
  9
$ENDCAPS
280
     0
  9
$JOINSTYLE
280
     0
  9
$LWDISPLAY
290
     0
  9
$INSUNITS
 70
     0
  9
$HYPERLINKBASE
  1

  9
$STYLESHEET
  1

  9
$XEDIT
290
     1
  9
$CEPSNTYPE
380
     0
  9
$PSTYLEMODE
290
     1
  9
$FINGERPRINTGUID
  2
{653F25D0-C027-4DE2-A629-CCFF11F904EA}
  9
$VERSIONGUID
  2
{7D7C3D63-50E9-4E21-8EC7-2AC1149329A8}
  9
$EXTNAMES
290
     1
  9
$PSVPSCALE
 40
0.0
  9
$OLESTARTUP
290
     0
  0
ENDSEC
  0
SECTION
  2
CLASSES
  0
CLASS
  1
ACDBDICTIONARYWDFLT
  2
AcDbDictionaryWithDefault
  3
ObjectDBX Classes
 90
        0
280
     0
281
     0
  0
CLASS
  1
MATERIAL
  2
AcDbMaterial
  3
ObjectDBX Classes
 90
     1153
280
     0
281
     0
  0
CLASS
  1
VISUALSTYLE
  2
AcDbVisualStyle
  3
ObjectDBX Classes
 90
     4095
280
     0
281
     0
  0
CLASS
  1
SCALE
  2
AcDbScale
  3
ObjectDBX Classes
 90
     1153
280
     0
281
     0
  0
CLASS
  1
TABLESTYLE
  2
AcDbTableStyle
  3
ObjectDBX Classes
 90
     4095
280
     0
281
     0
  0
CLASS
  1
MLEADERSTYLE
  2
AcDbMLeaderStyle
  3
ACDB_MLEADERSTYLE_CLASS
 90
     4095
280
     0
281
     0
  0
CLASS
  1
ACDBSECTIONVIEWSTYLE
  2
AcDbSectionViewStyle
  3
ObjectDBX Classes
 90
     1025
280
     0
281
     0
  0
CLASS
  1
ACDBDETAILVIEWSTYLE
  2
AcDbDetailViewStyle
  3
ObjectDBX Classes
 90
     1025
280
     0
281
     0
  0
CLASS
  1
DICTIONARYVAR
  2
AcDbDictionaryVar
  3
ObjectDBX Classes
 90
        0
280
     0
281
     0
  0
CLASS
  1
CELLSTYLEMAP
  2
AcDbCellStyleMap
  3
ObjectDBX Classes
 90
     1152
280
     0
281
     0
  0
CLASS
  1
ACDBPLACEHOLDER
  2
AcDbPlaceHolder
  3
ObjectDBX Classes
 90
        0
280
     0
281
     0
  0
CLASS
  1
LAYOUT
  2
AcDbLayout
  3
ObjectDBX Classes
 90
        0
280
     0
281
     0
  0
ENDSEC
  0
SECTION
  2
TABLES
  0
TABLE
  2
VPORT
  5
80BA
330
0
100
AcDbSymbolTable
 70
     1
  0
VPORT
  5
8126
330
80BA
100
AcDbSymbolTableRecord
100
AcDbViewportTableRecord
  2
*ACTIVE
 70
     0
 10
0.0
 20
0.0
 11
1.0
 21
1.0
 12
2100.000009778887
 22
2950.000013737006
 13
0.0
 23
0.0
 14
10.0
 24
10.0
 15
10.0
 25
10.0
 16
0.0
 26
0.0
 36
1.0
 17
0.0
 27
0.0
 37
0.0
 40
5938.142562752639
 41
2.050213675213675
 42
50.0
 43
0.0
 44
0.0
 50
0.0
 51
0.0
 71
     0
 72
   100
 73
     1
 74
     0
 75
     0
 76
     0
 77
     0
 78
     0
281
     0
 65
     1
110
0.0
120
0.0
130
0.0
111
1.0
121
0.0
131
0.0
112
0.0
122
1.0
132
0.0
 79
     0
146
0.0
1001
ACAD_NAV_VCDISPLAY
1070
     3
  0
ENDTAB
  0
TABLE
  2
LTYPE
  5
80B7
330
0
100
AcDbSymbolTable
 70
     4
  0
LTYPE
  5
810C
330
80B7
100
AcDbSymbolTableRecord
100
AcDbLinetypeTableRecord
  2
ByBlock
 70
     0
  3

 72
    65
 73
     0
 40
0.0
  0
LTYPE
  5
810D
330
80B7
100
AcDbSymbolTableRecord
100
AcDbLinetypeTableRecord
  2
ByLayer
 70
     0
  3

 72
    65
 73
     0
 40
0.0
  0
LTYPE
  5
810E
330
80B7
100
AcDbSymbolTableRecord
100
AcDbLinetypeTableRecord
  2
CONTINUOUS
 70
     0
  3
Solid line
 72
    65
 73
     0
 40
0.0
  0
LTYPE
  5
8127
330
80B7
100
AcDbSymbolTableRecord
100
AcDbLinetypeTableRecord
  2
CENTER
 70
     0
  3
____ _ ____ _ ____ _ ____ _ ____ _ ____ _ ____ 
 72
    65
 73
     4
 40
2.0
 49
1.25
 74
     0
 49
-0.25
 74
     0
 49
0.25
 74
     0
 49
-0.25
 74
     0
  0
ENDTAB
  0
TABLE
  2
LAYER
  5
80B4
330
0
100
AcDbSymbolTable
 70
     6
  0
LAYER
  5
8106
102
{ACAD_XDICTIONARY
360
82DD
102
}
330
80B4
100
AcDbSymbolTableRecord
100
AcDbLayerTableRecord
  2
0
 70
     0
 62
     7
  6
CONTINUOUS
370
    -3
390
80C1
  0
LAYER
  5
8125
102
{ACAD_XDICTIONARY
360
82DF
102
}
330
80B4
100
AcDbSymbolTableRecord
100
AcDbLayerTableRecord
  2
3
 70
     0
 62
     2
  6
CONTINUOUS
370
    -3
390
80C1
  0
LAYER
  5
8128
102
{ACAD_XDICTIONARY
360
82E1
102
}
330
80B4
100
AcDbSymbolTableRecord
100
AcDbLayerTableRecord
  2
2
 70
     0
 62
     3
  6
CENTER
370
    -3
390
80C1
  0
LAYER
  5
8129
102
{ACAD_XDICTIONARY
360
82E3
102
}
330
80B4
100
AcDbSymbolTableRecord
100
AcDbLayerTableRecord
  2
1
 70
     0
 62
     4
  6
CONTINUOUS
370
    -3
390
80C1
  0
LAYER
  5
812A
102
{ACAD_XDICTIONARY
360
82E5
102
}
330
80B4
100
AcDbSymbolTableRecord
100
AcDbLayerTableRecord
  2
4
 70
     0
 62
     7
  6
CONTINUOUS
370
    -3
390
80C1
  0
LAYER
  5
812B
330
80B4
100
AcDbSymbolTableRecord
100
AcDbLayerTableRecord
  2
DEFPOINTS
 70
     0
 62
     7
  6
CONTINUOUS
290
     0
370
    -3
390
80C1
  0
ENDTAB
  0
TABLE
  2
STYLE
  5
80B5
330
0
100
AcDbSymbolTable
 70
     2
  0
STYLE
  5
8107
330
80B5
100
AcDbSymbolTableRecord
100
AcDbTextStyleTableRecord
  2
STANDARD
 70
     0
 40
0.0
 41
1.0
 50
0.0
 71
     0
 42
180.0
  3
simplex.shx
  4
extfont.shx
  0
STYLE
  5
810B
330
80B5
100
AcDbSymbolTableRecord
100
AcDbTextStyleTableRecord
  2
Annotative
 70
     0
 40
0.0
 41
1.0
 50
0.0
 71
     0
 42
0.2
  3
txt
  4

1001
AcadAnnotative
1000
AnnotativeData
1002
{
1070
     1
1070
     1
1002
}
  0
ENDTAB
  0
TABLE
  2
VIEW
  5
80B8
330
0
100
AcDbSymbolTable
 70
     0
  0
ENDTAB
  0
TABLE
  2
UCS
  5
80B9
330
0
100
AcDbSymbolTable
 70
     0
  0
ENDTAB
  0
TABLE
  2
APPID
  5
80BB
330
0
100
AcDbSymbolTable
 70
     8
  0
APPID
  5
8108
330
80BB
100
AcDbSymbolTableRecord
100
AcDbRegAppTableRecord
  2
ACAD
 70
     0
  0
APPID
  5
810F
330
80BB
100
AcDbSymbolTableRecord
100
AcDbRegAppTableRecord
  2
AcadAnnotative
 70
     0
  0
APPID
  5
816B
330
80BB
100
AcDbSymbolTableRecord
100
AcDbRegAppTableRecord
  2
ACAD_DSTYLE_DIMJAG
 70
     0
  0
APPID
  5
816C
330
80BB
100
AcDbSymbolTableRecord
100
AcDbRegAppTableRecord
  2
ACAD_DSTYLE_DIMTALN
 70
     0
  0
APPID
  5
8187
330
80BB
100
AcDbSymbolTableRecord
100
AcDbRegAppTableRecord
  2
AcadAnnoMonitorAlertIconDisabled
 70
     0
  0
APPID
  5
8188
330
80BB
100
AcDbSymbolTableRecord
100
AcDbRegAppTableRecord
  2
ACAD_EXEMPT_FROM_CAD_STANDARDS
 70
     0
  0
APPID
  5
82F1
330
80BB
100
AcDbSymbolTableRecord
100
AcDbRegAppTableRecord
  2
ACAD_NAV_VCDISPLAY
 70
     0
  0
APPID
  5
832A
330
80BB
100
AcDbSymbolTableRecord
100
AcDbRegAppTableRecord
  2
ACAD_MLEADERVER
 70
     0
  0
ENDTAB
  0
TABLE
  2
DIMSTYLE
  5
80BC
330
0
100
AcDbSymbolTable
 70
     5
100
AcDbDimStyleTable
 71
     1
340
812C
  0
DIMSTYLE
105
8109
102
{ACAD_REACTORS
330
7C1D
330
7C1E
330
7C45
330
7C48
330
7C76
330
7C77
330
7C78
330
7C8D
330
7C90
330
7C93
330
7FC3
330
7FD0
330
7FDD
330
7FEA
330
8002
102
}
330
80BC
100
AcDbSymbolTableRecord
100
AcDbDimStyleTableRecord
  2
Standard
 70
     0
340
8107
  0
DIMSTYLE
105
810A
330
80BC
100
AcDbSymbolTableRecord
100
AcDbDimStyleTableRecord
  2
Annotative
 70
     0
340
8107
1001
AcadAnnotative
1000
AnnotativeData
1002
{
1070
     1
1070
     1
1002
}
  0
DIMSTYLE
105
812C
102
{ACAD_REACTORS
330
816D
330
817A
330
81D2
330
81E5
330
81FB
330
8208
330
8266
102
}
330
80BC
100
AcDbSymbolTableRecord
100
AcDbDimStyleTableRecord
  2
IGA
 70
     0
 40
2.0
 41
2.0
 42
0.5
 43
10.0
 44
1.0
 47
1.0
 48
1.0
 73
     0
 74
     0
 77
     1
 78
     8
140
3.0
141
0.0
143
0.03937
146
10.0
147
1.0
173
     1
271
     3
272
     3
279
     2
284
     8
285
     8
286
     8
340
8107
  0
DIMSTYLE
105
812D
330
80BC
100
AcDbSymbolTableRecord
100
AcDbDimStyleTableRecord
  2
MATSU
 70
     0
 41
2.0
 42
1.0
 43
10.0
 44
1.0
 73
     0
 74
     0
 77
     1
 78
     8
140
3.0
141
0.0
143
0.03937
147
0.5
172
     1
173
     1
176
   256
177
   256
178
   256
271
     3
272
     3
279
     2
284
     8
285
     8
286
     8
340
8107
  0
ENDTAB
  0
TABLE
  2
BLOCK_RECORD
  5
80B3
330
0
100
AcDbSymbolTable
 70
    37
  0
BLOCK_RECORD
  5
8121
330
80B3
100
AcDbSymbolTableRecord
100
AcDbBlockTableRecord
  2
*Model_Space
340
8124
  0
BLOCK_RECORD
  5
811D
330
80B3
100
AcDbSymbolTableRecord
100
AcDbBlockTableRecord
  2
*Paper_Space
340
8120
  0
BLOCK_RECORD
  5
8131
330
80B3
100
AcDbSymbolTableRecord
100
AcDbBlockTableRecord
  2
$MODEL_SPACE
340
0
  0
BLOCK_RECORD
  5
8133
330
80B3
100
AcDbSymbolTableRecord
100
AcDbBlockTableRecord
  2
$PAPER_SPACE
340
0
  0
BLOCK_RECORD
  5
8135
330
80B3
100
AcDbSymbolTableRecord
100
AcDbBlockTableRecord
  2
_OPEN
340
0
102
{BLKREFS
331
7E31
331
7E32
331
7E3C
331
7E3D
331
7F4D
331
7F4E
331
8081
331
8082
331
8089
331
808A
331
7E7C
331
7E7D
331
8091
331
8092
331
81C3
331
81C4
331
81CC
331
81CD
331
81D9
331
81DA
331
81F5
331
81F6
331
8255
331
8256
331
8276
331
8277
331
7DCE
331
7DCF
331
7DD9
331
7DDA
331
7DE4
331
7DE5
331
7E05
331
7E06
331
7E1B
331
7E1C
331
7E26
331
7E27
331
809D
331
80A4
331
80A5
331
7EBF
331
7EC0
331
7FBC
331
7FBD
331
7FC9
331
7FCA
331
7FD6
331
7FD7
331
7FE3
331
7FE4
331
7FFB
331
7FFC
331
82D8
102
}
  0
BLOCK_RECORD
  5
8137
330
80B3
100
AcDbSymbolTableRecord
100
AcDbBlockTableRecord
  2
YA_N
340
0
102
{BLKREFS
331
7BEE
331
7C04
102
}
  0
BLOCK_RECORD
  5
8139
330
80B3
100
AcDbSymbolTableRecord
100
AcDbBlockTableRecord
  2
*D4
340
0
  0
BLOCK_RECORD
  5
813B
330
80B3
100
AcDbSymbolTableRecord
100
AcDbBlockTableRecord
  2
*D5
340
0
  0
BLOCK_RECORD
  5
813D
330
80B3
100
AcDbSymbolTableRecord
100
AcDbBlockTableRecord
  2
*D6
340
0
  0
BLOCK_RECORD
  5
813F
330
80B3
100
AcDbSymbolTableRecord
100
AcDbBlockTableRecord
  2
*D7
340
0
  0
BLOCK_RECORD
  5
8141
330
80B3
100
AcDbSymbolTableRecord
100
AcDbBlockTableRecord
  2
*D8
340
0
  0
BLOCK_RECORD
  5
8143
330
80B3
100
AcDbSymbolTableRecord
100
AcDbBlockTableRecord
  2
*D9
340
0
  0
BLOCK_RECORD
  5
8145
330
80B3
100
AcDbSymbolTableRecord
100
AcDbBlockTableRecord
  2
*D10
340
0
  0
BLOCK_RECORD
  5
8147
330
80B3
100
AcDbSymbolTableRecord
100
AcDbBlockTableRecord
  2
*D11
340
0
  0
BLOCK_RECORD
  5
8149
330
80B3
100
AcDbSymbolTableRecord
100
AcDbBlockTableRecord
  2
*D12
340
0
  0
BLOCK_RECORD
  5
814B
330
80B3
100
AcDbSymbolTableRecord
100
AcDbBlockTableRecord
  2
*D13
340
0
  0
BLOCK_RECORD
  5
814D
330
80B3
100
AcDbSymbolTableRecord
100
AcDbBlockTableRecord
  2
*D14
340
0
  0
BLOCK_RECORD
  5
814F
330
80B3
100
AcDbSymbolTableRecord
100
AcDbBlockTableRecord
  2
*D15
340
0
  0
BLOCK_RECORD
  5
8151
330
80B3
100
AcDbSymbolTableRecord
100
AcDbBlockTableRecord
  2
*D16
340
0
  0
BLOCK_RECORD
  5
8153
330
80B3
100
AcDbSymbolTableRecord
100
AcDbBlockTableRecord
  2
*D17
340
0
  0
BLOCK_RECORD
  5
8155
330
80B3
100
AcDbSymbolTableRecord
100
AcDbBlockTableRecord
  2
_DOT
340
0
102
{BLKREFS
331
809C
102
}
  0
BLOCK_RECORD
  5
8156
330
80B3
100
AcDbSymbolTableRecord
100
AcDbBlockTableRecord
  2
*D19
340
0
  0
BLOCK_RECORD
  5
8158
330
80B3
100
AcDbSymbolTableRecord
100
AcDbBlockTableRecord
  2
*D20
340
0
  0
BLOCK_RECORD
  5
815B
330
80B3
100
AcDbSymbolTableRecord
100
AcDbBlockTableRecord
  2
_NONE
340
0
  0
BLOCK_RECORD
  5
815D
330
80B3
100
AcDbSymbolTableRecord
100
AcDbBlockTableRecord
  2
*D22
340
0
  0
BLOCK_RECORD
  5
815F
330
80B3
100
AcDbSymbolTableRecord
100
AcDbBlockTableRecord
  2
*D23
340
0
  0
BLOCK_RECORD
  5
8161
330
80B3
100
AcDbSymbolTableRecord
100
AcDbBlockTableRecord
  2
*D24
340
0
  0
BLOCK_RECORD
  5
8163
330
80B3
100
AcDbSymbolTableRecord
100
AcDbBlockTableRecord
  2
*D25
340
0
  0
BLOCK_RECORD
  5
8165
330
80B3
100
AcDbSymbolTableRecord
100
AcDbBlockTableRecord
  2
*D26
340
0
  0
BLOCK_RECORD
  5
8167
330
80B3
100
AcDbSymbolTableRecord
100
AcDbBlockTableRecord
  2
*D27
340
0
  0
BLOCK_RECORD
  5
816E
330
80B3
100
AcDbSymbolTableRecord
100
AcDbBlockTableRecord
  2
*D28
340
0
  0
BLOCK_RECORD
  5
817B
330
80B3
100
AcDbSymbolTableRecord
100
AcDbBlockTableRecord
  2
*D29
340
0
  0
BLOCK_RECORD
  5
81D3
330
80B3
100
AcDbSymbolTableRecord
100
AcDbBlockTableRecord
  2
*D30
340
0
  0
BLOCK_RECORD
  5
81E6
330
80B3
100
AcDbSymbolTableRecord
100
AcDbBlockTableRecord
  2
*D32
340
0
  0
BLOCK_RECORD
  5
81FC
330
80B3
100
AcDbSymbolTableRecord
100
AcDbBlockTableRecord
  2
*D33
340
0
  0
BLOCK_RECORD
  5
8209
330
80B3
100
AcDbSymbolTableRecord
100
AcDbBlockTableRecord
  2
*D34
340
0
  0
BLOCK_RECORD
  5
8267
330
80B3
100
AcDbSymbolTableRecord
100
AcDbBlockTableRecord
  2
*D35
340
0
  0
BLOCK_RECORD
  5
82CE
330
80B3
100
AcDbSymbolTableRecord
100
AcDbBlockTableRecord
  2
_DotSmall
340
0
102
{BLKREFS
331
82D9
102
}
  0
ENDTAB
  0
ENDSEC
  0
SECTION
  2
BLOCKS
  0
BLOCK
  5
8122
330
8121
100
AcDbEntity
  8
0
100
AcDbBlockBegin
  2
*Model_Space
 70
     0
 10
0.0
 20
0.0
 30
0.0
  3
*Model_Space
  1

  0
ENDBLK
  5
8123
330
8121
100
AcDbEntity
  8
0
100
AcDbBlockEnd
  0
BLOCK
  5
811E
330
811D
100
AcDbEntity
 67
     1
  8
0
100
AcDbBlockBegin
  2
*Paper_Space
 70
     0
 10
0.0
 20
0.0
 30
0.0
  3
*Paper_Space
  1

  0
ENDBLK
  5
811F
330
811D
100
AcDbEntity
 67
     1
  8
0
100
AcDbBlockEnd
  0
BLOCK
  5
8132
330
8131
100
AcDbEntity
  8
0
100
AcDbBlockBegin
  2
$MODEL_SPACE
 70
     0
 10
0.0
 20
0.0
 30
0.0
  3
$MODEL_SPACE
  1

  0
ENDBLK
  5
1B
330
8131
100
AcDbEntity
  8
0
100
AcDbBlockEnd
  0
BLOCK
  5
8134
330
8133
100
AcDbEntity
  8
0
100
AcDbBlockBegin
  2
$PAPER_SPACE
 70
     0
 10
0.0
 20
0.0
 30
0.0
  3
$PAPER_SPACE
  1

  0
ENDBLK
  5
18
330
8133
100
AcDbEntity
  8
0
100
AcDbBlockEnd
  0
BLOCK
  5
8136
330
8135
100
AcDbEntity
  8
0
100
AcDbBlockBegin
  2
_OPEN
 70
     0
 10
0.0
 20
0.0
 30
0.0
  3
_OPEN
  1

  0
LINE
  5
79FD
330
8135
100
AcDbEntity
  8
0
  6
ByBlock
 62
     0
100
AcDbLine
 10
-1.0
 20
0.1666666666666666
 30
0.0
 11
0.0
 21
0.0
 31
0.0
  0
LINE
  5
79FE
330
8135
100
AcDbEntity
  8
0
  6
ByBlock
 62
     0
100
AcDbLine
 10
0.0
 20
0.0
 30
0.0
 11
-1.0
 21
-0.1666666666666666
 31
0.0
  0
LINE
  5
79FF
330
8135
100
AcDbEntity
  8
0
  6
ByBlock
 62
     0
100
AcDbLine
 10
0.0
 20
0.0
 30
0.0
 11
-1.0
 21
0.0
 31
0.0
  0
ENDBLK
  5
7A01
330
8135
100
AcDbEntity
  8
0
100
AcDbBlockEnd
  0
BLOCK
  5
8138
330
8137
100
AcDbEntity
  8
0
100
AcDbBlockBegin
  2
YA_N
 70
     0
 10
0.0
 20
0.0
 30
0.0
  3
YA_N
  1

  0
ENDBLK
  5
7A0C
330
8137
100
AcDbEntity
  8
0
100
AcDbBlockEnd
  0
BLOCK
  5
813A
330
8139
100
AcDbEntity
  8
0
100
AcDbBlockBegin
  2
*D4
 70
     1
 10
0.0
 20
0.0
 30
0.0
  3
*D4
  1

  0
LINE
  5
7DCB
330
8139
100
AcDbEntity
  8
0
  6
ByBlock
100
AcDbLine
 10
1032.921266531543
 20
1048.09762645012
 30
0.0
 11
1032.921266531543
 21
1198.05544836713
 31
0.0
  0
LINE
  5
7DCC
330
8139
100
AcDbEntity
  8
0
  6
ByBlock
100
AcDbLine
 10
382.9212665315434
 20
1048.09762645012
 30
0.0
 11
382.9212665315434
 21
1198.05544836713
 31
0.0
  0
LINE
  5
7DCD
330
8139
100
AcDbEntity
  8
0
  6
ByBlock
100
AcDbLine
 10
992.9212665315436
 20
1178.05544836713
 30
0.0
 11
422.9212665315434
 21
1178.05544836713
 31
0.0
  0
INSERT
  5
7DCE
330
8139
100
AcDbEntity
  8
0
  6
ByBlock
100
AcDbBlockReference
  2
_OPEN
 10
1032.921266531543
 20
1178.05544836713
 30
0.0
 41
40.0
 42
40.0
 43
40.0
  0
INSERT
  5
7DCF
330
8139
100
AcDbEntity
  8
0
  6
ByBlock
100
AcDbBlockReference
  2
_OPEN
 10
382.9212665315434
 20
1178.05544836713
 30
0.0
 41
40.0
 42
40.0
 43
40.0
 50
180.0
  0
TEXT
  5
7DD0
330
8139
100
AcDbEntity
  8
3
100
AcDbText
 10
630.7784093886863
 20
1188.05544836713
 30
0.0
 40
60.0
  1
650
100
AcDbText
  0
POINT
  5
7DD1
330
8139
100
AcDbEntity
  8
DEFPOINTS
  6
ByBlock
 62
     0
100
AcDbPoint
 10
1032.921266531543
 20
1028.09762645012
 30
0.0
  0
POINT
  5
7DD2
330
8139
100
AcDbEntity
  8
DEFPOINTS
  6
ByBlock
 62
     0
100
AcDbPoint
 10
382.9212665315434
 20
1028.09762645012
 30
0.0
  0
POINT
  5
7DD3
330
8139
100
AcDbEntity
  8
DEFPOINTS
  6
ByBlock
 62
     0
100
AcDbPoint
 10
382.9212665315434
 20
1178.05544836713
 30
0.0
  0
ENDBLK
  5
7DD4
330
8139
100
AcDbEntity
  8
0
100
AcDbBlockEnd
  0
BLOCK
  5
813C
330
813B
100
AcDbEntity
  8
0
100
AcDbBlockBegin
  2
*D5
 70
     1
 10
0.0
 20
0.0
 30
0.0
  3
*D5
  1

  0
LINE
  5
7DD6
330
813B
100
AcDbEntity
  8
0
  6
ByBlock
100
AcDbLine
 10
1032.921266531543
 20
1048.09762645012
 30
0.0
 11
1032.921266531543
 21
1347.599292570813
 31
0.0
  0
LINE
  5
7DD7
330
813B
100
AcDbEntity
  8
0
  6
ByBlock
100
AcDbLine
 10
354.9212665315435
 20
1094.990599553116
 30
0.0
 11
354.9212665315435
 21
1347.599292570813
 31
0.0
  0
LINE
  5
7DD8
330
813B
100
AcDbEntity
  8
0
  6
ByBlock
100
AcDbLine
 10
992.9212665315436
 20
1327.599292570813
 30
0.0
 11
394.9212665315434
 21
1327.599292570813
 31
0.0
  0
INSERT
  5
7DD9
330
813B
100
AcDbEntity
  8
0
  6
ByBlock
100
AcDbBlockReference
  2
_OPEN
 10
1032.921266531543
 20
1327.599292570813
 30
0.0
 41
40.0
 42
40.0
 43
40.0
  0
INSERT
  5
7DDA
330
813B
100
AcDbEntity
  8
0
  6
ByBlock
100
AcDbBlockReference
  2
_OPEN
 10
354.9212665315435
 20
1327.599292570813
 30
0.0
 41
40.0
 42
40.0
 43
40.0
 50
180.0
  0
TEXT
  5
7DDB
330
813B
100
AcDbEntity
  8
3
100
AcDbText
 10
616.7784093886863
 20
1337.599292570813
 30
0.0
 40
60.0
  1
678
100
AcDbText
  0
POINT
  5
7DDC
330
813B
100
AcDbEntity
  8
DEFPOINTS
  6
ByBlock
 62
     0
100
AcDbPoint
 10
1032.921266531543
 20
1028.09762645012
 30
0.0
  0
POINT
  5
7DDD
330
813B
100
AcDbEntity
  8
DEFPOINTS
  6
ByBlock
 62
     0
100
AcDbPoint
 10
354.9212665315435
 20
1074.990599553116
 30
0.0
  0
POINT
  5
7DDE
330
813B
100
AcDbEntity
  8
DEFPOINTS
  6
ByBlock
 62
     0
100
AcDbPoint
 10
354.9212665315435
 20
1327.599292570813
 30
0.0
  0
ENDBLK
  5
7DDF
330
813B
100
AcDbEntity
  8
0
100
AcDbBlockEnd
  0
BLOCK
  5
813E
330
813D
100
AcDbEntity
  8
0
100
AcDbBlockBegin
  2
*D6
 70
     1
 10
0.0
 20
0.0
 30
0.0
  3
*D6
  1

  0
LINE
  5
7DE1
330
813D
100
AcDbEntity
  8
0
  6
ByBlock
100
AcDbLine
 10
2992.796193483283
 20
903.0976264501203
 30
0.0
 11
3240.833227053947
 21
903.0976264501203
 31
0.0
  0
LINE
  5
7DE2
330
813D
100
AcDbEntity
  8
0
  6
ByBlock
100
AcDbLine
 10
2992.796193483283
 20
233.0976264501205
 30
0.0
 11
3240.833227053947
 21
233.0976264501205
 31
0.0
  0
LINE
  5
7DE3
330
813D
100
AcDbEntity
  8
0
  6
ByBlock
100
AcDbLine
 10
3220.833227053946
 20
863.0976264501205
 30
0.0
 11
3220.833227053946
 21
273.0976264501205
 31
0.0
  0
INSERT
  5
7DE4
330
813D
100
AcDbEntity
  8
0
  6
ByBlock
100
AcDbBlockReference
  2
_OPEN
 10
3220.833227053946
 20
903.0976264501203
 30
0.0
 41
40.0
 42
40.0
 43
40.0
 50
90.0
  0
INSERT
  5
7DE5
330
813D
100
AcDbEntity
  8
0
  6
ByBlock
100
AcDbBlockReference
  2
_OPEN
 10
3220.833227053946
 20
233.0976264501205
 30
0.0
 41
40.0
 42
40.0
 43
40.0
 50
270.0
  0
TEXT
  5
7DE6
330
813D
100
AcDbEntity
  8
3
100
AcDbText
 10
3210.833227053947
 20
460.9547693072634
 30
0.0
 40
60.0
  1
\U+03C6670
 50
90.0
100
AcDbText
  0
POINT
  5
7DE7
330
813D
100
AcDbEntity
  8
DEFPOINTS
  6
ByBlock
 62
     0
100
AcDbPoint
 10
2972.796193483283
 20
903.0976264501203
 30
0.0
  0
POINT
  5
7DE8
330
813D
100
AcDbEntity
  8
DEFPOINTS
  6
ByBlock
 62
     0
100
AcDbPoint
 10
2972.796193483283
 20
233.0976264501205
 30
0.0
  0
POINT
  5
7DE9
330
813D
100
AcDbEntity
  8
DEFPOINTS
  6
ByBlock
 62
     0
100
AcDbPoint
 10
3220.833227053946
 20
233.0976264501205
 30
0.0
  0
ENDBLK
  5
7DEA
330
813D
100
AcDbEntity
  8
0
100
AcDbBlockEnd
  0
BLOCK
  5
8140
330
813F
100
AcDbEntity
  8
0
100
AcDbBlockBegin
  2
*D7
 70
     1
 10
0.0
 20
0.0
 30
0.0
  3
*D7
  1

  0
LINE
  5
7E02
330
813F
100
AcDbEntity
  8
0
  6
ByBlock
100
AcDbLine
 10
2167.296193483282
 20
1048.09762645012
 30
0.0
 11
2167.296193483282
 21
1155.287611360303
 31
0.0
  0
LINE
  5
7E03
330
813F
100
AcDbEntity
  8
0
  6
ByBlock
100
AcDbLine
 10
2967.296193483282
 20
1048.09762645012
 30
0.0
 11
2967.296193483282
 21
1155.287611360303
 31
0.0
  0
LINE
  5
7E04
330
813F
100
AcDbEntity
  8
0
  6
ByBlock
100
AcDbLine
 10
2207.296193483281
 20
1135.287611360302
 30
0.0
 11
2927.296193483282
 21
1135.287611360302
 31
0.0
  0
INSERT
  5
7E05
330
813F
100
AcDbEntity
  8
0
  6
ByBlock
100
AcDbBlockReference
  2
_OPEN
 10
2167.296193483282
 20
1135.287611360302
 30
0.0
 41
40.0
 42
40.0
 43
40.0
 50
180.0
  0
INSERT
  5
7E06
330
813F
100
AcDbEntity
  8
0
  6
ByBlock
100
AcDbBlockReference
  2
_OPEN
 10
2967.296193483282
 20
1135.287611360302
 30
0.0
 41
40.0
 42
40.0
 43
40.0
  0
TEXT
  5
7E07
330
813F
100
AcDbEntity
  8
3
100
AcDbText
 10
2490.153336340425
 20
1145.287611360302
 30
0.0
 40
60.0
  1
800
100
AcDbText
  0
POINT
  5
7E08
330
813F
100
AcDbEntity
  8
DEFPOINTS
  6
ByBlock
 62
     0
100
AcDbPoint
 10
2167.296193483282
 20
1028.09762645012
 30
0.0
  0
POINT
  5
7E09
330
813F
100
AcDbEntity
  8
DEFPOINTS
  6
ByBlock
 62
     0
100
AcDbPoint
 10
2967.296193483282
 20
1028.09762645012
 30
0.0
  0
POINT
  5
7E0A
330
813F
100
AcDbEntity
  8
DEFPOINTS
  6
ByBlock
 62
     0
100
AcDbPoint
 10
2967.296193483282
 20
1135.287611360302
 30
0.0
  0
ENDBLK
  5
7E0B
330
813F
100
AcDbEntity
  8
0
100
AcDbBlockEnd
  0
BLOCK
  5
8142
330
8141
100
AcDbEntity
  8
0
100
AcDbBlockBegin
  2
*D8
 70
     1
 10
0.0
 20
0.0
 30
0.0
  3
*D8
  1

  0
LINE
  5
7E18
330
8141
100
AcDbEntity
  8
0
  6
ByBlock
100
AcDbLine
 10
1404.921266531543
 20
2138.414968530632
 30
0.0
 11
1404.921266531543
 21
1863.01337041143
 31
0.0
  0
LINE
  5
7E19
330
8141
100
AcDbEntity
  8
0
  6
ByBlock
100
AcDbLine
 10
-45.07873346845644
 20
2138.414968530633
 30
0.0
 11
-45.07873346845644
 21
1863.01337041143
 31
0.0
  0
LINE
  5
7E1A
330
8141
100
AcDbEntity
  8
0
  6
ByBlock
100
AcDbLine
 10
1364.921266531543
 20
1883.01337041143
 30
0.0
 11
-5.078733468456447
 21
1883.01337041143
 31
0.0
  0
INSERT
  5
7E1B
330
8141
100
AcDbEntity
  8
0
  6
ByBlock
100
AcDbBlockReference
  2
_OPEN
 10
1404.921266531543
 20
1883.01337041143
 30
0.0
 41
40.0
 42
40.0
 43
40.0
  0
INSERT
  5
7E1C
330
8141
100
AcDbEntity
  8
0
  6
ByBlock
100
AcDbBlockReference
  2
_OPEN
 10
-45.07873346845644
 20
1883.01337041143
 30
0.0
 41
40.0
 42
40.0
 43
40.0
 50
180.0
  0
TEXT
  5
7E1D
330
8141
100
AcDbEntity
  8
3
100
AcDbText
 10
579.9212665315436
 20
1893.01337041143
 30
0.0
 40
60.0
  1
1450
100
AcDbText
  0
POINT
  5
7E1E
330
8141
100
AcDbEntity
  8
DEFPOINTS
  6
ByBlock
 62
     0
100
AcDbPoint
 10
1404.921266531543
 20
2158.414968530632
 30
0.0
  0
POINT
  5
7E1F
330
8141
100
AcDbEntity
  8
DEFPOINTS
  6
ByBlock
 62
     0
100
AcDbPoint
 10
-45.07873346845644
 20
2158.414968530633
 30
0.0
  0
POINT
  5
7E20
330
8141
100
AcDbEntity
  8
DEFPOINTS
  6
ByBlock
 62
     0
100
AcDbPoint
 10
-45.07873346845644
 20
1883.01337041143
 30
0.0
  0
ENDBLK
  5
7E21
330
8141
100
AcDbEntity
  8
0
100
AcDbBlockEnd
  0
BLOCK
  5
8144
330
8143
100
AcDbEntity
  8
0
100
AcDbBlockBegin
  2
*D9
 70
     1
 10
0.0
 20
0.0
 30
0.0
  3
*D9
  1

  0
LINE
  5
7E23
330
8143
100
AcDbEntity
  8
0
  6
ByBlock
100
AcDbLine
 10
-65.07873346845645
 20
2158.414968530633
 30
0.0
 11
-273.8707044670645
 21
2158.414968530633
 31
0.0
  0
LINE
  5
7E24
330
8143
100
AcDbEntity
  8
0
  6
ByBlock
100
AcDbLine
 10
-65.0787334684569
 20
3164.414968530635
 30
0.0
 11
-273.8707044670645
 21
3164.414968530635
 31
0.0
  0
LINE
  5
7E25
330
8143
100
AcDbEntity
  8
0
  6
ByBlock
100
AcDbLine
 10
-253.8707044670645
 20
2198.414968530633
 30
0.0
 11
-253.8707044670645
 21
3124.414968530635
 31
0.0
  0
INSERT
  5
7E26
330
8143
100
AcDbEntity
  8
0
  6
ByBlock
100
AcDbBlockReference
  2
_OPEN
 10
-253.8707044670645
 20
2158.414968530633
 30
0.0
 41
40.0
 42
40.0
 43
40.0
 50
270.0
  0
INSERT
  5
7E27
330
8143
100
AcDbEntity
  8
0
  6
ByBlock
100
AcDbBlockReference
  2
_OPEN
 10
-253.8707044670645
 20
3164.414968530635
 30
0.0
 41
40.0
 42
40.0
 43
40.0
 50
90.0
  0
TEXT
  5
7E28
330
8143
100
AcDbEntity
  8
3
100
AcDbText
 10
-263.8707044670645
 20
2562.843539959205
 30
0.0
 40
60.0
  1
1006
 50
90.0
100
AcDbText
  0
POINT
  5
7E29
330
8143
100
AcDbEntity
  8
DEFPOINTS
  6
ByBlock
 62
     0
100
AcDbPoint
 10
-45.07873346845644
 20
2158.414968530633
 30
0.0
  0
POINT
  5
7E2A
330
8143
100
AcDbEntity
  8
DEFPOINTS
  6
ByBlock
 62
     0
100
AcDbPoint
 10
-45.07873346845689
 20
3164.414968530635
 30
0.0
  0
POINT
  5
7E2B
330
8143
100
AcDbEntity
  8
DEFPOINTS
  6
ByBlock
 62
     0
100
AcDbPoint
 10
-253.8707044670645
 20
3164.414968530635
 30
0.0
  0
ENDBLK
  5
7E2C
330
8143
100
AcDbEntity
  8
0
100
AcDbBlockEnd
  0
BLOCK
  5
8146
330
8145
100
AcDbEntity
  8
0
100
AcDbBlockBegin
  2
*D10
 70
     1
 10
0.0
 20
0.0
 30
0.0
  3
*D10
  1

  0
LINE
  5
7E2E
330
8145
100
AcDbEntity
  8
0
  6
ByBlock
100
AcDbLine
 10
754.9212665315434
 20
3184.414968530634
 30
0.0
 11
754.9212665315434
 21
3333.020259029039
 31
0.0
  0
LINE
  5
7E2F
330
8145
100
AcDbEntity
  8
0
  6
ByBlock
100
AcDbLine
 10
-45.07873346845689
 20
3184.414968530635
 30
0.0
 11
-45.07873346845689
 21
3333.020259029039
 31
0.0
  0
LINE
  5
7E30
330
8145
100
AcDbEntity
  8
0
  6
ByBlock
100
AcDbLine
 10
714.9212665315435
 20
3313.020259029039
 30
0.0
 11
-5.078733468456903
 21
3313.020259029039
 31
0.0
  0
INSERT
  5
7E31
330
8145
100
AcDbEntity
  8
0
  6
ByBlock
100
AcDbBlockReference
  2
_OPEN
 10
754.9212665315434
 20
3313.020259029039
 30
0.0
 41
40.0
 42
40.0
 43
40.0
  0
INSERT
  5
7E32
330
8145
100
AcDbEntity
  8
0
  6
ByBlock
100
AcDbBlockReference
  2
_OPEN
 10
-45.07873346845689
 20
3313.020259029039
 30
0.0
 41
40.0
 42
40.0
 43
40.0
 50
180.0
  0
TEXT
  5
7E33
330
8145
100
AcDbEntity
  8
3
100
AcDbText
 10
277.7784093886861
 20
3323.020259029039
 30
0.0
 40
60.0
  1
800
100
AcDbText
  0
POINT
  5
7E34
330
8145
100
AcDbEntity
  8
DEFPOINTS
  6
ByBlock
 62
     0
100
AcDbPoint
 10
754.9212665315434
 20
3164.414968530634
 30
0.0
  0
POINT
  5
7E35
330
8145
100
AcDbEntity
  8
DEFPOINTS
  6
ByBlock
 62
     0
100
AcDbPoint
 10
-45.07873346845689
 20
3164.414968530635
 30
0.0
  0
POINT
  5
7E36
330
8145
100
AcDbEntity
  8
DEFPOINTS
  6
ByBlock
 62
     0
100
AcDbPoint
 10
-45.07873346845689
 20
3313.020259029039
 30
0.0
  0
ENDBLK
  5
7E37
330
8145
100
AcDbEntity
  8
0
100
AcDbBlockEnd
  0
BLOCK
  5
8148
330
8147
100
AcDbEntity
  8
0
100
AcDbBlockBegin
  2
*D11
 70
     1
 10
0.0
 20
0.0
 30
0.0
  3
*D11
  1

  0
LINE
  5
7E39
330
8147
100
AcDbEntity
  8
0
  6
ByBlock
100
AcDbLine
 10
1424.921266531543
 20
2758.414968530632
 30
0.0
 11
1575.348850406824
 21
2758.414968530632
 31
0.0
  0
LINE
  5
7E3A
330
8147
100
AcDbEntity
  8
0
  6
ByBlock
100
AcDbLine
 10
1424.921266531543
 20
2158.414968530632
 30
0.0
 11
1575.348850406824
 21
2158.414968530632
 31
0.0
  0
LINE
  5
7E3B
330
8147
100
AcDbEntity
  8
0
  6
ByBlock
100
AcDbLine
 10
1555.348850406824
 20
2718.414968530632
 30
0.0
 11
1555.348850406824
 21
2198.414968530632
 31
0.0
  0
INSERT
  5
7E3C
330
8147
100
AcDbEntity
  8
0
  6
ByBlock
100
AcDbBlockReference
  2
_OPEN
 10
1555.348850406824
 20
2758.414968530632
 30
0.0
 41
40.0
 42
40.0
 43
40.0
 50
90.0
  0
INSERT
  5
7E3D
330
8147
100
AcDbEntity
  8
0
  6
ByBlock
100
AcDbBlockReference
  2
_OPEN
 10
1555.348850406824
 20
2158.414968530632
 30
0.0
 41
40.0
 42
40.0
 43
40.0
 50
270.0
  0
TEXT
  5
7E3E
330
8147
100
AcDbEntity
  8
3
100
AcDbText
 10
1545.348850406824
 20
2381.272111387775
 30
0.0
 40
60.0
  1
600
 50
90.0
100
AcDbText
  0
POINT
  5
7E3F
330
8147
100
AcDbEntity
  8
DEFPOINTS
  6
ByBlock
 62
     0
100
AcDbPoint
 10
1404.921266531543
 20
2758.414968530632
 30
0.0
  0
POINT
  5
7E40
330
8147
100
AcDbEntity
  8
DEFPOINTS
  6
ByBlock
 62
     0
100
AcDbPoint
 10
1404.921266531543
 20
2158.414968530632
 30
0.0
  0
POINT
  5
7E41
330
8147
100
AcDbEntity
  8
DEFPOINTS
  6
ByBlock
 62
     0
100
AcDbPoint
 10
1555.348850406824
 20
2158.414968530632
 30
0.0
  0
ENDBLK
  5
7E42
330
8147
100
AcDbEntity
  8
0
100
AcDbBlockEnd
  0
BLOCK
  5
814A
330
8149
100
AcDbEntity
  8
0
100
AcDbBlockBegin
  2
*D12
 70
     1
 10
0.0
 20
0.0
 30
0.0
  3
*D12
  1

  0
LINE
  5
7F4A
330
8149
100
AcDbEntity
  8
0
  6
ByBlock
100
AcDbLine
 10
3749.004301064449
 20
2130.116393141435
 30
0.0
 11
3749.004301064449
 21
2904.821239069906
 31
0.0
  0
LINE
  5
7F4B
330
8149
100
AcDbEntity
  8
0
  6
ByBlock
100
AcDbLine
 10
3249.004301064449
 20
2820.735879151343
 30
0.0
 11
3249.004301064449
 21
2904.821239069906
 31
0.0
  0
LINE
  5
7F4C
330
8149
100
AcDbEntity
  8
0
  6
ByBlock
100
AcDbLine
 10
3709.004301064448
 20
2884.821239069906
 30
0.0
 11
3289.004301064448
 21
2884.821239069906
 31
0.0
  0
INSERT
  5
7F4D
330
8149
100
AcDbEntity
  8
0
  6
ByBlock
100
AcDbBlockReference
  2
_OPEN
 10
3749.004301064449
 20
2884.821239069906
 30
0.0
 41
40.0
 42
40.0
 43
40.0
  0
INSERT
  5
7F4E
330
8149
100
AcDbEntity
  8
0
  6
ByBlock
100
AcDbBlockReference
  2
_OPEN
 10
3249.004301064449
 20
2884.821239069906
 30
0.0
 41
40.0
 42
40.0
 43
40.0
 50
180.0
  0
TEXT
  5
7F4F
330
8149
100
AcDbEntity
  8
3
100
AcDbText
 10
3389.004301064448
 20
2920.535524784192
 30
0.0
 40
60.0
  1
(510)
100
AcDbText
  0
POINT
  5
7F50
330
8149
100
AcDbEntity
  8
DEFPOINTS
  6
ByBlock
 62
     0
100
AcDbPoint
 10
3749.004301064449
 20
2110.116393141435
 30
0.0
  0
POINT
  5
7F51
330
8149
100
AcDbEntity
  8
DEFPOINTS
  6
ByBlock
 62
     0
100
AcDbPoint
 10
3249.004301064449
 20
2800.735879151343
 30
0.0
  0
POINT
  5
7F52
330
8149
100
AcDbEntity
  8
DEFPOINTS
  6
ByBlock
 62
     0
100
AcDbPoint
 10
3249.004301064449
 20
2884.821239069906
 30
0.0
  0
ENDBLK
  5
7F53
330
8149
100
AcDbEntity
  8
0
100
AcDbBlockEnd
  0
BLOCK
  5
814C
330
814B
100
AcDbEntity
  8
0
100
AcDbBlockBegin
  2
*D13
 70
     1
 10
0.0
 20
0.0
 30
0.0
  3
*D13
  1

  0
LINE
  5
807F
330
814B
100
AcDbEntity
  8
3
100
AcDbLine
 10
2569.004301064448
 20
2310.116393141436
 30
0.0
 11
2569.004301064448
 21
2904.821239069906
 31
0.0
  0
LINE
  5
8080
330
814B
100
AcDbEntity
  8
3
100
AcDbLine
 10
3209.004301064448
 20
2884.821239069906
 30
0.0
 11
2609.004301064449
 21
2884.821239069906
 31
0.0
  0
INSERT
  5
8081
330
814B
100
AcDbEntity
  8
3
100
AcDbBlockReference
  2
_OPEN
 10
3249.004301064449
 20
2884.821239069906
 30
0.0
 41
40.0
 42
40.0
 43
40.0
  0
INSERT
  5
8082
330
814B
100
AcDbEntity
  8
3
100
AcDbBlockReference
  2
_OPEN
 10
2569.004301064448
 20
2884.821239069906
 30
0.0
 41
40.0
 42
40.0
 43
40.0
 50
180.0
  0
TEXT
  5
80AD
330
814B
100
AcDbEntity
  8
3
100
AcDbText
 10
2789.0
 20
2868.62
 30
0.0
 40
60.0
  1
MAX
100
AcDbText
  0
TEXT
  5
80AE
330
814B
100
AcDbEntity
  8
3
100
AcDbText
 10
2789.0
 20
2790.62
 30
0.0
 40
60.0
  1
710
100
AcDbText
  0
POINT
  5
8084
330
814B
100
AcDbEntity
  8
DEFPOINTS
 62
     0
100
AcDbPoint
 10
3249.004301064449
 20
2800.735879151343
 30
0.0
  0
POINT
  5
8085
330
814B
100
AcDbEntity
  8
DEFPOINTS
 62
     0
100
AcDbPoint
 10
2569.004301064448
 20
2290.116393141436
 30
0.0
  0
POINT
  5
8086
330
814B
100
AcDbEntity
  8
DEFPOINTS
 62
     0
100
AcDbPoint
 10
2569.004301064448
 20
2884.821239069906
 30
0.0
  0
ENDBLK
  5
7F48
330
814B
100
AcDbEntity
  8
0
100
AcDbBlockEnd
  0
BLOCK
  5
814E
330
814D
100
AcDbEntity
  8
0
100
AcDbBlockBegin
  2
*D14
 70
     1
 10
0.0
 20
0.0
 30
0.0
  3
*D14
  1

  0
LINE
  5
8087
330
814D
100
AcDbEntity
  8
3
100
AcDbLine
 10
2350.651254010002
 20
4065.460569308625
 30
0.0
 11
2350.651254010002
 21
4620.065859807033
 31
0.0
  0
LINE
  5
8088
330
814D
100
AcDbEntity
  8
3
100
AcDbLine
 10
1740.651254010002
 20
4600.065859807033
 30
0.0
 11
2310.651254010001
 21
4600.065859807033
 31
0.0
  0
INSERT
  5
8089
330
814D
100
AcDbEntity
  8
3
100
AcDbBlockReference
  2
_OPEN
 10
1700.651254010002
 20
4600.065859807033
 30
0.0
 41
40.0
 42
40.0
 43
40.0
 50
180.0
  0
INSERT
  5
808A
330
814D
100
AcDbEntity
  8
3
100
AcDbBlockReference
  2
_OPEN
 10
2350.651254010002
 20
4600.065859807033
 30
0.0
 41
40.0
 42
40.0
 43
40.0
  0
TEXT
  5
80AF
330
814D
100
AcDbEntity
  8
3
100
AcDbText
 10
1905.65
 20
4533.87
 30
0.0
 40
60.0
  1
650
100
AcDbText
  0
POINT
  5
808C
330
814D
100
AcDbEntity
  8
DEFPOINTS
 62
     0
100
AcDbPoint
 10
1700.651254010002
 20
4451.460569308628
 30
0.0
  0
POINT
  5
808D
330
814D
100
AcDbEntity
  8
DEFPOINTS
 62
     0
100
AcDbPoint
 10
2350.651254010002
 20
4045.460569308626
 30
0.0
  0
POINT
  5
808E
330
814D
100
AcDbEntity
  8
DEFPOINTS
 62
     0
100
AcDbPoint
 10
2350.651254010002
 20
4600.065859807033
 30
0.0
  0
ENDBLK
  5
7E77
330
814D
100
AcDbEntity
  8
0
100
AcDbBlockEnd
  0
BLOCK
  5
8150
330
814F
100
AcDbEntity
  8
0
100
AcDbBlockBegin
  2
*D15
 70
     1
 10
0.0
 20
0.0
 30
0.0
  3
*D15
  1

  0
LINE
  5
7E79
330
814F
100
AcDbEntity
  8
0
  6
ByBlock
100
AcDbLine
 10
320.9212665315435
 20
1028.09762645012
 30
0.0
 11
-318.7890274116635
 21
1028.09762645012
 31
0.0
  0
LINE
  5
7E7A
330
814F
100
AcDbEntity
  8
0
  6
ByBlock
100
AcDbLine
 10
-171.9717065714521
 20
568.0976264501205
 30
0.0
 11
-318.7890274116635
 21
568.0976264501205
 31
0.0
  0
LINE
  5
7E7B
330
814F
100
AcDbEntity
  8
0
  6
ByBlock
100
AcDbLine
 10
-298.7890274116634
 20
988.0976264501203
 30
0.0
 11
-298.7890274116634
 21
608.0976264501205
 31
0.0
  0
INSERT
  5
7E7C
330
814F
100
AcDbEntity
  8
0
  6
ByBlock
100
AcDbBlockReference
  2
_OPEN
 10
-298.7890274116634
 20
1028.09762645012
 30
0.0
 41
40.0
 42
40.0
 43
40.0
 50
90.0
  0
INSERT
  5
7E7D
330
814F
100
AcDbEntity
  8
0
  6
ByBlock
100
AcDbBlockReference
  2
_OPEN
 10
-298.7890274116634
 20
568.0976264501205
 30
0.0
 41
40.0
 42
40.0
 43
40.0
 50
270.0
  0
TEXT
  5
7E7E
330
814F
100
AcDbEntity
  8
3
100
AcDbText
 10
-308.7890274116634
 20
720.9547693072632
 30
0.0
 40
60.0
  1
460
 50
90.0
100
AcDbText
  0
POINT
  5
7E7F
330
814F
100
AcDbEntity
  8
DEFPOINTS
  6
ByBlock
 62
     0
100
AcDbPoint
 10
340.9212665315435
 20
1028.09762645012
 30
0.0
  0
POINT
  5
7E80
330
814F
100
AcDbEntity
  8
DEFPOINTS
  6
ByBlock
 62
     0
100
AcDbPoint
 10
-151.9717065714521
 20
568.0976264501205
 30
0.0
  0
POINT
  5
7E81
330
814F
100
AcDbEntity
  8
DEFPOINTS
  6
ByBlock
 62
     0
100
AcDbPoint
 10
-298.7890274116634
 20
568.0976264501205
 30
0.0
  0
ENDBLK
  5
7E82
330
814F
100
AcDbEntity
  8
0
100
AcDbBlockEnd
  0
BLOCK
  5
8152
330
8151
100
AcDbEntity
  8
0
100
AcDbBlockBegin
  2
*D16
 70
     1
 10
0.0
 20
0.0
 30
0.0
  3
*D16
  1

  0
LINE
  5
808F
330
8151
100
AcDbEntity
  8
3
100
AcDbLine
 10
880.6512540100017
 20
1560.116393141435
 30
0.0
 11
626.940960066795
 21
1560.116393141435
 31
0.0
  0
LINE
  5
8090
330
8151
100
AcDbEntity
  8
3
100
AcDbLine
 10
646.9409600667951
 20
2100.116393141435
 30
0.0
 11
646.940960066795
 21
1600.116393141435
 31
0.0
  0
INSERT
  5
8091
330
8151
100
AcDbEntity
  8
3
100
AcDbBlockReference
  2
_OPEN
 10
646.9409600667951
 20
2140.116393141436
 30
0.0
 41
40.0
 42
40.0
 43
40.0
 50
90.0
  0
INSERT
  5
8092
330
8151
100
AcDbEntity
  8
3
100
AcDbBlockReference
  2
_OPEN
 10
646.940960066795
 20
1560.116393141435
 30
0.0
 41
40.0
 42
40.0
 43
40.0
 50
270.0
  0
TEXT
  5
80B0
330
8151
100
AcDbEntity
  8
3
100
AcDbText
 10
486.941
 20
1743.92
 30
0.0
 40
60.0
  1
580
100
AcDbText
  0
POINT
  5
8094
330
8151
100
AcDbEntity
  8
DEFPOINTS
 62
     0
100
AcDbPoint
 10
793.7582809070062
 20
2140.116393141436
 30
0.0
  0
POINT
  5
8095
330
8151
100
AcDbEntity
  8
DEFPOINTS
 62
     0
100
AcDbPoint
 10
900.6512540100018
 20
1560.116393141435
 30
0.0
  0
POINT
  5
8096
330
8151
100
AcDbEntity
  8
DEFPOINTS
 62
     0
100
AcDbPoint
 10
646.940960066795
 20
1560.116393141435
 30
0.0
  0
ENDBLK
  5
7E8C
330
8151
100
AcDbEntity
  8
0
100
AcDbBlockEnd
  0
BLOCK
  5
8154
330
8153
100
AcDbEntity
  8
0
100
AcDbBlockBegin
  2
*D17
 70
     1
 10
0.0
 20
0.0
 30
0.0
  3
*D17
  1

  0
LINE
  5
8097
330
8153
100
AcDbEntity
  8
3
 62
     0
100
AcDbLine
 10
890.6512540100019
 20
1533.116393141435
 30
0.0
 11
626.940960066795
 21
1533.116393141435
 31
0.0
  0
LINE
  5
8098
330
8153
100
AcDbEntity
  8
3
 62
     0
100
AcDbLine
 10
890.6512540100019
 20
1433.116393141435
 30
0.0
 11
626.940960066795
 21
1433.116393141435
 31
0.0
  0
LINE
  5
8099
330
8153
100
AcDbEntity
  8
3
 62
     0
100
AcDbLine
 10
646.940960066795
 20
1573.116393141435
 30
0.0
 11
646.940960066795
 21
1613.116393141435
 31
0.0
  0
LINE
  5
809A
330
8153
100
AcDbEntity
  8
3
 62
     0
100
AcDbLine
 10
646.940960066795
 20
1393.116393141435
 30
0.0
 11
646.9409600667948
 21
1170.259250284293
 31
0.0
  0
LINE
  5
809B
330
8153
100
AcDbEntity
  8
3
 62
     0
100
AcDbLine
 10
646.940960066795
 20
1533.116393141435
 30
0.0
 11
646.940960066795
 21
1433.116393141435
 31
0.0
  0
INSERT
  5
809C
330
8153
100
AcDbEntity
  8
3
 62
     0
100
AcDbBlockReference
  2
_DOT
 10
646.940960066795
 20
1533.116393141435
 30
0.0
 41
40.0
 42
40.0
 43
40.0
 50
270.0
  0
INSERT
  5
809D
330
8153
100
AcDbEntity
  8
3
 62
     0
100
AcDbBlockReference
  2
_OPEN
 10
646.940960066795
 20
1433.116393141435
 30
0.0
 41
40.0
 42
40.0
 43
40.0
 50
90.0
  0
TEXT
  5
80B1
330
8153
100
AcDbEntity
  8
3
 62
     0
100
AcDbText
 10
476.9409999999999
 20
1155.49
 30
0.0
 40
60.0
  1
100
100
AcDbText
  0
POINT
  5
809F
330
8153
100
AcDbEntity
  8
DEFPOINTS
 62
     0
100
AcDbPoint
 10
900.6512540100018
 20
1533.116393141435
 30
0.0
  0
POINT
  5
80A0
330
8153
100
AcDbEntity
  8
DEFPOINTS
 62
     0
100
AcDbPoint
 10
900.6512540100018
 20
1433.116393141435
 30
0.0
  0
POINT
  5
80A1
330
8153
100
AcDbEntity
  8
DEFPOINTS
 62
     0
100
AcDbPoint
 10
646.940960066795
 20
1433.116393141435
 30
0.0
  0
ENDBLK
  5
7F2D
330
8153
100
AcDbEntity
  8
0
100
AcDbBlockEnd
  0
BLOCK
  5
815A
330
8155
100
AcDbEntity
  8
0
100
AcDbBlockBegin
  2
_DOT
 70
     0
 10
0.0
 20
0.0
 30
0.0
  3
_DOT
  1

  0
LWPOLYLINE
  5
7F30
330
8155
100
AcDbEntity
  8
0
  6
ByBlock
 62
     0
100
AcDbPolyline
 90
        2
 70
     1
 43
0.25
 10
-0.125
 20
0.0
 42
1.0
 10
0.125
 20
0.0
 42
1.0
  0
LINE
  5
7F34
330
8155
100
AcDbEntity
  8
0
  6
ByBlock
 62
     0
100
AcDbLine
 10
-0.25
 20
0.0
 30
0.0
 11
-1.0
 21
0.0
 31
0.0
  0
ENDBLK
  5
7F13
330
8155
100
AcDbEntity
  8
0
100
AcDbBlockEnd
  0
BLOCK
  5
8157
330
8156
100
AcDbEntity
  8
0
100
AcDbBlockBegin
  2
*D19
 70
     1
 10
0.0
 20
0.0
 30
0.0
  3
*D19
  1

  0
LINE
  5
80A2
330
8156
100
AcDbEntity
  8
3
100
AcDbLine
 10
846.6512540100017
 20
2113.116393141436
 30
0.0
 11
846.6512540100017
 21
2919.618059262128
 31
0.0
  0
LINE
  5
80A3
330
8156
100
AcDbEntity
  8
3
100
AcDbLine
 10
1260.651254010002
 20
2899.618059262128
 30
0.0
 11
886.6512540100018
 21
2899.618059262128
 31
0.0
  0
INSERT
  5
80A4
330
8156
100
AcDbEntity
  8
3
100
AcDbBlockReference
  2
_OPEN
 10
1300.651254010002
 20
2899.618059262128
 30
0.0
 41
40.0
 42
40.0
 43
40.0
  0
INSERT
  5
80A5
330
8156
100
AcDbEntity
  8
3
100
AcDbBlockReference
  2
_OPEN
 10
846.6512540100017
 20
2899.618059262128
 30
0.0
 41
40.0
 42
40.0
 43
40.0
 50
180.0
  0
TEXT
  5
80B2
330
8156
100
AcDbEntity
  8
3
100
AcDbText
 10
953.6510000000001
 20
2833.42
 30
0.0
 40
60.0
  1
454
100
AcDbText
  0
POINT
  5
80A7
330
8156
100
AcDbEntity
  8
DEFPOINTS
 62
     0
100
AcDbPoint
 10
1300.651254010002
 20
2647.009366244431
 30
0.0
  0
POINT
  5
80A8
330
8156
100
AcDbEntity
  8
DEFPOINTS
 62
     0
100
AcDbPoint
 10
846.6512540100017
 20
2093.116393141435
 30
0.0
  0
POINT
  5
80A9
330
8156
100
AcDbEntity
  8
DEFPOINTS
 62
     0
100
AcDbPoint
 10
846.6512540100017
 20
2899.618059262128
 30
0.0
  0
ENDBLK
  5
7EBA
330
8156
100
AcDbEntity
  8
0
100
AcDbBlockEnd
  0
BLOCK
  5
8159
330
8158
100
AcDbEntity
  8
0
100
AcDbBlockBegin
  2
*D20
 70
     1
 10
0.0
 20
0.0
 30
0.0
  3
*D20
  1

  0
LINE
  5
7EBC
330
8158
100
AcDbEntity
  8
0
  6
ByBlock
100
AcDbLine
 10
-99.07873346845644
 20
541.0976264501205
 30
0.0
 11
-99.07873346845644
 21
1454.501768476792
 31
0.0
  0
LINE
  5
7EBD
330
8158
100
AcDbEntity
  8
0
  6
ByBlock
100
AcDbLine
 10
1404.921266531543
 20
148.0976264501204
 30
0.0
 11
1404.921266531543
 21
1454.501768476792
 31
0.0
  0
LINE
  5
7EBE
330
8158
100
AcDbEntity
  8
0
  6
ByBlock
100
AcDbLine
 10
-59.07873346845645
 20
1434.501768476792
 30
0.0
 11
1364.921266531543
 21
1434.501768476792
 31
0.0
  0
INSERT
  5
7EBF
330
8158
100
AcDbEntity
  8
0
  6
ByBlock
100
AcDbBlockReference
  2
_OPEN
 10
-99.07873346845644
 20
1434.501768476792
 30
0.0
 41
40.0
 42
40.0
 43
40.0
 50
180.0
  0
INSERT
  5
7EC0
330
8158
100
AcDbEntity
  8
0
  6
ByBlock
100
AcDbBlockReference
  2
_OPEN
 10
1404.921266531543
 20
1434.501768476792
 30
0.0
 41
40.0
 42
40.0
 43
40.0
  0
TEXT
  5
7EC1
330
8158
100
AcDbEntity
  8
3
100
AcDbText
 10
551.4926951029719
 20
1444.501768476792
 30
0.0
 40
60.0
  1
1504
100
AcDbText
  0
POINT
  5
7EC2
330
8158
100
AcDbEntity
  8
DEFPOINTS
  6
ByBlock
 62
     0
100
AcDbPoint
 10
-99.07873346845644
 20
521.0976264501205
 30
0.0
  0
POINT
  5
7EC3
330
8158
100
AcDbEntity
  8
DEFPOINTS
  6
ByBlock
 62
     0
100
AcDbPoint
 10
1404.921266531543
 20
128.0976264501205
 30
0.0
  0
POINT
  5
7EC4
330
8158
100
AcDbEntity
  8
DEFPOINTS
  6
ByBlock
 62
     0
100
AcDbPoint
 10
1404.921266531543
 20
1434.501768476792
 30
0.0
  0
ENDBLK
  5
7EC5
330
8158
100
AcDbEntity
  8
0
100
AcDbBlockEnd
  0
BLOCK
  5
815C
330
815B
100
AcDbEntity
  8
0
100
AcDbBlockBegin
  2
_NONE
 70
     0
 10
0.0
 20
0.0
 30
0.0
  3
_NONE
  1

  0
CIRCLE
  5
7F9F
330
815B
100
AcDbEntity
  8
0
  6
ByBlock
 62
     0
100
AcDbCircle
 10
0.0
 20
0.0
 30
0.0
 40
0.25
  0
ENDBLK
  5
7FA0
330
815B
100
AcDbEntity
  8
0
100
AcDbBlockEnd
  0
BLOCK
  5
815E
330
815D
100
AcDbEntity
  8
0
100
AcDbBlockBegin
  2
*D22
 70
     1
 10
0.0
 20
0.0
 30
0.0
  3
*D22
  1

  0
LINE
  5
7FB9
330
815D
100
AcDbEntity
  8
0
  6
ByBlock
 62
     0
100
AcDbLine
 10
900.6512540100018
 20
1413.116393141435
 30
0.0
 11
900.6512540100018
 21
1266.716389713538
 31
0.0
  0
LINE
  5
7FBA
330
815D
100
AcDbEntity
  8
0
  6
ByBlock
 62
     0
100
AcDbLine
 10
1300.651254010001
 20
1413.116393141435
 30
0.0
 11
1300.651254010001
 21
1266.716389713538
 31
0.0
  0
LINE
  5
7FBB
330
815D
100
AcDbEntity
  8
0
  6
ByBlock
 62
     0
100
AcDbLine
 10
940.6512540100019
 20
1286.716389713538
 30
0.0
 11
1260.65125401
 21
1286.716389713538
 31
0.0
  0
INSERT
  5
7FBC
330
815D
100
AcDbEntity
  8
0
  6
ByBlock
 62
     0
100
AcDbBlockReference
  2
_OPEN
 10
900.6512540100018
 20
1286.716389713538
 30
0.0
 41
40.0
 42
40.0
 43
40.0
 50
180.0
  0
INSERT
  5
7FBD
330
815D
100
AcDbEntity
  8
0
  6
ByBlock
 62
     0
100
AcDbBlockReference
  2
_OPEN
 10
1300.651254010001
 20
1286.716389713538
 30
0.0
 41
40.0
 42
40.0
 43
40.0
  0
TEXT
  5
7FBE
330
815D
100
AcDbEntity
  8
3
 62
     0
100
AcDbText
 10
1023.508396867145
 20
1306.716389713537
 30
0.0
 40
60.0
  1
400
100
AcDbText
  0
POINT
  5
7FBF
330
815D
100
AcDbEntity
  8
DEFPOINTS
  6
ByBlock
 62
     0
100
AcDbPoint
 10
900.6512540100018
 20
1433.116393141435
 30
0.0
  0
POINT
  5
7FC0
330
815D
100
AcDbEntity
  8
DEFPOINTS
  6
ByBlock
 62
     0
100
AcDbPoint
 10
1300.651254010001
 20
1433.116393141435
 30
0.0
  0
POINT
  5
7FC1
330
815D
100
AcDbEntity
  8
DEFPOINTS
  6
ByBlock
 62
     0
100
AcDbPoint
 10
1300.651254010001
 20
1286.716389713538
 30
0.0
  0
ENDBLK
  5
7FC2
330
815D
100
AcDbEntity
  8
0
100
AcDbBlockEnd
  0
BLOCK
  5
8160
330
815F
100
AcDbEntity
  8
0
100
AcDbBlockBegin
  2
*D23
 70
     1
 10
0.0
 20
0.0
 30
0.0
  3
*D23
  1

  0
LINE
  5
7FC6
330
815F
100
AcDbEntity
  8
0
  6
ByBlock
 62
     0
100
AcDbLine
 10
1300.651254010001
 20
1413.116393141435
 30
0.0
 11
1300.651254010001
 21
1266.716389713538
 31
0.0
  0
LINE
  5
7FC7
330
815F
100
AcDbEntity
  8
0
  6
ByBlock
 62
     0
100
AcDbLine
 10
2350.651254010002
 20
1413.116393141435
 30
0.0
 11
2350.651254010002
 21
1266.716389713538
 31
0.0
  0
LINE
  5
7FC8
330
815F
100
AcDbEntity
  8
0
  6
ByBlock
 62
     0
100
AcDbLine
 10
1340.651254010001
 20
1286.716389713538
 30
0.0
 11
2310.651254010001
 21
1286.716389713538
 31
0.0
  0
INSERT
  5
7FC9
330
815F
100
AcDbEntity
  8
0
  6
ByBlock
 62
     0
100
AcDbBlockReference
  2
_OPEN
 10
1300.651254010001
 20
1286.716389713538
 30
0.0
 41
40.0
 42
40.0
 43
40.0
 50
180.0
  0
INSERT
  5
7FCA
330
815F
100
AcDbEntity
  8
0
  6
ByBlock
 62
     0
100
AcDbBlockReference
  2
_OPEN
 10
2350.651254010002
 20
1286.716389713538
 30
0.0
 41
40.0
 42
40.0
 43
40.0
  0
TEXT
  5
7FCB
330
815F
100
AcDbEntity
  8
3
 62
     0
100
AcDbText
 10
1725.651254010002
 20
1306.716389713537
 30
0.0
 40
60.0
  1
1050
100
AcDbText
  0
POINT
  5
7FCC
330
815F
100
AcDbEntity
  8
DEFPOINTS
  6
ByBlock
 62
     0
100
AcDbPoint
 10
1300.651254010001
 20
1433.116393141435
 30
0.0
  0
POINT
  5
7FCD
330
815F
100
AcDbEntity
  8
DEFPOINTS
  6
ByBlock
 62
     0
100
AcDbPoint
 10
2350.651254010002
 20
1433.116393141435
 30
0.0
  0
POINT
  5
7FCE
330
815F
100
AcDbEntity
  8
DEFPOINTS
  6
ByBlock
 62
     0
100
AcDbPoint
 10
2350.651254010002
 20
1286.716389713538
 30
0.0
  0
ENDBLK
  5
7FCF
330
815F
100
AcDbEntity
  8
0
100
AcDbBlockEnd
  0
BLOCK
  5
8162
330
8161
100
AcDbEntity
  8
0
100
AcDbBlockBegin
  2
*D24
 70
     1
 10
0.0
 20
0.0
 30
0.0
  3
*D24
  1

  0
LINE
  5
7FD3
330
8161
100
AcDbEntity
  8
0
  6
ByBlock
 62
     0
100
AcDbLine
 10
2696.004301064448
 20
1413.116393141435
 30
0.0
 11
2696.004301064448
 21
1266.716389713538
 31
0.0
  0
LINE
  5
7FD4
330
8161
100
AcDbEntity
  8
0
  6
ByBlock
 62
     0
100
AcDbLine
 10
3249.004301064447
 20
1413.116393141435
 30
0.0
 11
3249.004301064447
 21
1266.716389713538
 31
0.0
  0
LINE
  5
7FD5
330
8161
100
AcDbEntity
  8
0
  6
ByBlock
 62
     0
100
AcDbLine
 10
2736.004301064448
 20
1286.716389713538
 30
0.0
 11
3209.004301064448
 21
1286.716389713538
 31
0.0
  0
INSERT
  5
7FD6
330
8161
100
AcDbEntity
  8
0
  6
ByBlock
 62
     0
100
AcDbBlockReference
  2
_OPEN
 10
2696.004301064448
 20
1286.716389713538
 30
0.0
 41
40.0
 42
40.0
 43
40.0
 50
180.0
  0
INSERT
  5
7FD7
330
8161
100
AcDbEntity
  8
0
  6
ByBlock
 62
     0
100
AcDbBlockReference
  2
_OPEN
 10
3249.004301064447
 20
1286.716389713538
 30
0.0
 41
40.0
 42
40.0
 43
40.0
  0
TEXT
  5
7FD8
330
8161
100
AcDbEntity
  8
3
 62
     0
100
AcDbText
 10
2895.36144392159
 20
1306.716389713537
 30
0.0
 40
60.0
  1
553
100
AcDbText
  0
POINT
  5
7FD9
330
8161
100
AcDbEntity
  8
DEFPOINTS
  6
ByBlock
 62
     0
100
AcDbPoint
 10
2696.004301064448
 20
1433.116393141435
 30
0.0
  0
POINT
  5
7FDA
330
8161
100
AcDbEntity
  8
DEFPOINTS
  6
ByBlock
 62
     0
100
AcDbPoint
 10
3249.004301064447
 20
1433.116393141435
 30
0.0
  0
POINT
  5
7FDB
330
8161
100
AcDbEntity
  8
DEFPOINTS
  6
ByBlock
 62
     0
100
AcDbPoint
 10
3249.004301064447
 20
1286.716389713538
 30
0.0
  0
ENDBLK
  5
7FDC
330
8161
100
AcDbEntity
  8
0
100
AcDbBlockEnd
  0
BLOCK
  5
8164
330
8163
100
AcDbEntity
  8
0
100
AcDbBlockBegin
  2
*D25
 70
     1
 10
0.0
 20
0.0
 30
0.0
  3
*D25
  1

  0
LINE
  5
7FE0
330
8163
100
AcDbEntity
  8
0
  6
ByBlock
 62
     0
100
AcDbLine
 10
3249.004301064447
 20
1413.116393141435
 30
0.0
 11
3249.004301064447
 21
1266.716389713538
 31
0.0
  0
LINE
  5
7FE1
330
8163
100
AcDbEntity
  8
0
  6
ByBlock
 62
     0
100
AcDbLine
 10
3702.004301064448
 20
1413.116393141435
 30
0.0
 11
3702.004301064448
 21
1266.716389713538
 31
0.0
  0
LINE
  5
7FE2
330
8163
100
AcDbEntity
  8
0
  6
ByBlock
 62
     0
100
AcDbLine
 10
3289.004301064448
 20
1286.716389713538
 30
0.0
 11
3662.004301064448
 21
1286.716389713538
 31
0.0
  0
INSERT
  5
7FE3
330
8163
100
AcDbEntity
  8
0
  6
ByBlock
 62
     0
100
AcDbBlockReference
  2
_OPEN
 10
3249.004301064447
 20
1286.716389713538
 30
0.0
 41
40.0
 42
40.0
 43
40.0
 50
180.0
  0
INSERT
  5
7FE4
330
8163
100
AcDbEntity
  8
0
  6
ByBlock
 62
     0
100
AcDbBlockReference
  2
_OPEN
 10
3702.004301064448
 20
1286.716389713538
 30
0.0
 41
40.0
 42
40.0
 43
40.0
  0
TEXT
  5
7FE5
330
8163
100
AcDbEntity
  8
3
 62
     0
100
AcDbText
 10
3398.361443921589
 20
1306.716389713537
 30
0.0
 40
60.0
  1
453
100
AcDbText
  0
POINT
  5
7FE6
330
8163
100
AcDbEntity
  8
DEFPOINTS
  6
ByBlock
 62
     0
100
AcDbPoint
 10
3249.004301064447
 20
1433.116393141435
 30
0.0
  0
POINT
  5
7FE7
330
8163
100
AcDbEntity
  8
DEFPOINTS
  6
ByBlock
 62
     0
100
AcDbPoint
 10
3702.004301064448
 20
1433.116393141435
 30
0.0
  0
POINT
  5
7FE8
330
8163
100
AcDbEntity
  8
DEFPOINTS
  6
ByBlock
 62
     0
100
AcDbPoint
 10
3702.004301064448
 20
1286.716389713538
 30
0.0
  0
ENDBLK
  5
7FE9
330
8163
100
AcDbEntity
  8
0
100
AcDbBlockEnd
  0
BLOCK
  5
8166
330
8165
100
AcDbEntity
  8
0
100
AcDbBlockBegin
  2
*D26
 70
     1
 10
0.0
 20
0.0
 30
0.0
  3
*D26
  1

  0
LINE
  5
7FED
330
8165
100
AcDbEntity
  8
0
  6
ByBlock
 62
     0
100
AcDbLine
 10
644.8899569923813
 20
1533.116393141435
 30
0.0
 11
644.8899569923813
 21
1533.116393141435
 31
0.0
  0
LINE
  5
7FEE
330
8165
100
AcDbEntity
  8
0
  6
ByBlock
 62
     0
100
AcDbLine
 10
644.8899569923813
 20
1560.116393141435
 30
0.0
 11
644.8899569923813
 21
1640.116393141435
 31
0.0
  0
TEXT
  5
7FEF
330
8165
100
AcDbEntity
  8
3
 62
     0
100
AcDbText
 10
569.1756712780958
 20
1459.473535998578
 30
0.0
 40
60.0
  1
(27)
 50
90.0
100
AcDbText
  0
LINE
  5
7FF0
330
8165
100
AcDbEntity
  8
0
  6
ByBlock
 62
     0
100
AcDbLine
 10
644.8899569923813
 20
1533.116393141435
 30
0.0
 11
644.8899569923813
 21
1560.116393141435
 31
0.0
  0
POINT
  5
7FF1
330
8165
100
AcDbEntity
  8
DEFPOINTS
  6
ByBlock
 62
     0
100
AcDbPoint
 10
900.6512540100018
 20
1533.116393141435
 30
0.0
  0
POINT
  5
7FF2
330
8165
100
AcDbEntity
  8
DEFPOINTS
  6
ByBlock
 62
     0
100
AcDbPoint
 10
900.6512540100018
 20
1560.116393141435
 30
0.0
  0
POINT
  5
7FF3
330
8165
100
AcDbEntity
  8
DEFPOINTS
  6
ByBlock
 62
     0
100
AcDbPoint
 10
644.8899569923813
 20
1560.116393141435
 30
0.0
  0
ENDBLK
  5
7FF4
330
8165
100
AcDbEntity
  8
0
100
AcDbBlockEnd
  0
BLOCK
  5
8168
330
8167
100
AcDbEntity
  8
0
100
AcDbBlockBegin
  2
*D27
 70
     1
 10
0.0
 20
0.0
 30
0.0
  3
*D27
  1

  0
LINE
  5
7FF8
330
8167
100
AcDbEntity
  8
0
  6
ByBlock
 62
     0
100
AcDbLine
 10
880.6512540100017
 20
1433.116393141435
 30
0.0
 11
452.1820539454711
 21
1433.116393141435
 31
0.0
  0
LINE
  5
7FF9
330
8167
100
AcDbEntity
  8
0
  6
ByBlock
 62
     0
100
AcDbLine
 10
1266.651254010002
 20
2600.116393141435
 30
0.0
 11
452.1820539454711
 21
2600.116393141435
 31
0.0
  0
LINE
  5
7FFA
330
8167
100
AcDbEntity
  8
0
  6
ByBlock
 62
     0
100
AcDbLine
 10
472.1820539454711
 20
1473.116393141435
 30
0.0
 11
472.1820539454711
 21
2560.116393141436
 31
0.0
  0
INSERT
  5
7FFB
330
8167
100
AcDbEntity
  8
0
  6
ByBlock
 62
     0
100
AcDbBlockReference
  2
_OPEN
 10
472.1820539454711
 20
1433.116393141435
 30
0.0
 41
40.0
 42
40.0
 43
40.0
 50
270.0
  0
INSERT
  5
7FFC
330
8167
100
AcDbEntity
  8
0
  6
ByBlock
 62
     0
100
AcDbBlockReference
  2
_OPEN
 10
472.1820539454711
 20
2600.116393141435
 30
0.0
 41
40.0
 42
40.0
 43
40.0
 50
90.0
  0
TEXT
  5
7FFD
330
8167
100
AcDbEntity
  8
3
 62
     0
100
AcDbText
 10
426.4677682311852
 20
1883.759250284293
 30
0.0
 40
60.0
  1
(1167)
 50
90.0
100
AcDbText
  0
POINT
  5
7FFE
330
8167
100
AcDbEntity
  8
DEFPOINTS
  6
ByBlock
 62
     0
100
AcDbPoint
 10
900.6512540100018
 20
1433.116393141435
 30
0.0
  0
POINT
  5
7FFF
330
8167
100
AcDbEntity
  8
DEFPOINTS
  6
ByBlock
 62
     0
100
AcDbPoint
 10
1286.651254010002
 20
2600.116393141435
 30
0.0
  0
POINT
  5
8000
330
8167
100
AcDbEntity
  8
DEFPOINTS
  6
ByBlock
 62
     0
100
AcDbPoint
 10
472.1820539454711
 20
2600.116393141435
 30
0.0
  0
ENDBLK
  5
8001
330
8167
100
AcDbEntity
  8
0
100
AcDbBlockEnd
  0
BLOCK
  5
816F
330
816E
100
AcDbEntity
  8
0
100
AcDbBlockBegin
  2
*D28
 70
     1
 10
0.0
 20
0.0
 30
0.0
  3
*D28
  1

  0
LINE
  5
81C9
330
816E
100
AcDbEntity
  8
3
 62
     0
370
    -2
100
AcDbLine
 10
2469.004301064448
 20
2310.116393141436
 30
0.0
 11
2469.004301064448
 21
3002.364357717981
 31
0.0
  0
LINE
  5
81CA
330
816E
100
AcDbEntity
  8
3
 62
     0
370
    -2
100
AcDbLine
 10
3249.004301064449
 20
2797.306378051618
 30
0.0
 11
3249.004301064449
 21
3002.364357717981
 31
0.0
  0
LINE
  5
81CB
330
816E
100
AcDbEntity
  8
3
 62
     0
370
    -2
100
AcDbLine
 10
2509.004301064448
 20
2982.364357717981
 30
0.0
 11
3209.004301064448
 21
2982.364357717981
 31
0.0
  0
INSERT
  5
81CC
330
816E
100
AcDbEntity
  8
3
 62
     0
370
    -2
100
AcDbBlockReference
  2
_OPEN
 10
2469.004301064448
 20
2982.364357717981
 30
0.0
 41
40.0
 42
40.0
 43
40.0
 50
180.0
  0
INSERT
  5
81CD
330
816E
100
AcDbEntity
  8
3
 62
     0
370
    -2
100
AcDbBlockReference
  2
_OPEN
 10
3249.004301064449
 20
2982.364357717981
 30
0.0
 41
40.0
 42
40.0
 43
40.0
  0
MTEXT
  5
81CE
330
816E
100
AcDbEntity
  8
3
 62
     0
100
AcDbMText
 10
2859.004301064448
 20
3048.078643432267
 30
0.0
 40
60.0
 41
0.0
 71
     5
 72
     1
  1
\A1;(780)
 73
     1
 44
1.0
1001
ACAD
1000
MTEXTBEGIN
1070
    73
1070
     1
1070
    44
1040
1.0
1070
    74
1070
     0
1000
MTEXTEND
  0
POINT
  5
81CF
330
816E
100
AcDbEntity
  8
DEFPOINTS
 62
     0
100
AcDbPoint
 10
2469.004301064448
 20
2290.116393141436
 30
0.0
  0
POINT
  5
81D0
330
816E
100
AcDbEntity
  8
DEFPOINTS
 62
     0
100
AcDbPoint
 10
3249.004301064449
 20
2777.306378051618
 30
0.0
  0
POINT
  5
81D1
330
816E
100
AcDbEntity
  8
DEFPOINTS
 62
     0
100
AcDbPoint
 10
3249.004301064449
 20
2982.364357717981
 30
0.0
  0
ENDBLK
  5
8170
330
816E
100
AcDbEntity
  8
0
100
AcDbBlockEnd
  0
BLOCK
  5
817C
330
817B
100
AcDbEntity
  8
0
100
AcDbBlockBegin
  2
*D29
 70
     1
 10
0.0
 20
0.0
 30
0.0
  3
*D29
  1

  0
LINE
  5
81C0
330
817B
100
AcDbEntity
  8
3
 62
     0
370
    -2
100
AcDbLine
 10
3249.004301064449
 20
2797.306378051618
 30
0.0
 11
3249.004301064449
 21
3002.364357717981
 31
0.0
  0
LINE
  5
81C1
330
817B
100
AcDbEntity
  8
3
 62
     0
370
    -2
100
AcDbLine
 10
3759.004301064448
 20
2130.116393141435
 30
0.0
 11
3759.004301064448
 21
3002.364357717981
 31
0.0
  0
LINE
  5
81C2
330
817B
100
AcDbEntity
  8
3
 62
     0
370
    -2
100
AcDbLine
 10
3289.004301064448
 20
2982.364357717981
 30
0.0
 11
3719.004301064448
 21
2982.364357717981
 31
0.0
  0
INSERT
  5
81C3
330
817B
100
AcDbEntity
  8
3
 62
     0
370
    -2
100
AcDbBlockReference
  2
_OPEN
 10
3249.004301064449
 20
2982.364357717981
 30
0.0
 41
40.0
 42
40.0
 43
40.0
 50
180.0
  0
INSERT
  5
81C4
330
817B
100
AcDbEntity
  8
3
 62
     0
370
    -2
100
AcDbBlockReference
  2
_OPEN
 10
3759.004301064448
 20
2982.364357717981
 30
0.0
 41
40.0
 42
40.0
 43
40.0
  0
MTEXT
  5
81C5
330
817B
100
AcDbEntity
  8
3
 62
     0
100
AcDbMText
 10
3504.004301064448
 20
3048.078643432267
 30
0.0
 40
60.0
 41
0.0
 71
     5
 72
     1
  1
\A1;(510)
 73
     1
 44
1.0
1001
ACAD
1000
MTEXTBEGIN
1070
    73
1070
     1
1070
    44
1040
1.0
1070
    74
1070
     0
1000
MTEXTEND
  0
POINT
  5
81C6
330
817B
100
AcDbEntity
  8
DEFPOINTS
 62
     0
100
AcDbPoint
 10
3249.004301064449
 20
2777.306378051618
 30
0.0
  0
POINT
  5
81C7
330
817B
100
AcDbEntity
  8
DEFPOINTS
 62
     0
100
AcDbPoint
 10
3759.004301064448
 20
2110.116393141435
 30
0.0
  0
POINT
  5
81C8
330
817B
100
AcDbEntity
  8
DEFPOINTS
 62
     0
100
AcDbPoint
 10
3759.004301064448
 20
2982.364357717981
 30
0.0
  0
ENDBLK
  5
817D
330
817B
100
AcDbEntity
  8
0
100
AcDbBlockEnd
  0
BLOCK
  5
81D4
330
81D3
100
AcDbEntity
  8
0
100
AcDbBlockBegin
  2
*D30
 70
     1
 10
0.0
 20
0.0
 30
0.0
  3
*D30
  1

  0
LINE
  5
81D6
330
81D3
100
AcDbEntity
  8
3
 62
     0
370
    -2
100
AcDbLine
 10
900.6512540100018
 20
3425.460569308627
 30
0.0
 11
900.6512540100018
 21
3093.828316513397
 31
0.0
  0
LINE
  5
81D7
330
81D3
100
AcDbEntity
  8
3
 62
     0
370
    -2
100
AcDbLine
 10
2350.651254010002
 20
3425.460569308626
 30
0.0
 11
2350.651254010002
 21
3093.828316513397
 31
0.0
  0
LINE
  5
81D8
330
81D3
100
AcDbEntity
  8
3
 62
     0
370
    -2
100
AcDbLine
 10
940.6512540100019
 20
3113.828316513397
 30
0.0
 11
2310.651254010002
 21
3113.828316513397
 31
0.0
  0
INSERT
  5
81D9
330
81D3
100
AcDbEntity
  8
3
 62
     0
370
    -2
100
AcDbBlockReference
  2
_OPEN
 10
900.6512540100018
 20
3113.828316513397
 30
0.0
 41
40.0
 42
40.0
 43
40.0
 50
180.0
  0
INSERT
  5
81DA
330
81D3
100
AcDbEntity
  8
3
 62
     0
370
    -2
100
AcDbBlockReference
  2
_OPEN
 10
2350.651254010002
 20
3113.828316513397
 30
0.0
 41
40.0
 42
40.0
 43
40.0
  0
MTEXT
  5
81DB
330
81D3
100
AcDbEntity
  8
3
 62
     0
100
AcDbMText
 10
1625.651254010002
 20
3163.828316513396
 30
0.0
 40
60.0
 41
0.0
 71
     5
 72
     1
  1
\A1;1450
 73
     1
 44
1.0
1001
ACAD
1000
MTEXTBEGIN
1070
    73
1070
     1
1070
    44
1040
1.0
1070
    74
1070
     0
1000
MTEXTEND
  0
POINT
  5
81DC
330
81D3
100
AcDbEntity
  8
DEFPOINTS
 62
     0
100
AcDbPoint
 10
900.6512540100018
 20
3445.460569308627
 30
0.0
  0
POINT
  5
81DD
330
81D3
100
AcDbEntity
  8
DEFPOINTS
 62
     0
100
AcDbPoint
 10
2350.651254010002
 20
3445.460569308626
 30
0.0
  0
POINT
  5
81DE
330
81D3
100
AcDbEntity
  8
DEFPOINTS
 62
     0
100
AcDbPoint
 10
2350.651254010002
 20
3113.828316513397
 30
0.0
  0
ENDBLK
  5
81D5
330
81D3
100
AcDbEntity
  8
0
100
AcDbBlockEnd
  0
BLOCK
  5
81E7
330
81E6
100
AcDbEntity
  8
0
100
AcDbBlockBegin
  2
*D32
 70
     1
 10
0.0
 20
0.0
 30
0.0
  3
*D32
  1

  0
LINE
  5
81F2
330
81E6
100
AcDbEntity
  8
3
 62
     0
370
    -2
100
AcDbLine
 10
1300.651254010002
 20
2658.672493969716
 30
0.0
 11
1300.651254010002
 21
2919.618059262129
 31
0.0
  0
LINE
  5
81F3
330
81E6
100
AcDbEntity
  8
3
 62
     0
370
    -2
100
AcDbLine
 10
846.6512540100021
 20
2113.116393141435
 30
0.0
 11
846.6512540100021
 21
2919.618059262129
 31
0.0
  0
LINE
  5
81F4
330
81E6
100
AcDbEntity
  8
3
 62
     0
370
    -2
100
AcDbLine
 10
1260.651254010002
 20
2899.618059262129
 30
0.0
 11
886.6512540100019
 21
2899.618059262129
 31
0.0
  0
INSERT
  5
81F5
330
81E6
100
AcDbEntity
  8
3
 62
     0
370
    -2
100
AcDbBlockReference
  2
_OPEN
 10
1300.651254010002
 20
2899.618059262129
 30
0.0
 41
40.0
 42
40.0
 43
40.0
  0
INSERT
  5
81F6
330
81E6
100
AcDbEntity
  8
3
 62
     0
370
    -2
100
AcDbBlockReference
  2
_OPEN
 10
846.6512540100021
 20
2899.618059262129
 30
0.0
 41
40.0
 42
40.0
 43
40.0
 50
180.0
  0
MTEXT
  5
81F7
330
81E6
100
AcDbEntity
  8
3
 62
     0
100
AcDbMText
 10
1073.651254010002
 20
2949.618059262128
 30
0.0
 40
60.0
 41
0.0
 71
     5
 72
     1
  1
\A1;454
 73
     1
 44
1.0
1001
ACAD
1000
MTEXTBEGIN
1070
    73
1070
     1
1070
    44
1040
1.0
1070
    74
1070
     0
1000
MTEXTEND
  0
POINT
  5
81F8
330
81E6
100
AcDbEntity
  8
DEFPOINTS
 62
     0
100
AcDbPoint
 10
1300.651254010002
 20
2638.672493969716
 30
0.0
  0
POINT
  5
81F9
330
81E6
100
AcDbEntity
  8
DEFPOINTS
 62
     0
100
AcDbPoint
 10
846.6512540100021
 20
2093.116393141435
 30
0.0
  0
POINT
  5
81FA
330
81E6
100
AcDbEntity
  8
DEFPOINTS
 62
     0
100
AcDbPoint
 10
846.6512540100021
 20
2899.618059262129
 30
0.0
  0
ENDBLK
  5
81E8
330
81E6
100
AcDbEntity
  8
0
100
AcDbBlockEnd
  0
BLOCK
  5
81FD
330
81FC
100
AcDbEntity
  8
0
100
AcDbBlockBegin
  2
*D33
 70
     1
 10
0.0
 20
0.0
 30
0.0
  3
*D33
  1

  0
LINE
  5
8252
330
81FC
100
AcDbEntity
  8
3
 62
     0
370
    -2
100
AcDbLine
 10
773.7582809070062
 20
2140.116393141436
 30
0.0
 11
626.9409600667951
 21
2140.116393141436
 31
0.0
  0
LINE
  5
8253
330
81FC
100
AcDbEntity
  8
3
 62
     0
370
    -2
100
AcDbLine
 10
880.6512540100017
 20
1560.116393141435
 30
0.0
 11
626.940960066795
 21
1560.116393141435
 31
0.0
  0
LINE
  5
8254
330
81FC
100
AcDbEntity
  8
3
 62
     0
370
    -2
100
AcDbLine
 10
646.9409600667951
 20
2100.116393141436
 30
0.0
 11
646.940960066795
 21
1600.116393141435
 31
0.0
  0
INSERT
  5
8255
330
81FC
100
AcDbEntity
  8
3
 62
     0
370
    -2
100
AcDbBlockReference
  2
_OPEN
 10
646.9409600667951
 20
2140.116393141436
 30
0.0
 41
40.0
 42
40.0
 43
40.0
 50
90.0
  0
INSERT
  5
8256
330
81FC
100
AcDbEntity
  8
3
 62
     0
370
    -2
100
AcDbBlockReference
  2
_OPEN
 10
646.940960066795
 20
1560.116393141435
 30
0.0
 41
40.0
 42
40.0
 43
40.0
 50
270.0
  0
MTEXT
  5
8257
330
81FC
100
AcDbEntity
  8
3
 62
     0
100
AcDbMText
 10
596.9409600667948
 20
1850.116393141435
 30
0.0
 40
60.0
 41
0.0
 71
     5
 72
     1
  1
\A1;580
 11
0.0000000000000001
 21
1.0
 31
0.0
 73
     1
 44
1.0
1001
ACAD
1000
MTEXTBEGIN
1070
    73
1070
     1
1070
    44
1040
1.0
1070
    74
1070
     0
1000
MTEXTEND
  0
POINT
  5
8258
330
81FC
100
AcDbEntity
  8
DEFPOINTS
 62
     0
100
AcDbPoint
 10
793.7582809070062
 20
2140.116393141436
 30
0.0
  0
POINT
  5
8259
330
81FC
100
AcDbEntity
  8
DEFPOINTS
 62
     0
100
AcDbPoint
 10
900.6512540100018
 20
1560.116393141435
 30
0.0
  0
POINT
  5
825A
330
81FC
100
AcDbEntity
  8
DEFPOINTS
 62
     0
100
AcDbPoint
 10
646.940960066795
 20
1560.116393141435
 30
0.0
  0
ENDBLK
  5
81FE
330
81FC
100
AcDbEntity
  8
0
100
AcDbBlockEnd
  0
BLOCK
  5
820A
330
8209
100
AcDbEntity
  8
0
100
AcDbBlockBegin
  2
*D34
 70
     1
 10
0.0
 20
0.0
 30
0.0
  3
*D34
  1

  0
LINE
  5
82D2
330
8209
100
AcDbEntity
  8
3
 62
     0
370
    -2
100
AcDbLine
 10
880.6512540100017
 20
1560.116393141435
 30
0.0
 11
626.940960066795
 21
1560.116393141435
 31
0.0
  0
LINE
  5
82D3
330
8209
100
AcDbEntity
  8
3
 62
     0
370
    -2
100
AcDbLine
 10
880.6512540100017
 20
1533.116393141435
 30
0.0
 11
626.940960066795
 21
1533.116393141435
 31
0.0
  0
LINE
  5
82D4
330
8209
100
AcDbEntity
  8
3
 62
     0
370
    -2
100
AcDbLine
 10
646.940960066795
 20
1600.116393141435
 30
0.0
 11
646.940960066795
 21
1640.116393141435
 31
0.0
  0
LINE
  5
82D5
330
8209
100
AcDbEntity
  8
3
 62
     0
370
    -2
100
AcDbLine
 10
646.940960066795
 20
1533.116393141435
 30
0.0
 11
646.940960066795
 21
1493.116393141435
 31
0.0
  0
MTEXT
  5
82D6
330
8209
100
AcDbEntity
  8
3
 62
     0
100
AcDbMText
 10
581.2266743525093
 20
1546.616393141435
 30
0.0
 40
60.0
 41
0.0
 71
     5
 72
     1
  1
\A1;(27)
 11
0.0000000000000001
 21
1.0
 31
0.0
 73
     1
 44
1.0
1001
ACAD
1000
MTEXTBEGIN
1070
    73
1070
     1
1070
    44
1040
1.0
1070
    74
1070
     0
1000
MTEXTEND
  0
LINE
  5
82D7
330
8209
100
AcDbEntity
  8
3
 62
     0
370
    -2
100
AcDbLine
 10
646.940960066795
 20
1560.116393141435
 30
0.0
 11
646.940960066795
 21
1533.116393141435
 31
0.0
  0
INSERT
  5
82D8
330
8209
100
AcDbEntity
  8
3
 62
     0
370
    -2
100
AcDbBlockReference
  2
_OPEN
 10
646.940960066795
 20
1560.116393141435
 30
0.0
 41
40.0
 42
40.0
 43
40.0
 50
270.0
  0
INSERT
  5
82D9
330
8209
100
AcDbEntity
  8
3
 62
     0
370
    -2
100
AcDbBlockReference
  2
_DotSmall
 10
646.940960066795
 20
1533.116393141435
 30
0.0
 41
40.0
 42
40.0
 43
40.0
 50
90.0
  0
POINT
  5
82DA
330
8209
100
AcDbEntity
  8
DEFPOINTS
 62
     0
100
AcDbPoint
 10
900.6512540100018
 20
1560.116393141435
 30
0.0
  0
POINT
  5
82DB
330
8209
100
AcDbEntity
  8
DEFPOINTS
 62
     0
100
AcDbPoint
 10
900.6512540100018
 20
1533.116393141435
 30
0.0
  0
POINT
  5
82DC
330
8209
100
AcDbEntity
  8
DEFPOINTS
 62
     0
100
AcDbPoint
 10
646.940960066795
 20
1533.116393141435
 30
0.0
  0
ENDBLK
  5
820B
330
8209
100
AcDbEntity
  8
0
100
AcDbBlockEnd
  0
BLOCK
  5
8268
330
8267
100
AcDbEntity
  8
0
100
AcDbBlockBegin
  2
*D35
 70
     1
 10
0.0
 20
0.0
 30
0.0
  3
*D35
  1

  0
LINE
  5
8273
330
8267
100
AcDbEntity
  8
3
 62
     0
370
    -2
100
AcDbLine
 10
1700.651254010002
 20
4471.460569308628
 30
0.0
 11
1700.651254010002
 21
4620.065859807033
 31
0.0
  0
LINE
  5
8274
330
8267
100
AcDbEntity
  8
3
 62
     0
370
    -2
100
AcDbLine
 10
2350.651254010002
 20
4065.460569308625
 30
0.0
 11
2350.651254010002
 21
4620.065859807033
 31
0.0
  0
LINE
  5
8275
330
8267
100
AcDbEntity
  8
3
 62
     0
370
    -2
100
AcDbLine
 10
1740.651254010002
 20
4600.065859807033
 30
0.0
 11
2310.651254010002
 21
4600.065859807033
 31
0.0
  0
INSERT
  5
8276
330
8267
100
AcDbEntity
  8
3
 62
     0
370
    -2
100
AcDbBlockReference
  2
_OPEN
 10
1700.651254010002
 20
4600.065859807033
 30
0.0
 41
40.0
 42
40.0
 43
40.0
 50
180.0
  0
INSERT
  5
8277
330
8267
100
AcDbEntity
  8
3
 62
     0
370
    -2
100
AcDbBlockReference
  2
_OPEN
 10
2350.651254010002
 20
4600.065859807033
 30
0.0
 41
40.0
 42
40.0
 43
40.0
  0
MTEXT
  5
8278
330
8267
100
AcDbEntity
  8
3
 62
     0
100
AcDbMText
 10
2025.651254010002
 20
4650.065859807033
 30
0.0
 40
60.0
 41
0.0
 71
     5
 72
     1
  1
\A1;650
 73
     1
 44
1.0
1001
ACAD
1000
MTEXTBEGIN
1070
    73
1070
     1
1070
    44
1040
1.0
1070
    74
1070
     0
1000
MTEXTEND
  0
POINT
  5
8279
330
8267
100
AcDbEntity
  8
DEFPOINTS
 62
     0
100
AcDbPoint
 10
1700.651254010002
 20
4451.460569308628
 30
0.0
  0
POINT
  5
827A
330
8267
100
AcDbEntity
  8
DEFPOINTS
 62
     0
100
AcDbPoint
 10
2350.651254010002
 20
4045.460569308626
 30
0.0
  0
POINT
  5
827B
330
8267
100
AcDbEntity
  8
DEFPOINTS
 62
     0
100
AcDbPoint
 10
2350.651254010002
 20
4600.065859807033
 30
0.0
  0
ENDBLK
  5
8269
330
8267
100
AcDbEntity
  8
0
100
AcDbBlockEnd
  0
BLOCK
  5
82D0
330
82CE
100
AcDbEntity
  8
0
100
AcDbBlockBegin
  2
_DotSmall
 70
     0
 10
0.0
 20
0.0
 30
0.0
  3
_DotSmall
  1

  0
LWPOLYLINE
  5
82CF
330
82CE
100
AcDbEntity
  8
0
  6
ByBlock
 62
     0
100
AcDbPolyline
 90
        2
 70
     1
 43
0.5
 10
-0.0625
 20
0.0
 42
1.0
 10
0.0625
 20
0.0
 42
1.0
  0
ENDBLK
  5
82D1
330
82CE
100
AcDbEntity
  8
0
100
AcDbBlockEnd
  0
ENDSEC
  0
SECTION
  2
ENTITIES
  0
INSERT
  5
7BEE
330
8121
100
AcDbEntity
  8
0
100
AcDbBlockReference
  2
YA_N
 10
6.0
 20
5.0
 30
0.0
  0
LINE
  5
7BF0
330
8121
100
AcDbEntity
  8
2
100
AcDbLine
 10
2014.447455669623
 20
2140.116393141436
 30
0.0
 11
793.7582809070062
 21
2140.116393141436
 31
0.0
  0
LINE
  5
7BF1
330
8121
100
AcDbEntity
  8
2
100
AcDbLine
 10
1300.651254010002
 20
2648.701334021707
 30
0.0
 11
1300.651254010001
 21
1433.116393141435
 31
0.0
  0
ARC
  5
7BF2
330
8121
100
AcDbEntity
  8
1
100
AcDbCircle
 10
1347.651254010002
 20
2187.116393141435
 30
0.0
 40
595.0
100
AcDbArc
 50
297.6604498993008
 51
355.4693949573174
  0
ARC
  5
7BF3
330
8121
100
AcDbEntity
  8
1
100
AcDbCircle
 10
1347.651254010002
 20
2093.116393141435
 30
0.0
 40
501.0
100
AcDbArc
 50
174.6170313501186
 51
239.7996190097055
  0
ARC
  5
7BF4
330
8121
100
AcDbEntity
  8
1
100
AcDbCircle
 10
1262.651254010002
 20
2102.116393141435
 30
0.0
 40
416.0
100
AcDbArc
 50
84.75894493870328
 51
174.7589449387032
  0
LINE
  5
7BF5
330
8121
100
AcDbEntity
  8
1
100
AcDbLine
 10
2020.651254010002
 20
2600.116393141435
 30
0.0
 11
1286.651254010002
 21
2600.116393141435
 31
0.0
  0
LINE
  5
7BF6
330
8121
100
AcDbEntity
  8
1
100
AcDbLine
 10
1978.65125401
 20
2600.116393141435
 30
0.0
 11
1940.792046739687
 21
2140.116393141436
 31
0.0
  0
LINE
  5
7BF7
330
8121
100
AcDbEntity
  8
1
100
AcDbLine
 10
1328.651254010002
 20
2517.077929640851
 30
0.0
 11
1328.651254010002
 21
2600.116393141435
 31
0.0
  0
LINE
  5
7BF8
330
8121
100
AcDbEntity
  8
1
100
AcDbLine
 10
1975.359149029974
 20
2560.116393141436
 30
0.0
 11
1328.651254010002
 21
2560.116393141436
 31
0.0
  0
LINE
  5
7BF9
330
8121
100
AcDbEntity
  8
1
100
AcDbLine
 10
2020.651254010002
 20
2597.116393141436
 30
0.0
 11
2020.651254010002
 21
2600.116393141435
 31
0.0
  0
LINE
  5
7BFA
330
8121
100
AcDbEntity
  8
1
100
AcDbLine
 10
1286.651254010002
 20
2597.116393141436
 30
0.0
 11
1286.651254010002
 21
2600.116393141435
 31
0.0
  0
LINE
  5
7BFB
330
8121
100
AcDbEntity
  8
1
100
AcDbLine
 10
2020.651254010002
 20
2597.116393141436
 30
0.0
 11
1286.651254010002
 21
2597.116393141436
 31
0.0
  0
LINE
  5
7BFC
330
8121
100
AcDbEntity
  8
2
100
AcDbLine
 10
3249.004301064449
 20
2690.834235693546
 30
0.0
 11
3249.004301064447
 21
1433.116393141435
 31
0.0
  0
LINE
  5
7BFD
330
8121
100
AcDbEntity
  8
2
100
AcDbLine
 10
2467.004301064447
 20
2140.116393141436
 30
0.0
 11
3754.675975686597
 21
2140.116393141436
 31
0.0
  0
LINE
  5
7BFE
330
8121
100
AcDbEntity
  8
1
100
AcDbLine
 10
3702.004301064448
 20
1660.116393141436
 30
0.0
 11
3702.004301064448
 21
1654.64626192825
 31
0.0
  0
LINE
  5
7BFF
330
8121
100
AcDbEntity
  8
1
100
AcDbLine
 10
3649.004301064449
 20
2600.116393141435
 30
0.0
 11
3649.004301064449
 21
2168.116393141435
 31
0.0
  0
LINE
  5
7C00
330
8121
100
AcDbEntity
  8
1
100
AcDbLine
 10
2809.004301064447
 20
2600.116393141435
 30
0.0
 11
3689.004301064449
 21
2600.116393141435
 31
0.0
  0
LINE
  5
7C01
330
8121
100
AcDbEntity
  8
1
100
AcDbLine
 10
3649.004301064449
 20
2168.116393141435
 30
0.0
 11
3649.004301064449
 21
1660.116393141436
 31
0.0
  0
LINE
  5
7C02
330
8121
100
AcDbEntity
  8
2
100
AcDbLine
 10
1300.651254010002
 20
4479.25865581345
 30
0.0
 11
1300.651254010002
 21
3194.90728603693
 31
0.0
  0
LINE
  5
7C03
330
8121
100
AcDbEntity
  8
2
100
AcDbLine
 10
1902.49910370882
 20
3998.460569308628
 30
0.0
 11
791.1407193261784
 21
3998.460569308628
 31
0.0
  0
INSERT
  5
7C04
330
8121
100
AcDbEntity
  8
0
100
AcDbBlockReference
  2
YA_N
 10
-1221.011981710642
 20
-542.7332483964637
 30
0.0
 41
15.0
 42
15.0
 43
15.0
  0
LINE
  5
7C06
330
8121
100
AcDbEntity
  8
1
100
AcDbLine
 10
2350.651254010002
 20
1433.116393141435
 30
0.0
 11
900.6512540100018
 21
1433.116393141435
 31
0.0
  0
LINE
  5
7C07
330
8121
100
AcDbEntity
  8
1
100
AcDbLine
 10
2350.651254010002
 20
1533.116393141435
 30
0.0
 11
900.6512540100018
 21
1533.116393141435
 31
0.0
1001
ACAD
1000
ASC_BOUNDS
1002
{
1070
    19
1005
0
1005
0
1002
}
  0
LINE
  5
7C08
330
8121
100
AcDbEntity
  8
1
100
AcDbLine
 10
2350.651254010002
 20
1533.116393141435
 30
0.0
 11
2350.651254010002
 21
1433.116393141435
 31
0.0
  0
LINE
  5
7C09
330
8121
100
AcDbEntity
  8
1
100
AcDbLine
 10
900.6512540100018
 20
1533.116393141435
 30
0.0
 11
900.6512540100018
 21
1433.116393141435
 31
0.0
  0
ARC
  5
7C0A
330
8121
100
AcDbEntity
  8
1
100
AcDbCircle
 10
2150.651254010002
 20
1877.116393141435
 30
0.0
 40
142.5
100
AcDbArc
 50
180.0
 51
213.0338076719878
  0
ARC
  5
7C0B
330
8121
100
AcDbEntity
  8
1
100
AcDbCircle
 10
2150.651254010002
 20
1877.116393141435
 30
0.0
 40
142.5
100
AcDbArc
 50
326.9661316176382
 51
180.0
  0
LINE
  5
7C0C
330
8121
100
AcDbEntity
  8
2
100
AcDbLine
 10
2150.651254010002
 20
2038.715134258695
 30
0.0
 11
2150.651254010002
 21
1433.116393141436
 31
0.0
  0
LINE
  5
7C0D
330
8121
100
AcDbEntity
  8
1
100
AcDbLine
 10
2270.115912018924
 20
1799.434699758688
 30
0.0
 11
2280.651254010002
 21
1760.116393141435
 31
0.0
  0
LINE
  5
7C0E
330
8121
100
AcDbEntity
  8
1
100
AcDbLine
 10
2280.651254010002
 20
1759.918993141435
 30
0.0
 11
2280.651254010002
 21
1745.116393141435
 31
0.0
  0
LINE
  5
7C0F
330
8121
100
AcDbEntity
  8
1
100
AcDbLine
 10
2031.186513689942
 20
1799.434826342995
 30
0.0
 11
2020.651254010002
 21
1760.116393141435
 31
0.0
  0
LINE
  5
7C10
330
8121
100
AcDbEntity
  8
1
100
AcDbLine
 10
2020.651254010002
 20
1759.918993141435
 30
0.0
 11
2020.651254010002
 21
1745.116393141435
 31
0.0
  0
LINE
  5
7C11
330
8121
100
AcDbEntity
  8
2
100
AcDbLine
 10
2321.188818825592
 20
1877.116393141435
 30
0.0
 11
1982.150488484341
 21
1877.116393141435
 31
0.0
  0
LINE
  5
7C12
330
8121
100
AcDbEntity
  8
1
100
AcDbLine
 10
1950.651254010002
 20
1700.116393141435
 30
0.0
 11
1950.651254010002
 21
1660.116393141436
 31
0.0
  0
LINE
  5
7C13
330
8121
100
AcDbEntity
  8
1
100
AcDbLine
 10
2350.651254010002
 20
1700.116393141435
 30
0.0
 11
2350.651254010002
 21
1660.116393141436
 31
0.0
  0
LINE
  5
7C15
330
8121
100
AcDbEntity
  8
1
100
AcDbLine
 10
2314.486910623796
 20
1745.116393141435
 30
0.0
 11
1988.028742618675
 21
1745.116393141435
 31
0.0
  0
LINE
  5
7C16
330
8121
100
AcDbEntity
  8
1
100
AcDbLine
 10
2325.651254010002
 20
1700.116393141435
 30
0.0
 11
2314.486910623796
 21
1745.116393141435
 31
0.0
  0
LINE
  5
7C17
330
8121
100
AcDbEntity
  8
1
100
AcDbLine
 10
1975.651254010002
 20
1700.116393141435
 30
0.0
 11
1988.028742618675
 21
1745.116393141435
 31
0.0
  0
LINE
  5
7C18
330
8121
100
AcDbEntity
  8
1
100
AcDbLine
 10
2696.004301064448
 20
1533.116393141435
 30
0.0
 11
3702.004301064448
 21
1533.116393141435
 31
0.0
1001
ACAD
1000
ASC_BOUNDS
1002
{
1070
    19
1002
}
  0
LINE
  5
7C19
330
8121
100
AcDbEntity
  8
1
100
AcDbLine
 10
2696.004301064448
 20
1433.116393141435
 30
0.0
 11
3702.004301064448
 21
1433.116393141435
 31
0.0
  0
LINE
  5
7C1A
330
8121
100
AcDbEntity
  8
1
100
AcDbLine
 10
2696.004301064448
 20
1533.116393141435
 30
0.0
 11
2696.004301064448
 21
1433.116393141435
 31
0.0
  0
LINE
  5
7C1B
330
8121
100
AcDbEntity
  8
1
100
AcDbLine
 10
3702.004301064448
 20
1533.116393141435
 30
0.0
 11
3702.004301064448
 21
1433.116393141435
 31
0.0
  0
DIMENSION
  5
7C1D
330
8121
100
AcDbEntity
  8
3
100
AcDbDimension
  2
*D4
 10
1328.651254010002
 20
2750.074215058445
 30
0.0
 11
1653.651254010002
 21
2790.074215058445
 31
0.0
 12
945.7299874784583
 22
1572.018766691315
 32
0.0
 71
     5
 42
-1.0
  3
Standard
100
AcDbAlignedDimension
 13
1978.65125401
 23
2600.116393141435
 33
0.0
 14
1328.651254010002
 24
2600.116393141435
 34
0.0
 50
180.0
100
AcDbRotatedDimension
1001
ACAD
1000
DSTYLE
1002
{
1070
    40
1040
20.0
1002
}
  0
DIMENSION
  5
7C1E
330
8121
100
AcDbEntity
  8
3
100
AcDbDimension
  2
*D5
 10
1300.651254010002
 20
2899.618059262128
 30
0.0
 11
1639.651254010002
 21
2939.618059262128
 31
0.0
 12
945.7299874784583
 22
1572.018766691315
 32
0.0
 71
     5
 42
-1.0
  3
Standard
100
AcDbAlignedDimension
 13
1978.65125401
 23
2600.116393141435
 33
0.0
 14
1300.651254010002
 24
2647.009366244431
 34
0.0
 50
180.0
100
AcDbRotatedDimension
1001
ACAD
1000
DSTYLE
1002
{
1070
    40
1040
20.0
1002
}
  0
POINT
  5
7C1F
330
8121
100
AcDbEntity
  8
1
100
AcDbPoint
 10
900.6512540100018
 20
1508.116393141435
 30
0.0
  0
LINE
  5
7C20
330
8121
100
AcDbEntity
  8
2
100
AcDbLine
 10
2467.004301064447
 20
1877.116393141435
 30
0.0
 11
3171.268439876075
 21
1877.116393141435
 31
0.0
  0
LINE
  5
7C22
330
8121
100
AcDbEntity
  8
1
100
AcDbLine
 10
2849.004301064447
 20
2600.116393141435
 30
0.0
 11
2849.004301064447
 21
2168.116393141435
 31
0.0
  0
LINE
  5
7C23
330
8121
100
AcDbEntity
  8
1
100
AcDbLine
 10
2849.004301064447
 20
2168.116393141435
 30
0.0
 11
2849.004301064447
 21
2019.616393141435
 31
0.0
  0
LINE
  5
7C24
330
8121
100
AcDbEntity
  8
1
100
AcDbLine
 10
3759.004301064448
 20
2110.116393141435
 30
0.0
 11
3759.004301064448
 21
2010.116393141435
 31
0.0
  0
ARC
  5
7C25
330
8121
100
AcDbEntity
  8
1
100
AcDbCircle
 10
3749.004301064449
 20
2110.116393141435
 30
0.0
 40
10.0
100
AcDbArc
 50
0.0
 51
90.0
  0
ARC
  5
7C26
330
8121
100
AcDbEntity
  8
1
100
AcDbCircle
 10
3749.004301064449
 20
2010.116393141435
 30
0.0
 40
10.0
100
AcDbArc
 50
270.0
 51
0.0
  0
LINE
  5
7C27
330
8121
100
AcDbEntity
  8
1
100
AcDbLine
 10
3649.004301064449
 20
2000.116393141436
 30
0.0
 11
3749.004301064449
 21
2000.116393141436
 31
0.0
  0
LINE
  5
7C28
330
8121
100
AcDbEntity
  8
1
100
AcDbLine
 10
3649.004301064449
 20
2120.116393141435
 30
0.0
 11
3749.004301064449
 21
2120.116393141435
 31
0.0
  0
CIRCLE
  5
7C29
330
8121
100
AcDbEntity
  8
1
100
AcDbCircle
 10
2150.651254010002
 20
1877.116393141435
 30
0.0
 40
79.0
  0
CIRCLE
  5
7C2A
330
8121
100
AcDbEntity
  8
1
100
AcDbCircle
 10
1300.651254010002
 20
2140.116393141436
 30
0.0
 40
88.9
  0
ARC
  5
7C2B
330
8121
100
AcDbEntity
  8
1
100
AcDbCircle
 10
1300.651254010002
 20
2140.116393141436
 30
0.0
 40
150.0
100
AcDbArc
 50
77.52830244339076
 51
257.5283024433907
  0
ARC
  5
7C2C
330
8121
100
AcDbEntity
  8
1
100
AcDbCircle
 10
2150.651254010002
 20
1877.116393141435
 30
0.0
 40
150.0
100
AcDbArc
 50
257.5283024433907
 51
77.52830244339076
  0
LINE
  5
7C2D
330
8121
100
AcDbEntity
  8
1
100
AcDbLine
 10
1333.044852881301
 20
2286.576813570182
 30
0.0
 11
2183.044852881301
 21
2023.576813570183
 31
0.0
  0
LINE
  5
7C2E
330
8121
100
AcDbEntity
  8
1
100
AcDbLine
 10
1320.835752676891
 20
2226.694658390667
 30
0.0
 11
2168.587985108812
 21
1954.053209279673
 31
0.0
  0
LINE
  5
7C2F
330
8121
100
AcDbEntity
  8
1
100
AcDbLine
 10
1282.441023134373
 20
2053.101466310137
 30
0.0
 11
2134.468934109274
 21
1799.791542526445
 31
0.0
  0
LINE
  5
7C30
330
8121
100
AcDbEntity
  8
1
100
AcDbLine
 10
1268.257655138703
 20
1993.655972712688
 30
0.0
 11
2118.257655138703
 21
1730.655972712688
 31
0.0
  0
LINE
  5
7C31
330
8121
100
AcDbEntity
  8
1
100
AcDbLine
 10
2597.004301064448
 20
2229.016393141435
 30
0.0
 11
2597.004301064448
 21
2051.216393141436
 31
0.0
  0
LINE
  5
7C32
330
8121
100
AcDbEntity
  8
1
100
AcDbLine
 10
2679.004301064448
 20
2229.016393141435
 30
0.0
 11
2679.004301064447
 21
2051.216393141436
 31
0.0
  0
LINE
  5
7C33
330
8121
100
AcDbEntity
  8
1
100
AcDbLine
 10
2597.004301064448
 20
2229.016393141435
 30
0.0
 11
2679.004301064448
 21
2229.016393141435
 31
0.0
  0
LINE
  5
7C34
330
8121
100
AcDbEntity
  8
1
100
AcDbLine
 10
2597.004301064448
 20
2051.216393141436
 30
0.0
 11
2679.004301064447
 21
2051.216393141436
 31
0.0
  0
LINE
  5
7C35
330
8121
100
AcDbEntity
  8
1
100
AcDbLine
 10
2597.004301064448
 20
1956.116393141435
 30
0.0
 11
2679.004301064447
 21
1956.116393141435
 31
0.0
  0
LINE
  5
7C36
330
8121
100
AcDbEntity
  8
1
100
AcDbLine
 10
2597.004301064445
 20
1798.116393141435
 30
0.0
 11
2679.004301064445
 21
1798.116393141435
 31
0.0
  0
LINE
  5
7C37
330
8121
100
AcDbEntity
  8
1
100
AcDbLine
 10
2469.004301064448
 20
2290.116393141436
 30
0.0
 11
2469.004301064448
 21
1727.116393141435
 31
0.0
  0
LINE
  5
7C38
330
8121
100
AcDbEntity
  8
1
100
AcDbLine
 10
2729.004301064448
 20
2290.116393141436
 30
0.0
 11
2729.00430106445
 21
2270.116393141435
 31
0.0
  0
LINE
  5
7C39
330
8121
100
AcDbEntity
  8
1
100
AcDbLine
 10
2469.004301064449
 20
2290.116393141436
 30
0.0
 11
2729.004301064448
 21
2290.116393141436
 31
0.0
  0
LINE
  5
7C3A
330
8121
100
AcDbEntity
  8
1
100
AcDbLine
 10
2469.004301064448
 20
1727.116393141435
 30
0.0
 11
2729.004301064446
 21
1727.116393141435
 31
0.0
  0
LINE
  5
7C3B
330
8121
100
AcDbEntity
  8
1
100
AcDbLine
 10
2729.004301064446
 20
1734.616393141435
 30
0.0
 11
2729.004301064446
 21
1727.116393141435
 31
0.0
  0
LINE
  5
7C3C
330
8121
100
AcDbEntity
  8
1
100
AcDbLine
 10
1700.651254010002
 20
4451.460569308628
 30
0.0
 11
900.6512540100009
 21
4451.460569308628
 31
0.0
  0
LINE
  5
7C3D
330
8121
100
AcDbEntity
  8
1
100
AcDbLine
 10
2350.651254010002
 20
3445.460569308626
 30
0.0
 11
900.6512540100018
 21
3445.460569308627
 31
0.0
  0
LINE
  5
7C3E
330
8121
100
AcDbEntity
  8
1
100
AcDbLine
 10
900.6512540100018
 20
4451.460569308628
 30
0.0
 11
900.6512540100018
 21
4398.460569308627
 31
0.0
  0
LINE
  5
7C3F
330
8121
100
AcDbEntity
  8
1
100
AcDbLine
 10
1700.651254010002
 20
4451.460569308628
 30
0.0
 11
1700.651254010002
 21
4398.460569308627
 31
0.0
  0
LINE
  5
7C40
330
8121
100
AcDbEntity
  8
1
100
AcDbLine
 10
2350.651254010002
 20
4045.460569308627
 30
0.0
 11
2350.651254010002
 21
3445.460569308626
 31
0.0
  0
LINE
  5
7C41
330
8121
100
AcDbEntity
  8
1
100
AcDbLine
 10
2350.651254010002
 20
4045.460569308626
 30
0.0
 11
1978.65125401
 21
4045.460569308627
 31
0.0
  0
POINT
  5
7C42
330
8121
100
AcDbEntity
  8
1
100
AcDbPoint
 10
900.6512540100018
 20
1590.116393141435
 30
0.0
  0
POINT
  5
7C43
330
8121
100
AcDbEntity
  8
1
100
AcDbPoint
 10
900.6512540100018
 20
1508.116393141435
 30
0.0
  0
POINT
  5
7C44
330
8121
100
AcDbEntity
  8
1
100
AcDbPoint
 10
900.6512540100018
 20
1590.116393141435
 30
0.0
  0
DIMENSION
  5
7C45
330
8121
100
AcDbEntity
  8
3
100
AcDbDimension
  2
*D6
 10
3902.541334635112
 20
1805.116393141435
 30
0.0
 11
3862.541334635113
 21
2140.116393141436
 31
0.0
 12
681.7081075811655
 22
1572.018766691315
 32
0.0
 71
     5
 42
-1.0
  3
Standard
100
AcDbAlignedDimension
 13
3654.504301064449
 23
2475.116393141435
 33
0.0
 14
3654.504301064449
 24
1805.116393141435
 34
0.0
 50
90.0
100
AcDbRotatedDimension
1001
ACAD
1000
DSTYLE
1002
{
1070
    40
1040
20.0
1070
     3
1000
\U+03C6<>
1002
}
  0
DIMENSION
  5
7C48
330
8121
100
AcDbEntity
  8
3
100
AcDbDimension
  2
*D7
 10
3649.004301064449
 20
2707.306378051618
 30
0.0
 11
3249.004301064447
 21
2747.306378051618
 31
0.0
 12
681.7081075811655
 22
1572.018766691315
 32
0.0
 71
     5
 42
-1.0
  3
Standard
100
AcDbAlignedDimension
 13
2849.004301064447
 23
2600.116393141435
 33
0.0
 14
3649.004301064449
 24
2600.116393141435
 34
0.0
100
AcDbRotatedDimension
1001
ACAD
1000
DSTYLE
1002
{
1070
    40
1040
20.0
1002
}
  0
ARC
  5
7C49
330
8121
100
AcDbEntity
  8
1
100
AcDbCircle
 10
2756.504301064448
 20
2106.916393141435
 30
0.0
 40
10.0
100
AcDbArc
 50
90.0
 51
180.0
  0
LINE
  5
7C4A
330
8121
100
AcDbEntity
  8
1
100
AcDbLine
 10
2849.004301064447
 20
2116.916393141435
 30
0.0
 11
2756.504301064448
 21
2116.916393141435
 31
0.0
  0
LINE
  5
7C4B
330
8121
100
AcDbEntity
  8
1
100
AcDbLine
 10
2746.504301064447
 20
2106.916393141435
 30
0.0
 11
2746.504301064447
 21
2019.616393141435
 31
0.0
  0
LINE
  5
7C4C
330
8121
100
AcDbEntity
  8
1
100
AcDbLine
 10
2679.004301064447
 20
2115.116393141435
 30
0.0
 11
2750.904301064448
 21
2115.116393141435
 31
0.0
  0
LINE
  5
7C4E
330
8121
100
AcDbEntity
  8
1
100
AcDbLine
 10
900.6512540100018
 20
1660.116393141436
 30
0.0
 11
900.6512540100018
 21
1560.116393141435
 31
0.0
  0
LINE
  5
7C4F
330
8121
100
AcDbEntity
  8
1
100
AcDbLine
 10
2350.651254010002
 20
1660.116393141436
 30
0.0
 11
900.6512540100018
 21
1660.116393141436
 31
0.0
1001
ACAD
1000
ASC_BOUNDS
1002
{
1070
    19
1005
0
1005
0
1002
}
  0
LINE
  5
7C50
330
8121
100
AcDbEntity
  8
1
100
AcDbLine
 10
2350.651254010002
 20
1560.116393141435
 30
0.0
 11
900.6512540100018
 21
1560.116393141435
 31
0.0
  0
LINE
  5
7C51
330
8121
100
AcDbEntity
  8
1
100
AcDbLine
 10
2350.651254010002
 20
1660.116393141436
 30
0.0
 11
2350.651254010002
 21
1560.116393141435
 31
0.0
  0
LINE
  5
7C52
330
8121
100
AcDbEntity
  8
1
100
AcDbLine
 10
2696.004301064448
 20
1660.116393141436
 30
0.0
 11
3701.304301064448
 21
1660.116393141436
 31
0.0
1001
ACAD
1000
ASC_BOUNDS
1002
{
1070
    19
1002
}
  0
LINE
  5
7C53
330
8121
100
AcDbEntity
  8
1
100
AcDbLine
 10
2696.004301064448
 20
1660.116393141436
 30
0.0
 11
2696.004301064448
 21
1560.116393141435
 31
0.0
  0
LINE
  5
7C54
330
8121
100
AcDbEntity
  8
1
100
AcDbLine
 10
2696.004301064448
 20
1560.116393141435
 30
0.0
 11
3702.004301064448
 21
1560.116393141435
 31
0.0
  0
LINE
  5
7C55
330
8121
100
AcDbEntity
  8
1
100
AcDbLine
 10
3702.004301064448
 20
1660.116393141436
 30
0.0
 11
3702.004301064448
 21
1560.116393141435
 31
0.0
  0
ARC
  5
7C56
330
8121
100
AcDbEntity
  8
1
100
AcDbCircle
 10
1300.651254010002
 20
2140.116393141436
 30
0.0
 40
378.0
100
AcDbArc
 50
175.7519773332714
 51
180.0
  0
LINE
  5
7C57
330
8121
100
AcDbEntity
  8
1
100
AcDbLine
 10
1978.65125401
 20
4398.460569308627
 30
0.0
 11
846.6512540100017
 21
4398.460569308627
 31
0.0
  0
LINE
  5
7C58
330
8121
100
AcDbEntity
  8
1
100
AcDbLine
 10
1978.65125401
 20
3598.460569308628
 30
0.0
 11
846.6512540100017
 21
3598.460569308628
 31
0.0
  0
LINE
  5
7C59
330
8121
100
AcDbEntity
  8
1
100
AcDbLine
 10
900.6512540100018
 20
3598.460569308628
 30
0.0
 11
900.6512540100018
 21
3445.460569308627
 31
0.0
  0
LINE
  5
7C5A
330
8121
100
AcDbEntity
  8
1
100
AcDbLine
 10
2229.651254010002
 20
3346.460569308627
 30
0.0
 11
2071.651254010002
 21
3346.460569308627
 31
0.0
  0
LINE
  5
7C5B
330
8121
100
AcDbEntity
  8
1
100
AcDbLine
 10
2229.651254010002
 20
3428.460569308628
 30
0.0
 11
2071.651254010002
 21
3428.460569308628
 31
0.0
  0
LINE
  5
7C5C
330
8121
100
AcDbEntity
  8
1
100
AcDbLine
 10
1211.751254010001
 20
3428.460569308628
 30
0.0
 11
1211.751254010001
 21
3346.460569308627
 31
0.0
  0
LINE
  5
7C5D
330
8121
100
AcDbEntity
  8
1
100
AcDbLine
 10
1389.551254010002
 20
3428.460569308628
 30
0.0
 11
1389.551254010002
 21
3346.460569308627
 31
0.0
  0
LINE
  5
7C5E
330
8121
100
AcDbEntity
  8
1
100
AcDbLine
 10
2071.651254010002
 20
3428.460569308628
 30
0.0
 11
2071.651254010002
 21
3346.460569308627
 31
0.0
  0
LINE
  5
7C5F
330
8121
100
AcDbEntity
  8
1
100
AcDbLine
 10
2229.651254010002
 20
3428.460569308628
 30
0.0
 11
2229.651254010002
 21
3346.460569308627
 31
0.0
  0
LINE
  5
7C60
330
8121
100
AcDbEntity
  8
1
100
AcDbLine
 10
2300.651254010002
 20
3218.460569308626
 30
0.0
 11
1150.651254010002
 21
3218.460569308627
 31
0.0
  0
LINE
  5
7C61
330
8121
100
AcDbEntity
  8
1
100
AcDbLine
 10
1150.651254010002
 20
3478.460569308627
 30
0.0
 11
1150.651254010002
 21
3218.460569308627
 31
0.0
  0
LINE
  5
7C62
330
8121
100
AcDbEntity
  8
1
100
AcDbLine
 10
2300.651254010002
 20
3478.460569308627
 30
0.0
 11
2300.651254010002
 21
3218.460569308626
 31
0.0
  0
LINE
  5
7C63
330
8121
100
AcDbEntity
  8
1
100
AcDbLine
 10
2300.651254010002
 20
3478.460569308627
 30
0.0
 11
1150.651254010002
 21
3478.460569308627
 31
0.0
  0
LINE
  5
7C64
330
8121
100
AcDbEntity
  8
1
100
AcDbLine
 10
1389.551254010002
 20
3428.460569308628
 30
0.0
 11
1211.751254010001
 21
3428.460569308628
 31
0.0
  0
LINE
  5
7C65
330
8121
100
AcDbEntity
  8
1
100
AcDbLine
 10
1389.551254010002
 20
3346.460569308627
 30
0.0
 11
1211.751254010001
 21
3346.460569308627
 31
0.0
  0
LINE
  5
7C66
330
8121
100
AcDbEntity
  8
2
100
AcDbLine
 10
2150.651254010002
 20
3907.051462475251
 30
0.0
 11
2150.651254010002
 21
3194.90728603693
 31
0.0
  0
LINE
  5
7C67
330
8121
100
AcDbEntity
  8
1
100
AcDbLine
 10
2008.151254010002
 20
3865.460269308627
 30
0.0
 11
2293.151254010001
 21
3865.460269308627
 31
0.0
  0
LINE
  5
7C68
330
8121
100
AcDbEntity
  8
1
100
AcDbLine
 10
2008.151254010002
 20
3475.460569308626
 30
0.0
 11
2293.151254010001
 21
3475.460569308627
 31
0.0
  0
LINE
  5
7C69
330
8121
100
AcDbEntity
  8
1
100
AcDbLine
 10
2169.651254010001
 20
3475.460569308626
 30
0.0
 11
2169.651254010001
 21
3428.460569308628
 31
0.0
  0
LINE
  5
7C6A
330
8121
100
AcDbEntity
  8
1
100
AcDbLine
 10
2131.651254010002
 20
3475.460569308626
 30
0.0
 11
2131.651254010002
 21
3428.460569308628
 31
0.0
  0
LINE
  5
7C6B
330
8121
100
AcDbEntity
  8
1
100
AcDbLine
 10
2293.151254010001
 20
3865.460269308627
 30
0.0
 11
2293.151254010001
 21
3475.460569308627
 31
0.0
  0
LINE
  5
7C6C
330
8121
100
AcDbEntity
  8
1
100
AcDbLine
 10
2008.151254010002
 20
3865.460269308627
 30
0.0
 11
2008.151254010002
 21
3475.460569308626
 31
0.0
  0
LINE
  5
7C6D
330
8121
100
AcDbEntity
  8
1
100
AcDbLine
 10
1275.651254010002
 20
3598.460569308628
 30
0.0
 11
1275.651254010002
 21
3428.460569308628
 31
0.0
  0
LINE
  5
7C6E
330
8121
100
AcDbEntity
  8
1
100
AcDbLine
 10
1325.651254010002
 20
3598.460569308628
 30
0.0
 11
1325.651254010002
 21
3428.460569308628
 31
0.0
  0
LINE
  5
7C6F
330
8121
100
AcDbEntity
  8
1
100
AcDbLine
 10
2679.004301064448
 20
2165.116393141436
 30
0.0
 11
2849.004301064447
 21
2165.116393141436
 31
0.0
  0
CIRCLE
  5
7C70
330
8121
100
AcDbEntity
  8
1
100
AcDbCircle
 10
1300.651254010002
 20
2140.116393141436
 30
0.0
 40
335.0
  0
CIRCLE
  5
7C71
330
8121
100
AcDbEntity
  8
1
100
AcDbCircle
 10
1300.651254010002
 20
2140.116393141436
 30
0.0
 40
375.0
  0
LINE
  5
7C72
330
8121
100
AcDbEntity
  8
1
100
AcDbLine
 10
2350.651254010001
 20
1700.116393141435
 30
0.0
 11
1950.651254010002
 21
1700.116393141435
 31
0.0
  0
POINT
  5
7C73
330
8121
100
AcDbEntity
  8
1
100
AcDbPoint
 10
3759.004301064448
 20
2110.116393141435
 30
0.0
  0
POINT
  5
7C74
330
8121
100
AcDbEntity
  8
1
100
AcDbPoint
 10
2469.004301064448
 20
2290.116393141436
 30
0.0
  0
DIMENSION
  5
7C76
330
8121
100
AcDbEntity
  8
3
100
AcDbDimension
  2
*D9
 10
691.8592830113939
 20
4451.460569308628
 30
0.0
 11
651.8592830113939
 21
3948.460569308628
 31
0.0
 12
945.7299874784583
 22
1287.045600777994
 32
0.0
 71
     5
 42
-1.0
  3
Standard
100
AcDbAlignedDimension
 13
900.6512540100018
 23
3445.460569308627
 33
0.0
 14
900.6512540100009
 24
4451.460569308628
 34
0.0
 50
270.0
100
AcDbRotatedDimension
1001
ACAD
1000
DSTYLE
1002
{
1070
    40
1040
20.0
1002
}
  0
DIMENSION
  5
7C77
330
8121
100
AcDbEntity
  8
3
100
AcDbDimension
  2
*D10
 10
900.6512540100009
 20
4600.065859807033
 30
0.0
 11
1300.651254010002
 21
4640.065859807033
 31
0.0
 12
945.7299874784583
 22
1287.045600777994
 32
0.0
 71
     5
 42
-1.0
  3
Standard
100
AcDbAlignedDimension
 13
1700.651254010002
 23
4451.460569308628
 33
0.0
 14
900.6512540100009
 24
4451.460569308628
 34
0.0
100
AcDbRotatedDimension
1001
ACAD
1000
DSTYLE
1002
{
1070
    40
1040
20.0
1002
}
  0
DIMENSION
  5
7C78
330
8121
100
AcDbEntity
  8
3
100
AcDbDimension
  2
*D11
 10
2501.078837885283
 20
3445.460569308626
 30
0.0
 11
2461.078837885283
 21
3745.460569308626
 31
0.0
 12
945.7299874784583
 22
1287.045600777994
 32
0.0
 71
     5
 42
-1.0
  3
Standard
100
AcDbAlignedDimension
 13
2350.651254010002
 23
4045.460569308627
 33
0.0
 14
2350.651254010002
 24
3445.460569308626
 34
0.0
 50
270.0
100
AcDbRotatedDimension
1001
ACAD
1000
DSTYLE
1002
{
1070
    40
1040
20.0
1002
}
  0
LINE
  5
7C7E
330
8121
100
AcDbEntity
  8
1
100
AcDbLine
 10
2726.004301064448
 20
1734.616393141435
 30
0.0
 11
2726.004301064448
 21
2019.616393141435
 31
0.0
  0
LINE
  5
7C7F
330
8121
100
AcDbEntity
  8
1
100
AcDbLine
 10
3116.004301064447
 20
2019.616393141435
 30
0.0
 11
2726.004301064448
 21
2019.616393141435
 31
0.0
  0
LINE
  5
7C80
330
8121
100
AcDbEntity
  8
1
100
AcDbLine
 10
2726.004301064448
 20
1858.116393141435
 30
0.0
 11
2679.004301064448
 21
1858.116393141435
 31
0.0
  0
LINE
  5
7C81
330
8121
100
AcDbEntity
  8
1
100
AcDbLine
 10
2726.004301064448
 20
1896.116393141435
 30
0.0
 11
2679.004301064448
 21
1896.116393141435
 31
0.0
  0
LINE
  5
7C82
330
8121
100
AcDbEntity
  8
1
100
AcDbLine
 10
3116.004301064446
 20
1734.616393141435
 30
0.0
 11
2726.004301064448
 21
1734.616393141435
 31
0.0
  0
POINT
  5
7C83
330
8121
100
AcDbEntity
  8
1
100
AcDbPoint
 10
900.6512540100018
 20
1590.116393141435
 30
0.0
  0
POINT
  5
7C84
330
8121
100
AcDbEntity
  8
1
100
AcDbPoint
 10
900.6512540100018
 20
1635.116393141435
 30
0.0
  0
LINE
  5
7C85
330
8121
100
AcDbEntity
  8
1
100
AcDbLine
 10
2679.004301064447
 20
1956.116393141435
 30
0.0
 11
2679.004301064445
 21
1798.116393141435
 31
0.0
  0
LINE
  5
7C86
330
8121
100
AcDbEntity
  8
1
100
AcDbLine
 10
2597.004301064448
 20
1956.116393141435
 30
0.0
 11
2597.004301064445
 21
1798.116393141435
 31
0.0
  0
DIMENSION
  5
7C8D
330
8121
100
AcDbEntity
  8
3
100
AcDbDimension
  2
*D15
 10
646.940960066795
 20
2140.116393141436
 30
0.0
 11
606.940960066795
 21
2370.116393141435
 31
0.0
 12
945.7299874784583
 22
1572.018766691315
 32
0.0
 71
     5
 42
-1.0
  3
Standard
100
AcDbAlignedDimension
 13
1286.651254010002
 23
2600.116393141435
 33
0.0
 14
793.7582809070062
 24
2140.116393141436
 34
0.0
 50
270.0
100
AcDbRotatedDimension
1001
ACAD
1000
DSTYLE
1002
{
1070
    40
1040
20.0
1002
}
  0
DIMENSION
  5
7C90
330
8121
100
AcDbEntity
  8
3
100
AcDbDimension
  2
*D17
 10
646.940960066795
 20
1433.116393141435
 30
0.0
 11
596.9409600667948
 21
1261.687821712864
 31
0.0
 71
     5
 42
-1.0
  3
Standard
100
AcDbAlignedDimension
 13
900.6512540100018
 23
1533.116393141435
 33
0.0
 14
900.6512540100018
 24
1433.116393141435
 34
0.0
 50
270.0
100
AcDbRotatedDimension
1001
ACAD
1000
DSTYLE
1002
{
1070
   287
1070
     3
1070
   287
1070
     3
1070
    40
1040
20.0
1070
   143
1040
0.039
1070
   172
1070
     1
1070
   271
1070
     0
1070
   279
1070
     0
1070
   288
1070
     1
1070
     6
1000
DOT
1002
}
  0
DIMENSION
  5
7C93
330
8121
100
AcDbEntity
  8
3
100
AcDbDimension
  2
*D20
 10
2350.651254010002
 20
3006.520535168108
 30
0.0
 11
1598.651254010002
 21
3046.520535168108
 31
0.0
 12
945.7299874784583
 22
1572.018766691315
 32
0.0
 71
     5
 42
-1.0
  3
Standard
100
AcDbAlignedDimension
 13
846.6512540100017
 23
2093.116393141435
 33
0.0
 14
2350.651254010002
 24
1700.116393141435
 34
0.0
100
AcDbRotatedDimension
1001
ACAD
1000
DSTYLE
1002
{
1070
    40
1040
20.0
1002
}
  0
LINE
  5
7C94
330
8121
100
AcDbEntity
  8
1
100
AcDbLine
 10
1978.65125401
 20
4398.460569308627
 30
0.0
 11
1978.65125401
 21
3598.460569308626
 31
0.0
  0
LINE
  5
7C95
330
8121
100
AcDbEntity
  8
1
100
AcDbLine
 10
846.6512540100017
 20
4398.460569308627
 30
0.0
 11
846.6512540100017
 21
3598.460569308628
 31
0.0
  0
LINE
  5
7C96
330
8121
100
AcDbEntity
  8
1
100
AcDbLine
 10
1328.651254010002
 20
4398.460569308627
 30
0.0
 11
1328.651254010002
 21
3598.460569308626
 31
0.0
  0
LINE
  5
7C97
330
8121
100
AcDbEntity
  8
1
100
AcDbLine
 10
1328.651254010002
 20
4398.460569308627
 30
0.0
 11
1978.65125401
 21
3598.460569308628
 31
0.0
  0
LINE
  5
7C98
330
8121
100
AcDbEntity
  8
1
100
AcDbLine
 10
1978.65125401
 20
4398.460569308627
 30
0.0
 11
1328.651254010002
 21
3598.460569308628
 31
0.0
  0
LINE
  5
7C99
330
8121
100
AcDbEntity
  8
1
100
AcDbLine
 10
2809.004301064447
 20
2597.116393141436
 30
0.0
 11
3689.004301064449
 21
2597.116393141436
 31
0.0
  0
LINE
  5
7C9A
330
8121
100
AcDbEntity
  8
1
100
AcDbLine
 10
2809.004301064447
 20
2600.116393141435
 30
0.0
 11
2809.004301064447
 21
2597.116393141436
 31
0.0
  0
LINE
  5
7C9B
330
8121
100
AcDbEntity
  8
1
100
AcDbLine
 10
3689.004301064449
 20
2600.116393141435
 30
0.0
 11
3689.004301064449
 21
2597.116393141436
 31
0.0
  0
LINE
  5
7C9C
330
8121
100
AcDbEntity
  8
1
100
AcDbLine
 10
3116.004301064447
 20
1734.616393141435
 30
0.0
 11
3116.004301064447
 21
2019.616393141435
 31
0.0
  0
LINE
  5
7C9D
330
8121
100
AcDbEntity
  8
1
100
AcDbLine
 10
3052.850495081842
 20
1734.616393141435
 30
0.0
 11
3052.850495081843
 21
1660.116393141436
 31
0.0
  0
LINE
  5
7C9E
330
8121
100
AcDbEntity
  8
1
100
AcDbLine
 10
2777.738056714825
 20
1734.616393141435
 30
0.0
 11
2777.738056714825
 21
1660.116393141436
 31
0.0
  0
LINE
  5
7C9F
330
8121
100
AcDbEntity
  8
1
100
AcDbLine
 10
2777.738056714825
 20
1700.116393141435
 30
0.0
 11
3052.850495081843
 21
1700.116393141435
 31
0.0
  0
LINE
  5
7EC6
330
8121
100
AcDbEntity
  8
4
100
AcDbLine
 10
3700.0
 20
1000.0
 30
0.0
 11
3700.0
 21
600.0
 31
0.0
  0
LINE
  5
7EC7
330
8121
100
AcDbEntity
  8
4
100
AcDbLine
 10
2300.0
 20
1000.0
 30
0.0
 11
2300.0
 21
600.0
 31
0.0
  0
LINE
  5
7EC8
330
8121
100
AcDbEntity
  8
4
100
AcDbLine
 10
1300.0
 20
1000.0
 30
0.0
 11
1300.0
 21
600.0
 31
0.0
  0
LINE
  5
7ECB
330
8121
100
AcDbEntity
  8
4
100
AcDbLine
 10
1300.0
 20
600.0
 30
0.0
 11
3700.0
 21
600.0
 31
0.0
  0
LINE
  5
7ECC
330
8121
100
AcDbEntity
  8
4
100
AcDbLine
 10
1300.0
 20
800.0
 30
0.0
 11
3700.0
 21
800.0
 31
0.0
  0
TEXT
  5
7ECD
330
8121
100
AcDbEntity
  8
4
100
AcDbText
 10
1377.004161693803
 20
863.0860517332255
 30
0.0
 40
100.0
  1
機器名称
100
AcDbText
  0
TEXT
  5
7ECE
330
8121
100
AcDbEntity
  8
4
100
AcDbText
 10
1372.516212049595
 20
643.2903134640219
 30
0.0
 40
100.0
  1
機器型番
100
AcDbText
  0
TEXT
  5
7ECF
330
8121
100
AcDbEntity
  8
4
100
AcDbText
 10
2355.357490975329
 20
845.1435379151371
 30
0.0
 40
100.0
  1
ミツヤ多翼送風機
100
AcDbText
  0
TEXT
  5
7ED0
330
8121
100
AcDbEntity
  8
4
100
AcDbText
 10
2373.308991170961
 20
634.3191685598867
 30
0.0
 40
100.0
  1
MF#4-5
100
AcDbText
  0
TEXT
  5
7ED2
330
8121
100
AcDbEntity
  8
4
100
AcDbText
 10
1608.914932671807
 20
4766.857682665031
 30
0.0
 40
107.9999999999999
  1
床置防振ベット
100
AcDbText
  0
TEXT
  5
7ED3
330
8121
100
AcDbEntity
  8
4
100
AcDbText
 10
632.3351866588928
 20
5067.761952398596
 30
0.0
 40
144.0
  1
遠心式両吸込両持多翼ファン
100
AcDbText
  0
LINE
  5
7ED4
330
8121
100
AcDbEntity
  8
4
100
AcDbLine
 10
500.0
 20
4938.817508529609
 30
0.0
 11
3700.0
 21
4938.817508529609
 31
0.0
  0
LINE
  5
7ED5
330
8121
100
AcDbEntity
  8
4
100
AcDbLine
 10
500.0
 20
5338.81750852961
 30
0.0
 11
3700.0
 21
5338.81750852961
 31
0.0
  0
LINE
  5
7ED6
330
8121
100
AcDbEntity
  8
4
100
AcDbLine
 10
1300.0
 20
1000.0
 30
0.0
 11
3700.0
 21
1000.0
 31
0.0
  0
LINE
  5
7ED7
330
8121
100
AcDbEntity
  8
4
100
AcDbLine
 10
500.0
 20
5338.81750852961
 30
0.0
 11
500.0
 21
4938.817508529609
 31
0.0
  0
TEXT
  5
7ED8
330
8121
100
AcDbEntity
  8
4
100
AcDbText
 10
737.1972681864024
 20
4764.638955092687
 30
0.0
 40
107.9999999999999
  1
左回転上向
100
AcDbText
  0
TEXT
  5
7ED9
330
8121
100
AcDbEntity
  8
4
100
AcDbText
 10
2937.939118498579
 20
5412.122162990619
 30
0.0
 40
112.0
  1
No.
100
AcDbText
  0
TEXT
  5
7EDA
330
8121
100
AcDbEntity
  8
4
100
AcDbText
 10
2622.592125200027
 20
4766.857682665031
 30
0.0
 40
107.9999999999999
  1
縮尺：1/20
100
AcDbText
  0
LINE
  5
7EDB
330
8121
100
AcDbEntity
  8
4
100
AcDbLine
 10
3700.0
 20
5338.81750852961
 30
0.0
 11
3700.0
 21
4938.817508529609
 31
0.0
  0
LINE
  5
7EDC
330
8121
100
AcDbEntity
  8
4
100
AcDbLine
 10
4200.0
 20
5900.0
 30
0.0
 11
4200.0
 21
5900.0
 31
0.0
  0
LINE
  5
7EDD
330
8121
100
AcDbEntity
  8
4
100
AcDbLine
 10
2881.234844719729
 20
5362.527166250802
 30
0.0
 11
2881.234844719729
 21
5573.304523099504
 31
0.0
  0
LINE
  5
7EDE
330
8121
100
AcDbEntity
  8
4
100
AcDbLine
 10
2881.234844719729
 20
5573.304523099504
 30
0.0
 11
3700.0
 21
5573.304523099504
 31
0.0
  0
LINE
  5
7EDF
330
8121
100
AcDbEntity
  8
4
100
AcDbLine
 10
3700.0
 20
5573.304523099504
 30
0.0
 11
3700.0
 21
5362.527166250802
 31
0.0
  0
LINE
  5
7EE0
330
8121
100
AcDbEntity
  8
4
100
AcDbLine
 10
3700.0
 20
5362.527166250802
 30
0.0
 11
2881.234844719729
 21
5362.527166250802
 31
0.0
  0
LINE
  5
7EE1
330
8121
100
AcDbEntity
  8
4
100
AcDbLine
 10
0.0
 20
0.0
 30
0.0
 11
0.0
 21
5900.0
 31
0.0
  0
LINE
  5
7EE2
330
8121
100
AcDbEntity
  8
4
100
AcDbLine
 10
0.0
 20
5900.0
 30
0.0
 11
4200.0
 21
5900.0
 31
0.0
  0
LINE
  5
7EE3
330
8121
100
AcDbEntity
  8
4
100
AcDbLine
 10
4200.0
 20
5900.0
 30
0.0
 11
4200.0
 21
0.0
 31
0.0
  0
LINE
  5
7EE4
330
8121
100
AcDbEntity
  8
4
100
AcDbLine
 10
4200.0
 20
0.0
 30
0.0
 11
0.0
 21
0.0
 31
0.0
  0
DIMENSION
  5
7FC3
330
8121
100
AcDbEntity
  8
3
100
AcDbDimension
  2
*D22
 10
1300.651254010001
 20
1286.716389713538
 30
0.0
 11
1100.651254010002
 21
1336.716389713537
 31
0.0
 71
     5
 42
-1.0
  3
Standard
100
AcDbAlignedDimension
 13
900.6512540100018
 23
1433.116393141435
 33
0.0
 14
1300.651254010001
 24
1433.116393141435
 34
0.0
100
AcDbRotatedDimension
1001
ACAD
1000
DSTYLE
1002
{
1070
   172
1070
     1
1070
    40
1040
20.0
1070
    42
1040
1.0
1070
   271
1070
     0
1070
   143
1040
0.039
1002
}
  0
DIMENSION
  5
7FD0
330
8121
100
AcDbEntity
  8
3
100
AcDbDimension
  2
*D23
 10
2350.651254010002
 20
1286.716389713538
 30
0.0
 11
1825.651254010002
 21
1336.716389713537
 31
0.0
 71
     5
 42
-1.0
  3
Standard
100
AcDbAlignedDimension
 13
1300.651254010001
 23
1433.116393141435
 33
0.0
 14
2350.651254010002
 24
1433.116393141435
 34
0.0
100
AcDbRotatedDimension
1001
ACAD
1000
DSTYLE
1002
{
1070
   172
1070
     1
1070
    40
1040
20.0
1070
    42
1040
1.0
1070
   271
1070
     0
1070
   143
1040
0.039
1002
}
  0
DIMENSION
  5
7FDD
330
8121
100
AcDbEntity
  8
3
100
AcDbDimension
  2
*D24
 10
3249.004301064447
 20
1286.716389713538
 30
0.0
 11
2972.504301064448
 21
1336.716389713537
 31
0.0
 71
     5
 42
-1.0
  3
Standard
100
AcDbAlignedDimension
 13
2696.004301064448
 23
1433.116393141435
 33
0.0
 14
3249.004301064447
 24
1433.116393141435
 34
0.0
100
AcDbRotatedDimension
1001
ACAD
1000
DSTYLE
1002
{
1070
   172
1070
     1
1070
    40
1040
20.0
1070
    42
1040
1.0
1070
   271
1070
     0
1070
   143
1040
0.039
1002
}
  0
DIMENSION
  5
7FEA
330
8121
100
AcDbEntity
  8
3
100
AcDbDimension
  2
*D25
 10
3702.004301064448
 20
1286.716389713538
 30
0.0
 11
3475.504301064449
 21
1336.716389713537
 31
0.0
 71
     5
 42
-1.0
  3
Standard
100
AcDbAlignedDimension
 13
3249.004301064447
 23
1433.116393141435
 33
0.0
 14
3702.004301064448
 24
1433.116393141435
 34
0.0
100
AcDbRotatedDimension
1001
ACAD
1000
DSTYLE
1002
{
1070
   172
1070
     1
1070
    40
1040
20.0
1070
    42
1040
1.0
1070
   271
1070
     0
1070
   143
1040
0.039
1002
}
  0
DIMENSION
  5
8002
330
8121
100
AcDbEntity
  8
3
100
AcDbDimension
  2
*D27
 10
472.1820539454711
 20
2600.116393141435
 30
0.0
 11
406.4677682311852
 21
2016.616393141435
 31
0.0
 71
     5
 42
-1.0
  3
Standard
100
AcDbAlignedDimension
 13
900.6512540100018
 23
1433.116393141435
 33
0.0
 14
1286.651254010002
 24
2600.116393141435
 34
0.0
 50
90.0
100
AcDbRotatedDimension
1001
ACAD
1000
DSTYLE
1002
{
1070
   172
1070
     1
1070
    40
1040
20.0
1070
     3
1000
(<>)
1070
    42
1040
1.0
1070
   271
1070
     0
1070
   143
1040
0.039
1002
}
  0
DIMENSION
  5
816D
330
8121
100
AcDbEntity
  8
3
100
AcDbDimension
  2
*D28
 10
3249.004301064449
 20
2982.364357717981
 30
0.0
 11
2859.004301064448
 21
3048.078643432267
 31
0.0
 70
    32
  1
(<>)
 71
     5
 42
780.0
  3
IGA
100
AcDbAlignedDimension
 13
2469.004301064448
 23
2290.116393141436
 33
0.0
 14
3249.004301064449
 24
2777.306378051618
 34
0.0
100
AcDbRotatedDimension
1001
ACAD
1000
DSTYLE
1002
{
1070
    40
1040
20.0
1070
    42
1040
1.0
1070
   143
1040
0.039
1070
   172
1070
     1
1070
   271
1070
     4
1070
   272
1070
     4
1070
   279
1070
     0
1070
   284
1070
     0
1070
   285
1070
     0
1070
   286
1070
     0
1070
   341
1005
8135
1070
   343
1005
8135
1070
   344
1005
8135
1002
}
  0
DIMENSION
  5
817A
330
8121
100
AcDbEntity
  8
3
100
AcDbDimension
  2
*D29
 10
3759.004301064448
 20
2982.364357717981
 30
0.0
 11
3504.004301064448
 21
3048.078643432267
 31
0.0
 70
    32
  1
(<>)
 71
     5
 42
510.0
  3
IGA
100
AcDbAlignedDimension
 13
3249.004301064449
 23
2777.306378051618
 33
0.0
 14
3759.004301064448
 24
2110.116393141435
 34
0.0
100
AcDbRotatedDimension
1001
ACAD
1000
DSTYLE
1002
{
1070
    40
1040
20.0
1070
    42
1040
1.0
1070
   143
1040
0.039
1070
   172
1070
     1
1070
   271
1070
     4
1070
   272
1070
     4
1070
   279
1070
     1
1070
   284
1070
     0
1070
   285
1070
     0
1070
   286
1070
     0
1070
   341
1005
8135
1070
   343
1005
8135
1070
   344
1005
8135
1002
}
  0
DIMENSION
  5
81D2
330
8121
100
AcDbEntity
  8
3
100
AcDbDimension
  2
*D30
 10
2350.651254010002
 20
3113.828316513397
 30
0.0
 11
1625.651254010002
 21
3163.828316513396
 31
0.0
 70
    32
 71
     5
 42
1450.0
  3
IGA
100
AcDbAlignedDimension
 13
900.6512540100018
 23
3445.460569308627
 33
0.0
 14
2350.651254010002
 24
3445.460569308626
 34
0.0
100
AcDbRotatedDimension
1001
ACAD
1000
DSTYLE
1002
{
1070
    40
1040
20.0
1070
    42
1040
1.0
1070
   143
1040
0.039
1070
   172
1070
     1
1070
   271
1070
     4
1070
   272
1070
     4
1070
   279
1070
     0
1070
   284
1070
     0
1070
   285
1070
     0
1070
   286
1070
     0
1070
   341
1005
8135
1070
   343
1005
8135
1070
   344
1005
8135
1002
}
  0
DIMENSION
  5
81E5
330
8121
100
AcDbEntity
  8
3
100
AcDbDimension
  2
*D32
 10
846.6512540100021
 20
2899.618059262129
 30
0.0
 11
1073.651254010002
 21
2949.618059262128
 31
0.0
 70
    32
 71
     5
 42
454.0
  3
IGA
100
AcDbAlignedDimension
 13
1300.651254010002
 23
2638.672493969716
 33
0.0
 14
846.6512540100021
 24
2093.116393141435
 34
0.0
100
AcDbRotatedDimension
1001
ACAD
1000
DSTYLE
1002
{
1070
    40
1040
20.0
1070
    42
1040
1.0
1070
   143
1040
0.039
1070
   172
1070
     1
1070
   271
1070
     4
1070
   272
1070
     4
1070
   279
1070
     0
1070
   284
1070
     0
1070
   285
1070
     0
1070
   286
1070
     0
1070
   341
1005
8135
1070
   343
1005
8135
1070
   344
1005
8135
1002
}
  0
DIMENSION
  5
81FB
330
8121
100
AcDbEntity
  8
3
100
AcDbDimension
  2
*D33
 10
646.940960066795
 20
1560.116393141435
 30
0.0
 11
596.9409600667948
 21
1850.116393141435
 31
0.0
 70
    32
 71
     5
 42
580.0000000000002
  3
IGA
100
AcDbAlignedDimension
 13
793.7582809070062
 23
2140.116393141436
 33
0.0
 14
900.6512540100018
 24
1560.116393141435
 34
0.0
 50
90.0
100
AcDbRotatedDimension
1001
ACAD
1000
DSTYLE
1002
{
1070
    40
1040
20.0
1070
    42
1040
1.0
1070
   143
1040
0.039
1070
   172
1070
     1
1070
   271
1070
     4
1070
   272
1070
     4
1070
   279
1070
     0
1070
   284
1070
     0
1070
   285
1070
     0
1070
   286
1070
     0
1070
   341
1005
8135
1070
   343
1005
8135
1070
   344
1005
8135
1002
}
  0
DIMENSION
  5
8208
330
8121
100
AcDbEntity
  8
3
100
AcDbDimension
  2
*D34
 10
646.940960066795
 20
1533.116393141435
 30
0.0
 11
646.940960066795
 21
1546.616393141435
 31
0.0
 70
   160
  1
(<>)
 71
     5
 42
27.0
  3
IGA
100
AcDbAlignedDimension
 13
900.6512540100018
 23
1560.116393141435
 33
0.0
 14
900.6512540100018
 24
1533.116393141435
 34
0.0
 50
90.0
100
AcDbRotatedDimension
1001
ACAD
1000
DSTYLE
1002
{
1070
    40
1040
20.0
1070
    42
1040
1.0
1070
   143
1040
0.039
1070
   172
1070
     1
1070
   271
1070
     4
1070
   272
1070
     4
1070
   279
1070
     1
1070
   284
1070
     0
1070
   285
1070
     0
1070
   286
1070
     0
1070
   341
1005
8135
1070
   343
1005
8135
1070
   344
1005
82CE
1002
}
  0
DIMENSION
  5
8266
330
8121
100
AcDbEntity
  8
3
100
AcDbDimension
  2
*D35
 10
2350.651254010002
 20
4600.065859807033
 30
0.0
 11
2025.651254010002
 21
4650.065859807033
 31
0.0
 70
    32
 71
     5
 42
650.0
  3
IGA
100
AcDbAlignedDimension
 13
1700.651254010002
 23
4451.460569308628
 33
0.0
 14
2350.651254010002
 24
4045.460569308626
 34
0.0
100
AcDbRotatedDimension
1001
ACAD
1000
DSTYLE
1002
{
1070
    40
1040
20.0
1070
    42
1040
1.0
1070
   143
1040
0.039
1070
   172
1070
     1
1070
   271
1070
     4
1070
   272
1070
     4
1070
   279
1070
     0
1070
   284
1070
     0
1070
   285
1070
     0
1070
   286
1070
     0
1070
   341
1005
8135
1070
   343
1005
8135
1070
   344
1005
8135
1002
}
  0
ENDSEC
  0
SECTION
  2
OBJECTS
  0
DICTIONARY
  5
80BE
330
0
100
AcDbDictionary
281
     1
  3
ACAD_CIP_PREVIOUS_PRODUCT_INFO
350
8169
  3
ACAD_COLOR
350
8114
  3
ACAD_DETAILVIEWSTYLE
350
811B
  3
ACAD_GROUP
350
80BF
  3
ACAD_LAYOUT
350
8113
  3
ACAD_MATERIAL
350
80C2
  3
ACAD_MLEADERSTYLE
350
8117
  3
ACAD_MLINESTYLE
350
8110
  3
ACAD_PLOTSETTINGS
350
8112
  3
ACAD_PLOTSTYLENAME
350
80C0
  3
ACAD_SCALELIST
350
80F4
  3
ACAD_SECTIONVIEWSTYLE
350
8119
  3
ACAD_TABLESTYLE
350
8115
  3
ACAD_VISUALSTYLE
350
80DB
  3
ACDB_RECOMPOSE_DATA
350
82F4
  3
AcDbVariableDictionary
350
82E7
  3
DWGPROPS
350
82F5
  0
DICTIONARY
  5
82DD
330
8106
100
AcDbDictionary
280
     1
281
     1
  3
ADSK_XREC_LAYER_RECONCILED
360
82DE
  0
DICTIONARY
  5
82DF
330
8125
100
AcDbDictionary
280
     1
281
     1
  3
ADSK_XREC_LAYER_RECONCILED
360
82E0
  0
DICTIONARY
  5
82E1
330
8128
100
AcDbDictionary
280
     1
281
     1
  3
ADSK_XREC_LAYER_RECONCILED
360
82E2
  0
DICTIONARY
  5
82E3
330
8129
100
AcDbDictionary
280
     1
281
     1
  3
ADSK_XREC_LAYER_RECONCILED
360
82E4
  0
DICTIONARY
  5
82E5
330
812A
100
AcDbDictionary
280
     1
281
     1
  3
ADSK_XREC_LAYER_RECONCILED
360
82E6
  0
XRECORD
  5
8169
102
{ACAD_REACTORS
330
80BE
102
}
330
80BE
100
AcDbXrecord
280
     1
300
ACDLT
300
2015
300
INVLTS_F_S
  0
DICTIONARY
  5
8114
102
{ACAD_REACTORS
330
80BE
102
}
330
80BE
100
AcDbDictionary
281
     1
  0
DICTIONARY
  5
811B
102
{ACAD_REACTORS
330
80BE
102
}
330
80BE
100
AcDbDictionary
281
     1
  3
Imperial24
350
811C
  0
DICTIONARY
  5
80BF
102
{ACAD_REACTORS
330
80BE
102
}
330
80BE
100
AcDbDictionary
281
     1
  0
DICTIONARY
  5
8113
102
{ACAD_REACTORS
330
80BE
102
}
330
80BE
100
AcDbDictionary
281
     1
  3
Model
350
8124
  3
レイアウト1
350
8120
  0
DICTIONARY
  5
80C2
102
{ACAD_REACTORS
330
80BE
102
}
330
80BE
100
AcDbDictionary
281
     1
  3
ByBlock
350
80CB
  3
ByLayer
350
80C3
  3
Global
350
80D3
  0
DICTIONARY
  5
8117
102
{ACAD_REACTORS
330
80BE
102
}
330
80BE
100
AcDbDictionary
281
     1
  3
Standard
350
8118
  0
DICTIONARY
  5
8110
102
{ACAD_REACTORS
330
80BE
102
}
330
80BE
100
AcDbDictionary
281
     1
  3
Standard
350
8111
  0
DICTIONARY
  5
8112
102
{ACAD_REACTORS
330
80BE
102
}
330
80BE
100
AcDbDictionary
281
     1
  0
ACDBDICTIONARYWDFLT
  5
80C0
102
{ACAD_REACTORS
330
80BE
102
}
330
80BE
100
AcDbDictionary
281
     1
  3
Normal
350
80C1
100
AcDbDictionaryWithDefault
340
80C1
  0
DICTIONARY
  5
80F4
102
{ACAD_REACTORS
330
80BE
102
}
330
80BE
100
AcDbDictionary
281
     1
  3
A0
350
80F5
  3
A1
350
80F6
  3
A2
350
80F7
  3
A3
350
80F8
  3
A4
350
80F9
  3
A5
350
80FA
  3
A6
350
80FB
  3
A7
350
80FC
  3
A8
350
80FD
  3
A9
350
80FE
  3
B0
350
80FF
  3
B1
350
8100
  3
B2
350
8101
  3
B3
350
8102
  3
B4
350
8103
  3
B5
350
8104
  3
B6
350
8105
  0
DICTIONARY
  5
8119
102
{ACAD_REACTORS
330
80BE
102
}
330
80BE
100
AcDbDictionary
281
     1
  3
Imperial24
350
811A
  0
DICTIONARY
  5
8115
102
{ACAD_REACTORS
330
80BE
102
}
330
80BE
100
AcDbDictionary
281
     1
  3
Standard
350
8116
  0
DICTIONARY
  5
80DB
102
{ACAD_REACTORS
330
80BE
102
}
330
80BE
100
AcDbDictionary
281
     1
  3
2dWireframe
350
80E1
  3
Basic
350
80E0
  3
Brighten
350
80E7
  3
ColorChange
350
80EB
  3
Conceptual
350
80E4
  3
Dim
350
80E6
  3
EdgeColorOff
350
80F3
  3
Facepattern
350
80EA
  3
Flat
350
80DC
  3
FlatWithEdges
350
80DD
  3
Gouraud
350
80DE
  3
GouraudWithEdges
350
80DF
  3
Hidden
350
80E3
  3
JitterOff
350
80F1
  3
Linepattern
350
80E9
  3
OverhangOff
350
80F2
  3
Realistic
350
80E5
  3
Shaded
350
80F0
  3
Shaded with edges
350
80EF
  3
Shades of Gray
350
80EC
  3
Sketchy
350
80ED
  3
Thicken
350
80E8
  3
Wireframe
350
80E2
  3
X-Ray
350
80EE
  0
XRECORD
  5
82F4
102
{ACAD_REACTORS
330
80BE
102
}
330
80BE
100
AcDbXrecord
280
     1
 90
        1
330
8116
  0
DICTIONARY
  5
82E7
102
{ACAD_REACTORS
330
80BE
102
}
330
80BE
100
AcDbDictionary
281
     1
  3
CANNOSCALE
350
82EC
  3
CMLEADERSTYLE
350
82E9
  3
CTABLESTYLE
350
82E8
  3
CVIEWDETAILSTYLE
350
82EA
  3
CVIEWSECTIONSTYLE
350
82EB
  3
DIMASSOC
350
82EF
  3
INDEXCTL
350
82EE
  3
SORTENTS
350
82ED
  3
XCLIPFRAME
350
82F0
  0
XRECORD
  5
82F5
102
{ACAD_REACTORS
330
80BE
102
}
330
80BE
100
AcDbXrecord
280
     1
  1
DWGPROPS COOKIE
  2

  3

  4

  6

  7

  8
yasukiyo.ogawa
  9

300
=
301
=
302
=
303
=
304
=
305
=
306
=
307
=
308
=
309
=
 40
0.0130327662037037
 41
2451387.570972685
 42
2460262.635176134
  1

 90
        0
  0
XRECORD
  5
82DE
102
{ACAD_REACTORS
330
82DD
102
}
330
82DD
100
AcDbXrecord
280
     1
290
     1
  0
XRECORD
  5
82E0
102
{ACAD_REACTORS
330
82DF
102
}
330
82DF
100
AcDbXrecord
280
     1
290
     1
  0
XRECORD
  5
82E2
102
{ACAD_REACTORS
330
82E1
102
}
330
82E1
100
AcDbXrecord
280
     1
290
     1
  0
XRECORD
  5
82E4
102
{ACAD_REACTORS
330
82E3
102
}
330
82E3
100
AcDbXrecord
280
     1
290
     1
  0
XRECORD
  5
82E6
102
{ACAD_REACTORS
330
82E5
102
}
330
82E5
100
AcDbXrecord
280
     1
290
     1
  0
ACDBDETAILVIEWSTYLE
  5
811C
102
{ACAD_XDICTIONARY
360
832D
102
}
102
{ACAD_REACTORS
330
811B
102
}
330
811B
100
AcDbModelDocViewStyle
 70
     0
  3
Imperial24
290
     0
100
AcDbDetailViewStyle
 70
     0
 71
     0
 90
        3
 71
     1
340
8107
 40
0.24
340
0
 40
0.24
300

 40
0.36
280
     3
 71
     2
340
810E
 90
       25
 71
     3
340
8107
 40
0.24
 90
        1
 40
0.75
 90
        1
300
%<\AcVar ViewType \f "%tc1">% %<\AcVar ViewDetailId>%\PSCALE %<\AcVar ViewScale \f "%sn">%
 71
     4
340
810E
 90
       25
340
810E
 90
       25
280
     0
  0
LAYOUT
  5
8124
102
{ACAD_XDICTIONARY
360
8331
102
}
102
{ACAD_REACTORS
330
8113
102
}
330
8113
100
AcDbPlotSettings
  1

  2
RICOH imagio MP W3600 RPCS
  4

  6

 40
0.0
 41
0.0
 42
0.0
 43
0.0
 44
0.0
 45
0.0
 46
0.0
 47
0.0
 48
0.0
 49
0.0
140
0.0
141
0.0
142
1.0
143
1.0
 70
  1712
 72
     0
 73
     0
 74
     0
  7

 75
     0
147
1.0
148
0.0
149
0.0
100
AcDbLayout
  1
Model
 70
     1
 71
     0
 10
0.0
 20
0.0
 11
12.0
 21
9.0
 12
0.0
 22
0.0
 32
0.0
 14
0.0
 24
0.0
 34
0.0
 15
0.0
 25
0.0
 35
0.0
146
0.0
 13
0.0
 23
0.0
 33
0.0
 16
1.0
 26
0.0
 36
0.0
 17
0.0
 27
1.0
 37
0.0
 76
     0
330
8121
331
8126
  0
LAYOUT
  5
8120
102
{ACAD_XDICTIONARY
360
832F
102
}
102
{ACAD_REACTORS
330
8113
102
}
330
8113
100
AcDbPlotSettings
  1

  2
RICOH imagio MP W3600 RPCS
  4

  6

 40
0.0
 41
0.0
 42
0.0
 43
0.0
 44
0.0
 45
0.0
 46
0.0
 47
0.0
 48
0.0
 49
0.0
140
0.0
141
0.0
142
1.0
143
1.0
 70
   688
 72
     0
 73
     0
 74
     5
  7

 75
    16
147
1.0
148
0.0
149
0.0
100
AcDbLayout
  1
レイアウト1
 70
     1
 71
     1
 10
0.0
 20
0.0
 11
12.0
 21
9.0
 12
0.0
 22
0.0
 32
0.0
 14
1.000000000000000E+20
 24
1.000000000000000E+20
 34
1.000000000000000E+20
 15
-1.000000000000000E+20
 25
-1.000000000000000E+20
 35
-1.000000000000000E+20
146
0.0
 13
0.0
 23
0.0
 33
0.0
 16
1.0
 26
0.0
 36
0.0
 17
0.0
 27
1.0
 37
0.0
 76
     0
330
811D
  0
MATERIAL
  5
80CB
102
{ACAD_XDICTIONARY
360
80CC
102
}
102
{ACAD_REACTORS
330
80C2
102
}
330
80C2
100
AcDbMaterial
  1
ByBlock
 72
     0
 43
0.0208333333333333
 43
0.0
 43
0.0
 43
0.0
 43
0.0
 43
0.0208333333333333
 43
0.0
 43
0.0
 43
0.0
 43
0.0
 43
1.0
 43
0.0
 43
0.0
 43
0.0
 43
0.0
 43
1.0
 77
     0
 47
0.0208333333333333
 47
0.0
 47
0.0
 47
0.0
 47
0.0
 47
0.0208333333333333
 47
0.0
 47
0.0
 47
0.0
 47
0.0
 47
1.0
 47
0.0
 47
0.0
 47
0.0
 47
0.0
 47
1.0
171
     0
 49
0.0208333333333333
 49
0.0
 49
0.0
 49
0.0
 49
0.0
 49
0.0208333333333333
 49
0.0
 49
0.0
 49
0.0
 49
0.0
 49
1.0
 49
0.0
 49
0.0
 49
0.0
 49
0.0
 49
1.0
175
     0
142
0.0208333333333333
142
0.0
142
0.0
142
0.0
142
0.0
142
0.0208333333333333
142
0.0
142
0.0
142
0.0
142
0.0
142
1.0
142
0.0
142
0.0
142
0.0
142
0.0
142
1.0
179
     0
144
0.0208333333333333
144
0.0
144
0.0
144
0.0
144
0.0
144
0.0208333333333333
144
0.0
144
0.0
144
0.0
144
0.0
144
1.0
144
0.0
144
0.0
144
0.0
144
0.0
144
1.0
147
0.0208333333333333
147
0.0
147
0.0
147
0.0
147
0.0
147
0.0208333333333333
147
0.0
147
0.0
147
0.0
147
0.0
147
1.0
147
0.0
147
0.0
147
0.0
147
0.0
147
1.0
  0
MATERIAL
  5
80C3
102
{ACAD_XDICTIONARY
360
80C4
102
}
102
{ACAD_REACTORS
330
80C2
102
}
330
80C2
100
AcDbMaterial
  1
ByLayer
 72
     0
 43
0.0208333333333333
 43
0.0
 43
0.0
 43
0.0
 43
0.0
 43
0.0208333333333333
 43
0.0
 43
0.0
 43
0.0
 43
0.0
 43
1.0
 43
0.0
 43
0.0
 43
0.0
 43
0.0
 43
1.0
 77
     0
 47
0.0208333333333333
 47
0.0
 47
0.0
 47
0.0
 47
0.0
 47
0.0208333333333333
 47
0.0
 47
0.0
 47
0.0
 47
0.0
 47
1.0
 47
0.0
 47
0.0
 47
0.0
 47
0.0
 47
1.0
171
     0
 49
0.0208333333333333
 49
0.0
 49
0.0
 49
0.0
 49
0.0
 49
0.0208333333333333
 49
0.0
 49
0.0
 49
0.0
 49
0.0
 49
1.0
 49
0.0
 49
0.0
 49
0.0
 49
0.0
 49
1.0
175
     0
142
0.0208333333333333
142
0.0
142
0.0
142
0.0
142
0.0
142
0.0208333333333333
142
0.0
142
0.0
142
0.0
142
0.0
142
1.0
142
0.0
142
0.0
142
0.0
142
0.0
142
1.0
179
     0
144
0.0208333333333333
144
0.0
144
0.0
144
0.0
144
0.0
144
0.0208333333333333
144
0.0
144
0.0
144
0.0
144
0.0
144
1.0
144
0.0
144
0.0
144
0.0
144
0.0
144
1.0
147
0.0208333333333333
147
0.0
147
0.0
147
0.0
147
0.0
147
0.0208333333333333
147
0.0
147
0.0
147
0.0
147
0.0
147
1.0
147
0.0
147
0.0
147
0.0
147
0.0
147
1.0
  0
MATERIAL
  5
80D3
102
{ACAD_XDICTIONARY
360
80D4
102
}
102
{ACAD_REACTORS
330
80C2
102
}
330
80C2
100
AcDbMaterial
  1
Global
 72
     0
 43
0.0208333333333333
 43
0.0
 43
0.0
 43
0.0
 43
0.0
 43
0.0208333333333333
 43
0.0
 43
0.0
 43
0.0
 43
0.0
 43
1.0
 43
0.0
 43
0.0
 43
0.0
 43
0.0
 43
1.0
 77
     0
 47
0.0208333333333333
 47
0.0
 47
0.0
 47
0.0
 47
0.0
 47
0.0208333333333333
 47
0.0
 47
0.0
 47
0.0
 47
0.0
 47
1.0
 47
0.0
 47
0.0
 47
0.0
 47
0.0
 47
1.0
171
     0
 49
0.0208333333333333
 49
0.0
 49
0.0
 49
0.0
 49
0.0
 49
0.0208333333333333
 49
0.0
 49
0.0
 49
0.0
 49
0.0
 49
1.0
 49
0.0
 49
0.0
 49
0.0
 49
0.0
 49
1.0
175
     0
142
0.0208333333333333
142
0.0
142
0.0
142
0.0
142
0.0
142
0.0208333333333333
142
0.0
142
0.0
142
0.0
142
0.0
142
1.0
142
0.0
142
0.0
142
0.0
142
0.0
142
1.0
179
     0
144
0.0208333333333333
144
0.0
144
0.0
144
0.0
144
0.0
144
0.0208333333333333
144
0.0
144
0.0
144
0.0
144
0.0
144
1.0
144
0.0
144
0.0
144
0.0
144
0.0
144
1.0
147
0.0208333333333333
147
0.0
147
0.0
147
0.0
147
0.0
147
0.0208333333333333
147
0.0
147
0.0
147
0.0
147
0.0
147
1.0
147
0.0
147
0.0
147
0.0
147
0.0
147
1.0
  0
MLEADERSTYLE
  5
8118
102
{ACAD_REACTORS
330
8117
102
}
330
8117
100
AcDbMLeaderStyle
170
     2
171
     1
172
     0
 90
        2
 40
0.0
 41
0.0
173
     1
 91
-1056964608
340
810C
 92
       -2
290
     1
 42
0.09
291
     1
 43
0.36
  3
Standard
 44
0.18
300

342
8107
174
     1
178
     6
175
     1
176
     0
 93
-1056964608
 45
0.18
292
     0
297
     0
 46
0.18
 94
-1056964608
 47
1.0
 49
1.0
140
1.0
293
     1
141
0.0
294
     1
177
     0
142
1.0
295
     0
296
     0
143
0.125
1001
ACAD_MLEADERVER
1070
     2
  0
MLINESTYLE
  5
8111
102
{ACAD_REACTORS
330
8110
102
}
330
8110
100
AcDbMlineStyle
  2
STANDARD
 70
     0
  3

 62
   256
 51
90.0
 52
90.0
 71
     2
 49
0.5
 62
   256
  6
BYLAYER
 49
-0.5
 62
   256
  6
BYLAYER
  0
ACDBPLACEHOLDER
  5
80C1
102
{ACAD_REACTORS
330
80C0
102
}
330
80C0
  0
SCALE
  5
80F5
102
{ACAD_REACTORS
330
80F4
102
}
330
80F4
100
AcDbScale
 70
     0
300
1:1
140
1.0
141
1.0
290
     1
  0
SCALE
  5
80F6
102
{ACAD_REACTORS
330
80F4
102
}
330
80F4
100
AcDbScale
 70
     0
300
1/128" = 1'-0"
140
0.0078125
141
12.0
290
     0
  0
SCALE
  5
80F7
102
{ACAD_REACTORS
330
80F4
102
}
330
80F4
100
AcDbScale
 70
     0
300
1/64" = 1'-0"
140
0.015625
141
12.0
290
     0
  0
SCALE
  5
80F8
102
{ACAD_REACTORS
330
80F4
102
}
330
80F4
100
AcDbScale
 70
     0
300
1/32" = 1'-0"
140
0.03125
141
12.0
290
     0
  0
SCALE
  5
80F9
102
{ACAD_REACTORS
330
80F4
102
}
330
80F4
100
AcDbScale
 70
     0
300
1/16" = 1'-0"
140
0.0625
141
12.0
290
     0
  0
SCALE
  5
80FA
102
{ACAD_REACTORS
330
80F4
102
}
330
80F4
100
AcDbScale
 70
     0
300
3/32" = 1'-0"
140
0.09375
141
12.0
290
     0
  0
SCALE
  5
80FB
102
{ACAD_REACTORS
330
80F4
102
}
330
80F4
100
AcDbScale
 70
     0
300
1/8" = 1'-0"
140
0.125
141
12.0
290
     0
  0
SCALE
  5
80FC
102
{ACAD_REACTORS
330
80F4
102
}
330
80F4
100
AcDbScale
 70
     0
300
3/16" = 1'-0"
140
0.1875
141
12.0
290
     0
  0
SCALE
  5
80FD
102
{ACAD_REACTORS
330
80F4
102
}
330
80F4
100
AcDbScale
 70
     0
300
1/4" = 1'-0"
140
0.25
141
12.0
290
     0
  0
SCALE
  5
80FE
102
{ACAD_REACTORS
330
80F4
102
}
330
80F4
100
AcDbScale
 70
     0
300
3/8" = 1'-0"
140
0.375
141
12.0
290
     0
  0
SCALE
  5
80FF
102
{ACAD_REACTORS
330
80F4
102
}
330
80F4
100
AcDbScale
 70
     0
300
1/2" = 1'-0"
140
0.5
141
12.0
290
     0
  0
SCALE
  5
8100
102
{ACAD_REACTORS
330
80F4
102
}
330
80F4
100
AcDbScale
 70
     0
300
3/4" = 1'-0"
140
0.75
141
12.0
290
     0
  0
SCALE
  5
8101
102
{ACAD_REACTORS
330
80F4
102
}
330
80F4
100
AcDbScale
 70
     0
300
1" = 1'-0"
140
1.0
141
12.0
290
     0
  0
SCALE
  5
8102
102
{ACAD_REACTORS
330
80F4
102
}
330
80F4
100
AcDbScale
 70
     0
300
1-1/2" = 1'-0"
140
1.5
141
12.0
290
     0
  0
SCALE
  5
8103
102
{ACAD_REACTORS
330
80F4
102
}
330
80F4
100
AcDbScale
 70
     0
300
3" = 1'-0"
140
3.0
141
12.0
290
     0
  0
SCALE
  5
8104
102
{ACAD_REACTORS
330
80F4
102
}
330
80F4
100
AcDbScale
 70
     0
300
6" = 1'-0"
140
6.0
141
12.0
290
     0
  0
SCALE
  5
8105
102
{ACAD_REACTORS
330
80F4
102
}
330
80F4
100
AcDbScale
 70
     0
300
1'-0" = 1'-0"
140
12.0
141
12.0
290
     0
  0
ACDBSECTIONVIEWSTYLE
  5
811A
102
{ACAD_XDICTIONARY
360
832B
102
}
102
{ACAD_REACTORS
330
8119
102
}
330
8119
100
AcDbModelDocViewStyle
 70
     0
  3
Imperial24
290
     0
100
AcDbSectionViewStyle
 70
     0
 71
     0
 90
       78
 71
     1
340
8107
 40
0.24
340
0
340
0
 40
0.24
300
I, O, Q, S, X, Z
 40
0.48
 90
        3
 40
0.18
 90
        1
 71
     2
340
810E
 90
       25
340
810E
 90
       50
 40
0.24
 40
0.0
 40
0.24
 71
     3
340
8107
 40
0.24
 90
        1
 40
0.75
 90
        1
300
%<\AcVar ViewType \f "%tc1">% %<\AcVar ViewSectionStartId>%-%<\AcVar ViewSectionEndId>%\PSCALE %<\AcVar ViewScale \f "%sn">%
 71
     4
300
ANSI31
 40
1.0
 90
        0
290
     0
290
     0
 90
        6
 40
0.0
 40
1.570796326794896
 40
0.2617993877991494
 40
1.308996938995747
 40
-0.2617993877991494
 40
1.832595714594046
  0
TABLESTYLE
  5
8116
102
{ACAD_XDICTIONARY
360
82F2
102
}
102
{ACAD_REACTORS
330
8115
102
}
330
8115
100
AcDbTableStyle
  3
Standard
 70
     0
 71
     0
 40
0.06
 41
0.06
280
     0
281
     0
  7
STANDARD
140
0.18
170
     2
 62
     0
 63
     7
283
     0
274
    -2
284
     1
 64
     0
275
    -2
285
     1
 65
     0
276
    -2
286
     1
 66
     0
277
    -2
287
     1
 67
     0
278
    -2
288
     1
 68
     0
279
    -2
289
     1
 69
     0
  7
STANDARD
140
0.25
170
     5
 62
     0
 63
     7
283
     0
274
    -2
284
     1
 64
     0
275
    -2
285
     1
 65
     0
276
    -2
286
     1
 66
     0
277
    -2
287
     1
 67
     0
278
    -2
288
     1
 68
     0
279
    -2
289
     1
 69
     0
  7
STANDARD
140
0.18
170
     5
 62
     0
 63
     7
283
     0
274
    -2
284
     1
 64
     0
275
    -2
285
     1
 65
     0
276
    -2
286
     1
 66
     0
277
    -2
287
     1
 67
     0
278
    -2
288
     1
 68
     0
279
    -2
289
     1
 69
     0
  0
VISUALSTYLE
  5
80E1
102
{ACAD_XDICTIONARY
360
8303
102
}
102
{ACAD_REACTORS
330
80DB
102
}
330
80DB
100
AcDbVisualStyle
  2
2dWireframe
 70
     4
 71
     0
 72
     2
 73
     0
 90
        0
 40
-0.6
 41
-30.0
 62
     5
 63
     7
 74
     1
 91
        4
 64
     7
 65
   257
 75
     1
175
     1
 42
1.0
 92
        0
 66
   257
 43
1.0
 76
     1
 77
     6
 78
     2
 67
     7
 79
     5
170
     0
171
     0
290
     0
174
     0
 93
        1
 44
0.0
173
     0
291
     0
 45
0.0
1001
ACAD
1000
AcDbSavedByObjectVersion
1070
     0
  0
VISUALSTYLE
  5
80E0
102
{ACAD_XDICTIONARY
360
8301
102
}
102
{ACAD_REACTORS
330
80DB
102
}
330
80DB
100
AcDbVisualStyle
  2
Basic
 70
     7
 71
     1
 72
     0
 73
     1
 90
        0
 40
-0.6
 41
-30.0
 62
     5
 63
     7
 74
     0
 91
        4
 64
     7
 65
   257
 75
     1
175
     1
 42
1.0
 92
        8
 66
     7
 43
1.0
 76
     1
 77
     6
 78
     2
 67
     7
 79
     5
170
     0
171
     0
290
     0
174
     0
 93
        1
 44
0.0
173
     0
291
     1
 45
0.0
1001
ACAD
1000
AcDbSavedByObjectVersion
1070
     0
  0
VISUALSTYLE
  5
80E7
102
{ACAD_XDICTIONARY
360
830F
102
}
102
{ACAD_REACTORS
330
80DB
102
}
330
80DB
100
AcDbVisualStyle
  2
Brighten
 70
    12
 71
     2
 72
     2
 73
     0
 90
        0
 40
-0.6
 41
-30.0
 62
     5
 63
     7
 74
     1
 91
        4
 64
     7
 65
   257
 75
     1
175
     1
 42
1.0
 92
        8
 66
     7
 43
1.0
 76
     1
 77
     6
 78
     2
 67
     7
 79
     5
170
     0
171
     0
290
     0
174
     0
 93
        1
 44
50.0
173
     0
291
     1
 45
0.0
1001
ACAD
1000
AcDbSavedByObjectVersion
1070
     0
  0
VISUALSTYLE
  5
80EB
102
{ACAD_XDICTIONARY
360
8317
102
}
102
{ACAD_REACTORS
330
80DB
102
}
330
80DB
100
AcDbVisualStyle
  2
ColorChange
 70
    16
 71
     2
 72
     2
 73
     3
 90
        0
 40
-0.6
 41
-30.0
 62
     5
 63
     8
 74
     1
 91
        4
 64
     7
 65
   257
 75
     1
175
     1
 42
1.0
 92
        8
 66
     8
 43
1.0
 76
     1
 77
     6
 78
     2
 67
     7
 79
     5
170
     0
171
     0
290
     0
174
     0
 93
        1
 44
0.0
173
     0
291
     1
 45
0.0
1001
ACAD
1000
AcDbSavedByObjectVersion
1070
     0
  0
VISUALSTYLE
  5
80E4
102
{ACAD_XDICTIONARY
360
8309
102
}
102
{ACAD_REACTORS
330
80DB
102
}
330
80DB
100
AcDbVisualStyle
  2
Conceptual
 70
     9
 71
     3
 72
     2
 73
     0
 90
        0
 40
-0.6
 41
-30.0
 62
     5
 63
     7
 74
     2
 91
        2
 64
     7
 65
   257
 75
     1
175
     1
 42
179.0
 92
        8
 66
     7
 43
1.0
 76
     1
 77
     6
 78
     2
 67
     7
 79
     3
170
     0
171
     0
290
     0
174
     0
 93
        1
 44
0.0
173
     0
291
     0
 45
0.0
1001
ACAD
1000
AcDbSavedByObjectVersion
1070
     0
  0
VISUALSTYLE
  5
80E6
102
{ACAD_XDICTIONARY
360
830D
102
}
102
{ACAD_REACTORS
330
80DB
102
}
330
80DB
100
AcDbVisualStyle
  2
Dim
 70
    11
 71
     2
 72
     2
 73
     0
 90
        0
 40
-0.6
 41
-30.0
 62
     5
 63
     7
 74
     1
 91
        4
 64
     7
 65
   257
 75
     1
175
     1
 42
1.0
 92
        8
 66
     7
 43
1.0
 76
     1
 77
     6
 78
     2
 67
     7
 79
     5
170
     0
171
     0
290
     0
174
     0
 93
        1
 44
-50.0
173
     0
291
     1
 45
0.0
1001
ACAD
1000
AcDbSavedByObjectVersion
1070
     0
  0
VISUALSTYLE
  5
80F3
102
{ACAD_XDICTIONARY
360
8327
102
}
102
{ACAD_REACTORS
330
80DB
102
}
330
80DB
100
AcDbVisualStyle
  2
EdgeColorOff
 70
    22
 71
     2
 72
     2
 73
     0
 90
        0
 40
-0.6
 41
-30.0
 62
     5
 63
     7
 74
     1
 91
        4
 64
     7
 65
   257
 75
     1
175
     1
 42
1.0
 92
        8
 66
     7
 43
1.0
 76
     1
 77
     6
 78
     2
 67
     7
 79
     5
170
     0
171
     0
290
     0
174
     0
 93
        1
 44
0.0
173
     0
291
     1
 45
0.0
1001
ACAD
1000
AcDbSavedByObjectVersion
1070
     0
  0
VISUALSTYLE
  5
80EA
102
{ACAD_XDICTIONARY
360
8315
102
}
102
{ACAD_REACTORS
330
80DB
102
}
330
80DB
100
AcDbVisualStyle
  2
Facepattern
 70
    15
 71
     2
 72
     2
 73
     0
 90
        0
 40
-0.6
 41
-30.0
 62
     5
 63
     7
 74
     1
 91
        4
 64
     7
 65
   257
 75
     1
175
     1
 42
1.0
 92
        8
 66
     7
 43
1.0
 76
     1
 77
     6
 78
     2
 67
     7
 79
     5
170
     0
171
     0
290
     0
174
     0
 93
        1
 44
0.0
173
     0
291
     1
 45
0.0
1001
ACAD
1000
AcDbSavedByObjectVersion
1070
     0
  0
VISUALSTYLE
  5
80DC
102
{ACAD_XDICTIONARY
360
82F9
102
}
102
{ACAD_REACTORS
330
80DB
102
}
330
80DB
100
AcDbVisualStyle
  2
Flat
 70
     0
 71
     2
 72
     1
 73
     1
 90
        2
 40
-0.6
 41
30.0
 62
     5
 63
     7
 74
     0
 91
        0
 64
     7
 65
   257
 75
     1
175
     1
 42
1.0
 92
        8
 66
     7
 43
1.0
 76
     1
 77
     6
 78
     2
 67
     7
 79
     5
170
     0
171
     0
290
     0
174
     0
 93
       13
 44
0.0
173
     0
291
     1
 45
0.0
1001
ACAD
1000
AcDbSavedByObjectVersion
1070
     0
  0
VISUALSTYLE
  5
80DD
102
{ACAD_XDICTIONARY
360
82FB
102
}
102
{ACAD_REACTORS
330
80DB
102
}
330
80DB
100
AcDbVisualStyle
  2
FlatWithEdges
 70
     1
 71
     2
 72
     1
 73
     1
 90
        2
 40
-0.6
 41
30.0
 62
     5
 63
     7
 74
     1
 91
        0
 64
     7
 65
   257
 75
     1
175
     1
 42
1.0
 92
        0
 66
   257
 43
1.0
 76
     1
 77
     6
 78
     2
 67
     7
 79
     5
170
     0
171
     0
290
     0
174
     0
 93
       13
 44
0.0
173
     0
291
     1
 45
0.0
1001
ACAD
1000
AcDbSavedByObjectVersion
1070
     0
  0
VISUALSTYLE
  5
80DE
102
{ACAD_XDICTIONARY
360
82FD
102
}
102
{ACAD_REACTORS
330
80DB
102
}
330
80DB
100
AcDbVisualStyle
  2
Gouraud
 70
     2
 71
     2
 72
     2
 73
     1
 90
        2
 40
-0.6
 41
30.0
 62
     5
 63
     7
 74
     0
 91
        0
 64
     7
 65
   257
 75
     1
175
     1
 42
1.0
 92
        0
 66
     7
 43
1.0
 76
     1
 77
     6
 78
     2
 67
     7
 79
     5
170
     0
171
     0
290
     0
174
     0
 93
       13
 44
0.0
173
     0
291
     1
 45
0.0
1001
ACAD
1000
AcDbSavedByObjectVersion
1070
     0
  0
VISUALSTYLE
  5
80DF
102
{ACAD_XDICTIONARY
360
82FF
102
}
102
{ACAD_REACTORS
330
80DB
102
}
330
80DB
100
AcDbVisualStyle
  2
GouraudWithEdges
 70
     3
 71
     2
 72
     2
 73
     1
 90
        2
 40
-0.6
 41
30.0
 62
     5
 63
     7
 74
     1
 91
        0
 64
     7
 65
   257
 75
     1
175
     1
 42
1.0
 92
        0
 66
   257
 43
1.0
 76
     1
 77
     6
 78
     2
 67
     7
 79
     5
170
     0
171
     0
290
     0
174
     0
 93
       13
 44
0.0
173
     0
291
     1
 45
0.0
1001
ACAD
1000
AcDbSavedByObjectVersion
1070
     0
  0
VISUALSTYLE
  5
80E3
102
{ACAD_XDICTIONARY
360
8307
102
}
102
{ACAD_REACTORS
330
80DB
102
}
330
80DB
100
AcDbVisualStyle
  2
Hidden
 70
     6
 71
     1
 72
     2
 73
     2
 90
        0
 40
-0.6
 41
-30.0
 62
     5
 63
     7
 74
     2
 91
        2
 64
     7
 65
   257
 75
     2
175
     1
 42
40.0
 92
        0
 66
   257
 43
1.0
 76
     1
 77
     6
 78
     2
 67
     7
 79
     3
170
     0
171
     0
290
     0
174
     0
 93
        1
 44
0.0
173
     0
291
     0
 45
0.0
1001
ACAD
1000
AcDbSavedByObjectVersion
1070
     0
  0
VISUALSTYLE
  5
80F1
102
{ACAD_XDICTIONARY
360
8323
102
}
102
{ACAD_REACTORS
330
80DB
102
}
330
80DB
100
AcDbVisualStyle
  2
JitterOff
 70
    20
 71
     2
 72
     2
 73
     0
 90
        0
 40
-0.6
 41
-30.0
 62
     5
 63
     7
 74
     1
 91
        4
 64
     7
 65
   257
 75
     1
175
     1
 42
1.0
 92
       10
 66
     7
 43
1.0
 76
     1
 77
     6
 78
     2
 67
     7
 79
     5
170
     0
171
     0
290
     0
174
     0
 93
        1
 44
0.0
173
     0
291
     1
 45
0.0
1001
ACAD
1000
AcDbSavedByObjectVersion
1070
     0
  0
VISUALSTYLE
  5
80E9
102
{ACAD_XDICTIONARY
360
8313
102
}
102
{ACAD_REACTORS
330
80DB
102
}
330
80DB
100
AcDbVisualStyle
  2
Linepattern
 70
    14
 71
     2
 72
     2
 73
     0
 90
        0
 40
-0.6
 41
-30.0
 62
     5
 63
     7
 74
     1
 91
        4
 64
     7
 65
   257
 75
     7
175
     7
 42
1.0
 92
        8
 66
     7
 43
1.0
 76
     1
 77
     6
 78
     2
 67
     7
 79
     5
170
     0
171
     0
290
     0
174
     0
 93
        1
 44
0.0
173
     0
291
     1
 45
0.0
1001
ACAD
1000
AcDbSavedByObjectVersion
1070
     0
  0
VISUALSTYLE
  5
80F2
102
{ACAD_XDICTIONARY
360
8325
102
}
102
{ACAD_REACTORS
330
80DB
102
}
330
80DB
100
AcDbVisualStyle
  2
OverhangOff
 70
    21
 71
     2
 72
     2
 73
     0
 90
        0
 40
-0.6
 41
-30.0
 62
     5
 63
     7
 74
     1
 91
        4
 64
     7
 65
   257
 75
     1
175
     1
 42
1.0
 92
        9
 66
     7
 43
1.0
 76
     1
 77
     6
 78
     2
 67
     7
 79
     5
170
     0
171
     0
290
     0
174
     0
 93
        1
 44
0.0
173
     0
291
     1
 45
0.0
1001
ACAD
1000
AcDbSavedByObjectVersion
1070
     0
  0
VISUALSTYLE
  5
80E5
102
{ACAD_XDICTIONARY
360
830B
102
}
102
{ACAD_REACTORS
330
80DB
102
}
330
80DB
100
AcDbVisualStyle
  2
Realistic
 70
     8
 71
     2
 72
     3
 73
     0
 90
        2
 40
-0.6
 41
30.0
 62
     5
 63
     7
 74
     0
 91
        0
 64
     7
 65
   257
 75
     1
175
     1
 42
1.0
 92
        8
 66
   257
 43
1.0
 76
     1
 77
     6
 78
     2
 67
     7
 79
     3
170
     0
171
     0
290
     0
174
     0
 93
       13
 44
0.0
173
     0
291
     0
 45
0.0
1001
ACAD
1000
AcDbSavedByObjectVersion
1070
     0
  0
VISUALSTYLE
  5
80F0
102
{ACAD_XDICTIONARY
360
8321
102
}
102
{ACAD_REACTORS
330
80DB
102
}
330
80DB
100
AcDbVisualStyle
  2
Shaded
 70
    27
 71
     2
 72
     2
 73
     1
 90
        2
 40
-0.6
 41
30.0
 62
     5
 63
     7
 74
     0
 91
        4
 64
     7
 65
   257
 75
     1
175
     1
 42
1.0
 92
        8
 66
   257
 43
1.0
 76
     1
 77
     6
 78
     2
 67
     8
 79
     3
170
     0
171
     0
290
     0
174
     0
 93
        5
 44
0.0
173
     0
291
     0
 45
0.0
1001
ACAD
1000
AcDbSavedByObjectVersion
1070
     0
  0
VISUALSTYLE
  5
80EF
102
{ACAD_XDICTIONARY
360
831F
102
}
102
{ACAD_REACTORS
330
80DB
102
}
330
80DB
100
AcDbVisualStyle
  2
Shaded with edges
 70
    26
 71
     2
 72
     2
 73
     1
 90
        2
 40
-0.6
 41
30.0
 62
     5
 63
     7
 74
     1
 91
       10
 64
     7
 65
   257
 75
     2
175
     1
 42
1.0
 92
        8
 66
   257
 43
1.0
 76
     1
 77
     6
 78
     2
 67
     7
 79
     3
170
     0
171
     0
290
     0
174
     0
 93
        5
 44
0.0
173
     0
291
     0
 45
0.0
1001
ACAD
1000
AcDbSavedByObjectVersion
1070
     0
  0
VISUALSTYLE
  5
80EC
102
{ACAD_XDICTIONARY
360
8319
102
}
102
{ACAD_REACTORS
330
80DB
102
}
330
80DB
100
AcDbVisualStyle
  2
Shades of Gray
 70
    23
 71
     2
 72
     2
 73
     3
 90
        0
 40
-0.6
 41
-30.0
 62
     5
 63
     7
 74
     2
 91
        2
 64
     7
 65
     7
 75
     1
175
     1
 42
40.0
 92
        8
 66
     7
 43
1.0
 76
     1
 77
     6
 78
     2
 67
     7
 79
     3
170
     0
171
     0
290
     0
174
     0
 93
        1
 44
0.0
173
     0
291
     0
 45
0.0
1001
ACAD
1000
AcDbSavedByObjectVersion
1070
     0
  0
VISUALSTYLE
  5
80ED
102
{ACAD_XDICTIONARY
360
831B
102
}
102
{ACAD_REACTORS
330
80DB
102
}
330
80DB
100
AcDbVisualStyle
  2
Sketchy
 70
    24
 71
     1
 72
     2
 73
     2
 90
        0
 40
-0.6
 41
-30.0
 62
     5
 63
     7
 74
     2
 91
        2
 64
     7
 65
     7
 75
     1
175
     1
 42
40.0
 92
       11
 66
     7
 43
1.0
 76
     1
 77
     6
 78
     2
 67
     7
 79
     6
170
     0
171
     0
290
     0
174
     0
 93
        1
 44
0.0
173
     0
291
     0
 45
0.0
1001
ACAD
1000
AcDbSavedByObjectVersion
1070
     0
  0
VISUALSTYLE
  5
80E8
102
{ACAD_XDICTIONARY
360
8311
102
}
102
{ACAD_REACTORS
330
80DB
102
}
330
80DB
100
AcDbVisualStyle
  2
Thicken
 70
    13
 71
     2
 72
     2
 73
     0
 90
        0
 40
-0.6
 41
-30.0
 62
     5
 63
     7
 74
     1
 91
        4
 64
     7
 65
   257
 75
     1
175
     1
 42
1.0
 92
       12
 66
     7
 43
1.0
 76
     1
 77
     6
 78
     2
 67
     7
 79
     5
170
     0
171
     0
290
     0
174
     0
 93
        1
 44
0.0
173
     0
291
     1
 45
0.0
1001
ACAD
1000
AcDbSavedByObjectVersion
1070
     0
  0
VISUALSTYLE
  5
80E2
102
{ACAD_XDICTIONARY
360
8305
102
}
102
{ACAD_REACTORS
330
80DB
102
}
330
80DB
100
AcDbVisualStyle
  2
Wireframe
 70
     5
 71
     0
 72
     2
 73
     0
 90
        0
 40
-0.6
 41
-30.0
 62
     5
 63
     7
 74
     1
 91
        4
 64
     7
 65
   257
 75
     1
175
     1
 42
1.0
 92
        0
 66
   257
 43
1.0
 76
     1
 77
     6
 78
     2
 67
     7
 79
     3
170
     0
171
     0
290
     0
174
     0
 93
        1
 44
0.0
173
     0
291
     0
 45
0.0
1001
ACAD
1000
AcDbSavedByObjectVersion
1070
     0
  0
VISUALSTYLE
  5
80EE
102
{ACAD_XDICTIONARY
360
831D
102
}
102
{ACAD_REACTORS
330
80DB
102
}
330
80DB
100
AcDbVisualStyle
  2
X-Ray
 70
    25
 71
     2
 72
     2
 73
     1
 90
        1
 40
0.5
 41
-30.0
 62
     5
 63
     7
 74
     1
 91
        0
 64
     7
 65
   257
 75
     1
175
     1
 42
1.0
 92
        8
 66
     7
 43
1.0
 76
     1
 77
     6
 78
     2
 67
     7
 79
     3
170
     0
171
     0
290
     0
174
     0
 93
       13
 44
0.0
173
     0
291
     0
 45
0.0
1001
ACAD
1000
AcDbSavedByObjectVersion
1070
     0
  0
DICTIONARYVAR
  5
82EC
102
{ACAD_REACTORS
330
82E7
102
}
330
82E7
100
DictionaryVariables
280
     0
  1
1:1
  0
DICTIONARYVAR
  5
82E9
102
{ACAD_REACTORS
330
82E7
102
}
330
82E7
100
DictionaryVariables
280
     0
  1
STANDARD
  0
DICTIONARYVAR
  5
82E8
102
{ACAD_REACTORS
330
82E7
102
}
330
82E7
100
DictionaryVariables
280
     0
  1
STANDARD
  0
DICTIONARYVAR
  5
82EA
102
{ACAD_REACTORS
330
82E7
102
}
330
82E7
100
DictionaryVariables
280
     0
  1
Imperial24
  0
DICTIONARYVAR
  5
82EB
102
{ACAD_REACTORS
330
82E7
102
}
330
82E7
100
DictionaryVariables
280
     0
  1
Imperial24
  0
DICTIONARYVAR
  5
82EF
102
{ACAD_REACTORS
330
82E7
102
}
330
82E7
100
DictionaryVariables
280
     0
  1
1
  0
DICTIONARYVAR
  5
82EE
102
{ACAD_REACTORS
330
82E7
102
}
330
82E7
100
DictionaryVariables
280
     0
  1
0
  0
DICTIONARYVAR
  5
82ED
102
{ACAD_REACTORS
330
82E7
102
}
330
82E7
100
DictionaryVariables
280
     0
  1
127
  0
DICTIONARYVAR
  5
82F0
102
{ACAD_REACTORS
330
82E7
102
}
330
82E7
100
DictionaryVariables
280
     0
  1
2
  0
DICTIONARY
  5
832D
330
811C
100
AcDbDictionary
280
     1
281
     1
  3
ACAD_XREC_ROUNDTRIP
360
832E
  0
DICTIONARY
  5
8331
330
8124
100
AcDbDictionary
280
     1
281
     1
  3
ACAD_XREC_ROUNDTRIP
360
8332
  0
DICTIONARY
  5
832F
330
8120
100
AcDbDictionary
280
     1
281
     1
  3
ACAD_XREC_ROUNDTRIP
360
8330
  0
DICTIONARY
  5
80CC
330
80CB
100
AcDbDictionary
280
     1
281
     1
  3
ACAD_XREC_ROUNDTRIP
360
82F7
  3
BUMPTILE
360
80CE
  3
DIFFUSETILE
360
80CD
  3
OPACITYTILE
360
80D1
  3
REFLECTIONTILE
360
80D0
  3
REFRACTIONTILE
360
80D2
  3
SPECULARTILE
360
80CF
  0
DICTIONARY
  5
80C4
330
80C3
100
AcDbDictionary
280
     1
281
     1
  3
ACAD_XREC_ROUNDTRIP
360
82F6
  3
BUMPTILE
360
80C6
  3
DIFFUSETILE
360
80C5
  3
OPACITYTILE
360
80C9
  3
REFLECTIONTILE
360
80C8
  3
REFRACTIONTILE
360
80CA
  3
SPECULARTILE
360
80C7
  0
DICTIONARY
  5
80D4
330
80D3
100
AcDbDictionary
280
     1
281
     1
  3
ACAD_XREC_ROUNDTRIP
360
82F8
  3
BUMPTILE
360
80D6
  3
DIFFUSETILE
360
80D5
  3
FBXASSET
360
816A
  3
OPACITYTILE
360
80D9
  3
REFLECTIONTILE
360
80D8
  3
REFRACTIONTILE
360
80DA
  3
SPECULARTILE
360
80D7
  0
DICTIONARY
  5
832B
330
811A
100
AcDbDictionary
280
     1
281
     1
  3
ACAD_XREC_ROUNDTRIP
360
832C
  0
DICTIONARY
  5
82F2
330
8116
100
AcDbDictionary
280
     1
281
     1
  3
ACAD_ROUNDTRIP_2008_TABLESTYLE_CELLSTYLEMAP
360
82F3
  3
ACAD_XREC_ROUNDTRIP
360
8329
  0
DICTIONARY
  5
8303
330
80E1
100
AcDbDictionary
280
     1
281
     1
  3
ACAD_XREC_ROUNDTRIP
360
8304
  0
DICTIONARY
  5
8301
330
80E0
100
AcDbDictionary
280
     1
281
     1
  3
ACAD_XREC_ROUNDTRIP
360
8302
  0
DICTIONARY
  5
830F
330
80E7
100
AcDbDictionary
280
     1
281
     1
  3
ACAD_XREC_ROUNDTRIP
360
8310
  0
DICTIONARY
  5
8317
330
80EB
100
AcDbDictionary
280
     1
281
     1
  3
ACAD_XREC_ROUNDTRIP
360
8318
  0
DICTIONARY
  5
8309
330
80E4
100
AcDbDictionary
280
     1
281
     1
  3
ACAD_XREC_ROUNDTRIP
360
830A
  0
DICTIONARY
  5
830D
330
80E6
100
AcDbDictionary
280
     1
281
     1
  3
ACAD_XREC_ROUNDTRIP
360
830E
  0
DICTIONARY
  5
8327
330
80F3
100
AcDbDictionary
280
     1
281
     1
  3
ACAD_XREC_ROUNDTRIP
360
8328
  0
DICTIONARY
  5
8315
330
80EA
100
AcDbDictionary
280
     1
281
     1
  3
ACAD_XREC_ROUNDTRIP
360
8316
  0
DICTIONARY
  5
82F9
330
80DC
100
AcDbDictionary
280
     1
281
     1
  3
ACAD_XREC_ROUNDTRIP
360
82FA
  0
DICTIONARY
  5
82FB
330
80DD
100
AcDbDictionary
280
     1
281
     1
  3
ACAD_XREC_ROUNDTRIP
360
82FC
  0
DICTIONARY
  5
82FD
330
80DE
100
AcDbDictionary
280
     1
281
     1
  3
ACAD_XREC_ROUNDTRIP
360
82FE
  0
DICTIONARY
  5
82FF
330
80DF
100
AcDbDictionary
280
     1
281
     1
  3
ACAD_XREC_ROUNDTRIP
360
8300
  0
DICTIONARY
  5
8307
330
80E3
100
AcDbDictionary
280
     1
281
     1
  3
ACAD_XREC_ROUNDTRIP
360
8308
  0
DICTIONARY
  5
8323
330
80F1
100
AcDbDictionary
280
     1
281
     1
  3
ACAD_XREC_ROUNDTRIP
360
8324
  0
DICTIONARY
  5
8313
330
80E9
100
AcDbDictionary
280
     1
281
     1
  3
ACAD_XREC_ROUNDTRIP
360
8314
  0
DICTIONARY
  5
8325
330
80F2
100
AcDbDictionary
280
     1
281
     1
  3
ACAD_XREC_ROUNDTRIP
360
8326
  0
DICTIONARY
  5
830B
330
80E5
100
AcDbDictionary
280
     1
281
     1
  3
ACAD_XREC_ROUNDTRIP
360
830C
  0
DICTIONARY
  5
8321
330
80F0
100
AcDbDictionary
280
     1
281
     1
  3
ACAD_XREC_ROUNDTRIP
360
8322
  0
DICTIONARY
  5
831F
330
80EF
100
AcDbDictionary
280
     1
281
     1
  3
ACAD_XREC_ROUNDTRIP
360
8320
  0
DICTIONARY
  5
8319
330
80EC
100
AcDbDictionary
280
     1
281
     1
  3
ACAD_XREC_ROUNDTRIP
360
831A
  0
DICTIONARY
  5
831B
330
80ED
100
AcDbDictionary
280
     1
281
     1
  3
ACAD_XREC_ROUNDTRIP
360
831C
  0
DICTIONARY
  5
8311
330
80E8
100
AcDbDictionary
280
     1
281
     1
  3
ACAD_XREC_ROUNDTRIP
360
8312
  0
DICTIONARY
  5
8305
330
80E2
100
AcDbDictionary
280
     1
281
     1
  3
ACAD_XREC_ROUNDTRIP
360
8306
  0
DICTIONARY
  5
831D
330
80EE
100
AcDbDictionary
280
     1
281
     1
  3
ACAD_XREC_ROUNDTRIP
360
831E
  0
XRECORD
  5
832E
102
{ACAD_REACTORS
330
832D
102
}
330
832D
100
AcDbXrecord
280
     1
102
DISPLAYNAME
  1
Imperial24
102
FLAGS
 90
        0
  0
XRECORD
  5
8332
102
{ACAD_REACTORS
330
8331
102
}
330
8331
100
AcDbXrecord
280
     1
102
SHADEPLOT
 70
     0
102
SHADEPLOTRESLEVEL
 70
     2
102
SHADEPLOTCUSTOMDPI
 70
   300
  0
XRECORD
  5
8330
102
{ACAD_REACTORS
330
832F
102
}
330
832F
100
AcDbXrecord
280
     1
102
SHADEPLOT
 70
     0
102
SHADEPLOTRESLEVEL
 70
     2
102
SHADEPLOTCUSTOMDPI
 70
   300
  0
XRECORD
  5
82F7
102
{ACAD_REACTORS
330
80CC
102
}
330
80CC
100
AcDbXrecord
280
     1
102
MATERIAL
148
0.0
149
0.0
149
0.0
 93
        0
 94
      127
282
     0
 72
     0
 77
     0
171
     0
175
     0
179
     0
273
     0
  0
XRECORD
  5
80CE
102
{ACAD_REACTORS
330
80CC
102
}
330
80CC
100
AcDbXrecord
280
     1
270
     1
271
     1
  0
XRECORD
  5
80CD
102
{ACAD_REACTORS
330
80CC
102
}
330
80CC
100
AcDbXrecord
280
     1
270
     1
271
     1
  0
XRECORD
  5
80D1
102
{ACAD_REACTORS
330
80CC
102
}
330
80CC
100
AcDbXrecord
280
     1
270
     1
271
     1
  0
XRECORD
  5
80D0
102
{ACAD_REACTORS
330
80CC
102
}
330
80CC
100
AcDbXrecord
280
     1
270
     1
271
     1
  0
XRECORD
  5
80D2
102
{ACAD_REACTORS
330
80CC
102
}
330
80CC
100
AcDbXrecord
280
     1
270
     1
271
     1
  0
XRECORD
  5
80CF
102
{ACAD_REACTORS
330
80CC
102
}
330
80CC
100
AcDbXrecord
280
     1
270
     1
271
     1
  0
XRECORD
  5
82F6
102
{ACAD_REACTORS
330
80C4
102
}
330
80C4
100
AcDbXrecord
280
     1
102
MATERIAL
148
0.0
149
0.0
149
0.0
 93
        0
 94
      127
282
     0
 72
     0
 77
     0
171
     0
175
     0
179
     0
273
     0
  0
XRECORD
  5
80C6
102
{ACAD_REACTORS
330
80C4
102
}
330
80C4
100
AcDbXrecord
280
     1
270
     1
271
     1
  0
XRECORD
  5
80C5
102
{ACAD_REACTORS
330
80C4
102
}
330
80C4
100
AcDbXrecord
280
     1
270
     1
271
     1
  0
XRECORD
  5
80C9
102
{ACAD_REACTORS
330
80C4
102
}
330
80C4
100
AcDbXrecord
280
     1
270
     1
271
     1
  0
XRECORD
  5
80C8
102
{ACAD_REACTORS
330
80C4
102
}
330
80C4
100
AcDbXrecord
280
     1
270
     1
271
     1
  0
XRECORD
  5
80CA
102
{ACAD_REACTORS
330
80C4
102
}
330
80C4
100
AcDbXrecord
280
     1
270
     1
271
     1
  0
XRECORD
  5
80C7
102
{ACAD_REACTORS
330
80C4
102
}
330
80C4
100
AcDbXrecord
280
     1
270
     1
271
     1
  0
XRECORD
  5
82F8
102
{ACAD_REACTORS
330
80D4
102
}
330
80D4
100
AcDbXrecord
280
     1
102
MATERIAL
148
0.0
149
0.0
149
0.0
 93
        0
 94
      127
282
     0
 72
     0
 77
     0
171
     0
175
     0
179
     0
273
     0
  0
XRECORD
  5
80D6
102
{ACAD_REACTORS
330
80D4
102
}
330
80D4
100
AcDbXrecord
280
     1
270
     1
271
     1
  0
XRECORD
  5
80D5
102
{ACAD_REACTORS
330
80D4
102
}
330
80D4
100
AcDbXrecord
280
     1
270
     1
271
     1
  0
XRECORD
  5
816A
102
{ACAD_REACTORS
330
80D4
102
}
330
80D4
100
AcDbXrecord
280
     1
 70
     1
 90
1959938040
 71
     1
  1
E382A91A-1477-4DDA-8564-41BB2CF2D66E
311
504B030414000608080050796D579FA7643DBF000000200100004F00000031453837353130442D303333372D343043442D383837332D3338443933393330304435352F4173736574446174612F446566696E6974696F6E4974657261746F7250726F706572746965732E62696EEB606060F80F0540260323103700495E20ED
311
9E9A975A94991C9C9C919A9BC8C00612C9C94F4ACC6147C831019920AE4B6A5A62694E0948976F6671726A4E4E625E6A7E69B12042A9426E6209D0B8C41C3D90264E20860914834C48875806B2DF0F88414E02D189290556F689C5C5A925B6FA694915FA864E9646A66606C6BA46CE6696BA262EC64EBA8E8626AEBACE16AE
311
E6C6CE2E66CEC686A6FA45A9C5F9A545C9A9C5FA46FA06F15093E30BF2D21918384A1FD6CE015A02720308130200504B030414000608080050796D579879A9A0F0000000300200004500000031453837353130442D303333372D343043442D383837332D3338443933393330304435352F4173736574446174612F496E7374
311
616E636550726F706572746965732E62696EEB606060F80F0540260323103700495E20ED9E9A975A94991C9C9C919A9BA802147035B63072B43474D435343137D735717171D4B5303533D1353174723272763372313373654768046931363471713532B5D435353131D635313332D475727372D13534373670367376B67474
311
B5042A03DBCBA019D37FE8ABC6157B20CD04146B0062181F4C03F940F0C11EA29A8141C08141002C0426541C106CAC2CA046088033B02A030AC2157C6006F21A8018AAF50194E6010A610250382264E08660284CD9E98021862280A91564B406929A0FF62C401E28B6F88038B83CB1243943D7A928312F25350524C3F0DFD8
311
96161800504B030414000608080050796D5728BB58AF800100009E0500003D00000031453837353130442D303333372D343043442D383837332D3338443933393330304435352F536368656D61732F436F6D6D6F6E536368656D612E786D6CBD544D4FC23018BEFB2B96DE15493C78601010A34B880709DEDFB52FD0D8B54B
311
D70DF6EFED3AC0B12E6442E2716BFB3CEFF3D18E26FB440405EA8C2B1992E1C323095052C5B8DC842437EBFB673219DF8DA659866649B798C078B48AE6410122242F2A4994AC7F93815DF85C049C8564CA0A901499DD886B2EB9B1E02448F358701A9235880C49A0119892A20C89D1B9FD768815CAD268CB5E0355B40B1E47
311
F3E37A2020464BED06AA57CE8FCC20C3C3446D46761A2632A8C1283D07031EFF2AE7CCB1BFEEE916E406DFAC8E36FFD99A9D60A6944090EEDC3B670C7DC13DE86B6B2C5C240D6E503BB85ACD579D513F1B9F9A69DC9CC22AFA80C426D40AF0B21EA168559156B6276F0F726A6BFF04DCD513A87A62CAD41FB24FCB2858B395
311
2E3D852084DA25B9303C15687973CC8E8AAE11DF2836C38C6A9E765E8C1BA1BFB1DC29CDFE518C8B5A7655A4ED7E77291ABEB80DBD82EC866ADE1B8D05AF9E35CF09D7A061F38A986D9EC412B8F0F65E5D81534D9B231D1E5A8FE577A241F3A5FD01504B030414000608080050796D572CCEBD668A040000E01200003E0000
311
0031453837353130442D303333372D343043442D383837332D3338443933393330304435352F536368656D61732F47656E65726963536368656D612E786D6CD5586D6FDB380CFE7EBF42F0F7A649B70E1B90744856B4970F450FCD7A5F05459613EDE4174872DADCAF3F522F8ED3B88D2F1D06AC4050DBA2493EE4438AF2F8
311
EB73AEC8466823CB62928C06C384888297A92C5693A4B6D9D9E7E4EBD51FE3A931C22EF85AE4EC6AFC38BF261BA626C9AD288496DC3F4FCEAFC63366845F7A10452AF41DB320C0D44EC26EAB20918735565582695670811A6A49643A49A6E9069FA4604A64B29016DC4B48552F95E4932463CA888468C1D2B250DB4962750D
311
F7CE273069CE8363F1FF4EDB00E0A21999574AE4A2B00C353B93F3BD4777B8A61ED8F604ABFEDD79CE56A2B7BDFBDBC50996E0ADDE16FED26223C5D30956C29BDF4A55EA686E5E58B112DA45CE67F76F4FA27EFA3FB672FD7372FC388FAECDCA5209E693CAD167BADCD272F943701B3812F8A3D852008B1D2E32DB927B2F83
311
3C6EA95879925356D254582695095A3CE982924720BE5774A3CB9CDCDB350427D2DF20DA1B5532EBE2D5D6288D75D4F7E4FD9890A0EF8E3D93EBB8F8BA4758158EF6FB90A6F9520281C93DE7AAC6D24607DA296BB96018123F821A7D6A5C5884050C475DA4865442732C8B95684A50165CBB3A32F25F783A4A480ED59AD7F9
311
24B968AEA50131F46303223E6A397B0E52976030DC1DCA81D7E7C1EDEEA42C19FF27635C505E2BD5198A599020DF50A2330FCB3AAF28CB0124108429553EF1B228802E2265D8F7CC2401042B155BCC7070F1E5C55F13B4A9577362CCCE46C32174E010C3C378C44841A4BDA00FE3A12006CE11EE6AEC59894D3526DDE1CD59
311
D503ECC324017F8061B7F162162FA62EDD81AE3308617770796DCBDAD2B2625C5AE8A63DE20B2C8AA5E95E76E5730823955956E33E705425A2187C185D36489A1B44D3DCEC2172F6BA2105C3546287A7194B2331768EBBE64F6E70A9930ABE0ADEA89E9E2C38523B810287AD67A54A039C1606EAFE68F8304610BB9093DBDD
311
ABC0B2AE4E290DCDA15376D7E39F72B556F0B32EAB5D3D498B4C41ABADEC3A1434C422D87E8025A84BDCB2B1417ED750FAE4DA8976863974C577C7F902D3F156AD354DEA3540DE6BEAE2BEA52F7A2EB4CA43802ECE5BF2CE2EDC9347179FFB023CE412E60BE16DA0BE29B374988A553F561DC04615DD35F7D2C8979F60E595
311
5CE93DF29DED8AFA1EE6642D53418086C03C47C377910F75F7E8F5EF665F70B60FFB22AEDF897D119E8423C773E819A3C1E55E550599EE6EDCA34D0C86FD72057DF2CD46F16A470682471C164E4346D5306BF12D7D12D82CFF673D41636C347443FEB51B50D72EA171A8E4A58623A4A16E0FA2B8B10A0D23268D87C33896EE
311
8FB73305A74BF224EDBADFA0BD674AB354D63DB7BD5D83426761C077DE767728235446A552754EB93B755891C3C4CC6CADE37CF0E912A7BB38DBA010F9DE1282EDF470CA69A9CDA482E334C4A6EA4107987980B17E72F31730EBF88BBD39E7C629F56797A3C0009C2C5AE7951D9A05A02773440F02EEB4DE396A3B6A570C72
311
CCFBCD823B0B8ED3F1D5CEDDFED772FA70236C83FB7D86C385D570B87107535572A60A96035F8F7C6A7192F13007246BBE0521855E6AC46F3E27689CEE7D186A6FD679D98CDCAD13333E04EBE7ED6F55FF01504B030414000608080050796D576180134D5F0100006B0300004500000031453837353130442D303333372D34
311
3043442D383837332D3338443933393330304435352F536368656D61732F52656E6465724D6174657269616C536368656D612E786D6CA5934D6FC2300C86EFFB1551EEE343DBA41D1A103009551ADAD40EAE28A4A68D9426284961FCFBE5A340113B2071746D3F765EBF4DC6BFB5407BD0862B49F0B037C0082453059725C1
311
8DDD3EBFE3F1E829991803366715D474942CD30FB4A782E00C64017A412D684E454CE3FE28995203B162A6EA5AC94B66997D225E109CD63B0135484BAD1B3C07E9080CA35DB3119C11BCA5C200461A68A1A438126C75E3E230D40FF81FB3F03C91D1E3A3A0AF79FE28E25BC39EC3E17E4C2A2D94A0833A51AF55BCCA7D8857
311
2FCBAC529C4140B020FC3AAFA886621DCED7EAD7664CC86024E806DC297DA1BB393E4156543457A4537DB8817349A70F8ACBF09B3EEE2CB2F33E91B65D60786E4E3B39B77E3FEEEF5650424525DA657FB8B46BE6BF064646F0A0F7327C0BC1BC1B4CBBC1C419FA3CCB23500007872A2580CAAE5461865565294E4EDB4617B6
311
2FF579DF9A5B2F54E834076A597573A020912FED777F9B3F504B030414000608080050796D571DAF2DF851000000570000004700000031453837353130442D303333372D343043442D383837332D3338443933393330304435352F4173736574446174612F41737365745461626C654F66436F6E74656E74732E62696E5361
311
60607035B63072B43474D435343137D735717171D4B5303533D13531747232727633723133731502AACB4D2C492DCA4CCC492C28484D2C4ACC4B4E050A82012F90744FCD03CA26072767A4E6260200504B030414000608080050796D57F865834058000000680000004500000031453837353130442D303333372D34304344
311
2D383837332D3338443933393330304435352F4173736574446174612F53747265616D56657273696F6E5461626C652E696E66558CBD0A80300C06F73E4B117FB66E451741D041DC5BF98480A492E4FDD18EAEC7DD4555D89EF28DF51A0B1BD8340C4DE7DD848B988C0ACF0649566493F2408C508DDEBB99D5129FF8F1AF8C
311
F5B9503E20FAE5A16B5AF702504B030414000608080050796D57C8785D92340100009A0400003600000031453837353130442D303333372D343043442D383837332D3338443933393330304435352F4173736574446174612F636E782E786D6CCD94316FC3201085FF8AC56E30892A551126AADA25532B35EAD0ED82CF090A
311
060BCE55FBEF0B898756A93A65C87ABC3B1E9F78A7D69F83AB3E30261B7CCB246F5885DE84CEFA7DCB26EAEB7B56ADB58A21D00F19AB3C0CD8B252665AED6398C6B9D4610F932B5567FD712E3EA484B4859DC3E7FE3178424F8955C6414A2D4BE6800370982874988EBC03022E79C414A668304F223BE03CC94404C28EE945
311
B358D652D672B995772BD9AC968B77258A52AB5D086ED6DB7C590C6365CEB732DD28518EB59AA29D35E52D4CFFE591EFAC57222BB54A143393B983BEC6DC01E3E8AC01CAE8443084546711C2A0C459AC95280C7E9178C2DE7A5B5A36D91850882FD91E46B2787344FEF37A7D321B9F08BCC1DBE571E9F0FA145E4F3FE8ED1C
311
C853626E2D27970EB9F5FD1552224E6B2487A66C15FD0D504B030414000608080050796D57A79508FC080100004F0300003400000031453837353130442D303333372D343043442D383837332D3338443933393330304435352F536368656D61732F636E782E786D6CCD93BD4E042114855F85D0CF0F3331311B862DB6B0B2
311
512B3B84BB2B59E04E2E8CD1B717C62976133B2DB683C31772CEE122F79FC1B30FA0E4304E5CB43D67100D5A174F135FF2B1B9E76CAF2421E60B8CB3A8034CBCCA5CC913E1326F9285A35E7C55BD8BE74D3C6008189FCD3B04CD99F13AA589A775DBEA25A385746EADCEBA152D41C2850C941BB20BB0DD60087406CBD5D00F
311
63234423C61771B713FD6E1C5E65574925DF10FDC6BB9881706606CB22163BBDECEAB1920BB98DA919B8BAF4D696366457082553A6D2C146E6AFB9907A9EBD333A97AABA15FC6194EC6AD4ABC00F10819CB9CDC457E6FE2DF213440BF4585E899CF6B799FC378F7F2BA05B67BF8C40FD0AEA1B504B03041400060808005079
311
6D57410A3D5871000000A40000002C00000031453837353130442D303333372D343043442D383837332D3338443933393330304435352F636E782E786D6C55CC4D0E82301086E1AB34B31774E7A22D31F1069E60020334B633A63FC6E34B0909B07DDE2F9FEE7EC1AB2FC5E4840DDC9A2B28E25E06C7938192C7CB1D546775
311
14C9871928C640062A83D55394F2D968A0118BAFEA1DBF377CA444F98919176EAB9FEAAB9F2960DA5BBB1E2ED3FA6FFF504B030414000608080050796D5734D784487C000000A300000007000000636E782E786D6C4D8C410EC2201405AF42FE1EFD04093401BA100FD258DA1029182CC6E30BA60B572F99BC193D7EB648DE
311
BEBC424E06D80981F874CF7348AB81BA2F540119AD2E39EF7F372069DABC818EC1EAB5E4FA3CD0EC97A9C64E63488F03B29B9282A1A3C8B9A417BC3AAA94E4942B37F081233A219A71EE4A9B5FAF6DCFDB2F504B030414000608080050796D5716E99B5DA600000035010000130000005B436F6E74656E745F54797065735D
311
2E786D6C9590410E82301045AFD2740F4517C6180A0BF5065E60AC53688469D30E066F6F91AD9AB89CF9FFFD3F99BA9DC7413C3026E749CB4D59498164FCCD51A7E5C4B6D84BD136F5E5193089ECA5A465CF1C0E4A25D3E308A9F401292BD6C711388FB15301CC1D3A54DBAADA29E38991B8E0254336F5092D4C038BF39CD7
311
6B6FC6A538AEBEA54A4B08617006389FA516557DE4AE8E7E70DE30729138228C5F021CD93F02D4FB0DCD0B504B030414000608080050796D573DEE336E64000000790000001B0000006175746F6465736B2D64657369676E2D7061636B6167652E786D6C35CBC10E83200C00D05F21DCA56CA76D41FC96062B120735B69A7D
311
BE268BB7777961F8D5AF396893C2ADB70FE7ADA196782C2DF776D7A97B5933C430F15651E5469C55D70F80A4992A3ADC954792C525AE70A1E4D6AD9816CC044FEFDF01FE3FDE907802504B030414000608080050796D5771D23186F8000000960100003700000031453837353130442D303333372D343043442D383837332D
311
3338443933393330304435352F4173736574446174612F636F72652E786D6C8550CB6E833010FC15B47703C6244191714453FC053DF56619875A0936F2A3EAE7D70E546A4F3DED6A76667677E8E56B79149FCA796D4D0FB8ACA15046DA499BB987186EA883E2C2A8B336FCA24161C4A27AC830303A3B1BD71D92D60465326A
311
ECA4765078AF0214F2919A1EBCFC508B28450C89E1EFE52AE45DCCAAC4E5C66334463DED523D25377DD3CA0123E3F105137E429C108E5A7EE268C0D7110DC7B6E36D4BAE6377A05516331AF4F2B35D3A25829A8035754310C60893377C38E3FA4C9A775A6526A33EB8F4F3BE347F076CC857BF8A2068B54DFFB8C675FADF35
311
6A1348B3BB6E0A0F0CA7239F0346AB9C522ACF0853CD89B26F504B030414000608080050796D576C9B0B54F7000000940100003500000031453837353130442D303333372D343043442D383837332D3338443933393330304435352F536368656D61732F636F72652E786D6C8550CB6E833010FC15B47703C6244191719446
311
F807DA536F9671A89560233FAA7E7E6DA0527BEA6957B333B3BB432F5FF3B3F854CE6B6B7AC0650D8532D28EDA4C3DC470471D1417469DB5E1170D0A2366D5438681D1C9D9B8EC90B4262893516347B583C27B15A090CFD4F4E0E5879A452962480CFF2817211F6252252E371EA331EA7197EA31B9E9BB560E18198E2F98F0
311
13E28470D4F21347577C1BD0F5D876BC6DC96DE80EB4CA6246839E7FB64BA7445023B0A66E08C21861F2860F675C9F49F34EABCC64D407977EDE97E6EF80BDAE777A5A6DB33F9E7119FFF78CDA04D2EC9E9BC203C3E9C475C06895334A650D30D59C27FB06504B030414000608080050796D57B19DCD30FD000000D7010000
311
2D00000031453837353130442D303333372D343043442D383837332D3338443933393330304435352F636F72652E786D6C95914D6EC3201085AF82D86383A96527C26451F7065D75476192A0C460F153F5F885DA55DB5DBB023DBE37C39B11A7F7E58EDE2044EBDD8459433102A7BDB1EE32E19CCE64C4E82445F03EFDC030
311
726A810957194B71093EAFBBA4BD4BE0AAEABC815D543142C248DFCB65C2515F61518DCAA910F1D6AC4ADFD4051AD66C9C14C92E5F561D4025305876B4E38431C2F833EB8F8C1E79F722DA4A4A91AD4BBCDB9BC1F20A06F935954858F6A2DD5E0B95ADD9196BCA1FEDD942C0923D8D43CFE84C28E70379A08F3319C781133E
311
CE077EE094CE7D2D52CC52C414CA64F62275067FB56FC65FC9F26AFE996C73C4D2F33B545BC72C45FBB98372D695C80F504B030414000608080050796D57B261949A07010000B201000008000000636F72652E786D6C8D50CB6EC32010FC15B4776C639C87224C9446F617F4D41B35C445B1C13210B57F5F88A9D4DE7A5A34
311
33BB330C3B7FCE137AA8D5696B5A2045054899C14A6DC61682BFE123A03367ABB5FE970C9011B36A21C1C0D9B8DAB06468B0C62B935063A5CAA0704E7940C3141F2DB8E143CDA210C14785BB178B18EE62540529361D675ECF3FABC3AA845712785DD5141382097D25BB13A94EB47E63655272168296D94ACBE8AE6F5AADC0
311
69B77F21B43FE09ED21E37FDA1C71772EDF065DF1CFBA6A1D7EEB863655AE6CCF935FE391F89393D72E2917C59B9519CBD5B3B65410C259135D317F08A9589F8133A2CF21FA1B5F1B4CE07B70D079CC4404F221AA706E378D61B676A9B7F03504B0102140014000608080050796D579FA7643DBF000000200100004F000000
311
000000000000000000000000000031453837353130442D303333372D343043442D383837332D3338443933393330304435352F4173736574446174612F446566696E6974696F6E4974657261746F7250726F706572746965732E62696E504B0102140014000608080050796D579879A9A0F000000030020000450000000000
311
00000000000000002C01000031453837353130442D303333372D343043442D383837332D3338443933393330304435352F4173736574446174612F496E7374616E636550726F706572746965732E62696E504B0102140014000608080050796D5728BB58AF800100009E0500003D000000000000000000000000007F020000
311
31453837353130442D303333372D343043442D383837332D3338443933393330304435352F536368656D61732F436F6D6D6F6E536368656D612E786D6C504B0102140014000608080050796D572CCEBD668A040000E01200003E000000000000000000000000005A04000031453837353130442D303333372D343043442D38
311
3837332D3338443933393330304435352F536368656D61732F47656E65726963536368656D612E786D6C504B0102140014000608080050796D576180134D5F0100006B03000045000000000000000000000000004009000031453837353130442D303333372D343043442D383837332D3338443933393330304435352F5363
311
68656D61732F52656E6465724D6174657269616C536368656D612E786D6C504B0102140014000608080050796D571DAF2DF851000000570000004700000000000000000000000000020B000031453837353130442D303333372D343043442D383837332D3338443933393330304435352F4173736574446174612F41737365
311
745461626C654F66436F6E74656E74732E62696E504B0102140014000608080050796D57F865834058000000680000004500000000000000000000000000B80B000031453837353130442D303333372D343043442D383837332D3338443933393330304435352F4173736574446174612F53747265616D56657273696F6E54
311
61626C652E696E66504B0102140014000608080050796D57C8785D92340100009A0400003600000000000000000000000000730C000031453837353130442D303333372D343043442D383837332D3338443933393330304435352F4173736574446174612F636E782E786D6C504B0102140014000608080050796D57A79508
311
FC080100004F0300003400000000000000000000000000FB0D000031453837353130442D303333372D343043442D383837332D3338443933393330304435352F536368656D61732F636E782E786D6C504B0102140014000608080050796D57410A3D5871000000A40000002C00000000000000000000000000550F00003145
311
3837353130442D303333372D343043442D383837332D3338443933393330304435352F636E782E786D6C504B0102140014000608080050796D5734D784487C000000A3000000070000000000000000000000000010100000636E782E786D6C504B0102140014000608080050796D5716E99B5DA60000003501000013000000
311
00000000000000000000B11000005B436F6E74656E745F54797065735D2E786D6C504B0102140014000608080050796D573DEE336E64000000790000001B00000000000000000000000000881100006175746F6465736B2D64657369676E2D7061636B6167652E786D6C504B0102140014000608080050796D5771D23186F8
311
0000009601000037000000000000000000000000002512000031453837353130442D303333372D343043442D383837332D3338443933393330304435352F4173736574446174612F636F72652E786D6C504B0102140014000608080050796D576C9B0B54F70000009401000035000000000000000000000000007213000031
311
453837353130442D303333372D343043442D383837332D3338443933393330304435352F536368656D61732F636F72652E786D6C504B0102140014000608080050796D57B19DCD30FD000000D70100002D00000000000000000000000000BC14000031453837353130442D303333372D343043442D383837332D3338443933
311
393330304435352F636F72652E786D6C504B0102140014000608080050796D57B261949A07010000B2010000080000000000000000000000000004160000636F72652E786D6C504B050600000000110011005A060000311700000000
310
504B030414000608080050796D57000000000000000000000000370000006662782F36314130463842322D424346362D343035322D393444352D3644393039313946303132382F617474726962757465732E62696E504B030414000608080050796D57000000000000000000000000350000006662782F3631413046384232
310
2D424346362D343035322D393444352D3644393039313946303132382F76657274696365732E62696E504B030414000608080050796D57F270F1330600000004000000360000006662782F36314130463842322D424346362D343035322D393444352D3644393039313946303132382F747269616E676C65732E62696E6366
310
60600000504B030414000608080050796D5751464CB48900000043010000360000006662782F36314130463842322D424346362D343035322D393444352D3644393039313946303132382F6469726563746F72792E786D6C9D8F310EC2300C45AF127987122606C71DD918B841D4B851A43646695A717C52A85029031293A5
310
A76FBF6FACEF7DA7264E43906840EF0FA03836E242F406C6DCEE4EA06AC22492573150D1F66C60C640E8938CB705396EEDD86DE9B5042FE27813D640EA63BB001C722AF6E55CB61E4863F58284D5D3F53DD715CE1C3985E63FD7F1B7EBDD617E9F1E504B030414000608080050796D57C362792538070000201C0000340000
310
006662782F36314130463842322D424346362D343035322D393444352D3644393039313946303132382F6F626A656374732E786D6CDD59DB6EDB3810FD1542FBB2FB20C9922FB10BC7852F496114698B1A5DEC9B40CB94C38D6E20A5C4D9AFDF2145CA922CDB4AB7058A4D80C461A8E1CC999933C3D1F4FD210AD133619C26
310
F1ADE1583D0391D84F7634DEDF1A7916986303BD9FA1294B92ACB2CF40318EC8AD21968DD974CF923C554B3B12E03C6CAEDE2FFE42DC273131901F62CE6F0DEE3F92085B38CF921DE14FD60E67D8DA0707CBB18A8D75B17B86D3C7C651296624CE4055588F418AD2C0A9FF0926D9B3A92D36D4B6B9DDB6F52F6CB3A5E17545
310
69CC331CFB275A35E4B8DDB4EA3B83D59D3B9C98C3C1A06F0E46AE632EEE172BD3B9E9F796A3E57232BF9B186836DD2649583A2025F10EBCF86ACC9CA92DFE539AAF5068D3DB4FE298F80ACDB60D3BA2E452C29B98D48075A469158714B65616FA1D8D3FB3AD132835956A686BE3F4EF6AF426DBBF0104DE254A192722CA79
310
C6C0D70AFB221F7A53BB58ADF9857214E18C308A4314D22DC30C1C045B0B07D5C4886C11A290C04C7A51CBABEA0A817D3D97DAB40CF23014F96BCC64A679908F24E35233FA0F6147EDABA7814E606D4EE36CAC8CCD5E53103199DA72B1F85FDF55FF2C80444188F7102D60A6D8D4771B782D0517AC57C6ECE3FDF6B011FCD0
310
7E78CA9294B04C449E4C669577DA8395D082E0EB004A816BDD774754BE02F49F00F952173405CF317A181C06DA7686631E242C02EFA01E327BF0A387C4C7934F53BB7C7886508D2BCF610A69FB8330AD99513BBB02E96CFA0C419FB0BE326EE3E31062FA81C622CF21505098C012F07DB03D18B33590292CC2533804EBE17B
310
6A8B8F087E1572806F1A1E6AA3DF0E8ED209D3CCB3A3AF3E40CC30EA97AEAAD9780EDFE10FC177BEDA7CDCE42CC03E795089BD22018D6906C5B45DA11AE8B594FFB6FE2433F2C49EDA2E1FCED92782385AFCB2517E41D231A08AA8C3856BE4CA0385740F431C9324E76ABD8DA8FC244C98B77DF58A1C6E3DEB4F1D04C56190
310
DF22025AC90CAABBCF682A403166CABC9209AD234E82075500EE0BA77A5BEC3F09783D1F18EB7BF480A8C5AC29348F520F47491E0BFA3E0DEFA66956BF27BF1C67E2F626EE7832D2C672295E678FA6865279714E84D333872C6BDE52ACA12517793400B66CB3C0879E29CFBC24C53ECDDA63A16184CA5000FBA2CA3B1A0439
310
07526F85A5A1B1D57786A857F9591E72597B75884723BC275E8045856B3DAF0650295C5BD08ACC3E4C38A731E1B2433961AE062A3D0B88A0885B2DB5250829F72292E1EF893F59F21AE1C748107AD04B65A29BBD1E7D5A41553DCF49149D5B127BD2FE578FE3280D8B2EED1A068EDB38A11557A1B438E219E2CDC399D7DB11
310
D9745F935EF282C6B793F4C9778B3F030FC33F1D1E7D0485D61B6AE475CF3AD6D09988AF3190CA68E8F46FB423AE61A58FCA440F12E6D035F9AFDE0BA1FBC76E84D6E91C4EC2C0A36198475E510F3212410B86B39C75CAD7D1B077E27CC50B8D84A89C14D0101AE4CEA4297B0FDD7D8055B2F938479A9563C0281AC31DAD93
310
212756B486B0F485BC8F8A6BD775EFBF5DEA7FE6CBEA3DE589BCBE246CD7AA69BD8DD01D986E18045DAA0A57C691943C9B56932F921797EB380CB410C56FC52D41450823CF540C26E40DA8F5FEC05F70E603916EE46F730119B123BB634F5113A7C61CC60C0ED5D2749F5ABDE900D989F2516BBCD6825023983660C1B30FE2
310
43F81583ABA1F3E3B6EA6AEC627D2D0A9B058395A31E17647DFEB069488195CE4F7F111891978604B5BA148DDC0551DFD6C77EB5214159F46D7DE1F1EC318FB631A6A2328AB0C0BBF4DD7B7997BCB5E1A2603B8B893B1CF5FAA6BB1C4DCCC1AABF30E7CEE0CE5C8EEF6EFACBD568090D84CD084F72E6136EBB76CFD3BD531A
310
EF756014D075B951C054E1FAD54FC773D3C1FFE31B45986CF1B958FC552F1465BB271AB2462E76BD50B412F5F66DDDBF7342D4ED45EC4D9D73312BD0017EB96C0119E97ADFBDB5D0A27527D1AE73A522BEB1F09EBDADFCF41A5323F4D6FA50DBD146F9752E86D9534B95D2B75BC96B77FDB13B9F3873D319DCDC008FADE6E6
310
78381A980367B17097F7EE6A34BA2B1157B5B06B5DF92538542B5B19A3C13498272185A13CD9A13D49E0060453870EFCCA22C2E5CD061A0055C6F51B810E4F3F1733D50C6F43FDB4FF8861301DAA8A9CFB3014855BC7ADA1D6D16F3006159348399CB29EA0F0A8683750CEE8AD01219051A82FD616C659727828A537C695E0
310
361CEFC59DA978AAFCFBF898400762E56857B9A70B2ECAB25A74C2702095EF0980ED7443F2FDA66B7510CEE0E336CF4A638E0B476B1408FA8540611C4CFD9E14BC07209ECB763996DC5383A4D364FE621C1452CD0CB3BD1CAF57F09EAFBED86232BEFE8CD230DF0B775EAAF73549A6E833C2BC18424D213094992916F7F0E5
310
3BFB0B4BE0155384EE290401FAFD301EFD612F93284AE262C99EAB175568F308AF9D76B61EF941E3D2833E46F63D6AAC0F732B4E2CBCE34FB000AE6554CC460B886B0150D2532500B447842FE0B1DAFEF50AA922506961ABADAB8047CEF4112492789723D2A6BAA13280845C00AD8A396DF9412F4C6D0643F0D9BF504B0304
310
14000608080050796D5791EEE1503E01000046050000300000006662782F36314130463842322D424346362D343035322D393444352D3644393039313946303132382F636E782E786D6CCD94C16AC3300C865F25F81E276E198CE2B8D0C39E6087B19BE3A89957C70AB632D6B79FDDA5DDC6E8D8A1D0DE8CFC0BFE4FFA915C
310
BF0FAE7883102DFA86095EB302BCC1CEFABE61136DCB7B56AC950C88F44DC60AAF0768582E3325FB80D338973AD8EAC9E5AAB37E37173551B0ED441059619C8EB161D1BCC0A0B99E083B883BDE69D25CF00011A76020F5931D60EE37013441C7D4A25E2C4B214AB17C14772B51AF968B675965A5922DA29BF5D613041C0B83
310
E9E193995A56F95BC929D859930998FA72C65BEB6595FE958CC9ADEF671DEDC7AC1B47678DA634A60A0D019549047A90D5A758C92AF3FEA07ED83C1D1D149D0D6008C3FE4A0310E7067032C65312FEC77F10FE8D8DED6BC2BDD6B6CFC2CEB62E867A4C6B4C71FDBDFF9422ED7B777BA13F19BB7CE6D329216B6E0FF9E8EB42
310
C4D5E1E4A5A5E70BA83E00504B030414000608080050796D578DED6E327E000000A30000000B0000006662782F636E782E786D6C4D8CD10A832018465F45FE7B379512052DD6C2F7886521330D97638F3F1D5DECEA83C3778EEA3F9B476F9B5E2E060DF44200D9F088B30BAB867C2C5800EA3B95623CFE6E80C2B4590D1543
310
A7D614F37EA2D92E53F6957A179E27E4F4468C18181EEE86E386B40CCB666C311F2591541A429928C6B52A657EBDB235DF7D01504B030414000608080050796D57A6D797065F0000008200000007000000636E782E786D6C4DCB3B0E80201045D1AD90E9FD7516806B51190811670C8A61F982B1B0BAC9C97B72CA7B1037C6
310
D3332918DA1E04D2CAC69353902EDB8C20262D23F3F59B81A079470595414B17391D1F19B4730A5583A7ED43BBE4025D9592775E5ADFFA01504B030414000608080050796D574FEB6A7CA0000000F4000000130000005B436F6E74656E745F54797065735D2E786D6C7D8F4B0EC2300C44AF1279DFA6B0400835ED02B80117
310
30C16D239A8F121795DB93D02D6269CFBC19BBED573B8B17C564BC53B0AB1B10E4B47F18372A5878A88E20FAAEBDBD032591BD2E299898C349CAA427B2986A1FC86565F0D122E7318E32A07EE24872DF3407A9BD63725C71C980AEBDD080CBCCE2BAE6F5D69B7110E7CD57AA146008B3D1C8F92C5954F993BB1BF787F39A89
310
ABC491D09600F9FDA2FB00504B030414000608080050796D573DEE336E64000000790000001B0000006175746F6465736B2D64657369676E2D7061636B6167652E786D6C35CBC10E83200C00D05F21DCA56CA76D41FC96062B120735B69A7DBE268BB7777961F8D5AF396893C2ADB70FE7ADA196782C2DF776D7A97B5933C4
310
30F15651E5469C55D70F80A4992A3ADC954792C525AE70A1E4D6AD9816CC044FEFDF01FE3FDE907802504B030414000608080050796D5705F0733FF9000000960100003B0000006662782F36314130463842322D424346362D343035322D393444352D3644393039313946303132382F7265736F75726365732F636F72652E
310
786D6C8550CB6E833010FC15B4770336813C641C1550BFA0A7DE2CB349AD043BF2A3EAE7D70E546A4F3DED6A76667677F8F96BB9179FE8BCB6A6075AD650A05176D6E6DA430C177280E22CB8B336FCA24161E4823D641804BF3A1B1F1BA4AC0968326AEC8C1B28BDC70085BAA7A607AF3E7091A58C2131FCAD7C487593572C
310
69B9F2048F51CF9B54CFC94D5F343A10D3CB38757B5693E130B46437761D1958FB4AC6C37E3AEE8FACA1F58E57592C78D0CBCF76E550069C41B09A358452429B37DA9E687D6AD83BAF3253701F5CFA795B9ABF03E1D0DBE8147A5EADD33FAEF131FFEF1AB5090DDB5C57850741D391CF81E0554E29956784A9E644C537504B
310
030414000608080050796D578C8109FBF2000000B1010000310000006662782F36314130463842322D424346362D343035322D393444352D3644393039313946303132382F636F72652E786D6C8D50CB6EC32010FC156BEFD88063CB8E3051D3C85FD0536F08130725068B47D5CF2FC4AED4DE725A343BC3CC0E3B7D2F8FE2
310
4B39AFAD198094180A65A49DB4990788E18A3A284E9C396BC31F1A14462C6A800C0367B3B371DD21694D5026A3C64E6A0785F72A40211FE931809737B58852C49018FE5EAE42DEC5AC4A526E3CCE825E7EA5D22911D4049C625A234210A93F487324F858D34F5665266731EA69B7D25372D757AD1CF096BCE1B13B53747E1F
310
5B74C00D45FDE1D2A0F6D2E39EF42326B463551673E6834B37EF9FE4EB5E956FC27F99E33ABD90599B50D3DD705378E024E5792E38AB7281693CDB4D3397CD7F00504B030414000608080050796D57F30D806253010000DD0200000C0000006662782F636F72652E786D6C8D52DB6E842014FC15C33B2AB8F7209BEE6EFA05
310
7DEA1B8B68C92A1804B39F5FF012EB43B78D099239E7CC9C9940CECFA68E7A613AA9550E509C824828AE0BA9AA1C385BC20388CE9418ADED8F361029D6881C0418505219EDDA09E25A59A102AA74212690759DB020E2B5BFE4A0E35FA2613173D677748FB865FCC12A11A378ECA3C439594CA3B2F06CB294C2007A7BBBDE76
310
7B9CC2CBE1B2859BEB6E072F78FB0EAF87FDEDB83FE20CA51B9284614AAC6C66756E04B3A20014A738830841947DA0ED09A5A70C7F92247452D259E33D4FA2C11DA0E5FD4992115FF1B9B6F89BCF4965333CF18D131DA0C8AF37142849423EFE3784B7CED00BFBFC2CBBD7B38587877AC1AD361B5F29B45B4A3DAB9DF0D469
310
347C2419AB9E7920F88D07BFE079CDE18362AAF2AB31EBAF776783FA7AA75618D8DB67A4B46958BD2C37AEB89C8BD0CAD23CCE75ADCD7FA667AB7398497898F41B504B030414000608080050796D574A91861B08010000B201000008000000636F72652E786D6C8D50CB6EC32010FC15B4776C83E347224C543BEA17F4D41B
310
35C441B1C132386AFFBE10BB527BEB69D1CCECCE30ECFC398DE8A116A7AD6980241920657A2BB5191A58FD15D780CE9C2DD6FA5F3240464CAA81080367C362D779877A6BBC32113556AA1D14CE290FA81FC3A301D7DFD42412B1FAA070F76416FD5D0C2A21C9A6E3CCEBE967B55F94F04A02A719CD312198E46FA43891EC94
310
D37796462567EBAAE56EA56570D757AD16E09797EE525634C36DDD16F8D095256E69F18ABBBABA1CAB23CD497660695CE6CCF925FC793F12727AE4C423FAB274A338FBB076DC05219444D68C5FC0339646E24FE87596FF08AD8DCFE97E70DB70C04908F42482716C308C67BD61C6B6F937504B010214001400060808005079
310
6D570000000000000000000000003700000000000000000000000000000000006662782F36314130463842322D424346362D343035322D393444352D3644393039313946303132382F617474726962757465732E62696E504B0102140014000608080050796D57000000000000000000000000350000000000000000000000
310
0000550000006662782F36314130463842322D424346362D343035322D393444352D3644393039313946303132382F76657274696365732E62696E504B0102140014000608080050796D57F270F13306000000040000003600000000000000000000000000A80000006662782F36314130463842322D424346362D34303532
310
2D393444352D3644393039313946303132382F747269616E676C65732E62696E504B0102140014000608080050796D5751464CB489000000430100003600000000000000000000000000020100006662782F36314130463842322D424346362D343035322D393444352D3644393039313946303132382F6469726563746F72
310
792E786D6C504B0102140014000608080050796D57C362792538070000201C00003400000000000000000000000000DF0100006662782F36314130463842322D424346362D343035322D393444352D3644393039313946303132382F6F626A656374732E786D6C504B0102140014000608080050796D5791EEE1503E010000
310
460500003000000000000000000000000000690900006662782F36314130463842322D424346362D343035322D393444352D3644393039313946303132382F636E782E786D6C504B0102140014000608080050796D578DED6E327E000000A30000000B00000000000000000000000000F50A00006662782F636E782E786D6C
310
504B0102140014000608080050796D57A6D797065F0000008200000007000000000000000000000000009C0B0000636E782E786D6C504B0102140014000608080050796D574FEB6A7CA0000000F40000001300000000000000000000000000200C00005B436F6E74656E745F54797065735D2E786D6C504B01021400140006
310
08080050796D573DEE336E64000000790000001B00000000000000000000000000F10C00006175746F6465736B2D64657369676E2D7061636B6167652E786D6C504B0102140014000608080050796D5705F0733FF9000000960100003B000000000000000000000000008E0D00006662782F36314130463842322D42434636
310
2D343035322D393444352D3644393039313946303132382F7265736F75726365732F636F72652E786D6C504B0102140014000608080050796D578C8109FBF2000000B10100003100000000000000000000000000E00E00006662782F36314130463842322D424346362D343035322D393444352D3644393039313946303132
310
382F636F72652E786D6C504B0102140014000608080050796D57F30D806253010000DD0200000C00000000000000000000000000211000006662782F636F72652E786D6C504B0102140014000608080050796D574A91861B08010000B201000008000000000000000000000000009E110000636F72652E786D6C504B050600
310
0000000E000E0080040000CC1200000000
  0
XRECORD
  5
80D9
102
{ACAD_REACTORS
330
80D4
102
}
330
80D4
100
AcDbXrecord
280
     1
270
     1
271
     1
  0
XRECORD
  5
80D8
102
{ACAD_REACTORS
330
80D4
102
}
330
80D4
100
AcDbXrecord
280
     1
270
     1
271
     1
  0
XRECORD
  5
80DA
102
{ACAD_REACTORS
330
80D4
102
}
330
80D4
100
AcDbXrecord
280
     1
270
     1
271
     1
  0
XRECORD
  5
80D7
102
{ACAD_REACTORS
330
80D4
102
}
330
80D4
100
AcDbXrecord
280
     1
270
     1
271
     1
  0
XRECORD
  5
832C
102
{ACAD_REACTORS
330
832B
102
}
330
832B
100
AcDbXrecord
280
     1
102
DISPLAYNAME
  1
Imperial24
102
FLAGS
 90
        0
  0
CELLSTYLEMAP
  5
82F3
102
{ACAD_REACTORS
330
82F2
102
}
330
82F2
100
AcDbCellStyleMap
 90
        3
300
CELLSTYLE
  1
TABLEFORMAT_BEGIN
 90
        5
170
     1
 91
        0
 92
    32768
 62
   257
 93
        1
300
CONTENTFORMAT
  1
CONTENTFORMAT_BEGIN
 90
        0
 91
        0
 92
      512
 93
        0
300

 40
0.0
140
1.0
 94
        5
 62
     0
340
8107
144
0.25
309
CONTENTFORMAT_END
171
     0
 94
        0
309
TABLEFORMAT_END
  1
CELLSTYLE_BEGIN
 90
        1
 91
        1
300
_TITLE
309
CELLSTYLE_END
300
CELLSTYLE
  1
TABLEFORMAT_BEGIN
 90
        5
170
     1
 91
        0
 92
        0
 62
   257
 93
        1
300
CONTENTFORMAT
  1
CONTENTFORMAT_BEGIN
 90
        0
 91
        0
 92
      512
 93
        0
300

 40
0.0
140
1.0
 94
        5
 62
     0
340
8107
144
0.18
309
CONTENTFORMAT_END
171
     0
 94
        0
309
TABLEFORMAT_END
  1
CELLSTYLE_BEGIN
 90
        2
 91
        1
300
_HEADER
309
CELLSTYLE_END
300
CELLSTYLE
  1
TABLEFORMAT_BEGIN
 90
        5
170
     1
 91
        0
 92
        0
 62
   257
 93
        1
300
CONTENTFORMAT
  1
CONTENTFORMAT_BEGIN
 90
        0
 91
        0
 92
      512
 93
        0
300

 40
0.0
140
1.0
 94
        2
 62
     0
340
8107
144
0.18
309
CONTENTFORMAT_END
171
     0
 94
        0
309
TABLEFORMAT_END
  1
CELLSTYLE_BEGIN
 90
        3
 91
        2
300
_DATA
309
CELLSTYLE_END
  0
XRECORD
  5
8329
102
{ACAD_REACTORS
330
82F2
102
}
330
82F2
100
AcDbXrecord
280
     1
102
ACAD_ROUNDTRIP_PRE2007_TABLESTYLE
 90
      512
 91
        0
  1

 92
      512
 93
        0
  2

 94
      512
 95
        0
  3

  0
XRECORD
  5
8304
102
{ACAD_REACTORS
330
8303
102
}
330
8303
100
AcDbXrecord
280
     1
102
RTVSPost2010Prop28
280
     1
102
RTVSPost2010PropOp28
 70
     1
102
RTVSPost2010Prop29
280
     1
102
RTVSPost2010PropOp29
 70
     1
102
RTVSPost2010Prop30
280
     0
102
RTVSPost2010PropOp30
 70
     1
102
RTVSPost2010Prop31
280
     0
102
RTVSPost2010PropOp31
 70
     1
102
RTVSPost2010Prop32
280
     0
102
RTVSPost2010PropOp32
 70
     1
102
RTVSPost2010Prop33
280
     0
102
RTVSPost2010PropOp33
 70
     1
102
RTVSPost2010Prop34
280
     0
102
RTVSPost2010PropOp34
 70
     1
102
RTVSPost2010Prop35
280
     0
102
RTVSPost2010PropOp35
 70
     1
102
RTVSPost2010Prop36
280
     0
102
RTVSPost2010PropOp36
 70
     1
102
RTVSPost2010Prop37
 90
       50
102
RTVSPost2010PropOp37
 70
     1
102
RTVSPost2010Prop38
140
0.0
102
RTVSPost2010PropOp38
 70
     1
102
RTVSPost2010Prop39
140
1.0
102
RTVSPost2010PropOp39
 70
     1
102
RTVSPost2010Prop40
 90
        0
102
RTVSPost2010PropOp40
 70
     1
102
RTVSPost2010Prop41ColorIndex
 90
       18
102
RTVSPost2010Prop41ColorRGB
 90
        0
102
RTVSPost2010PropOp41
 70
     1
102
RTVSPost2010Prop42
 90
       50
102
RTVSPost2010PropOp42
 70
     1
102
RTVSPost2010Prop43
 90
        3
102
RTVSPost2010PropOp43
 70
     1
102
RTVSPost2010Prop44ColorIndex
 90
        5
102
RTVSPost2010Prop44ColorRGB
 90
      255
102
RTVSPost2010PropOp44
 70
     1
102
RTVSPost2010Prop45
280
     0
102
RTVSPost2010PropOp45
 70
     1
102
RTVSPost2010Prop46
 90
       50
102
RTVSPost2010PropOp46
 70
     1
102
RTVSPost2010Prop47
 90
       50
102
RTVSPost2010PropOp47
 70
     1
102
RTVSPost2010Prop48
 90
       50
102
RTVSPost2010PropOp48
 70
     1
102
RTVSPost2010Prop49
280
     0
102
RTVSPost2010PropOp49
 70
     1
102
RTVSPost2010Prop50
 90
       50
102
RTVSPost2010PropOp50
 70
     1
102
RTVSPost2010Prop51ColorIndex
 90
      256
102
RTVSPost2010Prop51ColorRGB
 90
-16777216
102
RTVSPost2010PropOp51
 70
     0
102
RTVSPost2010Prop52
140
1.0
102
RTVSPost2010PropOp52
 70
     0
102
RTVSPost2010Prop53
 90
        2
102
RTVSPost2010PropOp53
 70
     1
102
RTVSPost2010Prop54
  1
strokes_ogs.tif
102
RTVSPost2010PropOp54
 70
     1
102
RTVSPost2010Prop55
280
     0
102
RTVSPost2010PropOp55
 70
     1
102
RTVSPost2010Prop56
140
1.0
102
RTVSPost2010PropOp56
 70
     1
102
RTVSPost2010Prop57
140
1.0
102
RTVSPost2010PropOp57
 70
     1
102
RTVSPropertyOp0
 70
     1
102
RTVSPropertyOp1
 70
     1
102
RTVSPropertyOp2
 70
     1
102
RTVSPropertyOp3
 70
     1
102
RTVSPropertyOp4
 70
     1
102
RTVSPropertyOp5
 70
     1
102
RTVSPropertyOp6
 70
     1
102
RTVSPropertyOp7
 70
     1
102
RTVSPropertyOp8
 70
     1
102
RTVSPropertyOp9
 70
     1
102
RTVSPropertyOp10
 70
     1
102
RTVSPropertyOp11
 70
     1
102
RTVSPropertyOp12
 70
     1
102
RTVSPropertyOp13
 70
     1
102
RTVSPropertyOp14
 70
     1
102
RTVSPropertyOp15
 70
     1
102
RTVSPropertyOp16
 70
     1
102
RTVSPropertyOp17
 70
     1
102
RTVSPropertyOp18
 70
     1
102
RTVSPropertyOp19
 70
     1
102
RTVSPropertyOp20
 70
     1
102
RTVSPropertyOp21
 70
     1
102
RTVSPropertyOp22
 70
     1
102
RTVSPropertyOp23
 70
     1
102
RTVSPropertyOp24
 70
     1
102
RTVSPropertyOp25
 70
     1
102
RTVSPropertyOp26
 70
     1
102
RTVSPropertyOp27
 70
     1
102
RTVSPropertyOp28
 70
     1
102
RTVSPropertyOp29
 70
     1
102
RTVSPropertyOp30
 70
     1
102
RTVSPropertyOp31
 70
     1
102
RTVSPropertyOp32
 70
     1
102
RTVSPropertyOp33
 70
     1
102
RTVSPropertyOp34
 70
     1
102
RTVSPropertyOp35
 70
     1
102
RTVSPropertyOp36
 70
     1
102
RTVSPropertyOp37
 70
     1
102
RTVSPropertyOp38
 70
     1
102
RTVSPropertyOp39
 70
     1
102
RTVSPropertyOp40
 70
     1
102
RTVSPropertyOp41
 70
     1
102
RTVSPropertyOp42
 70
     1
102
RTVSPropertyOp43
 70
     1
102
RTVSPropertyOp44
 70
     1
102
RTVSPropertyOp45
 70
     1
102
RTVSPropertyOp46
 70
     1
102
RTVSPropertyOp47
 70
     1
102
RTVSPropertyOp48
 70
     1
102
RTVSPropertyOp49
 70
     1
102
RTVSPropertyOp50
 70
     1
102
RTVSPropertyOp51
 70
     0
102
RTVSPropertyOp52
 70
     0
102
RTVSPropertyOp53
 70
     1
102
RTVSPropertyOp54
 70
     1
102
RTVSPropertyOp55
 70
     1
102
RTVSPropertyOp56
 70
     1
102
RTVSPropertyOp57
 70
     1
102
RTVSPropertyOp58
 70
     1
102
RTVSPropertyOp59
 70
     1
102
RTVSPropertyOp60
 70
     1
102
RTVSPropertyOp61
 70
     1
102
RTVSPropertyOp62
 70
     1
  0
XRECORD
  5
8302
102
{ACAD_REACTORS
330
8301
102
}
330
8301
100
AcDbXrecord
280
     1
102
RTVSPost2010Prop28
280
     0
102
RTVSPost2010PropOp28
 70
     1
102
RTVSPost2010Prop29
280
     1
102
RTVSPost2010PropOp29
 70
     1
102
RTVSPost2010Prop30
280
     1
102
RTVSPost2010PropOp30
 70
     1
102
RTVSPost2010Prop31
280
     0
102
RTVSPost2010PropOp31
 70
     1
102
RTVSPost2010Prop32
280
     0
102
RTVSPost2010PropOp32
 70
     1
102
RTVSPost2010Prop33
280
     0
102
RTVSPost2010PropOp33
 70
     1
102
RTVSPost2010Prop34
280
     0
102
RTVSPost2010PropOp34
 70
     1
102
RTVSPost2010Prop35
280
     0
102
RTVSPost2010PropOp35
 70
     1
102
RTVSPost2010Prop36
280
     0
102
RTVSPost2010PropOp36
 70
     1
102
RTVSPost2010Prop37
 90
       50
102
RTVSPost2010PropOp37
 70
     1
102
RTVSPost2010Prop38
140
0.0
102
RTVSPost2010PropOp38
 70
     1
102
RTVSPost2010Prop39
140
1.0
102
RTVSPost2010PropOp39
 70
     1
102
RTVSPost2010Prop40
 90
        0
102
RTVSPost2010PropOp40
 70
     1
102
RTVSPost2010Prop41ColorIndex
 90
       18
102
RTVSPost2010Prop41ColorRGB
 90
        0
102
RTVSPost2010PropOp41
 70
     1
102
RTVSPost2010Prop42
 90
       50
102
RTVSPost2010PropOp42
 70
     1
102
RTVSPost2010Prop43
 90
        3
102
RTVSPost2010PropOp43
 70
     1
102
RTVSPost2010Prop44ColorIndex
 90
        5
102
RTVSPost2010Prop44ColorRGB
 90
      255
102
RTVSPost2010PropOp44
 70
     1
102
RTVSPost2010Prop45
280
     0
102
RTVSPost2010PropOp45
 70
     1
102
RTVSPost2010Prop46
 90
       50
102
RTVSPost2010PropOp46
 70
     1
102
RTVSPost2010Prop47
 90
       50
102
RTVSPost2010PropOp47
 70
     1
102
RTVSPost2010Prop48
 90
       50
102
RTVSPost2010PropOp48
 70
     1
102
RTVSPost2010Prop49
280
     0
102
RTVSPost2010PropOp49
 70
     1
102
RTVSPost2010Prop50
 90
       50
102
RTVSPost2010PropOp50
 70
     1
102
RTVSPost2010Prop51ColorIndex
 90
      256
102
RTVSPost2010Prop51ColorRGB
 90
-16777216
102
RTVSPost2010PropOp51
 70
     0
102
RTVSPost2010Prop52
140
1.0
102
RTVSPost2010PropOp52
 70
     0
102
RTVSPost2010Prop53
 90
        2
102
RTVSPost2010PropOp53
 70
     1
102
RTVSPost2010Prop54
  1
strokes_ogs.tif
102
RTVSPost2010PropOp54
 70
     1
102
RTVSPost2010Prop55
280
     0
102
RTVSPost2010PropOp55
 70
     1
102
RTVSPost2010Prop56
140
1.0
102
RTVSPost2010PropOp56
 70
     1
102
RTVSPost2010Prop57
140
1.0
102
RTVSPost2010PropOp57
 70
     1
102
RTVSPropertyOp0
 70
     1
102
RTVSPropertyOp1
 70
     1
102
RTVSPropertyOp2
 70
     1
102
RTVSPropertyOp3
 70
     1
102
RTVSPropertyOp4
 70
     1
102
RTVSPropertyOp5
 70
     1
102
RTVSPropertyOp6
 70
     1
102
RTVSPropertyOp7
 70
     1
102
RTVSPropertyOp8
 70
     1
102
RTVSPropertyOp9
 70
     1
102
RTVSPropertyOp10
 70
     1
102
RTVSPropertyOp11
 70
     1
102
RTVSPropertyOp12
 70
     1
102
RTVSPropertyOp13
 70
     1
102
RTVSPropertyOp14
 70
     1
102
RTVSPropertyOp15
 70
     1
102
RTVSPropertyOp16
 70
     1
102
RTVSPropertyOp17
 70
     1
102
RTVSPropertyOp18
 70
     1
102
RTVSPropertyOp19
 70
     1
102
RTVSPropertyOp20
 70
     1
102
RTVSPropertyOp21
 70
     1
102
RTVSPropertyOp22
 70
     1
102
RTVSPropertyOp23
 70
     1
102
RTVSPropertyOp24
 70
     1
102
RTVSPropertyOp25
 70
     1
102
RTVSPropertyOp26
 70
     1
102
RTVSPropertyOp27
 70
     1
102
RTVSPropertyOp28
 70
     1
102
RTVSPropertyOp29
 70
     1
102
RTVSPropertyOp30
 70
     1
102
RTVSPropertyOp31
 70
     1
102
RTVSPropertyOp32
 70
     1
102
RTVSPropertyOp33
 70
     1
102
RTVSPropertyOp34
 70
     1
102
RTVSPropertyOp35
 70
     1
102
RTVSPropertyOp36
 70
     1
102
RTVSPropertyOp37
 70
     1
102
RTVSPropertyOp38
 70
     1
102
RTVSPropertyOp39
 70
     1
102
RTVSPropertyOp40
 70
     1
102
RTVSPropertyOp41
 70
     1
102
RTVSPropertyOp42
 70
     1
102
RTVSPropertyOp43
 70
     1
102
RTVSPropertyOp44
 70
     1
102
RTVSPropertyOp45
 70
     1
102
RTVSPropertyOp46
 70
     1
102
RTVSPropertyOp47
 70
     1
102
RTVSPropertyOp48
 70
     1
102
RTVSPropertyOp49
 70
     1
102
RTVSPropertyOp50
 70
     1
102
RTVSPropertyOp51
 70
     0
102
RTVSPropertyOp52
 70
     0
102
RTVSPropertyOp53
 70
     1
102
RTVSPropertyOp54
 70
     1
102
RTVSPropertyOp55
 70
     1
102
RTVSPropertyOp56
 70
     1
102
RTVSPropertyOp57
 70
     1
102
RTVSPropertyOp58
 70
     1
102
RTVSPropertyOp59
 70
     1
102
RTVSPropertyOp60
 70
     1
102
RTVSPropertyOp61
 70
     1
102
RTVSPropertyOp62
 70
     1
  0
XRECORD
  5
8310
102
{ACAD_REACTORS
330
830F
102
}
330
830F
100
AcDbXrecord
280
     1
102
RTVSPost2010Prop28
280
     0
102
RTVSPost2010PropOp28
 70
     1
102
RTVSPost2010Prop29
280
     1
102
RTVSPost2010PropOp29
 70
     1
102
RTVSPost2010Prop30
280
     1
102
RTVSPost2010PropOp30
 70
     1
102
RTVSPost2010Prop31
280
     0
102
RTVSPost2010PropOp31
 70
     1
102
RTVSPost2010Prop32
280
     0
102
RTVSPost2010PropOp32
 70
     1
102
RTVSPost2010Prop33
280
     0
102
RTVSPost2010PropOp33
 70
     1
102
RTVSPost2010Prop34
280
     0
102
RTVSPost2010PropOp34
 70
     1
102
RTVSPost2010Prop35
280
     0
102
RTVSPost2010PropOp35
 70
     1
102
RTVSPost2010Prop36
280
     0
102
RTVSPost2010PropOp36
 70
     1
102
RTVSPost2010Prop37
 90
       50
102
RTVSPost2010PropOp37
 70
     1
102
RTVSPost2010Prop38
140
0.0
102
RTVSPost2010PropOp38
 70
     1
102
RTVSPost2010Prop39
140
1.0
102
RTVSPost2010PropOp39
 70
     1
102
RTVSPost2010Prop40
 90
        0
102
RTVSPost2010PropOp40
 70
     1
102
RTVSPost2010Prop41ColorIndex
 90
       18
102
RTVSPost2010Prop41ColorRGB
 90
        0
102
RTVSPost2010PropOp41
 70
     1
102
RTVSPost2010Prop42
 90
       50
102
RTVSPost2010PropOp42
 70
     1
102
RTVSPost2010Prop43
 90
        3
102
RTVSPost2010PropOp43
 70
     1
102
RTVSPost2010Prop44ColorIndex
 90
        5
102
RTVSPost2010Prop44ColorRGB
 90
      255
102
RTVSPost2010PropOp44
 70
     1
102
RTVSPost2010Prop45
280
     0
102
RTVSPost2010PropOp45
 70
     1
102
RTVSPost2010Prop46
 90
       50
102
RTVSPost2010PropOp46
 70
     1
102
RTVSPost2010Prop47
 90
       50
102
RTVSPost2010PropOp47
 70
     1
102
RTVSPost2010Prop48
 90
       50
102
RTVSPost2010PropOp48
 70
     1
102
RTVSPost2010Prop49
280
     0
102
RTVSPost2010PropOp49
 70
     1
102
RTVSPost2010Prop50
 90
       50
102
RTVSPost2010PropOp50
 70
     1
102
RTVSPost2010Prop51ColorIndex
 90
      256
102
RTVSPost2010Prop51ColorRGB
 90
-16777216
102
RTVSPost2010PropOp51
 70
     0
102
RTVSPost2010Prop52
140
1.0
102
RTVSPost2010PropOp52
 70
     0
102
RTVSPost2010Prop53
 90
        2
102
RTVSPost2010PropOp53
 70
     1
102
RTVSPost2010Prop54
  1
strokes_ogs.tif
102
RTVSPost2010PropOp54
 70
     1
102
RTVSPost2010Prop55
280
     0
102
RTVSPost2010PropOp55
 70
     1
102
RTVSPost2010Prop56
140
1.0
102
RTVSPost2010PropOp56
 70
     1
102
RTVSPost2010Prop57
140
1.0
102
RTVSPost2010PropOp57
 70
     1
102
RTVSPropertyOp0
 70
     1
102
RTVSPropertyOp1
 70
     1
102
RTVSPropertyOp2
 70
     1
102
RTVSPropertyOp3
 70
     1
102
RTVSPropertyOp4
 70
     1
102
RTVSPropertyOp5
 70
     1
102
RTVSPropertyOp6
 70
     1
102
RTVSPropertyOp7
 70
     1
102
RTVSPropertyOp8
 70
     1
102
RTVSPropertyOp9
 70
     1
102
RTVSPropertyOp10
 70
     1
102
RTVSPropertyOp11
 70
     1
102
RTVSPropertyOp12
 70
     1
102
RTVSPropertyOp13
 70
     1
102
RTVSPropertyOp14
 70
     1
102
RTVSPropertyOp15
 70
     1
102
RTVSPropertyOp16
 70
     1
102
RTVSPropertyOp17
 70
     1
102
RTVSPropertyOp18
 70
     1
102
RTVSPropertyOp19
 70
     1
102
RTVSPropertyOp20
 70
     1
102
RTVSPropertyOp21
 70
     1
102
RTVSPropertyOp22
 70
     1
102
RTVSPropertyOp23
 70
     1
102
RTVSPropertyOp24
 70
     1
102
RTVSPropertyOp25
 70
     1
102
RTVSPropertyOp26
 70
     1
102
RTVSPropertyOp27
 70
     1
102
RTVSPropertyOp28
 70
     1
102
RTVSPropertyOp29
 70
     1
102
RTVSPropertyOp30
 70
     1
102
RTVSPropertyOp31
 70
     1
102
RTVSPropertyOp32
 70
     1
102
RTVSPropertyOp33
 70
     1
102
RTVSPropertyOp34
 70
     1
102
RTVSPropertyOp35
 70
     1
102
RTVSPropertyOp36
 70
     1
102
RTVSPropertyOp37
 70
     1
102
RTVSPropertyOp38
 70
     1
102
RTVSPropertyOp39
 70
     1
102
RTVSPropertyOp40
 70
     1
102
RTVSPropertyOp41
 70
     1
102
RTVSPropertyOp42
 70
     1
102
RTVSPropertyOp43
 70
     1
102
RTVSPropertyOp44
 70
     1
102
RTVSPropertyOp45
 70
     1
102
RTVSPropertyOp46
 70
     1
102
RTVSPropertyOp47
 70
     1
102
RTVSPropertyOp48
 70
     1
102
RTVSPropertyOp49
 70
     1
102
RTVSPropertyOp50
 70
     1
102
RTVSPropertyOp51
 70
     0
102
RTVSPropertyOp52
 70
     0
102
RTVSPropertyOp53
 70
     1
102
RTVSPropertyOp54
 70
     1
102
RTVSPropertyOp55
 70
     1
102
RTVSPropertyOp56
 70
     1
102
RTVSPropertyOp57
 70
     1
102
RTVSPropertyOp58
 70
     1
102
RTVSPropertyOp59
 70
     1
102
RTVSPropertyOp60
 70
     1
102
RTVSPropertyOp61
 70
     1
102
RTVSPropertyOp62
 70
     1
  0
XRECORD
  5
8318
102
{ACAD_REACTORS
330
8317
102
}
330
8317
100
AcDbXrecord
280
     1
102
RTVSPost2010Prop28
280
     0
102
RTVSPost2010PropOp28
 70
     1
102
RTVSPost2010Prop29
280
     1
102
RTVSPost2010PropOp29
 70
     1
102
RTVSPost2010Prop30
280
     1
102
RTVSPost2010PropOp30
 70
     1
102
RTVSPost2010Prop31
280
     0
102
RTVSPost2010PropOp31
 70
     1
102
RTVSPost2010Prop32
280
     0
102
RTVSPost2010PropOp32
 70
     1
102
RTVSPost2010Prop33
280
     0
102
RTVSPost2010PropOp33
 70
     1
102
RTVSPost2010Prop34
280
     0
102
RTVSPost2010PropOp34
 70
     1
102
RTVSPost2010Prop35
280
     0
102
RTVSPost2010PropOp35
 70
     1
102
RTVSPost2010Prop36
280
     0
102
RTVSPost2010PropOp36
 70
     1
102
RTVSPost2010Prop37
 90
       50
102
RTVSPost2010PropOp37
 70
     1
102
RTVSPost2010Prop38
140
0.0
102
RTVSPost2010PropOp38
 70
     1
102
RTVSPost2010Prop39
140
1.0
102
RTVSPost2010PropOp39
 70
     1
102
RTVSPost2010Prop40
 90
        0
102
RTVSPost2010PropOp40
 70
     1
102
RTVSPost2010Prop41ColorIndex
 90
       18
102
RTVSPost2010Prop41ColorRGB
 90
        0
102
RTVSPost2010PropOp41
 70
     1
102
RTVSPost2010Prop42
 90
       50
102
RTVSPost2010PropOp42
 70
     1
102
RTVSPost2010Prop43
 90
        3
102
RTVSPost2010PropOp43
 70
     1
102
RTVSPost2010Prop44ColorIndex
 90
        5
102
RTVSPost2010Prop44ColorRGB
 90
      255
102
RTVSPost2010PropOp44
 70
     1
102
RTVSPost2010Prop45
280
     0
102
RTVSPost2010PropOp45
 70
     1
102
RTVSPost2010Prop46
 90
       50
102
RTVSPost2010PropOp46
 70
     1
102
RTVSPost2010Prop47
 90
       50
102
RTVSPost2010PropOp47
 70
     1
102
RTVSPost2010Prop48
 90
       50
102
RTVSPost2010PropOp48
 70
     1
102
RTVSPost2010Prop49
280
     0
102
RTVSPost2010PropOp49
 70
     1
102
RTVSPost2010Prop50
 90
       50
102
RTVSPost2010PropOp50
 70
     1
102
RTVSPost2010Prop51ColorIndex
 90
      256
102
RTVSPost2010Prop51ColorRGB
 90
-16777216
102
RTVSPost2010PropOp51
 70
     0
102
RTVSPost2010Prop52
140
1.0
102
RTVSPost2010PropOp52
 70
     0
102
RTVSPost2010Prop53
 90
        2
102
RTVSPost2010PropOp53
 70
     1
102
RTVSPost2010Prop54
  1
strokes_ogs.tif
102
RTVSPost2010PropOp54
 70
     1
102
RTVSPost2010Prop55
280
     0
102
RTVSPost2010PropOp55
 70
     1
102
RTVSPost2010Prop56
140
1.0
102
RTVSPost2010PropOp56
 70
     1
102
RTVSPost2010Prop57
140
1.0
102
RTVSPost2010PropOp57
 70
     1
102
RTVSPropertyOp0
 70
     1
102
RTVSPropertyOp1
 70
     1
102
RTVSPropertyOp2
 70
     1
102
RTVSPropertyOp3
 70
     1
102
RTVSPropertyOp4
 70
     1
102
RTVSPropertyOp5
 70
     1
102
RTVSPropertyOp6
 70
     1
102
RTVSPropertyOp7
 70
     1
102
RTVSPropertyOp8
 70
     1
102
RTVSPropertyOp9
 70
     1
102
RTVSPropertyOp10
 70
     1
102
RTVSPropertyOp11
 70
     1
102
RTVSPropertyOp12
 70
     1
102
RTVSPropertyOp13
 70
     1
102
RTVSPropertyOp14
 70
     1
102
RTVSPropertyOp15
 70
     1
102
RTVSPropertyOp16
 70
     1
102
RTVSPropertyOp17
 70
     1
102
RTVSPropertyOp18
 70
     1
102
RTVSPropertyOp19
 70
     1
102
RTVSPropertyOp20
 70
     1
102
RTVSPropertyOp21
 70
     1
102
RTVSPropertyOp22
 70
     1
102
RTVSPropertyOp23
 70
     1
102
RTVSPropertyOp24
 70
     1
102
RTVSPropertyOp25
 70
     1
102
RTVSPropertyOp26
 70
     1
102
RTVSPropertyOp27
 70
     1
102
RTVSPropertyOp28
 70
     1
102
RTVSPropertyOp29
 70
     1
102
RTVSPropertyOp30
 70
     1
102
RTVSPropertyOp31
 70
     1
102
RTVSPropertyOp32
 70
     1
102
RTVSPropertyOp33
 70
     1
102
RTVSPropertyOp34
 70
     1
102
RTVSPropertyOp35
 70
     1
102
RTVSPropertyOp36
 70
     1
102
RTVSPropertyOp37
 70
     1
102
RTVSPropertyOp38
 70
     1
102
RTVSPropertyOp39
 70
     1
102
RTVSPropertyOp40
 70
     1
102
RTVSPropertyOp41
 70
     1
102
RTVSPropertyOp42
 70
     1
102
RTVSPropertyOp43
 70
     1
102
RTVSPropertyOp44
 70
     1
102
RTVSPropertyOp45
 70
     1
102
RTVSPropertyOp46
 70
     1
102
RTVSPropertyOp47
 70
     1
102
RTVSPropertyOp48
 70
     1
102
RTVSPropertyOp49
 70
     1
102
RTVSPropertyOp50
 70
     1
102
RTVSPropertyOp51
 70
     0
102
RTVSPropertyOp52
 70
     0
102
RTVSPropertyOp53
 70
     1
102
RTVSPropertyOp54
 70
     1
102
RTVSPropertyOp55
 70
     1
102
RTVSPropertyOp56
 70
     1
102
RTVSPropertyOp57
 70
     1
102
RTVSPropertyOp58
 70
     1
102
RTVSPropertyOp59
 70
     1
102
RTVSPropertyOp60
 70
     1
102
RTVSPropertyOp61
 70
     1
102
RTVSPropertyOp62
 70
     1
  0
XRECORD
  5
830A
102
{ACAD_REACTORS
330
8309
102
}
330
8309
100
AcDbXrecord
280
     1
102
RTVSPost2010Prop28
280
     0
102
RTVSPost2010PropOp28
 70
     1
102
RTVSPost2010Prop29
280
     1
102
RTVSPost2010PropOp29
 70
     1
102
RTVSPost2010Prop30
280
     1
102
RTVSPost2010PropOp30
 70
     1
102
RTVSPost2010Prop31
280
     0
102
RTVSPost2010PropOp31
 70
     1
102
RTVSPost2010Prop32
280
     0
102
RTVSPost2010PropOp32
 70
     1
102
RTVSPost2010Prop33
280
     0
102
RTVSPost2010PropOp33
 70
     1
102
RTVSPost2010Prop34
280
     0
102
RTVSPost2010PropOp34
 70
     1
102
RTVSPost2010Prop35
280
     0
102
RTVSPost2010PropOp35
 70
     1
102
RTVSPost2010Prop36
280
     0
102
RTVSPost2010PropOp36
 70
     1
102
RTVSPost2010Prop37
 90
       50
102
RTVSPost2010PropOp37
 70
     1
102
RTVSPost2010Prop38
140
0.0
102
RTVSPost2010PropOp38
 70
     1
102
RTVSPost2010Prop39
140
1.0
102
RTVSPost2010PropOp39
 70
     1
102
RTVSPost2010Prop40
 90
        0
102
RTVSPost2010PropOp40
 70
     1
102
RTVSPost2010Prop41ColorIndex
 90
       18
102
RTVSPost2010Prop41ColorRGB
 90
        0
102
RTVSPost2010PropOp41
 70
     1
102
RTVSPost2010Prop42
 90
       50
102
RTVSPost2010PropOp42
 70
     1
102
RTVSPost2010Prop43
 90
        3
102
RTVSPost2010PropOp43
 70
     1
102
RTVSPost2010Prop44ColorIndex
 90
        5
102
RTVSPost2010Prop44ColorRGB
 90
      255
102
RTVSPost2010PropOp44
 70
     1
102
RTVSPost2010Prop45
280
     0
102
RTVSPost2010PropOp45
 70
     1
102
RTVSPost2010Prop46
 90
       50
102
RTVSPost2010PropOp46
 70
     1
102
RTVSPost2010Prop47
 90
       50
102
RTVSPost2010PropOp47
 70
     1
102
RTVSPost2010Prop48
 90
       50
102
RTVSPost2010PropOp48
 70
     1
102
RTVSPost2010Prop49
280
     0
102
RTVSPost2010PropOp49
 70
     1
102
RTVSPost2010Prop50
 90
       50
102
RTVSPost2010PropOp50
 70
     1
102
RTVSPost2010Prop51ColorIndex
 90
      256
102
RTVSPost2010Prop51ColorRGB
 90
-16777216
102
RTVSPost2010PropOp51
 70
     0
102
RTVSPost2010Prop52
140
1.0
102
RTVSPost2010PropOp52
 70
     0
102
RTVSPost2010Prop53
 90
        2
102
RTVSPost2010PropOp53
 70
     1
102
RTVSPost2010Prop54
  1
strokes_ogs.tif
102
RTVSPost2010PropOp54
 70
     1
102
RTVSPost2010Prop55
280
     0
102
RTVSPost2010PropOp55
 70
     1
102
RTVSPost2010Prop56
140
1.0
102
RTVSPost2010PropOp56
 70
     1
102
RTVSPost2010Prop57
140
1.0
102
RTVSPost2010PropOp57
 70
     1
102
RTVSPropertyOp0
 70
     1
102
RTVSPropertyOp1
 70
     1
102
RTVSPropertyOp2
 70
     1
102
RTVSPropertyOp3
 70
     1
102
RTVSPropertyOp4
 70
     1
102
RTVSPropertyOp5
 70
     1
102
RTVSPropertyOp6
 70
     1
102
RTVSPropertyOp7
 70
     1
102
RTVSPropertyOp8
 70
     1
102
RTVSPropertyOp9
 70
     1
102
RTVSPropertyOp10
 70
     1
102
RTVSPropertyOp11
 70
     1
102
RTVSPropertyOp12
 70
     1
102
RTVSPropertyOp13
 70
     1
102
RTVSPropertyOp14
 70
     1
102
RTVSPropertyOp15
 70
     1
102
RTVSPropertyOp16
 70
     1
102
RTVSPropertyOp17
 70
     1
102
RTVSPropertyOp18
 70
     1
102
RTVSPropertyOp19
 70
     1
102
RTVSPropertyOp20
 70
     1
102
RTVSPropertyOp21
 70
     1
102
RTVSPropertyOp22
 70
     1
102
RTVSPropertyOp23
 70
     1
102
RTVSPropertyOp24
 70
     1
102
RTVSPropertyOp25
 70
     1
102
RTVSPropertyOp26
 70
     1
102
RTVSPropertyOp27
 70
     1
102
RTVSPropertyOp28
 70
     1
102
RTVSPropertyOp29
 70
     1
102
RTVSPropertyOp30
 70
     1
102
RTVSPropertyOp31
 70
     1
102
RTVSPropertyOp32
 70
     1
102
RTVSPropertyOp33
 70
     1
102
RTVSPropertyOp34
 70
     1
102
RTVSPropertyOp35
 70
     1
102
RTVSPropertyOp36
 70
     1
102
RTVSPropertyOp37
 70
     1
102
RTVSPropertyOp38
 70
     1
102
RTVSPropertyOp39
 70
     1
102
RTVSPropertyOp40
 70
     1
102
RTVSPropertyOp41
 70
     1
102
RTVSPropertyOp42
 70
     1
102
RTVSPropertyOp43
 70
     1
102
RTVSPropertyOp44
 70
     1
102
RTVSPropertyOp45
 70
     1
102
RTVSPropertyOp46
 70
     1
102
RTVSPropertyOp47
 70
     1
102
RTVSPropertyOp48
 70
     1
102
RTVSPropertyOp49
 70
     1
102
RTVSPropertyOp50
 70
     1
102
RTVSPropertyOp51
 70
     0
102
RTVSPropertyOp52
 70
     0
102
RTVSPropertyOp53
 70
     1
102
RTVSPropertyOp54
 70
     1
102
RTVSPropertyOp55
 70
     1
102
RTVSPropertyOp56
 70
     1
102
RTVSPropertyOp57
 70
     1
102
RTVSPropertyOp58
 70
     1
102
RTVSPropertyOp59
 70
     1
102
RTVSPropertyOp60
 70
     1
102
RTVSPropertyOp61
 70
     1
102
RTVSPropertyOp62
 70
     1
  0
XRECORD
  5
830E
102
{ACAD_REACTORS
330
830D
102
}
330
830D
100
AcDbXrecord
280
     1
102
RTVSPost2010Prop28
280
     0
102
RTVSPost2010PropOp28
 70
     1
102
RTVSPost2010Prop29
280
     1
102
RTVSPost2010PropOp29
 70
     1
102
RTVSPost2010Prop30
280
     1
102
RTVSPost2010PropOp30
 70
     1
102
RTVSPost2010Prop31
280
     0
102
RTVSPost2010PropOp31
 70
     1
102
RTVSPost2010Prop32
280
     0
102
RTVSPost2010PropOp32
 70
     1
102
RTVSPost2010Prop33
280
     0
102
RTVSPost2010PropOp33
 70
     1
102
RTVSPost2010Prop34
280
     0
102
RTVSPost2010PropOp34
 70
     1
102
RTVSPost2010Prop35
280
     0
102
RTVSPost2010PropOp35
 70
     1
102
RTVSPost2010Prop36
280
     0
102
RTVSPost2010PropOp36
 70
     1
102
RTVSPost2010Prop37
 90
       50
102
RTVSPost2010PropOp37
 70
     1
102
RTVSPost2010Prop38
140
0.0
102
RTVSPost2010PropOp38
 70
     1
102
RTVSPost2010Prop39
140
1.0
102
RTVSPost2010PropOp39
 70
     1
102
RTVSPost2010Prop40
 90
        0
102
RTVSPost2010PropOp40
 70
     1
102
RTVSPost2010Prop41ColorIndex
 90
       18
102
RTVSPost2010Prop41ColorRGB
 90
        0
102
RTVSPost2010PropOp41
 70
     1
102
RTVSPost2010Prop42
 90
       50
102
RTVSPost2010PropOp42
 70
     1
102
RTVSPost2010Prop43
 90
        3
102
RTVSPost2010PropOp43
 70
     1
102
RTVSPost2010Prop44ColorIndex
 90
        5
102
RTVSPost2010Prop44ColorRGB
 90
      255
102
RTVSPost2010PropOp44
 70
     1
102
RTVSPost2010Prop45
280
     0
102
RTVSPost2010PropOp45
 70
     1
102
RTVSPost2010Prop46
 90
       50
102
RTVSPost2010PropOp46
 70
     1
102
RTVSPost2010Prop47
 90
       50
102
RTVSPost2010PropOp47
 70
     1
102
RTVSPost2010Prop48
 90
       50
102
RTVSPost2010PropOp48
 70
     1
102
RTVSPost2010Prop49
280
     0
102
RTVSPost2010PropOp49
 70
     1
102
RTVSPost2010Prop50
 90
       50
102
RTVSPost2010PropOp50
 70
     1
102
RTVSPost2010Prop51ColorIndex
 90
      256
102
RTVSPost2010Prop51ColorRGB
 90
-16777216
102
RTVSPost2010PropOp51
 70
     0
102
RTVSPost2010Prop52
140
1.0
102
RTVSPost2010PropOp52
 70
     0
102
RTVSPost2010Prop53
 90
        2
102
RTVSPost2010PropOp53
 70
     1
102
RTVSPost2010Prop54
  1
strokes_ogs.tif
102
RTVSPost2010PropOp54
 70
     1
102
RTVSPost2010Prop55
280
     0
102
RTVSPost2010PropOp55
 70
     1
102
RTVSPost2010Prop56
140
1.0
102
RTVSPost2010PropOp56
 70
     1
102
RTVSPost2010Prop57
140
1.0
102
RTVSPost2010PropOp57
 70
     1
102
RTVSPropertyOp0
 70
     1
102
RTVSPropertyOp1
 70
     1
102
RTVSPropertyOp2
 70
     1
102
RTVSPropertyOp3
 70
     1
102
RTVSPropertyOp4
 70
     1
102
RTVSPropertyOp5
 70
     1
102
RTVSPropertyOp6
 70
     1
102
RTVSPropertyOp7
 70
     1
102
RTVSPropertyOp8
 70
     1
102
RTVSPropertyOp9
 70
     1
102
RTVSPropertyOp10
 70
     1
102
RTVSPropertyOp11
 70
     1
102
RTVSPropertyOp12
 70
     1
102
RTVSPropertyOp13
 70
     1
102
RTVSPropertyOp14
 70
     1
102
RTVSPropertyOp15
 70
     1
102
RTVSPropertyOp16
 70
     1
102
RTVSPropertyOp17
 70
     1
102
RTVSPropertyOp18
 70
     1
102
RTVSPropertyOp19
 70
     1
102
RTVSPropertyOp20
 70
     1
102
RTVSPropertyOp21
 70
     1
102
RTVSPropertyOp22
 70
     1
102
RTVSPropertyOp23
 70
     1
102
RTVSPropertyOp24
 70
     1
102
RTVSPropertyOp25
 70
     1
102
RTVSPropertyOp26
 70
     1
102
RTVSPropertyOp27
 70
     1
102
RTVSPropertyOp28
 70
     1
102
RTVSPropertyOp29
 70
     1
102
RTVSPropertyOp30
 70
     1
102
RTVSPropertyOp31
 70
     1
102
RTVSPropertyOp32
 70
     1
102
RTVSPropertyOp33
 70
     1
102
RTVSPropertyOp34
 70
     1
102
RTVSPropertyOp35
 70
     1
102
RTVSPropertyOp36
 70
     1
102
RTVSPropertyOp37
 70
     1
102
RTVSPropertyOp38
 70
     1
102
RTVSPropertyOp39
 70
     1
102
RTVSPropertyOp40
 70
     1
102
RTVSPropertyOp41
 70
     1
102
RTVSPropertyOp42
 70
     1
102
RTVSPropertyOp43
 70
     1
102
RTVSPropertyOp44
 70
     1
102
RTVSPropertyOp45
 70
     1
102
RTVSPropertyOp46
 70
     1
102
RTVSPropertyOp47
 70
     1
102
RTVSPropertyOp48
 70
     1
102
RTVSPropertyOp49
 70
     1
102
RTVSPropertyOp50
 70
     1
102
RTVSPropertyOp51
 70
     0
102
RTVSPropertyOp52
 70
     0
102
RTVSPropertyOp53
 70
     1
102
RTVSPropertyOp54
 70
     1
102
RTVSPropertyOp55
 70
     1
102
RTVSPropertyOp56
 70
     1
102
RTVSPropertyOp57
 70
     1
102
RTVSPropertyOp58
 70
     1
102
RTVSPropertyOp59
 70
     1
102
RTVSPropertyOp60
 70
     1
102
RTVSPropertyOp61
 70
     1
102
RTVSPropertyOp62
 70
     1
  0
XRECORD
  5
8328
102
{ACAD_REACTORS
330
8327
102
}
330
8327
100
AcDbXrecord
280
     1
102
RTVSPost2010Prop28
280
     0
102
RTVSPost2010PropOp28
 70
     1
102
RTVSPost2010Prop29
280
     1
102
RTVSPost2010PropOp29
 70
     1
102
RTVSPost2010Prop30
280
     1
102
RTVSPost2010PropOp30
 70
     1
102
RTVSPost2010Prop31
280
     0
102
RTVSPost2010PropOp31
 70
     1
102
RTVSPost2010Prop32
280
     0
102
RTVSPost2010PropOp32
 70
     1
102
RTVSPost2010Prop33
280
     0
102
RTVSPost2010PropOp33
 70
     1
102
RTVSPost2010Prop34
280
     0
102
RTVSPost2010PropOp34
 70
     1
102
RTVSPost2010Prop35
280
     0
102
RTVSPost2010PropOp35
 70
     1
102
RTVSPost2010Prop36
280
     0
102
RTVSPost2010PropOp36
 70
     1
102
RTVSPost2010Prop37
 90
       50
102
RTVSPost2010PropOp37
 70
     0
102
RTVSPost2010Prop38
140
0.0
102
RTVSPost2010PropOp38
 70
     0
102
RTVSPost2010Prop39
140
1.0
102
RTVSPost2010PropOp39
 70
     0
102
RTVSPost2010Prop40
 90
        0
102
RTVSPost2010PropOp40
 70
     0
102
RTVSPost2010Prop41ColorIndex
 90
       18
102
RTVSPost2010Prop41ColorRGB
 90
        0
102
RTVSPost2010PropOp41
 70
     0
102
RTVSPost2010Prop42
 90
       50
102
RTVSPost2010PropOp42
 70
     0
102
RTVSPost2010Prop43
 90
        3
102
RTVSPost2010PropOp43
 70
     0
102
RTVSPost2010Prop44ColorIndex
 90
        5
102
RTVSPost2010Prop44ColorRGB
 90
      255
102
RTVSPost2010PropOp44
 70
     0
102
RTVSPost2010Prop45
280
     0
102
RTVSPost2010PropOp45
 70
     1
102
RTVSPost2010Prop46
 90
       50
102
RTVSPost2010PropOp46
 70
     0
102
RTVSPost2010Prop47
 90
       50
102
RTVSPost2010PropOp47
 70
     0
102
RTVSPost2010Prop48
 90
       50
102
RTVSPost2010PropOp48
 70
     0
102
RTVSPost2010Prop49
280
     0
102
RTVSPost2010PropOp49
 70
     1
102
RTVSPost2010Prop50
 90
       50
102
RTVSPost2010PropOp50
 70
     0
102
RTVSPost2010Prop51ColorIndex
 90
      256
102
RTVSPost2010Prop51ColorRGB
 90
-16777216
102
RTVSPost2010PropOp51
 70
     0
102
RTVSPost2010Prop52
140
1.0
102
RTVSPost2010PropOp52
 70
     0
102
RTVSPost2010Prop53
 90
        2
102
RTVSPost2010PropOp53
 70
     0
102
RTVSPost2010Prop54
  1
strokes_ogs.tif
102
RTVSPost2010PropOp54
 70
     0
102
RTVSPost2010Prop55
280
     0
102
RTVSPost2010PropOp55
 70
     1
102
RTVSPost2010Prop56
140
1.0
102
RTVSPost2010PropOp56
 70
     0
102
RTVSPost2010Prop57
140
1.0
102
RTVSPost2010PropOp57
 70
     0
102
RTVSPropertyOp0
 70
     0
102
RTVSPropertyOp1
 70
     0
102
RTVSPropertyOp2
 70
     0
102
RTVSPropertyOp3
 70
     0
102
RTVSPropertyOp4
 70
     0
102
RTVSPropertyOp5
 70
     0
102
RTVSPropertyOp6
 70
     0
102
RTVSPropertyOp7
 70
     0
102
RTVSPropertyOp8
 70
     0
102
RTVSPropertyOp9
 70
     0
102
RTVSPropertyOp10
 70
     0
102
RTVSPropertyOp11
 70
     0
102
RTVSPropertyOp12
 70
     0
102
RTVSPropertyOp13
 70
     0
102
RTVSPropertyOp14
 70
     2
102
RTVSPropertyOp15
 70
     0
102
RTVSPropertyOp16
 70
     0
102
RTVSPropertyOp17
 70
     0
102
RTVSPropertyOp18
 70
     0
102
RTVSPropertyOp19
 70
     0
102
RTVSPropertyOp20
 70
     0
102
RTVSPropertyOp21
 70
     0
102
RTVSPropertyOp22
 70
     0
102
RTVSPropertyOp23
 70
     0
102
RTVSPropertyOp24
 70
     0
102
RTVSPropertyOp25
 70
     0
102
RTVSPropertyOp26
 70
     0
102
RTVSPropertyOp27
 70
     0
102
RTVSPropertyOp28
 70
     1
102
RTVSPropertyOp29
 70
     1
102
RTVSPropertyOp30
 70
     1
102
RTVSPropertyOp31
 70
     1
102
RTVSPropertyOp32
 70
     1
102
RTVSPropertyOp33
 70
     1
102
RTVSPropertyOp34
 70
     1
102
RTVSPropertyOp35
 70
     1
102
RTVSPropertyOp36
 70
     1
102
RTVSPropertyOp37
 70
     0
102
RTVSPropertyOp38
 70
     0
102
RTVSPropertyOp39
 70
     0
102
RTVSPropertyOp40
 70
     0
102
RTVSPropertyOp41
 70
     0
102
RTVSPropertyOp42
 70
     0
102
RTVSPropertyOp43
 70
     0
102
RTVSPropertyOp44
 70
     0
102
RTVSPropertyOp45
 70
     1
102
RTVSPropertyOp46
 70
     0
102
RTVSPropertyOp47
 70
     0
102
RTVSPropertyOp48
 70
     0
102
RTVSPropertyOp49
 70
     1
102
RTVSPropertyOp50
 70
     0
102
RTVSPropertyOp51
 70
     0
102
RTVSPropertyOp52
 70
     0
102
RTVSPropertyOp53
 70
     0
102
RTVSPropertyOp54
 70
     0
102
RTVSPropertyOp55
 70
     1
102
RTVSPropertyOp56
 70
     0
102
RTVSPropertyOp57
 70
     0
102
RTVSPropertyOp58
 70
     0
102
RTVSPropertyOp59
 70
     0
102
RTVSPropertyOp60
 70
     0
102
RTVSPropertyOp61
 70
     0
102
RTVSPropertyOp62
 70
     0
  0
XRECORD
  5
8316
102
{ACAD_REACTORS
330
8315
102
}
330
8315
100
AcDbXrecord
280
     1
102
RTVSPost2010Prop28
280
     0
102
RTVSPost2010PropOp28
 70
     1
102
RTVSPost2010Prop29
280
     1
102
RTVSPost2010PropOp29
 70
     1
102
RTVSPost2010Prop30
280
     1
102
RTVSPost2010PropOp30
 70
     1
102
RTVSPost2010Prop31
280
     0
102
RTVSPost2010PropOp31
 70
     1
102
RTVSPost2010Prop32
280
     0
102
RTVSPost2010PropOp32
 70
     1
102
RTVSPost2010Prop33
280
     0
102
RTVSPost2010PropOp33
 70
     1
102
RTVSPost2010Prop34
280
     0
102
RTVSPost2010PropOp34
 70
     1
102
RTVSPost2010Prop35
280
     0
102
RTVSPost2010PropOp35
 70
     1
102
RTVSPost2010Prop36
280
     0
102
RTVSPost2010PropOp36
 70
     1
102
RTVSPost2010Prop37
 90
       50
102
RTVSPost2010PropOp37
 70
     1
102
RTVSPost2010Prop38
140
0.0
102
RTVSPost2010PropOp38
 70
     1
102
RTVSPost2010Prop39
140
1.0
102
RTVSPost2010PropOp39
 70
     1
102
RTVSPost2010Prop40
 90
        0
102
RTVSPost2010PropOp40
 70
     1
102
RTVSPost2010Prop41ColorIndex
 90
       18
102
RTVSPost2010Prop41ColorRGB
 90
        0
102
RTVSPost2010PropOp41
 70
     1
102
RTVSPost2010Prop42
 90
       50
102
RTVSPost2010PropOp42
 70
     1
102
RTVSPost2010Prop43
 90
        3
102
RTVSPost2010PropOp43
 70
     1
102
RTVSPost2010Prop44ColorIndex
 90
        5
102
RTVSPost2010Prop44ColorRGB
 90
      255
102
RTVSPost2010PropOp44
 70
     1
102
RTVSPost2010Prop45
280
     0
102
RTVSPost2010PropOp45
 70
     1
102
RTVSPost2010Prop46
 90
       50
102
RTVSPost2010PropOp46
 70
     1
102
RTVSPost2010Prop47
 90
       50
102
RTVSPost2010PropOp47
 70
     1
102
RTVSPost2010Prop48
 90
       50
102
RTVSPost2010PropOp48
 70
     1
102
RTVSPost2010Prop49
280
     0
102
RTVSPost2010PropOp49
 70
     1
102
RTVSPost2010Prop50
 90
       50
102
RTVSPost2010PropOp50
 70
     1
102
RTVSPost2010Prop51ColorIndex
 90
      256
102
RTVSPost2010Prop51ColorRGB
 90
-16777216
102
RTVSPost2010PropOp51
 70
     0
102
RTVSPost2010Prop52
140
1.0
102
RTVSPost2010PropOp52
 70
     0
102
RTVSPost2010Prop53
 90
        2
102
RTVSPost2010PropOp53
 70
     1
102
RTVSPost2010Prop54
  1
strokes_ogs.tif
102
RTVSPost2010PropOp54
 70
     1
102
RTVSPost2010Prop55
280
     0
102
RTVSPost2010PropOp55
 70
     1
102
RTVSPost2010Prop56
140
1.0
102
RTVSPost2010PropOp56
 70
     1
102
RTVSPost2010Prop57
140
1.0
102
RTVSPost2010PropOp57
 70
     1
102
RTVSPropertyOp0
 70
     1
102
RTVSPropertyOp1
 70
     1
102
RTVSPropertyOp2
 70
     1
102
RTVSPropertyOp3
 70
     1
102
RTVSPropertyOp4
 70
     1
102
RTVSPropertyOp5
 70
     1
102
RTVSPropertyOp6
 70
     1
102
RTVSPropertyOp7
 70
     1
102
RTVSPropertyOp8
 70
     1
102
RTVSPropertyOp9
 70
     1
102
RTVSPropertyOp10
 70
     1
102
RTVSPropertyOp11
 70
     1
102
RTVSPropertyOp12
 70
     1
102
RTVSPropertyOp13
 70
     1
102
RTVSPropertyOp14
 70
     1
102
RTVSPropertyOp15
 70
     1
102
RTVSPropertyOp16
 70
     1
102
RTVSPropertyOp17
 70
     1
102
RTVSPropertyOp18
 70
     1
102
RTVSPropertyOp19
 70
     1
102
RTVSPropertyOp20
 70
     1
102
RTVSPropertyOp21
 70
     1
102
RTVSPropertyOp22
 70
     1
102
RTVSPropertyOp23
 70
     1
102
RTVSPropertyOp24
 70
     1
102
RTVSPropertyOp25
 70
     1
102
RTVSPropertyOp26
 70
     1
102
RTVSPropertyOp27
 70
     1
102
RTVSPropertyOp28
 70
     1
102
RTVSPropertyOp29
 70
     1
102
RTVSPropertyOp30
 70
     1
102
RTVSPropertyOp31
 70
     1
102
RTVSPropertyOp32
 70
     1
102
RTVSPropertyOp33
 70
     1
102
RTVSPropertyOp34
 70
     1
102
RTVSPropertyOp35
 70
     1
102
RTVSPropertyOp36
 70
     1
102
RTVSPropertyOp37
 70
     1
102
RTVSPropertyOp38
 70
     1
102
RTVSPropertyOp39
 70
     1
102
RTVSPropertyOp40
 70
     1
102
RTVSPropertyOp41
 70
     1
102
RTVSPropertyOp42
 70
     1
102
RTVSPropertyOp43
 70
     1
102
RTVSPropertyOp44
 70
     1
102
RTVSPropertyOp45
 70
     1
102
RTVSPropertyOp46
 70
     1
102
RTVSPropertyOp47
 70
     1
102
RTVSPropertyOp48
 70
     1
102
RTVSPropertyOp49
 70
     1
102
RTVSPropertyOp50
 70
     1
102
RTVSPropertyOp51
 70
     0
102
RTVSPropertyOp52
 70
     0
102
RTVSPropertyOp53
 70
     1
102
RTVSPropertyOp54
 70
     1
102
RTVSPropertyOp55
 70
     1
102
RTVSPropertyOp56
 70
     1
102
RTVSPropertyOp57
 70
     1
102
RTVSPropertyOp58
 70
     1
102
RTVSPropertyOp59
 70
     1
102
RTVSPropertyOp60
 70
     1
102
RTVSPropertyOp61
 70
     1
102
RTVSPropertyOp62
 70
     1
  0
XRECORD
  5
82FA
102
{ACAD_REACTORS
330
82F9
102
}
330
82F9
100
AcDbXrecord
280
     1
102
RTVSPost2010Prop28
280
     0
102
RTVSPost2010PropOp28
 70
     1
102
RTVSPost2010Prop29
280
     1
102
RTVSPost2010PropOp29
 70
     1
102
RTVSPost2010Prop30
280
     1
102
RTVSPost2010PropOp30
 70
     1
102
RTVSPost2010Prop31
280
     0
102
RTVSPost2010PropOp31
 70
     1
102
RTVSPost2010Prop32
280
     0
102
RTVSPost2010PropOp32
 70
     1
102
RTVSPost2010Prop33
280
     0
102
RTVSPost2010PropOp33
 70
     1
102
RTVSPost2010Prop34
280
     0
102
RTVSPost2010PropOp34
 70
     1
102
RTVSPost2010Prop35
280
     0
102
RTVSPost2010PropOp35
 70
     1
102
RTVSPost2010Prop36
280
     0
102
RTVSPost2010PropOp36
 70
     1
102
RTVSPost2010Prop37
 90
       50
102
RTVSPost2010PropOp37
 70
     1
102
RTVSPost2010Prop38
140
0.0
102
RTVSPost2010PropOp38
 70
     1
102
RTVSPost2010Prop39
140
1.0
102
RTVSPost2010PropOp39
 70
     1
102
RTVSPost2010Prop40
 90
        0
102
RTVSPost2010PropOp40
 70
     1
102
RTVSPost2010Prop41ColorIndex
 90
       18
102
RTVSPost2010Prop41ColorRGB
 90
        0
102
RTVSPost2010PropOp41
 70
     1
102
RTVSPost2010Prop42
 90
       50
102
RTVSPost2010PropOp42
 70
     1
102
RTVSPost2010Prop43
 90
        3
102
RTVSPost2010PropOp43
 70
     1
102
RTVSPost2010Prop44ColorIndex
 90
        5
102
RTVSPost2010Prop44ColorRGB
 90
      255
102
RTVSPost2010PropOp44
 70
     1
102
RTVSPost2010Prop45
280
     0
102
RTVSPost2010PropOp45
 70
     1
102
RTVSPost2010Prop46
 90
       50
102
RTVSPost2010PropOp46
 70
     1
102
RTVSPost2010Prop47
 90
       50
102
RTVSPost2010PropOp47
 70
     1
102
RTVSPost2010Prop48
 90
       50
102
RTVSPost2010PropOp48
 70
     1
102
RTVSPost2010Prop49
280
     0
102
RTVSPost2010PropOp49
 70
     1
102
RTVSPost2010Prop50
 90
       50
102
RTVSPost2010PropOp50
 70
     1
102
RTVSPost2010Prop51ColorIndex
 90
      256
102
RTVSPost2010Prop51ColorRGB
 90
-16777216
102
RTVSPost2010PropOp51
 70
     0
102
RTVSPost2010Prop52
140
1.0
102
RTVSPost2010PropOp52
 70
     0
102
RTVSPost2010Prop53
 90
        2
102
RTVSPost2010PropOp53
 70
     1
102
RTVSPost2010Prop54
  1
strokes_ogs.tif
102
RTVSPost2010PropOp54
 70
     1
102
RTVSPost2010Prop55
280
     0
102
RTVSPost2010PropOp55
 70
     1
102
RTVSPost2010Prop56
140
1.0
102
RTVSPost2010PropOp56
 70
     1
102
RTVSPost2010Prop57
140
1.0
102
RTVSPost2010PropOp57
 70
     1
102
RTVSPropertyOp0
 70
     1
102
RTVSPropertyOp1
 70
     1
102
RTVSPropertyOp2
 70
     1
102
RTVSPropertyOp3
 70
     1
102
RTVSPropertyOp4
 70
     1
102
RTVSPropertyOp5
 70
     1
102
RTVSPropertyOp6
 70
     1
102
RTVSPropertyOp7
 70
     1
102
RTVSPropertyOp8
 70
     1
102
RTVSPropertyOp9
 70
     1
102
RTVSPropertyOp10
 70
     1
102
RTVSPropertyOp11
 70
     1
102
RTVSPropertyOp12
 70
     1
102
RTVSPropertyOp13
 70
     1
102
RTVSPropertyOp14
 70
     1
102
RTVSPropertyOp15
 70
     1
102
RTVSPropertyOp16
 70
     1
102
RTVSPropertyOp17
 70
     1
102
RTVSPropertyOp18
 70
     1
102
RTVSPropertyOp19
 70
     1
102
RTVSPropertyOp20
 70
     1
102
RTVSPropertyOp21
 70
     1
102
RTVSPropertyOp22
 70
     1
102
RTVSPropertyOp23
 70
     1
102
RTVSPropertyOp24
 70
     1
102
RTVSPropertyOp25
 70
     1
102
RTVSPropertyOp26
 70
     1
102
RTVSPropertyOp27
 70
     1
102
RTVSPropertyOp28
 70
     1
102
RTVSPropertyOp29
 70
     1
102
RTVSPropertyOp30
 70
     1
102
RTVSPropertyOp31
 70
     1
102
RTVSPropertyOp32
 70
     1
102
RTVSPropertyOp33
 70
     1
102
RTVSPropertyOp34
 70
     1
102
RTVSPropertyOp35
 70
     1
102
RTVSPropertyOp36
 70
     1
102
RTVSPropertyOp37
 70
     1
102
RTVSPropertyOp38
 70
     1
102
RTVSPropertyOp39
 70
     1
102
RTVSPropertyOp40
 70
     1
102
RTVSPropertyOp41
 70
     1
102
RTVSPropertyOp42
 70
     1
102
RTVSPropertyOp43
 70
     1
102
RTVSPropertyOp44
 70
     1
102
RTVSPropertyOp45
 70
     1
102
RTVSPropertyOp46
 70
     1
102
RTVSPropertyOp47
 70
     1
102
RTVSPropertyOp48
 70
     1
102
RTVSPropertyOp49
 70
     1
102
RTVSPropertyOp50
 70
     1
102
RTVSPropertyOp51
 70
     0
102
RTVSPropertyOp52
 70
     0
102
RTVSPropertyOp53
 70
     1
102
RTVSPropertyOp54
 70
     1
102
RTVSPropertyOp55
 70
     1
102
RTVSPropertyOp56
 70
     1
102
RTVSPropertyOp57
 70
     1
102
RTVSPropertyOp58
 70
     1
102
RTVSPropertyOp59
 70
     1
102
RTVSPropertyOp60
 70
     1
102
RTVSPropertyOp61
 70
     1
102
RTVSPropertyOp62
 70
     1
  0
XRECORD
  5
82FC
102
{ACAD_REACTORS
330
82FB
102
}
330
82FB
100
AcDbXrecord
280
     1
102
RTVSPost2010Prop28
280
     0
102
RTVSPost2010PropOp28
 70
     1
102
RTVSPost2010Prop29
280
     1
102
RTVSPost2010PropOp29
 70
     1
102
RTVSPost2010Prop30
280
     1
102
RTVSPost2010PropOp30
 70
     1
102
RTVSPost2010Prop31
280
     0
102
RTVSPost2010PropOp31
 70
     1
102
RTVSPost2010Prop32
280
     0
102
RTVSPost2010PropOp32
 70
     1
102
RTVSPost2010Prop33
280
     0
102
RTVSPost2010PropOp33
 70
     1
102
RTVSPost2010Prop34
280
     0
102
RTVSPost2010PropOp34
 70
     1
102
RTVSPost2010Prop35
280
     0
102
RTVSPost2010PropOp35
 70
     1
102
RTVSPost2010Prop36
280
     0
102
RTVSPost2010PropOp36
 70
     1
102
RTVSPost2010Prop37
 90
       50
102
RTVSPost2010PropOp37
 70
     1
102
RTVSPost2010Prop38
140
0.0
102
RTVSPost2010PropOp38
 70
     1
102
RTVSPost2010Prop39
140
1.0
102
RTVSPost2010PropOp39
 70
     1
102
RTVSPost2010Prop40
 90
        0
102
RTVSPost2010PropOp40
 70
     1
102
RTVSPost2010Prop41ColorIndex
 90
       18
102
RTVSPost2010Prop41ColorRGB
 90
        0
102
RTVSPost2010PropOp41
 70
     1
102
RTVSPost2010Prop42
 90
       50
102
RTVSPost2010PropOp42
 70
     1
102
RTVSPost2010Prop43
 90
        3
102
RTVSPost2010PropOp43
 70
     1
102
RTVSPost2010Prop44ColorIndex
 90
        5
102
RTVSPost2010Prop44ColorRGB
 90
      255
102
RTVSPost2010PropOp44
 70
     1
102
RTVSPost2010Prop45
280
     0
102
RTVSPost2010PropOp45
 70
     1
102
RTVSPost2010Prop46
 90
       50
102
RTVSPost2010PropOp46
 70
     1
102
RTVSPost2010Prop47
 90
       50
102
RTVSPost2010PropOp47
 70
     1
102
RTVSPost2010Prop48
 90
       50
102
RTVSPost2010PropOp48
 70
     1
102
RTVSPost2010Prop49
280
     0
102
RTVSPost2010PropOp49
 70
     1
102
RTVSPost2010Prop50
 90
       50
102
RTVSPost2010PropOp50
 70
     1
102
RTVSPost2010Prop51ColorIndex
 90
      256
102
RTVSPost2010Prop51ColorRGB
 90
-16777216
102
RTVSPost2010PropOp51
 70
     0
102
RTVSPost2010Prop52
140
1.0
102
RTVSPost2010PropOp52
 70
     0
102
RTVSPost2010Prop53
 90
        2
102
RTVSPost2010PropOp53
 70
     1
102
RTVSPost2010Prop54
  1
strokes_ogs.tif
102
RTVSPost2010PropOp54
 70
     1
102
RTVSPost2010Prop55
280
     0
102
RTVSPost2010PropOp55
 70
     1
102
RTVSPost2010Prop56
140
1.0
102
RTVSPost2010PropOp56
 70
     1
102
RTVSPost2010Prop57
140
1.0
102
RTVSPost2010PropOp57
 70
     1
102
RTVSPropertyOp0
 70
     1
102
RTVSPropertyOp1
 70
     1
102
RTVSPropertyOp2
 70
     1
102
RTVSPropertyOp3
 70
     1
102
RTVSPropertyOp4
 70
     1
102
RTVSPropertyOp5
 70
     1
102
RTVSPropertyOp6
 70
     1
102
RTVSPropertyOp7
 70
     1
102
RTVSPropertyOp8
 70
     1
102
RTVSPropertyOp9
 70
     1
102
RTVSPropertyOp10
 70
     1
102
RTVSPropertyOp11
 70
     1
102
RTVSPropertyOp12
 70
     1
102
RTVSPropertyOp13
 70
     1
102
RTVSPropertyOp14
 70
     1
102
RTVSPropertyOp15
 70
     1
102
RTVSPropertyOp16
 70
     1
102
RTVSPropertyOp17
 70
     1
102
RTVSPropertyOp18
 70
     1
102
RTVSPropertyOp19
 70
     1
102
RTVSPropertyOp20
 70
     1
102
RTVSPropertyOp21
 70
     1
102
RTVSPropertyOp22
 70
     1
102
RTVSPropertyOp23
 70
     1
102
RTVSPropertyOp24
 70
     1
102
RTVSPropertyOp25
 70
     1
102
RTVSPropertyOp26
 70
     1
102
RTVSPropertyOp27
 70
     1
102
RTVSPropertyOp28
 70
     1
102
RTVSPropertyOp29
 70
     1
102
RTVSPropertyOp30
 70
     1
102
RTVSPropertyOp31
 70
     1
102
RTVSPropertyOp32
 70
     1
102
RTVSPropertyOp33
 70
     1
102
RTVSPropertyOp34
 70
     1
102
RTVSPropertyOp35
 70
     1
102
RTVSPropertyOp36
 70
     1
102
RTVSPropertyOp37
 70
     1
102
RTVSPropertyOp38
 70
     1
102
RTVSPropertyOp39
 70
     1
102
RTVSPropertyOp40
 70
     1
102
RTVSPropertyOp41
 70
     1
102
RTVSPropertyOp42
 70
     1
102
RTVSPropertyOp43
 70
     1
102
RTVSPropertyOp44
 70
     1
102
RTVSPropertyOp45
 70
     1
102
RTVSPropertyOp46
 70
     1
102
RTVSPropertyOp47
 70
     1
102
RTVSPropertyOp48
 70
     1
102
RTVSPropertyOp49
 70
     1
102
RTVSPropertyOp50
 70
     1
102
RTVSPropertyOp51
 70
     0
102
RTVSPropertyOp52
 70
     0
102
RTVSPropertyOp53
 70
     1
102
RTVSPropertyOp54
 70
     1
102
RTVSPropertyOp55
 70
     1
102
RTVSPropertyOp56
 70
     1
102
RTVSPropertyOp57
 70
     1
102
RTVSPropertyOp58
 70
     1
102
RTVSPropertyOp59
 70
     1
102
RTVSPropertyOp60
 70
     1
102
RTVSPropertyOp61
 70
     1
102
RTVSPropertyOp62
 70
     1
  0
XRECORD
  5
82FE
102
{ACAD_REACTORS
330
82FD
102
}
330
82FD
100
AcDbXrecord
280
     1
102
RTVSPost2010Prop28
280
     0
102
RTVSPost2010PropOp28
 70
     1
102
RTVSPost2010Prop29
280
     1
102
RTVSPost2010PropOp29
 70
     1
102
RTVSPost2010Prop30
280
     1
102
RTVSPost2010PropOp30
 70
     1
102
RTVSPost2010Prop31
280
     0
102
RTVSPost2010PropOp31
 70
     1
102
RTVSPost2010Prop32
280
     0
102
RTVSPost2010PropOp32
 70
     1
102
RTVSPost2010Prop33
280
     0
102
RTVSPost2010PropOp33
 70
     1
102
RTVSPost2010Prop34
280
     0
102
RTVSPost2010PropOp34
 70
     1
102
RTVSPost2010Prop35
280
     0
102
RTVSPost2010PropOp35
 70
     1
102
RTVSPost2010Prop36
280
     0
102
RTVSPost2010PropOp36
 70
     1
102
RTVSPost2010Prop37
 90
       50
102
RTVSPost2010PropOp37
 70
     1
102
RTVSPost2010Prop38
140
0.0
102
RTVSPost2010PropOp38
 70
     1
102
RTVSPost2010Prop39
140
1.0
102
RTVSPost2010PropOp39
 70
     1
102
RTVSPost2010Prop40
 90
        0
102
RTVSPost2010PropOp40
 70
     1
102
RTVSPost2010Prop41ColorIndex
 90
       18
102
RTVSPost2010Prop41ColorRGB
 90
        0
102
RTVSPost2010PropOp41
 70
     1
102
RTVSPost2010Prop42
 90
       50
102
RTVSPost2010PropOp42
 70
     1
102
RTVSPost2010Prop43
 90
        3
102
RTVSPost2010PropOp43
 70
     1
102
RTVSPost2010Prop44ColorIndex
 90
        5
102
RTVSPost2010Prop44ColorRGB
 90
      255
102
RTVSPost2010PropOp44
 70
     1
102
RTVSPost2010Prop45
280
     0
102
RTVSPost2010PropOp45
 70
     1
102
RTVSPost2010Prop46
 90
       50
102
RTVSPost2010PropOp46
 70
     1
102
RTVSPost2010Prop47
 90
       50
102
RTVSPost2010PropOp47
 70
     1
102
RTVSPost2010Prop48
 90
       50
102
RTVSPost2010PropOp48
 70
     1
102
RTVSPost2010Prop49
280
     0
102
RTVSPost2010PropOp49
 70
     1
102
RTVSPost2010Prop50
 90
       50
102
RTVSPost2010PropOp50
 70
     1
102
RTVSPost2010Prop51ColorIndex
 90
      256
102
RTVSPost2010Prop51ColorRGB
 90
-16777216
102
RTVSPost2010PropOp51
 70
     0
102
RTVSPost2010Prop52
140
1.0
102
RTVSPost2010PropOp52
 70
     0
102
RTVSPost2010Prop53
 90
        2
102
RTVSPost2010PropOp53
 70
     1
102
RTVSPost2010Prop54
  1
strokes_ogs.tif
102
RTVSPost2010PropOp54
 70
     1
102
RTVSPost2010Prop55
280
     0
102
RTVSPost2010PropOp55
 70
     1
102
RTVSPost2010Prop56
140
1.0
102
RTVSPost2010PropOp56
 70
     1
102
RTVSPost2010Prop57
140
1.0
102
RTVSPost2010PropOp57
 70
     1
102
RTVSPropertyOp0
 70
     1
102
RTVSPropertyOp1
 70
     1
102
RTVSPropertyOp2
 70
     1
102
RTVSPropertyOp3
 70
     1
102
RTVSPropertyOp4
 70
     1
102
RTVSPropertyOp5
 70
     1
102
RTVSPropertyOp6
 70
     1
102
RTVSPropertyOp7
 70
     1
102
RTVSPropertyOp8
 70
     1
102
RTVSPropertyOp9
 70
     1
102
RTVSPropertyOp10
 70
     1
102
RTVSPropertyOp11
 70
     1
102
RTVSPropertyOp12
 70
     1
102
RTVSPropertyOp13
 70
     1
102
RTVSPropertyOp14
 70
     1
102
RTVSPropertyOp15
 70
     1
102
RTVSPropertyOp16
 70
     1
102
RTVSPropertyOp17
 70
     1
102
RTVSPropertyOp18
 70
     1
102
RTVSPropertyOp19
 70
     1
102
RTVSPropertyOp20
 70
     1
102
RTVSPropertyOp21
 70
     1
102
RTVSPropertyOp22
 70
     1
102
RTVSPropertyOp23
 70
     1
102
RTVSPropertyOp24
 70
     1
102
RTVSPropertyOp25
 70
     1
102
RTVSPropertyOp26
 70
     1
102
RTVSPropertyOp27
 70
     1
102
RTVSPropertyOp28
 70
     1
102
RTVSPropertyOp29
 70
     1
102
RTVSPropertyOp30
 70
     1
102
RTVSPropertyOp31
 70
     1
102
RTVSPropertyOp32
 70
     1
102
RTVSPropertyOp33
 70
     1
102
RTVSPropertyOp34
 70
     1
102
RTVSPropertyOp35
 70
     1
102
RTVSPropertyOp36
 70
     1
102
RTVSPropertyOp37
 70
     1
102
RTVSPropertyOp38
 70
     1
102
RTVSPropertyOp39
 70
     1
102
RTVSPropertyOp40
 70
     1
102
RTVSPropertyOp41
 70
     1
102
RTVSPropertyOp42
 70
     1
102
RTVSPropertyOp43
 70
     1
102
RTVSPropertyOp44
 70
     1
102
RTVSPropertyOp45
 70
     1
102
RTVSPropertyOp46
 70
     1
102
RTVSPropertyOp47
 70
     1
102
RTVSPropertyOp48
 70
     1
102
RTVSPropertyOp49
 70
     1
102
RTVSPropertyOp50
 70
     1
102
RTVSPropertyOp51
 70
     0
102
RTVSPropertyOp52
 70
     0
102
RTVSPropertyOp53
 70
     1
102
RTVSPropertyOp54
 70
     1
102
RTVSPropertyOp55
 70
     1
102
RTVSPropertyOp56
 70
     1
102
RTVSPropertyOp57
 70
     1
102
RTVSPropertyOp58
 70
     1
102
RTVSPropertyOp59
 70
     1
102
RTVSPropertyOp60
 70
     1
102
RTVSPropertyOp61
 70
     1
102
RTVSPropertyOp62
 70
     1
  0
XRECORD
  5
8300
102
{ACAD_REACTORS
330
82FF
102
}
330
82FF
100
AcDbXrecord
280
     1
102
RTVSPost2010Prop28
280
     0
102
RTVSPost2010PropOp28
 70
     1
102
RTVSPost2010Prop29
280
     1
102
RTVSPost2010PropOp29
 70
     1
102
RTVSPost2010Prop30
280
     1
102
RTVSPost2010PropOp30
 70
     1
102
RTVSPost2010Prop31
280
     0
102
RTVSPost2010PropOp31
 70
     1
102
RTVSPost2010Prop32
280
     0
102
RTVSPost2010PropOp32
 70
     1
102
RTVSPost2010Prop33
280
     0
102
RTVSPost2010PropOp33
 70
     1
102
RTVSPost2010Prop34
280
     0
102
RTVSPost2010PropOp34
 70
     1
102
RTVSPost2010Prop35
280
     0
102
RTVSPost2010PropOp35
 70
     1
102
RTVSPost2010Prop36
280
     0
102
RTVSPost2010PropOp36
 70
     1
102
RTVSPost2010Prop37
 90
       50
102
RTVSPost2010PropOp37
 70
     1
102
RTVSPost2010Prop38
140
0.0
102
RTVSPost2010PropOp38
 70
     1
102
RTVSPost2010Prop39
140
1.0
102
RTVSPost2010PropOp39
 70
     1
102
RTVSPost2010Prop40
 90
        0
102
RTVSPost2010PropOp40
 70
     1
102
RTVSPost2010Prop41ColorIndex
 90
       18
102
RTVSPost2010Prop41ColorRGB
 90
        0
102
RTVSPost2010PropOp41
 70
     1
102
RTVSPost2010Prop42
 90
       50
102
RTVSPost2010PropOp42
 70
     1
102
RTVSPost2010Prop43
 90
        3
102
RTVSPost2010PropOp43
 70
     1
102
RTVSPost2010Prop44ColorIndex
 90
        5
102
RTVSPost2010Prop44ColorRGB
 90
      255
102
RTVSPost2010PropOp44
 70
     1
102
RTVSPost2010Prop45
280
     0
102
RTVSPost2010PropOp45
 70
     1
102
RTVSPost2010Prop46
 90
       50
102
RTVSPost2010PropOp46
 70
     1
102
RTVSPost2010Prop47
 90
       50
102
RTVSPost2010PropOp47
 70
     1
102
RTVSPost2010Prop48
 90
       50
102
RTVSPost2010PropOp48
 70
     1
102
RTVSPost2010Prop49
280
     0
102
RTVSPost2010PropOp49
 70
     1
102
RTVSPost2010Prop50
 90
       50
102
RTVSPost2010PropOp50
 70
     1
102
RTVSPost2010Prop51ColorIndex
 90
      256
102
RTVSPost2010Prop51ColorRGB
 90
-16777216
102
RTVSPost2010PropOp51
 70
     0
102
RTVSPost2010Prop52
140
1.0
102
RTVSPost2010PropOp52
 70
     0
102
RTVSPost2010Prop53
 90
        2
102
RTVSPost2010PropOp53
 70
     1
102
RTVSPost2010Prop54
  1
strokes_ogs.tif
102
RTVSPost2010PropOp54
 70
     1
102
RTVSPost2010Prop55
280
     0
102
RTVSPost2010PropOp55
 70
     1
102
RTVSPost2010Prop56
140
1.0
102
RTVSPost2010PropOp56
 70
     1
102
RTVSPost2010Prop57
140
1.0
102
RTVSPost2010PropOp57
 70
     1
102
RTVSPropertyOp0
 70
     1
102
RTVSPropertyOp1
 70
     1
102
RTVSPropertyOp2
 70
     1
102
RTVSPropertyOp3
 70
     1
102
RTVSPropertyOp4
 70
     1
102
RTVSPropertyOp5
 70
     1
102
RTVSPropertyOp6
 70
     1
102
RTVSPropertyOp7
 70
     1
102
RTVSPropertyOp8
 70
     1
102
RTVSPropertyOp9
 70
     1
102
RTVSPropertyOp10
 70
     1
102
RTVSPropertyOp11
 70
     1
102
RTVSPropertyOp12
 70
     1
102
RTVSPropertyOp13
 70
     1
102
RTVSPropertyOp14
 70
     1
102
RTVSPropertyOp15
 70
     1
102
RTVSPropertyOp16
 70
     1
102
RTVSPropertyOp17
 70
     1
102
RTVSPropertyOp18
 70
     1
102
RTVSPropertyOp19
 70
     1
102
RTVSPropertyOp20
 70
     1
102
RTVSPropertyOp21
 70
     1
102
RTVSPropertyOp22
 70
     1
102
RTVSPropertyOp23
 70
     1
102
RTVSPropertyOp24
 70
     1
102
RTVSPropertyOp25
 70
     1
102
RTVSPropertyOp26
 70
     1
102
RTVSPropertyOp27
 70
     1
102
RTVSPropertyOp28
 70
     1
102
RTVSPropertyOp29
 70
     1
102
RTVSPropertyOp30
 70
     1
102
RTVSPropertyOp31
 70
     1
102
RTVSPropertyOp32
 70
     1
102
RTVSPropertyOp33
 70
     1
102
RTVSPropertyOp34
 70
     1
102
RTVSPropertyOp35
 70
     1
102
RTVSPropertyOp36
 70
     1
102
RTVSPropertyOp37
 70
     1
102
RTVSPropertyOp38
 70
     1
102
RTVSPropertyOp39
 70
     1
102
RTVSPropertyOp40
 70
     1
102
RTVSPropertyOp41
 70
     1
102
RTVSPropertyOp42
 70
     1
102
RTVSPropertyOp43
 70
     1
102
RTVSPropertyOp44
 70
     1
102
RTVSPropertyOp45
 70
     1
102
RTVSPropertyOp46
 70
     1
102
RTVSPropertyOp47
 70
     1
102
RTVSPropertyOp48
 70
     1
102
RTVSPropertyOp49
 70
     1
102
RTVSPropertyOp50
 70
     1
102
RTVSPropertyOp51
 70
     0
102
RTVSPropertyOp52
 70
     0
102
RTVSPropertyOp53
 70
     1
102
RTVSPropertyOp54
 70
     1
102
RTVSPropertyOp55
 70
     1
102
RTVSPropertyOp56
 70
     1
102
RTVSPropertyOp57
 70
     1
102
RTVSPropertyOp58
 70
     1
102
RTVSPropertyOp59
 70
     1
102
RTVSPropertyOp60
 70
     1
102
RTVSPropertyOp61
 70
     1
102
RTVSPropertyOp62
 70
     1
  0
XRECORD
  5
8308
102
{ACAD_REACTORS
330
8307
102
}
330
8307
100
AcDbXrecord
280
     1
102
RTVSPost2010Prop28
280
     0
102
RTVSPost2010PropOp28
 70
     1
102
RTVSPost2010Prop29
280
     1
102
RTVSPost2010PropOp29
 70
     1
102
RTVSPost2010Prop30
280
     1
102
RTVSPost2010PropOp30
 70
     1
102
RTVSPost2010Prop31
280
     0
102
RTVSPost2010PropOp31
 70
     1
102
RTVSPost2010Prop32
280
     0
102
RTVSPost2010PropOp32
 70
     1
102
RTVSPost2010Prop33
280
     0
102
RTVSPost2010PropOp33
 70
     1
102
RTVSPost2010Prop34
280
     0
102
RTVSPost2010PropOp34
 70
     1
102
RTVSPost2010Prop35
280
     0
102
RTVSPost2010PropOp35
 70
     1
102
RTVSPost2010Prop36
280
     0
102
RTVSPost2010PropOp36
 70
     1
102
RTVSPost2010Prop37
 90
       50
102
RTVSPost2010PropOp37
 70
     1
102
RTVSPost2010Prop38
140
0.0
102
RTVSPost2010PropOp38
 70
     1
102
RTVSPost2010Prop39
140
1.0
102
RTVSPost2010PropOp39
 70
     1
102
RTVSPost2010Prop40
 90
        0
102
RTVSPost2010PropOp40
 70
     1
102
RTVSPost2010Prop41ColorIndex
 90
       18
102
RTVSPost2010Prop41ColorRGB
 90
        0
102
RTVSPost2010PropOp41
 70
     1
102
RTVSPost2010Prop42
 90
       50
102
RTVSPost2010PropOp42
 70
     1
102
RTVSPost2010Prop43
 90
        3
102
RTVSPost2010PropOp43
 70
     1
102
RTVSPost2010Prop44ColorIndex
 90
        5
102
RTVSPost2010Prop44ColorRGB
 90
      255
102
RTVSPost2010PropOp44
 70
     1
102
RTVSPost2010Prop45
280
     0
102
RTVSPost2010PropOp45
 70
     1
102
RTVSPost2010Prop46
 90
       50
102
RTVSPost2010PropOp46
 70
     1
102
RTVSPost2010Prop47
 90
       50
102
RTVSPost2010PropOp47
 70
     1
102
RTVSPost2010Prop48
 90
       50
102
RTVSPost2010PropOp48
 70
     1
102
RTVSPost2010Prop49
280
     0
102
RTVSPost2010PropOp49
 70
     1
102
RTVSPost2010Prop50
 90
       50
102
RTVSPost2010PropOp50
 70
     1
102
RTVSPost2010Prop51ColorIndex
 90
      256
102
RTVSPost2010Prop51ColorRGB
 90
-16777216
102
RTVSPost2010PropOp51
 70
     0
102
RTVSPost2010Prop52
140
1.0
102
RTVSPost2010PropOp52
 70
     0
102
RTVSPost2010Prop53
 90
        2
102
RTVSPost2010PropOp53
 70
     1
102
RTVSPost2010Prop54
  1
strokes_ogs.tif
102
RTVSPost2010PropOp54
 70
     1
102
RTVSPost2010Prop55
280
     0
102
RTVSPost2010PropOp55
 70
     1
102
RTVSPost2010Prop56
140
1.0
102
RTVSPost2010PropOp56
 70
     1
102
RTVSPost2010Prop57
140
1.0
102
RTVSPost2010PropOp57
 70
     1
102
RTVSPropertyOp0
 70
     1
102
RTVSPropertyOp1
 70
     1
102
RTVSPropertyOp2
 70
     1
102
RTVSPropertyOp3
 70
     1
102
RTVSPropertyOp4
 70
     1
102
RTVSPropertyOp5
 70
     1
102
RTVSPropertyOp6
 70
     1
102
RTVSPropertyOp7
 70
     1
102
RTVSPropertyOp8
 70
     1
102
RTVSPropertyOp9
 70
     1
102
RTVSPropertyOp10
 70
     1
102
RTVSPropertyOp11
 70
     1
102
RTVSPropertyOp12
 70
     1
102
RTVSPropertyOp13
 70
     1
102
RTVSPropertyOp14
 70
     1
102
RTVSPropertyOp15
 70
     1
102
RTVSPropertyOp16
 70
     1
102
RTVSPropertyOp17
 70
     1
102
RTVSPropertyOp18
 70
     1
102
RTVSPropertyOp19
 70
     1
102
RTVSPropertyOp20
 70
     1
102
RTVSPropertyOp21
 70
     1
102
RTVSPropertyOp22
 70
     1
102
RTVSPropertyOp23
 70
     1
102
RTVSPropertyOp24
 70
     1
102
RTVSPropertyOp25
 70
     1
102
RTVSPropertyOp26
 70
     1
102
RTVSPropertyOp27
 70
     1
102
RTVSPropertyOp28
 70
     1
102
RTVSPropertyOp29
 70
     1
102
RTVSPropertyOp30
 70
     1
102
RTVSPropertyOp31
 70
     1
102
RTVSPropertyOp32
 70
     1
102
RTVSPropertyOp33
 70
     1
102
RTVSPropertyOp34
 70
     1
102
RTVSPropertyOp35
 70
     1
102
RTVSPropertyOp36
 70
     1
102
RTVSPropertyOp37
 70
     1
102
RTVSPropertyOp38
 70
     1
102
RTVSPropertyOp39
 70
     1
102
RTVSPropertyOp40
 70
     1
102
RTVSPropertyOp41
 70
     1
102
RTVSPropertyOp42
 70
     1
102
RTVSPropertyOp43
 70
     1
102
RTVSPropertyOp44
 70
     1
102
RTVSPropertyOp45
 70
     1
102
RTVSPropertyOp46
 70
     1
102
RTVSPropertyOp47
 70
     1
102
RTVSPropertyOp48
 70
     1
102
RTVSPropertyOp49
 70
     1
102
RTVSPropertyOp50
 70
     1
102
RTVSPropertyOp51
 70
     0
102
RTVSPropertyOp52
 70
     0
102
RTVSPropertyOp53
 70
     1
102
RTVSPropertyOp54
 70
     1
102
RTVSPropertyOp55
 70
     1
102
RTVSPropertyOp56
 70
     1
102
RTVSPropertyOp57
 70
     1
102
RTVSPropertyOp58
 70
     1
102
RTVSPropertyOp59
 70
     1
102
RTVSPropertyOp60
 70
     1
102
RTVSPropertyOp61
 70
     1
102
RTVSPropertyOp62
 70
     1
  0
XRECORD
  5
8324
102
{ACAD_REACTORS
330
8323
102
}
330
8323
100
AcDbXrecord
280
     1
102
RTVSPost2010Prop28
280
     0
102
RTVSPost2010PropOp28
 70
     1
102
RTVSPost2010Prop29
280
     1
102
RTVSPost2010PropOp29
 70
     1
102
RTVSPost2010Prop30
280
     1
102
RTVSPost2010PropOp30
 70
     1
102
RTVSPost2010Prop31
280
     0
102
RTVSPost2010PropOp31
 70
     1
102
RTVSPost2010Prop32
280
     0
102
RTVSPost2010PropOp32
 70
     1
102
RTVSPost2010Prop33
280
     0
102
RTVSPost2010PropOp33
 70
     1
102
RTVSPost2010Prop34
280
     0
102
RTVSPost2010PropOp34
 70
     1
102
RTVSPost2010Prop35
280
     0
102
RTVSPost2010PropOp35
 70
     1
102
RTVSPost2010Prop36
280
     0
102
RTVSPost2010PropOp36
 70
     1
102
RTVSPost2010Prop37
 90
       50
102
RTVSPost2010PropOp37
 70
     0
102
RTVSPost2010Prop38
140
0.0
102
RTVSPost2010PropOp38
 70
     0
102
RTVSPost2010Prop39
140
1.0
102
RTVSPost2010PropOp39
 70
     0
102
RTVSPost2010Prop40
 90
        0
102
RTVSPost2010PropOp40
 70
     0
102
RTVSPost2010Prop41ColorIndex
 90
       18
102
RTVSPost2010Prop41ColorRGB
 90
        0
102
RTVSPost2010PropOp41
 70
     0
102
RTVSPost2010Prop42
 90
       50
102
RTVSPost2010PropOp42
 70
     0
102
RTVSPost2010Prop43
 90
        3
102
RTVSPost2010PropOp43
 70
     0
102
RTVSPost2010Prop44ColorIndex
 90
        5
102
RTVSPost2010Prop44ColorRGB
 90
      255
102
RTVSPost2010PropOp44
 70
     0
102
RTVSPost2010Prop45
280
     0
102
RTVSPost2010PropOp45
 70
     1
102
RTVSPost2010Prop46
 90
       50
102
RTVSPost2010PropOp46
 70
     0
102
RTVSPost2010Prop47
 90
       50
102
RTVSPost2010PropOp47
 70
     0
102
RTVSPost2010Prop48
 90
       50
102
RTVSPost2010PropOp48
 70
     0
102
RTVSPost2010Prop49
280
     0
102
RTVSPost2010PropOp49
 70
     1
102
RTVSPost2010Prop50
 90
       50
102
RTVSPost2010PropOp50
 70
     0
102
RTVSPost2010Prop51ColorIndex
 90
      256
102
RTVSPost2010Prop51ColorRGB
 90
-16777216
102
RTVSPost2010PropOp51
 70
     0
102
RTVSPost2010Prop52
140
1.0
102
RTVSPost2010PropOp52
 70
     0
102
RTVSPost2010Prop53
 90
        2
102
RTVSPost2010PropOp53
 70
     0
102
RTVSPost2010Prop54
  1
strokes_ogs.tif
102
RTVSPost2010PropOp54
 70
     0
102
RTVSPost2010Prop55
280
     0
102
RTVSPost2010PropOp55
 70
     1
102
RTVSPost2010Prop56
140
1.0
102
RTVSPost2010PropOp56
 70
     0
102
RTVSPost2010Prop57
140
1.0
102
RTVSPost2010PropOp57
 70
     0
102
RTVSPropertyOp0
 70
     0
102
RTVSPropertyOp1
 70
     0
102
RTVSPropertyOp2
 70
     0
102
RTVSPropertyOp3
 70
     0
102
RTVSPropertyOp4
 70
     0
102
RTVSPropertyOp5
 70
     0
102
RTVSPropertyOp6
 70
     0
102
RTVSPropertyOp7
 70
     0
102
RTVSPropertyOp8
 70
     0
102
RTVSPropertyOp9
 70
     0
102
RTVSPropertyOp10
 70
     0
102
RTVSPropertyOp11
 70
     0
102
RTVSPropertyOp12
 70
     0
102
RTVSPropertyOp13
 70
     0
102
RTVSPropertyOp14
 70
     2
102
RTVSPropertyOp15
 70
     0
102
RTVSPropertyOp16
 70
     0
102
RTVSPropertyOp17
 70
     0
102
RTVSPropertyOp18
 70
     0
102
RTVSPropertyOp19
 70
     0
102
RTVSPropertyOp20
 70
     0
102
RTVSPropertyOp21
 70
     0
102
RTVSPropertyOp22
 70
     0
102
RTVSPropertyOp23
 70
     0
102
RTVSPropertyOp24
 70
     0
102
RTVSPropertyOp25
 70
     0
102
RTVSPropertyOp26
 70
     0
102
RTVSPropertyOp27
 70
     0
102
RTVSPropertyOp28
 70
     1
102
RTVSPropertyOp29
 70
     1
102
RTVSPropertyOp30
 70
     1
102
RTVSPropertyOp31
 70
     1
102
RTVSPropertyOp32
 70
     1
102
RTVSPropertyOp33
 70
     1
102
RTVSPropertyOp34
 70
     1
102
RTVSPropertyOp35
 70
     1
102
RTVSPropertyOp36
 70
     1
102
RTVSPropertyOp37
 70
     0
102
RTVSPropertyOp38
 70
     0
102
RTVSPropertyOp39
 70
     0
102
RTVSPropertyOp40
 70
     0
102
RTVSPropertyOp41
 70
     0
102
RTVSPropertyOp42
 70
     0
102
RTVSPropertyOp43
 70
     0
102
RTVSPropertyOp44
 70
     0
102
RTVSPropertyOp45
 70
     1
102
RTVSPropertyOp46
 70
     0
102
RTVSPropertyOp47
 70
     0
102
RTVSPropertyOp48
 70
     0
102
RTVSPropertyOp49
 70
     1
102
RTVSPropertyOp50
 70
     0
102
RTVSPropertyOp51
 70
     0
102
RTVSPropertyOp52
 70
     0
102
RTVSPropertyOp53
 70
     0
102
RTVSPropertyOp54
 70
     0
102
RTVSPropertyOp55
 70
     1
102
RTVSPropertyOp56
 70
     0
102
RTVSPropertyOp57
 70
     0
102
RTVSPropertyOp58
 70
     0
102
RTVSPropertyOp59
 70
     0
102
RTVSPropertyOp60
 70
     0
102
RTVSPropertyOp61
 70
     0
102
RTVSPropertyOp62
 70
     0
  0
XRECORD
  5
8314
102
{ACAD_REACTORS
330
8313
102
}
330
8313
100
AcDbXrecord
280
     1
102
RTVSPost2010Prop28
280
     0
102
RTVSPost2010PropOp28
 70
     1
102
RTVSPost2010Prop29
280
     1
102
RTVSPost2010PropOp29
 70
     1
102
RTVSPost2010Prop30
280
     1
102
RTVSPost2010PropOp30
 70
     1
102
RTVSPost2010Prop31
280
     0
102
RTVSPost2010PropOp31
 70
     1
102
RTVSPost2010Prop32
280
     0
102
RTVSPost2010PropOp32
 70
     1
102
RTVSPost2010Prop33
280
     0
102
RTVSPost2010PropOp33
 70
     1
102
RTVSPost2010Prop34
280
     0
102
RTVSPost2010PropOp34
 70
     1
102
RTVSPost2010Prop35
280
     0
102
RTVSPost2010PropOp35
 70
     1
102
RTVSPost2010Prop36
280
     0
102
RTVSPost2010PropOp36
 70
     1
102
RTVSPost2010Prop37
 90
       50
102
RTVSPost2010PropOp37
 70
     1
102
RTVSPost2010Prop38
140
0.0
102
RTVSPost2010PropOp38
 70
     1
102
RTVSPost2010Prop39
140
1.0
102
RTVSPost2010PropOp39
 70
     1
102
RTVSPost2010Prop40
 90
        0
102
RTVSPost2010PropOp40
 70
     1
102
RTVSPost2010Prop41ColorIndex
 90
       18
102
RTVSPost2010Prop41ColorRGB
 90
        0
102
RTVSPost2010PropOp41
 70
     1
102
RTVSPost2010Prop42
 90
       50
102
RTVSPost2010PropOp42
 70
     1
102
RTVSPost2010Prop43
 90
        3
102
RTVSPost2010PropOp43
 70
     1
102
RTVSPost2010Prop44ColorIndex
 90
        5
102
RTVSPost2010Prop44ColorRGB
 90
      255
102
RTVSPost2010PropOp44
 70
     1
102
RTVSPost2010Prop45
280
     0
102
RTVSPost2010PropOp45
 70
     1
102
RTVSPost2010Prop46
 90
       50
102
RTVSPost2010PropOp46
 70
     1
102
RTVSPost2010Prop47
 90
       50
102
RTVSPost2010PropOp47
 70
     1
102
RTVSPost2010Prop48
 90
       50
102
RTVSPost2010PropOp48
 70
     1
102
RTVSPost2010Prop49
280
     0
102
RTVSPost2010PropOp49
 70
     1
102
RTVSPost2010Prop50
 90
       50
102
RTVSPost2010PropOp50
 70
     1
102
RTVSPost2010Prop51ColorIndex
 90
      256
102
RTVSPost2010Prop51ColorRGB
 90
-16777216
102
RTVSPost2010PropOp51
 70
     0
102
RTVSPost2010Prop52
140
1.0
102
RTVSPost2010PropOp52
 70
     0
102
RTVSPost2010Prop53
 90
        2
102
RTVSPost2010PropOp53
 70
     1
102
RTVSPost2010Prop54
  1
strokes_ogs.tif
102
RTVSPost2010PropOp54
 70
     1
102
RTVSPost2010Prop55
280
     0
102
RTVSPost2010PropOp55
 70
     1
102
RTVSPost2010Prop56
140
1.0
102
RTVSPost2010PropOp56
 70
     1
102
RTVSPost2010Prop57
140
1.0
102
RTVSPost2010PropOp57
 70
     1
102
RTVSPropertyOp0
 70
     1
102
RTVSPropertyOp1
 70
     1
102
RTVSPropertyOp2
 70
     1
102
RTVSPropertyOp3
 70
     1
102
RTVSPropertyOp4
 70
     1
102
RTVSPropertyOp5
 70
     1
102
RTVSPropertyOp6
 70
     1
102
RTVSPropertyOp7
 70
     1
102
RTVSPropertyOp8
 70
     1
102
RTVSPropertyOp9
 70
     1
102
RTVSPropertyOp10
 70
     1
102
RTVSPropertyOp11
 70
     1
102
RTVSPropertyOp12
 70
     1
102
RTVSPropertyOp13
 70
     1
102
RTVSPropertyOp14
 70
     1
102
RTVSPropertyOp15
 70
     1
102
RTVSPropertyOp16
 70
     1
102
RTVSPropertyOp17
 70
     1
102
RTVSPropertyOp18
 70
     1
102
RTVSPropertyOp19
 70
     1
102
RTVSPropertyOp20
 70
     1
102
RTVSPropertyOp21
 70
     1
102
RTVSPropertyOp22
 70
     1
102
RTVSPropertyOp23
 70
     1
102
RTVSPropertyOp24
 70
     1
102
RTVSPropertyOp25
 70
     1
102
RTVSPropertyOp26
 70
     1
102
RTVSPropertyOp27
 70
     1
102
RTVSPropertyOp28
 70
     1
102
RTVSPropertyOp29
 70
     1
102
RTVSPropertyOp30
 70
     1
102
RTVSPropertyOp31
 70
     1
102
RTVSPropertyOp32
 70
     1
102
RTVSPropertyOp33
 70
     1
102
RTVSPropertyOp34
 70
     1
102
RTVSPropertyOp35
 70
     1
102
RTVSPropertyOp36
 70
     1
102
RTVSPropertyOp37
 70
     1
102
RTVSPropertyOp38
 70
     1
102
RTVSPropertyOp39
 70
     1
102
RTVSPropertyOp40
 70
     1
102
RTVSPropertyOp41
 70
     1
102
RTVSPropertyOp42
 70
     1
102
RTVSPropertyOp43
 70
     1
102
RTVSPropertyOp44
 70
     1
102
RTVSPropertyOp45
 70
     1
102
RTVSPropertyOp46
 70
     1
102
RTVSPropertyOp47
 70
     1
102
RTVSPropertyOp48
 70
     1
102
RTVSPropertyOp49
 70
     1
102
RTVSPropertyOp50
 70
     1
102
RTVSPropertyOp51
 70
     0
102
RTVSPropertyOp52
 70
     0
102
RTVSPropertyOp53
 70
     1
102
RTVSPropertyOp54
 70
     1
102
RTVSPropertyOp55
 70
     1
102
RTVSPropertyOp56
 70
     1
102
RTVSPropertyOp57
 70
     1
102
RTVSPropertyOp58
 70
     1
102
RTVSPropertyOp59
 70
     1
102
RTVSPropertyOp60
 70
     1
102
RTVSPropertyOp61
 70
     1
102
RTVSPropertyOp62
 70
     1
  0
XRECORD
  5
8326
102
{ACAD_REACTORS
330
8325
102
}
330
8325
100
AcDbXrecord
280
     1
102
RTVSPost2010Prop28
280
     0
102
RTVSPost2010PropOp28
 70
     1
102
RTVSPost2010Prop29
280
     1
102
RTVSPost2010PropOp29
 70
     1
102
RTVSPost2010Prop30
280
     1
102
RTVSPost2010PropOp30
 70
     1
102
RTVSPost2010Prop31
280
     0
102
RTVSPost2010PropOp31
 70
     1
102
RTVSPost2010Prop32
280
     0
102
RTVSPost2010PropOp32
 70
     1
102
RTVSPost2010Prop33
280
     0
102
RTVSPost2010PropOp33
 70
     1
102
RTVSPost2010Prop34
280
     0
102
RTVSPost2010PropOp34
 70
     1
102
RTVSPost2010Prop35
280
     0
102
RTVSPost2010PropOp35
 70
     1
102
RTVSPost2010Prop36
280
     0
102
RTVSPost2010PropOp36
 70
     1
102
RTVSPost2010Prop37
 90
       50
102
RTVSPost2010PropOp37
 70
     0
102
RTVSPost2010Prop38
140
0.0
102
RTVSPost2010PropOp38
 70
     0
102
RTVSPost2010Prop39
140
1.0
102
RTVSPost2010PropOp39
 70
     0
102
RTVSPost2010Prop40
 90
        0
102
RTVSPost2010PropOp40
 70
     0
102
RTVSPost2010Prop41ColorIndex
 90
       18
102
RTVSPost2010Prop41ColorRGB
 90
        0
102
RTVSPost2010PropOp41
 70
     0
102
RTVSPost2010Prop42
 90
       50
102
RTVSPost2010PropOp42
 70
     0
102
RTVSPost2010Prop43
 90
        3
102
RTVSPost2010PropOp43
 70
     0
102
RTVSPost2010Prop44ColorIndex
 90
        5
102
RTVSPost2010Prop44ColorRGB
 90
      255
102
RTVSPost2010PropOp44
 70
     0
102
RTVSPost2010Prop45
280
     0
102
RTVSPost2010PropOp45
 70
     1
102
RTVSPost2010Prop46
 90
       50
102
RTVSPost2010PropOp46
 70
     0
102
RTVSPost2010Prop47
 90
       50
102
RTVSPost2010PropOp47
 70
     0
102
RTVSPost2010Prop48
 90
       50
102
RTVSPost2010PropOp48
 70
     0
102
RTVSPost2010Prop49
280
     0
102
RTVSPost2010PropOp49
 70
     1
102
RTVSPost2010Prop50
 90
       50
102
RTVSPost2010PropOp50
 70
     0
102
RTVSPost2010Prop51ColorIndex
 90
      256
102
RTVSPost2010Prop51ColorRGB
 90
-16777216
102
RTVSPost2010PropOp51
 70
     0
102
RTVSPost2010Prop52
140
1.0
102
RTVSPost2010PropOp52
 70
     0
102
RTVSPost2010Prop53
 90
        2
102
RTVSPost2010PropOp53
 70
     0
102
RTVSPost2010Prop54
  1
strokes_ogs.tif
102
RTVSPost2010PropOp54
 70
     0
102
RTVSPost2010Prop55
280
     0
102
RTVSPost2010PropOp55
 70
     1
102
RTVSPost2010Prop56
140
1.0
102
RTVSPost2010PropOp56
 70
     0
102
RTVSPost2010Prop57
140
1.0
102
RTVSPost2010PropOp57
 70
     0
102
RTVSPropertyOp0
 70
     0
102
RTVSPropertyOp1
 70
     0
102
RTVSPropertyOp2
 70
     0
102
RTVSPropertyOp3
 70
     0
102
RTVSPropertyOp4
 70
     0
102
RTVSPropertyOp5
 70
     0
102
RTVSPropertyOp6
 70
     0
102
RTVSPropertyOp7
 70
     0
102
RTVSPropertyOp8
 70
     0
102
RTVSPropertyOp9
 70
     0
102
RTVSPropertyOp10
 70
     0
102
RTVSPropertyOp11
 70
     0
102
RTVSPropertyOp12
 70
     0
102
RTVSPropertyOp13
 70
     0
102
RTVSPropertyOp14
 70
     2
102
RTVSPropertyOp15
 70
     0
102
RTVSPropertyOp16
 70
     0
102
RTVSPropertyOp17
 70
     0
102
RTVSPropertyOp18
 70
     0
102
RTVSPropertyOp19
 70
     0
102
RTVSPropertyOp20
 70
     0
102
RTVSPropertyOp21
 70
     0
102
RTVSPropertyOp22
 70
     0
102
RTVSPropertyOp23
 70
     0
102
RTVSPropertyOp24
 70
     0
102
RTVSPropertyOp25
 70
     0
102
RTVSPropertyOp26
 70
     0
102
RTVSPropertyOp27
 70
     0
102
RTVSPropertyOp28
 70
     1
102
RTVSPropertyOp29
 70
     1
102
RTVSPropertyOp30
 70
     1
102
RTVSPropertyOp31
 70
     1
102
RTVSPropertyOp32
 70
     1
102
RTVSPropertyOp33
 70
     1
102
RTVSPropertyOp34
 70
     1
102
RTVSPropertyOp35
 70
     1
102
RTVSPropertyOp36
 70
     1
102
RTVSPropertyOp37
 70
     0
102
RTVSPropertyOp38
 70
     0
102
RTVSPropertyOp39
 70
     0
102
RTVSPropertyOp40
 70
     0
102
RTVSPropertyOp41
 70
     0
102
RTVSPropertyOp42
 70
     0
102
RTVSPropertyOp43
 70
     0
102
RTVSPropertyOp44
 70
     0
102
RTVSPropertyOp45
 70
     1
102
RTVSPropertyOp46
 70
     0
102
RTVSPropertyOp47
 70
     0
102
RTVSPropertyOp48
 70
     0
102
RTVSPropertyOp49
 70
     1
102
RTVSPropertyOp50
 70
     0
102
RTVSPropertyOp51
 70
     0
102
RTVSPropertyOp52
 70
     0
102
RTVSPropertyOp53
 70
     0
102
RTVSPropertyOp54
 70
     0
102
RTVSPropertyOp55
 70
     1
102
RTVSPropertyOp56
 70
     0
102
RTVSPropertyOp57
 70
     0
102
RTVSPropertyOp58
 70
     0
102
RTVSPropertyOp59
 70
     0
102
RTVSPropertyOp60
 70
     0
102
RTVSPropertyOp61
 70
     0
102
RTVSPropertyOp62
 70
     0
  0
XRECORD
  5
830C
102
{ACAD_REACTORS
330
830B
102
}
330
830B
100
AcDbXrecord
280
     1
102
RTVSPost2010Prop28
280
     0
102
RTVSPost2010PropOp28
 70
     1
102
RTVSPost2010Prop29
280
     1
102
RTVSPost2010PropOp29
 70
     1
102
RTVSPost2010Prop30
280
     1
102
RTVSPost2010PropOp30
 70
     1
102
RTVSPost2010Prop31
280
     0
102
RTVSPost2010PropOp31
 70
     1
102
RTVSPost2010Prop32
280
     0
102
RTVSPost2010PropOp32
 70
     1
102
RTVSPost2010Prop33
280
     0
102
RTVSPost2010PropOp33
 70
     1
102
RTVSPost2010Prop34
280
     0
102
RTVSPost2010PropOp34
 70
     1
102
RTVSPost2010Prop35
280
     0
102
RTVSPost2010PropOp35
 70
     1
102
RTVSPost2010Prop36
280
     0
102
RTVSPost2010PropOp36
 70
     1
102
RTVSPost2010Prop37
 90
       50
102
RTVSPost2010PropOp37
 70
     1
102
RTVSPost2010Prop38
140
0.0
102
RTVSPost2010PropOp38
 70
     1
102
RTVSPost2010Prop39
140
1.0
102
RTVSPost2010PropOp39
 70
     1
102
RTVSPost2010Prop40
 90
        0
102
RTVSPost2010PropOp40
 70
     1
102
RTVSPost2010Prop41ColorIndex
 90
       18
102
RTVSPost2010Prop41ColorRGB
 90
        0
102
RTVSPost2010PropOp41
 70
     1
102
RTVSPost2010Prop42
 90
       50
102
RTVSPost2010PropOp42
 70
     1
102
RTVSPost2010Prop43
 90
        3
102
RTVSPost2010PropOp43
 70
     1
102
RTVSPost2010Prop44ColorIndex
 90
        5
102
RTVSPost2010Prop44ColorRGB
 90
      255
102
RTVSPost2010PropOp44
 70
     1
102
RTVSPost2010Prop45
280
     0
102
RTVSPost2010PropOp45
 70
     1
102
RTVSPost2010Prop46
 90
       50
102
RTVSPost2010PropOp46
 70
     1
102
RTVSPost2010Prop47
 90
       50
102
RTVSPost2010PropOp47
 70
     1
102
RTVSPost2010Prop48
 90
       50
102
RTVSPost2010PropOp48
 70
     1
102
RTVSPost2010Prop49
280
     0
102
RTVSPost2010PropOp49
 70
     1
102
RTVSPost2010Prop50
 90
       50
102
RTVSPost2010PropOp50
 70
     1
102
RTVSPost2010Prop51ColorIndex
 90
      256
102
RTVSPost2010Prop51ColorRGB
 90
-16777216
102
RTVSPost2010PropOp51
 70
     0
102
RTVSPost2010Prop52
140
1.0
102
RTVSPost2010PropOp52
 70
     0
102
RTVSPost2010Prop53
 90
        2
102
RTVSPost2010PropOp53
 70
     1
102
RTVSPost2010Prop54
  1
strokes_ogs.tif
102
RTVSPost2010PropOp54
 70
     1
102
RTVSPost2010Prop55
280
     0
102
RTVSPost2010PropOp55
 70
     1
102
RTVSPost2010Prop56
140
1.0
102
RTVSPost2010PropOp56
 70
     1
102
RTVSPost2010Prop57
140
1.0
102
RTVSPost2010PropOp57
 70
     1
102
RTVSPropertyOp0
 70
     1
102
RTVSPropertyOp1
 70
     1
102
RTVSPropertyOp2
 70
     1
102
RTVSPropertyOp3
 70
     1
102
RTVSPropertyOp4
 70
     1
102
RTVSPropertyOp5
 70
     1
102
RTVSPropertyOp6
 70
     1
102
RTVSPropertyOp7
 70
     1
102
RTVSPropertyOp8
 70
     1
102
RTVSPropertyOp9
 70
     1
102
RTVSPropertyOp10
 70
     1
102
RTVSPropertyOp11
 70
     1
102
RTVSPropertyOp12
 70
     1
102
RTVSPropertyOp13
 70
     1
102
RTVSPropertyOp14
 70
     1
102
RTVSPropertyOp15
 70
     1
102
RTVSPropertyOp16
 70
     1
102
RTVSPropertyOp17
 70
     1
102
RTVSPropertyOp18
 70
     1
102
RTVSPropertyOp19
 70
     1
102
RTVSPropertyOp20
 70
     1
102
RTVSPropertyOp21
 70
     1
102
RTVSPropertyOp22
 70
     1
102
RTVSPropertyOp23
 70
     1
102
RTVSPropertyOp24
 70
     1
102
RTVSPropertyOp25
 70
     1
102
RTVSPropertyOp26
 70
     1
102
RTVSPropertyOp27
 70
     1
102
RTVSPropertyOp28
 70
     1
102
RTVSPropertyOp29
 70
     1
102
RTVSPropertyOp30
 70
     1
102
RTVSPropertyOp31
 70
     1
102
RTVSPropertyOp32
 70
     1
102
RTVSPropertyOp33
 70
     1
102
RTVSPropertyOp34
 70
     1
102
RTVSPropertyOp35
 70
     1
102
RTVSPropertyOp36
 70
     1
102
RTVSPropertyOp37
 70
     1
102
RTVSPropertyOp38
 70
     1
102
RTVSPropertyOp39
 70
     1
102
RTVSPropertyOp40
 70
     1
102
RTVSPropertyOp41
 70
     1
102
RTVSPropertyOp42
 70
     1
102
RTVSPropertyOp43
 70
     1
102
RTVSPropertyOp44
 70
     1
102
RTVSPropertyOp45
 70
     1
102
RTVSPropertyOp46
 70
     1
102
RTVSPropertyOp47
 70
     1
102
RTVSPropertyOp48
 70
     1
102
RTVSPropertyOp49
 70
     1
102
RTVSPropertyOp50
 70
     1
102
RTVSPropertyOp51
 70
     0
102
RTVSPropertyOp52
 70
     0
102
RTVSPropertyOp53
 70
     1
102
RTVSPropertyOp54
 70
     1
102
RTVSPropertyOp55
 70
     1
102
RTVSPropertyOp56
 70
     1
102
RTVSPropertyOp57
 70
     1
102
RTVSPropertyOp58
 70
     1
102
RTVSPropertyOp59
 70
     1
102
RTVSPropertyOp60
 70
     1
102
RTVSPropertyOp61
 70
     1
102
RTVSPropertyOp62
 70
     1
  0
XRECORD
  5
8322
102
{ACAD_REACTORS
330
8321
102
}
330
8321
100
AcDbXrecord
280
     1
102
RTVSPost2010Prop28
280
     0
102
RTVSPost2010PropOp28
 70
     1
102
RTVSPost2010Prop29
280
     1
102
RTVSPost2010PropOp29
 70
     1
102
RTVSPost2010Prop30
280
     1
102
RTVSPost2010PropOp30
 70
     1
102
RTVSPost2010Prop31
280
     0
102
RTVSPost2010PropOp31
 70
     1
102
RTVSPost2010Prop32
280
     0
102
RTVSPost2010PropOp32
 70
     1
102
RTVSPost2010Prop33
280
     0
102
RTVSPost2010PropOp33
 70
     1
102
RTVSPost2010Prop34
280
     0
102
RTVSPost2010PropOp34
 70
     1
102
RTVSPost2010Prop35
280
     0
102
RTVSPost2010PropOp35
 70
     1
102
RTVSPost2010Prop36
280
     0
102
RTVSPost2010PropOp36
 70
     1
102
RTVSPost2010Prop37
 90
       50
102
RTVSPost2010PropOp37
 70
     1
102
RTVSPost2010Prop38
140
0.0
102
RTVSPost2010PropOp38
 70
     1
102
RTVSPost2010Prop39
140
1.0
102
RTVSPost2010PropOp39
 70
     1
102
RTVSPost2010Prop40
 90
        0
102
RTVSPost2010PropOp40
 70
     1
102
RTVSPost2010Prop41ColorIndex
 90
       18
102
RTVSPost2010Prop41ColorRGB
 90
        0
102
RTVSPost2010PropOp41
 70
     1
102
RTVSPost2010Prop42
 90
       50
102
RTVSPost2010PropOp42
 70
     1
102
RTVSPost2010Prop43
 90
        3
102
RTVSPost2010PropOp43
 70
     1
102
RTVSPost2010Prop44ColorIndex
 90
        5
102
RTVSPost2010Prop44ColorRGB
 90
      255
102
RTVSPost2010PropOp44
 70
     1
102
RTVSPost2010Prop45
280
     0
102
RTVSPost2010PropOp45
 70
     1
102
RTVSPost2010Prop46
 90
       50
102
RTVSPost2010PropOp46
 70
     1
102
RTVSPost2010Prop47
 90
       50
102
RTVSPost2010PropOp47
 70
     1
102
RTVSPost2010Prop48
 90
       50
102
RTVSPost2010PropOp48
 70
     1
102
RTVSPost2010Prop49
280
     0
102
RTVSPost2010PropOp49
 70
     1
102
RTVSPost2010Prop50
 90
       50
102
RTVSPost2010PropOp50
 70
     1
102
RTVSPost2010Prop51ColorIndex
 90
      256
102
RTVSPost2010Prop51ColorRGB
 90
-16777216
102
RTVSPost2010PropOp51
 70
     0
102
RTVSPost2010Prop52
140
1.0
102
RTVSPost2010PropOp52
 70
     0
102
RTVSPost2010Prop53
 90
        2
102
RTVSPost2010PropOp53
 70
     1
102
RTVSPost2010Prop54
  1
strokes_ogs.tif
102
RTVSPost2010PropOp54
 70
     1
102
RTVSPost2010Prop55
280
     0
102
RTVSPost2010PropOp55
 70
     1
102
RTVSPost2010Prop56
140
1.0
102
RTVSPost2010PropOp56
 70
     1
102
RTVSPost2010Prop57
140
1.0
102
RTVSPost2010PropOp57
 70
     1
102
RTVSPropertyOp0
 70
     1
102
RTVSPropertyOp1
 70
     1
102
RTVSPropertyOp2
 70
     1
102
RTVSPropertyOp3
 70
     1
102
RTVSPropertyOp4
 70
     1
102
RTVSPropertyOp5
 70
     1
102
RTVSPropertyOp6
 70
     1
102
RTVSPropertyOp7
 70
     1
102
RTVSPropertyOp8
 70
     1
102
RTVSPropertyOp9
 70
     1
102
RTVSPropertyOp10
 70
     1
102
RTVSPropertyOp11
 70
     1
102
RTVSPropertyOp12
 70
     1
102
RTVSPropertyOp13
 70
     1
102
RTVSPropertyOp14
 70
     1
102
RTVSPropertyOp15
 70
     1
102
RTVSPropertyOp16
 70
     1
102
RTVSPropertyOp17
 70
     1
102
RTVSPropertyOp18
 70
     1
102
RTVSPropertyOp19
 70
     1
102
RTVSPropertyOp20
 70
     1
102
RTVSPropertyOp21
 70
     1
102
RTVSPropertyOp22
 70
     1
102
RTVSPropertyOp23
 70
     1
102
RTVSPropertyOp24
 70
     1
102
RTVSPropertyOp25
 70
     1
102
RTVSPropertyOp26
 70
     1
102
RTVSPropertyOp27
 70
     1
102
RTVSPropertyOp28
 70
     1
102
RTVSPropertyOp29
 70
     1
102
RTVSPropertyOp30
 70
     1
102
RTVSPropertyOp31
 70
     1
102
RTVSPropertyOp32
 70
     1
102
RTVSPropertyOp33
 70
     1
102
RTVSPropertyOp34
 70
     1
102
RTVSPropertyOp35
 70
     1
102
RTVSPropertyOp36
 70
     1
102
RTVSPropertyOp37
 70
     1
102
RTVSPropertyOp38
 70
     1
102
RTVSPropertyOp39
 70
     1
102
RTVSPropertyOp40
 70
     1
102
RTVSPropertyOp41
 70
     1
102
RTVSPropertyOp42
 70
     1
102
RTVSPropertyOp43
 70
     1
102
RTVSPropertyOp44
 70
     1
102
RTVSPropertyOp45
 70
     1
102
RTVSPropertyOp46
 70
     1
102
RTVSPropertyOp47
 70
     1
102
RTVSPropertyOp48
 70
     1
102
RTVSPropertyOp49
 70
     1
102
RTVSPropertyOp50
 70
     1
102
RTVSPropertyOp51
 70
     0
102
RTVSPropertyOp52
 70
     0
102
RTVSPropertyOp53
 70
     1
102
RTVSPropertyOp54
 70
     1
102
RTVSPropertyOp55
 70
     1
102
RTVSPropertyOp56
 70
     1
102
RTVSPropertyOp57
 70
     1
102
RTVSPropertyOp58
 70
     1
102
RTVSPropertyOp59
 70
     1
102
RTVSPropertyOp60
 70
     1
102
RTVSPropertyOp61
 70
     1
102
RTVSPropertyOp62
 70
     1
  0
XRECORD
  5
8320
102
{ACAD_REACTORS
330
831F
102
}
330
831F
100
AcDbXrecord
280
     1
102
RTVSPost2010Prop28
280
     0
102
RTVSPost2010PropOp28
 70
     1
102
RTVSPost2010Prop29
280
     1
102
RTVSPost2010PropOp29
 70
     1
102
RTVSPost2010Prop30
280
     1
102
RTVSPost2010PropOp30
 70
     1
102
RTVSPost2010Prop31
280
     0
102
RTVSPost2010PropOp31
 70
     1
102
RTVSPost2010Prop32
280
     0
102
RTVSPost2010PropOp32
 70
     1
102
RTVSPost2010Prop33
280
     0
102
RTVSPost2010PropOp33
 70
     1
102
RTVSPost2010Prop34
280
     0
102
RTVSPost2010PropOp34
 70
     1
102
RTVSPost2010Prop35
280
     0
102
RTVSPost2010PropOp35
 70
     1
102
RTVSPost2010Prop36
280
     0
102
RTVSPost2010PropOp36
 70
     1
102
RTVSPost2010Prop37
 90
       50
102
RTVSPost2010PropOp37
 70
     1
102
RTVSPost2010Prop38
140
0.0
102
RTVSPost2010PropOp38
 70
     1
102
RTVSPost2010Prop39
140
1.0
102
RTVSPost2010PropOp39
 70
     1
102
RTVSPost2010Prop40
 90
        0
102
RTVSPost2010PropOp40
 70
     1
102
RTVSPost2010Prop41ColorIndex
 90
       18
102
RTVSPost2010Prop41ColorRGB
 90
        0
102
RTVSPost2010PropOp41
 70
     1
102
RTVSPost2010Prop42
 90
       50
102
RTVSPost2010PropOp42
 70
     1
102
RTVSPost2010Prop43
 90
        3
102
RTVSPost2010PropOp43
 70
     1
102
RTVSPost2010Prop44ColorIndex
 90
        5
102
RTVSPost2010Prop44ColorRGB
 90
      255
102
RTVSPost2010PropOp44
 70
     1
102
RTVSPost2010Prop45
280
     0
102
RTVSPost2010PropOp45
 70
     1
102
RTVSPost2010Prop46
 90
       50
102
RTVSPost2010PropOp46
 70
     1
102
RTVSPost2010Prop47
 90
       50
102
RTVSPost2010PropOp47
 70
     1
102
RTVSPost2010Prop48
 90
       50
102
RTVSPost2010PropOp48
 70
     1
102
RTVSPost2010Prop49
280
     0
102
RTVSPost2010PropOp49
 70
     1
102
RTVSPost2010Prop50
 90
       50
102
RTVSPost2010PropOp50
 70
     1
102
RTVSPost2010Prop51ColorIndex
 90
      256
102
RTVSPost2010Prop51ColorRGB
 90
-16777216
102
RTVSPost2010PropOp51
 70
     0
102
RTVSPost2010Prop52
140
1.0
102
RTVSPost2010PropOp52
 70
     0
102
RTVSPost2010Prop53
 90
        2
102
RTVSPost2010PropOp53
 70
     1
102
RTVSPost2010Prop54
  1
strokes_ogs.tif
102
RTVSPost2010PropOp54
 70
     1
102
RTVSPost2010Prop55
280
     0
102
RTVSPost2010PropOp55
 70
     1
102
RTVSPost2010Prop56
140
1.0
102
RTVSPost2010PropOp56
 70
     1
102
RTVSPost2010Prop57
140
1.0
102
RTVSPost2010PropOp57
 70
     1
102
RTVSPropertyOp0
 70
     1
102
RTVSPropertyOp1
 70
     1
102
RTVSPropertyOp2
 70
     1
102
RTVSPropertyOp3
 70
     1
102
RTVSPropertyOp4
 70
     1
102
RTVSPropertyOp5
 70
     1
102
RTVSPropertyOp6
 70
     1
102
RTVSPropertyOp7
 70
     1
102
RTVSPropertyOp8
 70
     1
102
RTVSPropertyOp9
 70
     1
102
RTVSPropertyOp10
 70
     1
102
RTVSPropertyOp11
 70
     1
102
RTVSPropertyOp12
 70
     1
102
RTVSPropertyOp13
 70
     1
102
RTVSPropertyOp14
 70
     1
102
RTVSPropertyOp15
 70
     1
102
RTVSPropertyOp16
 70
     1
102
RTVSPropertyOp17
 70
     1
102
RTVSPropertyOp18
 70
     1
102
RTVSPropertyOp19
 70
     1
102
RTVSPropertyOp20
 70
     1
102
RTVSPropertyOp21
 70
     1
102
RTVSPropertyOp22
 70
     1
102
RTVSPropertyOp23
 70
     1
102
RTVSPropertyOp24
 70
     1
102
RTVSPropertyOp25
 70
     1
102
RTVSPropertyOp26
 70
     1
102
RTVSPropertyOp27
 70
     1
102
RTVSPropertyOp28
 70
     1
102
RTVSPropertyOp29
 70
     1
102
RTVSPropertyOp30
 70
     1
102
RTVSPropertyOp31
 70
     1
102
RTVSPropertyOp32
 70
     1
102
RTVSPropertyOp33
 70
     1
102
RTVSPropertyOp34
 70
     1
102
RTVSPropertyOp35
 70
     1
102
RTVSPropertyOp36
 70
     1
102
RTVSPropertyOp37
 70
     1
102
RTVSPropertyOp38
 70
     1
102
RTVSPropertyOp39
 70
     1
102
RTVSPropertyOp40
 70
     1
102
RTVSPropertyOp41
 70
     1
102
RTVSPropertyOp42
 70
     1
102
RTVSPropertyOp43
 70
     1
102
RTVSPropertyOp44
 70
     1
102
RTVSPropertyOp45
 70
     1
102
RTVSPropertyOp46
 70
     1
102
RTVSPropertyOp47
 70
     1
102
RTVSPropertyOp48
 70
     1
102
RTVSPropertyOp49
 70
     1
102
RTVSPropertyOp50
 70
     1
102
RTVSPropertyOp51
 70
     0
102
RTVSPropertyOp52
 70
     0
102
RTVSPropertyOp53
 70
     1
102
RTVSPropertyOp54
 70
     1
102
RTVSPropertyOp55
 70
     1
102
RTVSPropertyOp56
 70
     1
102
RTVSPropertyOp57
 70
     1
102
RTVSPropertyOp58
 70
     1
102
RTVSPropertyOp59
 70
     1
102
RTVSPropertyOp60
 70
     1
102
RTVSPropertyOp61
 70
     1
102
RTVSPropertyOp62
 70
     1
  0
XRECORD
  5
831A
102
{ACAD_REACTORS
330
8319
102
}
330
8319
100
AcDbXrecord
280
     1
102
RTVSPost2010Prop28
280
     0
102
RTVSPost2010PropOp28
 70
     1
102
RTVSPost2010Prop29
280
     1
102
RTVSPost2010PropOp29
 70
     1
102
RTVSPost2010Prop30
280
     1
102
RTVSPost2010PropOp30
 70
     1
102
RTVSPost2010Prop31
280
     0
102
RTVSPost2010PropOp31
 70
     1
102
RTVSPost2010Prop32
280
     0
102
RTVSPost2010PropOp32
 70
     1
102
RTVSPost2010Prop33
280
     0
102
RTVSPost2010PropOp33
 70
     1
102
RTVSPost2010Prop34
280
     0
102
RTVSPost2010PropOp34
 70
     1
102
RTVSPost2010Prop35
280
     0
102
RTVSPost2010PropOp35
 70
     1
102
RTVSPost2010Prop36
280
     0
102
RTVSPost2010PropOp36
 70
     1
102
RTVSPost2010Prop37
 90
       50
102
RTVSPost2010PropOp37
 70
     1
102
RTVSPost2010Prop38
140
0.0
102
RTVSPost2010PropOp38
 70
     1
102
RTVSPost2010Prop39
140
1.0
102
RTVSPost2010PropOp39
 70
     1
102
RTVSPost2010Prop40
 90
        0
102
RTVSPost2010PropOp40
 70
     1
102
RTVSPost2010Prop41ColorIndex
 90
       18
102
RTVSPost2010Prop41ColorRGB
 90
        0
102
RTVSPost2010PropOp41
 70
     1
102
RTVSPost2010Prop42
 90
       50
102
RTVSPost2010PropOp42
 70
     1
102
RTVSPost2010Prop43
 90
        3
102
RTVSPost2010PropOp43
 70
     1
102
RTVSPost2010Prop44ColorIndex
 90
        5
102
RTVSPost2010Prop44ColorRGB
 90
      255
102
RTVSPost2010PropOp44
 70
     1
102
RTVSPost2010Prop45
280
     0
102
RTVSPost2010PropOp45
 70
     1
102
RTVSPost2010Prop46
 90
       50
102
RTVSPost2010PropOp46
 70
     1
102
RTVSPost2010Prop47
 90
       50
102
RTVSPost2010PropOp47
 70
     1
102
RTVSPost2010Prop48
 90
       50
102
RTVSPost2010PropOp48
 70
     1
102
RTVSPost2010Prop49
280
     0
102
RTVSPost2010PropOp49
 70
     1
102
RTVSPost2010Prop50
 90
       50
102
RTVSPost2010PropOp50
 70
     1
102
RTVSPost2010Prop51ColorIndex
 90
      256
102
RTVSPost2010Prop51ColorRGB
 90
-16777216
102
RTVSPost2010PropOp51
 70
     0
102
RTVSPost2010Prop52
140
1.0
102
RTVSPost2010PropOp52
 70
     0
102
RTVSPost2010Prop53
 90
        2
102
RTVSPost2010PropOp53
 70
     1
102
RTVSPost2010Prop54
  1
strokes_ogs.tif
102
RTVSPost2010PropOp54
 70
     1
102
RTVSPost2010Prop55
280
     0
102
RTVSPost2010PropOp55
 70
     1
102
RTVSPost2010Prop56
140
1.0
102
RTVSPost2010PropOp56
 70
     1
102
RTVSPost2010Prop57
140
1.0
102
RTVSPost2010PropOp57
 70
     1
102
RTVSPropertyOp0
 70
     1
102
RTVSPropertyOp1
 70
     1
102
RTVSPropertyOp2
 70
     1
102
RTVSPropertyOp3
 70
     1
102
RTVSPropertyOp4
 70
     1
102
RTVSPropertyOp5
 70
     1
102
RTVSPropertyOp6
 70
     1
102
RTVSPropertyOp7
 70
     1
102
RTVSPropertyOp8
 70
     1
102
RTVSPropertyOp9
 70
     1
102
RTVSPropertyOp10
 70
     1
102
RTVSPropertyOp11
 70
     1
102
RTVSPropertyOp12
 70
     1
102
RTVSPropertyOp13
 70
     1
102
RTVSPropertyOp14
 70
     1
102
RTVSPropertyOp15
 70
     1
102
RTVSPropertyOp16
 70
     1
102
RTVSPropertyOp17
 70
     1
102
RTVSPropertyOp18
 70
     1
102
RTVSPropertyOp19
 70
     1
102
RTVSPropertyOp20
 70
     1
102
RTVSPropertyOp21
 70
     1
102
RTVSPropertyOp22
 70
     1
102
RTVSPropertyOp23
 70
     1
102
RTVSPropertyOp24
 70
     1
102
RTVSPropertyOp25
 70
     1
102
RTVSPropertyOp26
 70
     1
102
RTVSPropertyOp27
 70
     1
102
RTVSPropertyOp28
 70
     1
102
RTVSPropertyOp29
 70
     1
102
RTVSPropertyOp30
 70
     1
102
RTVSPropertyOp31
 70
     1
102
RTVSPropertyOp32
 70
     1
102
RTVSPropertyOp33
 70
     1
102
RTVSPropertyOp34
 70
     1
102
RTVSPropertyOp35
 70
     1
102
RTVSPropertyOp36
 70
     1
102
RTVSPropertyOp37
 70
     1
102
RTVSPropertyOp38
 70
     1
102
RTVSPropertyOp39
 70
     1
102
RTVSPropertyOp40
 70
     1
102
RTVSPropertyOp41
 70
     1
102
RTVSPropertyOp42
 70
     1
102
RTVSPropertyOp43
 70
     1
102
RTVSPropertyOp44
 70
     1
102
RTVSPropertyOp45
 70
     1
102
RTVSPropertyOp46
 70
     1
102
RTVSPropertyOp47
 70
     1
102
RTVSPropertyOp48
 70
     1
102
RTVSPropertyOp49
 70
     1
102
RTVSPropertyOp50
 70
     1
102
RTVSPropertyOp51
 70
     0
102
RTVSPropertyOp52
 70
     0
102
RTVSPropertyOp53
 70
     1
102
RTVSPropertyOp54
 70
     1
102
RTVSPropertyOp55
 70
     1
102
RTVSPropertyOp56
 70
     1
102
RTVSPropertyOp57
 70
     1
102
RTVSPropertyOp58
 70
     1
102
RTVSPropertyOp59
 70
     1
102
RTVSPropertyOp60
 70
     1
102
RTVSPropertyOp61
 70
     1
102
RTVSPropertyOp62
 70
     1
  0
XRECORD
  5
831C
102
{ACAD_REACTORS
330
831B
102
}
330
831B
100
AcDbXrecord
280
     1
102
RTVSPost2010Prop28
280
     0
102
RTVSPost2010PropOp28
 70
     1
102
RTVSPost2010Prop29
280
     1
102
RTVSPost2010PropOp29
 70
     1
102
RTVSPost2010Prop30
280
     1
102
RTVSPost2010PropOp30
 70
     1
102
RTVSPost2010Prop31
280
     0
102
RTVSPost2010PropOp31
 70
     1
102
RTVSPost2010Prop32
280
     0
102
RTVSPost2010PropOp32
 70
     1
102
RTVSPost2010Prop33
280
     0
102
RTVSPost2010PropOp33
 70
     1
102
RTVSPost2010Prop34
280
     0
102
RTVSPost2010PropOp34
 70
     1
102
RTVSPost2010Prop35
280
     0
102
RTVSPost2010PropOp35
 70
     1
102
RTVSPost2010Prop36
280
     0
102
RTVSPost2010PropOp36
 70
     1
102
RTVSPost2010Prop37
 90
       50
102
RTVSPost2010PropOp37
 70
     1
102
RTVSPost2010Prop38
140
0.0
102
RTVSPost2010PropOp38
 70
     1
102
RTVSPost2010Prop39
140
1.0
102
RTVSPost2010PropOp39
 70
     1
102
RTVSPost2010Prop40
 90
        0
102
RTVSPost2010PropOp40
 70
     1
102
RTVSPost2010Prop41ColorIndex
 90
       18
102
RTVSPost2010Prop41ColorRGB
 90
        0
102
RTVSPost2010PropOp41
 70
     1
102
RTVSPost2010Prop42
 90
       50
102
RTVSPost2010PropOp42
 70
     1
102
RTVSPost2010Prop43
 90
        3
102
RTVSPost2010PropOp43
 70
     1
102
RTVSPost2010Prop44ColorIndex
 90
        5
102
RTVSPost2010Prop44ColorRGB
 90
      255
102
RTVSPost2010PropOp44
 70
     1
102
RTVSPost2010Prop45
280
     0
102
RTVSPost2010PropOp45
 70
     1
102
RTVSPost2010Prop46
 90
       50
102
RTVSPost2010PropOp46
 70
     1
102
RTVSPost2010Prop47
 90
       50
102
RTVSPost2010PropOp47
 70
     1
102
RTVSPost2010Prop48
 90
       50
102
RTVSPost2010PropOp48
 70
     1
102
RTVSPost2010Prop49
280
     0
102
RTVSPost2010PropOp49
 70
     1
102
RTVSPost2010Prop50
 90
       50
102
RTVSPost2010PropOp50
 70
     1
102
RTVSPost2010Prop51ColorIndex
 90
      256
102
RTVSPost2010Prop51ColorRGB
 90
-16777216
102
RTVSPost2010PropOp51
 70
     0
102
RTVSPost2010Prop52
140
1.0
102
RTVSPost2010PropOp52
 70
     0
102
RTVSPost2010Prop53
 90
        2
102
RTVSPost2010PropOp53
 70
     1
102
RTVSPost2010Prop54
  1
strokes_ogs.tif
102
RTVSPost2010PropOp54
 70
     1
102
RTVSPost2010Prop55
280
     0
102
RTVSPost2010PropOp55
 70
     1
102
RTVSPost2010Prop56
140
1.0
102
RTVSPost2010PropOp56
 70
     1
102
RTVSPost2010Prop57
140
1.0
102
RTVSPost2010PropOp57
 70
     1
102
RTVSPropertyOp0
 70
     1
102
RTVSPropertyOp1
 70
     1
102
RTVSPropertyOp2
 70
     1
102
RTVSPropertyOp3
 70
     1
102
RTVSPropertyOp4
 70
     1
102
RTVSPropertyOp5
 70
     1
102
RTVSPropertyOp6
 70
     1
102
RTVSPropertyOp7
 70
     1
102
RTVSPropertyOp8
 70
     1
102
RTVSPropertyOp9
 70
     1
102
RTVSPropertyOp10
 70
     1
102
RTVSPropertyOp11
 70
     1
102
RTVSPropertyOp12
 70
     1
102
RTVSPropertyOp13
 70
     1
102
RTVSPropertyOp14
 70
     1
102
RTVSPropertyOp15
 70
     1
102
RTVSPropertyOp16
 70
     1
102
RTVSPropertyOp17
 70
     1
102
RTVSPropertyOp18
 70
     1
102
RTVSPropertyOp19
 70
     1
102
RTVSPropertyOp20
 70
     1
102
RTVSPropertyOp21
 70
     1
102
RTVSPropertyOp22
 70
     1
102
RTVSPropertyOp23
 70
     1
102
RTVSPropertyOp24
 70
     1
102
RTVSPropertyOp25
 70
     1
102
RTVSPropertyOp26
 70
     1
102
RTVSPropertyOp27
 70
     1
102
RTVSPropertyOp28
 70
     1
102
RTVSPropertyOp29
 70
     1
102
RTVSPropertyOp30
 70
     1
102
RTVSPropertyOp31
 70
     1
102
RTVSPropertyOp32
 70
     1
102
RTVSPropertyOp33
 70
     1
102
RTVSPropertyOp34
 70
     1
102
RTVSPropertyOp35
 70
     1
102
RTVSPropertyOp36
 70
     1
102
RTVSPropertyOp37
 70
     1
102
RTVSPropertyOp38
 70
     1
102
RTVSPropertyOp39
 70
     1
102
RTVSPropertyOp40
 70
     1
102
RTVSPropertyOp41
 70
     1
102
RTVSPropertyOp42
 70
     1
102
RTVSPropertyOp43
 70
     1
102
RTVSPropertyOp44
 70
     1
102
RTVSPropertyOp45
 70
     1
102
RTVSPropertyOp46
 70
     1
102
RTVSPropertyOp47
 70
     1
102
RTVSPropertyOp48
 70
     1
102
RTVSPropertyOp49
 70
     1
102
RTVSPropertyOp50
 70
     1
102
RTVSPropertyOp51
 70
     0
102
RTVSPropertyOp52
 70
     0
102
RTVSPropertyOp53
 70
     1
102
RTVSPropertyOp54
 70
     1
102
RTVSPropertyOp55
 70
     1
102
RTVSPropertyOp56
 70
     1
102
RTVSPropertyOp57
 70
     1
102
RTVSPropertyOp58
 70
     1
102
RTVSPropertyOp59
 70
     1
102
RTVSPropertyOp60
 70
     1
102
RTVSPropertyOp61
 70
     1
102
RTVSPropertyOp62
 70
     1
  0
XRECORD
  5
8312
102
{ACAD_REACTORS
330
8311
102
}
330
8311
100
AcDbXrecord
280
     1
102
RTVSPost2010Prop28
280
     0
102
RTVSPost2010PropOp28
 70
     1
102
RTVSPost2010Prop29
280
     1
102
RTVSPost2010PropOp29
 70
     1
102
RTVSPost2010Prop30
280
     1
102
RTVSPost2010PropOp30
 70
     1
102
RTVSPost2010Prop31
280
     0
102
RTVSPost2010PropOp31
 70
     1
102
RTVSPost2010Prop32
280
     0
102
RTVSPost2010PropOp32
 70
     1
102
RTVSPost2010Prop33
280
     0
102
RTVSPost2010PropOp33
 70
     1
102
RTVSPost2010Prop34
280
     0
102
RTVSPost2010PropOp34
 70
     1
102
RTVSPost2010Prop35
280
     0
102
RTVSPost2010PropOp35
 70
     1
102
RTVSPost2010Prop36
280
     0
102
RTVSPost2010PropOp36
 70
     1
102
RTVSPost2010Prop37
 90
       50
102
RTVSPost2010PropOp37
 70
     1
102
RTVSPost2010Prop38
140
0.0
102
RTVSPost2010PropOp38
 70
     1
102
RTVSPost2010Prop39
140
1.0
102
RTVSPost2010PropOp39
 70
     1
102
RTVSPost2010Prop40
 90
        0
102
RTVSPost2010PropOp40
 70
     1
102
RTVSPost2010Prop41ColorIndex
 90
       18
102
RTVSPost2010Prop41ColorRGB
 90
        0
102
RTVSPost2010PropOp41
 70
     1
102
RTVSPost2010Prop42
 90
       50
102
RTVSPost2010PropOp42
 70
     1
102
RTVSPost2010Prop43
 90
        3
102
RTVSPost2010PropOp43
 70
     1
102
RTVSPost2010Prop44ColorIndex
 90
        5
102
RTVSPost2010Prop44ColorRGB
 90
      255
102
RTVSPost2010PropOp44
 70
     1
102
RTVSPost2010Prop45
280
     0
102
RTVSPost2010PropOp45
 70
     1
102
RTVSPost2010Prop46
 90
       50
102
RTVSPost2010PropOp46
 70
     1
102
RTVSPost2010Prop47
 90
       50
102
RTVSPost2010PropOp47
 70
     1
102
RTVSPost2010Prop48
 90
       50
102
RTVSPost2010PropOp48
 70
     1
102
RTVSPost2010Prop49
280
     0
102
RTVSPost2010PropOp49
 70
     1
102
RTVSPost2010Prop50
 90
       50
102
RTVSPost2010PropOp50
 70
     1
102
RTVSPost2010Prop51ColorIndex
 90
      256
102
RTVSPost2010Prop51ColorRGB
 90
-16777216
102
RTVSPost2010PropOp51
 70
     0
102
RTVSPost2010Prop52
140
1.0
102
RTVSPost2010PropOp52
 70
     0
102
RTVSPost2010Prop53
 90
        2
102
RTVSPost2010PropOp53
 70
     1
102
RTVSPost2010Prop54
  1
strokes_ogs.tif
102
RTVSPost2010PropOp54
 70
     1
102
RTVSPost2010Prop55
280
     0
102
RTVSPost2010PropOp55
 70
     1
102
RTVSPost2010Prop56
140
1.0
102
RTVSPost2010PropOp56
 70
     1
102
RTVSPost2010Prop57
140
1.0
102
RTVSPost2010PropOp57
 70
     1
102
RTVSPropertyOp0
 70
     1
102
RTVSPropertyOp1
 70
     1
102
RTVSPropertyOp2
 70
     1
102
RTVSPropertyOp3
 70
     1
102
RTVSPropertyOp4
 70
     1
102
RTVSPropertyOp5
 70
     1
102
RTVSPropertyOp6
 70
     1
102
RTVSPropertyOp7
 70
     1
102
RTVSPropertyOp8
 70
     1
102
RTVSPropertyOp9
 70
     1
102
RTVSPropertyOp10
 70
     1
102
RTVSPropertyOp11
 70
     1
102
RTVSPropertyOp12
 70
     1
102
RTVSPropertyOp13
 70
     1
102
RTVSPropertyOp14
 70
     1
102
RTVSPropertyOp15
 70
     1
102
RTVSPropertyOp16
 70
     1
102
RTVSPropertyOp17
 70
     1
102
RTVSPropertyOp18
 70
     1
102
RTVSPropertyOp19
 70
     1
102
RTVSPropertyOp20
 70
     1
102
RTVSPropertyOp21
 70
     1
102
RTVSPropertyOp22
 70
     1
102
RTVSPropertyOp23
 70
     1
102
RTVSPropertyOp24
 70
     1
102
RTVSPropertyOp25
 70
     1
102
RTVSPropertyOp26
 70
     1
102
RTVSPropertyOp27
 70
     1
102
RTVSPropertyOp28
 70
     1
102
RTVSPropertyOp29
 70
     1
102
RTVSPropertyOp30
 70
     1
102
RTVSPropertyOp31
 70
     1
102
RTVSPropertyOp32
 70
     1
102
RTVSPropertyOp33
 70
     1
102
RTVSPropertyOp34
 70
     1
102
RTVSPropertyOp35
 70
     1
102
RTVSPropertyOp36
 70
     1
102
RTVSPropertyOp37
 70
     1
102
RTVSPropertyOp38
 70
     1
102
RTVSPropertyOp39
 70
     1
102
RTVSPropertyOp40
 70
     1
102
RTVSPropertyOp41
 70
     1
102
RTVSPropertyOp42
 70
     1
102
RTVSPropertyOp43
 70
     1
102
RTVSPropertyOp44
 70
     1
102
RTVSPropertyOp45
 70
     1
102
RTVSPropertyOp46
 70
     1
102
RTVSPropertyOp47
 70
     1
102
RTVSPropertyOp48
 70
     1
102
RTVSPropertyOp49
 70
     1
102
RTVSPropertyOp50
 70
     1
102
RTVSPropertyOp51
 70
     0
102
RTVSPropertyOp52
 70
     0
102
RTVSPropertyOp53
 70
     1
102
RTVSPropertyOp54
 70
     1
102
RTVSPropertyOp55
 70
     1
102
RTVSPropertyOp56
 70
     1
102
RTVSPropertyOp57
 70
     1
102
RTVSPropertyOp58
 70
     1
102
RTVSPropertyOp59
 70
     1
102
RTVSPropertyOp60
 70
     1
102
RTVSPropertyOp61
 70
     1
102
RTVSPropertyOp62
 70
     1
  0
XRECORD
  5
8306
102
{ACAD_REACTORS
330
8305
102
}
330
8305
100
AcDbXrecord
280
     1
102
RTVSPost2010Prop28
280
     0
102
RTVSPost2010PropOp28
 70
     1
102
RTVSPost2010Prop29
280
     1
102
RTVSPost2010PropOp29
 70
     1
102
RTVSPost2010Prop30
280
     1
102
RTVSPost2010PropOp30
 70
     1
102
RTVSPost2010Prop31
280
     0
102
RTVSPost2010PropOp31
 70
     1
102
RTVSPost2010Prop32
280
     0
102
RTVSPost2010PropOp32
 70
     1
102
RTVSPost2010Prop33
280
     0
102
RTVSPost2010PropOp33
 70
     1
102
RTVSPost2010Prop34
280
     0
102
RTVSPost2010PropOp34
 70
     1
102
RTVSPost2010Prop35
280
     0
102
RTVSPost2010PropOp35
 70
     1
102
RTVSPost2010Prop36
280
     0
102
RTVSPost2010PropOp36
 70
     1
102
RTVSPost2010Prop37
 90
       50
102
RTVSPost2010PropOp37
 70
     1
102
RTVSPost2010Prop38
140
0.0
102
RTVSPost2010PropOp38
 70
     1
102
RTVSPost2010Prop39
140
1.0
102
RTVSPost2010PropOp39
 70
     1
102
RTVSPost2010Prop40
 90
        0
102
RTVSPost2010PropOp40
 70
     1
102
RTVSPost2010Prop41ColorIndex
 90
       18
102
RTVSPost2010Prop41ColorRGB
 90
        0
102
RTVSPost2010PropOp41
 70
     1
102
RTVSPost2010Prop42
 90
       50
102
RTVSPost2010PropOp42
 70
     1
102
RTVSPost2010Prop43
 90
        3
102
RTVSPost2010PropOp43
 70
     1
102
RTVSPost2010Prop44ColorIndex
 90
        5
102
RTVSPost2010Prop44ColorRGB
 90
      255
102
RTVSPost2010PropOp44
 70
     1
102
RTVSPost2010Prop45
280
     0
102
RTVSPost2010PropOp45
 70
     1
102
RTVSPost2010Prop46
 90
       50
102
RTVSPost2010PropOp46
 70
     1
102
RTVSPost2010Prop47
 90
       50
102
RTVSPost2010PropOp47
 70
     1
102
RTVSPost2010Prop48
 90
       50
102
RTVSPost2010PropOp48
 70
     1
102
RTVSPost2010Prop49
280
     0
102
RTVSPost2010PropOp49
 70
     1
102
RTVSPost2010Prop50
 90
       50
102
RTVSPost2010PropOp50
 70
     1
102
RTVSPost2010Prop51ColorIndex
 90
      256
102
RTVSPost2010Prop51ColorRGB
 90
-16777216
102
RTVSPost2010PropOp51
 70
     0
102
RTVSPost2010Prop52
140
1.0
102
RTVSPost2010PropOp52
 70
     0
102
RTVSPost2010Prop53
 90
        2
102
RTVSPost2010PropOp53
 70
     1
102
RTVSPost2010Prop54
  1
strokes_ogs.tif
102
RTVSPost2010PropOp54
 70
     1
102
RTVSPost2010Prop55
280
     0
102
RTVSPost2010PropOp55
 70
     1
102
RTVSPost2010Prop56
140
1.0
102
RTVSPost2010PropOp56
 70
     1
102
RTVSPost2010Prop57
140
1.0
102
RTVSPost2010PropOp57
 70
     1
102
RTVSPropertyOp0
 70
     1
102
RTVSPropertyOp1
 70
     1
102
RTVSPropertyOp2
 70
     1
102
RTVSPropertyOp3
 70
     1
102
RTVSPropertyOp4
 70
     1
102
RTVSPropertyOp5
 70
     1
102
RTVSPropertyOp6
 70
     1
102
RTVSPropertyOp7
 70
     1
102
RTVSPropertyOp8
 70
     1
102
RTVSPropertyOp9
 70
     1
102
RTVSPropertyOp10
 70
     1
102
RTVSPropertyOp11
 70
     1
102
RTVSPropertyOp12
 70
     1
102
RTVSPropertyOp13
 70
     1
102
RTVSPropertyOp14
 70
     1
102
RTVSPropertyOp15
 70
     1
102
RTVSPropertyOp16
 70
     1
102
RTVSPropertyOp17
 70
     1
102
RTVSPropertyOp18
 70
     1
102
RTVSPropertyOp19
 70
     1
102
RTVSPropertyOp20
 70
     1
102
RTVSPropertyOp21
 70
     1
102
RTVSPropertyOp22
 70
     1
102
RTVSPropertyOp23
 70
     1
102
RTVSPropertyOp24
 70
     1
102
RTVSPropertyOp25
 70
     1
102
RTVSPropertyOp26
 70
     1
102
RTVSPropertyOp27
 70
     1
102
RTVSPropertyOp28
 70
     1
102
RTVSPropertyOp29
 70
     1
102
RTVSPropertyOp30
 70
     1
102
RTVSPropertyOp31
 70
     1
102
RTVSPropertyOp32
 70
     1
102
RTVSPropertyOp33
 70
     1
102
RTVSPropertyOp34
 70
     1
102
RTVSPropertyOp35
 70
     1
102
RTVSPropertyOp36
 70
     1
102
RTVSPropertyOp37
 70
     1
102
RTVSPropertyOp38
 70
     1
102
RTVSPropertyOp39
 70
     1
102
RTVSPropertyOp40
 70
     1
102
RTVSPropertyOp41
 70
     1
102
RTVSPropertyOp42
 70
     1
102
RTVSPropertyOp43
 70
     1
102
RTVSPropertyOp44
 70
     1
102
RTVSPropertyOp45
 70
     1
102
RTVSPropertyOp46
 70
     1
102
RTVSPropertyOp47
 70
     1
102
RTVSPropertyOp48
 70
     1
102
RTVSPropertyOp49
 70
     1
102
RTVSPropertyOp50
 70
     1
102
RTVSPropertyOp51
 70
     0
102
RTVSPropertyOp52
 70
     0
102
RTVSPropertyOp53
 70
     1
102
RTVSPropertyOp54
 70
     1
102
RTVSPropertyOp55
 70
     1
102
RTVSPropertyOp56
 70
     1
102
RTVSPropertyOp57
 70
     1
102
RTVSPropertyOp58
 70
     1
102
RTVSPropertyOp59
 70
     1
102
RTVSPropertyOp60
 70
     1
102
RTVSPropertyOp61
 70
     1
102
RTVSPropertyOp62
 70
     1
  0
XRECORD
  5
831E
102
{ACAD_REACTORS
330
831D
102
}
330
831D
100
AcDbXrecord
280
     1
102
RTVSPost2010Prop28
280
     0
102
RTVSPost2010PropOp28
 70
     1
102
RTVSPost2010Prop29
280
     1
102
RTVSPost2010PropOp29
 70
     1
102
RTVSPost2010Prop30
280
     1
102
RTVSPost2010PropOp30
 70
     1
102
RTVSPost2010Prop31
280
     0
102
RTVSPost2010PropOp31
 70
     1
102
RTVSPost2010Prop32
280
     0
102
RTVSPost2010PropOp32
 70
     1
102
RTVSPost2010Prop33
280
     0
102
RTVSPost2010PropOp33
 70
     1
102
RTVSPost2010Prop34
280
     0
102
RTVSPost2010PropOp34
 70
     1
102
RTVSPost2010Prop35
280
     0
102
RTVSPost2010PropOp35
 70
     1
102
RTVSPost2010Prop36
280
     0
102
RTVSPost2010PropOp36
 70
     1
102
RTVSPost2010Prop37
 90
       50
102
RTVSPost2010PropOp37
 70
     1
102
RTVSPost2010Prop38
140
0.0
102
RTVSPost2010PropOp38
 70
     1
102
RTVSPost2010Prop39
140
1.0
102
RTVSPost2010PropOp39
 70
     1
102
RTVSPost2010Prop40
 90
        0
102
RTVSPost2010PropOp40
 70
     1
102
RTVSPost2010Prop41ColorIndex
 90
       18
102
RTVSPost2010Prop41ColorRGB
 90
        0
102
RTVSPost2010PropOp41
 70
     1
102
RTVSPost2010Prop42
 90
       50
102
RTVSPost2010PropOp42
 70
     1
102
RTVSPost2010Prop43
 90
        3
102
RTVSPost2010PropOp43
 70
     1
102
RTVSPost2010Prop44ColorIndex
 90
        5
102
RTVSPost2010Prop44ColorRGB
 90
      255
102
RTVSPost2010PropOp44
 70
     1
102
RTVSPost2010Prop45
280
     0
102
RTVSPost2010PropOp45
 70
     1
102
RTVSPost2010Prop46
 90
       50
102
RTVSPost2010PropOp46
 70
     1
102
RTVSPost2010Prop47
 90
       50
102
RTVSPost2010PropOp47
 70
     1
102
RTVSPost2010Prop48
 90
       50
102
RTVSPost2010PropOp48
 70
     1
102
RTVSPost2010Prop49
280
     0
102
RTVSPost2010PropOp49
 70
     1
102
RTVSPost2010Prop50
 90
       50
102
RTVSPost2010PropOp50
 70
     1
102
RTVSPost2010Prop51ColorIndex
 90
      256
102
RTVSPost2010Prop51ColorRGB
 90
-16777216
102
RTVSPost2010PropOp51
 70
     0
102
RTVSPost2010Prop52
140
1.0
102
RTVSPost2010PropOp52
 70
     0
102
RTVSPost2010Prop53
 90
        2
102
RTVSPost2010PropOp53
 70
     1
102
RTVSPost2010Prop54
  1
strokes_ogs.tif
102
RTVSPost2010PropOp54
 70
     1
102
RTVSPost2010Prop55
280
     0
102
RTVSPost2010PropOp55
 70
     1
102
RTVSPost2010Prop56
140
1.0
102
RTVSPost2010PropOp56
 70
     1
102
RTVSPost2010Prop57
140
1.0
102
RTVSPost2010PropOp57
 70
     1
102
RTVSPropertyOp0
 70
     1
102
RTVSPropertyOp1
 70
     1
102
RTVSPropertyOp2
 70
     1
102
RTVSPropertyOp3
 70
     1
102
RTVSPropertyOp4
 70
     1
102
RTVSPropertyOp5
 70
     1
102
RTVSPropertyOp6
 70
     1
102
RTVSPropertyOp7
 70
     1
102
RTVSPropertyOp8
 70
     1
102
RTVSPropertyOp9
 70
     1
102
RTVSPropertyOp10
 70
     1
102
RTVSPropertyOp11
 70
     1
102
RTVSPropertyOp12
 70
     1
102
RTVSPropertyOp13
 70
     1
102
RTVSPropertyOp14
 70
     1
102
RTVSPropertyOp15
 70
     1
102
RTVSPropertyOp16
 70
     1
102
RTVSPropertyOp17
 70
     1
102
RTVSPropertyOp18
 70
     1
102
RTVSPropertyOp19
 70
     1
102
RTVSPropertyOp20
 70
     1
102
RTVSPropertyOp21
 70
     1
102
RTVSPropertyOp22
 70
     1
102
RTVSPropertyOp23
 70
     1
102
RTVSPropertyOp24
 70
     1
102
RTVSPropertyOp25
 70
     1
102
RTVSPropertyOp26
 70
     1
102
RTVSPropertyOp27
 70
     1
102
RTVSPropertyOp28
 70
     1
102
RTVSPropertyOp29
 70
     1
102
RTVSPropertyOp30
 70
     1
102
RTVSPropertyOp31
 70
     1
102
RTVSPropertyOp32
 70
     1
102
RTVSPropertyOp33
 70
     1
102
RTVSPropertyOp34
 70
     1
102
RTVSPropertyOp35
 70
     1
102
RTVSPropertyOp36
 70
     1
102
RTVSPropertyOp37
 70
     1
102
RTVSPropertyOp38
 70
     1
102
RTVSPropertyOp39
 70
     1
102
RTVSPropertyOp40
 70
     1
102
RTVSPropertyOp41
 70
     1
102
RTVSPropertyOp42
 70
     1
102
RTVSPropertyOp43
 70
     1
102
RTVSPropertyOp44
 70
     1
102
RTVSPropertyOp45
 70
     1
102
RTVSPropertyOp46
 70
     1
102
RTVSPropertyOp47
 70
     1
102
RTVSPropertyOp48
 70
     1
102
RTVSPropertyOp49
 70
     1
102
RTVSPropertyOp50
 70
     1
102
RTVSPropertyOp51
 70
     0
102
RTVSPropertyOp52
 70
     0
102
RTVSPropertyOp53
 70
     1
102
RTVSPropertyOp54
 70
     1
102
RTVSPropertyOp55
 70
     1
102
RTVSPropertyOp56
 70
     1
102
RTVSPropertyOp57
 70
     1
102
RTVSPropertyOp58
 70
     1
102
RTVSPropertyOp59
 70
     1
102
RTVSPropertyOp60
 70
     1
102
RTVSPropertyOp61
 70
     1
102
RTVSPropertyOp62
 70
     1
  0
ENDSEC
  0
EOF
