  0
SECTION
  2
HEADER
  9
$ACADVER
  1
AC1015
  9
$ACADMAINTVER
 70
    20
  9
$DWGCODEPAGE
  3
ANSI_932
  9
$INSBASE
 10
0.0
 20
0.0
 30
0.0
  9
$EXTMIN
 10
-0.1281640493871237
 20
-0.1800399741405272
 30
-0.0015258207003583
  9
$EXTMAX
 10
4200.128183607161
 20
5900.180067448153
 30
0.0000000349246037
  9
$LIMMIN
 10
0.0
 20
0.0
  9
$LIMMAX
 10
297.0
 20
210.0
  9
$ORTHOMODE
 70
     1
  9
$REGENMODE
 70
     1
  9
$FILLMODE
 70
     0
  9
$QTEXTMODE
 70
     0
  9
$MIRRTEXT
 70
     1
  9
$LTSCALE
 40
100.0
  9
$ATTMODE
 70
     1
  9
$TEXTSIZE
 40
180.0
  9
$TRACEWID
 40
0.05
  9
$TEXTSTYLE
  7
STANDARD
  9
$CLAYER
  8
3
  9
$CELTYPE
  6
ByLayer
  9
$CECOLOR
 62
   256
  9
$CELTSCALE
 40
1.0
  9
$DISPSILH
 70
     0
  9
$DIMSCALE
 40
20.0
  9
$DIMASZ
 40
2.0
  9
$DIMEXO
 40
1.0
  9
$DIMDLI
 40
10.0
  9
$DIMRND
 40
0.0
  9
$DIMDLE
 40
0.0
  9
$DIMEXE
 40
1.0
  9
$DIMTP
 40
1.0
  9
$DIMTM
 40
1.0
  9
$DIMTXT
 40
3.0
  9
$DIMCEN
 40
0.0
  9
$DIMTSZ
 40
0.0
  9
$DIMTOL
 70
     0
  9
$DIMLIM
 70
     0
  9
$DIMTIH
 70
     0
  9
$DIMTOH
 70
     0
  9
$DIMSE1
 70
     0
  9
$DIMSE2
 70
     0
  9
$DIMTAD
 70
     1
  9
$DIMZIN
 70
     8
  9
$DIMBLK
  1

  9
$DIMASO
 70
     1
  9
$DIMSHO
 70
     1
  9
$DIMPOST
  1

  9
$DIMAPOST
  1

  9
$DIMALT
 70
     0
  9
$DIMALTD
 70
     2
  9
$DIMALTF
 40
0.039
  9
$DIMLFAC
 40
1.0
  9
$DIMTOFL
 70
     1
  9
$DIMTVP
 40
0.0
  9
$DIMTIX
 70
     0
  9
$DIMSOXD
 70
     0
  9
$DIMSAH
 70
     1
  9
$DIMBLK1
  1
OPEN
  9
$DIMBLK2
  1
OPEN
  9
$DIMSTYLE
  2
IGA
  9
$DIMCLRD
 70
     0
  9
$DIMCLRE
 70
     0
  9
$DIMCLRT
 70
     0
  9
$DIMTFAC
 40
10.0
  9
$DIMGAP
 40
1.0
  9
$DIMJUST
 70
     0
  9
$DIMSD1
 70
     0
  9
$DIMSD2
 70
     0
  9
$DIMTOLJ
 70
     1
  9
$DIMTZIN
 70
     0
  9
$DIMALTZ
 70
     0
  9
$DIMALTTZ
 70
     0
  9
$DIMUPT
 70
     0
  9
$DIMDEC
 70
     4
  9
$DIMTDEC
 70
     4
  9
$DIMALTU
 70
     2
  9
$DIMALTTD
 70
     2
  9
$DIMTXSTY
  7
STANDARD
  9
$DIMAUNIT
 70
     0
  9
$DIMADEC
 70
     0
  9
$DIMALTRND
 40
0.0
  9
$DIMAZIN
 70
     0
  9
$DIMDSEP
 70
    46
  9
$DIMATFIT
 70
     3
  9
$DIMFRAC
 70
     0
  9
$DIMLDRBLK
  1
OPEN
  9
$DIMLUNIT
 70
     2
  9
$DIMLWD
 70
    -2
  9
$DIMLWE
 70
    -2
  9
$DIMTMOVE
 70
     0
  9
$LUNITS
 70
     2
  9
$LUPREC
 70
     3
  9
$SKETCHINC
 40
0.1
  9
$FILLETRAD
 40
50.0
  9
$AUNITS
 70
     0
  9
$AUPREC
 70
     0
  9
$MENU
  1
acad
  9
$ELEVATION
 40
0.0
  9
$PELEVATION
 40
0.0
  9
$THICKNESS
 40
0.0
  9
$LIMCHECK
 70
     0
  9
$CHAMFERA
 40
0.5
  9
$CHAMFERB
 40
0.5
  9
$CHAMFERC
 40
0.0
  9
$CHAMFERD
 40
0.0
  9
$SKPOLY
 70
     0
  9
$TDCREATE
 40
2451387.491829167
  9
$TDUCREATE
 40
2451387.116829167
  9
$TDUPDATE
 40
2460262.631850232
  9
$TDUUPDATE
 40
2460262.256850231
  9
$TDINDWG
 40
0.0894649653
  9
$TDUSRTIMER
 40
0.0894649421
  9
$USRTIMER
 70
     1
  9
$ANGBASE
 50
0.0
  9
$ANGDIR
 70
     0
  9
$PDMODE
 70
     0
  9
$PDSIZE
 40
0.0
  9
$PLINEWID
 40
0.0
  9
$SPLFRAME
 70
     0
  9
$SPLINETYPE
 70
     6
  9
$SPLINESEGS
 70
     8
  9
$HANDSEED
  5
8443
  9
$SURFTAB1
 70
     6
  9
$SURFTAB2
 70
     6
  9
$SURFTYPE
 70
     6
  9
$SURFU
 70
     6
  9
$SURFV
 70
     6
  9
$UCSBASE
  2

  9
$UCSNAME
  2

  9
$UCSORG
 10
0.0
 20
0.0
 30
0.0
  9
$UCSXDIR
 10
1.0
 20
0.0
 30
0.0
  9
$UCSYDIR
 10
0.0
 20
1.0
 30
0.0
  9
$UCSORTHOREF
  2

  9
$UCSORTHOVIEW
 70
     0
  9
$UCSORGTOP
 10
0.0
 20
0.0
 30
0.0
  9
$UCSORGBOTTOM
 10
0.0
 20
0.0
 30
0.0
  9
$UCSORGLEFT
 10
0.0
 20
0.0
 30
0.0
  9
$UCSORGRIGHT
 10
0.0
 20
0.0
 30
0.0
  9
$UCSORGFRONT
 10
0.0
 20
0.0
 30
0.0
  9
$UCSORGBACK
 10
0.0
 20
0.0
 30
0.0
  9
$PUCSBASE
  2

  9
$PUCSNAME
  2

  9
$PUCSORG
 10
0.0
 20
0.0
 30
0.0
  9
$PUCSXDIR
 10
1.0
 20
0.0
 30
0.0
  9
$PUCSYDIR
 10
0.0
 20
1.0
 30
0.0
  9
$PUCSORTHOREF
  2

  9
$PUCSORTHOVIEW
 70
     0
  9
$PUCSORGTOP
 10
0.0
 20
0.0
 30
0.0
  9
$PUCSORGBOTTOM
 10
0.0
 20
0.0
 30
0.0
  9
$PUCSORGLEFT
 10
0.0
 20
0.0
 30
0.0
  9
$PUCSORGRIGHT
 10
0.0
 20
0.0
 30
0.0
  9
$PUCSORGFRONT
 10
0.0
 20
0.0
 30
0.0
  9
$PUCSORGBACK
 10
0.0
 20
0.0
 30
0.0
  9
$USERI1
 70
     0
  9
$USERI2
 70
     0
  9
$USERI3
 70
     0
  9
$USERI4
 70
     0
  9
$USERI5
 70
     0
  9
$USERR1
 40
0.0
  9
$USERR2
 40
0.0
  9
$USERR3
 40
0.0
  9
$USERR4
 40
0.0
  9
$USERR5
 40
0.0
  9
$WORLDVIEW
 70
     1
  9
$SHADEDGE
 70
     3
  9
$SHADEDIF
 70
    70
  9
$TILEMODE
 70
     1
  9
$MAXACTVP
 70
    16
  9
$PINSBASE
 10
0.0
 20
0.0
 30
0.0
  9
$PLIMCHECK
 70
     0
  9
$PEXTMIN
 10
1.000000000000000E+20
 20
1.000000000000000E+20
 30
1.000000000000000E+20
  9
$PEXTMAX
 10
-1.000000000000000E+20
 20
-1.000000000000000E+20
 30
-1.000000000000000E+20
  9
$PLIMMIN
 10
0.0
 20
0.0
  9
$PLIMMAX
 10
12.0
 20
9.0
  9
$UNITMODE
 70
     0
  9
$VISRETAIN
 70
     0
  9
$PLINEGEN
 70
     0
  9
$PSLTSCALE
 70
     1
  9
$TREEDEPTH
 70
  3020
  9
$CMLSTYLE
  2
Standard
  9
$CMLJUST
 70
     0
  9
$CMLSCALE
 40
1.0
  9
$PROXYGRAPHICS
 70
     1
  9
$MEASUREMENT
 70
     0
  9
$CELWEIGHT
370
    -1
  9
$ENDCAPS
280
     0
  9
$JOINSTYLE
280
     0
  9
$LWDISPLAY
290
     0
  9
$INSUNITS
 70
     0
  9
$HYPERLINKBASE
  1

  9
$STYLESHEET
  1

  9
$XEDIT
290
     1
  9
$CEPSNTYPE
380
     0
  9
$PSTYLEMODE
290
     1
  9
$FINGERPRINTGUID
  2
{CFA31796-431C-48A7-862F-7CDB4A426DFA}
  9
$VERSIONGUID
  2
{3CD8614C-F37D-48C2-9D0B-3D9D4E2FEA25}
  9
$EXTNAMES
290
     1
  9
$PSVPSCALE
 40
0.0
  9
$OLESTARTUP
290
     0
  0
ENDSEC
  0
SECTION
  2
CLASSES
  0
CLASS
  1
ACDBDICTIONARYWDFLT
  2
AcDbDictionaryWithDefault
  3
ObjectDBX Classes
 90
        0
280
     0
281
     0
  0
CLASS
  1
MATERIAL
  2
AcDbMaterial
  3
ObjectDBX Classes
 90
     1153
280
     0
281
     0
  0
CLASS
  1
VISUALSTYLE
  2
AcDbVisualStyle
  3
ObjectDBX Classes
 90
     4095
280
     0
281
     0
  0
CLASS
  1
SCALE
  2
AcDbScale
  3
ObjectDBX Classes
 90
     1153
280
     0
281
     0
  0
CLASS
  1
TABLESTYLE
  2
AcDbTableStyle
  3
ObjectDBX Classes
 90
     4095
280
     0
281
     0
  0
CLASS
  1
MLEADERSTYLE
  2
AcDbMLeaderStyle
  3
ACDB_MLEADERSTYLE_CLASS
 90
     4095
280
     0
281
     0
  0
CLASS
  1
ACDBSECTIONVIEWSTYLE
  2
AcDbSectionViewStyle
  3
ObjectDBX Classes
 90
     1025
280
     0
281
     0
  0
CLASS
  1
ACDBDETAILVIEWSTYLE
  2
AcDbDetailViewStyle
  3
ObjectDBX Classes
 90
     1025
280
     0
281
     0
  0
CLASS
  1
DICTIONARYVAR
  2
AcDbDictionaryVar
  3
ObjectDBX Classes
 90
        0
280
     0
281
     0
  0
CLASS
  1
CELLSTYLEMAP
  2
AcDbCellStyleMap
  3
ObjectDBX Classes
 90
     1152
280
     0
281
     0
  0
CLASS
  1
ACDBPLACEHOLDER
  2
AcDbPlaceHolder
  3
ObjectDBX Classes
 90
        0
280
     0
281
     0
  0
CLASS
  1
LAYOUT
  2
AcDbLayout
  3
ObjectDBX Classes
 90
        0
280
     0
281
     0
  0
ENDSEC
  0
SECTION
  2
TABLES
  0
TABLE
  2
VPORT
  5
811D
330
0
100
AcDbSymbolTable
 70
     1
  0
VPORT
  5
8189
330
811D
100
AcDbSymbolTableRecord
100
AcDbViewportTableRecord
  2
*ACTIVE
 70
     0
 10
0.0
 20
0.0
 11
1.0
 21
1.0
 12
2100.000009778887
 22
2950.000013737006
 13
0.0
 23
0.0
 14
10.0
 24
10.0
 15
10.0
 25
10.0
 16
0.0
 26
0.0
 36
1.0
 17
0.0
 27
0.0
 37
0.0
 40
5938.142562752639
 41
2.050213675213675
 42
50.0
 43
0.0
 44
0.0
 50
0.0
 51
0.0
 71
     0
 72
   100
 73
     1
 74
     0
 75
     0
 76
     0
 77
     0
 78
     0
281
     0
 65
     1
110
0.0
120
0.0
130
0.0
111
1.0
121
0.0
131
0.0
112
0.0
122
1.0
132
0.0
 79
     0
146
0.0
1001
ACAD_NAV_VCDISPLAY
1070
     3
  0
ENDTAB
  0
TABLE
  2
LTYPE
  5
811A
330
0
100
AcDbSymbolTable
 70
     3
  0
LTYPE
  5
816F
330
811A
100
AcDbSymbolTableRecord
100
AcDbLinetypeTableRecord
  2
ByBlock
 70
     0
  3

 72
    65
 73
     0
 40
0.0
  0
LTYPE
  5
8170
330
811A
100
AcDbSymbolTableRecord
100
AcDbLinetypeTableRecord
  2
ByLayer
 70
     0
  3

 72
    65
 73
     0
 40
0.0
  0
LTYPE
  5
8171
330
811A
100
AcDbSymbolTableRecord
100
AcDbLinetypeTableRecord
  2
CONTINUOUS
 70
     0
  3
Solid line
 72
    65
 73
     0
 40
0.0
  0
LTYPE
  5
818A
330
811A
100
AcDbSymbolTableRecord
100
AcDbLinetypeTableRecord
  2
CENTER
 70
     0
  3
____ _ ____ _ ____ _ ____ _ ____ _ ____ _ ____ 
 72
    65
 73
     4
 40
2.0
 49
1.25
 74
     0
 49
-0.25
 74
     0
 49
0.25
 74
     0
 49
-0.25
 74
     0
  0
ENDTAB
  0
TABLE
  2
LAYER
  5
8117
330
0
100
AcDbSymbolTable
 70
     6
  0
LAYER
  5
8169
102
{ACAD_XDICTIONARY
360
83AC
102
}
330
8117
100
AcDbSymbolTableRecord
100
AcDbLayerTableRecord
  2
0
 70
     0
 62
     7
  6
CONTINUOUS
370
    -3
390
8124
  0
LAYER
  5
8188
102
{ACAD_XDICTIONARY
360
83AE
102
}
330
8117
100
AcDbSymbolTableRecord
100
AcDbLayerTableRecord
  2
3
 70
     0
 62
     2
  6
CONTINUOUS
370
    -3
390
8124
  0
LAYER
  5
818B
102
{ACAD_XDICTIONARY
360
83B0
102
}
330
8117
100
AcDbSymbolTableRecord
100
AcDbLayerTableRecord
  2
2
 70
     0
 62
     3
  6
CENTER
370
    -3
390
8124
  0
LAYER
  5
818C
102
{ACAD_XDICTIONARY
360
83B2
102
}
330
8117
100
AcDbSymbolTableRecord
100
AcDbLayerTableRecord
  2
1
 70
     0
 62
     4
  6
CONTINUOUS
370
    -3
390
8124
  0
LAYER
  5
818D
102
{ACAD_XDICTIONARY
360
83B4
102
}
330
8117
100
AcDbSymbolTableRecord
100
AcDbLayerTableRecord
  2
4
 70
     0
 62
     7
  6
CONTINUOUS
370
    -3
390
8124
  0
LAYER
  5
818E
330
8117
100
AcDbSymbolTableRecord
100
AcDbLayerTableRecord
  2
DEFPOINTS
 70
     0
 62
     7
  6
CONTINUOUS
290
     0
370
    -3
390
8124
  0
ENDTAB
  0
TABLE
  2
STYLE
  5
8118
330
0
100
AcDbSymbolTable
 70
     2
  0
STYLE
  5
816A
330
8118
100
AcDbSymbolTableRecord
100
AcDbTextStyleTableRecord
  2
STANDARD
 70
     0
 40
0.0
 41
1.0
 50
0.0
 71
     0
 42
180.0
  3
simplex.shx
  4
extfont.shx
  0
STYLE
  5
816E
330
8118
100
AcDbSymbolTableRecord
100
AcDbTextStyleTableRecord
  2
Annotative
 70
     0
 40
0.0
 41
1.0
 50
0.0
 71
     0
 42
0.2
  3
txt
  4

1001
AcadAnnotative
1000
AnnotativeData
1002
{
1070
     1
1070
     1
1002
}
  0
ENDTAB
  0
TABLE
  2
VIEW
  5
811B
330
0
100
AcDbSymbolTable
 70
     0
  0
ENDTAB
  0
TABLE
  2
UCS
  5
811C
330
0
100
AcDbSymbolTable
 70
     0
  0
ENDTAB
  0
TABLE
  2
APPID
  5
811E
330
0
100
AcDbSymbolTable
 70
     8
  0
APPID
  5
816B
330
811E
100
AcDbSymbolTableRecord
100
AcDbRegAppTableRecord
  2
ACAD
 70
     0
  0
APPID
  5
8172
330
811E
100
AcDbSymbolTableRecord
100
AcDbRegAppTableRecord
  2
AcadAnnotative
 70
     0
  0
APPID
  5
8218
330
811E
100
AcDbSymbolTableRecord
100
AcDbRegAppTableRecord
  2
AcadAnnoMonitorAlertIconDisabled
 70
     0
  0
APPID
  5
8219
330
811E
100
AcDbSymbolTableRecord
100
AcDbRegAppTableRecord
  2
ACAD_EXEMPT_FROM_CAD_STANDARDS
 70
     0
  0
APPID
  5
8237
330
811E
100
AcDbSymbolTableRecord
100
AcDbRegAppTableRecord
  2
ACAD_DSTYLE_DIMJAG
 70
     0
  0
APPID
  5
8238
330
811E
100
AcDbSymbolTableRecord
100
AcDbRegAppTableRecord
  2
ACAD_DSTYLE_DIMTALN
 70
     0
  0
APPID
  5
83C0
330
811E
100
AcDbSymbolTableRecord
100
AcDbRegAppTableRecord
  2
ACAD_NAV_VCDISPLAY
 70
     0
  0
APPID
  5
843A
330
811E
100
AcDbSymbolTableRecord
100
AcDbRegAppTableRecord
  2
ACAD_MLEADERVER
 70
     0
  0
ENDTAB
  0
TABLE
  2
DIMSTYLE
  5
811F
330
0
100
AcDbSymbolTable
 70
     4
100
AcDbDimStyleTable
 71
     1
340
818F
  0
DIMSTYLE
105
816C
102
{ACAD_REACTORS
330
7C1F
330
7C20
330
7C22
330
7C4A
330
7C4D
330
7C80
330
7C81
330
7C82
330
7C88
330
8029
330
8036
330
8043
330
8050
330
8077
102
}
330
811F
100
AcDbSymbolTableRecord
100
AcDbDimStyleTableRecord
  2
Standard
 70
     0
340
816A
  0
DIMSTYLE
105
816D
330
811F
100
AcDbSymbolTableRecord
100
AcDbDimStyleTableRecord
  2
Annotative
 70
     0
340
816A
1001
AcadAnnotative
1000
AnnotativeData
1002
{
1070
     1
1070
     1
1002
}
  0
DIMSTYLE
105
818F
102
{ACAD_REACTORS
330
81CD
330
81DA
330
820B
330
8239
330
824F
330
8272
330
828C
330
8396
102
}
330
811F
100
AcDbSymbolTableRecord
100
AcDbDimStyleTableRecord
  2
IGA
 70
     0
 40
2.0
 41
2.0
 42
0.5
 43
10.0
 44
1.0
 47
1.0
 48
1.0
 73
     0
 74
     0
 77
     1
 78
     8
140
3.0
141
0.0
143
0.03937
146
10.0
147
1.0
173
     1
271
     3
272
     3
279
     2
284
     8
285
     8
286
     8
340
816A
  0
DIMSTYLE
105
8190
330
811F
100
AcDbSymbolTableRecord
100
AcDbDimStyleTableRecord
  2
MATSU
 70
     0
 41
2.0
 42
1.0
 43
10.0
 44
1.0
 73
     0
 74
     0
 77
     1
 78
     8
140
3.0
141
0.0
143
0.03937
147
0.5
172
     1
173
     1
176
   256
177
   256
178
   256
271
     3
272
     3
279
     2
284
     8
285
     8
286
     8
340
816A
  0
ENDTAB
  0
TABLE
  2
BLOCK_RECORD
  5
8116
330
0
100
AcDbSymbolTable
 70
    38
  0
BLOCK_RECORD
  5
8184
330
8116
100
AcDbSymbolTableRecord
100
AcDbBlockTableRecord
  2
*Model_Space
340
8187
  0
BLOCK_RECORD
  5
8180
330
8116
100
AcDbSymbolTableRecord
100
AcDbBlockTableRecord
  2
*Paper_Space
340
8183
  0
BLOCK_RECORD
  5
8194
330
8116
100
AcDbSymbolTableRecord
100
AcDbBlockTableRecord
  2
$MODEL_SPACE
340
0
  0
BLOCK_RECORD
  5
8196
330
8116
100
AcDbSymbolTableRecord
100
AcDbBlockTableRecord
  2
$PAPER_SPACE
340
0
  0
BLOCK_RECORD
  5
8198
330
8116
100
AcDbSymbolTableRecord
100
AcDbBlockTableRecord
  2
_OPEN
340
0
102
{BLKREFS
331
7DD0
331
7DD1
331
7DDB
331
7DDC
331
7EE5
331
7EE6
331
7ED0
331
7EDA
331
7EDB
331
80ED
331
80EE
331
8230
331
8231
331
8249
331
824A
331
825F
331
8260
331
800E
331
800F
331
8100
331
8101
331
8108
331
8109
331
8022
331
8023
331
802F
331
8030
331
803C
331
803D
331
7E07
331
7E08
331
7F05
331
7F06
331
7E3E
331
7E3F
331
7E49
331
7E4A
331
7E54
331
7E55
331
7E5F
331
7E60
331
7ECF
331
80F9
331
8049
331
804A
331
8070
331
8071
331
81FC
331
81FD
331
8205
331
8206
331
8338
331
8392
331
83A6
331
83A7
102
}
  0
BLOCK_RECORD
  5
819A
330
8116
100
AcDbSymbolTableRecord
100
AcDbBlockTableRecord
  2
YA_N
340
0
102
{BLKREFS
331
7BEF
331
7C06
102
}
  0
BLOCK_RECORD
  5
819C
330
8116
100
AcDbSymbolTableRecord
100
AcDbBlockTableRecord
  2
*D4
340
0
  0
BLOCK_RECORD
  5
819E
330
8116
100
AcDbSymbolTableRecord
100
AcDbBlockTableRecord
  2
*D5
340
0
  0
BLOCK_RECORD
  5
81A0
330
8116
100
AcDbSymbolTableRecord
100
AcDbBlockTableRecord
  2
*D6
340
0
  0
BLOCK_RECORD
  5
81A2
330
8116
100
AcDbSymbolTableRecord
100
AcDbBlockTableRecord
  2
*D7
340
0
  0
BLOCK_RECORD
  5
81A4
330
8116
100
AcDbSymbolTableRecord
100
AcDbBlockTableRecord
  2
*D8
340
0
  0
BLOCK_RECORD
  5
81A6
330
8116
100
AcDbSymbolTableRecord
100
AcDbBlockTableRecord
  2
*D9
340
0
  0
BLOCK_RECORD
  5
81A8
330
8116
100
AcDbSymbolTableRecord
100
AcDbBlockTableRecord
  2
*D10
340
0
  0
BLOCK_RECORD
  5
81AA
330
8116
100
AcDbSymbolTableRecord
100
AcDbBlockTableRecord
  2
*D11
340
0
  0
BLOCK_RECORD
  5
81AC
330
8116
100
AcDbSymbolTableRecord
100
AcDbBlockTableRecord
  2
*D12
340
0
  0
BLOCK_RECORD
  5
81AE
330
8116
100
AcDbSymbolTableRecord
100
AcDbBlockTableRecord
  2
*D13
340
0
  0
BLOCK_RECORD
  5
81B0
330
8116
100
AcDbSymbolTableRecord
100
AcDbBlockTableRecord
  2
*D14
340
0
  0
BLOCK_RECORD
  5
81B2
330
8116
100
AcDbSymbolTableRecord
100
AcDbBlockTableRecord
  2
*D15
340
0
  0
BLOCK_RECORD
  5
81B4
330
8116
100
AcDbSymbolTableRecord
100
AcDbBlockTableRecord
  2
*D16
340
0
  0
BLOCK_RECORD
  5
81B6
330
8116
100
AcDbSymbolTableRecord
100
AcDbBlockTableRecord
  2
_DOT
340
0
102
{BLKREFS
331
80F8
102
}
  0
BLOCK_RECORD
  5
81B7
330
8116
100
AcDbSymbolTableRecord
100
AcDbBlockTableRecord
  2
*D18
340
0
  0
BLOCK_RECORD
  5
81B9
330
8116
100
AcDbSymbolTableRecord
100
AcDbBlockTableRecord
  2
*D19
340
0
  0
BLOCK_RECORD
  5
81BB
330
8116
100
AcDbSymbolTableRecord
100
AcDbBlockTableRecord
  2
*D20
340
0
  0
BLOCK_RECORD
  5
81BE
330
8116
100
AcDbSymbolTableRecord
100
AcDbBlockTableRecord
  2
*D21
340
0
  0
BLOCK_RECORD
  5
81C0
330
8116
100
AcDbSymbolTableRecord
100
AcDbBlockTableRecord
  2
*D22
340
0
  0
BLOCK_RECORD
  5
81C2
330
8116
100
AcDbSymbolTableRecord
100
AcDbBlockTableRecord
  2
*D23
340
0
  0
BLOCK_RECORD
  5
81C4
330
8116
100
AcDbSymbolTableRecord
100
AcDbBlockTableRecord
  2
*D24
340
0
  0
BLOCK_RECORD
  5
81C6
330
8116
100
AcDbSymbolTableRecord
100
AcDbBlockTableRecord
  2
_NONE
340
0
  0
BLOCK_RECORD
  5
81C8
330
8116
100
AcDbSymbolTableRecord
100
AcDbBlockTableRecord
  2
*D26
340
0
  0
BLOCK_RECORD
  5
81CA
330
8116
100
AcDbSymbolTableRecord
100
AcDbBlockTableRecord
  2
*D27
340
0
  0
BLOCK_RECORD
  5
81CE
330
8116
100
AcDbSymbolTableRecord
100
AcDbBlockTableRecord
  2
*D28
340
0
  0
BLOCK_RECORD
  5
81DB
330
8116
100
AcDbSymbolTableRecord
100
AcDbBlockTableRecord
  2
*D29
340
0
  0
BLOCK_RECORD
  5
820C
330
8116
100
AcDbSymbolTableRecord
100
AcDbBlockTableRecord
  2
*D30
340
0
  0
BLOCK_RECORD
  5
823A
330
8116
100
AcDbSymbolTableRecord
100
AcDbBlockTableRecord
  2
*D31
340
0
  0
BLOCK_RECORD
  5
8250
330
8116
100
AcDbSymbolTableRecord
100
AcDbBlockTableRecord
  2
*D32
340
0
  0
BLOCK_RECORD
  5
8265
330
8116
100
AcDbSymbolTableRecord
100
AcDbBlockTableRecord
  2
*D33
340
0
  0
BLOCK_RECORD
  5
8273
330
8116
100
AcDbSymbolTableRecord
100
AcDbBlockTableRecord
  2
*D34
340
0
  0
BLOCK_RECORD
  5
828D
330
8116
100
AcDbSymbolTableRecord
100
AcDbBlockTableRecord
  2
*D35
340
0
  0
BLOCK_RECORD
  5
832F
330
8116
100
AcDbSymbolTableRecord
100
AcDbBlockTableRecord
  2
_DotSmall
340
0
102
{BLKREFS
331
8337
331
8391
102
}
  0
BLOCK_RECORD
  5
8397
330
8116
100
AcDbSymbolTableRecord
100
AcDbBlockTableRecord
  2
*D37
340
0
  0
ENDTAB
  0
ENDSEC
  0
SECTION
  2
BLOCKS
  0
BLOCK
  5
8185
330
8184
100
AcDbEntity
  8
0
100
AcDbBlockBegin
  2
*Model_Space
 70
     0
 10
0.0
 20
0.0
 30
0.0
  3
*Model_Space
  1

  0
ENDBLK
  5
8186
330
8184
100
AcDbEntity
  8
0
100
AcDbBlockEnd
  0
BLOCK
  5
8181
330
8180
100
AcDbEntity
 67
     1
  8
0
100
AcDbBlockBegin
  2
*Paper_Space
 70
     0
 10
0.0
 20
0.0
 30
0.0
  3
*Paper_Space
  1

  0
ENDBLK
  5
8182
330
8180
100
AcDbEntity
 67
     1
  8
0
100
AcDbBlockEnd
  0
BLOCK
  5
8195
330
8194
100
AcDbEntity
  8
0
100
AcDbBlockBegin
  2
$MODEL_SPACE
 70
     0
 10
0.0
 20
0.0
 30
0.0
  3
$MODEL_SPACE
  1

  0
ENDBLK
  5
1B
330
8194
100
AcDbEntity
  8
0
100
AcDbBlockEnd
  0
BLOCK
  5
8197
330
8196
100
AcDbEntity
  8
0
100
AcDbBlockBegin
  2
$PAPER_SPACE
 70
     0
 10
0.0
 20
0.0
 30
0.0
  3
$PAPER_SPACE
  1

  0
ENDBLK
  5
18
330
8196
100
AcDbEntity
  8
0
100
AcDbBlockEnd
  0
BLOCK
  5
8199
330
8198
100
AcDbEntity
  8
0
100
AcDbBlockBegin
  2
_OPEN
 70
     0
 10
0.0
 20
0.0
 30
0.0
  3
_OPEN
  1

  0
LINE
  5
79FD
330
8198
100
AcDbEntity
  8
0
  6
ByBlock
 62
     0
100
AcDbLine
 10
-1.0
 20
0.1666666666666666
 30
0.0
 11
0.0
 21
0.0
 31
0.0
  0
LINE
  5
79FE
330
8198
100
AcDbEntity
  8
0
  6
ByBlock
 62
     0
100
AcDbLine
 10
0.0
 20
0.0
 30
0.0
 11
-1.0
 21
-0.1666666666666666
 31
0.0
  0
LINE
  5
79FF
330
8198
100
AcDbEntity
  8
0
  6
ByBlock
 62
     0
100
AcDbLine
 10
0.0
 20
0.0
 30
0.0
 11
-1.0
 21
0.0
 31
0.0
  0
ENDBLK
  5
7A01
330
8198
100
AcDbEntity
  8
0
100
AcDbBlockEnd
  0
BLOCK
  5
819B
330
819A
100
AcDbEntity
  8
0
100
AcDbBlockBegin
  2
YA_N
 70
     0
 10
0.0
 20
0.0
 30
0.0
  3
YA_N
  1

  0
ENDBLK
  5
7A0C
330
819A
100
AcDbEntity
  8
0
100
AcDbBlockEnd
  0
BLOCK
  5
819D
330
819C
100
AcDbEntity
  8
0
100
AcDbBlockBegin
  2
*D4
 70
     1
 10
0.0
 20
0.0
 30
0.0
  3
*D4
  1

  0
LINE
  5
7DCD
330
819C
100
AcDbEntity
  8
0
  6
ByBlock
100
AcDbLine
 10
-155.4140300875705
 20
1246.09762645012
 30
0.0
 11
-305.3718520045804
 21
1246.09762645012
 31
0.0
  0
LINE
  5
7DCE
330
819C
100
AcDbEntity
  8
0
  6
ByBlock
100
AcDbLine
 10
-155.4140300875705
 20
596.0976264501205
 30
0.0
 11
-305.3718520045804
 21
596.0976264501205
 31
0.0
  0
LINE
  5
7DCF
330
819C
100
AcDbEntity
  8
0
  6
ByBlock
100
AcDbLine
 10
-285.3718520045804
 20
1206.09762645012
 30
0.0
 11
-285.3718520045804
 21
636.0976264501204
 31
0.0
  0
INSERT
  5
7DD0
330
819C
100
AcDbEntity
  8
0
  6
ByBlock
100
AcDbBlockReference
  2
_OPEN
 10
-285.3718520045804
 20
1246.09762645012
 30
0.0
 41
40.0
 42
40.0
 43
40.0
 50
90.0
  0
INSERT
  5
7DD1
330
819C
100
AcDbEntity
  8
0
  6
ByBlock
100
AcDbBlockReference
  2
_OPEN
 10
-285.3718520045804
 20
596.0976264501205
 30
0.0
 41
40.0
 42
40.0
 43
40.0
 50
270.0
  0
TEXT
  5
7DD2
330
819C
100
AcDbEntity
  8
3
100
AcDbText
 10
-295.3718520045804
 20
843.9547693072633
 30
0.0
 40
60.0
  1
650
 50
90.0
100
AcDbText
  0
POINT
  5
7DD3
330
819C
100
AcDbEntity
  8
DEFPOINTS
  6
ByBlock
 62
     0
100
AcDbPoint
 10
-135.4140300875706
 20
1246.09762645012
 30
0.0
  0
POINT
  5
7DD4
330
819C
100
AcDbEntity
  8
DEFPOINTS
  6
ByBlock
 62
     0
100
AcDbPoint
 10
-135.4140300875706
 20
596.0976264501205
 30
0.0
  0
POINT
  5
7DD5
330
819C
100
AcDbEntity
  8
DEFPOINTS
  6
ByBlock
 62
     0
100
AcDbPoint
 10
-285.3718520045804
 20
596.0976264501205
 30
0.0
  0
ENDBLK
  5
7DD6
330
819C
100
AcDbEntity
  8
0
100
AcDbBlockEnd
  0
BLOCK
  5
819F
330
819E
100
AcDbEntity
  8
0
100
AcDbBlockBegin
  2
*D5
 70
     1
 10
0.0
 20
0.0
 30
0.0
  3
*D5
  1

  0
LINE
  5
7DD8
330
819E
100
AcDbEntity
  8
0
  6
ByBlock
100
AcDbLine
 10
-155.4140300875705
 20
1246.09762645012
 30
0.0
 11
-454.9156962082632
 21
1246.09762645012
 31
0.0
  0
LINE
  5
7DD9
330
819E
100
AcDbEntity
  8
0
  6
ByBlock
100
AcDbLine
 10
-202.3070031905663
 20
568.0976264501205
 30
0.0
 11
-454.9156962082632
 21
568.0976264501205
 31
0.0
  0
LINE
  5
7DDA
330
819E
100
AcDbEntity
  8
0
  6
ByBlock
100
AcDbLine
 10
-434.9156962082632
 20
1206.09762645012
 30
0.0
 11
-434.9156962082632
 21
608.0976264501205
 31
0.0
  0
INSERT
  5
7DDB
330
819E
100
AcDbEntity
  8
0
  6
ByBlock
100
AcDbBlockReference
  2
_OPEN
 10
-434.9156962082632
 20
1246.09762645012
 30
0.0
 41
40.0
 42
40.0
 43
40.0
 50
90.0
  0
INSERT
  5
7DDC
330
819E
100
AcDbEntity
  8
0
  6
ByBlock
100
AcDbBlockReference
  2
_OPEN
 10
-434.9156962082632
 20
568.0976264501205
 30
0.0
 41
40.0
 42
40.0
 43
40.0
 50
270.0
  0
TEXT
  5
7DDD
330
819E
100
AcDbEntity
  8
3
100
AcDbText
 10
-444.9156962082634
 20
829.9547693072632
 30
0.0
 40
60.0
  1
678
 50
90.0
100
AcDbText
  0
POINT
  5
7DDE
330
819E
100
AcDbEntity
  8
DEFPOINTS
  6
ByBlock
 62
     0
100
AcDbPoint
 10
-135.4140300875706
 20
1246.09762645012
 30
0.0
  0
POINT
  5
7DDF
330
819E
100
AcDbEntity
  8
DEFPOINTS
  6
ByBlock
 62
     0
100
AcDbPoint
 10
-182.3070031905663
 20
568.0976264501205
 30
0.0
  0
POINT
  5
7DE0
330
819E
100
AcDbEntity
  8
DEFPOINTS
  6
ByBlock
 62
     0
100
AcDbPoint
 10
-434.9156962082632
 20
568.0976264501205
 30
0.0
  0
ENDBLK
  5
7DE1
330
819E
100
AcDbEntity
  8
0
100
AcDbBlockEnd
  0
BLOCK
  5
81A1
330
81A0
100
AcDbEntity
  8
0
100
AcDbBlockBegin
  2
*D6
 70
     1
 10
0.0
 20
0.0
 30
0.0
  3
*D6
  1

  0
LINE
  5
7EE2
330
81A0
100
AcDbEntity
  8
0
  6
ByBlock
100
AcDbLine
 10
698.1223398688261
 20
2794.057551144371
 30
0.0
 11
698.1223398688261
 21
2881.724760620891
 31
0.0
  0
LINE
  5
7EE3
330
81A0
100
AcDbEntity
  8
0
  6
ByBlock
100
AcDbLine
 10
1158.122339868826
 20
2793.690386796245
 30
0.0
 11
1158.122339868826
 21
2881.724760620891
 31
0.0
  0
LINE
  5
7EE4
330
81A0
100
AcDbEntity
  8
0
  6
ByBlock
100
AcDbLine
 10
738.1223398688263
 20
2861.724760620891
 30
0.0
 11
1118.122339868826
 21
2861.724760620891
 31
0.0
  0
INSERT
  5
7EE5
330
81A0
100
AcDbEntity
  8
0
  6
ByBlock
100
AcDbBlockReference
  2
_OPEN
 10
698.1223398688261
 20
2861.724760620891
 30
0.0
 41
40.0
 42
40.0
 43
40.0
 50
180.0
  0
INSERT
  5
7EE6
330
81A0
100
AcDbEntity
  8
0
  6
ByBlock
100
AcDbBlockReference
  2
_OPEN
 10
1158.122339868826
 20
2861.724760620891
 30
0.0
 41
40.0
 42
40.0
 43
40.0
  0
TEXT
  5
7EE7
330
81A0
100
AcDbEntity
  8
3
100
AcDbText
 10
850.9794827259691
 20
2871.724760620891
 30
0.0
 40
60.0
  1
460
100
AcDbText
  0
POINT
  5
7EE8
330
81A0
100
AcDbEntity
  8
DEFPOINTS
  6
ByBlock
 62
     0
100
AcDbPoint
 10
698.1223398688261
 20
2774.057551144371
 30
0.0
  0
POINT
  5
7EE9
330
81A0
100
AcDbEntity
  8
DEFPOINTS
  6
ByBlock
 62
     0
100
AcDbPoint
 10
1158.122339868826
 20
2773.690386796245
 30
0.0
  0
POINT
  5
7EEA
330
81A0
100
AcDbEntity
  8
DEFPOINTS
  6
ByBlock
 62
     0
100
AcDbPoint
 10
1158.122339868826
 20
2861.724760620891
 30
0.0
  0
ENDBLK
  5
7EEB
330
81A0
100
AcDbEntity
  8
0
100
AcDbBlockEnd
  0
BLOCK
  5
81A3
330
81A2
100
AcDbEntity
  8
0
100
AcDbBlockBegin
  2
*D7
 70
     1
 10
0.0
 20
0.0
 30
0.0
  3
*D7
  1

  0
LINE
  5
7ED7
330
81A2
100
AcDbEntity
  8
0
  6
ByBlock
100
AcDbLine
 10
1158.122339868826
 20
2793.690386796245
 30
0.0
 11
1158.122339868826
 21
2881.504314246758
 31
0.0
  0
LINE
  5
7ED8
330
81A2
100
AcDbEntity
  8
0
  6
ByBlock
100
AcDbLine
 10
1703.912877068561
 20
2074.057551144371
 30
0.0
 11
1703.912877068561
 21
2881.504314246758
 31
0.0
  0
LINE
  5
7ED9
330
81A2
100
AcDbEntity
  8
0
  6
ByBlock
100
AcDbLine
 10
1198.122339868826
 20
2861.504314246758
 30
0.0
 11
1663.912877068561
 21
2861.504314246758
 31
0.0
  0
INSERT
  5
7EDA
330
81A2
100
AcDbEntity
  8
0
  6
ByBlock
100
AcDbBlockReference
  2
_OPEN
 10
1158.122339868826
 20
2861.504314246758
 30
0.0
 41
40.0
 42
40.0
 43
40.0
 50
180.0
  0
INSERT
  5
7EDB
330
81A2
100
AcDbEntity
  8
0
  6
ByBlock
100
AcDbBlockReference
  2
_OPEN
 10
1703.912877068561
 20
2861.504314246758
 30
0.0
 41
40.0
 42
40.0
 43
40.0
  0
TEXT
  5
7EDC
330
81A2
100
AcDbEntity
  8
3
100
AcDbText
 10
1353.874751325836
 20
2871.504314246758
 30
0.0
 40
60.0
  1
548
100
AcDbText
  0
POINT
  5
7EDD
330
81A2
100
AcDbEntity
  8
DEFPOINTS
  6
ByBlock
 62
     0
100
AcDbPoint
 10
1158.122339868826
 20
2773.690386796245
 30
0.0
  0
POINT
  5
7EDE
330
81A2
100
AcDbEntity
  8
DEFPOINTS
  6
ByBlock
 62
     0
100
AcDbPoint
 10
1703.912877068561
 20
2054.057551144371
 30
0.0
  0
POINT
  5
7EDF
330
81A2
100
AcDbEntity
  8
DEFPOINTS
  6
ByBlock
 62
     0
100
AcDbPoint
 10
1703.912877068561
 20
2861.504314246758
 30
0.0
  0
ENDBLK
  5
7EE0
330
81A2
100
AcDbEntity
  8
0
100
AcDbBlockEnd
  0
BLOCK
  5
81A5
330
81A4
100
AcDbEntity
  8
0
100
AcDbBlockBegin
  2
*D8
 70
     1
 10
0.0
 20
0.0
 30
0.0
  3
*D8
  1

  0
LINE
  5
80EA
330
81A4
100
AcDbEntity
  8
3
 62
     0
100
AcDbLine
 10
831.3251039243441
 20
2054.057551144371
 30
0.0
 11
568.0161204082907
 21
2054.057551144371
 31
0.0
  0
LINE
  5
80EB
330
81A4
100
AcDbEntity
  8
3
 62
     0
100
AcDbLine
 10
938.2180770273395
 20
1549.057551144371
 30
0.0
 11
568.0161204082905
 21
1549.057551144371
 31
0.0
  0
LINE
  5
80EC
330
81A4
100
AcDbEntity
  8
3
 62
     0
100
AcDbLine
 10
588.0161204082908
 20
2014.057551144371
 30
0.0
 11
588.0161204082904
 21
1589.057551144371
 31
0.0
  0
INSERT
  5
80ED
330
81A4
100
AcDbEntity
  8
3
 62
     0
100
AcDbBlockReference
  2
_OPEN
 10
588.0161204082908
 20
2054.057551144371
 30
0.0
 41
40.0
 42
40.0
 43
40.0
 50
90.0
  0
INSERT
  5
80EE
330
81A4
100
AcDbEntity
  8
3
 62
     0
100
AcDbBlockReference
  2
_OPEN
 10
588.0161204082904
 20
1549.057551144371
 30
0.0
 41
40.0
 42
40.0
 43
40.0
 50
270.0
  0
TEXT
  5
8111
330
81A4
100
AcDbEntity
  8
3
 62
     0
100
AcDbText
 10
418.0159999999999
 20
1695.36
 30
0.0
 40
60.0
  1
505
100
AcDbText
  0
POINT
  5
80F0
330
81A4
100
AcDbEntity
  8
DEFPOINTS
 62
     0
100
AcDbPoint
 10
841.3251039243441
 20
2054.057551144371
 30
0.0
  0
POINT
  5
80F1
330
81A4
100
AcDbEntity
  8
DEFPOINTS
 62
     0
100
AcDbPoint
 10
948.2180770273394
 20
1549.057551144371
 30
0.0
  0
POINT
  5
80F2
330
81A4
100
AcDbEntity
  8
DEFPOINTS
 62
     0
100
AcDbPoint
 10
588.0161204082904
 20
1549.057551144371
 30
0.0
  0
ENDBLK
  5
7F4A
330
81A4
100
AcDbEntity
  8
0
100
AcDbBlockEnd
  0
BLOCK
  5
81A7
330
81A6
100
AcDbEntity
  8
0
100
AcDbBlockBegin
  2
*D9
 70
     1
 10
0.0
 20
0.0
 30
0.0
  3
*D9
  1

  0
LINE
  5
7E04
330
81A6
100
AcDbEntity
  8
0
  6
ByBlock
100
AcDbLine
 10
2992.796193483283
 20
903.0976264501203
 30
0.0
 11
3240.833227053947
 21
903.0976264501203
 31
0.0
  0
LINE
  5
7E05
330
81A6
100
AcDbEntity
  8
0
  6
ByBlock
100
AcDbLine
 10
2992.796193483283
 20
233.0976264501205
 30
0.0
 11
3240.833227053947
 21
233.0976264501205
 31
0.0
  0
LINE
  5
7E06
330
81A6
100
AcDbEntity
  8
0
  6
ByBlock
100
AcDbLine
 10
3220.833227053946
 20
863.0976264501205
 30
0.0
 11
3220.833227053946
 21
273.0976264501205
 31
0.0
  0
INSERT
  5
7E07
330
81A6
100
AcDbEntity
  8
0
  6
ByBlock
100
AcDbBlockReference
  2
_OPEN
 10
3220.833227053946
 20
903.0976264501203
 30
0.0
 41
40.0
 42
40.0
 43
40.0
 50
90.0
  0
INSERT
  5
7E08
330
81A6
100
AcDbEntity
  8
0
  6
ByBlock
100
AcDbBlockReference
  2
_OPEN
 10
3220.833227053946
 20
233.0976264501205
 30
0.0
 41
40.0
 42
40.0
 43
40.0
 50
270.0
  0
TEXT
  5
7E09
330
81A6
100
AcDbEntity
  8
3
100
AcDbText
 10
3210.833227053947
 20
460.9547693072634
 30
0.0
 40
60.0
  1
\U+03C6670
 50
90.0
100
AcDbText
  0
POINT
  5
7E0A
330
81A6
100
AcDbEntity
  8
DEFPOINTS
  6
ByBlock
 62
     0
100
AcDbPoint
 10
2972.796193483283
 20
903.0976264501203
 30
0.0
  0
POINT
  5
7E0B
330
81A6
100
AcDbEntity
  8
DEFPOINTS
  6
ByBlock
 62
     0
100
AcDbPoint
 10
2972.796193483283
 20
233.0976264501205
 30
0.0
  0
POINT
  5
7E0C
330
81A6
100
AcDbEntity
  8
DEFPOINTS
  6
ByBlock
 62
     0
100
AcDbPoint
 10
3220.833227053946
 20
233.0976264501205
 30
0.0
  0
ENDBLK
  5
7E0D
330
81A6
100
AcDbEntity
  8
0
100
AcDbBlockEnd
  0
BLOCK
  5
81A9
330
81A8
100
AcDbEntity
  8
0
100
AcDbBlockBegin
  2
*D10
 70
     1
 10
0.0
 20
0.0
 30
0.0
  3
*D10
  1

  0
LINE
  5
7F02
330
81A8
100
AcDbEntity
  8
0
  6
ByBlock
100
AcDbLine
 10
2831.858577972293
 20
2752.057551144371
 30
0.0
 11
2831.858577972293
 21
2910.249354893976
 31
0.0
  0
LINE
  5
7F03
330
81A8
100
AcDbEntity
  8
0
  6
ByBlock
100
AcDbLine
 10
3631.858577972292
 20
2752.057551144371
 30
0.0
 11
3631.858577972292
 21
2910.249354893976
 31
0.0
  0
LINE
  5
7F04
330
81A8
100
AcDbEntity
  8
0
  6
ByBlock
100
AcDbLine
 10
2871.858577972292
 20
2890.249354893976
 30
0.0
 11
3591.858577972292
 21
2890.249354893976
 31
0.0
  0
INSERT
  5
7F05
330
81A8
100
AcDbEntity
  8
0
  6
ByBlock
100
AcDbBlockReference
  2
_OPEN
 10
2831.858577972293
 20
2890.249354893976
 30
0.0
 41
40.0
 42
40.0
 43
40.0
 50
180.0
  0
INSERT
  5
7F06
330
81A8
100
AcDbEntity
  8
0
  6
ByBlock
100
AcDbBlockReference
  2
_OPEN
 10
3631.858577972292
 20
2890.249354893976
 30
0.0
 41
40.0
 42
40.0
 43
40.0
  0
TEXT
  5
7F07
330
81A8
100
AcDbEntity
  8
3
100
AcDbText
 10
3154.715720829435
 20
2900.249354893976
 30
0.0
 40
60.0
  1
800
100
AcDbText
  0
POINT
  5
7F08
330
81A8
100
AcDbEntity
  8
DEFPOINTS
  6
ByBlock
 62
     0
100
AcDbPoint
 10
2831.858577972293
 20
2732.057551144372
 30
0.0
  0
POINT
  5
7F09
330
81A8
100
AcDbEntity
  8
DEFPOINTS
  6
ByBlock
 62
     0
100
AcDbPoint
 10
3631.858577972292
 20
2732.057551144372
 30
0.0
  0
POINT
  5
7F0A
330
81A8
100
AcDbEntity
  8
DEFPOINTS
  6
ByBlock
 62
     0
100
AcDbPoint
 10
3631.858577972292
 20
2890.249354893976
 30
0.0
  0
ENDBLK
  5
7F0B
330
81A8
100
AcDbEntity
  8
0
100
AcDbBlockEnd
  0
BLOCK
  5
81AB
330
81AA
100
AcDbEntity
  8
0
100
AcDbBlockBegin
  2
*D11
 70
     1
 10
0.0
 20
0.0
 30
0.0
  3
*D11
  1

  0
LINE
  5
7E3B
330
81AA
100
AcDbEntity
  8
0
  6
ByBlock
100
AcDbLine
 10
1374.585969912429
 20
2138.414968530632
 30
0.0
 11
1374.585969912429
 21
1863.01337041143
 31
0.0
  0
LINE
  5
7E3C
330
81AA
100
AcDbEntity
  8
0
  6
ByBlock
100
AcDbLine
 10
-75.41403008757061
 20
2138.414968530633
 30
0.0
 11
-75.41403008757061
 21
1863.01337041143
 31
0.0
  0
LINE
  5
7E3D
330
81AA
100
AcDbEntity
  8
0
  6
ByBlock
100
AcDbLine
 10
1334.585969912429
 20
1883.01337041143
 30
0.0
 11
-35.41403008757061
 21
1883.01337041143
 31
0.0
  0
INSERT
  5
7E3E
330
81AA
100
AcDbEntity
  8
0
  6
ByBlock
100
AcDbBlockReference
  2
_OPEN
 10
1374.585969912429
 20
1883.01337041143
 30
0.0
 41
40.0
 42
40.0
 43
40.0
  0
INSERT
  5
7E3F
330
81AA
100
AcDbEntity
  8
0
  6
ByBlock
100
AcDbBlockReference
  2
_OPEN
 10
-75.41403008757061
 20
1883.01337041143
 30
0.0
 41
40.0
 42
40.0
 43
40.0
 50
180.0
  0
TEXT
  5
7E40
330
81AA
100
AcDbEntity
  8
3
100
AcDbText
 10
549.5859699124292
 20
1893.01337041143
 30
0.0
 40
60.0
  1
1450
100
AcDbText
  0
POINT
  5
7E41
330
81AA
100
AcDbEntity
  8
DEFPOINTS
  6
ByBlock
 62
     0
100
AcDbPoint
 10
1374.585969912429
 20
2158.414968530632
 30
0.0
  0
POINT
  5
7E42
330
81AA
100
AcDbEntity
  8
DEFPOINTS
  6
ByBlock
 62
     0
100
AcDbPoint
 10
-75.41403008757061
 20
2158.414968530633
 30
0.0
  0
POINT
  5
7E43
330
81AA
100
AcDbEntity
  8
DEFPOINTS
  6
ByBlock
 62
     0
100
AcDbPoint
 10
-75.41403008757061
 20
1883.01337041143
 30
0.0
  0
ENDBLK
  5
7E44
330
81AA
100
AcDbEntity
  8
0
100
AcDbBlockEnd
  0
BLOCK
  5
81AD
330
81AC
100
AcDbEntity
  8
0
100
AcDbBlockBegin
  2
*D12
 70
     1
 10
0.0
 20
0.0
 30
0.0
  3
*D12
  1

  0
LINE
  5
7E46
330
81AC
100
AcDbEntity
  8
0
  6
ByBlock
100
AcDbLine
 10
-95.41403008757059
 20
2158.414968530633
 30
0.0
 11
-304.2060010861787
 21
2158.414968530633
 31
0.0
  0
LINE
  5
7E47
330
81AC
100
AcDbEntity
  8
0
  6
ByBlock
100
AcDbLine
 10
-95.41403008757106
 20
3164.414968530635
 30
0.0
 11
-304.2060010861787
 21
3164.414968530635
 31
0.0
  0
LINE
  5
7E48
330
81AC
100
AcDbEntity
  8
0
  6
ByBlock
100
AcDbLine
 10
-284.2060010861787
 20
2198.414968530633
 30
0.0
 11
-284.2060010861787
 21
3124.414968530635
 31
0.0
  0
INSERT
  5
7E49
330
81AC
100
AcDbEntity
  8
0
  6
ByBlock
100
AcDbBlockReference
  2
_OPEN
 10
-284.2060010861787
 20
2158.414968530633
 30
0.0
 41
40.0
 42
40.0
 43
40.0
 50
270.0
  0
INSERT
  5
7E4A
330
81AC
100
AcDbEntity
  8
0
  6
ByBlock
100
AcDbBlockReference
  2
_OPEN
 10
-284.2060010861787
 20
3164.414968530635
 30
0.0
 41
40.0
 42
40.0
 43
40.0
 50
90.0
  0
TEXT
  5
7E4B
330
81AC
100
AcDbEntity
  8
3
100
AcDbText
 10
-294.2060010861787
 20
2562.843539959205
 30
0.0
 40
60.0
  1
1006
 50
90.0
100
AcDbText
  0
POINT
  5
7E4C
330
81AC
100
AcDbEntity
  8
DEFPOINTS
  6
ByBlock
 62
     0
100
AcDbPoint
 10
-75.41403008757061
 20
2158.414968530633
 30
0.0
  0
POINT
  5
7E4D
330
81AC
100
AcDbEntity
  8
DEFPOINTS
  6
ByBlock
 62
     0
100
AcDbPoint
 10
-75.41403008757106
 20
3164.414968530635
 30
0.0
  0
POINT
  5
7E4E
330
81AC
100
AcDbEntity
  8
DEFPOINTS
  6
ByBlock
 62
     0
100
AcDbPoint
 10
-284.2060010861787
 20
3164.414968530635
 30
0.0
  0
ENDBLK
  5
7E4F
330
81AC
100
AcDbEntity
  8
0
100
AcDbBlockEnd
  0
BLOCK
  5
81AF
330
81AE
100
AcDbEntity
  8
0
100
AcDbBlockBegin
  2
*D13
 70
     1
 10
0.0
 20
0.0
 30
0.0
  3
*D13
  1

  0
LINE
  5
7E51
330
81AE
100
AcDbEntity
  8
0
  6
ByBlock
100
AcDbLine
 10
724.5859699124292
 20
3184.414968530634
 30
0.0
 11
724.5859699124292
 21
3333.020259029039
 31
0.0
  0
LINE
  5
7E52
330
81AE
100
AcDbEntity
  8
0
  6
ByBlock
100
AcDbLine
 10
-75.41403008757106
 20
3184.414968530635
 30
0.0
 11
-75.41403008757106
 21
3333.020259029039
 31
0.0
  0
LINE
  5
7E53
330
81AE
100
AcDbEntity
  8
0
  6
ByBlock
100
AcDbLine
 10
684.5859699124294
 20
3313.020259029039
 30
0.0
 11
-35.41403008757106
 21
3313.020259029039
 31
0.0
  0
INSERT
  5
7E54
330
81AE
100
AcDbEntity
  8
0
  6
ByBlock
100
AcDbBlockReference
  2
_OPEN
 10
724.5859699124292
 20
3313.020259029039
 30
0.0
 41
40.0
 42
40.0
 43
40.0
  0
INSERT
  5
7E55
330
81AE
100
AcDbEntity
  8
0
  6
ByBlock
100
AcDbBlockReference
  2
_OPEN
 10
-75.41403008757106
 20
3313.020259029039
 30
0.0
 41
40.0
 42
40.0
 43
40.0
 50
180.0
  0
TEXT
  5
7E56
330
81AE
100
AcDbEntity
  8
3
100
AcDbText
 10
247.443112769572
 20
3323.020259029039
 30
0.0
 40
60.0
  1
800
100
AcDbText
  0
POINT
  5
7E57
330
81AE
100
AcDbEntity
  8
DEFPOINTS
  6
ByBlock
 62
     0
100
AcDbPoint
 10
724.5859699124292
 20
3164.414968530634
 30
0.0
  0
POINT
  5
7E58
330
81AE
100
AcDbEntity
  8
DEFPOINTS
  6
ByBlock
 62
     0
100
AcDbPoint
 10
-75.41403008757106
 20
3164.414968530635
 30
0.0
  0
POINT
  5
7E59
330
81AE
100
AcDbEntity
  8
DEFPOINTS
  6
ByBlock
 62
     0
100
AcDbPoint
 10
-75.41403008757106
 20
3313.020259029039
 30
0.0
  0
ENDBLK
  5
7E5A
330
81AE
100
AcDbEntity
  8
0
100
AcDbBlockEnd
  0
BLOCK
  5
81B1
330
81B0
100
AcDbEntity
  8
0
100
AcDbBlockBegin
  2
*D14
 70
     1
 10
0.0
 20
0.0
 30
0.0
  3
*D14
  1

  0
LINE
  5
7E5C
330
81B0
100
AcDbEntity
  8
0
  6
ByBlock
100
AcDbLine
 10
1394.585969912429
 20
2758.414968530632
 30
0.0
 11
1545.01355378771
 21
2758.414968530632
 31
0.0
  0
LINE
  5
7E5D
330
81B0
100
AcDbEntity
  8
0
  6
ByBlock
100
AcDbLine
 10
1394.585969912429
 20
2158.414968530632
 30
0.0
 11
1545.01355378771
 21
2158.414968530632
 31
0.0
  0
LINE
  5
7E5E
330
81B0
100
AcDbEntity
  8
0
  6
ByBlock
100
AcDbLine
 10
1525.01355378771
 20
2718.414968530632
 30
0.0
 11
1525.01355378771
 21
2198.414968530632
 31
0.0
  0
INSERT
  5
7E5F
330
81B0
100
AcDbEntity
  8
0
  6
ByBlock
100
AcDbBlockReference
  2
_OPEN
 10
1525.01355378771
 20
2758.414968530632
 30
0.0
 41
40.0
 42
40.0
 43
40.0
 50
90.0
  0
INSERT
  5
7E60
330
81B0
100
AcDbEntity
  8
0
  6
ByBlock
100
AcDbBlockReference
  2
_OPEN
 10
1525.01355378771
 20
2158.414968530632
 30
0.0
 41
40.0
 42
40.0
 43
40.0
 50
270.0
  0
TEXT
  5
7E61
330
81B0
100
AcDbEntity
  8
3
100
AcDbText
 10
1515.01355378771
 20
2381.272111387775
 30
0.0
 40
60.0
  1
600
 50
90.0
100
AcDbText
  0
POINT
  5
7E62
330
81B0
100
AcDbEntity
  8
DEFPOINTS
  6
ByBlock
 62
     0
100
AcDbPoint
 10
1374.585969912429
 20
2758.414968530632
 30
0.0
  0
POINT
  5
7E63
330
81B0
100
AcDbEntity
  8
DEFPOINTS
  6
ByBlock
 62
     0
100
AcDbPoint
 10
1374.585969912429
 20
2158.414968530632
 30
0.0
  0
POINT
  5
7E64
330
81B0
100
AcDbEntity
  8
DEFPOINTS
  6
ByBlock
 62
     0
100
AcDbPoint
 10
1525.01355378771
 20
2158.414968530632
 30
0.0
  0
ENDBLK
  5
7E65
330
81B0
100
AcDbEntity
  8
0
100
AcDbBlockEnd
  0
BLOCK
  5
81B3
330
81B2
100
AcDbEntity
  8
0
100
AcDbBlockBegin
  2
*D15
 70
     1
 10
0.0
 20
0.0
 30
0.0
  3
*D15
  1

  0
LINE
  5
7ECC
330
81B2
100
AcDbEntity
  8
0
  6
ByBlock
100
AcDbLine
 10
2208.122339868827
 20
1709.057551144371
 30
0.0
 11
2208.122339868827
 21
3034.114690805144
 31
0.0
  0
LINE
  5
7ECD
330
81B2
100
AcDbEntity
  8
0
  6
ByBlock
100
AcDbLine
 10
698.1223398688261
 20
2794.057551144371
 30
0.0
 11
698.1223398688261
 21
3034.114690805144
 31
0.0
  0
LINE
  5
7ECE
330
81B2
100
AcDbEntity
  8
0
  6
ByBlock
100
AcDbLine
 10
2168.122339868827
 20
3014.114690805144
 30
0.0
 11
738.1223398688263
 21
3014.114690805144
 31
0.0
  0
INSERT
  5
7ECF
330
81B2
100
AcDbEntity
  8
0
  6
ByBlock
100
AcDbBlockReference
  2
_OPEN
 10
2208.122339868827
 20
3014.114690805144
 30
0.0
 41
40.0
 42
40.0
 43
40.0
  0
INSERT
  5
7ED0
330
81B2
100
AcDbEntity
  8
0
  6
ByBlock
100
AcDbBlockReference
  2
_OPEN
 10
698.1223398688261
 20
3014.114690805144
 30
0.0
 41
40.0
 42
40.0
 43
40.0
 50
180.0
  0
TEXT
  5
7ED1
330
81B2
100
AcDbEntity
  8
3
100
AcDbText
 10
1358.836625583112
 20
3024.114690805144
 30
0.0
 40
60.0
  1
1510
100
AcDbText
  0
POINT
  5
7ED2
330
81B2
100
AcDbEntity
  8
DEFPOINTS
  6
ByBlock
 62
     0
100
AcDbPoint
 10
2208.122339868827
 20
1689.057551144371
 30
0.0
  0
POINT
  5
7ED3
330
81B2
100
AcDbEntity
  8
DEFPOINTS
  6
ByBlock
 62
     0
100
AcDbPoint
 10
698.1223398688261
 20
2774.057551144371
 30
0.0
  0
POINT
  5
7ED4
330
81B2
100
AcDbEntity
  8
DEFPOINTS
  6
ByBlock
 62
     0
100
AcDbPoint
 10
698.1223398688261
 20
3014.114690805144
 30
0.0
  0
ENDBLK
  5
7ED5
330
81B2
100
AcDbEntity
  8
0
100
AcDbBlockEnd
  0
BLOCK
  5
81B5
330
81B4
100
AcDbEntity
  8
0
100
AcDbBlockBegin
  2
*D16
 70
     1
 10
0.0
 20
0.0
 30
0.0
  3
*D16
  1

  0
LINE
  5
80F3
330
81B4
100
AcDbEntity
  8
3
 62
     0
100
AcDbLine
 10
938.2180770273395
 20
1522.057551144371
 30
0.0
 11
568.0161204082905
 21
1522.057551144371
 31
0.0
  0
LINE
  5
80F4
330
81B4
100
AcDbEntity
  8
3
 62
     0
100
AcDbLine
 10
938.2180770273395
 20
1422.057551144371
 30
0.0
 11
568.0161204082905
 21
1422.057551144371
 31
0.0
  0
LINE
  5
80F5
330
81B4
100
AcDbEntity
  8
3
 62
     0
100
AcDbLine
 10
588.0161204082904
 20
1562.057551144371
 30
0.0
 11
588.0161204082904
 21
1602.057551144371
 31
0.0
  0
LINE
  5
80F6
330
81B4
100
AcDbEntity
  8
3
 62
     0
100
AcDbLine
 10
588.0161204082904
 20
1382.057551144371
 30
0.0
 11
588.0161204082903
 21
1159.200408287228
 31
0.0
  0
LINE
  5
80F7
330
81B4
100
AcDbEntity
  8
3
 62
     0
100
AcDbLine
 10
588.0161204082904
 20
1522.057551144371
 30
0.0
 11
588.0161204082904
 21
1422.057551144371
 31
0.0
  0
INSERT
  5
80F8
330
81B4
100
AcDbEntity
  8
3
 62
     0
100
AcDbBlockReference
  2
_DOT
 10
588.0161204082904
 20
1522.057551144371
 30
0.0
 41
40.0
 42
40.0
 43
40.0
 50
270.0
  0
INSERT
  5
80F9
330
81B4
100
AcDbEntity
  8
3
 62
     0
100
AcDbBlockReference
  2
_OPEN
 10
588.0161204082904
 20
1422.057551144371
 30
0.0
 41
40.0
 42
40.0
 43
40.0
 50
90.0
  0
TEXT
  5
8112
330
81B4
100
AcDbEntity
  8
3
 62
     0
100
AcDbText
 10
418.0159999999999
 20
1144.43
 30
0.0
 40
60.0
  1
100
100
AcDbText
  0
POINT
  5
80FB
330
81B4
100
AcDbEntity
  8
DEFPOINTS
 62
     0
100
AcDbPoint
 10
948.2180770273394
 20
1522.057551144371
 30
0.0
  0
POINT
  5
80FC
330
81B4
100
AcDbEntity
  8
DEFPOINTS
 62
     0
100
AcDbPoint
 10
948.2180770273394
 20
1422.057551144371
 30
0.0
  0
POINT
  5
80FD
330
81B4
100
AcDbEntity
  8
DEFPOINTS
 62
     0
100
AcDbPoint
 10
588.0161204082904
 20
1422.057551144371
 30
0.0
  0
ENDBLK
  5
7FC5
330
81B4
100
AcDbEntity
  8
0
100
AcDbBlockEnd
  0
BLOCK
  5
81BD
330
81B6
100
AcDbEntity
  8
0
100
AcDbBlockBegin
  2
_DOT
 70
     0
 10
0.0
 20
0.0
 30
0.0
  3
_DOT
  1

  0
LWPOLYLINE
  5
7FEF
330
81B6
100
AcDbEntity
  8
0
  6
ByBlock
 62
     0
100
AcDbPolyline
 90
        2
 70
     1
 43
0.25
 10
-0.125
 20
0.0
 42
1.0
 10
0.125
 20
0.0
 42
1.0
  0
LINE
  5
7FF3
330
81B6
100
AcDbEntity
  8
0
  6
ByBlock
 62
     0
100
AcDbLine
 10
-0.25
 20
0.0
 30
0.0
 11
-1.0
 21
0.0
 31
0.0
  0
ENDBLK
  5
7FB8
330
81B6
100
AcDbEntity
  8
0
100
AcDbBlockEnd
  0
BLOCK
  5
81B8
330
81B7
100
AcDbEntity
  8
0
100
AcDbBlockBegin
  2
*D18
 70
     1
 10
0.0
 20
0.0
 30
0.0
  3
*D18
  1

  0
LINE
  5
800B
330
81B7
100
AcDbEntity
  8
0
  6
ByBlock
100
AcDbLine
 10
3731.858577972293
 20
2044.057551144371
 30
0.0
 11
3731.858577972293
 21
3056.10052155734
 31
0.0
  0
LINE
  5
800C
330
81B7
100
AcDbEntity
  8
0
  6
ByBlock
100
AcDbLine
 10
3231.858577972293
 20
3003.678855993701
 30
0.0
 11
3231.858577972293
 21
3056.10052155734
 31
0.0
  0
LINE
  5
800D
330
81B7
100
AcDbEntity
  8
0
  6
ByBlock
100
AcDbLine
 10
3691.858577972293
 20
3036.10052155734
 30
0.0
 11
3271.858577972293
 21
3036.10052155734
 31
0.0
  0
INSERT
  5
800E
330
81B7
100
AcDbEntity
  8
0
  6
ByBlock
100
AcDbBlockReference
  2
_OPEN
 10
3731.858577972293
 20
3036.10052155734
 30
0.0
 41
40.0
 42
40.0
 43
40.0
  0
INSERT
  5
800F
330
81B7
100
AcDbEntity
  8
0
  6
ByBlock
100
AcDbBlockReference
  2
_OPEN
 10
3231.858577972293
 20
3036.10052155734
 30
0.0
 41
40.0
 42
40.0
 43
40.0
 50
180.0
  0
TEXT
  5
8010
330
81B7
100
AcDbEntity
  8
3
100
AcDbText
 10
3371.858577972293
 20
3071.814807271625
 30
0.0
 40
60.0
  1
(510)
100
AcDbText
  0
POINT
  5
8011
330
81B7
100
AcDbEntity
  8
DEFPOINTS
  6
ByBlock
 62
     0
100
AcDbPoint
 10
3731.858577972293
 20
2024.057551144371
 30
0.0
  0
POINT
  5
8012
330
81B7
100
AcDbEntity
  8
DEFPOINTS
  6
ByBlock
 62
     0
100
AcDbPoint
 10
3231.858577972293
 20
2983.678855993701
 30
0.0
  0
POINT
  5
8013
330
81B7
100
AcDbEntity
  8
DEFPOINTS
  6
ByBlock
 62
     0
100
AcDbPoint
 10
3231.858577972293
 20
3036.10052155734
 30
0.0
  0
ENDBLK
  5
8014
330
81B7
100
AcDbEntity
  8
0
100
AcDbBlockEnd
  0
BLOCK
  5
81BA
330
81B9
100
AcDbEntity
  8
0
100
AcDbBlockBegin
  2
*D19
 70
     1
 10
0.0
 20
0.0
 30
0.0
  3
*D19
  1

  0
LINE
  5
80FE
330
81B9
100
AcDbEntity
  8
3
100
AcDbLine
 10
2551.858577972293
 20
2224.057551144371
 30
0.0
 11
2551.858577972293
 21
3056.10052155734
 31
0.0
  0
LINE
  5
80FF
330
81B9
100
AcDbEntity
  8
3
100
AcDbLine
 10
3191.858577972292
 20
3036.10052155734
 30
0.0
 11
2591.858577972293
 21
3036.10052155734
 31
0.0
  0
INSERT
  5
8100
330
81B9
100
AcDbEntity
  8
3
100
AcDbBlockReference
  2
_OPEN
 10
3231.858577972293
 20
3036.10052155734
 30
0.0
 41
40.0
 42
40.0
 43
40.0
  0
INSERT
  5
8101
330
81B9
100
AcDbEntity
  8
3
100
AcDbBlockReference
  2
_OPEN
 10
2551.858577972293
 20
3036.10052155734
 30
0.0
 41
40.0
 42
40.0
 43
40.0
 50
180.0
  0
TEXT
  5
8113
330
81B9
100
AcDbEntity
  8
3
100
AcDbText
 10
2771.86
 20
3019.9
 30
0.0
 40
60.0
  1
MAX
100
AcDbText
  0
TEXT
  5
8114
330
81B9
100
AcDbEntity
  8
3
100
AcDbText
 10
2771.86
 20
2941.9
 30
0.0
 40
60.0
  1
710
100
AcDbText
  0
POINT
  5
8103
330
81B9
100
AcDbEntity
  8
DEFPOINTS
 62
     0
100
AcDbPoint
 10
3231.858577972293
 20
2983.678855993701
 30
0.0
  0
POINT
  5
8104
330
81B9
100
AcDbEntity
  8
DEFPOINTS
 62
     0
100
AcDbPoint
 10
2551.858577972293
 20
2204.057551144371
 30
0.0
  0
POINT
  5
8105
330
81B9
100
AcDbEntity
  8
DEFPOINTS
 62
     0
100
AcDbPoint
 10
2551.858577972293
 20
3036.10052155734
 30
0.0
  0
ENDBLK
  5
8009
330
81B9
100
AcDbEntity
  8
0
100
AcDbBlockEnd
  0
BLOCK
  5
81BC
330
81BB
100
AcDbEntity
  8
0
100
AcDbBlockBegin
  2
*D20
 70
     1
 10
0.0
 20
0.0
 30
0.0
  3
*D20
  1

  0
LINE
  5
8106
330
81BB
100
AcDbEntity
  8
3
100
AcDbLine
 10
2398.21807702734
 20
4053.283651247936
 30
0.0
 11
2398.21807702734
 21
4607.888941746344
 31
0.0
  0
LINE
  5
8107
330
81BB
100
AcDbEntity
  8
3
100
AcDbLine
 10
1788.21807702734
 20
4587.888941746345
 30
0.0
 11
2358.218077027339
 21
4587.888941746345
 31
0.0
  0
INSERT
  5
8108
330
81BB
100
AcDbEntity
  8
3
100
AcDbBlockReference
  2
_OPEN
 10
1748.218077027339
 20
4587.888941746345
 30
0.0
 41
40.0
 42
40.0
 43
40.0
 50
180.0
  0
INSERT
  5
8109
330
81BB
100
AcDbEntity
  8
3
100
AcDbBlockReference
  2
_OPEN
 10
2398.21807702734
 20
4587.888941746345
 30
0.0
 41
40.0
 42
40.0
 43
40.0
  0
TEXT
  5
8115
330
81BB
100
AcDbEntity
  8
3
100
AcDbText
 10
1953.22
 20
4521.689999999999
 30
0.0
 40
60.0
  1
650
100
AcDbText
  0
POINT
  5
810B
330
81BB
100
AcDbEntity
  8
DEFPOINTS
 62
     0
100
AcDbPoint
 10
1748.218077027339
 20
4439.283651247939
 30
0.0
  0
POINT
  5
810C
330
81BB
100
AcDbEntity
  8
DEFPOINTS
 62
     0
100
AcDbPoint
 10
2398.21807702734
 20
4033.283651247938
 30
0.0
  0
POINT
  5
810D
330
81BB
100
AcDbEntity
  8
DEFPOINTS
 62
     0
100
AcDbPoint
 10
2398.21807702734
 20
4587.888941746345
 30
0.0
  0
ENDBLK
  5
7ECA
330
81BB
100
AcDbEntity
  8
0
100
AcDbBlockEnd
  0
BLOCK
  5
81BF
330
81BE
100
AcDbEntity
  8
0
100
AcDbBlockBegin
  2
*D21
 70
     1
 10
0.0
 20
0.0
 30
0.0
  3
*D21
  1

  0
LINE
  5
801F
330
81BE
100
AcDbEntity
  8
0
  6
ByBlock
 62
     0
100
AcDbLine
 10
948.2180770273394
 20
1402.057551144371
 30
0.0
 11
948.2180770273394
 21
1250.622138628376
 31
0.0
  0
LINE
  5
8020
330
81BE
100
AcDbEntity
  8
0
  6
ByBlock
 62
     0
100
AcDbLine
 10
1348.218077027339
 20
1402.057551144371
 30
0.0
 11
1348.218077027339
 21
1250.622138628376
 31
0.0
  0
LINE
  5
8021
330
81BE
100
AcDbEntity
  8
0
  6
ByBlock
 62
     0
100
AcDbLine
 10
988.2180770273395
 20
1270.622138628376
 30
0.0
 11
1308.218077027339
 21
1270.622138628376
 31
0.0
  0
INSERT
  5
8022
330
81BE
100
AcDbEntity
  8
0
  6
ByBlock
 62
     0
100
AcDbBlockReference
  2
_OPEN
 10
948.2180770273394
 20
1270.622138628376
 30
0.0
 41
40.0
 42
40.0
 43
40.0
 50
180.0
  0
INSERT
  5
8023
330
81BE
100
AcDbEntity
  8
0
  6
ByBlock
 62
     0
100
AcDbBlockReference
  2
_OPEN
 10
1348.218077027339
 20
1270.622138628376
 30
0.0
 41
40.0
 42
40.0
 43
40.0
  0
TEXT
  5
8024
330
81BE
100
AcDbEntity
  8
3
 62
     0
100
AcDbText
 10
1071.075219884482
 20
1290.622138628376
 30
0.0
 40
60.0
  1
400
100
AcDbText
  0
POINT
  5
8025
330
81BE
100
AcDbEntity
  8
DEFPOINTS
  6
ByBlock
 62
     0
100
AcDbPoint
 10
948.2180770273394
 20
1422.057551144371
 30
0.0
  0
POINT
  5
8026
330
81BE
100
AcDbEntity
  8
DEFPOINTS
  6
ByBlock
 62
     0
100
AcDbPoint
 10
1348.218077027339
 20
1422.057551144371
 30
0.0
  0
POINT
  5
8027
330
81BE
100
AcDbEntity
  8
DEFPOINTS
  6
ByBlock
 62
     0
100
AcDbPoint
 10
1348.218077027339
 20
1270.622138628376
 30
0.0
  0
ENDBLK
  5
8028
330
81BE
100
AcDbEntity
  8
0
100
AcDbBlockEnd
  0
BLOCK
  5
81C1
330
81C0
100
AcDbEntity
  8
0
100
AcDbBlockBegin
  2
*D22
 70
     1
 10
0.0
 20
0.0
 30
0.0
  3
*D22
  1

  0
LINE
  5
802C
330
81C0
100
AcDbEntity
  8
0
  6
ByBlock
 62
     0
100
AcDbLine
 10
1348.218077027339
 20
1402.057551144371
 30
0.0
 11
1348.218077027339
 21
1250.622138628376
 31
0.0
  0
LINE
  5
802D
330
81C0
100
AcDbEntity
  8
0
  6
ByBlock
 62
     0
100
AcDbLine
 10
2398.21807702734
 20
1402.057551144371
 30
0.0
 11
2398.21807702734
 21
1250.622138628376
 31
0.0
  0
LINE
  5
802E
330
81C0
100
AcDbEntity
  8
0
  6
ByBlock
 62
     0
100
AcDbLine
 10
1388.21807702734
 20
1270.622138628376
 30
0.0
 11
2358.218077027339
 21
1270.622138628376
 31
0.0
  0
INSERT
  5
802F
330
81C0
100
AcDbEntity
  8
0
  6
ByBlock
 62
     0
100
AcDbBlockReference
  2
_OPEN
 10
1348.218077027339
 20
1270.622138628376
 30
0.0
 41
40.0
 42
40.0
 43
40.0
 50
180.0
  0
INSERT
  5
8030
330
81C0
100
AcDbEntity
  8
0
  6
ByBlock
 62
     0
100
AcDbBlockReference
  2
_OPEN
 10
2398.21807702734
 20
1270.622138628376
 30
0.0
 41
40.0
 42
40.0
 43
40.0
  0
TEXT
  5
8031
330
81C0
100
AcDbEntity
  8
3
 62
     0
100
AcDbText
 10
1773.21807702734
 20
1290.622138628376
 30
0.0
 40
60.0
  1
1050
100
AcDbText
  0
POINT
  5
8032
330
81C0
100
AcDbEntity
  8
DEFPOINTS
  6
ByBlock
 62
     0
100
AcDbPoint
 10
1348.218077027339
 20
1422.057551144371
 30
0.0
  0
POINT
  5
8033
330
81C0
100
AcDbEntity
  8
DEFPOINTS
  6
ByBlock
 62
     0
100
AcDbPoint
 10
2398.21807702734
 20
1422.057551144371
 30
0.0
  0
POINT
  5
8034
330
81C0
100
AcDbEntity
  8
DEFPOINTS
  6
ByBlock
 62
     0
100
AcDbPoint
 10
2398.21807702734
 20
1270.622138628376
 30
0.0
  0
ENDBLK
  5
8035
330
81C0
100
AcDbEntity
  8
0
100
AcDbBlockEnd
  0
BLOCK
  5
81C3
330
81C2
100
AcDbEntity
  8
0
100
AcDbBlockBegin
  2
*D23
 70
     1
 10
0.0
 20
0.0
 30
0.0
  3
*D23
  1

  0
LINE
  5
8039
330
81C2
100
AcDbEntity
  8
0
  6
ByBlock
 62
     0
100
AcDbLine
 10
2678.858577972293
 20
1402.057551144371
 30
0.0
 11
2678.858577972293
 21
1250.622138628376
 31
0.0
  0
LINE
  5
803A
330
81C2
100
AcDbEntity
  8
0
  6
ByBlock
 62
     0
100
AcDbLine
 10
3231.858577972293
 20
1402.057551144371
 30
0.0
 11
3231.858577972293
 21
1250.622138628376
 31
0.0
  0
LINE
  5
803B
330
81C2
100
AcDbEntity
  8
0
  6
ByBlock
 62
     0
100
AcDbLine
 10
2718.858577972293
 20
1270.622138628376
 30
0.0
 11
3191.858577972292
 21
1270.622138628376
 31
0.0
  0
INSERT
  5
803C
330
81C2
100
AcDbEntity
  8
0
  6
ByBlock
 62
     0
100
AcDbBlockReference
  2
_OPEN
 10
2678.858577972293
 20
1270.622138628376
 30
0.0
 41
40.0
 42
40.0
 43
40.0
 50
180.0
  0
INSERT
  5
803D
330
81C2
100
AcDbEntity
  8
0
  6
ByBlock
 62
     0
100
AcDbBlockReference
  2
_OPEN
 10
3231.858577972293
 20
1270.622138628376
 30
0.0
 41
40.0
 42
40.0
 43
40.0
  0
TEXT
  5
803E
330
81C2
100
AcDbEntity
  8
3
 62
     0
100
AcDbText
 10
2878.215720829436
 20
1290.622138628376
 30
0.0
 40
60.0
  1
553
100
AcDbText
  0
POINT
  5
803F
330
81C2
100
AcDbEntity
  8
DEFPOINTS
  6
ByBlock
 62
     0
100
AcDbPoint
 10
2678.858577972293
 20
1422.057551144371
 30
0.0
  0
POINT
  5
8040
330
81C2
100
AcDbEntity
  8
DEFPOINTS
  6
ByBlock
 62
     0
100
AcDbPoint
 10
3231.858577972293
 20
1422.057551144371
 30
0.0
  0
POINT
  5
8041
330
81C2
100
AcDbEntity
  8
DEFPOINTS
  6
ByBlock
 62
     0
100
AcDbPoint
 10
3231.858577972293
 20
1270.622138628376
 30
0.0
  0
ENDBLK
  5
8042
330
81C2
100
AcDbEntity
  8
0
100
AcDbBlockEnd
  0
BLOCK
  5
81C5
330
81C4
100
AcDbEntity
  8
0
100
AcDbBlockBegin
  2
*D24
 70
     1
 10
0.0
 20
0.0
 30
0.0
  3
*D24
  1

  0
LINE
  5
8046
330
81C4
100
AcDbEntity
  8
0
  6
ByBlock
 62
     0
100
AcDbLine
 10
3231.858577972293
 20
1402.057551144371
 30
0.0
 11
3231.858577972293
 21
1250.622138628376
 31
0.0
  0
LINE
  5
8047
330
81C4
100
AcDbEntity
  8
0
  6
ByBlock
 62
     0
100
AcDbLine
 10
3684.858577972294
 20
1402.057551144371
 30
0.0
 11
3684.858577972294
 21
1250.622138628376
 31
0.0
  0
LINE
  5
8048
330
81C4
100
AcDbEntity
  8
0
  6
ByBlock
 62
     0
100
AcDbLine
 10
3271.858577972293
 20
1270.622138628376
 30
0.0
 11
3644.858577972293
 21
1270.622138628376
 31
0.0
  0
INSERT
  5
8049
330
81C4
100
AcDbEntity
  8
0
  6
ByBlock
 62
     0
100
AcDbBlockReference
  2
_OPEN
 10
3231.858577972293
 20
1270.622138628376
 30
0.0
 41
40.0
 42
40.0
 43
40.0
 50
180.0
  0
INSERT
  5
804A
330
81C4
100
AcDbEntity
  8
0
  6
ByBlock
 62
     0
100
AcDbBlockReference
  2
_OPEN
 10
3684.858577972294
 20
1270.622138628376
 30
0.0
 41
40.0
 42
40.0
 43
40.0
  0
TEXT
  5
804B
330
81C4
100
AcDbEntity
  8
3
 62
     0
100
AcDbText
 10
3381.215720829436
 20
1290.622138628376
 30
0.0
 40
60.0
  1
453
100
AcDbText
  0
POINT
  5
804C
330
81C4
100
AcDbEntity
  8
DEFPOINTS
  6
ByBlock
 62
     0
100
AcDbPoint
 10
3231.858577972293
 20
1422.057551144371
 30
0.0
  0
POINT
  5
804D
330
81C4
100
AcDbEntity
  8
DEFPOINTS
  6
ByBlock
 62
     0
100
AcDbPoint
 10
3684.858577972294
 20
1422.057551144371
 30
0.0
  0
POINT
  5
804E
330
81C4
100
AcDbEntity
  8
DEFPOINTS
  6
ByBlock
 62
     0
100
AcDbPoint
 10
3684.858577972294
 20
1270.622138628376
 30
0.0
  0
ENDBLK
  5
804F
330
81C4
100
AcDbEntity
  8
0
100
AcDbBlockEnd
  0
BLOCK
  5
81C7
330
81C6
100
AcDbEntity
  8
0
100
AcDbBlockBegin
  2
_NONE
 70
     0
 10
0.0
 20
0.0
 30
0.0
  3
_NONE
  1

  0
CIRCLE
  5
8053
330
81C6
100
AcDbEntity
  8
0
  6
ByBlock
 62
     0
100
AcDbCircle
 10
0.0
 20
0.0
 30
0.0
 40
0.25
  0
ENDBLK
  5
8054
330
81C6
100
AcDbEntity
  8
0
100
AcDbBlockEnd
  0
BLOCK
  5
81C9
330
81C8
100
AcDbEntity
  8
0
100
AcDbBlockBegin
  2
*D26
 70
     1
 10
0.0
 20
0.0
 30
0.0
  3
*D26
  1

  0
LINE
  5
8062
330
81C8
100
AcDbEntity
  8
0
  6
ByBlock
 62
     0
100
AcDbLine
 10
586.3864713672775
 20
1522.057551144371
 30
0.0
 11
586.3864713672775
 21
1522.057551144371
 31
0.0
  0
LINE
  5
8063
330
81C8
100
AcDbEntity
  8
0
  6
ByBlock
 62
     0
100
AcDbLine
 10
586.3864713672775
 20
1549.057551144371
 30
0.0
 11
586.3864713672775
 21
1629.057551144371
 31
0.0
  0
TEXT
  5
8064
330
81C8
100
AcDbEntity
  8
3
 62
     0
100
AcDbText
 10
510.6721856529916
 20
1448.414694001514
 30
0.0
 40
60.0
  1
(27)
 50
90.0
100
AcDbText
  0
LINE
  5
8065
330
81C8
100
AcDbEntity
  8
0
  6
ByBlock
 62
     0
100
AcDbLine
 10
586.3864713672775
 20
1522.057551144371
 30
0.0
 11
586.3864713672775
 21
1549.057551144371
 31
0.0
  0
POINT
  5
8066
330
81C8
100
AcDbEntity
  8
DEFPOINTS
  6
ByBlock
 62
     0
100
AcDbPoint
 10
948.2180770273394
 20
1522.057551144371
 30
0.0
  0
POINT
  5
8067
330
81C8
100
AcDbEntity
  8
DEFPOINTS
  6
ByBlock
 62
     0
100
AcDbPoint
 10
948.2180770273394
 20
1549.057551144371
 30
0.0
  0
POINT
  5
8068
330
81C8
100
AcDbEntity
  8
DEFPOINTS
  6
ByBlock
 62
     0
100
AcDbPoint
 10
586.3864713672775
 20
1549.057551144371
 30
0.0
  0
ENDBLK
  5
8069
330
81C8
100
AcDbEntity
  8
0
100
AcDbBlockEnd
  0
BLOCK
  5
81CB
330
81CA
100
AcDbEntity
  8
0
100
AcDbBlockBegin
  2
*D27
 70
     1
 10
0.0
 20
0.0
 30
0.0
  3
*D27
  1

  0
LINE
  5
806D
330
81CA
100
AcDbEntity
  8
0
  6
ByBlock
 62
     0
100
AcDbLine
 10
928.2180770273399
 20
1422.057551144371
 30
0.0
 11
384.5813331137142
 21
1422.057551144371
 31
0.0
  0
LINE
  5
806E
330
81CA
100
AcDbEntity
  8
0
  6
ByBlock
 62
     0
100
AcDbLine
 10
868.2180770273399
 20
2732.057551144372
 30
0.0
 11
384.5813331137142
 21
2732.057551144372
 31
0.0
  0
LINE
  5
806F
330
81CA
100
AcDbEntity
  8
0
  6
ByBlock
 62
     0
100
AcDbLine
 10
404.5813331137142
 20
1462.057551144371
 30
0.0
 11
404.5813331137142
 21
2692.057551144371
 31
0.0
  0
INSERT
  5
8070
330
81CA
100
AcDbEntity
  8
0
  6
ByBlock
 62
     0
100
AcDbBlockReference
  2
_OPEN
 10
404.5813331137142
 20
1422.057551144371
 30
0.0
 41
40.0
 42
40.0
 43
40.0
 50
270.0
  0
INSERT
  5
8071
330
81CA
100
AcDbEntity
  8
0
  6
ByBlock
 62
     0
100
AcDbBlockReference
  2
_OPEN
 10
404.5813331137142
 20
2732.057551144372
 30
0.0
 41
40.0
 42
40.0
 43
40.0
 50
90.0
  0
TEXT
  5
8072
330
81CA
100
AcDbEntity
  8
3
 62
     0
100
AcDbText
 10
358.8670473994284
 20
1944.200408287228
 30
0.0
 40
60.0
  1
(1310)
 50
90.0
100
AcDbText
  0
POINT
  5
8073
330
81CA
100
AcDbEntity
  8
DEFPOINTS
  6
ByBlock
 62
     0
100
AcDbPoint
 10
948.2180770273394
 20
1422.057551144371
 30
0.0
  0
POINT
  5
8074
330
81CA
100
AcDbEntity
  8
DEFPOINTS
  6
ByBlock
 62
     0
100
AcDbPoint
 10
888.2180770273397
 20
2732.057551144372
 30
0.0
  0
POINT
  5
8075
330
81CA
100
AcDbEntity
  8
DEFPOINTS
  6
ByBlock
 62
     0
100
AcDbPoint
 10
404.5813331137142
 20
2732.057551144372
 30
0.0
  0
ENDBLK
  5
8076
330
81CA
100
AcDbEntity
  8
0
100
AcDbBlockEnd
  0
BLOCK
  5
81CF
330
81CE
100
AcDbEntity
  8
0
100
AcDbBlockBegin
  2
*D28
 70
     1
 10
0.0
 20
0.0
 30
0.0
  3
*D28
  1

  0
LINE
  5
8202
330
81CE
100
AcDbEntity
  8
3
 62
     0
370
    -2
100
AcDbLine
 10
2451.858577972294
 20
2224.057551144371
 30
0.0
 11
2451.858577972294
 21
3041.606361820481
 31
0.0
  0
LINE
  5
8203
330
81CE
100
AcDbEntity
  8
3
 62
     0
370
    -2
100
AcDbLine
 10
3231.858577972293
 20
2980.249354893976
 30
0.0
 11
3231.858577972293
 21
3041.606361820481
 31
0.0
  0
LINE
  5
8204
330
81CE
100
AcDbEntity
  8
3
 62
     0
370
    -2
100
AcDbLine
 10
2491.858577972294
 20
3021.606361820481
 30
0.0
 11
3191.858577972292
 21
3021.606361820481
 31
0.0
  0
INSERT
  5
8205
330
81CE
100
AcDbEntity
  8
3
 62
     0
370
    -2
100
AcDbBlockReference
  2
_OPEN
 10
2451.858577972294
 20
3021.606361820481
 30
0.0
 41
40.0
 42
40.0
 43
40.0
 50
180.0
  0
INSERT
  5
8206
330
81CE
100
AcDbEntity
  8
3
 62
     0
370
    -2
100
AcDbBlockReference
  2
_OPEN
 10
3231.858577972293
 20
3021.606361820481
 30
0.0
 41
40.0
 42
40.0
 43
40.0
  0
MTEXT
  5
8207
330
81CE
100
AcDbEntity
  8
3
 62
     0
100
AcDbMText
 10
2841.858577972292
 20
3087.320647534767
 30
0.0
 40
60.0
 41
0.0
 71
     5
 72
     1
  1
\A1;(780)
 73
     1
 44
1.0
1001
ACAD
1000
MTEXTBEGIN
1070
    73
1070
     1
1070
    44
1040
1.0
1070
    74
1070
     0
1000
MTEXTEND
  0
POINT
  5
8208
330
81CE
100
AcDbEntity
  8
DEFPOINTS
 62
     0
100
AcDbPoint
 10
2451.858577972294
 20
2204.057551144371
 30
0.0
  0
POINT
  5
8209
330
81CE
100
AcDbEntity
  8
DEFPOINTS
 62
     0
100
AcDbPoint
 10
3231.858577972293
 20
2960.249354893976
 30
0.0
  0
POINT
  5
820A
330
81CE
100
AcDbEntity
  8
DEFPOINTS
 62
     0
100
AcDbPoint
 10
3231.858577972293
 20
3021.606361820481
 30
0.0
  0
ENDBLK
  5
81D0
330
81CE
100
AcDbEntity
  8
0
100
AcDbBlockEnd
  0
BLOCK
  5
81DC
330
81DB
100
AcDbEntity
  8
0
100
AcDbBlockBegin
  2
*D29
 70
     1
 10
0.0
 20
0.0
 30
0.0
  3
*D29
  1

  0
LINE
  5
81F9
330
81DB
100
AcDbEntity
  8
3
 62
     0
370
    -2
100
AcDbLine
 10
3231.858577972293
 20
2980.249354893976
 30
0.0
 11
3231.858577972293
 21
3041.606361820481
 31
0.0
  0
LINE
  5
81FA
330
81DB
100
AcDbEntity
  8
3
 62
     0
370
    -2
100
AcDbLine
 10
3741.858577972293
 20
2044.057551144371
 30
0.0
 11
3741.858577972293
 21
3041.606361820481
 31
0.0
  0
LINE
  5
81FB
330
81DB
100
AcDbEntity
  8
3
 62
     0
370
    -2
100
AcDbLine
 10
3271.858577972292
 20
3021.606361820481
 30
0.0
 11
3701.858577972294
 21
3021.606361820481
 31
0.0
  0
INSERT
  5
81FC
330
81DB
100
AcDbEntity
  8
3
 62
     0
370
    -2
100
AcDbBlockReference
  2
_OPEN
 10
3231.858577972293
 20
3021.606361820481
 30
0.0
 41
40.0
 42
40.0
 43
40.0
 50
180.0
  0
INSERT
  5
81FD
330
81DB
100
AcDbEntity
  8
3
 62
     0
370
    -2
100
AcDbBlockReference
  2
_OPEN
 10
3741.858577972293
 20
3021.606361820481
 30
0.0
 41
40.0
 42
40.0
 43
40.0
  0
MTEXT
  5
81FE
330
81DB
100
AcDbEntity
  8
3
 62
     0
100
AcDbMText
 10
3486.858577972293
 20
3087.320647534767
 30
0.0
 40
60.0
 41
0.0
 71
     5
 72
     1
  1
\A1;(510)
 73
     1
 44
1.0
1001
ACAD
1000
MTEXTBEGIN
1070
    73
1070
     1
1070
    44
1040
1.0
1070
    74
1070
     0
1000
MTEXTEND
  0
POINT
  5
81FF
330
81DB
100
AcDbEntity
  8
DEFPOINTS
 62
     0
100
AcDbPoint
 10
3231.858577972293
 20
2960.249354893976
 30
0.0
  0
POINT
  5
8200
330
81DB
100
AcDbEntity
  8
DEFPOINTS
 62
     0
100
AcDbPoint
 10
3741.858577972293
 20
2024.057551144371
 30
0.0
  0
POINT
  5
8201
330
81DB
100
AcDbEntity
  8
DEFPOINTS
 62
     0
100
AcDbPoint
 10
3741.858577972293
 20
3021.606361820481
 30
0.0
  0
ENDBLK
  5
81DD
330
81DB
100
AcDbEntity
  8
0
100
AcDbBlockEnd
  0
BLOCK
  5
820D
330
820C
100
AcDbEntity
  8
0
100
AcDbBlockBegin
  2
*D30
 70
     1
 10
0.0
 20
0.0
 30
0.0
  3
*D30
  1

  0
LINE
  5
822D
330
820C
100
AcDbEntity
  8
3
 62
     0
370
    -2
100
AcDbLine
 10
948.2180770273394
 20
3413.283651247939
 30
0.0
 11
948.2180770273394
 21
3074.76962230266
 31
0.0
  0
LINE
  5
822E
330
820C
100
AcDbEntity
  8
3
 62
     0
370
    -2
100
AcDbLine
 10
2398.21807702734
 20
3413.283651247939
 30
0.0
 11
2398.21807702734
 21
3074.76962230266
 31
0.0
  0
LINE
  5
822F
330
820C
100
AcDbEntity
  8
3
 62
     0
370
    -2
100
AcDbLine
 10
988.2180770273395
 20
3094.76962230266
 30
0.0
 11
2358.21807702734
 21
3094.76962230266
 31
0.0
  0
INSERT
  5
8230
330
820C
100
AcDbEntity
  8
3
 62
     0
370
    -2
100
AcDbBlockReference
  2
_OPEN
 10
948.2180770273394
 20
3094.76962230266
 30
0.0
 41
40.0
 42
40.0
 43
40.0
 50
180.0
  0
INSERT
  5
8231
330
820C
100
AcDbEntity
  8
3
 62
     0
370
    -2
100
AcDbBlockReference
  2
_OPEN
 10
2398.21807702734
 20
3094.76962230266
 30
0.0
 41
40.0
 42
40.0
 43
40.0
  0
MTEXT
  5
8232
330
820C
100
AcDbEntity
  8
3
 62
     0
100
AcDbMText
 10
1673.21807702734
 20
3144.76962230266
 30
0.0
 40
60.0
 41
0.0
 71
     5
 72
     1
  1
\A1;1450
 73
     1
 44
1.0
1001
ACAD
1000
MTEXTBEGIN
1070
    73
1070
     1
1070
    44
1040
1.0
1070
    74
1070
     0
1000
MTEXTEND
  0
POINT
  5
8233
330
820C
100
AcDbEntity
  8
DEFPOINTS
 62
     0
100
AcDbPoint
 10
948.2180770273394
 20
3433.283651247939
 30
0.0
  0
POINT
  5
8234
330
820C
100
AcDbEntity
  8
DEFPOINTS
 62
     0
100
AcDbPoint
 10
2398.21807702734
 20
3433.283651247938
 30
0.0
  0
POINT
  5
8235
330
820C
100
AcDbEntity
  8
DEFPOINTS
 62
     0
100
AcDbPoint
 10
2398.21807702734
 20
3094.76962230266
 30
0.0
  0
ENDBLK
  5
820E
330
820C
100
AcDbEntity
  8
0
100
AcDbBlockEnd
  0
BLOCK
  5
823B
330
823A
100
AcDbEntity
  8
0
100
AcDbBlockBegin
  2
*D31
 70
     1
 10
0.0
 20
0.0
 30
0.0
  3
*D31
  1

  0
LINE
  5
8246
330
823A
100
AcDbEntity
  8
3
 62
     0
370
    -2
100
AcDbLine
 10
928.2180770273393
 20
1549.057551144371
 30
0.0
 11
568.7164109066467
 21
1549.057551144371
 31
0.0
  0
LINE
  5
8247
330
823A
100
AcDbEntity
  8
3
 62
     0
370
    -2
100
AcDbLine
 10
821.3251039243441
 20
2054.057551144371
 30
0.0
 11
568.7164109066468
 21
2054.057551144371
 31
0.0
  0
LINE
  5
8248
330
823A
100
AcDbEntity
  8
3
 62
     0
370
    -2
100
AcDbLine
 10
588.7164109066467
 20
1589.057551144371
 30
0.0
 11
588.7164109066468
 21
2014.057551144371
 31
0.0
  0
INSERT
  5
8249
330
823A
100
AcDbEntity
  8
3
 62
     0
370
    -2
100
AcDbBlockReference
  2
_OPEN
 10
588.7164109066467
 20
1549.057551144371
 30
0.0
 41
40.0
 42
40.0
 43
40.0
 50
270.0
  0
INSERT
  5
824A
330
823A
100
AcDbEntity
  8
3
 62
     0
370
    -2
100
AcDbBlockReference
  2
_OPEN
 10
588.7164109066468
 20
2054.057551144371
 30
0.0
 41
40.0
 42
40.0
 43
40.0
 50
90.0
  0
MTEXT
  5
824B
330
823A
100
AcDbEntity
  8
3
 62
     0
100
AcDbMText
 10
538.7164109066465
 20
1801.557551144371
 30
0.0
 40
60.0
 41
0.0
 71
     5
 72
     1
  1
\A1;505
 11
0.0000000000000001
 21
1.0
 31
0.0
 73
     1
 44
1.0
1001
ACAD
1000
MTEXTBEGIN
1070
    73
1070
     1
1070
    44
1040
1.0
1070
    74
1070
     0
1000
MTEXTEND
  0
POINT
  5
824C
330
823A
100
AcDbEntity
  8
DEFPOINTS
 62
     0
100
AcDbPoint
 10
948.2180770273394
 20
1549.057551144371
 30
0.0
  0
POINT
  5
824D
330
823A
100
AcDbEntity
  8
DEFPOINTS
 62
     0
100
AcDbPoint
 10
841.3251039243441
 20
2054.057551144371
 30
0.0
  0
POINT
  5
824E
330
823A
100
AcDbEntity
  8
DEFPOINTS
 62
     0
100
AcDbPoint
 10
588.7164109066468
 20
2054.057551144371
 30
0.0
  0
ENDBLK
  5
823C
330
823A
100
AcDbEntity
  8
0
100
AcDbBlockEnd
  0
BLOCK
  5
8251
330
8250
100
AcDbEntity
  8
0
100
AcDbBlockBegin
  2
*D32
 70
     1
 10
0.0
 20
0.0
 30
0.0
  3
*D32
  1

  0
LINE
  5
825C
330
8250
100
AcDbEntity
  8
3
 62
     0
370
    -2
100
AcDbLine
 10
1348.218077027339
 20
2793.690386796245
 30
0.0
 11
1348.218077027339
 21
2881.724760620891
 31
0.0
  0
LINE
  5
825D
330
8250
100
AcDbEntity
  8
3
 62
     0
370
    -2
100
AcDbLine
 10
1896.21807702734
 20
2121.057551144371
 30
0.0
 11
1896.21807702734
 21
2881.724760620891
 31
0.0
  0
LINE
  5
825E
330
8250
100
AcDbEntity
  8
3
 62
     0
370
    -2
100
AcDbLine
 10
1388.218077027339
 20
2861.724760620891
 30
0.0
 11
1856.21807702734
 21
2861.724760620891
 31
0.0
  0
INSERT
  5
825F
330
8250
100
AcDbEntity
  8
3
 62
     0
370
    -2
100
AcDbBlockReference
  2
_OPEN
 10
1348.218077027339
 20
2861.724760620891
 30
0.0
 41
40.0
 42
40.0
 43
40.0
 50
180.0
  0
INSERT
  5
8260
330
8250
100
AcDbEntity
  8
3
 62
     0
370
    -2
100
AcDbBlockReference
  2
_OPEN
 10
1896.21807702734
 20
2861.724760620891
 30
0.0
 41
40.0
 42
40.0
 43
40.0
  0
MTEXT
  5
8261
330
8250
100
AcDbEntity
  8
3
 62
     0
100
AcDbMText
 10
1622.218077027339
 20
2911.724760620892
 30
0.0
 40
60.0
 41
0.0
 71
     5
 72
     1
  1
\A1;548
 73
     1
 44
1.0
1001
ACAD
1000
MTEXTBEGIN
1070
    73
1070
     1
1070
    44
1040
1.0
1070
    74
1070
     0
1000
MTEXTEND
  0
POINT
  5
8262
330
8250
100
AcDbEntity
  8
DEFPOINTS
 62
     0
100
AcDbPoint
 10
1348.218077027339
 20
2773.690386796245
 30
0.0
  0
POINT
  5
8263
330
8250
100
AcDbEntity
  8
DEFPOINTS
 62
     0
100
AcDbPoint
 10
1896.21807702734
 20
2101.057551144371
 30
0.0
  0
POINT
  5
8264
330
8250
100
AcDbEntity
  8
DEFPOINTS
 62
     0
100
AcDbPoint
 10
1896.21807702734
 20
2861.724760620891
 30
0.0
  0
ENDBLK
  5
8252
330
8250
100
AcDbEntity
  8
0
100
AcDbBlockEnd
  0
BLOCK
  5
8266
330
8265
100
AcDbEntity
  8
0
100
AcDbBlockBegin
  2
*D33
 70
     1
 10
0.0
 20
0.0
 30
0.0
  3
*D33
  1

  0
LINE
  5
8268
330
8265
100
AcDbEntity
  8
3
 62
     0
370
    -2
100
AcDbLine
 10
946.9680770273395
 20
1522.057551144371
 30
0.0
 11
584.4161204082904
 21
1522.057551144371
 31
0.0
  0
LINE
  5
8269
330
8265
100
AcDbEntity
  8
3
 62
     0
370
    -2
100
AcDbLine
 10
946.9680770273395
 20
1422.057551144371
 30
0.0
 11
584.4161204082904
 21
1422.057551144371
 31
0.0
  0
LINE
  5
826A
330
8265
100
AcDbEntity
  8
3
 62
     0
370
    -2
100
AcDbLine
 10
588.0161204082904
 20
1518.457551144371
 30
0.0
 11
588.0161204082904
 21
1475.657551144371
 31
0.0
  0
LINE
  5
826B
330
8265
100
AcDbEntity
  8
3
 62
     0
370
    -2
100
AcDbLine
 10
588.0161204082904
 20
1425.657551144371
 30
0.0
 11
588.0161204082904
 21
1468.457551144371
 31
0.0
  0
SOLID
  5
826C
330
8265
100
AcDbEntity
  8
3
 62
     0
100
AcDbTrace
 10
587.4161204082904
 20
1518.457551144371
 30
0.0
 11
588.6161204082904
 21
1518.457551144371
 31
0.0
 12
588.0161204082904
 22
1522.057551144371
 32
0.0
 13
588.0161204082904
 23
1522.057551144371
 33
0.0
  0
SOLID
  5
826D
330
8265
100
AcDbEntity
  8
3
 62
     0
100
AcDbTrace
 10
587.4161204082904
 20
1425.657551144371
 30
0.0
 11
588.6161204082904
 21
1425.657551144371
 31
0.0
 12
588.0161204082904
 22
1422.057551144371
 32
0.0
 13
588.0161204082904
 23
1422.057551144371
 33
0.0
  0
MTEXT
  5
826E
330
8265
100
AcDbEntity
  8
3
 62
     0
100
AcDbMText
 10
588.0161204082902
 20
1472.057551144371
 30
0.0
 40
3.599999999999999
 41
0.0
 71
     5
 72
     1
  1
\A1;100
 73
     1
 44
1.0
1001
ACAD
1000
MTEXTBEGIN
1070
    73
1070
     1
1070
    44
1040
1.0
1070
    74
1070
     0
1000
MTEXTEND
  0
POINT
  5
826F
330
8265
100
AcDbEntity
  8
DEFPOINTS
 62
     0
100
AcDbPoint
 10
948.2180770273394
 20
1522.057551144371
 30
0.0
  0
POINT
  5
8270
330
8265
100
AcDbEntity
  8
DEFPOINTS
 62
     0
100
AcDbPoint
 10
948.2180770273394
 20
1422.057551144371
 30
0.0
  0
POINT
  5
8271
330
8265
100
AcDbEntity
  8
DEFPOINTS
 62
     0
100
AcDbPoint
 10
588.0161204082904
 20
1422.057551144371
 30
0.0
  0
ENDBLK
  5
8267
330
8265
100
AcDbEntity
  8
0
100
AcDbBlockEnd
  0
BLOCK
  5
8274
330
8273
100
AcDbEntity
  8
0
100
AcDbBlockBegin
  2
*D34
 70
     1
 10
0.0
 20
0.0
 30
0.0
  3
*D34
  1

  0
LINE
  5
8333
330
8273
100
AcDbEntity
  8
3
 62
     0
370
    -2
100
AcDbLine
 10
928.2180770273395
 20
1422.057551144371
 30
0.0
 11
568.7164109066467
 21
1422.057551144371
 31
0.0
  0
LINE
  5
8334
330
8273
100
AcDbEntity
  8
3
 62
     0
370
    -2
100
AcDbLine
 10
928.2180770273395
 20
1522.057551144371
 30
0.0
 11
568.7164109066467
 21
1522.057551144371
 31
0.0
  0
LINE
  5
8335
330
8273
100
AcDbEntity
  8
3
 62
     0
370
    -2
100
AcDbLine
 10
588.7164109066467
 20
1522.057551144371
 30
0.0
 11
588.7164109066467
 21
1462.057551144371
 31
0.0
  0
LINE
  5
8336
330
8273
100
AcDbEntity
  8
3
 62
     0
370
    -2
100
AcDbLine
 10
588.7164109066467
 20
1422.057551144371
 30
0.0
 11
588.7164109066466
 21
1159.200408287228
 31
0.0
  0
INSERT
  5
8337
330
8273
100
AcDbEntity
  8
3
 62
     0
370
    -2
100
AcDbBlockReference
  2
_DotSmall
 10
588.7164109066467
 20
1522.057551144371
 30
0.0
 41
40.0
 42
40.0
 43
40.0
 50
90.0
  0
INSERT
  5
8338
330
8273
100
AcDbEntity
  8
3
 62
     0
370
    -2
100
AcDbBlockReference
  2
_OPEN
 10
588.7164109066467
 20
1422.057551144371
 30
0.0
 41
40.0
 42
40.0
 43
40.0
 50
270.0
  0
MTEXT
  5
8339
330
8273
100
AcDbEntity
  8
3
 62
     0
100
AcDbMText
 10
538.7164109066465
 20
1250.6289797158
 30
0.0
 40
60.0
 41
0.0
 71
     5
 72
     1
  1
\A1;100
 11
0.0000000000000001
 21
1.0
 31
0.0
 73
     1
 44
1.0
1001
ACAD
1000
MTEXTBEGIN
1070
    73
1070
     1
1070
    44
1040
1.0
1070
    74
1070
     0
1000
MTEXTEND
  0
POINT
  5
833A
330
8273
100
AcDbEntity
  8
DEFPOINTS
 62
     0
100
AcDbPoint
 10
948.2180770273394
 20
1422.057551144371
 30
0.0
  0
POINT
  5
833B
330
8273
100
AcDbEntity
  8
DEFPOINTS
 62
     0
100
AcDbPoint
 10
948.2180770273394
 20
1522.057551144371
 30
0.0
  0
POINT
  5
833C
330
8273
100
AcDbEntity
  8
DEFPOINTS
 62
     0
100
AcDbPoint
 10
588.7164109066467
 20
1522.057551144371
 30
0.0
  0
ENDBLK
  5
8275
330
8273
100
AcDbEntity
  8
0
100
AcDbBlockEnd
  0
BLOCK
  5
828E
330
828D
100
AcDbEntity
  8
0
100
AcDbBlockBegin
  2
*D35
 70
     1
 10
0.0
 20
0.0
 30
0.0
  3
*D35
  1

  0
LINE
  5
838B
330
828D
100
AcDbEntity
  8
3
 62
     0
370
    -2
100
AcDbLine
 10
928.2180770273395
 20
1522.057551144371
 30
0.0
 11
568.7164109066467
 21
1522.057551144371
 31
0.0
  0
LINE
  5
838C
330
828D
100
AcDbEntity
  8
3
 62
     0
370
    -2
100
AcDbLine
 10
928.2180770273395
 20
1549.057551144371
 30
0.0
 11
568.7164109066467
 21
1549.057551144371
 31
0.0
  0
LINE
  5
838D
330
828D
100
AcDbEntity
  8
3
 62
     0
370
    -2
100
AcDbLine
 10
588.7164109066467
 20
1522.057551144371
 30
0.0
 11
588.7164109066467
 21
1482.057551144371
 31
0.0
  0
LINE
  5
838E
330
828D
100
AcDbEntity
  8
3
 62
     0
370
    -2
100
AcDbLine
 10
588.7164109066467
 20
1589.057551144371
 30
0.0
 11
588.7164109066467
 21
1629.057551144371
 31
0.0
  0
MTEXT
  5
838F
330
828D
100
AcDbEntity
  8
3
 62
     0
100
AcDbMText
 10
523.0021251923609
 20
1535.557551144371
 30
0.0
 40
60.0
 41
0.0
 71
     5
 72
     1
  1
\A1;(27)
 11
0.0000000000000001
 21
1.0
 31
0.0
 73
     1
 44
1.0
1001
ACAD
1000
MTEXTBEGIN
1070
    73
1070
     1
1070
    44
1040
1.0
1070
    74
1070
     0
1000
MTEXTEND
  0
LINE
  5
8390
330
828D
100
AcDbEntity
  8
3
 62
     0
370
    -2
100
AcDbLine
 10
588.7164109066467
 20
1522.057551144371
 30
0.0
 11
588.7164109066467
 21
1549.057551144371
 31
0.0
  0
INSERT
  5
8391
330
828D
100
AcDbEntity
  8
3
 62
     0
370
    -2
100
AcDbBlockReference
  2
_DotSmall
 10
588.7164109066467
 20
1522.057551144371
 30
0.0
 41
40.0
 42
40.0
 43
40.0
 50
90.0
  0
INSERT
  5
8392
330
828D
100
AcDbEntity
  8
3
 62
     0
370
    -2
100
AcDbBlockReference
  2
_OPEN
 10
588.7164109066467
 20
1549.057551144371
 30
0.0
 41
40.0
 42
40.0
 43
40.0
 50
270.0
  0
POINT
  5
8393
330
828D
100
AcDbEntity
  8
DEFPOINTS
 62
     0
100
AcDbPoint
 10
948.2180770273394
 20
1522.057551144371
 30
0.0
  0
POINT
  5
8394
330
828D
100
AcDbEntity
  8
DEFPOINTS
 62
     0
100
AcDbPoint
 10
948.2180770273394
 20
1549.057551144371
 30
0.0
  0
POINT
  5
8395
330
828D
100
AcDbEntity
  8
DEFPOINTS
 62
     0
100
AcDbPoint
 10
588.7164109066467
 20
1549.057551144371
 30
0.0
  0
ENDBLK
  5
828F
330
828D
100
AcDbEntity
  8
0
100
AcDbBlockEnd
  0
BLOCK
  5
8331
330
832F
100
AcDbEntity
  8
0
100
AcDbBlockBegin
  2
_DotSmall
 70
     0
 10
0.0
 20
0.0
 30
0.0
  3
_DotSmall
  1

  0
LWPOLYLINE
  5
8330
330
832F
100
AcDbEntity
  8
0
  6
ByBlock
 62
     0
100
AcDbPolyline
 90
        2
 70
     1
 43
0.5
 10
-0.0625
 20
0.0
 42
1.0
 10
0.0625
 20
0.0
 42
1.0
  0
ENDBLK
  5
8332
330
832F
100
AcDbEntity
  8
0
100
AcDbBlockEnd
  0
BLOCK
  5
8398
330
8397
100
AcDbEntity
  8
0
100
AcDbBlockBegin
  2
*D37
 70
     1
 10
0.0
 20
0.0
 30
0.0
  3
*D37
  1

  0
LINE
  5
83A3
330
8397
100
AcDbEntity
  8
3
 62
     0
370
    -2
100
AcDbLine
 10
1748.218077027339
 20
4459.28365124794
 30
0.0
 11
1748.218077027339
 21
4607.888941746344
 31
0.0
  0
LINE
  5
83A4
330
8397
100
AcDbEntity
  8
3
 62
     0
370
    -2
100
AcDbLine
 10
2398.21807702734
 20
4053.283651247938
 30
0.0
 11
2398.21807702734
 21
4607.888941746344
 31
0.0
  0
LINE
  5
83A5
330
8397
100
AcDbEntity
  8
3
 62
     0
370
    -2
100
AcDbLine
 10
1788.218077027339
 20
4587.888941746345
 30
0.0
 11
2358.21807702734
 21
4587.888941746345
 31
0.0
  0
INSERT
  5
83A6
330
8397
100
AcDbEntity
  8
3
 62
     0
370
    -2
100
AcDbBlockReference
  2
_OPEN
 10
1748.218077027339
 20
4587.888941746345
 30
0.0
 41
40.0
 42
40.0
 43
40.0
 50
180.0
  0
INSERT
  5
83A7
330
8397
100
AcDbEntity
  8
3
 62
     0
370
    -2
100
AcDbBlockReference
  2
_OPEN
 10
2398.21807702734
 20
4587.888941746345
 30
0.0
 41
40.0
 42
40.0
 43
40.0
  0
MTEXT
  5
83A8
330
8397
100
AcDbEntity
  8
3
 62
     0
100
AcDbMText
 10
2073.21807702734
 20
4637.888941746346
 30
0.0
 40
60.0
 41
0.0
 71
     5
 72
     1
  1
\A1;650
 73
     1
 44
1.0
1001
ACAD
1000
MTEXTBEGIN
1070
    73
1070
     1
1070
    44
1040
1.0
1070
    74
1070
     0
1000
MTEXTEND
  0
POINT
  5
83A9
330
8397
100
AcDbEntity
  8
DEFPOINTS
 62
     0
100
AcDbPoint
 10
1748.218077027339
 20
4439.283651247939
 30
0.0
  0
POINT
  5
83AA
330
8397
100
AcDbEntity
  8
DEFPOINTS
 62
     0
100
AcDbPoint
 10
2398.21807702734
 20
4033.283651247938
 30
0.0
  0
POINT
  5
83AB
330
8397
100
AcDbEntity
  8
DEFPOINTS
 62
     0
100
AcDbPoint
 10
2398.21807702734
 20
4587.888941746345
 30
0.0
  0
ENDBLK
  5
8399
330
8397
100
AcDbEntity
  8
0
100
AcDbBlockEnd
  0
ENDSEC
  0
SECTION
  2
ENTITIES
  0
INSERT
  5
7BEF
330
8184
100
AcDbEntity
  8
0
100
AcDbBlockReference
  2
YA_N
 10
6.0
 20
5.0
 30
0.0
  0
LINE
  5
7BF1
330
8184
100
AcDbEntity
  8
2
100
AcDbLine
 10
1959.471819333266
 20
2054.057551144371
 30
0.0
 11
841.3251039243441
 21
2054.057551144371
 31
0.0
  0
LINE
  5
7BF2
330
8184
100
AcDbEntity
  8
2
100
AcDbLine
 10
1348.218077027339
 20
2773.690386796245
 30
0.0
 11
1348.218077027339
 21
1422.057551144371
 31
0.0
  0
ARC
  5
7BF3
330
8184
100
AcDbEntity
  8
1
100
AcDbCircle
 10
1301.21807702734
 20
2101.057551144371
 30
0.0
 40
595.0
100
AcDbArc
 50
355.4693949573174
 51
85.46939495731736
  0
ARC
  5
7BF4
330
8184
100
AcDbEntity
  8
1
100
AcDbCircle
 10
1395.218077027339
 20
2101.057551144371
 30
0.0
 40
501.0
100
AcDbArc
 50
295.5518119606779
 51
354.6170313501186
  0
ARC
  5
7BF5
330
8184
100
AcDbEntity
  8
1
100
AcDbCircle
 10
1386.21807702734
 20
2016.057551144371
 30
0.0
 40
416.0
100
AcDbArc
 50
174.7589449387033
 51
241.9103016310945
  0
LINE
  5
7BF6
330
8184
100
AcDbEntity
  8
1
100
AcDbLine
 10
888.2180770273397
 20
2774.057551144371
 30
0.0
 11
888.2180770273397
 21
2040.057551144371
 31
0.0
  0
LINE
  5
7BF7
330
8184
100
AcDbEntity
  8
1
100
AcDbLine
 10
888.2180770273397
 20
2732.057551144372
 30
0.0
 11
1348.218077027339
 21
2694.198343874056
 31
0.0
  0
LINE
  5
7BF8
330
8184
100
AcDbEntity
  8
1
100
AcDbLine
 10
971.2565405279248
 20
2082.057551144371
 30
0.0
 11
888.2180770273397
 21
2082.057551144371
 31
0.0
  0
LINE
  5
7BF9
330
8184
100
AcDbEntity
  8
1
100
AcDbLine
 10
928.2180770273399
 20
2728.765446164344
 30
0.0
 11
928.2180770273399
 21
2082.057551144371
 31
0.0
  0
LINE
  5
7BFA
330
8184
100
AcDbEntity
  8
1
100
AcDbLine
 10
891.2180770273396
 20
2774.057551144371
 30
0.0
 11
888.2180770273397
 21
2774.057551144371
 31
0.0
  0
LINE
  5
7BFB
330
8184
100
AcDbEntity
  8
1
100
AcDbLine
 10
891.2180770273396
 20
2040.057551144371
 30
0.0
 11
888.2180770273397
 21
2040.057551144371
 31
0.0
  0
LINE
  5
7BFC
330
8184
100
AcDbEntity
  8
1
100
AcDbLine
 10
891.2180770273396
 20
2774.057551144371
 30
0.0
 11
891.2180770273396
 21
2040.057551144371
 31
0.0
  0
LINE
  5
7BFD
330
8184
100
AcDbEntity
  8
2
100
AcDbLine
 10
3231.858577972293
 20
2873.777212535904
 30
0.0
 11
3231.858577972293
 21
1422.057551144371
 31
0.0
  0
LINE
  5
7BFE
330
8184
100
AcDbEntity
  8
2
100
AcDbLine
 10
2449.858577972293
 20
2054.057551144371
 30
0.0
 11
3737.530252594442
 21
2054.057551144371
 31
0.0
  0
LINE
  5
7BFF
330
8184
100
AcDbEntity
  8
1
100
AcDbLine
 10
3684.858577972294
 20
1649.057551144371
 30
0.0
 11
3684.858577972294
 21
1643.587419931185
 31
0.0
  0
LINE
  5
7C00
330
8184
100
AcDbEntity
  8
1
100
AcDbLine
 10
3631.858577972293
 20
2732.057551144372
 30
0.0
 11
3631.858577972293
 21
2082.057551144371
 31
0.0
  0
LINE
  5
7C01
330
8184
100
AcDbEntity
  8
1
100
AcDbLine
 10
2831.858577972293
 20
2732.057551144372
 30
0.0
 11
3631.858577972292
 21
2732.057551144372
 31
0.0
  0
LINE
  5
7C03
330
8184
100
AcDbEntity
  8
1
100
AcDbLine
 10
3631.858577972292
 20
2082.057551144371
 30
0.0
 11
3631.858577972293
 21
1649.057551144371
 31
0.0
  0
LINE
  5
7C04
330
8184
100
AcDbEntity
  8
2
100
AcDbLine
 10
1348.218077027339
 20
4467.081737752761
 30
0.0
 11
1348.218077027339
 21
3182.730367976243
 31
0.0
  0
LINE
  5
7C05
330
8184
100
AcDbEntity
  8
2
100
AcDbLine
 10
1950.065926726158
 20
3986.283651247939
 30
0.0
 11
838.7075423435161
 21
3986.283651247939
 31
0.0
  0
INSERT
  5
7C06
330
8184
100
AcDbEntity
  8
0
100
AcDbBlockReference
  2
YA_N
 10
-1221.011981710642
 20
-542.7332483964637
 30
0.0
 41
15.0
 42
15.0
 43
15.0
  0
LINE
  5
7C08
330
8184
100
AcDbEntity
  8
1
100
AcDbLine
 10
2398.21807702734
 20
1422.057551144371
 30
0.0
 11
948.2180770273394
 21
1422.057551144371
 31
0.0
  0
LINE
  5
7C09
330
8184
100
AcDbEntity
  8
1
100
AcDbLine
 10
2398.21807702734
 20
1522.057551144371
 30
0.0
 11
948.2180770273394
 21
1522.057551144371
 31
0.0
1001
ACAD
1000
ASC_BOUNDS
1002
{
1070
    19
1005
0
1005
0
1002
}
  0
LINE
  5
7C0A
330
8184
100
AcDbEntity
  8
1
100
AcDbLine
 10
2398.21807702734
 20
1522.057551144371
 30
0.0
 11
2398.21807702734
 21
1422.057551144371
 31
0.0
  0
LINE
  5
7C0B
330
8184
100
AcDbEntity
  8
1
100
AcDbLine
 10
948.2180770273394
 20
1522.057551144371
 30
0.0
 11
948.2180770273394
 21
1422.057551144371
 31
0.0
  0
ARC
  5
7C0C
330
8184
100
AcDbEntity
  8
1
100
AcDbCircle
 10
2198.218077027339
 20
1866.057551144371
 30
0.0
 40
142.5
100
AcDbArc
 50
180.0
 51
213.0338076719878
  0
ARC
  5
7C0D
330
8184
100
AcDbEntity
  8
1
100
AcDbCircle
 10
2198.218077027339
 20
1866.057551144371
 30
0.0
 40
142.5
100
AcDbArc
 50
326.9661316176382
 51
180.0
  0
LINE
  5
7C0E
330
8184
100
AcDbEntity
  8
2
100
AcDbLine
 10
2198.218077027339
 20
2027.65629226163
 30
0.0
 11
2198.218077027339
 21
1422.057551144371
 31
0.0
  0
LINE
  5
7C0F
330
8184
100
AcDbEntity
  8
1
100
AcDbLine
 10
2317.682735036262
 20
1788.375857761624
 30
0.0
 11
2328.21807702734
 21
1749.057551144371
 31
0.0
  0
LINE
  5
7C10
330
8184
100
AcDbEntity
  8
1
100
AcDbLine
 10
2328.21807702734
 20
1748.860151144371
 30
0.0
 11
2328.21807702734
 21
1734.057551144371
 31
0.0
  0
LINE
  5
7C11
330
8184
100
AcDbEntity
  8
1
100
AcDbLine
 10
2078.753336707279
 20
1788.375984345931
 30
0.0
 11
2068.218077027339
 21
1749.057551144371
 31
0.0
  0
LINE
  5
7C12
330
8184
100
AcDbEntity
  8
1
100
AcDbLine
 10
2068.218077027339
 20
1748.860151144371
 30
0.0
 11
2068.218077027339
 21
1734.057551144371
 31
0.0
  0
LINE
  5
7C13
330
8184
100
AcDbEntity
  8
2
100
AcDbLine
 10
2368.75564184293
 20
1866.057551144371
 30
0.0
 11
2029.717311501679
 21
1866.057551144371
 31
0.0
  0
LINE
  5
7C14
330
8184
100
AcDbEntity
  8
1
100
AcDbLine
 10
1998.218077027339
 20
1689.057551144371
 30
0.0
 11
1998.218077027339
 21
1649.057551144371
 31
0.0
  0
LINE
  5
7C15
330
8184
100
AcDbEntity
  8
1
100
AcDbLine
 10
2398.21807702734
 20
1689.057551144371
 30
0.0
 11
2398.21807702734
 21
1649.057551144371
 31
0.0
  0
LINE
  5
7C17
330
8184
100
AcDbEntity
  8
1
100
AcDbLine
 10
2362.053733641134
 20
1734.057551144371
 30
0.0
 11
2035.595565636012
 21
1734.057551144371
 31
0.0
  0
LINE
  5
7C18
330
8184
100
AcDbEntity
  8
1
100
AcDbLine
 10
2373.21807702734
 20
1689.057551144371
 30
0.0
 11
2362.053733641134
 21
1734.057551144371
 31
0.0
  0
LINE
  5
7C19
330
8184
100
AcDbEntity
  8
1
100
AcDbLine
 10
2023.21807702734
 20
1689.057551144371
 30
0.0
 11
2035.595565636012
 21
1734.057551144371
 31
0.0
  0
LINE
  5
7C1A
330
8184
100
AcDbEntity
  8
1
100
AcDbLine
 10
2678.858577972293
 20
1522.057551144371
 30
0.0
 11
3684.858577972294
 21
1522.057551144371
 31
0.0
1001
ACAD
1000
ASC_BOUNDS
1002
{
1070
    19
1002
}
  0
LINE
  5
7C1B
330
8184
100
AcDbEntity
  8
1
100
AcDbLine
 10
2678.858577972293
 20
1422.057551144371
 30
0.0
 11
3684.858577972294
 21
1422.057551144371
 31
0.0
  0
LINE
  5
7C1C
330
8184
100
AcDbEntity
  8
1
100
AcDbLine
 10
2678.858577972293
 20
1522.057551144371
 30
0.0
 11
2678.858577972293
 21
1422.057551144371
 31
0.0
  0
LINE
  5
7C1D
330
8184
100
AcDbEntity
  8
1
100
AcDbLine
 10
3684.858577972294
 20
1522.057551144371
 30
0.0
 11
3684.858577972294
 21
1422.057551144371
 31
0.0
  0
DIMENSION
  5
7C1F
330
8184
100
AcDbEntity
  8
3
100
AcDbDimension
  2
*D4
 10
738.2602551103299
 20
2082.057551144371
 30
0.0
 11
698.2602551103301
 21
2407.057551144371
 31
0.0
 12
1023.63210711491
 22
1485.959924694251
 32
0.0
 71
     5
 42
-1.0
  3
Standard
100
AcDbAlignedDimension
 13
888.2180770273397
 23
2732.057551144372
 33
0.0
 14
888.2180770273397
 24
2082.057551144371
 34
0.0
 50
270.0
100
AcDbRotatedDimension
1001
ACAD
1000
DSTYLE
1002
{
1070
    40
1040
20.0
1002
}
  0
DIMENSION
  5
7C20
330
8184
100
AcDbEntity
  8
3
100
AcDbDimension
  2
*D5
 10
588.716410906647
 20
2054.057551144371
 30
0.0
 11
548.7164109066469
 21
2393.057551144371
 31
0.0
 12
1023.63210711491
 22
1485.959924694251
 32
0.0
 71
     5
 42
-1.0
  3
Standard
100
AcDbAlignedDimension
 13
888.2180770273397
 23
2732.057551144372
 33
0.0
 14
841.3251039243441
 24
2054.057551144371
 34
0.0
 50
270.0
100
AcDbRotatedDimension
1001
ACAD
1000
DSTYLE
1002
{
1070
    40
1040
20.0
1002
}
  0
POINT
  5
7C21
330
8184
100
AcDbEntity
  8
1
100
AcDbPoint
 10
948.2180770273394
 20
1422.057551144371
 30
0.0
  0
DIMENSION
  5
7C22
330
8184
100
AcDbEntity
  8
3
100
AcDbDimension
  2
*D6
 10
1348.218077027339
 20
2861.724760620891
 30
0.0
 11
1118.218077027338
 21
2901.724760620891
 31
0.0
 12
190.0957371585136
 22
0.0
 32
0.0
 71
     5
 42
-1.0
  3
Standard
100
AcDbAlignedDimension
 13
888.2180770273397
 23
2774.057551144371
 33
0.0
 14
1348.218077027339
 24
2773.690386796245
 34
0.0
100
AcDbRotatedDimension
1001
ACAD
1000
DSTYLE
1002
{
1070
    40
1040
20.0
1002
}
  0
LINE
  5
7C24
330
8184
100
AcDbEntity
  8
2
100
AcDbLine
 10
2449.858577972293
 20
1866.057551144371
 30
0.0
 11
3132.886188514454
 21
1866.057551144371
 31
0.0
  0
LINE
  5
7C26
330
8184
100
AcDbEntity
  8
1
100
AcDbLine
 10
2831.858577972293
 20
2732.057551144372
 30
0.0
 11
2831.858577972293
 21
2082.057551144371
 31
0.0
  0
LINE
  5
7C27
330
8184
100
AcDbEntity
  8
1
100
AcDbLine
 10
2831.858577972293
 20
2082.057551144371
 30
0.0
 11
2831.858577972293
 21
2008.557551144371
 31
0.0
  0
LINE
  5
7C28
330
8184
100
AcDbEntity
  8
1
100
AcDbLine
 10
3741.858577972293
 20
2024.057551144371
 30
0.0
 11
3741.858577972293
 21
1924.05755114437
 31
0.0
  0
ARC
  5
7C29
330
8184
100
AcDbEntity
  8
1
100
AcDbCircle
 10
3731.858577972293
 20
2024.057551144371
 30
0.0
 40
10.0
100
AcDbArc
 50
0.0
 51
90.0
  0
ARC
  5
7C2A
330
8184
100
AcDbEntity
  8
1
100
AcDbCircle
 10
3731.858577972293
 20
1924.05755114437
 30
0.0
 40
10.0
100
AcDbArc
 50
270.0
 51
0.0
  0
LINE
  5
7C2B
330
8184
100
AcDbEntity
  8
1
100
AcDbLine
 10
3631.858577972293
 20
1914.057551144371
 30
0.0
 11
3731.858577972293
 21
1914.05755114437
 31
0.0
  0
LINE
  5
7C2C
330
8184
100
AcDbEntity
  8
1
100
AcDbLine
 10
3631.858577972293
 20
2034.057551144371
 30
0.0
 11
3731.858577972293
 21
2034.057551144371
 31
0.0
  0
CIRCLE
  5
7C2D
330
8184
100
AcDbEntity
  8
1
100
AcDbCircle
 10
2198.218077027339
 20
1866.057551144371
 30
0.0
 40
79.0
  0
CIRCLE
  5
7C2E
330
8184
100
AcDbEntity
  8
1
100
AcDbCircle
 10
1348.218077027339
 20
2054.057551144371
 30
0.0
 40
88.9
  0
ARC
  5
7C2F
330
8184
100
AcDbEntity
  8
1
100
AcDbCircle
 10
1348.218077027339
 20
2054.057551144371
 30
0.0
 40
150.0
100
AcDbArc
 50
77.52830244339076
 51
257.5283024433907
  0
ARC
  5
7C30
330
8184
100
AcDbEntity
  8
1
100
AcDbCircle
 10
2198.218077027339
 20
1866.057551144371
 30
0.0
 40
150.0
100
AcDbArc
 50
257.5283024433907
 51
77.52830244339076
  0
LINE
  5
7C31
330
8184
100
AcDbEntity
  8
1
100
AcDbLine
 10
1380.611675898639
 20
2200.517971573118
 30
0.0
 11
2230.611675898639
 21
2012.517971573118
 31
0.0
  0
LINE
  5
7C32
330
8184
100
AcDbEntity
  8
1
100
AcDbLine
 10
1368.402575694228
 20
2140.635816393603
 30
0.0
 11
2216.154808126149
 21
1942.994367282608
 31
0.0
  0
LINE
  5
7C33
330
8184
100
AcDbEntity
  8
1
100
AcDbLine
 10
1330.007846151711
 20
1967.042624313072
 30
0.0
 11
2182.035757126612
 21
1788.73270052938
 31
0.0
  0
LINE
  5
7C34
330
8184
100
AcDbEntity
  8
1
100
AcDbLine
 10
1315.82447815604
 20
1907.597130715624
 30
0.0
 11
2165.82447815604
 21
1719.597130715624
 31
0.0
  0
LINE
  5
7C35
330
8184
100
AcDbEntity
  8
1
100
AcDbLine
 10
2579.858577972293
 20
2142.957551144371
 30
0.0
 11
2579.858577972292
 21
1965.15755114437
 31
0.0
  0
LINE
  5
7C36
330
8184
100
AcDbEntity
  8
1
100
AcDbLine
 10
2661.858577972293
 20
2142.957551144371
 30
0.0
 11
2661.858577972292
 21
1965.15755114437
 31
0.0
  0
LINE
  5
7C37
330
8184
100
AcDbEntity
  8
1
100
AcDbLine
 10
2579.858577972293
 20
2142.957551144371
 30
0.0
 11
2661.858577972293
 21
2142.957551144371
 31
0.0
  0
LINE
  5
7C38
330
8184
100
AcDbEntity
  8
1
100
AcDbLine
 10
2579.858577972292
 20
1965.15755114437
 30
0.0
 11
2661.858577972292
 21
1965.15755114437
 31
0.0
  0
LINE
  5
7C39
330
8184
100
AcDbEntity
  8
1
100
AcDbLine
 10
2579.858577972292
 20
1945.057551144371
 30
0.0
 11
2661.858577972292
 21
1945.057551144371
 31
0.0
  0
LINE
  5
7C3A
330
8184
100
AcDbEntity
  8
1
100
AcDbLine
 10
2579.858577972292
 20
1787.057551144371
 30
0.0
 11
2661.858577972291
 21
1787.057551144371
 31
0.0
  0
LINE
  5
7C3B
330
8184
100
AcDbEntity
  8
1
100
AcDbLine
 10
2451.858577972293
 20
2204.057551144371
 30
0.0
 11
2451.858577972291
 21
1716.057551144371
 31
0.0
  0
LINE
  5
7C3C
330
8184
100
AcDbEntity
  8
1
100
AcDbLine
 10
2711.858577972293
 20
2204.057551144371
 30
0.0
 11
2711.858577972293
 21
2184.057551144371
 31
0.0
  0
LINE
  5
7C3D
330
8184
100
AcDbEntity
  8
1
100
AcDbLine
 10
2451.858577972294
 20
2204.057551144371
 30
0.0
 11
2711.858577972293
 21
2204.057551144371
 31
0.0
  0
LINE
  5
7C3E
330
8184
100
AcDbEntity
  8
1
100
AcDbLine
 10
2451.858577972291
 20
1716.057551144371
 30
0.0
 11
2711.858577972291
 21
1716.057551144371
 31
0.0
  0
LINE
  5
7C3F
330
8184
100
AcDbEntity
  8
1
100
AcDbLine
 10
2711.858577972291
 20
1723.557551144371
 30
0.0
 11
2711.858577972291
 21
1716.057551144371
 31
0.0
  0
LINE
  5
7C40
330
8184
100
AcDbEntity
  8
1
100
AcDbLine
 10
1748.218077027339
 20
4439.283651247939
 30
0.0
 11
948.2180770273387
 21
4439.283651247939
 31
0.0
  0
LINE
  5
7C41
330
8184
100
AcDbEntity
  8
1
100
AcDbLine
 10
2398.21807702734
 20
3433.283651247938
 30
0.0
 11
948.2180770273394
 21
3433.283651247939
 31
0.0
  0
LINE
  5
7C42
330
8184
100
AcDbEntity
  8
1
100
AcDbLine
 10
948.2180770273394
 20
4439.283651247939
 30
0.0
 11
948.2180770273394
 21
4386.283651247942
 31
0.0
  0
LINE
  5
7C43
330
8184
100
AcDbEntity
  8
1
100
AcDbLine
 10
1748.218077027339
 20
4439.283651247939
 30
0.0
 11
1748.218077027339
 21
4386.283651247938
 31
0.0
  0
LINE
  5
7C44
330
8184
100
AcDbEntity
  8
1
100
AcDbLine
 10
2398.21807702734
 20
4033.283651247938
 30
0.0
 11
2398.21807702734
 21
3433.283651247938
 31
0.0
  0
LINE
  5
7C45
330
8184
100
AcDbEntity
  8
1
100
AcDbLine
 10
2398.21807702734
 20
4033.283651247938
 30
0.0
 11
1896.21807702734
 21
4033.283651247938
 31
0.0
  0
POINT
  5
7C47
330
8184
100
AcDbEntity
  8
1
100
AcDbPoint
 10
948.2180770273394
 20
1522.057551144371
 30
0.0
  0
POINT
  5
7C48
330
8184
100
AcDbEntity
  8
1
100
AcDbPoint
 10
948.2180770273394
 20
1422.057551144371
 30
0.0
  0
POINT
  5
7C49
330
8184
100
AcDbEntity
  8
1
100
AcDbPoint
 10
948.2180770273394
 20
1522.057551144371
 30
0.0
  0
DIMENSION
  5
7C4A
330
8184
100
AcDbEntity
  8
3
100
AcDbDimension
  2
*D9
 10
3885.395611542957
 20
1719.057551144371
 30
0.0
 11
3845.395611542958
 21
2054.057551144371
 31
0.0
 12
664.5623844890105
 22
1485.959924694251
 32
0.0
 71
     5
 42
-1.0
  3
Standard
100
AcDbAlignedDimension
 13
3637.358577972294
 23
2389.057551144372
 33
0.0
 14
3637.358577972294
 24
1719.057551144371
 34
0.0
 50
90.0
100
AcDbRotatedDimension
1001
ACAD
1000
DSTYLE
1002
{
1070
    40
1040
20.0
1070
     3
1000
\U+03C6<>
1002
}
  0
DIMENSION
  5
7C4D
330
8184
100
AcDbEntity
  8
3
100
AcDbDimension
  2
*D10
 10
3631.858577972292
 20
2890.249354893976
 30
0.0
 11
3231.858577972293
 21
2930.249354893976
 31
0.0
 71
     5
 42
-1.0
  3
Standard
100
AcDbAlignedDimension
 13
2831.858577972293
 23
2732.057551144372
 33
0.0
 14
3631.858577972292
 24
2732.057551144372
 34
0.0
100
AcDbRotatedDimension
1001
ACAD
1000
DSTYLE
1002
{
1070
    40
1040
20.0
1002
}
  0
ARC
  5
7C4E
330
8184
100
AcDbEntity
  8
1
100
AcDbCircle
 10
2739.358577972292
 20
2020.85755114437
 30
0.0
 40
10.0
100
AcDbArc
 50
90.0
 51
180.0
  0
LINE
  5
7C4F
330
8184
100
AcDbEntity
  8
1
100
AcDbLine
 10
2831.858577972293
 20
2030.857551144371
 30
0.0
 11
2739.358577972292
 21
2030.857551144371
 31
0.0
  0
LINE
  5
7C50
330
8184
100
AcDbEntity
  8
1
100
AcDbLine
 10
2729.358577972292
 20
2020.85755114437
 30
0.0
 11
2729.358577972292
 21
2008.557551144371
 31
0.0
  0
LINE
  5
7C51
330
8184
100
AcDbEntity
  8
1
100
AcDbLine
 10
2661.858577972292
 20
2029.057551144371
 30
0.0
 11
2733.758577972293
 21
2029.057551144371
 31
0.0
  0
LINE
  5
7C53
330
8184
100
AcDbEntity
  8
1
100
AcDbLine
 10
948.2180770273394
 20
1649.057551144371
 30
0.0
 11
948.2180770273394
 21
1549.057551144371
 31
0.0
  0
LINE
  5
7C54
330
8184
100
AcDbEntity
  8
1
100
AcDbLine
 10
2398.21807702734
 20
1649.057551144371
 30
0.0
 11
948.2180770273394
 21
1649.057551144371
 31
0.0
1001
ACAD
1000
ASC_BOUNDS
1002
{
1070
    19
1005
0
1005
0
1002
}
  0
LINE
  5
7C55
330
8184
100
AcDbEntity
  8
1
100
AcDbLine
 10
2398.21807702734
 20
1549.057551144371
 30
0.0
 11
948.2180770273394
 21
1549.057551144371
 31
0.0
  0
LINE
  5
7C56
330
8184
100
AcDbEntity
  8
1
100
AcDbLine
 10
2398.21807702734
 20
1649.057551144371
 30
0.0
 11
2398.21807702734
 21
1549.057551144371
 31
0.0
  0
LINE
  5
7C57
330
8184
100
AcDbEntity
  8
1
100
AcDbLine
 10
2678.858577972293
 20
1649.057551144371
 30
0.0
 11
3684.158577972294
 21
1649.057551144371
 31
0.0
1001
ACAD
1000
ASC_BOUNDS
1002
{
1070
    19
1002
}
  0
LINE
  5
7C58
330
8184
100
AcDbEntity
  8
1
100
AcDbLine
 10
2678.858577972293
 20
1649.057551144371
 30
0.0
 11
2678.858577972293
 21
1549.057551144371
 31
0.0
  0
LINE
  5
7C59
330
8184
100
AcDbEntity
  8
1
100
AcDbLine
 10
2678.858577972293
 20
1549.057551144371
 30
0.0
 11
3684.858577972292
 21
1549.057551144371
 31
0.0
  0
LINE
  5
7C5A
330
8184
100
AcDbEntity
  8
1
100
AcDbLine
 10
3684.858577972294
 20
1649.057551144371
 30
0.0
 11
3684.858577972294
 21
1549.057551144371
 31
0.0
  0
ARC
  5
7C5B
330
8184
100
AcDbEntity
  8
1
100
AcDbCircle
 10
1348.218077027339
 20
2054.057551144371
 30
0.0
 40
378.0
100
AcDbArc
 50
175.7519773332714
 51
180.0
  0
LINE
  5
7C5C
330
8184
100
AcDbEntity
  8
1
100
AcDbLine
 10
1896.21807702734
 20
4386.283651247938
 30
0.0
 11
888.2180770273397
 21
4386.283651247942
 31
0.0
  0
LINE
  5
7C5D
330
8184
100
AcDbEntity
  8
1
100
AcDbLine
 10
1896.21807702734
 20
3586.283651247939
 30
0.0
 11
888.2180770273397
 21
3586.283651247939
 31
0.0
  0
LINE
  5
7C5E
330
8184
100
AcDbEntity
  8
1
100
AcDbLine
 10
888.2180770273397
 20
4426.283651247941
 30
0.0
 11
888.2180770273397
 21
3546.283651247939
 31
0.0
  0
LINE
  5
7C5F
330
8184
100
AcDbEntity
  8
1
100
AcDbLine
 10
1896.21807702734
 20
4386.283651247938
 30
0.0
 11
1896.21807702734
 21
3586.283651247939
 31
0.0
  0
LINE
  5
7C60
330
8184
100
AcDbEntity
  8
1
100
AcDbLine
 10
928.2180770273406
 20
4386.283651247942
 30
0.0
 11
928.2180770273399
 21
3586.283651247939
 31
0.0
  0
LINE
  5
7C61
330
8184
100
AcDbEntity
  8
1
100
AcDbLine
 10
948.2180770273394
 20
3586.283651247939
 30
0.0
 11
948.2180770273394
 21
3433.283651247939
 31
0.0
  0
LINE
  5
7C62
330
8184
100
AcDbEntity
  8
1
100
AcDbLine
 10
2277.21807702734
 20
3334.283651247939
 30
0.0
 11
2119.21807702734
 21
3334.283651247939
 31
0.0
  0
LINE
  5
7C63
330
8184
100
AcDbEntity
  8
1
100
AcDbLine
 10
2277.21807702734
 20
3416.28365124794
 30
0.0
 11
2119.21807702734
 21
3416.28365124794
 31
0.0
  0
LINE
  5
7C64
330
8184
100
AcDbEntity
  8
1
100
AcDbLine
 10
1259.318077027339
 20
3416.283651247939
 30
0.0
 11
1259.318077027339
 21
3334.283651247939
 31
0.0
  0
LINE
  5
7C65
330
8184
100
AcDbEntity
  8
1
100
AcDbLine
 10
1437.11807702734
 20
3416.283651247939
 30
0.0
 11
1437.11807702734
 21
3334.283651247939
 31
0.0
  0
LINE
  5
7C66
330
8184
100
AcDbEntity
  8
1
100
AcDbLine
 10
2119.21807702734
 20
3416.283651247939
 30
0.0
 11
2119.21807702734
 21
3334.283651247939
 31
0.0
  0
LINE
  5
7C67
330
8184
100
AcDbEntity
  8
1
100
AcDbLine
 10
2277.21807702734
 20
3416.283651247939
 30
0.0
 11
2277.21807702734
 21
3334.283651247939
 31
0.0
  0
LINE
  5
7C68
330
8184
100
AcDbEntity
  8
1
100
AcDbLine
 10
2348.218077027339
 20
3206.283651247939
 30
0.0
 11
1198.218077027338
 21
3206.28365124794
 31
0.0
  0
LINE
  5
7C69
330
8184
100
AcDbEntity
  8
1
100
AcDbLine
 10
1198.218077027338
 20
3466.283651247939
 30
0.0
 11
1198.218077027338
 21
3206.28365124794
 31
0.0
  0
LINE
  5
7C6A
330
8184
100
AcDbEntity
  8
1
100
AcDbLine
 10
2348.218077027339
 20
3466.283651247939
 30
0.0
 11
2348.218077027339
 21
3206.28365124794
 31
0.0
  0
LINE
  5
7C6B
330
8184
100
AcDbEntity
  8
1
100
AcDbLine
 10
2348.218077027339
 20
3466.283651247939
 30
0.0
 11
1198.218077027338
 21
3466.283651247939
 31
0.0
  0
LINE
  5
7C6C
330
8184
100
AcDbEntity
  8
1
100
AcDbLine
 10
1437.11807702734
 20
3416.283651247939
 30
0.0
 11
1259.318077027339
 21
3416.283651247939
 31
0.0
  0
LINE
  5
7C6D
330
8184
100
AcDbEntity
  8
1
100
AcDbLine
 10
1437.11807702734
 20
3334.283651247939
 30
0.0
 11
1259.318077027339
 21
3334.28365124794
 31
0.0
  0
LINE
  5
7C6E
330
8184
100
AcDbEntity
  8
2
100
AcDbLine
 10
2198.218077027339
 20
3894.874544414562
 30
0.0
 11
2198.218077027339
 21
3182.730367976243
 31
0.0
  0
LINE
  5
7C6F
330
8184
100
AcDbEntity
  8
1
100
AcDbLine
 10
2055.718077027339
 20
3853.283351247938
 30
0.0
 11
2340.718077027339
 21
3853.283351247938
 31
0.0
  0
LINE
  5
7C70
330
8184
100
AcDbEntity
  8
1
100
AcDbLine
 10
2055.718077027339
 20
3463.28365124794
 30
0.0
 11
2340.718077027339
 21
3463.28365124794
 31
0.0
  0
LINE
  5
7C71
330
8184
100
AcDbEntity
  8
1
100
AcDbLine
 10
2217.218077027339
 20
3463.28365124794
 30
0.0
 11
2217.218077027339
 21
3416.28365124794
 31
0.0
  0
LINE
  5
7C72
330
8184
100
AcDbEntity
  8
1
100
AcDbLine
 10
2179.218077027341
 20
3463.28365124794
 30
0.0
 11
2179.218077027341
 21
3416.28365124794
 31
0.0
  0
LINE
  5
7C73
330
8184
100
AcDbEntity
  8
1
100
AcDbLine
 10
2340.718077027339
 20
3853.28335124794
 30
0.0
 11
2340.718077027339
 21
3463.28365124794
 31
0.0
  0
LINE
  5
7C74
330
8184
100
AcDbEntity
  8
1
100
AcDbLine
 10
2055.718077027339
 20
3853.28335124794
 30
0.0
 11
2055.718077027339
 21
3463.28365124794
 31
0.0
  0
LINE
  5
7C75
330
8184
100
AcDbEntity
  8
1
100
AcDbLine
 10
1323.218077027339
 20
3586.283651247939
 30
0.0
 11
1323.218077027339
 21
3416.283651247939
 31
0.0
  0
LINE
  5
7C76
330
8184
100
AcDbEntity
  8
1
100
AcDbLine
 10
1373.218077027339
 20
3586.283651247939
 30
0.0
 11
1373.218077027339
 21
3416.283651247939
 31
0.0
  0
LINE
  5
7C79
330
8184
100
AcDbEntity
  8
1
100
AcDbLine
 10
2661.858577972293
 20
2079.057551144371
 30
0.0
 11
2831.858577972293
 21
2079.057551144371
 31
0.0
  0
CIRCLE
  5
7C7A
330
8184
100
AcDbEntity
  8
1
100
AcDbCircle
 10
1348.218077027339
 20
2054.057551144371
 30
0.0
 40
335.0
  0
CIRCLE
  5
7C7B
330
8184
100
AcDbEntity
  8
1
100
AcDbCircle
 10
1348.218077027339
 20
2054.057551144371
 30
0.0
 40
375.0
  0
LINE
  5
7C7C
330
8184
100
AcDbEntity
  8
1
100
AcDbLine
 10
2398.21807702734
 20
1689.057551144371
 30
0.0
 11
1998.218077027339
 21
1689.057551144371
 31
0.0
  0
POINT
  5
7C7D
330
8184
100
AcDbEntity
  8
1
100
AcDbPoint
 10
3741.858577972293
 20
2024.057551144371
 30
0.0
  0
POINT
  5
7C7E
330
8184
100
AcDbEntity
  8
1
100
AcDbPoint
 10
2451.858577972293
 20
2204.057551144371
 30
0.0
  0
DIMENSION
  5
7C80
330
8184
100
AcDbEntity
  8
3
100
AcDbDimension
  2
*D12
 10
739.4261060287317
 20
4439.283651247939
 30
0.0
 11
699.4261060287317
 21
3936.28365124794
 31
0.0
 12
1023.63210711491
 22
1274.868682717306
 32
0.0
 71
     5
 42
-1.0
  3
Standard
100
AcDbAlignedDimension
 13
948.2180770273394
 23
3433.283651247939
 33
0.0
 14
948.2180770273387
 24
4439.283651247939
 34
0.0
 50
270.0
100
AcDbRotatedDimension
1001
ACAD
1000
DSTYLE
1002
{
1070
    40
1040
20.0
1002
}
  0
DIMENSION
  5
7C81
330
8184
100
AcDbEntity
  8
3
100
AcDbDimension
  2
*D13
 10
948.2180770273387
 20
4587.888941746345
 30
0.0
 11
1348.218077027339
 21
4627.888941746345
 31
0.0
 12
1023.63210711491
 22
1274.868682717306
 32
0.0
 71
     5
 42
-1.0
  3
Standard
100
AcDbAlignedDimension
 13
1748.218077027339
 23
4439.283651247939
 33
0.0
 14
948.2180770273387
 24
4439.283651247939
 34
0.0
100
AcDbRotatedDimension
1001
ACAD
1000
DSTYLE
1002
{
1070
    40
1040
20.0
1002
}
  0
DIMENSION
  5
7C82
330
8184
100
AcDbEntity
  8
3
100
AcDbDimension
  2
*D14
 10
2548.645660902621
 20
3433.283651247938
 30
0.0
 11
2508.645660902621
 21
3733.283651247938
 31
0.0
 12
1023.63210711491
 22
1274.868682717306
 32
0.0
 71
     5
 42
-1.0
  3
Standard
100
AcDbAlignedDimension
 13
2398.21807702734
 23
4033.283651247938
 33
0.0
 14
2398.21807702734
 24
3433.283651247938
 34
0.0
 50
270.0
100
AcDbRotatedDimension
1001
ACAD
1000
DSTYLE
1002
{
1070
    40
1040
20.0
1002
}
  0
DIMENSION
  5
7C88
330
8184
100
AcDbEntity
  8
3
100
AcDbDimension
  2
*D15
 10
888.2180770273397
 20
3014.114690805144
 30
0.0
 11
1643.218077027339
 21
3054.114690805144
 31
0.0
 12
190.0957371585136
 22
0.0
 32
0.0
 71
     5
 42
-1.0
  3
Standard
100
AcDbAlignedDimension
 13
2398.21807702734
 23
1689.057551144371
 33
0.0
 14
888.2180770273397
 24
2774.057551144371
 34
0.0
100
AcDbRotatedDimension
1001
ACAD
1000
DSTYLE
1002
{
1070
    40
1040
20.0
1002
}
  0
LINE
  5
7C89
330
8184
100
AcDbEntity
  8
1
100
AcDbLine
 10
2708.858577972292
 20
1723.557551144371
 30
0.0
 11
2708.858577972292
 21
2008.557551144371
 31
0.0
  0
LINE
  5
7C8A
330
8184
100
AcDbEntity
  8
1
100
AcDbLine
 10
3098.858577972292
 20
2008.557551144371
 30
0.0
 11
2708.858577972293
 21
2008.557551144371
 31
0.0
  0
LINE
  5
7C8B
330
8184
100
AcDbEntity
  8
1
100
AcDbLine
 10
2708.858577972292
 20
1847.057551144371
 30
0.0
 11
2661.858577972293
 21
1847.057551144371
 31
0.0
  0
LINE
  5
7C8C
330
8184
100
AcDbEntity
  8
1
100
AcDbLine
 10
2708.858577972292
 20
1885.057551144371
 30
0.0
 11
2661.858577972293
 21
1885.057551144371
 31
0.0
  0
LINE
  5
7C8D
330
8184
100
AcDbEntity
  8
1
100
AcDbLine
 10
3098.858577972292
 20
1723.557551144371
 30
0.0
 11
2708.858577972292
 21
1723.557551144371
 31
0.0
  0
POINT
  5
7C8E
330
8184
100
AcDbEntity
  8
1
100
AcDbPoint
 10
948.2180770273394
 20
1522.057551144371
 30
0.0
  0
POINT
  5
7C8F
330
8184
100
AcDbEntity
  8
1
100
AcDbPoint
 10
948.2180770273394
 20
1549.057551144371
 30
0.0
  0
LINE
  5
7C91
330
8184
100
AcDbEntity
  8
1
100
AcDbLine
 10
2661.858577972292
 20
1945.057551144371
 30
0.0
 11
2661.858577972291
 21
1787.057551144371
 31
0.0
  0
LINE
  5
7C92
330
8184
100
AcDbEntity
  8
1
100
AcDbLine
 10
2579.858577972292
 20
1945.057551144371
 30
0.0
 11
2579.858577972292
 21
1787.057551144371
 31
0.0
  0
LINE
  5
7C9B
330
8184
100
AcDbEntity
  8
1
100
AcDbLine
 10
3098.858577972292
 20
1723.55755114437
 30
0.0
 11
3098.858577972292
 21
2008.55755114437
 31
0.0
  0
LINE
  5
7C9C
330
8184
100
AcDbEntity
  8
1
100
AcDbLine
 10
3051.875278789664
 20
1723.557551144371
 30
0.0
 11
3051.875278789664
 21
1649.057551144371
 31
0.0
  0
LINE
  5
7C9D
330
8184
100
AcDbEntity
  8
1
100
AcDbLine
 10
2756.850452477043
 20
1723.557551144371
 30
0.0
 11
2756.850452477043
 21
1649.057551144371
 31
0.0
  0
LINE
  5
7C9E
330
8184
100
AcDbEntity
  8
1
100
AcDbLine
 10
2756.850452477042
 20
1689.057551144371
 30
0.0
 11
3051.875278789664
 21
1689.057551144371
 31
0.0
  0
LINE
  5
7F21
330
8184
100
AcDbEntity
  8
4
100
AcDbLine
 10
3700.0
 20
1000.0
 30
0.0
 11
3700.0
 21
600.0
 31
0.0
  0
LINE
  5
7F22
330
8184
100
AcDbEntity
  8
4
100
AcDbLine
 10
2300.0
 20
1000.0
 30
0.0
 11
2300.0
 21
600.0
 31
0.0
  0
LINE
  5
7F23
330
8184
100
AcDbEntity
  8
4
100
AcDbLine
 10
1300.0
 20
1000.0
 30
0.0
 11
1300.0
 21
600.0
 31
0.0
  0
LINE
  5
7F26
330
8184
100
AcDbEntity
  8
4
100
AcDbLine
 10
1300.0
 20
600.0
 30
0.0
 11
3700.0
 21
600.0
 31
0.0
  0
LINE
  5
7F27
330
8184
100
AcDbEntity
  8
4
100
AcDbLine
 10
1300.0
 20
800.0
 30
0.0
 11
3700.0
 21
800.0
 31
0.0
  0
TEXT
  5
7F28
330
8184
100
AcDbEntity
  8
4
100
AcDbText
 10
1377.004161693803
 20
863.0860517332255
 30
0.0
 40
100.0
  1
機器名称
100
AcDbText
  0
TEXT
  5
7F29
330
8184
100
AcDbEntity
  8
4
100
AcDbText
 10
1372.516212049595
 20
643.2903134640219
 30
0.0
 40
100.0
  1
機器型番
100
AcDbText
  0
TEXT
  5
7F2A
330
8184
100
AcDbEntity
  8
4
100
AcDbText
 10
2355.357490975329
 20
845.1435379151371
 30
0.0
 40
100.0
  1
ミツヤ多翼送風機
100
AcDbText
  0
TEXT
  5
7F2B
330
8184
100
AcDbEntity
  8
4
100
AcDbText
 10
2373.308991170961
 20
634.3191685598867
 30
0.0
 40
100.0
  1
MF#4-5
100
AcDbText
  0
TEXT
  5
7F2D
330
8184
100
AcDbEntity
  8
4
100
AcDbText
 10
1630.036668622455
 20
4766.857682665031
 30
0.0
 40
107.9999999999999
  1
床置防振ベット
100
AcDbText
  0
TEXT
  5
7F2E
330
8184
100
AcDbEntity
  8
4
100
AcDbText
 10
632.3351866588928
 20
5067.761952398596
 30
0.0
 40
144.0
  1
遠心式両吸込両持多翼ファン
100
AcDbText
  0
LINE
  5
7F2F
330
8184
100
AcDbEntity
  8
4
100
AcDbLine
 10
500.0
 20
4938.817508529609
 30
0.0
 11
3700.0
 21
4938.817508529609
 31
0.0
  0
LINE
  5
7F30
330
8184
100
AcDbEntity
  8
4
100
AcDbLine
 10
500.0
 20
5338.81750852961
 30
0.0
 11
3700.0
 21
5338.81750852961
 31
0.0
  0
LINE
  5
7F31
330
8184
100
AcDbEntity
  8
4
100
AcDbLine
 10
1300.0
 20
1000.0
 30
0.0
 11
3700.0
 21
1000.0
 31
0.0
  0
LINE
  5
7F32
330
8184
100
AcDbEntity
  8
4
100
AcDbLine
 10
500.0
 20
5338.81750852961
 30
0.0
 11
500.0
 21
4938.817508529609
 31
0.0
  0
TEXT
  5
7F33
330
8184
100
AcDbEntity
  8
4
100
AcDbText
 10
758.3190041370508
 20
4764.638955092687
 30
0.0
 40
107.9999999999999
  1
左回転左横向
100
AcDbText
  0
TEXT
  5
7F34
330
8184
100
AcDbEntity
  8
4
100
AcDbText
 10
2937.939118498579
 20
5412.122162990619
 30
0.0
 40
112.0
  1
No.
100
AcDbText
  0
TEXT
  5
7F35
330
8184
100
AcDbEntity
  8
4
100
AcDbText
 10
2622.592125200027
 20
4766.857682665031
 30
0.0
 40
107.9999999999999
  1
縮尺：1/20
100
AcDbText
  0
LINE
  5
7F36
330
8184
100
AcDbEntity
  8
4
100
AcDbLine
 10
3700.0
 20
5338.81750852961
 30
0.0
 11
3700.0
 21
4938.817508529609
 31
0.0
  0
LINE
  5
7F37
330
8184
100
AcDbEntity
  8
4
100
AcDbLine
 10
4200.0
 20
5900.0
 30
0.0
 11
4200.0
 21
5900.0
 31
0.0
  0
LINE
  5
7F38
330
8184
100
AcDbEntity
  8
4
100
AcDbLine
 10
2881.234844719729
 20
5362.527166250802
 30
0.0
 11
2881.234844719729
 21
5573.304523099504
 31
0.0
  0
LINE
  5
7F39
330
8184
100
AcDbEntity
  8
4
100
AcDbLine
 10
2881.234844719729
 20
5573.304523099504
 30
0.0
 11
3700.0
 21
5573.304523099504
 31
0.0
  0
LINE
  5
7F3A
330
8184
100
AcDbEntity
  8
4
100
AcDbLine
 10
3700.0
 20
5573.304523099504
 30
0.0
 11
3700.0
 21
5362.527166250802
 31
0.0
  0
LINE
  5
7F3B
330
8184
100
AcDbEntity
  8
4
100
AcDbLine
 10
3700.0
 20
5362.527166250802
 30
0.0
 11
2881.234844719729
 21
5362.527166250802
 31
0.0
  0
LINE
  5
7F3C
330
8184
100
AcDbEntity
  8
4
100
AcDbLine
 10
0.0
 20
0.0
 30
0.0
 11
0.0
 21
5900.0
 31
0.0
  0
LINE
  5
7F3D
330
8184
100
AcDbEntity
  8
4
100
AcDbLine
 10
0.0
 20
5900.0
 30
0.0
 11
4200.0
 21
5900.0
 31
0.0
  0
LINE
  5
7F3E
330
8184
100
AcDbEntity
  8
4
100
AcDbLine
 10
4200.0
 20
5900.0
 30
0.0
 11
4200.0
 21
0.0
 31
0.0
  0
LINE
  5
7F3F
330
8184
100
AcDbEntity
  8
4
100
AcDbLine
 10
4200.0
 20
0.0
 30
0.0
 11
0.0
 21
0.0
 31
0.0
  0
DIMENSION
  5
8029
330
8184
100
AcDbEntity
  8
3
100
AcDbDimension
  2
*D21
 10
1348.218077027339
 20
1270.622138628376
 30
0.0
 11
1148.218077027339
 21
1320.622138628376
 31
0.0
 71
     5
 42
-1.0
  3
Standard
100
AcDbAlignedDimension
 13
948.2180770273394
 23
1422.057551144371
 33
0.0
 14
1348.218077027339
 24
1422.057551144371
 34
0.0
100
AcDbRotatedDimension
1001
ACAD
1000
DSTYLE
1002
{
1070
   172
1070
     1
1070
    40
1040
20.0
1070
    42
1040
1.0
1070
   271
1070
     0
1070
   143
1040
0.039
1002
}
  0
DIMENSION
  5
8036
330
8184
100
AcDbEntity
  8
3
100
AcDbDimension
  2
*D22
 10
2398.21807702734
 20
1270.622138628376
 30
0.0
 11
1873.218077027339
 21
1320.622138628376
 31
0.0
 71
     5
 42
-1.0
  3
Standard
100
AcDbAlignedDimension
 13
1348.218077027339
 23
1422.057551144371
 33
0.0
 14
2398.21807702734
 24
1422.057551144371
 34
0.0
100
AcDbRotatedDimension
1001
ACAD
1000
DSTYLE
1002
{
1070
   172
1070
     1
1070
    40
1040
20.0
1070
    42
1040
1.0
1070
   271
1070
     0
1070
   143
1040
0.039
1002
}
  0
DIMENSION
  5
8043
330
8184
100
AcDbEntity
  8
3
100
AcDbDimension
  2
*D23
 10
3231.858577972293
 20
1270.622138628376
 30
0.0
 11
2955.358577972292
 21
1320.622138628376
 31
0.0
 71
     5
 42
-1.0
  3
Standard
100
AcDbAlignedDimension
 13
2678.858577972293
 23
1422.057551144371
 33
0.0
 14
3231.858577972293
 24
1422.057551144371
 34
0.0
100
AcDbRotatedDimension
1001
ACAD
1000
DSTYLE
1002
{
1070
   172
1070
     1
1070
    40
1040
20.0
1070
    42
1040
1.0
1070
   271
1070
     0
1070
   143
1040
0.039
1002
}
  0
DIMENSION
  5
8050
330
8184
100
AcDbEntity
  8
3
100
AcDbDimension
  2
*D24
 10
3684.858577972294
 20
1270.622138628376
 30
0.0
 11
3458.358577972293
 21
1320.622138628376
 31
0.0
 71
     5
 42
-1.0
  3
Standard
100
AcDbAlignedDimension
 13
3231.858577972293
 23
1422.057551144371
 33
0.0
 14
3684.858577972294
 24
1422.057551144371
 34
0.0
100
AcDbRotatedDimension
1001
ACAD
1000
DSTYLE
1002
{
1070
   172
1070
     1
1070
    40
1040
20.0
1070
    42
1040
1.0
1070
   271
1070
     0
1070
   143
1040
0.039
1002
}
  0
DIMENSION
  5
8077
330
8184
100
AcDbEntity
  8
3
100
AcDbDimension
  2
*D27
 10
404.5813331137142
 20
2732.057551144372
 30
0.0
 11
338.8670473994285
 21
2077.057551144371
 31
0.0
 71
     5
 42
-1.0
  3
Standard
100
AcDbAlignedDimension
 13
948.2180770273394
 23
1422.057551144371
 33
0.0
 14
888.2180770273397
 24
2732.057551144372
 34
0.0
 50
90.0
100
AcDbRotatedDimension
1001
ACAD
1000
DSTYLE
1002
{
1070
   172
1070
     1
1070
    40
1040
20.0
1070
     3
1000
(<>)
1070
    42
1040
1.0
1070
   271
1070
     0
1070
   143
1040
0.039
1002
}
  0
DIMENSION
  5
81CD
330
8184
100
AcDbEntity
  8
3
100
AcDbDimension
  2
*D28
 10
3231.858577972293
 20
3021.606361820481
 30
0.0
 11
2841.858577972292
 21
3087.320647534767
 31
0.0
 70
    32
 71
     5
 42
779.9999999999986
  3
IGA
100
AcDbAlignedDimension
 13
2451.858577972294
 23
2204.057551144371
 33
0.0
 14
3231.858577972293
 24
2960.249354893976
 34
0.0
100
AcDbRotatedDimension
1001
ACAD
1000
DSTYLE
1002
{
1070
     3
1000
(<>)
1070
    40
1040
20.0
1070
    42
1040
1.0
1070
   143
1040
0.039
1070
   172
1070
     1
1070
   271
1070
     4
1070
   272
1070
     4
1070
   279
1070
     0
1070
   284
1070
     0
1070
   285
1070
     0
1070
   286
1070
     0
1070
   341
1005
8198
1070
   343
1005
8198
1070
   344
1005
8198
1002
}
  0
DIMENSION
  5
81DA
330
8184
100
AcDbEntity
  8
3
100
AcDbDimension
  2
*D29
 10
3741.858577972293
 20
3021.606361820481
 30
0.0
 11
3486.858577972293
 21
3087.320647534767
 31
0.0
 70
    32
 71
     5
 42
510.0000000000009
  3
IGA
100
AcDbAlignedDimension
 13
3231.858577972293
 23
2960.249354893976
 33
0.0
 14
3741.858577972293
 24
2024.057551144371
 34
0.0
100
AcDbRotatedDimension
1001
ACAD
1000
DSTYLE
1002
{
1070
     3
1000
(<>)
1070
    40
1040
20.0
1070
    42
1040
1.0
1070
   143
1040
0.039
1070
   172
1070
     1
1070
   271
1070
     4
1070
   272
1070
     4
1070
   279
1070
     1
1070
   284
1070
     0
1070
   285
1070
     0
1070
   286
1070
     0
1070
   341
1005
8198
1070
   343
1005
8198
1070
   344
1005
8198
1002
}
  0
DIMENSION
  5
820B
330
8184
100
AcDbEntity
  8
3
100
AcDbDimension
  2
*D30
 10
2398.21807702734
 20
3094.76962230266
 30
0.0
 11
1673.21807702734
 21
3144.76962230266
 31
0.0
 70
    32
 71
     5
 42
1450.000000000001
  3
IGA
100
AcDbAlignedDimension
 13
948.2180770273394
 23
3433.283651247939
 33
0.0
 14
2398.21807702734
 24
3433.283651247938
 34
0.0
100
AcDbRotatedDimension
1001
ACAD
1000
DSTYLE
1002
{
1070
     3
1000
<>
1070
    40
1040
20.0
1070
    42
1040
1.0
1070
   143
1040
0.039
1070
   172
1070
     1
1070
   271
1070
     4
1070
   272
1070
     4
1070
   279
1070
     0
1070
   284
1070
     0
1070
   285
1070
     0
1070
   286
1070
     0
1070
   341
1005
8198
1070
   343
1005
8198
1070
   344
1005
8198
1002
}
  0
DIMENSION
  5
8239
330
8184
100
AcDbEntity
  8
3
100
AcDbDimension
  2
*D31
 10
588.7164109066468
 20
2054.057551144371
 30
0.0
 11
538.7164109066465
 21
1801.557551144371
 31
0.0
 70
    32
 71
     5
 42
504.9999999999995
  3
IGA
100
AcDbAlignedDimension
 13
948.2180770273394
 23
1549.057551144371
 33
0.0
 14
841.3251039243441
 24
2054.057551144371
 34
0.0
 50
90.0
100
AcDbRotatedDimension
1001
ACAD
1000
DSTYLE
1002
{
1070
    40
1040
20.0
1070
    42
1040
1.0
1070
   143
1040
0.039
1070
   172
1070
     1
1070
   271
1070
     4
1070
   272
1070
     4
1070
   279
1070
     0
1070
   284
1070
     0
1070
   285
1070
     0
1070
   286
1070
     0
1070
   341
1005
8198
1070
   343
1005
8198
1070
   344
1005
8198
1002
}
  0
DIMENSION
  5
824F
330
8184
100
AcDbEntity
  8
3
100
AcDbDimension
  2
*D32
 10
1896.21807702734
 20
2861.724760620891
 30
0.0
 11
1622.218077027339
 21
2911.724760620892
 31
0.0
 70
    32
 71
     5
 42
548.0000000000011
  3
IGA
100
AcDbAlignedDimension
 13
1348.218077027339
 23
2773.690386796245
 33
0.0
 14
1896.21807702734
 24
2101.057551144371
 34
0.0
100
AcDbRotatedDimension
1001
ACAD
1000
DSTYLE
1002
{
1070
    40
1040
20.0
1070
    42
1040
1.0
1070
   143
1040
0.039
1070
   172
1070
     1
1070
   271
1070
     4
1070
   272
1070
     4
1070
   279
1070
     0
1070
   284
1070
     0
1070
   285
1070
     0
1070
   286
1070
     0
1070
   341
1005
8198
1070
   343
1005
8198
1070
   344
1005
8198
1002
}
  0
DIMENSION
  5
8272
330
8184
100
AcDbEntity
  8
3
100
AcDbDimension
  2
*D34
 10
588.7164109066467
 20
1522.057551144371
 30
0.0
 11
588.7164109066465
 21
1250.6289797158
 31
0.0
 70
   160
 71
     5
 42
100.0
  3
IGA
100
AcDbAlignedDimension
 13
948.2180770273394
 23
1422.057551144371
 33
0.0
 14
948.2180770273394
 24
1522.057551144371
 34
0.0
 50
90.0
100
AcDbRotatedDimension
1001
ACAD
1000
DSTYLE
1002
{
1070
    40
1040
20.0
1070
    42
1040
1.0
1070
   143
1040
0.039
1070
   172
1070
     1
1070
   271
1070
     4
1070
   272
1070
     4
1070
   279
1070
     0
1070
   284
1070
     0
1070
   285
1070
     0
1070
   286
1070
     0
1070
   341
1005
8198
1070
   343
1005
8198
1070
   344
1005
832F
1002
}
  0
DIMENSION
  5
828C
330
8184
100
AcDbEntity
  8
3
100
AcDbDimension
  2
*D35
 10
588.7164109066467
 20
1549.057551144371
 30
0.0
 11
588.7164109066467
 21
1535.557551144371
 31
0.0
 70
   160
  1
(<>)
 71
     5
 42
27.0
  3
IGA
100
AcDbAlignedDimension
 13
948.2180770273394
 23
1522.057551144371
 33
0.0
 14
948.2180770273394
 24
1549.057551144371
 34
0.0
 50
90.0
100
AcDbRotatedDimension
1001
ACAD
1000
DSTYLE
1002
{
1070
    40
1040
20.0
1070
    42
1040
1.0
1070
   143
1040
0.039
1070
   172
1070
     1
1070
   271
1070
     4
1070
   272
1070
     4
1070
   279
1070
     1
1070
   284
1070
     0
1070
   285
1070
     0
1070
   286
1070
     0
1070
   341
1005
8198
1070
   343
1005
832F
1070
   344
1005
8198
1002
}
  0
DIMENSION
  5
8396
330
8184
100
AcDbEntity
  8
3
100
AcDbDimension
  2
*D37
 10
2398.21807702734
 20
4587.888941746345
 30
0.0
 11
2073.21807702734
 21
4637.888941746346
 31
0.0
 70
    32
 71
     5
 42
650.0000000000014
  3
IGA
100
AcDbAlignedDimension
 13
1748.218077027339
 23
4439.283651247939
 33
0.0
 14
2398.21807702734
 24
4033.283651247938
 34
0.0
100
AcDbRotatedDimension
1001
ACAD
1000
DSTYLE
1002
{
1070
    40
1040
20.0
1070
    42
1040
1.0
1070
   143
1040
0.039
1070
   172
1070
     1
1070
   271
1070
     4
1070
   272
1070
     4
1070
   279
1070
     0
1070
   284
1070
     0
1070
   285
1070
     0
1070
   286
1070
     0
1070
   341
1005
8198
1070
   343
1005
8198
1070
   344
1005
8198
1002
}
  0
ENDSEC
  0
SECTION
  2
OBJECTS
  0
DICTIONARY
  5
8121
330
0
100
AcDbDictionary
281
     1
  3
ACAD_CIP_PREVIOUS_PRODUCT_INFO
350
81CC
  3
ACAD_COLOR
350
8177
  3
ACAD_DETAILVIEWSTYLE
350
817E
  3
ACAD_GROUP
350
8122
  3
ACAD_LAYOUT
350
8176
  3
ACAD_MATERIAL
350
8125
  3
ACAD_MLEADERSTYLE
350
817A
  3
ACAD_MLINESTYLE
350
8173
  3
ACAD_PLOTSETTINGS
350
8175
  3
ACAD_PLOTSTYLENAME
350
8123
  3
ACAD_SCALELIST
350
8157
  3
ACAD_SECTIONVIEWSTYLE
350
817C
  3
ACAD_TABLESTYLE
350
8178
  3
ACAD_VISUALSTYLE
350
813E
  3
ACDB_RECOMPOSE_DATA
350
8404
  3
AcDbVariableDictionary
350
83B6
  3
DWGPROPS
350
8405
  0
DICTIONARY
  5
83AC
330
8169
100
AcDbDictionary
280
     1
281
     1
  3
ADSK_XREC_LAYER_RECONCILED
360
83AD
  0
DICTIONARY
  5
83AE
330
8188
100
AcDbDictionary
280
     1
281
     1
  3
ADSK_XREC_LAYER_RECONCILED
360
83AF
  0
DICTIONARY
  5
83B0
330
818B
100
AcDbDictionary
280
     1
281
     1
  3
ADSK_XREC_LAYER_RECONCILED
360
83B1
  0
DICTIONARY
  5
83B2
330
818C
100
AcDbDictionary
280
     1
281
     1
  3
ADSK_XREC_LAYER_RECONCILED
360
83B3
  0
DICTIONARY
  5
83B4
330
818D
100
AcDbDictionary
280
     1
281
     1
  3
ADSK_XREC_LAYER_RECONCILED
360
83B5
  0
XRECORD
  5
81CC
102
{ACAD_REACTORS
330
8121
102
}
330
8121
100
AcDbXrecord
280
     1
300
ACDLT
300
2015
300
INVLTS_F_S
  0
DICTIONARY
  5
8177
102
{ACAD_REACTORS
330
8121
102
}
330
8121
100
AcDbDictionary
281
     1
  0
DICTIONARY
  5
817E
102
{ACAD_REACTORS
330
8121
102
}
330
8121
100
AcDbDictionary
281
     1
  3
Imperial24
350
817F
  0
DICTIONARY
  5
8122
102
{ACAD_REACTORS
330
8121
102
}
330
8121
100
AcDbDictionary
281
     1
  0
DICTIONARY
  5
8176
102
{ACAD_REACTORS
330
8121
102
}
330
8121
100
AcDbDictionary
281
     1
  3
Model
350
8187
  3
レイアウト1
350
8183
  0
DICTIONARY
  5
8125
102
{ACAD_REACTORS
330
8121
102
}
330
8121
100
AcDbDictionary
281
     1
  3
ByBlock
350
812E
  3
ByLayer
350
8126
  3
Global
350
8136
  0
DICTIONARY
  5
817A
102
{ACAD_REACTORS
330
8121
102
}
330
8121
100
AcDbDictionary
281
     1
  3
Standard
350
817B
  0
DICTIONARY
  5
8173
102
{ACAD_REACTORS
330
8121
102
}
330
8121
100
AcDbDictionary
281
     1
  3
Standard
350
8174
  0
DICTIONARY
  5
8175
102
{ACAD_REACTORS
330
8121
102
}
330
8121
100
AcDbDictionary
281
     1
  0
ACDBDICTIONARYWDFLT
  5
8123
102
{ACAD_REACTORS
330
8121
102
}
330
8121
100
AcDbDictionary
281
     1
  3
Normal
350
8124
100
AcDbDictionaryWithDefault
340
8124
  0
DICTIONARY
  5
8157
102
{ACAD_REACTORS
330
8121
102
}
330
8121
100
AcDbDictionary
281
     1
  3
A0
350
8158
  3
A1
350
8159
  3
A2
350
815A
  3
A3
350
815B
  3
A4
350
815C
  3
A5
350
815D
  3
A6
350
815E
  3
A7
350
815F
  3
A8
350
8160
  3
A9
350
8161
  3
B0
350
8162
  3
B1
350
8163
  3
B2
350
8164
  3
B3
350
8165
  3
B4
350
8166
  3
B5
350
8167
  3
B6
350
8168
  0
DICTIONARY
  5
817C
102
{ACAD_REACTORS
330
8121
102
}
330
8121
100
AcDbDictionary
281
     1
  3
Imperial24
350
817D
  0
DICTIONARY
  5
8178
102
{ACAD_REACTORS
330
8121
102
}
330
8121
100
AcDbDictionary
281
     1
  3
Standard
350
8179
  0
DICTIONARY
  5
813E
102
{ACAD_REACTORS
330
8121
102
}
330
8121
100
AcDbDictionary
281
     1
  3
2dWireframe
350
8144
  3
Basic
350
8143
  3
Brighten
350
814A
  3
ColorChange
350
814E
  3
Conceptual
350
8147
  3
Dim
350
8149
  3
EdgeColorOff
350
8156
  3
Facepattern
350
814D
  3
Flat
350
813F
  3
FlatWithEdges
350
8140
  3
Gouraud
350
8141
  3
GouraudWithEdges
350
8142
  3
Hidden
350
8146
  3
JitterOff
350
8154
  3
Linepattern
350
814C
  3
OverhangOff
350
8155
  3
Realistic
350
8148
  3
Shaded
350
8153
  3
Shaded with edges
350
8152
  3
Shades of Gray
350
814F
  3
Sketchy
350
8150
  3
Thicken
350
814B
  3
Wireframe
350
8145
  3
X-Ray
350
8151
  0
XRECORD
  5
8404
102
{ACAD_REACTORS
330
8121
102
}
330
8121
100
AcDbXrecord
280
     1
 90
        1
330
8179
  0
DICTIONARY
  5
83B6
102
{ACAD_REACTORS
330
8121
102
}
330
8121
100
AcDbDictionary
281
     1
  3
CANNOSCALE
350
83BB
  3
CMLEADERSTYLE
350
83B8
  3
CTABLESTYLE
350
83B7
  3
CVIEWDETAILSTYLE
350
83B9
  3
CVIEWSECTIONSTYLE
350
83BA
  3
DIMASSOC
350
83BE
  3
INDEXCTL
350
83BD
  3
SORTENTS
350
83BC
  3
XCLIPFRAME
350
83BF
  0
XRECORD
  5
8405
102
{ACAD_REACTORS
330
8121
102
}
330
8121
100
AcDbXrecord
280
     1
  1
DWGPROPS COOKIE
  2

  3

  4

  6

  7

  8
yasukiyo.ogawa
  9

300
=
301
=
302
=
303
=
304
=
305
=
306
=
307
=
308
=
309
=
 40
0.0894640509259259
 41
2451387.491829167
 42
2460262.631850232
  1

 90
        0
  0
XRECORD
  5
83AD
102
{ACAD_REACTORS
330
83AC
102
}
330
83AC
100
AcDbXrecord
280
     1
290
     1
  0
XRECORD
  5
83AF
102
{ACAD_REACTORS
330
83AE
102
}
330
83AE
100
AcDbXrecord
280
     1
290
     1
  0
XRECORD
  5
83B1
102
{ACAD_REACTORS
330
83B0
102
}
330
83B0
100
AcDbXrecord
280
     1
290
     1
  0
XRECORD
  5
83B3
102
{ACAD_REACTORS
330
83B2
102
}
330
83B2
100
AcDbXrecord
280
     1
290
     1
  0
XRECORD
  5
83B5
102
{ACAD_REACTORS
330
83B4
102
}
330
83B4
100
AcDbXrecord
280
     1
290
     1
  0
ACDBDETAILVIEWSTYLE
  5
817F
102
{ACAD_XDICTIONARY
360
843D
102
}
102
{ACAD_REACTORS
330
817E
102
}
330
817E
100
AcDbModelDocViewStyle
 70
     0
  3
Imperial24
290
     0
100
AcDbDetailViewStyle
 70
     0
 71
     0
 90
        3
 71
     1
340
816A
 40
0.24
340
0
 40
0.24
300

 40
0.36
280
     3
 71
     2
340
8171
 90
       25
 71
     3
340
816A
 40
0.24
 90
        1
 40
0.75
 90
        1
300
%<\AcVar ViewType \f "%tc1">% %<\AcVar ViewDetailId>%\PSCALE %<\AcVar ViewScale \f "%sn">%
 71
     4
340
8171
 90
       25
340
8171
 90
       25
280
     0
  0
LAYOUT
  5
8187
102
{ACAD_XDICTIONARY
360
8441
102
}
102
{ACAD_REACTORS
330
8176
102
}
330
8176
100
AcDbPlotSettings
  1

  2
RICOH imagio MP W3600 RPCS
  4

  6

 40
0.0
 41
0.0
 42
0.0
 43
0.0
 44
0.0
 45
0.0
 46
0.0
 47
0.0
 48
0.0
 49
0.0
140
0.0
141
0.0
142
1.0
143
1.0
 70
  1712
 72
     0
 73
     0
 74
     0
  7

 75
     0
147
1.0
148
0.0
149
0.0
100
AcDbLayout
  1
Model
 70
     1
 71
     0
 10
0.0
 20
0.0
 11
12.0
 21
9.0
 12
0.0
 22
0.0
 32
0.0
 14
0.0
 24
0.0
 34
0.0
 15
0.0
 25
0.0
 35
0.0
146
0.0
 13
0.0
 23
0.0
 33
0.0
 16
1.0
 26
0.0
 36
0.0
 17
0.0
 27
1.0
 37
0.0
 76
     0
330
8184
331
8189
  0
LAYOUT
  5
8183
102
{ACAD_XDICTIONARY
360
843F
102
}
102
{ACAD_REACTORS
330
8176
102
}
330
8176
100
AcDbPlotSettings
  1

  2
RICOH imagio MP W3600 RPCS
  4

  6

 40
0.0
 41
0.0
 42
0.0
 43
0.0
 44
0.0
 45
0.0
 46
0.0
 47
0.0
 48
0.0
 49
0.0
140
0.0
141
0.0
142
1.0
143
1.0
 70
   688
 72
     0
 73
     0
 74
     5
  7

 75
    16
147
1.0
148
0.0
149
0.0
100
AcDbLayout
  1
レイアウト1
 70
     1
 71
     1
 10
0.0
 20
0.0
 11
12.0
 21
9.0
 12
0.0
 22
0.0
 32
0.0
 14
1.000000000000000E+20
 24
1.000000000000000E+20
 34
1.000000000000000E+20
 15
-1.000000000000000E+20
 25
-1.000000000000000E+20
 35
-1.000000000000000E+20
146
0.0
 13
0.0
 23
0.0
 33
0.0
 16
1.0
 26
0.0
 36
0.0
 17
0.0
 27
1.0
 37
0.0
 76
     0
330
8180
  0
MATERIAL
  5
812E
102
{ACAD_XDICTIONARY
360
812F
102
}
102
{ACAD_REACTORS
330
8125
102
}
330
8125
100
AcDbMaterial
  1
ByBlock
 72
     0
 43
0.0208333333333333
 43
0.0
 43
0.0
 43
0.0
 43
0.0
 43
0.0208333333333333
 43
0.0
 43
0.0
 43
0.0
 43
0.0
 43
1.0
 43
0.0
 43
0.0
 43
0.0
 43
0.0
 43
1.0
 77
     0
 47
0.0208333333333333
 47
0.0
 47
0.0
 47
0.0
 47
0.0
 47
0.0208333333333333
 47
0.0
 47
0.0
 47
0.0
 47
0.0
 47
1.0
 47
0.0
 47
0.0
 47
0.0
 47
0.0
 47
1.0
171
     0
 49
0.0208333333333333
 49
0.0
 49
0.0
 49
0.0
 49
0.0
 49
0.0208333333333333
 49
0.0
 49
0.0
 49
0.0
 49
0.0
 49
1.0
 49
0.0
 49
0.0
 49
0.0
 49
0.0
 49
1.0
175
     0
142
0.0208333333333333
142
0.0
142
0.0
142
0.0
142
0.0
142
0.0208333333333333
142
0.0
142
0.0
142
0.0
142
0.0
142
1.0
142
0.0
142
0.0
142
0.0
142
0.0
142
1.0
179
     0
144
0.0208333333333333
144
0.0
144
0.0
144
0.0
144
0.0
144
0.0208333333333333
144
0.0
144
0.0
144
0.0
144
0.0
144
1.0
144
0.0
144
0.0
144
0.0
144
0.0
144
1.0
147
0.0208333333333333
147
0.0
147
0.0
147
0.0
147
0.0
147
0.0208333333333333
147
0.0
147
0.0
147
0.0
147
0.0
147
1.0
147
0.0
147
0.0
147
0.0
147
0.0
147
1.0
  0
MATERIAL
  5
8126
102
{ACAD_XDICTIONARY
360
8127
102
}
102
{ACAD_REACTORS
330
8125
102
}
330
8125
100
AcDbMaterial
  1
ByLayer
 72
     0
 43
0.0208333333333333
 43
0.0
 43
0.0
 43
0.0
 43
0.0
 43
0.0208333333333333
 43
0.0
 43
0.0
 43
0.0
 43
0.0
 43
1.0
 43
0.0
 43
0.0
 43
0.0
 43
0.0
 43
1.0
 77
     0
 47
0.0208333333333333
 47
0.0
 47
0.0
 47
0.0
 47
0.0
 47
0.0208333333333333
 47
0.0
 47
0.0
 47
0.0
 47
0.0
 47
1.0
 47
0.0
 47
0.0
 47
0.0
 47
0.0
 47
1.0
171
     0
 49
0.0208333333333333
 49
0.0
 49
0.0
 49
0.0
 49
0.0
 49
0.0208333333333333
 49
0.0
 49
0.0
 49
0.0
 49
0.0
 49
1.0
 49
0.0
 49
0.0
 49
0.0
 49
0.0
 49
1.0
175
     0
142
0.0208333333333333
142
0.0
142
0.0
142
0.0
142
0.0
142
0.0208333333333333
142
0.0
142
0.0
142
0.0
142
0.0
142
1.0
142
0.0
142
0.0
142
0.0
142
0.0
142
1.0
179
     0
144
0.0208333333333333
144
0.0
144
0.0
144
0.0
144
0.0
144
0.0208333333333333
144
0.0
144
0.0
144
0.0
144
0.0
144
1.0
144
0.0
144
0.0
144
0.0
144
0.0
144
1.0
147
0.0208333333333333
147
0.0
147
0.0
147
0.0
147
0.0
147
0.0208333333333333
147
0.0
147
0.0
147
0.0
147
0.0
147
1.0
147
0.0
147
0.0
147
0.0
147
0.0
147
1.0
  0
MATERIAL
  5
8136
102
{ACAD_XDICTIONARY
360
8137
102
}
102
{ACAD_REACTORS
330
8125
102
}
330
8125
100
AcDbMaterial
  1
Global
 72
     0
 43
0.0208333333333333
 43
0.0
 43
0.0
 43
0.0
 43
0.0
 43
0.0208333333333333
 43
0.0
 43
0.0
 43
0.0
 43
0.0
 43
1.0
 43
0.0
 43
0.0
 43
0.0
 43
0.0
 43
1.0
 77
     0
 47
0.0208333333333333
 47
0.0
 47
0.0
 47
0.0
 47
0.0
 47
0.0208333333333333
 47
0.0
 47
0.0
 47
0.0
 47
0.0
 47
1.0
 47
0.0
 47
0.0
 47
0.0
 47
0.0
 47
1.0
171
     0
 49
0.0208333333333333
 49
0.0
 49
0.0
 49
0.0
 49
0.0
 49
0.0208333333333333
 49
0.0
 49
0.0
 49
0.0
 49
0.0
 49
1.0
 49
0.0
 49
0.0
 49
0.0
 49
0.0
 49
1.0
175
     0
142
0.0208333333333333
142
0.0
142
0.0
142
0.0
142
0.0
142
0.0208333333333333
142
0.0
142
0.0
142
0.0
142
0.0
142
1.0
142
0.0
142
0.0
142
0.0
142
0.0
142
1.0
179
     0
144
0.0208333333333333
144
0.0
144
0.0
144
0.0
144
0.0
144
0.0208333333333333
144
0.0
144
0.0
144
0.0
144
0.0
144
1.0
144
0.0
144
0.0
144
0.0
144
0.0
144
1.0
147
0.0208333333333333
147
0.0
147
0.0
147
0.0
147
0.0
147
0.0208333333333333
147
0.0
147
0.0
147
0.0
147
0.0
147
1.0
147
0.0
147
0.0
147
0.0
147
0.0
147
1.0
  0
MLEADERSTYLE
  5
817B
102
{ACAD_REACTORS
330
817A
102
}
330
817A
100
AcDbMLeaderStyle
170
     2
171
     1
172
     0
 90
        2
 40
0.0
 41
0.0
173
     1
 91
-1056964608
340
816F
 92
       -2
290
     1
 42
0.09
291
     1
 43
0.36
  3
Standard
 44
0.18
300

342
816A
174
     1
178
     6
175
     1
176
     0
 93
-1056964608
 45
0.18
292
     0
297
     0
 46
0.18
 94
-1056964608
 47
1.0
 49
1.0
140
1.0
293
     1
141
0.0
294
     1
177
     0
142
1.0
295
     0
296
     0
143
0.125
1001
ACAD_MLEADERVER
1070
     2
  0
MLINESTYLE
  5
8174
102
{ACAD_REACTORS
330
8173
102
}
330
8173
100
AcDbMlineStyle
  2
STANDARD
 70
     0
  3

 62
   256
 51
90.0
 52
90.0
 71
     2
 49
0.5
 62
   256
  6
BYLAYER
 49
-0.5
 62
   256
  6
BYLAYER
  0
ACDBPLACEHOLDER
  5
8124
102
{ACAD_REACTORS
330
8123
102
}
330
8123
  0
SCALE
  5
8158
102
{ACAD_REACTORS
330
8157
102
}
330
8157
100
AcDbScale
 70
     0
300
1:1
140
1.0
141
1.0
290
     1
  0
SCALE
  5
8159
102
{ACAD_REACTORS
330
8157
102
}
330
8157
100
AcDbScale
 70
     0
300
1/128" = 1'-0"
140
0.0078125
141
12.0
290
     0
  0
SCALE
  5
815A
102
{ACAD_REACTORS
330
8157
102
}
330
8157
100
AcDbScale
 70
     0
300
1/64" = 1'-0"
140
0.015625
141
12.0
290
     0
  0
SCALE
  5
815B
102
{ACAD_REACTORS
330
8157
102
}
330
8157
100
AcDbScale
 70
     0
300
1/32" = 1'-0"
140
0.03125
141
12.0
290
     0
  0
SCALE
  5
815C
102
{ACAD_REACTORS
330
8157
102
}
330
8157
100
AcDbScale
 70
     0
300
1/16" = 1'-0"
140
0.0625
141
12.0
290
     0
  0
SCALE
  5
815D
102
{ACAD_REACTORS
330
8157
102
}
330
8157
100
AcDbScale
 70
     0
300
3/32" = 1'-0"
140
0.09375
141
12.0
290
     0
  0
SCALE
  5
815E
102
{ACAD_REACTORS
330
8157
102
}
330
8157
100
AcDbScale
 70
     0
300
1/8" = 1'-0"
140
0.125
141
12.0
290
     0
  0
SCALE
  5
815F
102
{ACAD_REACTORS
330
8157
102
}
330
8157
100
AcDbScale
 70
     0
300
3/16" = 1'-0"
140
0.1875
141
12.0
290
     0
  0
SCALE
  5
8160
102
{ACAD_REACTORS
330
8157
102
}
330
8157
100
AcDbScale
 70
     0
300
1/4" = 1'-0"
140
0.25
141
12.0
290
     0
  0
SCALE
  5
8161
102
{ACAD_REACTORS
330
8157
102
}
330
8157
100
AcDbScale
 70
     0
300
3/8" = 1'-0"
140
0.375
141
12.0
290
     0
  0
SCALE
  5
8162
102
{ACAD_REACTORS
330
8157
102
}
330
8157
100
AcDbScale
 70
     0
300
1/2" = 1'-0"
140
0.5
141
12.0
290
     0
  0
SCALE
  5
8163
102
{ACAD_REACTORS
330
8157
102
}
330
8157
100
AcDbScale
 70
     0
300
3/4" = 1'-0"
140
0.75
141
12.0
290
     0
  0
SCALE
  5
8164
102
{ACAD_REACTORS
330
8157
102
}
330
8157
100
AcDbScale
 70
     0
300
1" = 1'-0"
140
1.0
141
12.0
290
     0
  0
SCALE
  5
8165
102
{ACAD_REACTORS
330
8157
102
}
330
8157
100
AcDbScale
 70
     0
300
1-1/2" = 1'-0"
140
1.5
141
12.0
290
     0
  0
SCALE
  5
8166
102
{ACAD_REACTORS
330
8157
102
}
330
8157
100
AcDbScale
 70
     0
300
3" = 1'-0"
140
3.0
141
12.0
290
     0
  0
SCALE
  5
8167
102
{ACAD_REACTORS
330
8157
102
}
330
8157
100
AcDbScale
 70
     0
300
6" = 1'-0"
140
6.0
141
12.0
290
     0
  0
SCALE
  5
8168
102
{ACAD_REACTORS
330
8157
102
}
330
8157
100
AcDbScale
 70
     0
300
1'-0" = 1'-0"
140
12.0
141
12.0
290
     0
  0
ACDBSECTIONVIEWSTYLE
  5
817D
102
{ACAD_XDICTIONARY
360
843B
102
}
102
{ACAD_REACTORS
330
817C
102
}
330
817C
100
AcDbModelDocViewStyle
 70
     0
  3
Imperial24
290
     0
100
AcDbSectionViewStyle
 70
     0
 71
     0
 90
       78
 71
     1
340
816A
 40
0.24
340
0
340
0
 40
0.24
300
I, O, Q, S, X, Z
 40
0.48
 90
        3
 40
0.18
 90
        1
 71
     2
340
8171
 90
       25
340
8171
 90
       50
 40
0.24
 40
0.0
 40
0.24
 71
     3
340
816A
 40
0.24
 90
        1
 40
0.75
 90
        1
300
%<\AcVar ViewType \f "%tc1">% %<\AcVar ViewSectionStartId>%-%<\AcVar ViewSectionEndId>%\PSCALE %<\AcVar ViewScale \f "%sn">%
 71
     4
300
ANSI31
 40
1.0
 90
        0
290
     0
290
     0
 90
        6
 40
0.0
 40
1.570796326794896
 40
0.2617993877991494
 40
1.308996938995747
 40
-0.2617993877991494
 40
1.832595714594046
  0
TABLESTYLE
  5
8179
102
{ACAD_XDICTIONARY
360
8402
102
}
102
{ACAD_REACTORS
330
8178
102
}
330
8178
100
AcDbTableStyle
  3
Standard
 70
     0
 71
     0
 40
0.06
 41
0.06
280
     0
281
     0
  7
STANDARD
140
0.18
170
     2
 62
     0
 63
     7
283
     0
274
    -2
284
     1
 64
     0
275
    -2
285
     1
 65
     0
276
    -2
286
     1
 66
     0
277
    -2
287
     1
 67
     0
278
    -2
288
     1
 68
     0
279
    -2
289
     1
 69
     0
  7
STANDARD
140
0.25
170
     5
 62
     0
 63
     7
283
     0
274
    -2
284
     1
 64
     0
275
    -2
285
     1
 65
     0
276
    -2
286
     1
 66
     0
277
    -2
287
     1
 67
     0
278
    -2
288
     1
 68
     0
279
    -2
289
     1
 69
     0
  7
STANDARD
140
0.18
170
     5
 62
     0
 63
     7
283
     0
274
    -2
284
     1
 64
     0
275
    -2
285
     1
 65
     0
276
    -2
286
     1
 66
     0
277
    -2
287
     1
 67
     0
278
    -2
288
     1
 68
     0
279
    -2
289
     1
 69
     0
  0
VISUALSTYLE
  5
8144
102
{ACAD_XDICTIONARY
360
8413
102
}
102
{ACAD_REACTORS
330
813E
102
}
330
813E
100
AcDbVisualStyle
  2
2dWireframe
 70
     4
 71
     0
 72
     2
 73
     0
 90
        0
 40
-0.6
 41
-30.0
 62
     5
 63
     7
 74
     1
 91
        4
 64
     7
 65
   257
 75
     1
175
     1
 42
1.0
 92
        0
 66
   257
 43
1.0
 76
     1
 77
     6
 78
     2
 67
     7
 79
     5
170
     0
171
     0
290
     0
174
     0
 93
        1
 44
0.0
173
     0
291
     0
 45
0.0
1001
ACAD
1000
AcDbSavedByObjectVersion
1070
     0
  0
VISUALSTYLE
  5
8143
102
{ACAD_XDICTIONARY
360
8411
102
}
102
{ACAD_REACTORS
330
813E
102
}
330
813E
100
AcDbVisualStyle
  2
Basic
 70
     7
 71
     1
 72
     0
 73
     1
 90
        0
 40
-0.6
 41
-30.0
 62
     5
 63
     7
 74
     0
 91
        4
 64
     7
 65
   257
 75
     1
175
     1
 42
1.0
 92
        8
 66
     7
 43
1.0
 76
     1
 77
     6
 78
     2
 67
     7
 79
     5
170
     0
171
     0
290
     0
174
     0
 93
        1
 44
0.0
173
     0
291
     1
 45
0.0
1001
ACAD
1000
AcDbSavedByObjectVersion
1070
     0
  0
VISUALSTYLE
  5
814A
102
{ACAD_XDICTIONARY
360
841F
102
}
102
{ACAD_REACTORS
330
813E
102
}
330
813E
100
AcDbVisualStyle
  2
Brighten
 70
    12
 71
     2
 72
     2
 73
     0
 90
        0
 40
-0.6
 41
-30.0
 62
     5
 63
     7
 74
     1
 91
        4
 64
     7
 65
   257
 75
     1
175
     1
 42
1.0
 92
        8
 66
     7
 43
1.0
 76
     1
 77
     6
 78
     2
 67
     7
 79
     5
170
     0
171
     0
290
     0
174
     0
 93
        1
 44
50.0
173
     0
291
     1
 45
0.0
1001
ACAD
1000
AcDbSavedByObjectVersion
1070
     0
  0
VISUALSTYLE
  5
814E
102
{ACAD_XDICTIONARY
360
8427
102
}
102
{ACAD_REACTORS
330
813E
102
}
330
813E
100
AcDbVisualStyle
  2
ColorChange
 70
    16
 71
     2
 72
     2
 73
     3
 90
        0
 40
-0.6
 41
-30.0
 62
     5
 63
     8
 74
     1
 91
        4
 64
     7
 65
   257
 75
     1
175
     1
 42
1.0
 92
        8
 66
     8
 43
1.0
 76
     1
 77
     6
 78
     2
 67
     7
 79
     5
170
     0
171
     0
290
     0
174
     0
 93
        1
 44
0.0
173
     0
291
     1
 45
0.0
1001
ACAD
1000
AcDbSavedByObjectVersion
1070
     0
  0
VISUALSTYLE
  5
8147
102
{ACAD_XDICTIONARY
360
8419
102
}
102
{ACAD_REACTORS
330
813E
102
}
330
813E
100
AcDbVisualStyle
  2
Conceptual
 70
     9
 71
     3
 72
     2
 73
     0
 90
        0
 40
-0.6
 41
-30.0
 62
     5
 63
     7
 74
     2
 91
        2
 64
     7
 65
   257
 75
     1
175
     1
 42
179.0
 92
        8
 66
     7
 43
1.0
 76
     1
 77
     6
 78
     2
 67
     7
 79
     3
170
     0
171
     0
290
     0
174
     0
 93
        1
 44
0.0
173
     0
291
     0
 45
0.0
1001
ACAD
1000
AcDbSavedByObjectVersion
1070
     0
  0
VISUALSTYLE
  5
8149
102
{ACAD_XDICTIONARY
360
841D
102
}
102
{ACAD_REACTORS
330
813E
102
}
330
813E
100
AcDbVisualStyle
  2
Dim
 70
    11
 71
     2
 72
     2
 73
     0
 90
        0
 40
-0.6
 41
-30.0
 62
     5
 63
     7
 74
     1
 91
        4
 64
     7
 65
   257
 75
     1
175
     1
 42
1.0
 92
        8
 66
     7
 43
1.0
 76
     1
 77
     6
 78
     2
 67
     7
 79
     5
170
     0
171
     0
290
     0
174
     0
 93
        1
 44
-50.0
173
     0
291
     1
 45
0.0
1001
ACAD
1000
AcDbSavedByObjectVersion
1070
     0
  0
VISUALSTYLE
  5
8156
102
{ACAD_XDICTIONARY
360
8437
102
}
102
{ACAD_REACTORS
330
813E
102
}
330
813E
100
AcDbVisualStyle
  2
EdgeColorOff
 70
    22
 71
     2
 72
     2
 73
     0
 90
        0
 40
-0.6
 41
-30.0
 62
     5
 63
     7
 74
     1
 91
        4
 64
     7
 65
   257
 75
     1
175
     1
 42
1.0
 92
        8
 66
     7
 43
1.0
 76
     1
 77
     6
 78
     2
 67
     7
 79
     5
170
     0
171
     0
290
     0
174
     0
 93
        1
 44
0.0
173
     0
291
     1
 45
0.0
1001
ACAD
1000
AcDbSavedByObjectVersion
1070
     0
  0
VISUALSTYLE
  5
814D
102
{ACAD_XDICTIONARY
360
8425
102
}
102
{ACAD_REACTORS
330
813E
102
}
330
813E
100
AcDbVisualStyle
  2
Facepattern
 70
    15
 71
     2
 72
     2
 73
     0
 90
        0
 40
-0.6
 41
-30.0
 62
     5
 63
     7
 74
     1
 91
        4
 64
     7
 65
   257
 75
     1
175
     1
 42
1.0
 92
        8
 66
     7
 43
1.0
 76
     1
 77
     6
 78
     2
 67
     7
 79
     5
170
     0
171
     0
290
     0
174
     0
 93
        1
 44
0.0
173
     0
291
     1
 45
0.0
1001
ACAD
1000
AcDbSavedByObjectVersion
1070
     0
  0
VISUALSTYLE
  5
813F
102
{ACAD_XDICTIONARY
360
8409
102
}
102
{ACAD_REACTORS
330
813E
102
}
330
813E
100
AcDbVisualStyle
  2
Flat
 70
     0
 71
     2
 72
     1
 73
     1
 90
        2
 40
-0.6
 41
30.0
 62
     5
 63
     7
 74
     0
 91
        0
 64
     7
 65
   257
 75
     1
175
     1
 42
1.0
 92
        8
 66
     7
 43
1.0
 76
     1
 77
     6
 78
     2
 67
     7
 79
     5
170
     0
171
     0
290
     0
174
     0
 93
       13
 44
0.0
173
     0
291
     1
 45
0.0
1001
ACAD
1000
AcDbSavedByObjectVersion
1070
     0
  0
VISUALSTYLE
  5
8140
102
{ACAD_XDICTIONARY
360
840B
102
}
102
{ACAD_REACTORS
330
813E
102
}
330
813E
100
AcDbVisualStyle
  2
FlatWithEdges
 70
     1
 71
     2
 72
     1
 73
     1
 90
        2
 40
-0.6
 41
30.0
 62
     5
 63
     7
 74
     1
 91
        0
 64
     7
 65
   257
 75
     1
175
     1
 42
1.0
 92
        0
 66
   257
 43
1.0
 76
     1
 77
     6
 78
     2
 67
     7
 79
     5
170
     0
171
     0
290
     0
174
     0
 93
       13
 44
0.0
173
     0
291
     1
 45
0.0
1001
ACAD
1000
AcDbSavedByObjectVersion
1070
     0
  0
VISUALSTYLE
  5
8141
102
{ACAD_XDICTIONARY
360
840D
102
}
102
{ACAD_REACTORS
330
813E
102
}
330
813E
100
AcDbVisualStyle
  2
Gouraud
 70
     2
 71
     2
 72
     2
 73
     1
 90
        2
 40
-0.6
 41
30.0
 62
     5
 63
     7
 74
     0
 91
        0
 64
     7
 65
   257
 75
     1
175
     1
 42
1.0
 92
        0
 66
     7
 43
1.0
 76
     1
 77
     6
 78
     2
 67
     7
 79
     5
170
     0
171
     0
290
     0
174
     0
 93
       13
 44
0.0
173
     0
291
     1
 45
0.0
1001
ACAD
1000
AcDbSavedByObjectVersion
1070
     0
  0
VISUALSTYLE
  5
8142
102
{ACAD_XDICTIONARY
360
840F
102
}
102
{ACAD_REACTORS
330
813E
102
}
330
813E
100
AcDbVisualStyle
  2
GouraudWithEdges
 70
     3
 71
     2
 72
     2
 73
     1
 90
        2
 40
-0.6
 41
30.0
 62
     5
 63
     7
 74
     1
 91
        0
 64
     7
 65
   257
 75
     1
175
     1
 42
1.0
 92
        0
 66
   257
 43
1.0
 76
     1
 77
     6
 78
     2
 67
     7
 79
     5
170
     0
171
     0
290
     0
174
     0
 93
       13
 44
0.0
173
     0
291
     1
 45
0.0
1001
ACAD
1000
AcDbSavedByObjectVersion
1070
     0
  0
VISUALSTYLE
  5
8146
102
{ACAD_XDICTIONARY
360
8417
102
}
102
{ACAD_REACTORS
330
813E
102
}
330
813E
100
AcDbVisualStyle
  2
Hidden
 70
     6
 71
     1
 72
     2
 73
     2
 90
        0
 40
-0.6
 41
-30.0
 62
     5
 63
     7
 74
     2
 91
        2
 64
     7
 65
   257
 75
     2
175
     1
 42
40.0
 92
        0
 66
   257
 43
1.0
 76
     1
 77
     6
 78
     2
 67
     7
 79
     3
170
     0
171
     0
290
     0
174
     0
 93
        1
 44
0.0
173
     0
291
     0
 45
0.0
1001
ACAD
1000
AcDbSavedByObjectVersion
1070
     0
  0
VISUALSTYLE
  5
8154
102
{ACAD_XDICTIONARY
360
8433
102
}
102
{ACAD_REACTORS
330
813E
102
}
330
813E
100
AcDbVisualStyle
  2
JitterOff
 70
    20
 71
     2
 72
     2
 73
     0
 90
        0
 40
-0.6
 41
-30.0
 62
     5
 63
     7
 74
     1
 91
        4
 64
     7
 65
   257
 75
     1
175
     1
 42
1.0
 92
       10
 66
     7
 43
1.0
 76
     1
 77
     6
 78
     2
 67
     7
 79
     5
170
     0
171
     0
290
     0
174
     0
 93
        1
 44
0.0
173
     0
291
     1
 45
0.0
1001
ACAD
1000
AcDbSavedByObjectVersion
1070
     0
  0
VISUALSTYLE
  5
814C
102
{ACAD_XDICTIONARY
360
8423
102
}
102
{ACAD_REACTORS
330
813E
102
}
330
813E
100
AcDbVisualStyle
  2
Linepattern
 70
    14
 71
     2
 72
     2
 73
     0
 90
        0
 40
-0.6
 41
-30.0
 62
     5
 63
     7
 74
     1
 91
        4
 64
     7
 65
   257
 75
     7
175
     7
 42
1.0
 92
        8
 66
     7
 43
1.0
 76
     1
 77
     6
 78
     2
 67
     7
 79
     5
170
     0
171
     0
290
     0
174
     0
 93
        1
 44
0.0
173
     0
291
     1
 45
0.0
1001
ACAD
1000
AcDbSavedByObjectVersion
1070
     0
  0
VISUALSTYLE
  5
8155
102
{ACAD_XDICTIONARY
360
8435
102
}
102
{ACAD_REACTORS
330
813E
102
}
330
813E
100
AcDbVisualStyle
  2
OverhangOff
 70
    21
 71
     2
 72
     2
 73
     0
 90
        0
 40
-0.6
 41
-30.0
 62
     5
 63
     7
 74
     1
 91
        4
 64
     7
 65
   257
 75
     1
175
     1
 42
1.0
 92
        9
 66
     7
 43
1.0
 76
     1
 77
     6
 78
     2
 67
     7
 79
     5
170
     0
171
     0
290
     0
174
     0
 93
        1
 44
0.0
173
     0
291
     1
 45
0.0
1001
ACAD
1000
AcDbSavedByObjectVersion
1070
     0
  0
VISUALSTYLE
  5
8148
102
{ACAD_XDICTIONARY
360
841B
102
}
102
{ACAD_REACTORS
330
813E
102
}
330
813E
100
AcDbVisualStyle
  2
Realistic
 70
     8
 71
     2
 72
     3
 73
     0
 90
        2
 40
-0.6
 41
30.0
 62
     5
 63
     7
 74
     0
 91
        0
 64
     7
 65
   257
 75
     1
175
     1
 42
1.0
 92
        8
 66
   257
 43
1.0
 76
     1
 77
     6
 78
     2
 67
     7
 79
     3
170
     0
171
     0
290
     0
174
     0
 93
       13
 44
0.0
173
     0
291
     0
 45
0.0
1001
ACAD
1000
AcDbSavedByObjectVersion
1070
     0
  0
VISUALSTYLE
  5
8153
102
{ACAD_XDICTIONARY
360
8431
102
}
102
{ACAD_REACTORS
330
813E
102
}
330
813E
100
AcDbVisualStyle
  2
Shaded
 70
    27
 71
     2
 72
     2
 73
     1
 90
        2
 40
-0.6
 41
30.0
 62
     5
 63
     7
 74
     0
 91
        4
 64
     7
 65
   257
 75
     1
175
     1
 42
1.0
 92
        8
 66
   257
 43
1.0
 76
     1
 77
     6
 78
     2
 67
     8
 79
     3
170
     0
171
     0
290
     0
174
     0
 93
        5
 44
0.0
173
     0
291
     0
 45
0.0
1001
ACAD
1000
AcDbSavedByObjectVersion
1070
     0
  0
VISUALSTYLE
  5
8152
102
{ACAD_XDICTIONARY
360
842F
102
}
102
{ACAD_REACTORS
330
813E
102
}
330
813E
100
AcDbVisualStyle
  2
Shaded with edges
 70
    26
 71
     2
 72
     2
 73
     1
 90
        2
 40
-0.6
 41
30.0
 62
     5
 63
     7
 74
     1
 91
       10
 64
     7
 65
   257
 75
     2
175
     1
 42
1.0
 92
        8
 66
   257
 43
1.0
 76
     1
 77
     6
 78
     2
 67
     7
 79
     3
170
     0
171
     0
290
     0
174
     0
 93
        5
 44
0.0
173
     0
291
     0
 45
0.0
1001
ACAD
1000
AcDbSavedByObjectVersion
1070
     0
  0
VISUALSTYLE
  5
814F
102
{ACAD_XDICTIONARY
360
8429
102
}
102
{ACAD_REACTORS
330
813E
102
}
330
813E
100
AcDbVisualStyle
  2
Shades of Gray
 70
    23
 71
     2
 72
     2
 73
     3
 90
        0
 40
-0.6
 41
-30.0
 62
     5
 63
     7
 74
     2
 91
        2
 64
     7
 65
     7
 75
     1
175
     1
 42
40.0
 92
        8
 66
     7
 43
1.0
 76
     1
 77
     6
 78
     2
 67
     7
 79
     3
170
     0
171
     0
290
     0
174
     0
 93
        1
 44
0.0
173
     0
291
     0
 45
0.0
1001
ACAD
1000
AcDbSavedByObjectVersion
1070
     0
  0
VISUALSTYLE
  5
8150
102
{ACAD_XDICTIONARY
360
842B
102
}
102
{ACAD_REACTORS
330
813E
102
}
330
813E
100
AcDbVisualStyle
  2
Sketchy
 70
    24
 71
     1
 72
     2
 73
     2
 90
        0
 40
-0.6
 41
-30.0
 62
     5
 63
     7
 74
     2
 91
        2
 64
     7
 65
     7
 75
     1
175
     1
 42
40.0
 92
       11
 66
     7
 43
1.0
 76
     1
 77
     6
 78
     2
 67
     7
 79
     6
170
     0
171
     0
290
     0
174
     0
 93
        1
 44
0.0
173
     0
291
     0
 45
0.0
1001
ACAD
1000
AcDbSavedByObjectVersion
1070
     0
  0
VISUALSTYLE
  5
814B
102
{ACAD_XDICTIONARY
360
8421
102
}
102
{ACAD_REACTORS
330
813E
102
}
330
813E
100
AcDbVisualStyle
  2
Thicken
 70
    13
 71
     2
 72
     2
 73
     0
 90
        0
 40
-0.6
 41
-30.0
 62
     5
 63
     7
 74
     1
 91
        4
 64
     7
 65
   257
 75
     1
175
     1
 42
1.0
 92
       12
 66
     7
 43
1.0
 76
     1
 77
     6
 78
     2
 67
     7
 79
     5
170
     0
171
     0
290
     0
174
     0
 93
        1
 44
0.0
173
     0
291
     1
 45
0.0
1001
ACAD
1000
AcDbSavedByObjectVersion
1070
     0
  0
VISUALSTYLE
  5
8145
102
{ACAD_XDICTIONARY
360
8415
102
}
102
{ACAD_REACTORS
330
813E
102
}
330
813E
100
AcDbVisualStyle
  2
Wireframe
 70
     5
 71
     0
 72
     2
 73
     0
 90
        0
 40
-0.6
 41
-30.0
 62
     5
 63
     7
 74
     1
 91
        4
 64
     7
 65
   257
 75
     1
175
     1
 42
1.0
 92
        0
 66
   257
 43
1.0
 76
     1
 77
     6
 78
     2
 67
     7
 79
     3
170
     0
171
     0
290
     0
174
     0
 93
        1
 44
0.0
173
     0
291
     0
 45
0.0
1001
ACAD
1000
AcDbSavedByObjectVersion
1070
     0
  0
VISUALSTYLE
  5
8151
102
{ACAD_XDICTIONARY
360
842D
102
}
102
{ACAD_REACTORS
330
813E
102
}
330
813E
100
AcDbVisualStyle
  2
X-Ray
 70
    25
 71
     2
 72
     2
 73
     1
 90
        1
 40
0.5
 41
-30.0
 62
     5
 63
     7
 74
     1
 91
        0
 64
     7
 65
   257
 75
     1
175
     1
 42
1.0
 92
        8
 66
     7
 43
1.0
 76
     1
 77
     6
 78
     2
 67
     7
 79
     3
170
     0
171
     0
290
     0
174
     0
 93
       13
 44
0.0
173
     0
291
     0
 45
0.0
1001
ACAD
1000
AcDbSavedByObjectVersion
1070
     0
  0
DICTIONARYVAR
  5
83BB
102
{ACAD_REACTORS
330
83B6
102
}
330
83B6
100
DictionaryVariables
280
     0
  1
1:1
  0
DICTIONARYVAR
  5
83B8
102
{ACAD_REACTORS
330
83B6
102
}
330
83B6
100
DictionaryVariables
280
     0
  1
STANDARD
  0
DICTIONARYVAR
  5
83B7
102
{ACAD_REACTORS
330
83B6
102
}
330
83B6
100
DictionaryVariables
280
     0
  1
STANDARD
  0
DICTIONARYVAR
  5
83B9
102
{ACAD_REACTORS
330
83B6
102
}
330
83B6
100
DictionaryVariables
280
     0
  1
Imperial24
  0
DICTIONARYVAR
  5
83BA
102
{ACAD_REACTORS
330
83B6
102
}
330
83B6
100
DictionaryVariables
280
     0
  1
Imperial24
  0
DICTIONARYVAR
  5
83BE
102
{ACAD_REACTORS
330
83B6
102
}
330
83B6
100
DictionaryVariables
280
     0
  1
1
  0
DICTIONARYVAR
  5
83BD
102
{ACAD_REACTORS
330
83B6
102
}
330
83B6
100
DictionaryVariables
280
     0
  1
0
  0
DICTIONARYVAR
  5
83BC
102
{ACAD_REACTORS
330
83B6
102
}
330
83B6
100
DictionaryVariables
280
     0
  1
127
  0
DICTIONARYVAR
  5
83BF
102
{ACAD_REACTORS
330
83B6
102
}
330
83B6
100
DictionaryVariables
280
     0
  1
2
  0
DICTIONARY
  5
843D
330
817F
100
AcDbDictionary
280
     1
281
     1
  3
ACAD_XREC_ROUNDTRIP
360
843E
  0
DICTIONARY
  5
8441
330
8187
100
AcDbDictionary
280
     1
281
     1
  3
ACAD_XREC_ROUNDTRIP
360
8442
  0
DICTIONARY
  5
843F
330
8183
100
AcDbDictionary
280
     1
281
     1
  3
ACAD_XREC_ROUNDTRIP
360
8440
  0
DICTIONARY
  5
812F
330
812E
100
AcDbDictionary
280
     1
281
     1
  3
ACAD_XREC_ROUNDTRIP
360
8407
  3
BUMPTILE
360
8131
  3
DIFFUSETILE
360
8130
  3
OPACITYTILE
360
8134
  3
REFLECTIONTILE
360
8133
  3
REFRACTIONTILE
360
8135
  3
SPECULARTILE
360
8132
  0
DICTIONARY
  5
8127
330
8126
100
AcDbDictionary
280
     1
281
     1
  3
ACAD_XREC_ROUNDTRIP
360
8406
  3
BUMPTILE
360
8129
  3
DIFFUSETILE
360
8128
  3
OPACITYTILE
360
812C
  3
REFLECTIONTILE
360
812B
  3
REFRACTIONTILE
360
812D
  3
SPECULARTILE
360
812A
  0
DICTIONARY
  5
8137
330
8136
100
AcDbDictionary
280
     1
281
     1
  3
ACAD_XREC_ROUNDTRIP
360
8408
  3
BUMPTILE
360
8139
  3
DIFFUSETILE
360
8138
  3
FBXASSET
360
8236
  3
OPACITYTILE
360
813C
  3
REFLECTIONTILE
360
813B
  3
REFRACTIONTILE
360
813D
  3
SPECULARTILE
360
813A
  0
DICTIONARY
  5
843B
330
817D
100
AcDbDictionary
280
     1
281
     1
  3
ACAD_XREC_ROUNDTRIP
360
843C
  0
DICTIONARY
  5
8402
330
8179
100
AcDbDictionary
280
     1
281
     1
  3
ACAD_ROUNDTRIP_2008_TABLESTYLE_CELLSTYLEMAP
360
8403
  3
ACAD_XREC_ROUNDTRIP
360
8439
  0
DICTIONARY
  5
8413
330
8144
100
AcDbDictionary
280
     1
281
     1
  3
ACAD_XREC_ROUNDTRIP
360
8414
  0
DICTIONARY
  5
8411
330
8143
100
AcDbDictionary
280
     1
281
     1
  3
ACAD_XREC_ROUNDTRIP
360
8412
  0
DICTIONARY
  5
841F
330
814A
100
AcDbDictionary
280
     1
281
     1
  3
ACAD_XREC_ROUNDTRIP
360
8420
  0
DICTIONARY
  5
8427
330
814E
100
AcDbDictionary
280
     1
281
     1
  3
ACAD_XREC_ROUNDTRIP
360
8428
  0
DICTIONARY
  5
8419
330
8147
100
AcDbDictionary
280
     1
281
     1
  3
ACAD_XREC_ROUNDTRIP
360
841A
  0
DICTIONARY
  5
841D
330
8149
100
AcDbDictionary
280
     1
281
     1
  3
ACAD_XREC_ROUNDTRIP
360
841E
  0
DICTIONARY
  5
8437
330
8156
100
AcDbDictionary
280
     1
281
     1
  3
ACAD_XREC_ROUNDTRIP
360
8438
  0
DICTIONARY
  5
8425
330
814D
100
AcDbDictionary
280
     1
281
     1
  3
ACAD_XREC_ROUNDTRIP
360
8426
  0
DICTIONARY
  5
8409
330
813F
100
AcDbDictionary
280
     1
281
     1
  3
ACAD_XREC_ROUNDTRIP
360
840A
  0
DICTIONARY
  5
840B
330
8140
100
AcDbDictionary
280
     1
281
     1
  3
ACAD_XREC_ROUNDTRIP
360
840C
  0
DICTIONARY
  5
840D
330
8141
100
AcDbDictionary
280
     1
281
     1
  3
ACAD_XREC_ROUNDTRIP
360
840E
  0
DICTIONARY
  5
840F
330
8142
100
AcDbDictionary
280
     1
281
     1
  3
ACAD_XREC_ROUNDTRIP
360
8410
  0
DICTIONARY
  5
8417
330
8146
100
AcDbDictionary
280
     1
281
     1
  3
ACAD_XREC_ROUNDTRIP
360
8418
  0
DICTIONARY
  5
8433
330
8154
100
AcDbDictionary
280
     1
281
     1
  3
ACAD_XREC_ROUNDTRIP
360
8434
  0
DICTIONARY
  5
8423
330
814C
100
AcDbDictionary
280
     1
281
     1
  3
ACAD_XREC_ROUNDTRIP
360
8424
  0
DICTIONARY
  5
8435
330
8155
100
AcDbDictionary
280
     1
281
     1
  3
ACAD_XREC_ROUNDTRIP
360
8436
  0
DICTIONARY
  5
841B
330
8148
100
AcDbDictionary
280
     1
281
     1
  3
ACAD_XREC_ROUNDTRIP
360
841C
  0
DICTIONARY
  5
8431
330
8153
100
AcDbDictionary
280
     1
281
     1
  3
ACAD_XREC_ROUNDTRIP
360
8432
  0
DICTIONARY
  5
842F
330
8152
100
AcDbDictionary
280
     1
281
     1
  3
ACAD_XREC_ROUNDTRIP
360
8430
  0
DICTIONARY
  5
8429
330
814F
100
AcDbDictionary
280
     1
281
     1
  3
ACAD_XREC_ROUNDTRIP
360
842A
  0
DICTIONARY
  5
842B
330
8150
100
AcDbDictionary
280
     1
281
     1
  3
ACAD_XREC_ROUNDTRIP
360
842C
  0
DICTIONARY
  5
8421
330
814B
100
AcDbDictionary
280
     1
281
     1
  3
ACAD_XREC_ROUNDTRIP
360
8422
  0
DICTIONARY
  5
8415
330
8145
100
AcDbDictionary
280
     1
281
     1
  3
ACAD_XREC_ROUNDTRIP
360
8416
  0
DICTIONARY
  5
842D
330
8151
100
AcDbDictionary
280
     1
281
     1
  3
ACAD_XREC_ROUNDTRIP
360
842E
  0
XRECORD
  5
843E
102
{ACAD_REACTORS
330
843D
102
}
330
843D
100
AcDbXrecord
280
     1
102
DISPLAYNAME
  1
Imperial24
102
FLAGS
 90
        0
  0
XRECORD
  5
8442
102
{ACAD_REACTORS
330
8441
102
}
330
8441
100
AcDbXrecord
280
     1
102
SHADEPLOT
 70
     0
102
SHADEPLOTRESLEVEL
 70
     2
102
SHADEPLOTCUSTOMDPI
 70
   300
  0
XRECORD
  5
8440
102
{ACAD_REACTORS
330
843F
102
}
330
843F
100
AcDbXrecord
280
     1
102
SHADEPLOT
 70
     0
102
SHADEPLOTRESLEVEL
 70
     2
102
SHADEPLOTCUSTOMDPI
 70
   300
  0
XRECORD
  5
8407
102
{ACAD_REACTORS
330
812F
102
}
330
812F
100
AcDbXrecord
280
     1
102
MATERIAL
148
0.0
149
0.0
149
0.0
 93
        0
 94
      127
282
     0
 72
     0
 77
     0
171
     0
175
     0
179
     0
273
     0
  0
XRECORD
  5
8131
102
{ACAD_REACTORS
330
812F
102
}
330
812F
100
AcDbXrecord
280
     1
270
     1
271
     1
  0
XRECORD
  5
8130
102
{ACAD_REACTORS
330
812F
102
}
330
812F
100
AcDbXrecord
280
     1
270
     1
271
     1
  0
XRECORD
  5
8134
102
{ACAD_REACTORS
330
812F
102
}
330
812F
100
AcDbXrecord
280
     1
270
     1
271
     1
  0
XRECORD
  5
8133
102
{ACAD_REACTORS
330
812F
102
}
330
812F
100
AcDbXrecord
280
     1
270
     1
271
     1
  0
XRECORD
  5
8135
102
{ACAD_REACTORS
330
812F
102
}
330
812F
100
AcDbXrecord
280
     1
270
     1
271
     1
  0
XRECORD
  5
8132
102
{ACAD_REACTORS
330
812F
102
}
330
812F
100
AcDbXrecord
280
     1
270
     1
271
     1
  0
XRECORD
  5
8406
102
{ACAD_REACTORS
330
8127
102
}
330
8127
100
AcDbXrecord
280
     1
102
MATERIAL
148
0.0
149
0.0
149
0.0
 93
        0
 94
      127
282
     0
 72
     0
 77
     0
171
     0
175
     0
179
     0
273
     0
  0
XRECORD
  5
8129
102
{ACAD_REACTORS
330
8127
102
}
330
8127
100
AcDbXrecord
280
     1
270
     1
271
     1
  0
XRECORD
  5
8128
102
{ACAD_REACTORS
330
8127
102
}
330
8127
100
AcDbXrecord
280
     1
270
     1
271
     1
  0
XRECORD
  5
812C
102
{ACAD_REACTORS
330
8127
102
}
330
8127
100
AcDbXrecord
280
     1
270
     1
271
     1
  0
XRECORD
  5
812B
102
{ACAD_REACTORS
330
8127
102
}
330
8127
100
AcDbXrecord
280
     1
270
     1
271
     1
  0
XRECORD
  5
812D
102
{ACAD_REACTORS
330
8127
102
}
330
8127
100
AcDbXrecord
280
     1
270
     1
271
     1
  0
XRECORD
  5
812A
102
{ACAD_REACTORS
330
8127
102
}
330
8127
100
AcDbXrecord
280
     1
270
     1
271
     1
  0
XRECORD
  5
8408
102
{ACAD_REACTORS
330
8137
102
}
330
8137
100
AcDbXrecord
280
     1
102
MATERIAL
148
0.0
149
0.0
149
0.0
 93
        0
 94
      127
282
     0
 72
     0
 77
     0
171
     0
175
     0
179
     0
273
     0
  0
XRECORD
  5
8139
102
{ACAD_REACTORS
330
8137
102
}
330
8137
100
AcDbXrecord
280
     1
270
     1
271
     1
  0
XRECORD
  5
8138
102
{ACAD_REACTORS
330
8137
102
}
330
8137
100
AcDbXrecord
280
     1
270
     1
271
     1
  0
XRECORD
  5
8236
102
{ACAD_REACTORS
330
8137
102
}
330
8137
100
AcDbXrecord
280
     1
 70
     1
 90
1959938040
 71
     1
  1
7B9FA6A6-163C-4A8F-BADB-FF3BC0A99151
311
504B0304140006080800B2786D57A0EAB5E5B4000000200100004F00000036394435323335382D454137322D344546382D383246442D3745333430434337384241432F4173736574446174612F446566696E6974696F6E4974657261746F7250726F706572746965732E62696EEB606060F80F0540260323103700495E20ED
311
9E9A975A94991C9C9C919A9BC8C00612C9C94F4ACC6147C831019920AE4B6A5A62694E0948976F6671726A4E4E625E6A7E69B12042A9426E6209D0B8C41C3D90264E20860914834C48875806B2DF0F88414E02D189290556F689C5C5A925B6FA694915FA864E9646A66606C6BA46CE6696BA262EC64EBA8E8626AEBACE16AE
311
E6C6CE2E66CEC686A6FA45A9C5F9A545C9A9C5FA46FA06F15093E30BF2D28106920800504B0304140006080800B2786D5757EC1AD60D010000300200004500000036394435323335382D454137322D344546382D383246442D3745333430434337384241432F4173736574446174612F496E7374616E636550726F70657274
311
6965732E62696EEB606060F80F0540260323103700495E20ED9E9A975A94991C9C9C919A9BA802143077B27473347334D335343376D63571B470D375727471D275733376723670B4B4343435644768046931363471713532B5D435353131D635313332D475727372D13534373670367376B67474B5042A03DBCBA019D37FE8
311
ABC6157B20CD04146B0062181F4C03F940F0C11EA29A8141C08141002C0426541C106CAC2CA046088033B02A030AC2157C6006F21A8018AAF50194E6010A610250382264E08660284CD9E98021862280A91564B406929A0FF62C401E28B6F88038B83CB1243943D7A928312F25350524C3C0A0DD70F5FFFF55A160369C0F32
311
E6FFD5066D983C84095703D1842608372874D5FFFF00504B0304140006080800B2786D5728BB58AF800100009E0500003D00000036394435323335382D454137322D344546382D383246442D3745333430434337384241432F536368656D61732F436F6D6D6F6E536368656D612E786D6CBD544D4FC23018BEFB2B96DE1549
311
3C78601010A34B880709DEDFB52FD0D8B54BD70DF6EFED3AC0B12E6442E2716BFB3CEFF3D18E26FB440405EA8C2B1992E1C323095052C5B8DC842437EBFB673219DF8DA659866649B798C078B48AE6410122242F2A4994AC7F93815DF85C049C8564CA0A901499DD886B2EB9B1E02448F358701A9235880C49A0119892A20C
311
89D1B9FD768815CAD268CB5E0355B40B1E47F3E37A2020464BED06AA57CE8FCC20C3C3446D46761A2632A8C1283D07031EFF2AE7CCB1BFEEE916E406DFAC8E36FFD99A9D60A6944090EEDC3B670C7DC13DE86B6B2C5C240D6E503BB85ACD579D513F1B9F9A69DC9CC22AFA80C426D40AF0B21EA168559156B6276F0F726A6B
311
FF04DCD513A87A62CAD41FB24FCB2858B3952E3D852084DA25B9303C15687973CC8E8AAE11DF2836C38C6A9E765E8C1BA1BFB1DC29CDFE518C8B5A7655A4ED7E77291ABEB80DBD82EC866ADE1B8D05AF9E35CF09D7A061F38A986D9EC412B8F0F65E5D81534D9B231D1E5A8FE577A241F3A5FD01504B0304140006080800B2
311
786D572CCEBD668A040000E01200003E00000036394435323335382D454137322D344546382D383246442D3745333430434337384241432F536368656D61732F47656E65726963536368656D612E786D6CD5586D6FDB380CFE7EBF42F0F7A649B70E1B90744856B4970F450FCD7A5F05459613EDE4174872DADCAF3F522F8E
311
D3B88D2F1D06AC4050DBA2493EE4438AF2F8EB73AEC8466823CB62928C06C384888297A92C5693A4B6D9D9E7E4EBD51FE3A931C22EF85AE4EC6AFC38BF261BA626C9AD288496DC3F4FCEAFC63366845F7A10452AF41DB320C0D44EC26EAB20918735565582695670811A6A49643A49A6E9069FA4604A64B29016DC4B48552F
311
95E4932463CA888468C1D2B250DB4962750DF7CE273069CE8363F1FF4EDB00E0A21999574AE4A2B00C353B93F3BD4777B8A61ED8F604ABFEDD79CE56A2B7BDFBDBC50996E0ADDE16FED26223C5D30956C29BDF4A55EA686E5E58B112DA45CE67F76F4FA27EFA3FB672FD7372FC388FAECDCA5209E693CAD167BADCD272F943
311
701B3812F8A3D852008B1D2E32DB927B2F833C6EA95879925356D254582695095A3CE982924720BE5774A3CB9CDCDB350427D2DF20DA1B5532EBE2D5D6288D75D4F7E4FD9890A0EF8E3D93EBB8F8BA4758158EF6FB90A6F9520281C93DE7AAC6D24607DA296BB96018123F821A7D6A5C5884050C475DA4865442732C8B9568
311
4A50165CBB3A32F25F783A4A480ED59AD7F924B968AEA50131F46303223E6A397B0E52976030DC1DCA81D7E7C1EDEEA42C19FF27635C505E2BD5198A599020DF50A2330FCB3AAF28CB0124108429553EF1B228802E2265D8F7CC2401042B155BCC7070F1E5C55F13B4A9577362CCCE46C32174E010C3C378C44841A4BDA00F
311
E3A12006CE11EE6AEC59894D3526DDE1CD59D503ECC324017F8061B7F162162FA62EDD81AE3308617770796DCBDAD2B2625C5AE8A63DE20B2C8AA5E95E76E5730823955956E33E705425A2187C185D36489A1B44D3DCEC2172F6BA2105C3546287A7194B2331768EBBE64F6E70A9930ABE0ADEA89E9E2C38523B810287AD67
311
A54A039C1606EAFE68F8304610BB9093DBDDABC0B2AE4E290DCDA15376D7E39F72B556F0B32EAB5D3D498B4C41ABADEC3A1434C422D87E8025A84BDCB2B1417ED750FAE4DA8976863974C577C7F902D3F156AD354DEA3540DE6BEAE2BEA52F7A2EB4CA43802ECE5BF2CE2EDC9347179FFB023CE412E60BE16DA0BE29B37498
311
8A553F561DC04615DD35F7D2C8979F60E5955CE93DF29DED8AFA1EE6642D53418086C03C47C377910F75F7E8F5EF665F70B60FFB22AEDF897D119E8423C773E819A3C1E55E550599EE6EDCA34D0C86FD72057DF2CD46F16A470682471C164E4346D5306BF12D7D12D82CFF673D41636C347443FEB51B50D72EA171A8E4A586
311
23A4A16E0FA2B8B10A0D23268D87C33896EE8FB73305A74BF224EDBADFA0BD674AB354D63DB7BD5D83426761C077DE767728235446A552754EB93B755891C3C4CC6CADE37CF0E912A7BB38DBA010F9DE1282EDF470CA69A9CDA482E334C4A6EA4107987980B17E72F31730EBF88BBD39E7C629F56797A3C0009C2C5AE7951D
311
9A05A02773440F02EEB4DE396A3B6A570C72CCFBCD823B0B8ED3F1D5CEDDFED772FA70236C83FB7D86C385D570B87107535572A60A96035F8F7C6A7192F13007246BBE0521855E6AC46F3E27689CEE7D186A6FD679D98CDCAD13333E04EBE7ED6F55FF01504B0304140006080800B2786D576180134D5F0100006B03000045
311
00000036394435323335382D454137322D344546382D383246442D3745333430434337384241432F536368656D61732F52656E6465724D6174657269616C536368656D612E786D6CA5934D6FC2300C86EFFB1551EEE343DBA41D1A103009551ADAD40EAE28A4A68D9426284961FCFBE5A340113B2071746D3F765EBF4DC6BF
311
B5407BD0862B49F0B037C0082453059725C18DDD3EBFE3F1E829991803366715D474942CD30FB4A782E00C64017A412D684E454CE3FE28995203B162A6EA5AC94B66997D225E109CD63B0135484BAD1B3C07E9080CA35DB3119C11BCA5C200461A68A1A438126C75E3E230D40FF81FB3F03C91D1E3A3A0AF79FE28E25BC39E
311
C3E17E4C2A2D94A0833A51AF55BCCA7D88572FCBAC529C4140B020FC3AAFA886621DCED7EAD7664CC86024E806DC297DA1BB393E4156543457A4537DB8817349A70F8ACBF09B3EEE2CB2F33E91B65D60786E4E3B39B77E3FEEEF5650424525DA657FB8B46BE6BF064646F0A0F7327C0BC1BC1B4CBBC1C419FA3CCB23500007
311
872A2580CAAE5461865565294E4EDB4617B62FF579DF9A5B2F54E834076A597573A020912FED777F9B3F504B0304140006080800B2786D57853A60E351000000570000004700000036394435323335382D454137322D344546382D383246442D3745333430434337384241432F4173736574446174612F4173736574546162
311
6C654F66436F6E74656E74732E62696E536160603077B27473347334D335343376D63571B470D375727471D275733376723670B4B43434351402AACB4D2C492DCA4CCC492C28484D2C4ACC4B4E050A82012F90744FCD03CA26072767A4E6260200504B0304140006080800B2786D57F8658340580000006800000045000000
311
36394435323335382D454137322D344546382D383246442D3745333430434337384241432F4173736574446174612F53747265616D56657273696F6E5461626C652E696E66558CBD0A80300C06F73E4B117FB66E451741D041DC5BF98480A492E4FDD18EAEC7DD4555D89EF28DF51A0B1BD8340C4DE7DD848B988C0ACF0649
311
566493F2408C508DDEBB99D5129FF8F1AF8CF5B9503E20FAE5A16B5AF702504B0304140006080800B2786D57C73D7240350100009A0400003600000036394435323335382D454137322D344546382D383246442D3745333430434337384241432F4173736574446174612F636E782E786D6CCD94314FC3301085FF4AE43D76
311
D2A808558E2B044B2790A818D8AECEA5B5EAD8917D41F0EFB1DB0CA022A60E5DCFEFCECF9FFC4EAE3F075B7C6088C6BB96D5BC62053AED3BE3F62D9BA82FEF59B15632784F3F64AC703060CB729929B90F7E1AE752873D4C3657AD71C7B9F81023D21676169FFB47EF081D4556680B31B62CEA030EC06122DF613CF20E0878
311
CD03463F058D69129901E7493A2010764C2DAA4553D6755937DB7AB9AA96ABE6EE5D8AAC5472E7BD9DF5265D16FC58E8F3AD4C5552E46325A760664D7E0B537F79E43BE3A4484A252385C464EEA0AF3175C0385AA381123AE13521954984304871162B2932835F249EB037CEE4964D3206E4C34BB287810CDE1C91FFBC5E9F
311
CCC64502A7F176795C3ABC3E85D7D30F7A3B07F294985BCBC9A5436E5C7F859488D31A49A1C95B457D03504B0304140006080800B2786D5711F1293A090100004F0300003400000036394435323335382D454137322D344546382D383246442D3745333430434337384241432F536368656D61732F636E782E786D6CCD93BD
311
6EC32014855FC56237D8B15255112643874E5DDA4EDD28DC2428C0B5F8A9DAB72FB80C89D4AD1DB2C1E1133AE770E1FB4F67BB0F08D1A09FC94807D28157A88D3FCE24A7437F4FBABDE001315D60A4F3D2C14CAA4C043F06CC4B93341C64B655B5C69F9BF880CEA17F5127709274CACA186712D72D9539A18678A65A264947
311
1A20620E0ACA0DC9386837A80032812662336CA67E1CFB717A1DB7BB61BB9BEEDE38ABA4E0EF88B6F1C62708B8740ACBC2173B0367F558F01C4C636A06222EBDD1D2066785103CA6503A6864FA5A0A2997C51A2553A98AADE00F2338AB51AF023F828760D46D26BE32F76F919FC16B084FE5958291F63693FFE6F16F05B075
311
F6CB08D4AF20BE01504B0304140006080800B2786D57410A3D5871000000A40000002C00000036394435323335382D454137322D344546382D383246442D3745333430434337384241432F636E782E786D6C55CC4D0E82301086E1AB34B31774E7A22D31F1069E60020334B633A63FC6E34B0909B07DDE2F9FEE7EC1AB2FC5
311
E4840DDC9A2B28E25E06C7938192C7CB1D54677514C9871928C640062A83D55394F2D968A0118BAFEA1DBF377CA444F98919176EAB9FEAAB9F2960DA5BBB1E2ED3FA6FFF504B0304140006080800B2786D577E9880477F000000A300000007000000636E782E786D6C4D8CD10E822018465F85FDF794A1066D8033C4F77089
311
CE89D0485A8F1F342FBAFAB6B3EF1CDE7C368BDE26BC16EF045C4E0520E31E7E5CDC2C20EE1366801AC983F7FBDF0D901B36232063907C0E3E3E0F349A69883653BBB8F580D75B5793B26658B794E04AF70C33D27798EAB22A94A2ECDEAA649CB392E6D74B9BF3F20B504B0304140006080800B2786D5716E99B5DA6000000
311
35010000130000005B436F6E74656E745F54797065735D2E786D6C9590410E82301045AFD2740F4517C6180A0BF5065E60AC53688469D30E066F6F91AD9AB89CF9FFFD3F99BA9DC7413C3026E749CB4D59498164FCCD51A7E5C4B6D84BD136F5E5193089ECA5A465CF1C0E4A25D3E308A9F401292BD6C711388FB15301CC1D
311
3A54DBAADA29E38991B8E0254336F5092D4C038BF39CD76B6FC6A538AEBEA54A4B08617006389FA516557DE4AE8E7E70DE30729138228C5F021CD93F02D4FB0DCD0B504B0304140006080800B2786D573DEE336E64000000790000001B0000006175746F6465736B2D64657369676E2D7061636B6167652E786D6C35CBC10E
311
83200C00D05F21DCA56CA76D41FC96062B120735B69A7DBE268BB7777961F8D5AF396893C2ADB70FE7ADA196782C2DF776D7A97B5933C430F15651E5469C55D70F80A4992A3ADC954792C525AE70A1E4D6AD9816CC044FEFDF01FE3FDE907802504B0304140006080800B2786D57E0856E30F9000000960100003700000036
311
394435323335382D454137322D344546382D383246442D3745333430434337384241432F4173736574446174612F636F72652E786D6C8550CB6E833010FC15B47703C60192C8380235FD829E7AB36C875A0936F2A3EAE7D70E546A4F3DED6A76667677E8E56B79149FCA796DCD00B8ACA1504658A9CD3C400C377484E2C2A8
311
B336FCA24161F8A206C830303A3B1BD71D12D60465326AAC543BC8BD57010AF148CD005E7CA885973C86C4F0F772E5E2CE6755E272E3311AA396BB54CBE4A66F5A3960E4D477EDA99D109EBA161DF0F18AC62B21A879ADC7669AFA43D777B4CA6246835E7EB60BA778501258533704618C3079C3EDB96ECFA47BA7556632EA
311
834B3FEF4BF377C0C67CF50B0F9C56DBF48F6B5CE5FFAE519B409ADD75537860381DF91C305AE594527946986A4E947D03504B0304140006080800B2786D5760087EDEF7000000940100003500000036394435323335382D454137322D344546382D383246442D3745333430434337384241432F536368656D61732F636F72
311
652E786D6C8550CB6E833010FC15B47703C60192C8380A52FA03EDA937CB76A89560233FAA7E7E6DA0527BEA6957B333B3BB432F5FF3B3F854CE6B6B06C0650D8532C24A6DA60162B8A3231417469DB5E1170D0AC36735408681D1C9D9B8EC90B02628935163A5DA41EEBD0A5088676A06F0E243CDBCE43124867F940B170F
311
3EA912971B8FD118B5DCA55A26377DD7CA0123A7BE6B4FED88F0D8B5E8808F3774BD11829A97FADA8C637FE8FA8E5659CC68D0F3CF76E1140F4A026BEA86208C11266FB83DD7ED9974EFB4CA4C467D70E9E77D69FE0ED8EB7AA7A7D536FBE31917F9BF67D4269066F7DC141E184E27AE0346AB9C512A6B80A9E63CD937504B
311
0304140006080800B2786D579B52C41A03010000D70100002D00000036394435323335382D454137322D344546382D383246442D3745333430434337384241432F636F72652E786D6C9591C172832010865F85D93B2A1AA3CD2099D49827E8A9372A1BCB248203D8E9E317AB9DB6B7F604F3F3FDBBFCBBFCF83EDEC91B3AAF
311
AD698025191034BD55DA0C0DCCE14A6B2047C19DB5E10706C4C8111B5864107C70769E36A9B726A0595463156EA2F41E0390FE1E2F0DF8FE154799C83944C2DF9249F6373960C29295133CE8F1CBDA3B940115883CCB0BCA1865C5132B0F597928F6CF3C5D48C1676D42916FCD707C4145EC14622410254FD7D748CD5A6D8C
311
56F18FFAAAD181D83F9CCBBC286BDA9DAA9CEEBA4B4DEBFC72A65557ECB2B6ADEAC7531B8B44B3E03EB83899ADC83283BFDA57E3AF64F3A4FE996C757810EC3B54BA8C59F0F47307F15C56223E00504B0304140006080800B2786D57C7087F8507010000B201000008000000636F72652E786D6C8D50CB6EC32010FC15B477
311
6C6362E7214C144BE917F4D41B05E2A2D860191CB57F5F88A9D4DE7A5A3433BB330C3B7F4E237AE8C51B673B204505485BE994B143076BB8E103A033678B73E1970C901593EE20C1C0D9B0B875CE907436689B50EB94CEA0F05E0740728C8F0EBCFCD09328C41AA2C2DF8B59C8BB1874418A4DC75930D3CFAA5CB4085A01AF
311
AB9A624230A1AFA43955CD89B66FAC4C4ACED6D5A86C6554743737A317E0F4B86F9B63D363D2B70DDE91C3155FAE94E2FAA5BAD47DBFDFB5FB96956999331F96F8E77C24E60CC88B47F265E54671F6EEDC9805319442CE8E5FC02B5626E24FE87556FF086D6CA0753EB86D78E024067A12D1383518C7B3DE3853DBFC1B504B
311
01021400140006080800B2786D57A0EAB5E5B4000000200100004F000000000000000000000000000000000036394435323335382D454137322D344546382D383246442D3745333430434337384241432F4173736574446174612F446566696E6974696F6E4974657261746F7250726F706572746965732E62696E504B0102
311
1400140006080800B2786D5757EC1AD60D0100003002000045000000000000000000000000002101000036394435323335382D454137322D344546382D383246442D3745333430434337384241432F4173736574446174612F496E7374616E636550726F706572746965732E62696E504B01021400140006080800B2786D57
311
28BB58AF800100009E0500003D000000000000000000000000009102000036394435323335382D454137322D344546382D383246442D3745333430434337384241432F536368656D61732F436F6D6D6F6E536368656D612E786D6C504B01021400140006080800B2786D572CCEBD668A040000E01200003E00000000000000
311
0000000000006C04000036394435323335382D454137322D344546382D383246442D3745333430434337384241432F536368656D61732F47656E65726963536368656D612E786D6C504B01021400140006080800B2786D576180134D5F0100006B03000045000000000000000000000000005209000036394435323335382D
311
454137322D344546382D383246442D3745333430434337384241432F536368656D61732F52656E6465724D6174657269616C536368656D612E786D6C504B01021400140006080800B2786D57853A60E351000000570000004700000000000000000000000000140B000036394435323335382D454137322D344546382D3832
311
46442D3745333430434337384241432F4173736574446174612F41737365745461626C654F66436F6E74656E74732E62696E504B01021400140006080800B2786D57F865834058000000680000004500000000000000000000000000CA0B000036394435323335382D454137322D344546382D383246442D37453334304343
311
37384241432F4173736574446174612F53747265616D56657273696F6E5461626C652E696E66504B01021400140006080800B2786D57C73D7240350100009A0400003600000000000000000000000000850C000036394435323335382D454137322D344546382D383246442D3745333430434337384241432F417373657444
311
6174612F636E782E786D6C504B01021400140006080800B2786D5711F1293A090100004F03000034000000000000000000000000000E0E000036394435323335382D454137322D344546382D383246442D3745333430434337384241432F536368656D61732F636E782E786D6C504B01021400140006080800B2786D57410A
311
3D5871000000A40000002C00000000000000000000000000690F000036394435323335382D454137322D344546382D383246442D3745333430434337384241432F636E782E786D6C504B01021400140006080800B2786D577E9880477F000000A3000000070000000000000000000000000024100000636E782E786D6C504B
311
01021400140006080800B2786D5716E99B5DA6000000350100001300000000000000000000000000C81000005B436F6E74656E745F54797065735D2E786D6C504B01021400140006080800B2786D573DEE336E64000000790000001B000000000000000000000000009F1100006175746F6465736B2D64657369676E2D7061
311
636B6167652E786D6C504B01021400140006080800B2786D57E0856E30F90000009601000037000000000000000000000000003C12000036394435323335382D454137322D344546382D383246442D3745333430434337384241432F4173736574446174612F636F72652E786D6C504B01021400140006080800B2786D5760
311
087EDEF70000009401000035000000000000000000000000008A13000036394435323335382D454137322D344546382D383246442D3745333430434337384241432F536368656D61732F636F72652E786D6C504B01021400140006080800B2786D579B52C41A03010000D70100002D00000000000000000000000000D41400
311
0036394435323335382D454137322D344546382D383246442D3745333430434337384241432F636F72652E786D6C504B01021400140006080800B2786D57C7087F8507010000B2010000080000000000000000000000000022160000636F72652E786D6C504B050600000000110011005A0600004F1700000000
310
504B0304140006080800B2786D57000000000000000000000000370000006662782F45373039374541442D423731332D344235442D423445422D4342324334334343323038452F617474726962757465732E62696E504B0304140006080800B2786D57000000000000000000000000350000006662782F4537303937454144
310
2D423731332D344235442D423445422D4342324334334343323038452F76657274696365732E62696E504B0304140006080800B2786D57F270F1330600000004000000360000006662782F45373039374541442D423731332D344235442D423445422D4342324334334343323038452F747269616E676C65732E62696E6366
310
60600000504B0304140006080800B2786D5751464CB48900000043010000360000006662782F45373039374541442D423731332D344235442D423445422D4342324334334343323038452F6469726563746F72792E786D6C9D8F310EC2300C45AF127987122606C71DD918B841D4B851A43646695A717C52A85029031293A5
310
A76FBF6FACEF7DA7264E43906840EF0FA03836E242F406C6DCEE4EA06AC22492573150D1F66C60C640E8938CB705396EEDD86DE9B5042FE27813D640EA63BB001C722AF6E55CB61E4863F58284D5D3F53DD715CE1C3985E63FD7F1B7EBDD617E9F1E504B0304140006080800B2786D57556DB8F237070000201C0000340000
310
006662782F45373039374541442D423731332D344235442D423445422D4342324334334343323038452F6F626A656374732E786D6CDD59DB6EDB3810FD1542FBB2FBA09B653B71E1B8F0A52E8C226D51A38B7D13689976B8D10DA49438FBF53BA4485992655BC9B640B129D03834359C39337366381ABF3F44217A228CD324
310
BE335CCB31108983644BE3FD9D91673BF3D640EF2768CC9224ABEC33508C23726788656332DEB3244FD5D296EC701E365797B3BF100F484C0C148498F33B83070F24C216CEB3644BF8A3B5C519B6F6BB83E55AC5C6BAD83DC3E943E3A814331267A02AACC7204569E0D6FF0493ECC9D8161B6ADB7ADDB67917B6D9D2F0BAA2
310
34E6198E8313AD1A727ADDB4F2DCFEE2436F303207FDBE67F6873DD79C2D670BD3BDF19CF9703E1F4D3F8C0C34196F92242C1D9092780B5E7C3126EED816DF94E62B14DAF40E9238268142B36DC39628B994F0262635605D695AC52185AD9505AFA3F167B67502A5A6520D6D6D9CFE5D8DDE64F33780C0BB4429E3444439CF
310
18F85A615FE48333B68BD59A5F284711CE08A3384421DD30CCC041B0B570504D8CC816210A09CCA417B5BCAAAE10D8D773A94DCB5D1E86227F8D89CC341FF291645C6A46FF21ECA87DF534D009ACCD699CDD2A63B39714448CC6B65C2CBEF37AEACB0248B40BF11EA205CC149BBC5E03AFB9E082D5C2987C5A6E0E6BC10FED
310
87A72C4909CB44E4C9645679A73D58092D08BE0EA014B8D67D7744E51B40FF19902F754163F01CA387FEA1AF6D6738E6BB8445E01DE420D381FF1C243E9E7C1ADBE5C313846A5C790E5348DB1F8469CD8CDAD9154827E32708FA8479CAB875804388E97B1A8B3C87404161024BC0F7BBCDC198AC804C61119EC221580FFFC6
310
B6F888E0572107F8A6E1A136FAEDE0289D30CD3C3BFAEA23C40CA341E9AA9A8DE7F01DFC107CA78BF5A775CE763820F72AB1176447639A41316D57A8067A2DE5BFAF3ECB8C3CB1A7B62B8073F689208E16BFAC955F90740CA822EA70E11AB9724F21DDC310C724C9B95A6F23AA200913E66F5EFC22875BCFFA5307417118E4
310
B78880563283EA1E309A0A508C8932AF6442EB8893E0411580FBC2A9FE06078F025E3F00C67A8B1E10B5983585E651EAE328C96341DFA7E1DD34CDF21CF9E3BAA39E33EADD8E86DA582EC5EBECD1D4502A2FCE89707AE69079CD5B8A35B4E4228FFAC0966D1604D033E5999FA438A0597B2C348C50190A605F54794B77BB9C
310
03A9B7C2D2D0D8F2DC01722AFF97875CD65E1DE2D308EF89BFC3A2C2B59E5703A814AE2D6845661F269CD39870D9A19C30570315C7022228E2564B6D0942CAFD8864F82DF1274B5E23FC18D9853EF45299E866AF479F565055CF731245E796C4BEB4FFC5E7384AC3A24BBB8681DB6B9CD08AAB505A1CF104F1E6E3CC77B644
310
36DDD7A497BCA0F1ED247DF466F167E061F8A7C3A38FA0D07A438DBCEE59D71AB823F1730BA4321CB8DE8D76C435ACF45199E841C21CBAA6E0C57F2674FFD08DD03A9DC349B8F36918E6915FD4838C44D082E12C679DF27538704E9CAF78A19110959376348406B93369CADE43771F60956C3ECE9166E518308AC67047EB64
310
C88915AD212C7D21EFA3E2DA75DDFBAF97FA9FF9B27A4F79242FCF09DBB66A5A6F237407A61B064197AAC2957124254FC6D5E48BE4C5E53A0E7D2D44F15B714B5011C2C81315830979036ABD3FF0679C0540A46BF9DB9C41466CC9F6D853D4C4A93187318143B534DDA7566F3A4076A27CD41AAF9520D408A60D58F0ECBDF8
310
107EC3E06AE8FCB8ADBA1ABB585F89C266C160E5A8C705595F3EAE1B5260A5F3D35F0546E4B92141ADCE45237741D4F7D5B15F6D4850167D5F5D783C7BC8A34D8CA9A88C222CF0367DF75EDE25EF6CB828D8EE6CD41B0C1DCFECCD8723B3BFF066E6D4ED7F30E7B71F6EBCF962388706C2668427390B08B77BB6E3EBDE298D
310
F73A300AE8BADC2860AA70FDEAA7E3B9E9E0FFF18D224C36F85C2CFEAA178AB2DD130D592317BB5E285A897AF3BAEEDF3D21EAF622F6AACEB99815E800BF5CB6808C74BDEFDE5A68D1BA9368D7B952115F5978CFDE567E7A8DA9117A6B7DA8ED68A3FC3A17C3ECA9A54AE9DBADE4B59BD968391D4E87A63BF4E6667F7ABB34
310
67D3C5CC5C2EBDD9DC998E46EEA00CD7265B5DAB2BBF0487EA225819A3C13498272185A13CD9A23D49E0060453870EFCCA22C2E5CD061A0055C6F51B810E4F3F1533D50C6F42FD74F08061301DAA8A9C073014855BC79DA1D6D16F3006159348399CB21EA1F0A8683750CEE89D01219051A82FD606C659727828A537C69510
310
B838DE8B3B53F154F9F7F131810EC4CAD1AE724F175C9465B5E884E1402ADF1340F8E886E4EDA66B7510CEE0E326CF4A638E0B476B1408FA8540611C4CFD1E15BC07209ECB76B996DC5383A4D364FE621C1452CD0CB3BD1CAF57F09E2EBEDA6232BEFA82D230DF0B775EAAF73549A6E833C2BC18428D213094992916F7F0F9
310
3BFB2B4BE015538496148200FD7EB81DFE61CF93284AE262C99EAA175568FD00AF9DB6B61EF941E3E2401F23FB1E35D687B9152716DEF2475800D7322A66A305C4B50028E9A91200DA23C217F0586DFF6A815411A8B4B0558A11F0C8993E824412EF7244DA5437540690900BA095FCF2F8412F8C6D0643F0C9BF504B030414
310
0006080800B2786D5796705E823E01000046050000300000006662782F45373039374541442D423731332D344235442D423445422D4342324334334343323038452F636E782E786D6CCD94CF4A033110C65F65C97DFFA4A522259B82079FC08378CB66A76B6C36B324B362DFDEA4A655918A8742BD85C937F0FD663E466CDE
310
465BBC820F065DCB78D5B0029CC6DEB8A165336DCB5B566CA4F088F445C60AA74668592A3329068FF3944B3D6CD56C53D51AB7CB4545E44D3713045668AB426859D0CF30AA4ACD843D845DD52B5215AF3C049CBD86D84F6684DCAF3D28829EC945B358969C977CF9C057EB66B55EDE3C893A29A5E8106DD61B47E0712A34C6
310
878B661A51A76F29666FB2261130F9E9ACEA8C1375FC972244B76EC83ADA4F49374DD66845714C356A022AA308D428EA0FB11475E2FD467D7FF7787450F4C68326F4FB2B0D809F1BC0C9581593F037FE83F0776CEC5E22EEB5B67D1636DBBA18EA31AD21C6F5E7FE638A941BECFF0BFDC9D8E5331F4F0919FDFF908FBE2E44
310
5C1F4E5E5C7ABA80F21D504B0304140006080800B2786D57E556148A7E000000A30000000B0000006662782F636E782E786D6C4D8C410EC2201444AF42FE1EA52D869A008D2007692C6D88141A2CC6E30BA60B576FF232337CF8AC1EBD6D7AB91804342702C886479C5C5804E47DC63DA041F214E3FE570314C6D50AA81A24
310
5F52CCDBA1263B8FD957EB5D781ED2307265E676C78A351DA6EA5212350A6BD56ADA69DD92DE94C5B94E0A7E7F85F55E7E01504B0304140006080800B2786D57A6D797065F0000008200000007000000636E782E786D6C4DCB3B0E80201045D1AD90E9FD7516806B51190811670C8A61F982B1B0BAC9C97B72CA7B1037C6D3
310
332918DA1E04D2CAC69353902EDB8C20262D23F3F59B81A079470595414B17391D1F19B4730A5583A7ED43BBE4025D9592775E5ADFFA01504B0304140006080800B2786D574FEB6A7CA0000000F4000000130000005B436F6E74656E745F54797065735D2E786D6C7D8F4B0EC2300C44AF1279DFA6B0400835ED02B8011730
310
C16D239A8F121795DB93D02D6269CFBC19BBED573B8B17C564BC53B0AB1B10E4B47F18372A5878A88E20FAAEBDBD032591BD2E299898C349CAA427B2986A1FC86565F0D122E7318E32A07EE24872DF3407A9BD63725C71C980AEBDD080CBCCE2BAE6F5D69B7110E7CD57AA146008B3D1C8F92C5954F993BB1BF787F39A89AB
310
C491D09600F9FDA2FB00504B0304140006080800B2786D573DEE336E64000000790000001B0000006175746F6465736B2D64657369676E2D7061636B6167652E786D6C35CBC10E83200C00D05F21DCA56CA76D41FC96062B120735B69A7DBE268BB7777961F8D5AF396893C2ADB70FE7ADA196782C2DF776D7A97B5933C430
310
F15651E5469C55D70F80A4992A3ADC954792C525AE70A1E4D6AD9816CC044FEFDF01FE3FDE907802504B0304140006080800B2786D57378EAA17F9000000960100003B0000006662782F45373039374541442D423731332D344235442D423445422D4342324334334343323038452F7265736F75726365732F636F72652E78
310
6D6C8550CB6EC23010FC9568EF4EB09D40408E9128F0053DF566394BB02036F2A3EAE7D786546A4F3DED6A76667677C4FE6BBE579FE8837176005AAFA042ABDD68EC34408A17D243B597C23B177FD1A0B26AC6010A0C524CDEA5C702696723DA825A37E202AA103042A5EFB91920E82BCEAA56296646B8D50FA56F6AC29AD6
310
2F9E14299971919A31BB998B410FB25D77ECD4B767C23667465ABEDD907EDB9D083FB6FCD8BFB1C3FA78104D114B11CDFCB35D7B541147906CC538A19450FE4EBBDDAADBF1F587680A538A107DFE79595ABE03E931B8E43506D1BCA67F5CD363FCDF35191B395B5C5F8A0092E6239F03299A92522ECF08732D89CA6F504B03
310
04140006080800B2786D5789B1A8ADF1000000B1010000310000006662782F45373039374541442D423731332D344235442D423445422D4342324334334343323038452F636F72652E786D6C8D50CB6EC32010FC156BEFD8C6D84D1A61A2DAF51FF4D41B02E2A0C460F1A8FAF985D895DA5B4EBB1A6698D9A1E7EFE55E7C29
310
E7B5353DE0B286421961A536730F315CD0118A33A3CEDAF0870685E18BEA21C3C0E8EC6C5C7748581394C9A8B152ED20F75E0528C43D2D3D7871550B2F790C89E16FE5CAC58DCFAAC4E5C66334E8E5572A9CE24149604DDD108431C2E40377A7BA3B91974F5A6526A3316AB95B6999DCF5452B076C3AD4AF87E9ED1D0D074C
310
503B74696BA7018D4333B6641C9BFA38D12A8B19F5C1A59BF74FF275CFCA37E1BFCC71954F64D626906637DC141E184E791E0F8C56B9C0341EEDA699CB663F504B0304140006080800B2786D57DCFD51A955010000DD0200000C0000006662782F636F72652E786D6C8D52DB8E832014FC15C33B5E505BB7419A74DB7EC13E
310
ED1B45EA922A1804D3CF5FF012D787ED6E4C90CC3967E6CC047C7CB64D3070DD0B254B90843108B864AA12B22E8135775880E048B056CAFC680381A42D2F818701C1B556B69B21A6A4E1D2A352557C0669DF730302D6B84B097AF6C55B1A526B5C47FF083BCA1EB4E661124E7D045B2BAA7954548E4DDC05D78064BB1C5D8A
310
EC0AD1FE8A6096BEED61F1965F607ACED273F18E4EBBF309477E986023DA459D694E0DAF0041314A6192C024FD48F2439C1FD2DD278E7C27C1BDD1CEF32CEADD0172BF3D7134E11B3EDB557FF359214D8A66BE69A2072471EB8D0582239F8FFB8DE16D3374C22E3F436FCD62E1E1A08133A374E62A95B26B69A08DE58E3A0E
310
C60F4753D5318F04BFF1A0173CAF395C5054D66E356ADCF5668D57DFEED4710D07F30CA4D22D6DD6E5A615D77315DA585AC6996A94FECFF462750933F20F937C03504B0304140006080800B2786D57E3E65E5208010000B201000008000000636F72652E786D6C8D50416EC32010FC0ADA3BB6013B71224CA4D4C90B7AEA8D
310
1AE2A2D860191CB5BF2FC4AED4DE7A5A3433BB330C3F7D8E037AE8D91B671B20590148DBCE2963FB069670C335A093E0B373E1970C9095A36E20C120783FBB65DAA0CED9A06D42AD537A03A5F73A00EA86F868C0771F7A94995C4254F87B36C9EE2E7B9D916CD5091ECCF8B3DACD5A06AD40D082324C0826EC9554C7A23AB2
310
DD1BCF9352F065316AB3322ABA9B9BD133887257D14B5D5E31DD5F292ED9618FEB4375C1AC2D595BBFD0F3AE3DF33C2D0BEEC31CFFBC1D893903F2F2917C79BE5282BF3B376C82184A2167872F1005CF13F127F432A97F84363630BA1D5C373C0812033D89689C1A8CE3596F9CA96DF10D504B01021400140006080800B278
310
6D570000000000000000000000003700000000000000000000000000000000006662782F45373039374541442D423731332D344235442D423445422D4342324334334343323038452F617474726962757465732E62696E504B01021400140006080800B2786D57000000000000000000000000350000000000000000000000
310
0000550000006662782F45373039374541442D423731332D344235442D423445422D4342324334334343323038452F76657274696365732E62696E504B01021400140006080800B2786D57F270F13306000000040000003600000000000000000000000000A80000006662782F45373039374541442D423731332D34423544
310
2D423445422D4342324334334343323038452F747269616E676C65732E62696E504B01021400140006080800B2786D5751464CB489000000430100003600000000000000000000000000020100006662782F45373039374541442D423731332D344235442D423445422D4342324334334343323038452F6469726563746F72
310
792E786D6C504B01021400140006080800B2786D57556DB8F237070000201C00003400000000000000000000000000DF0100006662782F45373039374541442D423731332D344235442D423445422D4342324334334343323038452F6F626A656374732E786D6C504B01021400140006080800B2786D5796705E823E010000
310
460500003000000000000000000000000000680900006662782F45373039374541442D423731332D344235442D423445422D4342324334334343323038452F636E782E786D6C504B01021400140006080800B2786D57E556148A7E000000A30000000B00000000000000000000000000F40A00006662782F636E782E786D6C
310
504B01021400140006080800B2786D57A6D797065F0000008200000007000000000000000000000000009B0B0000636E782E786D6C504B01021400140006080800B2786D574FEB6A7CA0000000F400000013000000000000000000000000001F0C00005B436F6E74656E745F54797065735D2E786D6C504B01021400140006
310
080800B2786D573DEE336E64000000790000001B00000000000000000000000000F00C00006175746F6465736B2D64657369676E2D7061636B6167652E786D6C504B01021400140006080800B2786D57378EAA17F9000000960100003B000000000000000000000000008D0D00006662782F45373039374541442D42373133
310
2D344235442D423445422D4342324334334343323038452F7265736F75726365732F636F72652E786D6C504B01021400140006080800B2786D5789B1A8ADF1000000B10100003100000000000000000000000000DF0E00006662782F45373039374541442D423731332D344235442D423445422D4342324334334343323038
310
452F636F72652E786D6C504B01021400140006080800B2786D57DCFD51A955010000DD0200000C000000000000000000000000001F1000006662782F636F72652E786D6C504B01021400140006080800B2786D57E3E65E5208010000B201000008000000000000000000000000009E110000636F72652E786D6C504B050600
310
0000000E000E0080040000CC1200000000
  0
XRECORD
  5
813C
102
{ACAD_REACTORS
330
8137
102
}
330
8137
100
AcDbXrecord
280
     1
270
     1
271
     1
  0
XRECORD
  5
813B
102
{ACAD_REACTORS
330
8137
102
}
330
8137
100
AcDbXrecord
280
     1
270
     1
271
     1
  0
XRECORD
  5
813D
102
{ACAD_REACTORS
330
8137
102
}
330
8137
100
AcDbXrecord
280
     1
270
     1
271
     1
  0
XRECORD
  5
813A
102
{ACAD_REACTORS
330
8137
102
}
330
8137
100
AcDbXrecord
280
     1
270
     1
271
     1
  0
XRECORD
  5
843C
102
{ACAD_REACTORS
330
843B
102
}
330
843B
100
AcDbXrecord
280
     1
102
DISPLAYNAME
  1
Imperial24
102
FLAGS
 90
        0
  0
CELLSTYLEMAP
  5
8403
102
{ACAD_REACTORS
330
8402
102
}
330
8402
100
AcDbCellStyleMap
 90
        3
300
CELLSTYLE
  1
TABLEFORMAT_BEGIN
 90
        5
170
     1
 91
        0
 92
    32768
 62
   257
 93
        1
300
CONTENTFORMAT
  1
CONTENTFORMAT_BEGIN
 90
        0
 91
        0
 92
      512
 93
        0
300

 40
0.0
140
1.0
 94
        5
 62
     0
340
816A
144
0.25
309
CONTENTFORMAT_END
171
     0
 94
        0
309
TABLEFORMAT_END
  1
CELLSTYLE_BEGIN
 90
        1
 91
        1
300
_TITLE
309
CELLSTYLE_END
300
CELLSTYLE
  1
TABLEFORMAT_BEGIN
 90
        5
170
     1
 91
        0
 92
        0
 62
   257
 93
        1
300
CONTENTFORMAT
  1
CONTENTFORMAT_BEGIN
 90
        0
 91
        0
 92
      512
 93
        0
300

 40
0.0
140
1.0
 94
        5
 62
     0
340
816A
144
0.18
309
CONTENTFORMAT_END
171
     0
 94
        0
309
TABLEFORMAT_END
  1
CELLSTYLE_BEGIN
 90
        2
 91
        1
300
_HEADER
309
CELLSTYLE_END
300
CELLSTYLE
  1
TABLEFORMAT_BEGIN
 90
        5
170
     1
 91
        0
 92
        0
 62
   257
 93
        1
300
CONTENTFORMAT
  1
CONTENTFORMAT_BEGIN
 90
        0
 91
        0
 92
      512
 93
        0
300

 40
0.0
140
1.0
 94
        2
 62
     0
340
816A
144
0.18
309
CONTENTFORMAT_END
171
     0
 94
        0
309
TABLEFORMAT_END
  1
CELLSTYLE_BEGIN
 90
        3
 91
        2
300
_DATA
309
CELLSTYLE_END
  0
XRECORD
  5
8439
102
{ACAD_REACTORS
330
8402
102
}
330
8402
100
AcDbXrecord
280
     1
102
ACAD_ROUNDTRIP_PRE2007_TABLESTYLE
 90
      512
 91
        0
  1

 92
      512
 93
        0
  2

 94
      512
 95
        0
  3

  0
XRECORD
  5
8414
102
{ACAD_REACTORS
330
8413
102
}
330
8413
100
AcDbXrecord
280
     1
102
RTVSPost2010Prop28
280
     1
102
RTVSPost2010PropOp28
 70
     1
102
RTVSPost2010Prop29
280
     1
102
RTVSPost2010PropOp29
 70
     1
102
RTVSPost2010Prop30
280
     0
102
RTVSPost2010PropOp30
 70
     1
102
RTVSPost2010Prop31
280
     0
102
RTVSPost2010PropOp31
 70
     1
102
RTVSPost2010Prop32
280
     0
102
RTVSPost2010PropOp32
 70
     1
102
RTVSPost2010Prop33
280
     0
102
RTVSPost2010PropOp33
 70
     1
102
RTVSPost2010Prop34
280
     0
102
RTVSPost2010PropOp34
 70
     1
102
RTVSPost2010Prop35
280
     0
102
RTVSPost2010PropOp35
 70
     1
102
RTVSPost2010Prop36
280
     0
102
RTVSPost2010PropOp36
 70
     1
102
RTVSPost2010Prop37
 90
       50
102
RTVSPost2010PropOp37
 70
     1
102
RTVSPost2010Prop38
140
0.0
102
RTVSPost2010PropOp38
 70
     1
102
RTVSPost2010Prop39
140
1.0
102
RTVSPost2010PropOp39
 70
     1
102
RTVSPost2010Prop40
 90
        0
102
RTVSPost2010PropOp40
 70
     1
102
RTVSPost2010Prop41ColorIndex
 90
       18
102
RTVSPost2010Prop41ColorRGB
 90
        0
102
RTVSPost2010PropOp41
 70
     1
102
RTVSPost2010Prop42
 90
       50
102
RTVSPost2010PropOp42
 70
     1
102
RTVSPost2010Prop43
 90
        3
102
RTVSPost2010PropOp43
 70
     1
102
RTVSPost2010Prop44ColorIndex
 90
        5
102
RTVSPost2010Prop44ColorRGB
 90
      255
102
RTVSPost2010PropOp44
 70
     1
102
RTVSPost2010Prop45
280
     0
102
RTVSPost2010PropOp45
 70
     1
102
RTVSPost2010Prop46
 90
       50
102
RTVSPost2010PropOp46
 70
     1
102
RTVSPost2010Prop47
 90
       50
102
RTVSPost2010PropOp47
 70
     1
102
RTVSPost2010Prop48
 90
       50
102
RTVSPost2010PropOp48
 70
     1
102
RTVSPost2010Prop49
280
     0
102
RTVSPost2010PropOp49
 70
     1
102
RTVSPost2010Prop50
 90
       50
102
RTVSPost2010PropOp50
 70
     1
102
RTVSPost2010Prop51ColorIndex
 90
      256
102
RTVSPost2010Prop51ColorRGB
 90
-16777216
102
RTVSPost2010PropOp51
 70
     0
102
RTVSPost2010Prop52
140
1.0
102
RTVSPost2010PropOp52
 70
     0
102
RTVSPost2010Prop53
 90
        2
102
RTVSPost2010PropOp53
 70
     1
102
RTVSPost2010Prop54
  1
strokes_ogs.tif
102
RTVSPost2010PropOp54
 70
     1
102
RTVSPost2010Prop55
280
     0
102
RTVSPost2010PropOp55
 70
     1
102
RTVSPost2010Prop56
140
1.0
102
RTVSPost2010PropOp56
 70
     1
102
RTVSPost2010Prop57
140
1.0
102
RTVSPost2010PropOp57
 70
     1
102
RTVSPropertyOp0
 70
     1
102
RTVSPropertyOp1
 70
     1
102
RTVSPropertyOp2
 70
     1
102
RTVSPropertyOp3
 70
     1
102
RTVSPropertyOp4
 70
     1
102
RTVSPropertyOp5
 70
     1
102
RTVSPropertyOp6
 70
     1
102
RTVSPropertyOp7
 70
     1
102
RTVSPropertyOp8
 70
     1
102
RTVSPropertyOp9
 70
     1
102
RTVSPropertyOp10
 70
     1
102
RTVSPropertyOp11
 70
     1
102
RTVSPropertyOp12
 70
     1
102
RTVSPropertyOp13
 70
     1
102
RTVSPropertyOp14
 70
     1
102
RTVSPropertyOp15
 70
     1
102
RTVSPropertyOp16
 70
     1
102
RTVSPropertyOp17
 70
     1
102
RTVSPropertyOp18
 70
     1
102
RTVSPropertyOp19
 70
     1
102
RTVSPropertyOp20
 70
     1
102
RTVSPropertyOp21
 70
     1
102
RTVSPropertyOp22
 70
     1
102
RTVSPropertyOp23
 70
     1
102
RTVSPropertyOp24
 70
     1
102
RTVSPropertyOp25
 70
     1
102
RTVSPropertyOp26
 70
     1
102
RTVSPropertyOp27
 70
     1
102
RTVSPropertyOp28
 70
     1
102
RTVSPropertyOp29
 70
     1
102
RTVSPropertyOp30
 70
     1
102
RTVSPropertyOp31
 70
     1
102
RTVSPropertyOp32
 70
     1
102
RTVSPropertyOp33
 70
     1
102
RTVSPropertyOp34
 70
     1
102
RTVSPropertyOp35
 70
     1
102
RTVSPropertyOp36
 70
     1
102
RTVSPropertyOp37
 70
     1
102
RTVSPropertyOp38
 70
     1
102
RTVSPropertyOp39
 70
     1
102
RTVSPropertyOp40
 70
     1
102
RTVSPropertyOp41
 70
     1
102
RTVSPropertyOp42
 70
     1
102
RTVSPropertyOp43
 70
     1
102
RTVSPropertyOp44
 70
     1
102
RTVSPropertyOp45
 70
     1
102
RTVSPropertyOp46
 70
     1
102
RTVSPropertyOp47
 70
     1
102
RTVSPropertyOp48
 70
     1
102
RTVSPropertyOp49
 70
     1
102
RTVSPropertyOp50
 70
     1
102
RTVSPropertyOp51
 70
     0
102
RTVSPropertyOp52
 70
     0
102
RTVSPropertyOp53
 70
     1
102
RTVSPropertyOp54
 70
     1
102
RTVSPropertyOp55
 70
     1
102
RTVSPropertyOp56
 70
     1
102
RTVSPropertyOp57
 70
     1
102
RTVSPropertyOp58
 70
     1
102
RTVSPropertyOp59
 70
     1
102
RTVSPropertyOp60
 70
     1
102
RTVSPropertyOp61
 70
     1
102
RTVSPropertyOp62
 70
     1
  0
XRECORD
  5
8412
102
{ACAD_REACTORS
330
8411
102
}
330
8411
100
AcDbXrecord
280
     1
102
RTVSPost2010Prop28
280
     0
102
RTVSPost2010PropOp28
 70
     1
102
RTVSPost2010Prop29
280
     1
102
RTVSPost2010PropOp29
 70
     1
102
RTVSPost2010Prop30
280
     1
102
RTVSPost2010PropOp30
 70
     1
102
RTVSPost2010Prop31
280
     0
102
RTVSPost2010PropOp31
 70
     1
102
RTVSPost2010Prop32
280
     0
102
RTVSPost2010PropOp32
 70
     1
102
RTVSPost2010Prop33
280
     0
102
RTVSPost2010PropOp33
 70
     1
102
RTVSPost2010Prop34
280
     0
102
RTVSPost2010PropOp34
 70
     1
102
RTVSPost2010Prop35
280
     0
102
RTVSPost2010PropOp35
 70
     1
102
RTVSPost2010Prop36
280
     0
102
RTVSPost2010PropOp36
 70
     1
102
RTVSPost2010Prop37
 90
       50
102
RTVSPost2010PropOp37
 70
     1
102
RTVSPost2010Prop38
140
0.0
102
RTVSPost2010PropOp38
 70
     1
102
RTVSPost2010Prop39
140
1.0
102
RTVSPost2010PropOp39
 70
     1
102
RTVSPost2010Prop40
 90
        0
102
RTVSPost2010PropOp40
 70
     1
102
RTVSPost2010Prop41ColorIndex
 90
       18
102
RTVSPost2010Prop41ColorRGB
 90
        0
102
RTVSPost2010PropOp41
 70
     1
102
RTVSPost2010Prop42
 90
       50
102
RTVSPost2010PropOp42
 70
     1
102
RTVSPost2010Prop43
 90
        3
102
RTVSPost2010PropOp43
 70
     1
102
RTVSPost2010Prop44ColorIndex
 90
        5
102
RTVSPost2010Prop44ColorRGB
 90
      255
102
RTVSPost2010PropOp44
 70
     1
102
RTVSPost2010Prop45
280
     0
102
RTVSPost2010PropOp45
 70
     1
102
RTVSPost2010Prop46
 90
       50
102
RTVSPost2010PropOp46
 70
     1
102
RTVSPost2010Prop47
 90
       50
102
RTVSPost2010PropOp47
 70
     1
102
RTVSPost2010Prop48
 90
       50
102
RTVSPost2010PropOp48
 70
     1
102
RTVSPost2010Prop49
280
     0
102
RTVSPost2010PropOp49
 70
     1
102
RTVSPost2010Prop50
 90
       50
102
RTVSPost2010PropOp50
 70
     1
102
RTVSPost2010Prop51ColorIndex
 90
      256
102
RTVSPost2010Prop51ColorRGB
 90
-16777216
102
RTVSPost2010PropOp51
 70
     0
102
RTVSPost2010Prop52
140
1.0
102
RTVSPost2010PropOp52
 70
     0
102
RTVSPost2010Prop53
 90
        2
102
RTVSPost2010PropOp53
 70
     1
102
RTVSPost2010Prop54
  1
strokes_ogs.tif
102
RTVSPost2010PropOp54
 70
     1
102
RTVSPost2010Prop55
280
     0
102
RTVSPost2010PropOp55
 70
     1
102
RTVSPost2010Prop56
140
1.0
102
RTVSPost2010PropOp56
 70
     1
102
RTVSPost2010Prop57
140
1.0
102
RTVSPost2010PropOp57
 70
     1
102
RTVSPropertyOp0
 70
     1
102
RTVSPropertyOp1
 70
     1
102
RTVSPropertyOp2
 70
     1
102
RTVSPropertyOp3
 70
     1
102
RTVSPropertyOp4
 70
     1
102
RTVSPropertyOp5
 70
     1
102
RTVSPropertyOp6
 70
     1
102
RTVSPropertyOp7
 70
     1
102
RTVSPropertyOp8
 70
     1
102
RTVSPropertyOp9
 70
     1
102
RTVSPropertyOp10
 70
     1
102
RTVSPropertyOp11
 70
     1
102
RTVSPropertyOp12
 70
     1
102
RTVSPropertyOp13
 70
     1
102
RTVSPropertyOp14
 70
     1
102
RTVSPropertyOp15
 70
     1
102
RTVSPropertyOp16
 70
     1
102
RTVSPropertyOp17
 70
     1
102
RTVSPropertyOp18
 70
     1
102
RTVSPropertyOp19
 70
     1
102
RTVSPropertyOp20
 70
     1
102
RTVSPropertyOp21
 70
     1
102
RTVSPropertyOp22
 70
     1
102
RTVSPropertyOp23
 70
     1
102
RTVSPropertyOp24
 70
     1
102
RTVSPropertyOp25
 70
     1
102
RTVSPropertyOp26
 70
     1
102
RTVSPropertyOp27
 70
     1
102
RTVSPropertyOp28
 70
     1
102
RTVSPropertyOp29
 70
     1
102
RTVSPropertyOp30
 70
     1
102
RTVSPropertyOp31
 70
     1
102
RTVSPropertyOp32
 70
     1
102
RTVSPropertyOp33
 70
     1
102
RTVSPropertyOp34
 70
     1
102
RTVSPropertyOp35
 70
     1
102
RTVSPropertyOp36
 70
     1
102
RTVSPropertyOp37
 70
     1
102
RTVSPropertyOp38
 70
     1
102
RTVSPropertyOp39
 70
     1
102
RTVSPropertyOp40
 70
     1
102
RTVSPropertyOp41
 70
     1
102
RTVSPropertyOp42
 70
     1
102
RTVSPropertyOp43
 70
     1
102
RTVSPropertyOp44
 70
     1
102
RTVSPropertyOp45
 70
     1
102
RTVSPropertyOp46
 70
     1
102
RTVSPropertyOp47
 70
     1
102
RTVSPropertyOp48
 70
     1
102
RTVSPropertyOp49
 70
     1
102
RTVSPropertyOp50
 70
     1
102
RTVSPropertyOp51
 70
     0
102
RTVSPropertyOp52
 70
     0
102
RTVSPropertyOp53
 70
     1
102
RTVSPropertyOp54
 70
     1
102
RTVSPropertyOp55
 70
     1
102
RTVSPropertyOp56
 70
     1
102
RTVSPropertyOp57
 70
     1
102
RTVSPropertyOp58
 70
     1
102
RTVSPropertyOp59
 70
     1
102
RTVSPropertyOp60
 70
     1
102
RTVSPropertyOp61
 70
     1
102
RTVSPropertyOp62
 70
     1
  0
XRECORD
  5
8420
102
{ACAD_REACTORS
330
841F
102
}
330
841F
100
AcDbXrecord
280
     1
102
RTVSPost2010Prop28
280
     0
102
RTVSPost2010PropOp28
 70
     1
102
RTVSPost2010Prop29
280
     1
102
RTVSPost2010PropOp29
 70
     1
102
RTVSPost2010Prop30
280
     1
102
RTVSPost2010PropOp30
 70
     1
102
RTVSPost2010Prop31
280
     0
102
RTVSPost2010PropOp31
 70
     1
102
RTVSPost2010Prop32
280
     0
102
RTVSPost2010PropOp32
 70
     1
102
RTVSPost2010Prop33
280
     0
102
RTVSPost2010PropOp33
 70
     1
102
RTVSPost2010Prop34
280
     0
102
RTVSPost2010PropOp34
 70
     1
102
RTVSPost2010Prop35
280
     0
102
RTVSPost2010PropOp35
 70
     1
102
RTVSPost2010Prop36
280
     0
102
RTVSPost2010PropOp36
 70
     1
102
RTVSPost2010Prop37
 90
       50
102
RTVSPost2010PropOp37
 70
     1
102
RTVSPost2010Prop38
140
0.0
102
RTVSPost2010PropOp38
 70
     1
102
RTVSPost2010Prop39
140
1.0
102
RTVSPost2010PropOp39
 70
     1
102
RTVSPost2010Prop40
 90
        0
102
RTVSPost2010PropOp40
 70
     1
102
RTVSPost2010Prop41ColorIndex
 90
       18
102
RTVSPost2010Prop41ColorRGB
 90
        0
102
RTVSPost2010PropOp41
 70
     1
102
RTVSPost2010Prop42
 90
       50
102
RTVSPost2010PropOp42
 70
     1
102
RTVSPost2010Prop43
 90
        3
102
RTVSPost2010PropOp43
 70
     1
102
RTVSPost2010Prop44ColorIndex
 90
        5
102
RTVSPost2010Prop44ColorRGB
 90
      255
102
RTVSPost2010PropOp44
 70
     1
102
RTVSPost2010Prop45
280
     0
102
RTVSPost2010PropOp45
 70
     1
102
RTVSPost2010Prop46
 90
       50
102
RTVSPost2010PropOp46
 70
     1
102
RTVSPost2010Prop47
 90
       50
102
RTVSPost2010PropOp47
 70
     1
102
RTVSPost2010Prop48
 90
       50
102
RTVSPost2010PropOp48
 70
     1
102
RTVSPost2010Prop49
280
     0
102
RTVSPost2010PropOp49
 70
     1
102
RTVSPost2010Prop50
 90
       50
102
RTVSPost2010PropOp50
 70
     1
102
RTVSPost2010Prop51ColorIndex
 90
      256
102
RTVSPost2010Prop51ColorRGB
 90
-16777216
102
RTVSPost2010PropOp51
 70
     0
102
RTVSPost2010Prop52
140
1.0
102
RTVSPost2010PropOp52
 70
     0
102
RTVSPost2010Prop53
 90
        2
102
RTVSPost2010PropOp53
 70
     1
102
RTVSPost2010Prop54
  1
strokes_ogs.tif
102
RTVSPost2010PropOp54
 70
     1
102
RTVSPost2010Prop55
280
     0
102
RTVSPost2010PropOp55
 70
     1
102
RTVSPost2010Prop56
140
1.0
102
RTVSPost2010PropOp56
 70
     1
102
RTVSPost2010Prop57
140
1.0
102
RTVSPost2010PropOp57
 70
     1
102
RTVSPropertyOp0
 70
     1
102
RTVSPropertyOp1
 70
     1
102
RTVSPropertyOp2
 70
     1
102
RTVSPropertyOp3
 70
     1
102
RTVSPropertyOp4
 70
     1
102
RTVSPropertyOp5
 70
     1
102
RTVSPropertyOp6
 70
     1
102
RTVSPropertyOp7
 70
     1
102
RTVSPropertyOp8
 70
     1
102
RTVSPropertyOp9
 70
     1
102
RTVSPropertyOp10
 70
     1
102
RTVSPropertyOp11
 70
     1
102
RTVSPropertyOp12
 70
     1
102
RTVSPropertyOp13
 70
     1
102
RTVSPropertyOp14
 70
     1
102
RTVSPropertyOp15
 70
     1
102
RTVSPropertyOp16
 70
     1
102
RTVSPropertyOp17
 70
     1
102
RTVSPropertyOp18
 70
     1
102
RTVSPropertyOp19
 70
     1
102
RTVSPropertyOp20
 70
     1
102
RTVSPropertyOp21
 70
     1
102
RTVSPropertyOp22
 70
     1
102
RTVSPropertyOp23
 70
     1
102
RTVSPropertyOp24
 70
     1
102
RTVSPropertyOp25
 70
     1
102
RTVSPropertyOp26
 70
     1
102
RTVSPropertyOp27
 70
     1
102
RTVSPropertyOp28
 70
     1
102
RTVSPropertyOp29
 70
     1
102
RTVSPropertyOp30
 70
     1
102
RTVSPropertyOp31
 70
     1
102
RTVSPropertyOp32
 70
     1
102
RTVSPropertyOp33
 70
     1
102
RTVSPropertyOp34
 70
     1
102
RTVSPropertyOp35
 70
     1
102
RTVSPropertyOp36
 70
     1
102
RTVSPropertyOp37
 70
     1
102
RTVSPropertyOp38
 70
     1
102
RTVSPropertyOp39
 70
     1
102
RTVSPropertyOp40
 70
     1
102
RTVSPropertyOp41
 70
     1
102
RTVSPropertyOp42
 70
     1
102
RTVSPropertyOp43
 70
     1
102
RTVSPropertyOp44
 70
     1
102
RTVSPropertyOp45
 70
     1
102
RTVSPropertyOp46
 70
     1
102
RTVSPropertyOp47
 70
     1
102
RTVSPropertyOp48
 70
     1
102
RTVSPropertyOp49
 70
     1
102
RTVSPropertyOp50
 70
     1
102
RTVSPropertyOp51
 70
     0
102
RTVSPropertyOp52
 70
     0
102
RTVSPropertyOp53
 70
     1
102
RTVSPropertyOp54
 70
     1
102
RTVSPropertyOp55
 70
     1
102
RTVSPropertyOp56
 70
     1
102
RTVSPropertyOp57
 70
     1
102
RTVSPropertyOp58
 70
     1
102
RTVSPropertyOp59
 70
     1
102
RTVSPropertyOp60
 70
     1
102
RTVSPropertyOp61
 70
     1
102
RTVSPropertyOp62
 70
     1
  0
XRECORD
  5
8428
102
{ACAD_REACTORS
330
8427
102
}
330
8427
100
AcDbXrecord
280
     1
102
RTVSPost2010Prop28
280
     0
102
RTVSPost2010PropOp28
 70
     1
102
RTVSPost2010Prop29
280
     1
102
RTVSPost2010PropOp29
 70
     1
102
RTVSPost2010Prop30
280
     1
102
RTVSPost2010PropOp30
 70
     1
102
RTVSPost2010Prop31
280
     0
102
RTVSPost2010PropOp31
 70
     1
102
RTVSPost2010Prop32
280
     0
102
RTVSPost2010PropOp32
 70
     1
102
RTVSPost2010Prop33
280
     0
102
RTVSPost2010PropOp33
 70
     1
102
RTVSPost2010Prop34
280
     0
102
RTVSPost2010PropOp34
 70
     1
102
RTVSPost2010Prop35
280
     0
102
RTVSPost2010PropOp35
 70
     1
102
RTVSPost2010Prop36
280
     0
102
RTVSPost2010PropOp36
 70
     1
102
RTVSPost2010Prop37
 90
       50
102
RTVSPost2010PropOp37
 70
     1
102
RTVSPost2010Prop38
140
0.0
102
RTVSPost2010PropOp38
 70
     1
102
RTVSPost2010Prop39
140
1.0
102
RTVSPost2010PropOp39
 70
     1
102
RTVSPost2010Prop40
 90
        0
102
RTVSPost2010PropOp40
 70
     1
102
RTVSPost2010Prop41ColorIndex
 90
       18
102
RTVSPost2010Prop41ColorRGB
 90
        0
102
RTVSPost2010PropOp41
 70
     1
102
RTVSPost2010Prop42
 90
       50
102
RTVSPost2010PropOp42
 70
     1
102
RTVSPost2010Prop43
 90
        3
102
RTVSPost2010PropOp43
 70
     1
102
RTVSPost2010Prop44ColorIndex
 90
        5
102
RTVSPost2010Prop44ColorRGB
 90
      255
102
RTVSPost2010PropOp44
 70
     1
102
RTVSPost2010Prop45
280
     0
102
RTVSPost2010PropOp45
 70
     1
102
RTVSPost2010Prop46
 90
       50
102
RTVSPost2010PropOp46
 70
     1
102
RTVSPost2010Prop47
 90
       50
102
RTVSPost2010PropOp47
 70
     1
102
RTVSPost2010Prop48
 90
       50
102
RTVSPost2010PropOp48
 70
     1
102
RTVSPost2010Prop49
280
     0
102
RTVSPost2010PropOp49
 70
     1
102
RTVSPost2010Prop50
 90
       50
102
RTVSPost2010PropOp50
 70
     1
102
RTVSPost2010Prop51ColorIndex
 90
      256
102
RTVSPost2010Prop51ColorRGB
 90
-16777216
102
RTVSPost2010PropOp51
 70
     0
102
RTVSPost2010Prop52
140
1.0
102
RTVSPost2010PropOp52
 70
     0
102
RTVSPost2010Prop53
 90
        2
102
RTVSPost2010PropOp53
 70
     1
102
RTVSPost2010Prop54
  1
strokes_ogs.tif
102
RTVSPost2010PropOp54
 70
     1
102
RTVSPost2010Prop55
280
     0
102
RTVSPost2010PropOp55
 70
     1
102
RTVSPost2010Prop56
140
1.0
102
RTVSPost2010PropOp56
 70
     1
102
RTVSPost2010Prop57
140
1.0
102
RTVSPost2010PropOp57
 70
     1
102
RTVSPropertyOp0
 70
     1
102
RTVSPropertyOp1
 70
     1
102
RTVSPropertyOp2
 70
     1
102
RTVSPropertyOp3
 70
     1
102
RTVSPropertyOp4
 70
     1
102
RTVSPropertyOp5
 70
     1
102
RTVSPropertyOp6
 70
     1
102
RTVSPropertyOp7
 70
     1
102
RTVSPropertyOp8
 70
     1
102
RTVSPropertyOp9
 70
     1
102
RTVSPropertyOp10
 70
     1
102
RTVSPropertyOp11
 70
     1
102
RTVSPropertyOp12
 70
     1
102
RTVSPropertyOp13
 70
     1
102
RTVSPropertyOp14
 70
     1
102
RTVSPropertyOp15
 70
     1
102
RTVSPropertyOp16
 70
     1
102
RTVSPropertyOp17
 70
     1
102
RTVSPropertyOp18
 70
     1
102
RTVSPropertyOp19
 70
     1
102
RTVSPropertyOp20
 70
     1
102
RTVSPropertyOp21
 70
     1
102
RTVSPropertyOp22
 70
     1
102
RTVSPropertyOp23
 70
     1
102
RTVSPropertyOp24
 70
     1
102
RTVSPropertyOp25
 70
     1
102
RTVSPropertyOp26
 70
     1
102
RTVSPropertyOp27
 70
     1
102
RTVSPropertyOp28
 70
     1
102
RTVSPropertyOp29
 70
     1
102
RTVSPropertyOp30
 70
     1
102
RTVSPropertyOp31
 70
     1
102
RTVSPropertyOp32
 70
     1
102
RTVSPropertyOp33
 70
     1
102
RTVSPropertyOp34
 70
     1
102
RTVSPropertyOp35
 70
     1
102
RTVSPropertyOp36
 70
     1
102
RTVSPropertyOp37
 70
     1
102
RTVSPropertyOp38
 70
     1
102
RTVSPropertyOp39
 70
     1
102
RTVSPropertyOp40
 70
     1
102
RTVSPropertyOp41
 70
     1
102
RTVSPropertyOp42
 70
     1
102
RTVSPropertyOp43
 70
     1
102
RTVSPropertyOp44
 70
     1
102
RTVSPropertyOp45
 70
     1
102
RTVSPropertyOp46
 70
     1
102
RTVSPropertyOp47
 70
     1
102
RTVSPropertyOp48
 70
     1
102
RTVSPropertyOp49
 70
     1
102
RTVSPropertyOp50
 70
     1
102
RTVSPropertyOp51
 70
     0
102
RTVSPropertyOp52
 70
     0
102
RTVSPropertyOp53
 70
     1
102
RTVSPropertyOp54
 70
     1
102
RTVSPropertyOp55
 70
     1
102
RTVSPropertyOp56
 70
     1
102
RTVSPropertyOp57
 70
     1
102
RTVSPropertyOp58
 70
     1
102
RTVSPropertyOp59
 70
     1
102
RTVSPropertyOp60
 70
     1
102
RTVSPropertyOp61
 70
     1
102
RTVSPropertyOp62
 70
     1
  0
XRECORD
  5
841A
102
{ACAD_REACTORS
330
8419
102
}
330
8419
100
AcDbXrecord
280
     1
102
RTVSPost2010Prop28
280
     0
102
RTVSPost2010PropOp28
 70
     1
102
RTVSPost2010Prop29
280
     1
102
RTVSPost2010PropOp29
 70
     1
102
RTVSPost2010Prop30
280
     1
102
RTVSPost2010PropOp30
 70
     1
102
RTVSPost2010Prop31
280
     0
102
RTVSPost2010PropOp31
 70
     1
102
RTVSPost2010Prop32
280
     0
102
RTVSPost2010PropOp32
 70
     1
102
RTVSPost2010Prop33
280
     0
102
RTVSPost2010PropOp33
 70
     1
102
RTVSPost2010Prop34
280
     0
102
RTVSPost2010PropOp34
 70
     1
102
RTVSPost2010Prop35
280
     0
102
RTVSPost2010PropOp35
 70
     1
102
RTVSPost2010Prop36
280
     0
102
RTVSPost2010PropOp36
 70
     1
102
RTVSPost2010Prop37
 90
       50
102
RTVSPost2010PropOp37
 70
     1
102
RTVSPost2010Prop38
140
0.0
102
RTVSPost2010PropOp38
 70
     1
102
RTVSPost2010Prop39
140
1.0
102
RTVSPost2010PropOp39
 70
     1
102
RTVSPost2010Prop40
 90
        0
102
RTVSPost2010PropOp40
 70
     1
102
RTVSPost2010Prop41ColorIndex
 90
       18
102
RTVSPost2010Prop41ColorRGB
 90
        0
102
RTVSPost2010PropOp41
 70
     1
102
RTVSPost2010Prop42
 90
       50
102
RTVSPost2010PropOp42
 70
     1
102
RTVSPost2010Prop43
 90
        3
102
RTVSPost2010PropOp43
 70
     1
102
RTVSPost2010Prop44ColorIndex
 90
        5
102
RTVSPost2010Prop44ColorRGB
 90
      255
102
RTVSPost2010PropOp44
 70
     1
102
RTVSPost2010Prop45
280
     0
102
RTVSPost2010PropOp45
 70
     1
102
RTVSPost2010Prop46
 90
       50
102
RTVSPost2010PropOp46
 70
     1
102
RTVSPost2010Prop47
 90
       50
102
RTVSPost2010PropOp47
 70
     1
102
RTVSPost2010Prop48
 90
       50
102
RTVSPost2010PropOp48
 70
     1
102
RTVSPost2010Prop49
280
     0
102
RTVSPost2010PropOp49
 70
     1
102
RTVSPost2010Prop50
 90
       50
102
RTVSPost2010PropOp50
 70
     1
102
RTVSPost2010Prop51ColorIndex
 90
      256
102
RTVSPost2010Prop51ColorRGB
 90
-16777216
102
RTVSPost2010PropOp51
 70
     0
102
RTVSPost2010Prop52
140
1.0
102
RTVSPost2010PropOp52
 70
     0
102
RTVSPost2010Prop53
 90
        2
102
RTVSPost2010PropOp53
 70
     1
102
RTVSPost2010Prop54
  1
strokes_ogs.tif
102
RTVSPost2010PropOp54
 70
     1
102
RTVSPost2010Prop55
280
     0
102
RTVSPost2010PropOp55
 70
     1
102
RTVSPost2010Prop56
140
1.0
102
RTVSPost2010PropOp56
 70
     1
102
RTVSPost2010Prop57
140
1.0
102
RTVSPost2010PropOp57
 70
     1
102
RTVSPropertyOp0
 70
     1
102
RTVSPropertyOp1
 70
     1
102
RTVSPropertyOp2
 70
     1
102
RTVSPropertyOp3
 70
     1
102
RTVSPropertyOp4
 70
     1
102
RTVSPropertyOp5
 70
     1
102
RTVSPropertyOp6
 70
     1
102
RTVSPropertyOp7
 70
     1
102
RTVSPropertyOp8
 70
     1
102
RTVSPropertyOp9
 70
     1
102
RTVSPropertyOp10
 70
     1
102
RTVSPropertyOp11
 70
     1
102
RTVSPropertyOp12
 70
     1
102
RTVSPropertyOp13
 70
     1
102
RTVSPropertyOp14
 70
     1
102
RTVSPropertyOp15
 70
     1
102
RTVSPropertyOp16
 70
     1
102
RTVSPropertyOp17
 70
     1
102
RTVSPropertyOp18
 70
     1
102
RTVSPropertyOp19
 70
     1
102
RTVSPropertyOp20
 70
     1
102
RTVSPropertyOp21
 70
     1
102
RTVSPropertyOp22
 70
     1
102
RTVSPropertyOp23
 70
     1
102
RTVSPropertyOp24
 70
     1
102
RTVSPropertyOp25
 70
     1
102
RTVSPropertyOp26
 70
     1
102
RTVSPropertyOp27
 70
     1
102
RTVSPropertyOp28
 70
     1
102
RTVSPropertyOp29
 70
     1
102
RTVSPropertyOp30
 70
     1
102
RTVSPropertyOp31
 70
     1
102
RTVSPropertyOp32
 70
     1
102
RTVSPropertyOp33
 70
     1
102
RTVSPropertyOp34
 70
     1
102
RTVSPropertyOp35
 70
     1
102
RTVSPropertyOp36
 70
     1
102
RTVSPropertyOp37
 70
     1
102
RTVSPropertyOp38
 70
     1
102
RTVSPropertyOp39
 70
     1
102
RTVSPropertyOp40
 70
     1
102
RTVSPropertyOp41
 70
     1
102
RTVSPropertyOp42
 70
     1
102
RTVSPropertyOp43
 70
     1
102
RTVSPropertyOp44
 70
     1
102
RTVSPropertyOp45
 70
     1
102
RTVSPropertyOp46
 70
     1
102
RTVSPropertyOp47
 70
     1
102
RTVSPropertyOp48
 70
     1
102
RTVSPropertyOp49
 70
     1
102
RTVSPropertyOp50
 70
     1
102
RTVSPropertyOp51
 70
     0
102
RTVSPropertyOp52
 70
     0
102
RTVSPropertyOp53
 70
     1
102
RTVSPropertyOp54
 70
     1
102
RTVSPropertyOp55
 70
     1
102
RTVSPropertyOp56
 70
     1
102
RTVSPropertyOp57
 70
     1
102
RTVSPropertyOp58
 70
     1
102
RTVSPropertyOp59
 70
     1
102
RTVSPropertyOp60
 70
     1
102
RTVSPropertyOp61
 70
     1
102
RTVSPropertyOp62
 70
     1
  0
XRECORD
  5
841E
102
{ACAD_REACTORS
330
841D
102
}
330
841D
100
AcDbXrecord
280
     1
102
RTVSPost2010Prop28
280
     0
102
RTVSPost2010PropOp28
 70
     1
102
RTVSPost2010Prop29
280
     1
102
RTVSPost2010PropOp29
 70
     1
102
RTVSPost2010Prop30
280
     1
102
RTVSPost2010PropOp30
 70
     1
102
RTVSPost2010Prop31
280
     0
102
RTVSPost2010PropOp31
 70
     1
102
RTVSPost2010Prop32
280
     0
102
RTVSPost2010PropOp32
 70
     1
102
RTVSPost2010Prop33
280
     0
102
RTVSPost2010PropOp33
 70
     1
102
RTVSPost2010Prop34
280
     0
102
RTVSPost2010PropOp34
 70
     1
102
RTVSPost2010Prop35
280
     0
102
RTVSPost2010PropOp35
 70
     1
102
RTVSPost2010Prop36
280
     0
102
RTVSPost2010PropOp36
 70
     1
102
RTVSPost2010Prop37
 90
       50
102
RTVSPost2010PropOp37
 70
     1
102
RTVSPost2010Prop38
140
0.0
102
RTVSPost2010PropOp38
 70
     1
102
RTVSPost2010Prop39
140
1.0
102
RTVSPost2010PropOp39
 70
     1
102
RTVSPost2010Prop40
 90
        0
102
RTVSPost2010PropOp40
 70
     1
102
RTVSPost2010Prop41ColorIndex
 90
       18
102
RTVSPost2010Prop41ColorRGB
 90
        0
102
RTVSPost2010PropOp41
 70
     1
102
RTVSPost2010Prop42
 90
       50
102
RTVSPost2010PropOp42
 70
     1
102
RTVSPost2010Prop43
 90
        3
102
RTVSPost2010PropOp43
 70
     1
102
RTVSPost2010Prop44ColorIndex
 90
        5
102
RTVSPost2010Prop44ColorRGB
 90
      255
102
RTVSPost2010PropOp44
 70
     1
102
RTVSPost2010Prop45
280
     0
102
RTVSPost2010PropOp45
 70
     1
102
RTVSPost2010Prop46
 90
       50
102
RTVSPost2010PropOp46
 70
     1
102
RTVSPost2010Prop47
 90
       50
102
RTVSPost2010PropOp47
 70
     1
102
RTVSPost2010Prop48
 90
       50
102
RTVSPost2010PropOp48
 70
     1
102
RTVSPost2010Prop49
280
     0
102
RTVSPost2010PropOp49
 70
     1
102
RTVSPost2010Prop50
 90
       50
102
RTVSPost2010PropOp50
 70
     1
102
RTVSPost2010Prop51ColorIndex
 90
      256
102
RTVSPost2010Prop51ColorRGB
 90
-16777216
102
RTVSPost2010PropOp51
 70
     0
102
RTVSPost2010Prop52
140
1.0
102
RTVSPost2010PropOp52
 70
     0
102
RTVSPost2010Prop53
 90
        2
102
RTVSPost2010PropOp53
 70
     1
102
RTVSPost2010Prop54
  1
strokes_ogs.tif
102
RTVSPost2010PropOp54
 70
     1
102
RTVSPost2010Prop55
280
     0
102
RTVSPost2010PropOp55
 70
     1
102
RTVSPost2010Prop56
140
1.0
102
RTVSPost2010PropOp56
 70
     1
102
RTVSPost2010Prop57
140
1.0
102
RTVSPost2010PropOp57
 70
     1
102
RTVSPropertyOp0
 70
     1
102
RTVSPropertyOp1
 70
     1
102
RTVSPropertyOp2
 70
     1
102
RTVSPropertyOp3
 70
     1
102
RTVSPropertyOp4
 70
     1
102
RTVSPropertyOp5
 70
     1
102
RTVSPropertyOp6
 70
     1
102
RTVSPropertyOp7
 70
     1
102
RTVSPropertyOp8
 70
     1
102
RTVSPropertyOp9
 70
     1
102
RTVSPropertyOp10
 70
     1
102
RTVSPropertyOp11
 70
     1
102
RTVSPropertyOp12
 70
     1
102
RTVSPropertyOp13
 70
     1
102
RTVSPropertyOp14
 70
     1
102
RTVSPropertyOp15
 70
     1
102
RTVSPropertyOp16
 70
     1
102
RTVSPropertyOp17
 70
     1
102
RTVSPropertyOp18
 70
     1
102
RTVSPropertyOp19
 70
     1
102
RTVSPropertyOp20
 70
     1
102
RTVSPropertyOp21
 70
     1
102
RTVSPropertyOp22
 70
     1
102
RTVSPropertyOp23
 70
     1
102
RTVSPropertyOp24
 70
     1
102
RTVSPropertyOp25
 70
     1
102
RTVSPropertyOp26
 70
     1
102
RTVSPropertyOp27
 70
     1
102
RTVSPropertyOp28
 70
     1
102
RTVSPropertyOp29
 70
     1
102
RTVSPropertyOp30
 70
     1
102
RTVSPropertyOp31
 70
     1
102
RTVSPropertyOp32
 70
     1
102
RTVSPropertyOp33
 70
     1
102
RTVSPropertyOp34
 70
     1
102
RTVSPropertyOp35
 70
     1
102
RTVSPropertyOp36
 70
     1
102
RTVSPropertyOp37
 70
     1
102
RTVSPropertyOp38
 70
     1
102
RTVSPropertyOp39
 70
     1
102
RTVSPropertyOp40
 70
     1
102
RTVSPropertyOp41
 70
     1
102
RTVSPropertyOp42
 70
     1
102
RTVSPropertyOp43
 70
     1
102
RTVSPropertyOp44
 70
     1
102
RTVSPropertyOp45
 70
     1
102
RTVSPropertyOp46
 70
     1
102
RTVSPropertyOp47
 70
     1
102
RTVSPropertyOp48
 70
     1
102
RTVSPropertyOp49
 70
     1
102
RTVSPropertyOp50
 70
     1
102
RTVSPropertyOp51
 70
     0
102
RTVSPropertyOp52
 70
     0
102
RTVSPropertyOp53
 70
     1
102
RTVSPropertyOp54
 70
     1
102
RTVSPropertyOp55
 70
     1
102
RTVSPropertyOp56
 70
     1
102
RTVSPropertyOp57
 70
     1
102
RTVSPropertyOp58
 70
     1
102
RTVSPropertyOp59
 70
     1
102
RTVSPropertyOp60
 70
     1
102
RTVSPropertyOp61
 70
     1
102
RTVSPropertyOp62
 70
     1
  0
XRECORD
  5
8438
102
{ACAD_REACTORS
330
8437
102
}
330
8437
100
AcDbXrecord
280
     1
102
RTVSPost2010Prop28
280
     0
102
RTVSPost2010PropOp28
 70
     1
102
RTVSPost2010Prop29
280
     1
102
RTVSPost2010PropOp29
 70
     1
102
RTVSPost2010Prop30
280
     1
102
RTVSPost2010PropOp30
 70
     1
102
RTVSPost2010Prop31
280
     0
102
RTVSPost2010PropOp31
 70
     1
102
RTVSPost2010Prop32
280
     0
102
RTVSPost2010PropOp32
 70
     1
102
RTVSPost2010Prop33
280
     0
102
RTVSPost2010PropOp33
 70
     1
102
RTVSPost2010Prop34
280
     0
102
RTVSPost2010PropOp34
 70
     1
102
RTVSPost2010Prop35
280
     0
102
RTVSPost2010PropOp35
 70
     1
102
RTVSPost2010Prop36
280
     0
102
RTVSPost2010PropOp36
 70
     1
102
RTVSPost2010Prop37
 90
       50
102
RTVSPost2010PropOp37
 70
     0
102
RTVSPost2010Prop38
140
0.0
102
RTVSPost2010PropOp38
 70
     0
102
RTVSPost2010Prop39
140
1.0
102
RTVSPost2010PropOp39
 70
     0
102
RTVSPost2010Prop40
 90
        0
102
RTVSPost2010PropOp40
 70
     0
102
RTVSPost2010Prop41ColorIndex
 90
       18
102
RTVSPost2010Prop41ColorRGB
 90
        0
102
RTVSPost2010PropOp41
 70
     0
102
RTVSPost2010Prop42
 90
       50
102
RTVSPost2010PropOp42
 70
     0
102
RTVSPost2010Prop43
 90
        3
102
RTVSPost2010PropOp43
 70
     0
102
RTVSPost2010Prop44ColorIndex
 90
        5
102
RTVSPost2010Prop44ColorRGB
 90
      255
102
RTVSPost2010PropOp44
 70
     0
102
RTVSPost2010Prop45
280
     0
102
RTVSPost2010PropOp45
 70
     1
102
RTVSPost2010Prop46
 90
       50
102
RTVSPost2010PropOp46
 70
     0
102
RTVSPost2010Prop47
 90
       50
102
RTVSPost2010PropOp47
 70
     0
102
RTVSPost2010Prop48
 90
       50
102
RTVSPost2010PropOp48
 70
     0
102
RTVSPost2010Prop49
280
     0
102
RTVSPost2010PropOp49
 70
     1
102
RTVSPost2010Prop50
 90
       50
102
RTVSPost2010PropOp50
 70
     0
102
RTVSPost2010Prop51ColorIndex
 90
      256
102
RTVSPost2010Prop51ColorRGB
 90
-16777216
102
RTVSPost2010PropOp51
 70
     0
102
RTVSPost2010Prop52
140
1.0
102
RTVSPost2010PropOp52
 70
     0
102
RTVSPost2010Prop53
 90
        2
102
RTVSPost2010PropOp53
 70
     0
102
RTVSPost2010Prop54
  1
strokes_ogs.tif
102
RTVSPost2010PropOp54
 70
     0
102
RTVSPost2010Prop55
280
     0
102
RTVSPost2010PropOp55
 70
     1
102
RTVSPost2010Prop56
140
1.0
102
RTVSPost2010PropOp56
 70
     0
102
RTVSPost2010Prop57
140
1.0
102
RTVSPost2010PropOp57
 70
     0
102
RTVSPropertyOp0
 70
     0
102
RTVSPropertyOp1
 70
     0
102
RTVSPropertyOp2
 70
     0
102
RTVSPropertyOp3
 70
     0
102
RTVSPropertyOp4
 70
     0
102
RTVSPropertyOp5
 70
     0
102
RTVSPropertyOp6
 70
     0
102
RTVSPropertyOp7
 70
     0
102
RTVSPropertyOp8
 70
     0
102
RTVSPropertyOp9
 70
     0
102
RTVSPropertyOp10
 70
     0
102
RTVSPropertyOp11
 70
     0
102
RTVSPropertyOp12
 70
     0
102
RTVSPropertyOp13
 70
     0
102
RTVSPropertyOp14
 70
     2
102
RTVSPropertyOp15
 70
     0
102
RTVSPropertyOp16
 70
     0
102
RTVSPropertyOp17
 70
     0
102
RTVSPropertyOp18
 70
     0
102
RTVSPropertyOp19
 70
     0
102
RTVSPropertyOp20
 70
     0
102
RTVSPropertyOp21
 70
     0
102
RTVSPropertyOp22
 70
     0
102
RTVSPropertyOp23
 70
     0
102
RTVSPropertyOp24
 70
     0
102
RTVSPropertyOp25
 70
     0
102
RTVSPropertyOp26
 70
     0
102
RTVSPropertyOp27
 70
     0
102
RTVSPropertyOp28
 70
     1
102
RTVSPropertyOp29
 70
     1
102
RTVSPropertyOp30
 70
     1
102
RTVSPropertyOp31
 70
     1
102
RTVSPropertyOp32
 70
     1
102
RTVSPropertyOp33
 70
     1
102
RTVSPropertyOp34
 70
     1
102
RTVSPropertyOp35
 70
     1
102
RTVSPropertyOp36
 70
     1
102
RTVSPropertyOp37
 70
     0
102
RTVSPropertyOp38
 70
     0
102
RTVSPropertyOp39
 70
     0
102
RTVSPropertyOp40
 70
     0
102
RTVSPropertyOp41
 70
     0
102
RTVSPropertyOp42
 70
     0
102
RTVSPropertyOp43
 70
     0
102
RTVSPropertyOp44
 70
     0
102
RTVSPropertyOp45
 70
     1
102
RTVSPropertyOp46
 70
     0
102
RTVSPropertyOp47
 70
     0
102
RTVSPropertyOp48
 70
     0
102
RTVSPropertyOp49
 70
     1
102
RTVSPropertyOp50
 70
     0
102
RTVSPropertyOp51
 70
     0
102
RTVSPropertyOp52
 70
     0
102
RTVSPropertyOp53
 70
     0
102
RTVSPropertyOp54
 70
     0
102
RTVSPropertyOp55
 70
     1
102
RTVSPropertyOp56
 70
     0
102
RTVSPropertyOp57
 70
     0
102
RTVSPropertyOp58
 70
     0
102
RTVSPropertyOp59
 70
     0
102
RTVSPropertyOp60
 70
     0
102
RTVSPropertyOp61
 70
     0
102
RTVSPropertyOp62
 70
     0
  0
XRECORD
  5
8426
102
{ACAD_REACTORS
330
8425
102
}
330
8425
100
AcDbXrecord
280
     1
102
RTVSPost2010Prop28
280
     0
102
RTVSPost2010PropOp28
 70
     1
102
RTVSPost2010Prop29
280
     1
102
RTVSPost2010PropOp29
 70
     1
102
RTVSPost2010Prop30
280
     1
102
RTVSPost2010PropOp30
 70
     1
102
RTVSPost2010Prop31
280
     0
102
RTVSPost2010PropOp31
 70
     1
102
RTVSPost2010Prop32
280
     0
102
RTVSPost2010PropOp32
 70
     1
102
RTVSPost2010Prop33
280
     0
102
RTVSPost2010PropOp33
 70
     1
102
RTVSPost2010Prop34
280
     0
102
RTVSPost2010PropOp34
 70
     1
102
RTVSPost2010Prop35
280
     0
102
RTVSPost2010PropOp35
 70
     1
102
RTVSPost2010Prop36
280
     0
102
RTVSPost2010PropOp36
 70
     1
102
RTVSPost2010Prop37
 90
       50
102
RTVSPost2010PropOp37
 70
     1
102
RTVSPost2010Prop38
140
0.0
102
RTVSPost2010PropOp38
 70
     1
102
RTVSPost2010Prop39
140
1.0
102
RTVSPost2010PropOp39
 70
     1
102
RTVSPost2010Prop40
 90
        0
102
RTVSPost2010PropOp40
 70
     1
102
RTVSPost2010Prop41ColorIndex
 90
       18
102
RTVSPost2010Prop41ColorRGB
 90
        0
102
RTVSPost2010PropOp41
 70
     1
102
RTVSPost2010Prop42
 90
       50
102
RTVSPost2010PropOp42
 70
     1
102
RTVSPost2010Prop43
 90
        3
102
RTVSPost2010PropOp43
 70
     1
102
RTVSPost2010Prop44ColorIndex
 90
        5
102
RTVSPost2010Prop44ColorRGB
 90
      255
102
RTVSPost2010PropOp44
 70
     1
102
RTVSPost2010Prop45
280
     0
102
RTVSPost2010PropOp45
 70
     1
102
RTVSPost2010Prop46
 90
       50
102
RTVSPost2010PropOp46
 70
     1
102
RTVSPost2010Prop47
 90
       50
102
RTVSPost2010PropOp47
 70
     1
102
RTVSPost2010Prop48
 90
       50
102
RTVSPost2010PropOp48
 70
     1
102
RTVSPost2010Prop49
280
     0
102
RTVSPost2010PropOp49
 70
     1
102
RTVSPost2010Prop50
 90
       50
102
RTVSPost2010PropOp50
 70
     1
102
RTVSPost2010Prop51ColorIndex
 90
      256
102
RTVSPost2010Prop51ColorRGB
 90
-16777216
102
RTVSPost2010PropOp51
 70
     0
102
RTVSPost2010Prop52
140
1.0
102
RTVSPost2010PropOp52
 70
     0
102
RTVSPost2010Prop53
 90
        2
102
RTVSPost2010PropOp53
 70
     1
102
RTVSPost2010Prop54
  1
strokes_ogs.tif
102
RTVSPost2010PropOp54
 70
     1
102
RTVSPost2010Prop55
280
     0
102
RTVSPost2010PropOp55
 70
     1
102
RTVSPost2010Prop56
140
1.0
102
RTVSPost2010PropOp56
 70
     1
102
RTVSPost2010Prop57
140
1.0
102
RTVSPost2010PropOp57
 70
     1
102
RTVSPropertyOp0
 70
     1
102
RTVSPropertyOp1
 70
     1
102
RTVSPropertyOp2
 70
     1
102
RTVSPropertyOp3
 70
     1
102
RTVSPropertyOp4
 70
     1
102
RTVSPropertyOp5
 70
     1
102
RTVSPropertyOp6
 70
     1
102
RTVSPropertyOp7
 70
     1
102
RTVSPropertyOp8
 70
     1
102
RTVSPropertyOp9
 70
     1
102
RTVSPropertyOp10
 70
     1
102
RTVSPropertyOp11
 70
     1
102
RTVSPropertyOp12
 70
     1
102
RTVSPropertyOp13
 70
     1
102
RTVSPropertyOp14
 70
     1
102
RTVSPropertyOp15
 70
     1
102
RTVSPropertyOp16
 70
     1
102
RTVSPropertyOp17
 70
     1
102
RTVSPropertyOp18
 70
     1
102
RTVSPropertyOp19
 70
     1
102
RTVSPropertyOp20
 70
     1
102
RTVSPropertyOp21
 70
     1
102
RTVSPropertyOp22
 70
     1
102
RTVSPropertyOp23
 70
     1
102
RTVSPropertyOp24
 70
     1
102
RTVSPropertyOp25
 70
     1
102
RTVSPropertyOp26
 70
     1
102
RTVSPropertyOp27
 70
     1
102
RTVSPropertyOp28
 70
     1
102
RTVSPropertyOp29
 70
     1
102
RTVSPropertyOp30
 70
     1
102
RTVSPropertyOp31
 70
     1
102
RTVSPropertyOp32
 70
     1
102
RTVSPropertyOp33
 70
     1
102
RTVSPropertyOp34
 70
     1
102
RTVSPropertyOp35
 70
     1
102
RTVSPropertyOp36
 70
     1
102
RTVSPropertyOp37
 70
     1
102
RTVSPropertyOp38
 70
     1
102
RTVSPropertyOp39
 70
     1
102
RTVSPropertyOp40
 70
     1
102
RTVSPropertyOp41
 70
     1
102
RTVSPropertyOp42
 70
     1
102
RTVSPropertyOp43
 70
     1
102
RTVSPropertyOp44
 70
     1
102
RTVSPropertyOp45
 70
     1
102
RTVSPropertyOp46
 70
     1
102
RTVSPropertyOp47
 70
     1
102
RTVSPropertyOp48
 70
     1
102
RTVSPropertyOp49
 70
     1
102
RTVSPropertyOp50
 70
     1
102
RTVSPropertyOp51
 70
     0
102
RTVSPropertyOp52
 70
     0
102
RTVSPropertyOp53
 70
     1
102
RTVSPropertyOp54
 70
     1
102
RTVSPropertyOp55
 70
     1
102
RTVSPropertyOp56
 70
     1
102
RTVSPropertyOp57
 70
     1
102
RTVSPropertyOp58
 70
     1
102
RTVSPropertyOp59
 70
     1
102
RTVSPropertyOp60
 70
     1
102
RTVSPropertyOp61
 70
     1
102
RTVSPropertyOp62
 70
     1
  0
XRECORD
  5
840A
102
{ACAD_REACTORS
330
8409
102
}
330
8409
100
AcDbXrecord
280
     1
102
RTVSPost2010Prop28
280
     0
102
RTVSPost2010PropOp28
 70
     1
102
RTVSPost2010Prop29
280
     1
102
RTVSPost2010PropOp29
 70
     1
102
RTVSPost2010Prop30
280
     1
102
RTVSPost2010PropOp30
 70
     1
102
RTVSPost2010Prop31
280
     0
102
RTVSPost2010PropOp31
 70
     1
102
RTVSPost2010Prop32
280
     0
102
RTVSPost2010PropOp32
 70
     1
102
RTVSPost2010Prop33
280
     0
102
RTVSPost2010PropOp33
 70
     1
102
RTVSPost2010Prop34
280
     0
102
RTVSPost2010PropOp34
 70
     1
102
RTVSPost2010Prop35
280
     0
102
RTVSPost2010PropOp35
 70
     1
102
RTVSPost2010Prop36
280
     0
102
RTVSPost2010PropOp36
 70
     1
102
RTVSPost2010Prop37
 90
       50
102
RTVSPost2010PropOp37
 70
     1
102
RTVSPost2010Prop38
140
0.0
102
RTVSPost2010PropOp38
 70
     1
102
RTVSPost2010Prop39
140
1.0
102
RTVSPost2010PropOp39
 70
     1
102
RTVSPost2010Prop40
 90
        0
102
RTVSPost2010PropOp40
 70
     1
102
RTVSPost2010Prop41ColorIndex
 90
       18
102
RTVSPost2010Prop41ColorRGB
 90
        0
102
RTVSPost2010PropOp41
 70
     1
102
RTVSPost2010Prop42
 90
       50
102
RTVSPost2010PropOp42
 70
     1
102
RTVSPost2010Prop43
 90
        3
102
RTVSPost2010PropOp43
 70
     1
102
RTVSPost2010Prop44ColorIndex
 90
        5
102
RTVSPost2010Prop44ColorRGB
 90
      255
102
RTVSPost2010PropOp44
 70
     1
102
RTVSPost2010Prop45
280
     0
102
RTVSPost2010PropOp45
 70
     1
102
RTVSPost2010Prop46
 90
       50
102
RTVSPost2010PropOp46
 70
     1
102
RTVSPost2010Prop47
 90
       50
102
RTVSPost2010PropOp47
 70
     1
102
RTVSPost2010Prop48
 90
       50
102
RTVSPost2010PropOp48
 70
     1
102
RTVSPost2010Prop49
280
     0
102
RTVSPost2010PropOp49
 70
     1
102
RTVSPost2010Prop50
 90
       50
102
RTVSPost2010PropOp50
 70
     1
102
RTVSPost2010Prop51ColorIndex
 90
      256
102
RTVSPost2010Prop51ColorRGB
 90
-16777216
102
RTVSPost2010PropOp51
 70
     0
102
RTVSPost2010Prop52
140
1.0
102
RTVSPost2010PropOp52
 70
     0
102
RTVSPost2010Prop53
 90
        2
102
RTVSPost2010PropOp53
 70
     1
102
RTVSPost2010Prop54
  1
strokes_ogs.tif
102
RTVSPost2010PropOp54
 70
     1
102
RTVSPost2010Prop55
280
     0
102
RTVSPost2010PropOp55
 70
     1
102
RTVSPost2010Prop56
140
1.0
102
RTVSPost2010PropOp56
 70
     1
102
RTVSPost2010Prop57
140
1.0
102
RTVSPost2010PropOp57
 70
     1
102
RTVSPropertyOp0
 70
     1
102
RTVSPropertyOp1
 70
     1
102
RTVSPropertyOp2
 70
     1
102
RTVSPropertyOp3
 70
     1
102
RTVSPropertyOp4
 70
     1
102
RTVSPropertyOp5
 70
     1
102
RTVSPropertyOp6
 70
     1
102
RTVSPropertyOp7
 70
     1
102
RTVSPropertyOp8
 70
     1
102
RTVSPropertyOp9
 70
     1
102
RTVSPropertyOp10
 70
     1
102
RTVSPropertyOp11
 70
     1
102
RTVSPropertyOp12
 70
     1
102
RTVSPropertyOp13
 70
     1
102
RTVSPropertyOp14
 70
     1
102
RTVSPropertyOp15
 70
     1
102
RTVSPropertyOp16
 70
     1
102
RTVSPropertyOp17
 70
     1
102
RTVSPropertyOp18
 70
     1
102
RTVSPropertyOp19
 70
     1
102
RTVSPropertyOp20
 70
     1
102
RTVSPropertyOp21
 70
     1
102
RTVSPropertyOp22
 70
     1
102
RTVSPropertyOp23
 70
     1
102
RTVSPropertyOp24
 70
     1
102
RTVSPropertyOp25
 70
     1
102
RTVSPropertyOp26
 70
     1
102
RTVSPropertyOp27
 70
     1
102
RTVSPropertyOp28
 70
     1
102
RTVSPropertyOp29
 70
     1
102
RTVSPropertyOp30
 70
     1
102
RTVSPropertyOp31
 70
     1
102
RTVSPropertyOp32
 70
     1
102
RTVSPropertyOp33
 70
     1
102
RTVSPropertyOp34
 70
     1
102
RTVSPropertyOp35
 70
     1
102
RTVSPropertyOp36
 70
     1
102
RTVSPropertyOp37
 70
     1
102
RTVSPropertyOp38
 70
     1
102
RTVSPropertyOp39
 70
     1
102
RTVSPropertyOp40
 70
     1
102
RTVSPropertyOp41
 70
     1
102
RTVSPropertyOp42
 70
     1
102
RTVSPropertyOp43
 70
     1
102
RTVSPropertyOp44
 70
     1
102
RTVSPropertyOp45
 70
     1
102
RTVSPropertyOp46
 70
     1
102
RTVSPropertyOp47
 70
     1
102
RTVSPropertyOp48
 70
     1
102
RTVSPropertyOp49
 70
     1
102
RTVSPropertyOp50
 70
     1
102
RTVSPropertyOp51
 70
     0
102
RTVSPropertyOp52
 70
     0
102
RTVSPropertyOp53
 70
     1
102
RTVSPropertyOp54
 70
     1
102
RTVSPropertyOp55
 70
     1
102
RTVSPropertyOp56
 70
     1
102
RTVSPropertyOp57
 70
     1
102
RTVSPropertyOp58
 70
     1
102
RTVSPropertyOp59
 70
     1
102
RTVSPropertyOp60
 70
     1
102
RTVSPropertyOp61
 70
     1
102
RTVSPropertyOp62
 70
     1
  0
XRECORD
  5
840C
102
{ACAD_REACTORS
330
840B
102
}
330
840B
100
AcDbXrecord
280
     1
102
RTVSPost2010Prop28
280
     0
102
RTVSPost2010PropOp28
 70
     1
102
RTVSPost2010Prop29
280
     1
102
RTVSPost2010PropOp29
 70
     1
102
RTVSPost2010Prop30
280
     1
102
RTVSPost2010PropOp30
 70
     1
102
RTVSPost2010Prop31
280
     0
102
RTVSPost2010PropOp31
 70
     1
102
RTVSPost2010Prop32
280
     0
102
RTVSPost2010PropOp32
 70
     1
102
RTVSPost2010Prop33
280
     0
102
RTVSPost2010PropOp33
 70
     1
102
RTVSPost2010Prop34
280
     0
102
RTVSPost2010PropOp34
 70
     1
102
RTVSPost2010Prop35
280
     0
102
RTVSPost2010PropOp35
 70
     1
102
RTVSPost2010Prop36
280
     0
102
RTVSPost2010PropOp36
 70
     1
102
RTVSPost2010Prop37
 90
       50
102
RTVSPost2010PropOp37
 70
     1
102
RTVSPost2010Prop38
140
0.0
102
RTVSPost2010PropOp38
 70
     1
102
RTVSPost2010Prop39
140
1.0
102
RTVSPost2010PropOp39
 70
     1
102
RTVSPost2010Prop40
 90
        0
102
RTVSPost2010PropOp40
 70
     1
102
RTVSPost2010Prop41ColorIndex
 90
       18
102
RTVSPost2010Prop41ColorRGB
 90
        0
102
RTVSPost2010PropOp41
 70
     1
102
RTVSPost2010Prop42
 90
       50
102
RTVSPost2010PropOp42
 70
     1
102
RTVSPost2010Prop43
 90
        3
102
RTVSPost2010PropOp43
 70
     1
102
RTVSPost2010Prop44ColorIndex
 90
        5
102
RTVSPost2010Prop44ColorRGB
 90
      255
102
RTVSPost2010PropOp44
 70
     1
102
RTVSPost2010Prop45
280
     0
102
RTVSPost2010PropOp45
 70
     1
102
RTVSPost2010Prop46
 90
       50
102
RTVSPost2010PropOp46
 70
     1
102
RTVSPost2010Prop47
 90
       50
102
RTVSPost2010PropOp47
 70
     1
102
RTVSPost2010Prop48
 90
       50
102
RTVSPost2010PropOp48
 70
     1
102
RTVSPost2010Prop49
280
     0
102
RTVSPost2010PropOp49
 70
     1
102
RTVSPost2010Prop50
 90
       50
102
RTVSPost2010PropOp50
 70
     1
102
RTVSPost2010Prop51ColorIndex
 90
      256
102
RTVSPost2010Prop51ColorRGB
 90
-16777216
102
RTVSPost2010PropOp51
 70
     0
102
RTVSPost2010Prop52
140
1.0
102
RTVSPost2010PropOp52
 70
     0
102
RTVSPost2010Prop53
 90
        2
102
RTVSPost2010PropOp53
 70
     1
102
RTVSPost2010Prop54
  1
strokes_ogs.tif
102
RTVSPost2010PropOp54
 70
     1
102
RTVSPost2010Prop55
280
     0
102
RTVSPost2010PropOp55
 70
     1
102
RTVSPost2010Prop56
140
1.0
102
RTVSPost2010PropOp56
 70
     1
102
RTVSPost2010Prop57
140
1.0
102
RTVSPost2010PropOp57
 70
     1
102
RTVSPropertyOp0
 70
     1
102
RTVSPropertyOp1
 70
     1
102
RTVSPropertyOp2
 70
     1
102
RTVSPropertyOp3
 70
     1
102
RTVSPropertyOp4
 70
     1
102
RTVSPropertyOp5
 70
     1
102
RTVSPropertyOp6
 70
     1
102
RTVSPropertyOp7
 70
     1
102
RTVSPropertyOp8
 70
     1
102
RTVSPropertyOp9
 70
     1
102
RTVSPropertyOp10
 70
     1
102
RTVSPropertyOp11
 70
     1
102
RTVSPropertyOp12
 70
     1
102
RTVSPropertyOp13
 70
     1
102
RTVSPropertyOp14
 70
     1
102
RTVSPropertyOp15
 70
     1
102
RTVSPropertyOp16
 70
     1
102
RTVSPropertyOp17
 70
     1
102
RTVSPropertyOp18
 70
     1
102
RTVSPropertyOp19
 70
     1
102
RTVSPropertyOp20
 70
     1
102
RTVSPropertyOp21
 70
     1
102
RTVSPropertyOp22
 70
     1
102
RTVSPropertyOp23
 70
     1
102
RTVSPropertyOp24
 70
     1
102
RTVSPropertyOp25
 70
     1
102
RTVSPropertyOp26
 70
     1
102
RTVSPropertyOp27
 70
     1
102
RTVSPropertyOp28
 70
     1
102
RTVSPropertyOp29
 70
     1
102
RTVSPropertyOp30
 70
     1
102
RTVSPropertyOp31
 70
     1
102
RTVSPropertyOp32
 70
     1
102
RTVSPropertyOp33
 70
     1
102
RTVSPropertyOp34
 70
     1
102
RTVSPropertyOp35
 70
     1
102
RTVSPropertyOp36
 70
     1
102
RTVSPropertyOp37
 70
     1
102
RTVSPropertyOp38
 70
     1
102
RTVSPropertyOp39
 70
     1
102
RTVSPropertyOp40
 70
     1
102
RTVSPropertyOp41
 70
     1
102
RTVSPropertyOp42
 70
     1
102
RTVSPropertyOp43
 70
     1
102
RTVSPropertyOp44
 70
     1
102
RTVSPropertyOp45
 70
     1
102
RTVSPropertyOp46
 70
     1
102
RTVSPropertyOp47
 70
     1
102
RTVSPropertyOp48
 70
     1
102
RTVSPropertyOp49
 70
     1
102
RTVSPropertyOp50
 70
     1
102
RTVSPropertyOp51
 70
     0
102
RTVSPropertyOp52
 70
     0
102
RTVSPropertyOp53
 70
     1
102
RTVSPropertyOp54
 70
     1
102
RTVSPropertyOp55
 70
     1
102
RTVSPropertyOp56
 70
     1
102
RTVSPropertyOp57
 70
     1
102
RTVSPropertyOp58
 70
     1
102
RTVSPropertyOp59
 70
     1
102
RTVSPropertyOp60
 70
     1
102
RTVSPropertyOp61
 70
     1
102
RTVSPropertyOp62
 70
     1
  0
XRECORD
  5
840E
102
{ACAD_REACTORS
330
840D
102
}
330
840D
100
AcDbXrecord
280
     1
102
RTVSPost2010Prop28
280
     0
102
RTVSPost2010PropOp28
 70
     1
102
RTVSPost2010Prop29
280
     1
102
RTVSPost2010PropOp29
 70
     1
102
RTVSPost2010Prop30
280
     1
102
RTVSPost2010PropOp30
 70
     1
102
RTVSPost2010Prop31
280
     0
102
RTVSPost2010PropOp31
 70
     1
102
RTVSPost2010Prop32
280
     0
102
RTVSPost2010PropOp32
 70
     1
102
RTVSPost2010Prop33
280
     0
102
RTVSPost2010PropOp33
 70
     1
102
RTVSPost2010Prop34
280
     0
102
RTVSPost2010PropOp34
 70
     1
102
RTVSPost2010Prop35
280
     0
102
RTVSPost2010PropOp35
 70
     1
102
RTVSPost2010Prop36
280
     0
102
RTVSPost2010PropOp36
 70
     1
102
RTVSPost2010Prop37
 90
       50
102
RTVSPost2010PropOp37
 70
     1
102
RTVSPost2010Prop38
140
0.0
102
RTVSPost2010PropOp38
 70
     1
102
RTVSPost2010Prop39
140
1.0
102
RTVSPost2010PropOp39
 70
     1
102
RTVSPost2010Prop40
 90
        0
102
RTVSPost2010PropOp40
 70
     1
102
RTVSPost2010Prop41ColorIndex
 90
       18
102
RTVSPost2010Prop41ColorRGB
 90
        0
102
RTVSPost2010PropOp41
 70
     1
102
RTVSPost2010Prop42
 90
       50
102
RTVSPost2010PropOp42
 70
     1
102
RTVSPost2010Prop43
 90
        3
102
RTVSPost2010PropOp43
 70
     1
102
RTVSPost2010Prop44ColorIndex
 90
        5
102
RTVSPost2010Prop44ColorRGB
 90
      255
102
RTVSPost2010PropOp44
 70
     1
102
RTVSPost2010Prop45
280
     0
102
RTVSPost2010PropOp45
 70
     1
102
RTVSPost2010Prop46
 90
       50
102
RTVSPost2010PropOp46
 70
     1
102
RTVSPost2010Prop47
 90
       50
102
RTVSPost2010PropOp47
 70
     1
102
RTVSPost2010Prop48
 90
       50
102
RTVSPost2010PropOp48
 70
     1
102
RTVSPost2010Prop49
280
     0
102
RTVSPost2010PropOp49
 70
     1
102
RTVSPost2010Prop50
 90
       50
102
RTVSPost2010PropOp50
 70
     1
102
RTVSPost2010Prop51ColorIndex
 90
      256
102
RTVSPost2010Prop51ColorRGB
 90
-16777216
102
RTVSPost2010PropOp51
 70
     0
102
RTVSPost2010Prop52
140
1.0
102
RTVSPost2010PropOp52
 70
     0
102
RTVSPost2010Prop53
 90
        2
102
RTVSPost2010PropOp53
 70
     1
102
RTVSPost2010Prop54
  1
strokes_ogs.tif
102
RTVSPost2010PropOp54
 70
     1
102
RTVSPost2010Prop55
280
     0
102
RTVSPost2010PropOp55
 70
     1
102
RTVSPost2010Prop56
140
1.0
102
RTVSPost2010PropOp56
 70
     1
102
RTVSPost2010Prop57
140
1.0
102
RTVSPost2010PropOp57
 70
     1
102
RTVSPropertyOp0
 70
     1
102
RTVSPropertyOp1
 70
     1
102
RTVSPropertyOp2
 70
     1
102
RTVSPropertyOp3
 70
     1
102
RTVSPropertyOp4
 70
     1
102
RTVSPropertyOp5
 70
     1
102
RTVSPropertyOp6
 70
     1
102
RTVSPropertyOp7
 70
     1
102
RTVSPropertyOp8
 70
     1
102
RTVSPropertyOp9
 70
     1
102
RTVSPropertyOp10
 70
     1
102
RTVSPropertyOp11
 70
     1
102
RTVSPropertyOp12
 70
     1
102
RTVSPropertyOp13
 70
     1
102
RTVSPropertyOp14
 70
     1
102
RTVSPropertyOp15
 70
     1
102
RTVSPropertyOp16
 70
     1
102
RTVSPropertyOp17
 70
     1
102
RTVSPropertyOp18
 70
     1
102
RTVSPropertyOp19
 70
     1
102
RTVSPropertyOp20
 70
     1
102
RTVSPropertyOp21
 70
     1
102
RTVSPropertyOp22
 70
     1
102
RTVSPropertyOp23
 70
     1
102
RTVSPropertyOp24
 70
     1
102
RTVSPropertyOp25
 70
     1
102
RTVSPropertyOp26
 70
     1
102
RTVSPropertyOp27
 70
     1
102
RTVSPropertyOp28
 70
     1
102
RTVSPropertyOp29
 70
     1
102
RTVSPropertyOp30
 70
     1
102
RTVSPropertyOp31
 70
     1
102
RTVSPropertyOp32
 70
     1
102
RTVSPropertyOp33
 70
     1
102
RTVSPropertyOp34
 70
     1
102
RTVSPropertyOp35
 70
     1
102
RTVSPropertyOp36
 70
     1
102
RTVSPropertyOp37
 70
     1
102
RTVSPropertyOp38
 70
     1
102
RTVSPropertyOp39
 70
     1
102
RTVSPropertyOp40
 70
     1
102
RTVSPropertyOp41
 70
     1
102
RTVSPropertyOp42
 70
     1
102
RTVSPropertyOp43
 70
     1
102
RTVSPropertyOp44
 70
     1
102
RTVSPropertyOp45
 70
     1
102
RTVSPropertyOp46
 70
     1
102
RTVSPropertyOp47
 70
     1
102
RTVSPropertyOp48
 70
     1
102
RTVSPropertyOp49
 70
     1
102
RTVSPropertyOp50
 70
     1
102
RTVSPropertyOp51
 70
     0
102
RTVSPropertyOp52
 70
     0
102
RTVSPropertyOp53
 70
     1
102
RTVSPropertyOp54
 70
     1
102
RTVSPropertyOp55
 70
     1
102
RTVSPropertyOp56
 70
     1
102
RTVSPropertyOp57
 70
     1
102
RTVSPropertyOp58
 70
     1
102
RTVSPropertyOp59
 70
     1
102
RTVSPropertyOp60
 70
     1
102
RTVSPropertyOp61
 70
     1
102
RTVSPropertyOp62
 70
     1
  0
XRECORD
  5
8410
102
{ACAD_REACTORS
330
840F
102
}
330
840F
100
AcDbXrecord
280
     1
102
RTVSPost2010Prop28
280
     0
102
RTVSPost2010PropOp28
 70
     1
102
RTVSPost2010Prop29
280
     1
102
RTVSPost2010PropOp29
 70
     1
102
RTVSPost2010Prop30
280
     1
102
RTVSPost2010PropOp30
 70
     1
102
RTVSPost2010Prop31
280
     0
102
RTVSPost2010PropOp31
 70
     1
102
RTVSPost2010Prop32
280
     0
102
RTVSPost2010PropOp32
 70
     1
102
RTVSPost2010Prop33
280
     0
102
RTVSPost2010PropOp33
 70
     1
102
RTVSPost2010Prop34
280
     0
102
RTVSPost2010PropOp34
 70
     1
102
RTVSPost2010Prop35
280
     0
102
RTVSPost2010PropOp35
 70
     1
102
RTVSPost2010Prop36
280
     0
102
RTVSPost2010PropOp36
 70
     1
102
RTVSPost2010Prop37
 90
       50
102
RTVSPost2010PropOp37
 70
     1
102
RTVSPost2010Prop38
140
0.0
102
RTVSPost2010PropOp38
 70
     1
102
RTVSPost2010Prop39
140
1.0
102
RTVSPost2010PropOp39
 70
     1
102
RTVSPost2010Prop40
 90
        0
102
RTVSPost2010PropOp40
 70
     1
102
RTVSPost2010Prop41ColorIndex
 90
       18
102
RTVSPost2010Prop41ColorRGB
 90
        0
102
RTVSPost2010PropOp41
 70
     1
102
RTVSPost2010Prop42
 90
       50
102
RTVSPost2010PropOp42
 70
     1
102
RTVSPost2010Prop43
 90
        3
102
RTVSPost2010PropOp43
 70
     1
102
RTVSPost2010Prop44ColorIndex
 90
        5
102
RTVSPost2010Prop44ColorRGB
 90
      255
102
RTVSPost2010PropOp44
 70
     1
102
RTVSPost2010Prop45
280
     0
102
RTVSPost2010PropOp45
 70
     1
102
RTVSPost2010Prop46
 90
       50
102
RTVSPost2010PropOp46
 70
     1
102
RTVSPost2010Prop47
 90
       50
102
RTVSPost2010PropOp47
 70
     1
102
RTVSPost2010Prop48
 90
       50
102
RTVSPost2010PropOp48
 70
     1
102
RTVSPost2010Prop49
280
     0
102
RTVSPost2010PropOp49
 70
     1
102
RTVSPost2010Prop50
 90
       50
102
RTVSPost2010PropOp50
 70
     1
102
RTVSPost2010Prop51ColorIndex
 90
      256
102
RTVSPost2010Prop51ColorRGB
 90
-16777216
102
RTVSPost2010PropOp51
 70
     0
102
RTVSPost2010Prop52
140
1.0
102
RTVSPost2010PropOp52
 70
     0
102
RTVSPost2010Prop53
 90
        2
102
RTVSPost2010PropOp53
 70
     1
102
RTVSPost2010Prop54
  1
strokes_ogs.tif
102
RTVSPost2010PropOp54
 70
     1
102
RTVSPost2010Prop55
280
     0
102
RTVSPost2010PropOp55
 70
     1
102
RTVSPost2010Prop56
140
1.0
102
RTVSPost2010PropOp56
 70
     1
102
RTVSPost2010Prop57
140
1.0
102
RTVSPost2010PropOp57
 70
     1
102
RTVSPropertyOp0
 70
     1
102
RTVSPropertyOp1
 70
     1
102
RTVSPropertyOp2
 70
     1
102
RTVSPropertyOp3
 70
     1
102
RTVSPropertyOp4
 70
     1
102
RTVSPropertyOp5
 70
     1
102
RTVSPropertyOp6
 70
     1
102
RTVSPropertyOp7
 70
     1
102
RTVSPropertyOp8
 70
     1
102
RTVSPropertyOp9
 70
     1
102
RTVSPropertyOp10
 70
     1
102
RTVSPropertyOp11
 70
     1
102
RTVSPropertyOp12
 70
     1
102
RTVSPropertyOp13
 70
     1
102
RTVSPropertyOp14
 70
     1
102
RTVSPropertyOp15
 70
     1
102
RTVSPropertyOp16
 70
     1
102
RTVSPropertyOp17
 70
     1
102
RTVSPropertyOp18
 70
     1
102
RTVSPropertyOp19
 70
     1
102
RTVSPropertyOp20
 70
     1
102
RTVSPropertyOp21
 70
     1
102
RTVSPropertyOp22
 70
     1
102
RTVSPropertyOp23
 70
     1
102
RTVSPropertyOp24
 70
     1
102
RTVSPropertyOp25
 70
     1
102
RTVSPropertyOp26
 70
     1
102
RTVSPropertyOp27
 70
     1
102
RTVSPropertyOp28
 70
     1
102
RTVSPropertyOp29
 70
     1
102
RTVSPropertyOp30
 70
     1
102
RTVSPropertyOp31
 70
     1
102
RTVSPropertyOp32
 70
     1
102
RTVSPropertyOp33
 70
     1
102
RTVSPropertyOp34
 70
     1
102
RTVSPropertyOp35
 70
     1
102
RTVSPropertyOp36
 70
     1
102
RTVSPropertyOp37
 70
     1
102
RTVSPropertyOp38
 70
     1
102
RTVSPropertyOp39
 70
     1
102
RTVSPropertyOp40
 70
     1
102
RTVSPropertyOp41
 70
     1
102
RTVSPropertyOp42
 70
     1
102
RTVSPropertyOp43
 70
     1
102
RTVSPropertyOp44
 70
     1
102
RTVSPropertyOp45
 70
     1
102
RTVSPropertyOp46
 70
     1
102
RTVSPropertyOp47
 70
     1
102
RTVSPropertyOp48
 70
     1
102
RTVSPropertyOp49
 70
     1
102
RTVSPropertyOp50
 70
     1
102
RTVSPropertyOp51
 70
     0
102
RTVSPropertyOp52
 70
     0
102
RTVSPropertyOp53
 70
     1
102
RTVSPropertyOp54
 70
     1
102
RTVSPropertyOp55
 70
     1
102
RTVSPropertyOp56
 70
     1
102
RTVSPropertyOp57
 70
     1
102
RTVSPropertyOp58
 70
     1
102
RTVSPropertyOp59
 70
     1
102
RTVSPropertyOp60
 70
     1
102
RTVSPropertyOp61
 70
     1
102
RTVSPropertyOp62
 70
     1
  0
XRECORD
  5
8418
102
{ACAD_REACTORS
330
8417
102
}
330
8417
100
AcDbXrecord
280
     1
102
RTVSPost2010Prop28
280
     0
102
RTVSPost2010PropOp28
 70
     1
102
RTVSPost2010Prop29
280
     1
102
RTVSPost2010PropOp29
 70
     1
102
RTVSPost2010Prop30
280
     1
102
RTVSPost2010PropOp30
 70
     1
102
RTVSPost2010Prop31
280
     0
102
RTVSPost2010PropOp31
 70
     1
102
RTVSPost2010Prop32
280
     0
102
RTVSPost2010PropOp32
 70
     1
102
RTVSPost2010Prop33
280
     0
102
RTVSPost2010PropOp33
 70
     1
102
RTVSPost2010Prop34
280
     0
102
RTVSPost2010PropOp34
 70
     1
102
RTVSPost2010Prop35
280
     0
102
RTVSPost2010PropOp35
 70
     1
102
RTVSPost2010Prop36
280
     0
102
RTVSPost2010PropOp36
 70
     1
102
RTVSPost2010Prop37
 90
       50
102
RTVSPost2010PropOp37
 70
     1
102
RTVSPost2010Prop38
140
0.0
102
RTVSPost2010PropOp38
 70
     1
102
RTVSPost2010Prop39
140
1.0
102
RTVSPost2010PropOp39
 70
     1
102
RTVSPost2010Prop40
 90
        0
102
RTVSPost2010PropOp40
 70
     1
102
RTVSPost2010Prop41ColorIndex
 90
       18
102
RTVSPost2010Prop41ColorRGB
 90
        0
102
RTVSPost2010PropOp41
 70
     1
102
RTVSPost2010Prop42
 90
       50
102
RTVSPost2010PropOp42
 70
     1
102
RTVSPost2010Prop43
 90
        3
102
RTVSPost2010PropOp43
 70
     1
102
RTVSPost2010Prop44ColorIndex
 90
        5
102
RTVSPost2010Prop44ColorRGB
 90
      255
102
RTVSPost2010PropOp44
 70
     1
102
RTVSPost2010Prop45
280
     0
102
RTVSPost2010PropOp45
 70
     1
102
RTVSPost2010Prop46
 90
       50
102
RTVSPost2010PropOp46
 70
     1
102
RTVSPost2010Prop47
 90
       50
102
RTVSPost2010PropOp47
 70
     1
102
RTVSPost2010Prop48
 90
       50
102
RTVSPost2010PropOp48
 70
     1
102
RTVSPost2010Prop49
280
     0
102
RTVSPost2010PropOp49
 70
     1
102
RTVSPost2010Prop50
 90
       50
102
RTVSPost2010PropOp50
 70
     1
102
RTVSPost2010Prop51ColorIndex
 90
      256
102
RTVSPost2010Prop51ColorRGB
 90
-16777216
102
RTVSPost2010PropOp51
 70
     0
102
RTVSPost2010Prop52
140
1.0
102
RTVSPost2010PropOp52
 70
     0
102
RTVSPost2010Prop53
 90
        2
102
RTVSPost2010PropOp53
 70
     1
102
RTVSPost2010Prop54
  1
strokes_ogs.tif
102
RTVSPost2010PropOp54
 70
     1
102
RTVSPost2010Prop55
280
     0
102
RTVSPost2010PropOp55
 70
     1
102
RTVSPost2010Prop56
140
1.0
102
RTVSPost2010PropOp56
 70
     1
102
RTVSPost2010Prop57
140
1.0
102
RTVSPost2010PropOp57
 70
     1
102
RTVSPropertyOp0
 70
     1
102
RTVSPropertyOp1
 70
     1
102
RTVSPropertyOp2
 70
     1
102
RTVSPropertyOp3
 70
     1
102
RTVSPropertyOp4
 70
     1
102
RTVSPropertyOp5
 70
     1
102
RTVSPropertyOp6
 70
     1
102
RTVSPropertyOp7
 70
     1
102
RTVSPropertyOp8
 70
     1
102
RTVSPropertyOp9
 70
     1
102
RTVSPropertyOp10
 70
     1
102
RTVSPropertyOp11
 70
     1
102
RTVSPropertyOp12
 70
     1
102
RTVSPropertyOp13
 70
     1
102
RTVSPropertyOp14
 70
     1
102
RTVSPropertyOp15
 70
     1
102
RTVSPropertyOp16
 70
     1
102
RTVSPropertyOp17
 70
     1
102
RTVSPropertyOp18
 70
     1
102
RTVSPropertyOp19
 70
     1
102
RTVSPropertyOp20
 70
     1
102
RTVSPropertyOp21
 70
     1
102
RTVSPropertyOp22
 70
     1
102
RTVSPropertyOp23
 70
     1
102
RTVSPropertyOp24
 70
     1
102
RTVSPropertyOp25
 70
     1
102
RTVSPropertyOp26
 70
     1
102
RTVSPropertyOp27
 70
     1
102
RTVSPropertyOp28
 70
     1
102
RTVSPropertyOp29
 70
     1
102
RTVSPropertyOp30
 70
     1
102
RTVSPropertyOp31
 70
     1
102
RTVSPropertyOp32
 70
     1
102
RTVSPropertyOp33
 70
     1
102
RTVSPropertyOp34
 70
     1
102
RTVSPropertyOp35
 70
     1
102
RTVSPropertyOp36
 70
     1
102
RTVSPropertyOp37
 70
     1
102
RTVSPropertyOp38
 70
     1
102
RTVSPropertyOp39
 70
     1
102
RTVSPropertyOp40
 70
     1
102
RTVSPropertyOp41
 70
     1
102
RTVSPropertyOp42
 70
     1
102
RTVSPropertyOp43
 70
     1
102
RTVSPropertyOp44
 70
     1
102
RTVSPropertyOp45
 70
     1
102
RTVSPropertyOp46
 70
     1
102
RTVSPropertyOp47
 70
     1
102
RTVSPropertyOp48
 70
     1
102
RTVSPropertyOp49
 70
     1
102
RTVSPropertyOp50
 70
     1
102
RTVSPropertyOp51
 70
     0
102
RTVSPropertyOp52
 70
     0
102
RTVSPropertyOp53
 70
     1
102
RTVSPropertyOp54
 70
     1
102
RTVSPropertyOp55
 70
     1
102
RTVSPropertyOp56
 70
     1
102
RTVSPropertyOp57
 70
     1
102
RTVSPropertyOp58
 70
     1
102
RTVSPropertyOp59
 70
     1
102
RTVSPropertyOp60
 70
     1
102
RTVSPropertyOp61
 70
     1
102
RTVSPropertyOp62
 70
     1
  0
XRECORD
  5
8434
102
{ACAD_REACTORS
330
8433
102
}
330
8433
100
AcDbXrecord
280
     1
102
RTVSPost2010Prop28
280
     0
102
RTVSPost2010PropOp28
 70
     1
102
RTVSPost2010Prop29
280
     1
102
RTVSPost2010PropOp29
 70
     1
102
RTVSPost2010Prop30
280
     1
102
RTVSPost2010PropOp30
 70
     1
102
RTVSPost2010Prop31
280
     0
102
RTVSPost2010PropOp31
 70
     1
102
RTVSPost2010Prop32
280
     0
102
RTVSPost2010PropOp32
 70
     1
102
RTVSPost2010Prop33
280
     0
102
RTVSPost2010PropOp33
 70
     1
102
RTVSPost2010Prop34
280
     0
102
RTVSPost2010PropOp34
 70
     1
102
RTVSPost2010Prop35
280
     0
102
RTVSPost2010PropOp35
 70
     1
102
RTVSPost2010Prop36
280
     0
102
RTVSPost2010PropOp36
 70
     1
102
RTVSPost2010Prop37
 90
       50
102
RTVSPost2010PropOp37
 70
     0
102
RTVSPost2010Prop38
140
0.0
102
RTVSPost2010PropOp38
 70
     0
102
RTVSPost2010Prop39
140
1.0
102
RTVSPost2010PropOp39
 70
     0
102
RTVSPost2010Prop40
 90
        0
102
RTVSPost2010PropOp40
 70
     0
102
RTVSPost2010Prop41ColorIndex
 90
       18
102
RTVSPost2010Prop41ColorRGB
 90
        0
102
RTVSPost2010PropOp41
 70
     0
102
RTVSPost2010Prop42
 90
       50
102
RTVSPost2010PropOp42
 70
     0
102
RTVSPost2010Prop43
 90
        3
102
RTVSPost2010PropOp43
 70
     0
102
RTVSPost2010Prop44ColorIndex
 90
        5
102
RTVSPost2010Prop44ColorRGB
 90
      255
102
RTVSPost2010PropOp44
 70
     0
102
RTVSPost2010Prop45
280
     0
102
RTVSPost2010PropOp45
 70
     1
102
RTVSPost2010Prop46
 90
       50
102
RTVSPost2010PropOp46
 70
     0
102
RTVSPost2010Prop47
 90
       50
102
RTVSPost2010PropOp47
 70
     0
102
RTVSPost2010Prop48
 90
       50
102
RTVSPost2010PropOp48
 70
     0
102
RTVSPost2010Prop49
280
     0
102
RTVSPost2010PropOp49
 70
     1
102
RTVSPost2010Prop50
 90
       50
102
RTVSPost2010PropOp50
 70
     0
102
RTVSPost2010Prop51ColorIndex
 90
      256
102
RTVSPost2010Prop51ColorRGB
 90
-16777216
102
RTVSPost2010PropOp51
 70
     0
102
RTVSPost2010Prop52
140
1.0
102
RTVSPost2010PropOp52
 70
     0
102
RTVSPost2010Prop53
 90
        2
102
RTVSPost2010PropOp53
 70
     0
102
RTVSPost2010Prop54
  1
strokes_ogs.tif
102
RTVSPost2010PropOp54
 70
     0
102
RTVSPost2010Prop55
280
     0
102
RTVSPost2010PropOp55
 70
     1
102
RTVSPost2010Prop56
140
1.0
102
RTVSPost2010PropOp56
 70
     0
102
RTVSPost2010Prop57
140
1.0
102
RTVSPost2010PropOp57
 70
     0
102
RTVSPropertyOp0
 70
     0
102
RTVSPropertyOp1
 70
     0
102
RTVSPropertyOp2
 70
     0
102
RTVSPropertyOp3
 70
     0
102
RTVSPropertyOp4
 70
     0
102
RTVSPropertyOp5
 70
     0
102
RTVSPropertyOp6
 70
     0
102
RTVSPropertyOp7
 70
     0
102
RTVSPropertyOp8
 70
     0
102
RTVSPropertyOp9
 70
     0
102
RTVSPropertyOp10
 70
     0
102
RTVSPropertyOp11
 70
     0
102
RTVSPropertyOp12
 70
     0
102
RTVSPropertyOp13
 70
     0
102
RTVSPropertyOp14
 70
     2
102
RTVSPropertyOp15
 70
     0
102
RTVSPropertyOp16
 70
     0
102
RTVSPropertyOp17
 70
     0
102
RTVSPropertyOp18
 70
     0
102
RTVSPropertyOp19
 70
     0
102
RTVSPropertyOp20
 70
     0
102
RTVSPropertyOp21
 70
     0
102
RTVSPropertyOp22
 70
     0
102
RTVSPropertyOp23
 70
     0
102
RTVSPropertyOp24
 70
     0
102
RTVSPropertyOp25
 70
     0
102
RTVSPropertyOp26
 70
     0
102
RTVSPropertyOp27
 70
     0
102
RTVSPropertyOp28
 70
     1
102
RTVSPropertyOp29
 70
     1
102
RTVSPropertyOp30
 70
     1
102
RTVSPropertyOp31
 70
     1
102
RTVSPropertyOp32
 70
     1
102
RTVSPropertyOp33
 70
     1
102
RTVSPropertyOp34
 70
     1
102
RTVSPropertyOp35
 70
     1
102
RTVSPropertyOp36
 70
     1
102
RTVSPropertyOp37
 70
     0
102
RTVSPropertyOp38
 70
     0
102
RTVSPropertyOp39
 70
     0
102
RTVSPropertyOp40
 70
     0
102
RTVSPropertyOp41
 70
     0
102
RTVSPropertyOp42
 70
     0
102
RTVSPropertyOp43
 70
     0
102
RTVSPropertyOp44
 70
     0
102
RTVSPropertyOp45
 70
     1
102
RTVSPropertyOp46
 70
     0
102
RTVSPropertyOp47
 70
     0
102
RTVSPropertyOp48
 70
     0
102
RTVSPropertyOp49
 70
     1
102
RTVSPropertyOp50
 70
     0
102
RTVSPropertyOp51
 70
     0
102
RTVSPropertyOp52
 70
     0
102
RTVSPropertyOp53
 70
     0
102
RTVSPropertyOp54
 70
     0
102
RTVSPropertyOp55
 70
     1
102
RTVSPropertyOp56
 70
     0
102
RTVSPropertyOp57
 70
     0
102
RTVSPropertyOp58
 70
     0
102
RTVSPropertyOp59
 70
     0
102
RTVSPropertyOp60
 70
     0
102
RTVSPropertyOp61
 70
     0
102
RTVSPropertyOp62
 70
     0
  0
XRECORD
  5
8424
102
{ACAD_REACTORS
330
8423
102
}
330
8423
100
AcDbXrecord
280
     1
102
RTVSPost2010Prop28
280
     0
102
RTVSPost2010PropOp28
 70
     1
102
RTVSPost2010Prop29
280
     1
102
RTVSPost2010PropOp29
 70
     1
102
RTVSPost2010Prop30
280
     1
102
RTVSPost2010PropOp30
 70
     1
102
RTVSPost2010Prop31
280
     0
102
RTVSPost2010PropOp31
 70
     1
102
RTVSPost2010Prop32
280
     0
102
RTVSPost2010PropOp32
 70
     1
102
RTVSPost2010Prop33
280
     0
102
RTVSPost2010PropOp33
 70
     1
102
RTVSPost2010Prop34
280
     0
102
RTVSPost2010PropOp34
 70
     1
102
RTVSPost2010Prop35
280
     0
102
RTVSPost2010PropOp35
 70
     1
102
RTVSPost2010Prop36
280
     0
102
RTVSPost2010PropOp36
 70
     1
102
RTVSPost2010Prop37
 90
       50
102
RTVSPost2010PropOp37
 70
     1
102
RTVSPost2010Prop38
140
0.0
102
RTVSPost2010PropOp38
 70
     1
102
RTVSPost2010Prop39
140
1.0
102
RTVSPost2010PropOp39
 70
     1
102
RTVSPost2010Prop40
 90
        0
102
RTVSPost2010PropOp40
 70
     1
102
RTVSPost2010Prop41ColorIndex
 90
       18
102
RTVSPost2010Prop41ColorRGB
 90
        0
102
RTVSPost2010PropOp41
 70
     1
102
RTVSPost2010Prop42
 90
       50
102
RTVSPost2010PropOp42
 70
     1
102
RTVSPost2010Prop43
 90
        3
102
RTVSPost2010PropOp43
 70
     1
102
RTVSPost2010Prop44ColorIndex
 90
        5
102
RTVSPost2010Prop44ColorRGB
 90
      255
102
RTVSPost2010PropOp44
 70
     1
102
RTVSPost2010Prop45
280
     0
102
RTVSPost2010PropOp45
 70
     1
102
RTVSPost2010Prop46
 90
       50
102
RTVSPost2010PropOp46
 70
     1
102
RTVSPost2010Prop47
 90
       50
102
RTVSPost2010PropOp47
 70
     1
102
RTVSPost2010Prop48
 90
       50
102
RTVSPost2010PropOp48
 70
     1
102
RTVSPost2010Prop49
280
     0
102
RTVSPost2010PropOp49
 70
     1
102
RTVSPost2010Prop50
 90
       50
102
RTVSPost2010PropOp50
 70
     1
102
RTVSPost2010Prop51ColorIndex
 90
      256
102
RTVSPost2010Prop51ColorRGB
 90
-16777216
102
RTVSPost2010PropOp51
 70
     0
102
RTVSPost2010Prop52
140
1.0
102
RTVSPost2010PropOp52
 70
     0
102
RTVSPost2010Prop53
 90
        2
102
RTVSPost2010PropOp53
 70
     1
102
RTVSPost2010Prop54
  1
strokes_ogs.tif
102
RTVSPost2010PropOp54
 70
     1
102
RTVSPost2010Prop55
280
     0
102
RTVSPost2010PropOp55
 70
     1
102
RTVSPost2010Prop56
140
1.0
102
RTVSPost2010PropOp56
 70
     1
102
RTVSPost2010Prop57
140
1.0
102
RTVSPost2010PropOp57
 70
     1
102
RTVSPropertyOp0
 70
     1
102
RTVSPropertyOp1
 70
     1
102
RTVSPropertyOp2
 70
     1
102
RTVSPropertyOp3
 70
     1
102
RTVSPropertyOp4
 70
     1
102
RTVSPropertyOp5
 70
     1
102
RTVSPropertyOp6
 70
     1
102
RTVSPropertyOp7
 70
     1
102
RTVSPropertyOp8
 70
     1
102
RTVSPropertyOp9
 70
     1
102
RTVSPropertyOp10
 70
     1
102
RTVSPropertyOp11
 70
     1
102
RTVSPropertyOp12
 70
     1
102
RTVSPropertyOp13
 70
     1
102
RTVSPropertyOp14
 70
     1
102
RTVSPropertyOp15
 70
     1
102
RTVSPropertyOp16
 70
     1
102
RTVSPropertyOp17
 70
     1
102
RTVSPropertyOp18
 70
     1
102
RTVSPropertyOp19
 70
     1
102
RTVSPropertyOp20
 70
     1
102
RTVSPropertyOp21
 70
     1
102
RTVSPropertyOp22
 70
     1
102
RTVSPropertyOp23
 70
     1
102
RTVSPropertyOp24
 70
     1
102
RTVSPropertyOp25
 70
     1
102
RTVSPropertyOp26
 70
     1
102
RTVSPropertyOp27
 70
     1
102
RTVSPropertyOp28
 70
     1
102
RTVSPropertyOp29
 70
     1
102
RTVSPropertyOp30
 70
     1
102
RTVSPropertyOp31
 70
     1
102
RTVSPropertyOp32
 70
     1
102
RTVSPropertyOp33
 70
     1
102
RTVSPropertyOp34
 70
     1
102
RTVSPropertyOp35
 70
     1
102
RTVSPropertyOp36
 70
     1
102
RTVSPropertyOp37
 70
     1
102
RTVSPropertyOp38
 70
     1
102
RTVSPropertyOp39
 70
     1
102
RTVSPropertyOp40
 70
     1
102
RTVSPropertyOp41
 70
     1
102
RTVSPropertyOp42
 70
     1
102
RTVSPropertyOp43
 70
     1
102
RTVSPropertyOp44
 70
     1
102
RTVSPropertyOp45
 70
     1
102
RTVSPropertyOp46
 70
     1
102
RTVSPropertyOp47
 70
     1
102
RTVSPropertyOp48
 70
     1
102
RTVSPropertyOp49
 70
     1
102
RTVSPropertyOp50
 70
     1
102
RTVSPropertyOp51
 70
     0
102
RTVSPropertyOp52
 70
     0
102
RTVSPropertyOp53
 70
     1
102
RTVSPropertyOp54
 70
     1
102
RTVSPropertyOp55
 70
     1
102
RTVSPropertyOp56
 70
     1
102
RTVSPropertyOp57
 70
     1
102
RTVSPropertyOp58
 70
     1
102
RTVSPropertyOp59
 70
     1
102
RTVSPropertyOp60
 70
     1
102
RTVSPropertyOp61
 70
     1
102
RTVSPropertyOp62
 70
     1
  0
XRECORD
  5
8436
102
{ACAD_REACTORS
330
8435
102
}
330
8435
100
AcDbXrecord
280
     1
102
RTVSPost2010Prop28
280
     0
102
RTVSPost2010PropOp28
 70
     1
102
RTVSPost2010Prop29
280
     1
102
RTVSPost2010PropOp29
 70
     1
102
RTVSPost2010Prop30
280
     1
102
RTVSPost2010PropOp30
 70
     1
102
RTVSPost2010Prop31
280
     0
102
RTVSPost2010PropOp31
 70
     1
102
RTVSPost2010Prop32
280
     0
102
RTVSPost2010PropOp32
 70
     1
102
RTVSPost2010Prop33
280
     0
102
RTVSPost2010PropOp33
 70
     1
102
RTVSPost2010Prop34
280
     0
102
RTVSPost2010PropOp34
 70
     1
102
RTVSPost2010Prop35
280
     0
102
RTVSPost2010PropOp35
 70
     1
102
RTVSPost2010Prop36
280
     0
102
RTVSPost2010PropOp36
 70
     1
102
RTVSPost2010Prop37
 90
       50
102
RTVSPost2010PropOp37
 70
     0
102
RTVSPost2010Prop38
140
0.0
102
RTVSPost2010PropOp38
 70
     0
102
RTVSPost2010Prop39
140
1.0
102
RTVSPost2010PropOp39
 70
     0
102
RTVSPost2010Prop40
 90
        0
102
RTVSPost2010PropOp40
 70
     0
102
RTVSPost2010Prop41ColorIndex
 90
       18
102
RTVSPost2010Prop41ColorRGB
 90
        0
102
RTVSPost2010PropOp41
 70
     0
102
RTVSPost2010Prop42
 90
       50
102
RTVSPost2010PropOp42
 70
     0
102
RTVSPost2010Prop43
 90
        3
102
RTVSPost2010PropOp43
 70
     0
102
RTVSPost2010Prop44ColorIndex
 90
        5
102
RTVSPost2010Prop44ColorRGB
 90
      255
102
RTVSPost2010PropOp44
 70
     0
102
RTVSPost2010Prop45
280
     0
102
RTVSPost2010PropOp45
 70
     1
102
RTVSPost2010Prop46
 90
       50
102
RTVSPost2010PropOp46
 70
     0
102
RTVSPost2010Prop47
 90
       50
102
RTVSPost2010PropOp47
 70
     0
102
RTVSPost2010Prop48
 90
       50
102
RTVSPost2010PropOp48
 70
     0
102
RTVSPost2010Prop49
280
     0
102
RTVSPost2010PropOp49
 70
     1
102
RTVSPost2010Prop50
 90
       50
102
RTVSPost2010PropOp50
 70
     0
102
RTVSPost2010Prop51ColorIndex
 90
      256
102
RTVSPost2010Prop51ColorRGB
 90
-16777216
102
RTVSPost2010PropOp51
 70
     0
102
RTVSPost2010Prop52
140
1.0
102
RTVSPost2010PropOp52
 70
     0
102
RTVSPost2010Prop53
 90
        2
102
RTVSPost2010PropOp53
 70
     0
102
RTVSPost2010Prop54
  1
strokes_ogs.tif
102
RTVSPost2010PropOp54
 70
     0
102
RTVSPost2010Prop55
280
     0
102
RTVSPost2010PropOp55
 70
     1
102
RTVSPost2010Prop56
140
1.0
102
RTVSPost2010PropOp56
 70
     0
102
RTVSPost2010Prop57
140
1.0
102
RTVSPost2010PropOp57
 70
     0
102
RTVSPropertyOp0
 70
     0
102
RTVSPropertyOp1
 70
     0
102
RTVSPropertyOp2
 70
     0
102
RTVSPropertyOp3
 70
     0
102
RTVSPropertyOp4
 70
     0
102
RTVSPropertyOp5
 70
     0
102
RTVSPropertyOp6
 70
     0
102
RTVSPropertyOp7
 70
     0
102
RTVSPropertyOp8
 70
     0
102
RTVSPropertyOp9
 70
     0
102
RTVSPropertyOp10
 70
     0
102
RTVSPropertyOp11
 70
     0
102
RTVSPropertyOp12
 70
     0
102
RTVSPropertyOp13
 70
     0
102
RTVSPropertyOp14
 70
     2
102
RTVSPropertyOp15
 70
     0
102
RTVSPropertyOp16
 70
     0
102
RTVSPropertyOp17
 70
     0
102
RTVSPropertyOp18
 70
     0
102
RTVSPropertyOp19
 70
     0
102
RTVSPropertyOp20
 70
     0
102
RTVSPropertyOp21
 70
     0
102
RTVSPropertyOp22
 70
     0
102
RTVSPropertyOp23
 70
     0
102
RTVSPropertyOp24
 70
     0
102
RTVSPropertyOp25
 70
     0
102
RTVSPropertyOp26
 70
     0
102
RTVSPropertyOp27
 70
     0
102
RTVSPropertyOp28
 70
     1
102
RTVSPropertyOp29
 70
     1
102
RTVSPropertyOp30
 70
     1
102
RTVSPropertyOp31
 70
     1
102
RTVSPropertyOp32
 70
     1
102
RTVSPropertyOp33
 70
     1
102
RTVSPropertyOp34
 70
     1
102
RTVSPropertyOp35
 70
     1
102
RTVSPropertyOp36
 70
     1
102
RTVSPropertyOp37
 70
     0
102
RTVSPropertyOp38
 70
     0
102
RTVSPropertyOp39
 70
     0
102
RTVSPropertyOp40
 70
     0
102
RTVSPropertyOp41
 70
     0
102
RTVSPropertyOp42
 70
     0
102
RTVSPropertyOp43
 70
     0
102
RTVSPropertyOp44
 70
     0
102
RTVSPropertyOp45
 70
     1
102
RTVSPropertyOp46
 70
     0
102
RTVSPropertyOp47
 70
     0
102
RTVSPropertyOp48
 70
     0
102
RTVSPropertyOp49
 70
     1
102
RTVSPropertyOp50
 70
     0
102
RTVSPropertyOp51
 70
     0
102
RTVSPropertyOp52
 70
     0
102
RTVSPropertyOp53
 70
     0
102
RTVSPropertyOp54
 70
     0
102
RTVSPropertyOp55
 70
     1
102
RTVSPropertyOp56
 70
     0
102
RTVSPropertyOp57
 70
     0
102
RTVSPropertyOp58
 70
     0
102
RTVSPropertyOp59
 70
     0
102
RTVSPropertyOp60
 70
     0
102
RTVSPropertyOp61
 70
     0
102
RTVSPropertyOp62
 70
     0
  0
XRECORD
  5
841C
102
{ACAD_REACTORS
330
841B
102
}
330
841B
100
AcDbXrecord
280
     1
102
RTVSPost2010Prop28
280
     0
102
RTVSPost2010PropOp28
 70
     1
102
RTVSPost2010Prop29
280
     1
102
RTVSPost2010PropOp29
 70
     1
102
RTVSPost2010Prop30
280
     1
102
RTVSPost2010PropOp30
 70
     1
102
RTVSPost2010Prop31
280
     0
102
RTVSPost2010PropOp31
 70
     1
102
RTVSPost2010Prop32
280
     0
102
RTVSPost2010PropOp32
 70
     1
102
RTVSPost2010Prop33
280
     0
102
RTVSPost2010PropOp33
 70
     1
102
RTVSPost2010Prop34
280
     0
102
RTVSPost2010PropOp34
 70
     1
102
RTVSPost2010Prop35
280
     0
102
RTVSPost2010PropOp35
 70
     1
102
RTVSPost2010Prop36
280
     0
102
RTVSPost2010PropOp36
 70
     1
102
RTVSPost2010Prop37
 90
       50
102
RTVSPost2010PropOp37
 70
     1
102
RTVSPost2010Prop38
140
0.0
102
RTVSPost2010PropOp38
 70
     1
102
RTVSPost2010Prop39
140
1.0
102
RTVSPost2010PropOp39
 70
     1
102
RTVSPost2010Prop40
 90
        0
102
RTVSPost2010PropOp40
 70
     1
102
RTVSPost2010Prop41ColorIndex
 90
       18
102
RTVSPost2010Prop41ColorRGB
 90
        0
102
RTVSPost2010PropOp41
 70
     1
102
RTVSPost2010Prop42
 90
       50
102
RTVSPost2010PropOp42
 70
     1
102
RTVSPost2010Prop43
 90
        3
102
RTVSPost2010PropOp43
 70
     1
102
RTVSPost2010Prop44ColorIndex
 90
        5
102
RTVSPost2010Prop44ColorRGB
 90
      255
102
RTVSPost2010PropOp44
 70
     1
102
RTVSPost2010Prop45
280
     0
102
RTVSPost2010PropOp45
 70
     1
102
RTVSPost2010Prop46
 90
       50
102
RTVSPost2010PropOp46
 70
     1
102
RTVSPost2010Prop47
 90
       50
102
RTVSPost2010PropOp47
 70
     1
102
RTVSPost2010Prop48
 90
       50
102
RTVSPost2010PropOp48
 70
     1
102
RTVSPost2010Prop49
280
     0
102
RTVSPost2010PropOp49
 70
     1
102
RTVSPost2010Prop50
 90
       50
102
RTVSPost2010PropOp50
 70
     1
102
RTVSPost2010Prop51ColorIndex
 90
      256
102
RTVSPost2010Prop51ColorRGB
 90
-16777216
102
RTVSPost2010PropOp51
 70
     0
102
RTVSPost2010Prop52
140
1.0
102
RTVSPost2010PropOp52
 70
     0
102
RTVSPost2010Prop53
 90
        2
102
RTVSPost2010PropOp53
 70
     1
102
RTVSPost2010Prop54
  1
strokes_ogs.tif
102
RTVSPost2010PropOp54
 70
     1
102
RTVSPost2010Prop55
280
     0
102
RTVSPost2010PropOp55
 70
     1
102
RTVSPost2010Prop56
140
1.0
102
RTVSPost2010PropOp56
 70
     1
102
RTVSPost2010Prop57
140
1.0
102
RTVSPost2010PropOp57
 70
     1
102
RTVSPropertyOp0
 70
     1
102
RTVSPropertyOp1
 70
     1
102
RTVSPropertyOp2
 70
     1
102
RTVSPropertyOp3
 70
     1
102
RTVSPropertyOp4
 70
     1
102
RTVSPropertyOp5
 70
     1
102
RTVSPropertyOp6
 70
     1
102
RTVSPropertyOp7
 70
     1
102
RTVSPropertyOp8
 70
     1
102
RTVSPropertyOp9
 70
     1
102
RTVSPropertyOp10
 70
     1
102
RTVSPropertyOp11
 70
     1
102
RTVSPropertyOp12
 70
     1
102
RTVSPropertyOp13
 70
     1
102
RTVSPropertyOp14
 70
     1
102
RTVSPropertyOp15
 70
     1
102
RTVSPropertyOp16
 70
     1
102
RTVSPropertyOp17
 70
     1
102
RTVSPropertyOp18
 70
     1
102
RTVSPropertyOp19
 70
     1
102
RTVSPropertyOp20
 70
     1
102
RTVSPropertyOp21
 70
     1
102
RTVSPropertyOp22
 70
     1
102
RTVSPropertyOp23
 70
     1
102
RTVSPropertyOp24
 70
     1
102
RTVSPropertyOp25
 70
     1
102
RTVSPropertyOp26
 70
     1
102
RTVSPropertyOp27
 70
     1
102
RTVSPropertyOp28
 70
     1
102
RTVSPropertyOp29
 70
     1
102
RTVSPropertyOp30
 70
     1
102
RTVSPropertyOp31
 70
     1
102
RTVSPropertyOp32
 70
     1
102
RTVSPropertyOp33
 70
     1
102
RTVSPropertyOp34
 70
     1
102
RTVSPropertyOp35
 70
     1
102
RTVSPropertyOp36
 70
     1
102
RTVSPropertyOp37
 70
     1
102
RTVSPropertyOp38
 70
     1
102
RTVSPropertyOp39
 70
     1
102
RTVSPropertyOp40
 70
     1
102
RTVSPropertyOp41
 70
     1
102
RTVSPropertyOp42
 70
     1
102
RTVSPropertyOp43
 70
     1
102
RTVSPropertyOp44
 70
     1
102
RTVSPropertyOp45
 70
     1
102
RTVSPropertyOp46
 70
     1
102
RTVSPropertyOp47
 70
     1
102
RTVSPropertyOp48
 70
     1
102
RTVSPropertyOp49
 70
     1
102
RTVSPropertyOp50
 70
     1
102
RTVSPropertyOp51
 70
     0
102
RTVSPropertyOp52
 70
     0
102
RTVSPropertyOp53
 70
     1
102
RTVSPropertyOp54
 70
     1
102
RTVSPropertyOp55
 70
     1
102
RTVSPropertyOp56
 70
     1
102
RTVSPropertyOp57
 70
     1
102
RTVSPropertyOp58
 70
     1
102
RTVSPropertyOp59
 70
     1
102
RTVSPropertyOp60
 70
     1
102
RTVSPropertyOp61
 70
     1
102
RTVSPropertyOp62
 70
     1
  0
XRECORD
  5
8432
102
{ACAD_REACTORS
330
8431
102
}
330
8431
100
AcDbXrecord
280
     1
102
RTVSPost2010Prop28
280
     0
102
RTVSPost2010PropOp28
 70
     1
102
RTVSPost2010Prop29
280
     1
102
RTVSPost2010PropOp29
 70
     1
102
RTVSPost2010Prop30
280
     1
102
RTVSPost2010PropOp30
 70
     1
102
RTVSPost2010Prop31
280
     0
102
RTVSPost2010PropOp31
 70
     1
102
RTVSPost2010Prop32
280
     0
102
RTVSPost2010PropOp32
 70
     1
102
RTVSPost2010Prop33
280
     0
102
RTVSPost2010PropOp33
 70
     1
102
RTVSPost2010Prop34
280
     0
102
RTVSPost2010PropOp34
 70
     1
102
RTVSPost2010Prop35
280
     0
102
RTVSPost2010PropOp35
 70
     1
102
RTVSPost2010Prop36
280
     0
102
RTVSPost2010PropOp36
 70
     1
102
RTVSPost2010Prop37
 90
       50
102
RTVSPost2010PropOp37
 70
     1
102
RTVSPost2010Prop38
140
0.0
102
RTVSPost2010PropOp38
 70
     1
102
RTVSPost2010Prop39
140
1.0
102
RTVSPost2010PropOp39
 70
     1
102
RTVSPost2010Prop40
 90
        0
102
RTVSPost2010PropOp40
 70
     1
102
RTVSPost2010Prop41ColorIndex
 90
       18
102
RTVSPost2010Prop41ColorRGB
 90
        0
102
RTVSPost2010PropOp41
 70
     1
102
RTVSPost2010Prop42
 90
       50
102
RTVSPost2010PropOp42
 70
     1
102
RTVSPost2010Prop43
 90
        3
102
RTVSPost2010PropOp43
 70
     1
102
RTVSPost2010Prop44ColorIndex
 90
        5
102
RTVSPost2010Prop44ColorRGB
 90
      255
102
RTVSPost2010PropOp44
 70
     1
102
RTVSPost2010Prop45
280
     0
102
RTVSPost2010PropOp45
 70
     1
102
RTVSPost2010Prop46
 90
       50
102
RTVSPost2010PropOp46
 70
     1
102
RTVSPost2010Prop47
 90
       50
102
RTVSPost2010PropOp47
 70
     1
102
RTVSPost2010Prop48
 90
       50
102
RTVSPost2010PropOp48
 70
     1
102
RTVSPost2010Prop49
280
     0
102
RTVSPost2010PropOp49
 70
     1
102
RTVSPost2010Prop50
 90
       50
102
RTVSPost2010PropOp50
 70
     1
102
RTVSPost2010Prop51ColorIndex
 90
      256
102
RTVSPost2010Prop51ColorRGB
 90
-16777216
102
RTVSPost2010PropOp51
 70
     0
102
RTVSPost2010Prop52
140
1.0
102
RTVSPost2010PropOp52
 70
     0
102
RTVSPost2010Prop53
 90
        2
102
RTVSPost2010PropOp53
 70
     1
102
RTVSPost2010Prop54
  1
strokes_ogs.tif
102
RTVSPost2010PropOp54
 70
     1
102
RTVSPost2010Prop55
280
     0
102
RTVSPost2010PropOp55
 70
     1
102
RTVSPost2010Prop56
140
1.0
102
RTVSPost2010PropOp56
 70
     1
102
RTVSPost2010Prop57
140
1.0
102
RTVSPost2010PropOp57
 70
     1
102
RTVSPropertyOp0
 70
     1
102
RTVSPropertyOp1
 70
     1
102
RTVSPropertyOp2
 70
     1
102
RTVSPropertyOp3
 70
     1
102
RTVSPropertyOp4
 70
     1
102
RTVSPropertyOp5
 70
     1
102
RTVSPropertyOp6
 70
     1
102
RTVSPropertyOp7
 70
     1
102
RTVSPropertyOp8
 70
     1
102
RTVSPropertyOp9
 70
     1
102
RTVSPropertyOp10
 70
     1
102
RTVSPropertyOp11
 70
     1
102
RTVSPropertyOp12
 70
     1
102
RTVSPropertyOp13
 70
     1
102
RTVSPropertyOp14
 70
     1
102
RTVSPropertyOp15
 70
     1
102
RTVSPropertyOp16
 70
     1
102
RTVSPropertyOp17
 70
     1
102
RTVSPropertyOp18
 70
     1
102
RTVSPropertyOp19
 70
     1
102
RTVSPropertyOp20
 70
     1
102
RTVSPropertyOp21
 70
     1
102
RTVSPropertyOp22
 70
     1
102
RTVSPropertyOp23
 70
     1
102
RTVSPropertyOp24
 70
     1
102
RTVSPropertyOp25
 70
     1
102
RTVSPropertyOp26
 70
     1
102
RTVSPropertyOp27
 70
     1
102
RTVSPropertyOp28
 70
     1
102
RTVSPropertyOp29
 70
     1
102
RTVSPropertyOp30
 70
     1
102
RTVSPropertyOp31
 70
     1
102
RTVSPropertyOp32
 70
     1
102
RTVSPropertyOp33
 70
     1
102
RTVSPropertyOp34
 70
     1
102
RTVSPropertyOp35
 70
     1
102
RTVSPropertyOp36
 70
     1
102
RTVSPropertyOp37
 70
     1
102
RTVSPropertyOp38
 70
     1
102
RTVSPropertyOp39
 70
     1
102
RTVSPropertyOp40
 70
     1
102
RTVSPropertyOp41
 70
     1
102
RTVSPropertyOp42
 70
     1
102
RTVSPropertyOp43
 70
     1
102
RTVSPropertyOp44
 70
     1
102
RTVSPropertyOp45
 70
     1
102
RTVSPropertyOp46
 70
     1
102
RTVSPropertyOp47
 70
     1
102
RTVSPropertyOp48
 70
     1
102
RTVSPropertyOp49
 70
     1
102
RTVSPropertyOp50
 70
     1
102
RTVSPropertyOp51
 70
     0
102
RTVSPropertyOp52
 70
     0
102
RTVSPropertyOp53
 70
     1
102
RTVSPropertyOp54
 70
     1
102
RTVSPropertyOp55
 70
     1
102
RTVSPropertyOp56
 70
     1
102
RTVSPropertyOp57
 70
     1
102
RTVSPropertyOp58
 70
     1
102
RTVSPropertyOp59
 70
     1
102
RTVSPropertyOp60
 70
     1
102
RTVSPropertyOp61
 70
     1
102
RTVSPropertyOp62
 70
     1
  0
XRECORD
  5
8430
102
{ACAD_REACTORS
330
842F
102
}
330
842F
100
AcDbXrecord
280
     1
102
RTVSPost2010Prop28
280
     0
102
RTVSPost2010PropOp28
 70
     1
102
RTVSPost2010Prop29
280
     1
102
RTVSPost2010PropOp29
 70
     1
102
RTVSPost2010Prop30
280
     1
102
RTVSPost2010PropOp30
 70
     1
102
RTVSPost2010Prop31
280
     0
102
RTVSPost2010PropOp31
 70
     1
102
RTVSPost2010Prop32
280
     0
102
RTVSPost2010PropOp32
 70
     1
102
RTVSPost2010Prop33
280
     0
102
RTVSPost2010PropOp33
 70
     1
102
RTVSPost2010Prop34
280
     0
102
RTVSPost2010PropOp34
 70
     1
102
RTVSPost2010Prop35
280
     0
102
RTVSPost2010PropOp35
 70
     1
102
RTVSPost2010Prop36
280
     0
102
RTVSPost2010PropOp36
 70
     1
102
RTVSPost2010Prop37
 90
       50
102
RTVSPost2010PropOp37
 70
     1
102
RTVSPost2010Prop38
140
0.0
102
RTVSPost2010PropOp38
 70
     1
102
RTVSPost2010Prop39
140
1.0
102
RTVSPost2010PropOp39
 70
     1
102
RTVSPost2010Prop40
 90
        0
102
RTVSPost2010PropOp40
 70
     1
102
RTVSPost2010Prop41ColorIndex
 90
       18
102
RTVSPost2010Prop41ColorRGB
 90
        0
102
RTVSPost2010PropOp41
 70
     1
102
RTVSPost2010Prop42
 90
       50
102
RTVSPost2010PropOp42
 70
     1
102
RTVSPost2010Prop43
 90
        3
102
RTVSPost2010PropOp43
 70
     1
102
RTVSPost2010Prop44ColorIndex
 90
        5
102
RTVSPost2010Prop44ColorRGB
 90
      255
102
RTVSPost2010PropOp44
 70
     1
102
RTVSPost2010Prop45
280
     0
102
RTVSPost2010PropOp45
 70
     1
102
RTVSPost2010Prop46
 90
       50
102
RTVSPost2010PropOp46
 70
     1
102
RTVSPost2010Prop47
 90
       50
102
RTVSPost2010PropOp47
 70
     1
102
RTVSPost2010Prop48
 90
       50
102
RTVSPost2010PropOp48
 70
     1
102
RTVSPost2010Prop49
280
     0
102
RTVSPost2010PropOp49
 70
     1
102
RTVSPost2010Prop50
 90
       50
102
RTVSPost2010PropOp50
 70
     1
102
RTVSPost2010Prop51ColorIndex
 90
      256
102
RTVSPost2010Prop51ColorRGB
 90
-16777216
102
RTVSPost2010PropOp51
 70
     0
102
RTVSPost2010Prop52
140
1.0
102
RTVSPost2010PropOp52
 70
     0
102
RTVSPost2010Prop53
 90
        2
102
RTVSPost2010PropOp53
 70
     1
102
RTVSPost2010Prop54
  1
strokes_ogs.tif
102
RTVSPost2010PropOp54
 70
     1
102
RTVSPost2010Prop55
280
     0
102
RTVSPost2010PropOp55
 70
     1
102
RTVSPost2010Prop56
140
1.0
102
RTVSPost2010PropOp56
 70
     1
102
RTVSPost2010Prop57
140
1.0
102
RTVSPost2010PropOp57
 70
     1
102
RTVSPropertyOp0
 70
     1
102
RTVSPropertyOp1
 70
     1
102
RTVSPropertyOp2
 70
     1
102
RTVSPropertyOp3
 70
     1
102
RTVSPropertyOp4
 70
     1
102
RTVSPropertyOp5
 70
     1
102
RTVSPropertyOp6
 70
     1
102
RTVSPropertyOp7
 70
     1
102
RTVSPropertyOp8
 70
     1
102
RTVSPropertyOp9
 70
     1
102
RTVSPropertyOp10
 70
     1
102
RTVSPropertyOp11
 70
     1
102
RTVSPropertyOp12
 70
     1
102
RTVSPropertyOp13
 70
     1
102
RTVSPropertyOp14
 70
     1
102
RTVSPropertyOp15
 70
     1
102
RTVSPropertyOp16
 70
     1
102
RTVSPropertyOp17
 70
     1
102
RTVSPropertyOp18
 70
     1
102
RTVSPropertyOp19
 70
     1
102
RTVSPropertyOp20
 70
     1
102
RTVSPropertyOp21
 70
     1
102
RTVSPropertyOp22
 70
     1
102
RTVSPropertyOp23
 70
     1
102
RTVSPropertyOp24
 70
     1
102
RTVSPropertyOp25
 70
     1
102
RTVSPropertyOp26
 70
     1
102
RTVSPropertyOp27
 70
     1
102
RTVSPropertyOp28
 70
     1
102
RTVSPropertyOp29
 70
     1
102
RTVSPropertyOp30
 70
     1
102
RTVSPropertyOp31
 70
     1
102
RTVSPropertyOp32
 70
     1
102
RTVSPropertyOp33
 70
     1
102
RTVSPropertyOp34
 70
     1
102
RTVSPropertyOp35
 70
     1
102
RTVSPropertyOp36
 70
     1
102
RTVSPropertyOp37
 70
     1
102
RTVSPropertyOp38
 70
     1
102
RTVSPropertyOp39
 70
     1
102
RTVSPropertyOp40
 70
     1
102
RTVSPropertyOp41
 70
     1
102
RTVSPropertyOp42
 70
     1
102
RTVSPropertyOp43
 70
     1
102
RTVSPropertyOp44
 70
     1
102
RTVSPropertyOp45
 70
     1
102
RTVSPropertyOp46
 70
     1
102
RTVSPropertyOp47
 70
     1
102
RTVSPropertyOp48
 70
     1
102
RTVSPropertyOp49
 70
     1
102
RTVSPropertyOp50
 70
     1
102
RTVSPropertyOp51
 70
     0
102
RTVSPropertyOp52
 70
     0
102
RTVSPropertyOp53
 70
     1
102
RTVSPropertyOp54
 70
     1
102
RTVSPropertyOp55
 70
     1
102
RTVSPropertyOp56
 70
     1
102
RTVSPropertyOp57
 70
     1
102
RTVSPropertyOp58
 70
     1
102
RTVSPropertyOp59
 70
     1
102
RTVSPropertyOp60
 70
     1
102
RTVSPropertyOp61
 70
     1
102
RTVSPropertyOp62
 70
     1
  0
XRECORD
  5
842A
102
{ACAD_REACTORS
330
8429
102
}
330
8429
100
AcDbXrecord
280
     1
102
RTVSPost2010Prop28
280
     0
102
RTVSPost2010PropOp28
 70
     1
102
RTVSPost2010Prop29
280
     1
102
RTVSPost2010PropOp29
 70
     1
102
RTVSPost2010Prop30
280
     1
102
RTVSPost2010PropOp30
 70
     1
102
RTVSPost2010Prop31
280
     0
102
RTVSPost2010PropOp31
 70
     1
102
RTVSPost2010Prop32
280
     0
102
RTVSPost2010PropOp32
 70
     1
102
RTVSPost2010Prop33
280
     0
102
RTVSPost2010PropOp33
 70
     1
102
RTVSPost2010Prop34
280
     0
102
RTVSPost2010PropOp34
 70
     1
102
RTVSPost2010Prop35
280
     0
102
RTVSPost2010PropOp35
 70
     1
102
RTVSPost2010Prop36
280
     0
102
RTVSPost2010PropOp36
 70
     1
102
RTVSPost2010Prop37
 90
       50
102
RTVSPost2010PropOp37
 70
     1
102
RTVSPost2010Prop38
140
0.0
102
RTVSPost2010PropOp38
 70
     1
102
RTVSPost2010Prop39
140
1.0
102
RTVSPost2010PropOp39
 70
     1
102
RTVSPost2010Prop40
 90
        0
102
RTVSPost2010PropOp40
 70
     1
102
RTVSPost2010Prop41ColorIndex
 90
       18
102
RTVSPost2010Prop41ColorRGB
 90
        0
102
RTVSPost2010PropOp41
 70
     1
102
RTVSPost2010Prop42
 90
       50
102
RTVSPost2010PropOp42
 70
     1
102
RTVSPost2010Prop43
 90
        3
102
RTVSPost2010PropOp43
 70
     1
102
RTVSPost2010Prop44ColorIndex
 90
        5
102
RTVSPost2010Prop44ColorRGB
 90
      255
102
RTVSPost2010PropOp44
 70
     1
102
RTVSPost2010Prop45
280
     0
102
RTVSPost2010PropOp45
 70
     1
102
RTVSPost2010Prop46
 90
       50
102
RTVSPost2010PropOp46
 70
     1
102
RTVSPost2010Prop47
 90
       50
102
RTVSPost2010PropOp47
 70
     1
102
RTVSPost2010Prop48
 90
       50
102
RTVSPost2010PropOp48
 70
     1
102
RTVSPost2010Prop49
280
     0
102
RTVSPost2010PropOp49
 70
     1
102
RTVSPost2010Prop50
 90
       50
102
RTVSPost2010PropOp50
 70
     1
102
RTVSPost2010Prop51ColorIndex
 90
      256
102
RTVSPost2010Prop51ColorRGB
 90
-16777216
102
RTVSPost2010PropOp51
 70
     0
102
RTVSPost2010Prop52
140
1.0
102
RTVSPost2010PropOp52
 70
     0
102
RTVSPost2010Prop53
 90
        2
102
RTVSPost2010PropOp53
 70
     1
102
RTVSPost2010Prop54
  1
strokes_ogs.tif
102
RTVSPost2010PropOp54
 70
     1
102
RTVSPost2010Prop55
280
     0
102
RTVSPost2010PropOp55
 70
     1
102
RTVSPost2010Prop56
140
1.0
102
RTVSPost2010PropOp56
 70
     1
102
RTVSPost2010Prop57
140
1.0
102
RTVSPost2010PropOp57
 70
     1
102
RTVSPropertyOp0
 70
     1
102
RTVSPropertyOp1
 70
     1
102
RTVSPropertyOp2
 70
     1
102
RTVSPropertyOp3
 70
     1
102
RTVSPropertyOp4
 70
     1
102
RTVSPropertyOp5
 70
     1
102
RTVSPropertyOp6
 70
     1
102
RTVSPropertyOp7
 70
     1
102
RTVSPropertyOp8
 70
     1
102
RTVSPropertyOp9
 70
     1
102
RTVSPropertyOp10
 70
     1
102
RTVSPropertyOp11
 70
     1
102
RTVSPropertyOp12
 70
     1
102
RTVSPropertyOp13
 70
     1
102
RTVSPropertyOp14
 70
     1
102
RTVSPropertyOp15
 70
     1
102
RTVSPropertyOp16
 70
     1
102
RTVSPropertyOp17
 70
     1
102
RTVSPropertyOp18
 70
     1
102
RTVSPropertyOp19
 70
     1
102
RTVSPropertyOp20
 70
     1
102
RTVSPropertyOp21
 70
     1
102
RTVSPropertyOp22
 70
     1
102
RTVSPropertyOp23
 70
     1
102
RTVSPropertyOp24
 70
     1
102
RTVSPropertyOp25
 70
     1
102
RTVSPropertyOp26
 70
     1
102
RTVSPropertyOp27
 70
     1
102
RTVSPropertyOp28
 70
     1
102
RTVSPropertyOp29
 70
     1
102
RTVSPropertyOp30
 70
     1
102
RTVSPropertyOp31
 70
     1
102
RTVSPropertyOp32
 70
     1
102
RTVSPropertyOp33
 70
     1
102
RTVSPropertyOp34
 70
     1
102
RTVSPropertyOp35
 70
     1
102
RTVSPropertyOp36
 70
     1
102
RTVSPropertyOp37
 70
     1
102
RTVSPropertyOp38
 70
     1
102
RTVSPropertyOp39
 70
     1
102
RTVSPropertyOp40
 70
     1
102
RTVSPropertyOp41
 70
     1
102
RTVSPropertyOp42
 70
     1
102
RTVSPropertyOp43
 70
     1
102
RTVSPropertyOp44
 70
     1
102
RTVSPropertyOp45
 70
     1
102
RTVSPropertyOp46
 70
     1
102
RTVSPropertyOp47
 70
     1
102
RTVSPropertyOp48
 70
     1
102
RTVSPropertyOp49
 70
     1
102
RTVSPropertyOp50
 70
     1
102
RTVSPropertyOp51
 70
     0
102
RTVSPropertyOp52
 70
     0
102
RTVSPropertyOp53
 70
     1
102
RTVSPropertyOp54
 70
     1
102
RTVSPropertyOp55
 70
     1
102
RTVSPropertyOp56
 70
     1
102
RTVSPropertyOp57
 70
     1
102
RTVSPropertyOp58
 70
     1
102
RTVSPropertyOp59
 70
     1
102
RTVSPropertyOp60
 70
     1
102
RTVSPropertyOp61
 70
     1
102
RTVSPropertyOp62
 70
     1
  0
XRECORD
  5
842C
102
{ACAD_REACTORS
330
842B
102
}
330
842B
100
AcDbXrecord
280
     1
102
RTVSPost2010Prop28
280
     0
102
RTVSPost2010PropOp28
 70
     1
102
RTVSPost2010Prop29
280
     1
102
RTVSPost2010PropOp29
 70
     1
102
RTVSPost2010Prop30
280
     1
102
RTVSPost2010PropOp30
 70
     1
102
RTVSPost2010Prop31
280
     0
102
RTVSPost2010PropOp31
 70
     1
102
RTVSPost2010Prop32
280
     0
102
RTVSPost2010PropOp32
 70
     1
102
RTVSPost2010Prop33
280
     0
102
RTVSPost2010PropOp33
 70
     1
102
RTVSPost2010Prop34
280
     0
102
RTVSPost2010PropOp34
 70
     1
102
RTVSPost2010Prop35
280
     0
102
RTVSPost2010PropOp35
 70
     1
102
RTVSPost2010Prop36
280
     0
102
RTVSPost2010PropOp36
 70
     1
102
RTVSPost2010Prop37
 90
       50
102
RTVSPost2010PropOp37
 70
     1
102
RTVSPost2010Prop38
140
0.0
102
RTVSPost2010PropOp38
 70
     1
102
RTVSPost2010Prop39
140
1.0
102
RTVSPost2010PropOp39
 70
     1
102
RTVSPost2010Prop40
 90
        0
102
RTVSPost2010PropOp40
 70
     1
102
RTVSPost2010Prop41ColorIndex
 90
       18
102
RTVSPost2010Prop41ColorRGB
 90
        0
102
RTVSPost2010PropOp41
 70
     1
102
RTVSPost2010Prop42
 90
       50
102
RTVSPost2010PropOp42
 70
     1
102
RTVSPost2010Prop43
 90
        3
102
RTVSPost2010PropOp43
 70
     1
102
RTVSPost2010Prop44ColorIndex
 90
        5
102
RTVSPost2010Prop44ColorRGB
 90
      255
102
RTVSPost2010PropOp44
 70
     1
102
RTVSPost2010Prop45
280
     0
102
RTVSPost2010PropOp45
 70
     1
102
RTVSPost2010Prop46
 90
       50
102
RTVSPost2010PropOp46
 70
     1
102
RTVSPost2010Prop47
 90
       50
102
RTVSPost2010PropOp47
 70
     1
102
RTVSPost2010Prop48
 90
       50
102
RTVSPost2010PropOp48
 70
     1
102
RTVSPost2010Prop49
280
     0
102
RTVSPost2010PropOp49
 70
     1
102
RTVSPost2010Prop50
 90
       50
102
RTVSPost2010PropOp50
 70
     1
102
RTVSPost2010Prop51ColorIndex
 90
      256
102
RTVSPost2010Prop51ColorRGB
 90
-16777216
102
RTVSPost2010PropOp51
 70
     0
102
RTVSPost2010Prop52
140
1.0
102
RTVSPost2010PropOp52
 70
     0
102
RTVSPost2010Prop53
 90
        2
102
RTVSPost2010PropOp53
 70
     1
102
RTVSPost2010Prop54
  1
strokes_ogs.tif
102
RTVSPost2010PropOp54
 70
     1
102
RTVSPost2010Prop55
280
     0
102
RTVSPost2010PropOp55
 70
     1
102
RTVSPost2010Prop56
140
1.0
102
RTVSPost2010PropOp56
 70
     1
102
RTVSPost2010Prop57
140
1.0
102
RTVSPost2010PropOp57
 70
     1
102
RTVSPropertyOp0
 70
     1
102
RTVSPropertyOp1
 70
     1
102
RTVSPropertyOp2
 70
     1
102
RTVSPropertyOp3
 70
     1
102
RTVSPropertyOp4
 70
     1
102
RTVSPropertyOp5
 70
     1
102
RTVSPropertyOp6
 70
     1
102
RTVSPropertyOp7
 70
     1
102
RTVSPropertyOp8
 70
     1
102
RTVSPropertyOp9
 70
     1
102
RTVSPropertyOp10
 70
     1
102
RTVSPropertyOp11
 70
     1
102
RTVSPropertyOp12
 70
     1
102
RTVSPropertyOp13
 70
     1
102
RTVSPropertyOp14
 70
     1
102
RTVSPropertyOp15
 70
     1
102
RTVSPropertyOp16
 70
     1
102
RTVSPropertyOp17
 70
     1
102
RTVSPropertyOp18
 70
     1
102
RTVSPropertyOp19
 70
     1
102
RTVSPropertyOp20
 70
     1
102
RTVSPropertyOp21
 70
     1
102
RTVSPropertyOp22
 70
     1
102
RTVSPropertyOp23
 70
     1
102
RTVSPropertyOp24
 70
     1
102
RTVSPropertyOp25
 70
     1
102
RTVSPropertyOp26
 70
     1
102
RTVSPropertyOp27
 70
     1
102
RTVSPropertyOp28
 70
     1
102
RTVSPropertyOp29
 70
     1
102
RTVSPropertyOp30
 70
     1
102
RTVSPropertyOp31
 70
     1
102
RTVSPropertyOp32
 70
     1
102
RTVSPropertyOp33
 70
     1
102
RTVSPropertyOp34
 70
     1
102
RTVSPropertyOp35
 70
     1
102
RTVSPropertyOp36
 70
     1
102
RTVSPropertyOp37
 70
     1
102
RTVSPropertyOp38
 70
     1
102
RTVSPropertyOp39
 70
     1
102
RTVSPropertyOp40
 70
     1
102
RTVSPropertyOp41
 70
     1
102
RTVSPropertyOp42
 70
     1
102
RTVSPropertyOp43
 70
     1
102
RTVSPropertyOp44
 70
     1
102
RTVSPropertyOp45
 70
     1
102
RTVSPropertyOp46
 70
     1
102
RTVSPropertyOp47
 70
     1
102
RTVSPropertyOp48
 70
     1
102
RTVSPropertyOp49
 70
     1
102
RTVSPropertyOp50
 70
     1
102
RTVSPropertyOp51
 70
     0
102
RTVSPropertyOp52
 70
     0
102
RTVSPropertyOp53
 70
     1
102
RTVSPropertyOp54
 70
     1
102
RTVSPropertyOp55
 70
     1
102
RTVSPropertyOp56
 70
     1
102
RTVSPropertyOp57
 70
     1
102
RTVSPropertyOp58
 70
     1
102
RTVSPropertyOp59
 70
     1
102
RTVSPropertyOp60
 70
     1
102
RTVSPropertyOp61
 70
     1
102
RTVSPropertyOp62
 70
     1
  0
XRECORD
  5
8422
102
{ACAD_REACTORS
330
8421
102
}
330
8421
100
AcDbXrecord
280
     1
102
RTVSPost2010Prop28
280
     0
102
RTVSPost2010PropOp28
 70
     1
102
RTVSPost2010Prop29
280
     1
102
RTVSPost2010PropOp29
 70
     1
102
RTVSPost2010Prop30
280
     1
102
RTVSPost2010PropOp30
 70
     1
102
RTVSPost2010Prop31
280
     0
102
RTVSPost2010PropOp31
 70
     1
102
RTVSPost2010Prop32
280
     0
102
RTVSPost2010PropOp32
 70
     1
102
RTVSPost2010Prop33
280
     0
102
RTVSPost2010PropOp33
 70
     1
102
RTVSPost2010Prop34
280
     0
102
RTVSPost2010PropOp34
 70
     1
102
RTVSPost2010Prop35
280
     0
102
RTVSPost2010PropOp35
 70
     1
102
RTVSPost2010Prop36
280
     0
102
RTVSPost2010PropOp36
 70
     1
102
RTVSPost2010Prop37
 90
       50
102
RTVSPost2010PropOp37
 70
     1
102
RTVSPost2010Prop38
140
0.0
102
RTVSPost2010PropOp38
 70
     1
102
RTVSPost2010Prop39
140
1.0
102
RTVSPost2010PropOp39
 70
     1
102
RTVSPost2010Prop40
 90
        0
102
RTVSPost2010PropOp40
 70
     1
102
RTVSPost2010Prop41ColorIndex
 90
       18
102
RTVSPost2010Prop41ColorRGB
 90
        0
102
RTVSPost2010PropOp41
 70
     1
102
RTVSPost2010Prop42
 90
       50
102
RTVSPost2010PropOp42
 70
     1
102
RTVSPost2010Prop43
 90
        3
102
RTVSPost2010PropOp43
 70
     1
102
RTVSPost2010Prop44ColorIndex
 90
        5
102
RTVSPost2010Prop44ColorRGB
 90
      255
102
RTVSPost2010PropOp44
 70
     1
102
RTVSPost2010Prop45
280
     0
102
RTVSPost2010PropOp45
 70
     1
102
RTVSPost2010Prop46
 90
       50
102
RTVSPost2010PropOp46
 70
     1
102
RTVSPost2010Prop47
 90
       50
102
RTVSPost2010PropOp47
 70
     1
102
RTVSPost2010Prop48
 90
       50
102
RTVSPost2010PropOp48
 70
     1
102
RTVSPost2010Prop49
280
     0
102
RTVSPost2010PropOp49
 70
     1
102
RTVSPost2010Prop50
 90
       50
102
RTVSPost2010PropOp50
 70
     1
102
RTVSPost2010Prop51ColorIndex
 90
      256
102
RTVSPost2010Prop51ColorRGB
 90
-16777216
102
RTVSPost2010PropOp51
 70
     0
102
RTVSPost2010Prop52
140
1.0
102
RTVSPost2010PropOp52
 70
     0
102
RTVSPost2010Prop53
 90
        2
102
RTVSPost2010PropOp53
 70
     1
102
RTVSPost2010Prop54
  1
strokes_ogs.tif
102
RTVSPost2010PropOp54
 70
     1
102
RTVSPost2010Prop55
280
     0
102
RTVSPost2010PropOp55
 70
     1
102
RTVSPost2010Prop56
140
1.0
102
RTVSPost2010PropOp56
 70
     1
102
RTVSPost2010Prop57
140
1.0
102
RTVSPost2010PropOp57
 70
     1
102
RTVSPropertyOp0
 70
     1
102
RTVSPropertyOp1
 70
     1
102
RTVSPropertyOp2
 70
     1
102
RTVSPropertyOp3
 70
     1
102
RTVSPropertyOp4
 70
     1
102
RTVSPropertyOp5
 70
     1
102
RTVSPropertyOp6
 70
     1
102
RTVSPropertyOp7
 70
     1
102
RTVSPropertyOp8
 70
     1
102
RTVSPropertyOp9
 70
     1
102
RTVSPropertyOp10
 70
     1
102
RTVSPropertyOp11
 70
     1
102
RTVSPropertyOp12
 70
     1
102
RTVSPropertyOp13
 70
     1
102
RTVSPropertyOp14
 70
     1
102
RTVSPropertyOp15
 70
     1
102
RTVSPropertyOp16
 70
     1
102
RTVSPropertyOp17
 70
     1
102
RTVSPropertyOp18
 70
     1
102
RTVSPropertyOp19
 70
     1
102
RTVSPropertyOp20
 70
     1
102
RTVSPropertyOp21
 70
     1
102
RTVSPropertyOp22
 70
     1
102
RTVSPropertyOp23
 70
     1
102
RTVSPropertyOp24
 70
     1
102
RTVSPropertyOp25
 70
     1
102
RTVSPropertyOp26
 70
     1
102
RTVSPropertyOp27
 70
     1
102
RTVSPropertyOp28
 70
     1
102
RTVSPropertyOp29
 70
     1
102
RTVSPropertyOp30
 70
     1
102
RTVSPropertyOp31
 70
     1
102
RTVSPropertyOp32
 70
     1
102
RTVSPropertyOp33
 70
     1
102
RTVSPropertyOp34
 70
     1
102
RTVSPropertyOp35
 70
     1
102
RTVSPropertyOp36
 70
     1
102
RTVSPropertyOp37
 70
     1
102
RTVSPropertyOp38
 70
     1
102
RTVSPropertyOp39
 70
     1
102
RTVSPropertyOp40
 70
     1
102
RTVSPropertyOp41
 70
     1
102
RTVSPropertyOp42
 70
     1
102
RTVSPropertyOp43
 70
     1
102
RTVSPropertyOp44
 70
     1
102
RTVSPropertyOp45
 70
     1
102
RTVSPropertyOp46
 70
     1
102
RTVSPropertyOp47
 70
     1
102
RTVSPropertyOp48
 70
     1
102
RTVSPropertyOp49
 70
     1
102
RTVSPropertyOp50
 70
     1
102
RTVSPropertyOp51
 70
     0
102
RTVSPropertyOp52
 70
     0
102
RTVSPropertyOp53
 70
     1
102
RTVSPropertyOp54
 70
     1
102
RTVSPropertyOp55
 70
     1
102
RTVSPropertyOp56
 70
     1
102
RTVSPropertyOp57
 70
     1
102
RTVSPropertyOp58
 70
     1
102
RTVSPropertyOp59
 70
     1
102
RTVSPropertyOp60
 70
     1
102
RTVSPropertyOp61
 70
     1
102
RTVSPropertyOp62
 70
     1
  0
XRECORD
  5
8416
102
{ACAD_REACTORS
330
8415
102
}
330
8415
100
AcDbXrecord
280
     1
102
RTVSPost2010Prop28
280
     0
102
RTVSPost2010PropOp28
 70
     1
102
RTVSPost2010Prop29
280
     1
102
RTVSPost2010PropOp29
 70
     1
102
RTVSPost2010Prop30
280
     1
102
RTVSPost2010PropOp30
 70
     1
102
RTVSPost2010Prop31
280
     0
102
RTVSPost2010PropOp31
 70
     1
102
RTVSPost2010Prop32
280
     0
102
RTVSPost2010PropOp32
 70
     1
102
RTVSPost2010Prop33
280
     0
102
RTVSPost2010PropOp33
 70
     1
102
RTVSPost2010Prop34
280
     0
102
RTVSPost2010PropOp34
 70
     1
102
RTVSPost2010Prop35
280
     0
102
RTVSPost2010PropOp35
 70
     1
102
RTVSPost2010Prop36
280
     0
102
RTVSPost2010PropOp36
 70
     1
102
RTVSPost2010Prop37
 90
       50
102
RTVSPost2010PropOp37
 70
     1
102
RTVSPost2010Prop38
140
0.0
102
RTVSPost2010PropOp38
 70
     1
102
RTVSPost2010Prop39
140
1.0
102
RTVSPost2010PropOp39
 70
     1
102
RTVSPost2010Prop40
 90
        0
102
RTVSPost2010PropOp40
 70
     1
102
RTVSPost2010Prop41ColorIndex
 90
       18
102
RTVSPost2010Prop41ColorRGB
 90
        0
102
RTVSPost2010PropOp41
 70
     1
102
RTVSPost2010Prop42
 90
       50
102
RTVSPost2010PropOp42
 70
     1
102
RTVSPost2010Prop43
 90
        3
102
RTVSPost2010PropOp43
 70
     1
102
RTVSPost2010Prop44ColorIndex
 90
        5
102
RTVSPost2010Prop44ColorRGB
 90
      255
102
RTVSPost2010PropOp44
 70
     1
102
RTVSPost2010Prop45
280
     0
102
RTVSPost2010PropOp45
 70
     1
102
RTVSPost2010Prop46
 90
       50
102
RTVSPost2010PropOp46
 70
     1
102
RTVSPost2010Prop47
 90
       50
102
RTVSPost2010PropOp47
 70
     1
102
RTVSPost2010Prop48
 90
       50
102
RTVSPost2010PropOp48
 70
     1
102
RTVSPost2010Prop49
280
     0
102
RTVSPost2010PropOp49
 70
     1
102
RTVSPost2010Prop50
 90
       50
102
RTVSPost2010PropOp50
 70
     1
102
RTVSPost2010Prop51ColorIndex
 90
      256
102
RTVSPost2010Prop51ColorRGB
 90
-16777216
102
RTVSPost2010PropOp51
 70
     0
102
RTVSPost2010Prop52
140
1.0
102
RTVSPost2010PropOp52
 70
     0
102
RTVSPost2010Prop53
 90
        2
102
RTVSPost2010PropOp53
 70
     1
102
RTVSPost2010Prop54
  1
strokes_ogs.tif
102
RTVSPost2010PropOp54
 70
     1
102
RTVSPost2010Prop55
280
     0
102
RTVSPost2010PropOp55
 70
     1
102
RTVSPost2010Prop56
140
1.0
102
RTVSPost2010PropOp56
 70
     1
102
RTVSPost2010Prop57
140
1.0
102
RTVSPost2010PropOp57
 70
     1
102
RTVSPropertyOp0
 70
     1
102
RTVSPropertyOp1
 70
     1
102
RTVSPropertyOp2
 70
     1
102
RTVSPropertyOp3
 70
     1
102
RTVSPropertyOp4
 70
     1
102
RTVSPropertyOp5
 70
     1
102
RTVSPropertyOp6
 70
     1
102
RTVSPropertyOp7
 70
     1
102
RTVSPropertyOp8
 70
     1
102
RTVSPropertyOp9
 70
     1
102
RTVSPropertyOp10
 70
     1
102
RTVSPropertyOp11
 70
     1
102
RTVSPropertyOp12
 70
     1
102
RTVSPropertyOp13
 70
     1
102
RTVSPropertyOp14
 70
     1
102
RTVSPropertyOp15
 70
     1
102
RTVSPropertyOp16
 70
     1
102
RTVSPropertyOp17
 70
     1
102
RTVSPropertyOp18
 70
     1
102
RTVSPropertyOp19
 70
     1
102
RTVSPropertyOp20
 70
     1
102
RTVSPropertyOp21
 70
     1
102
RTVSPropertyOp22
 70
     1
102
RTVSPropertyOp23
 70
     1
102
RTVSPropertyOp24
 70
     1
102
RTVSPropertyOp25
 70
     1
102
RTVSPropertyOp26
 70
     1
102
RTVSPropertyOp27
 70
     1
102
RTVSPropertyOp28
 70
     1
102
RTVSPropertyOp29
 70
     1
102
RTVSPropertyOp30
 70
     1
102
RTVSPropertyOp31
 70
     1
102
RTVSPropertyOp32
 70
     1
102
RTVSPropertyOp33
 70
     1
102
RTVSPropertyOp34
 70
     1
102
RTVSPropertyOp35
 70
     1
102
RTVSPropertyOp36
 70
     1
102
RTVSPropertyOp37
 70
     1
102
RTVSPropertyOp38
 70
     1
102
RTVSPropertyOp39
 70
     1
102
RTVSPropertyOp40
 70
     1
102
RTVSPropertyOp41
 70
     1
102
RTVSPropertyOp42
 70
     1
102
RTVSPropertyOp43
 70
     1
102
RTVSPropertyOp44
 70
     1
102
RTVSPropertyOp45
 70
     1
102
RTVSPropertyOp46
 70
     1
102
RTVSPropertyOp47
 70
     1
102
RTVSPropertyOp48
 70
     1
102
RTVSPropertyOp49
 70
     1
102
RTVSPropertyOp50
 70
     1
102
RTVSPropertyOp51
 70
     0
102
RTVSPropertyOp52
 70
     0
102
RTVSPropertyOp53
 70
     1
102
RTVSPropertyOp54
 70
     1
102
RTVSPropertyOp55
 70
     1
102
RTVSPropertyOp56
 70
     1
102
RTVSPropertyOp57
 70
     1
102
RTVSPropertyOp58
 70
     1
102
RTVSPropertyOp59
 70
     1
102
RTVSPropertyOp60
 70
     1
102
RTVSPropertyOp61
 70
     1
102
RTVSPropertyOp62
 70
     1
  0
XRECORD
  5
842E
102
{ACAD_REACTORS
330
842D
102
}
330
842D
100
AcDbXrecord
280
     1
102
RTVSPost2010Prop28
280
     0
102
RTVSPost2010PropOp28
 70
     1
102
RTVSPost2010Prop29
280
     1
102
RTVSPost2010PropOp29
 70
     1
102
RTVSPost2010Prop30
280
     1
102
RTVSPost2010PropOp30
 70
     1
102
RTVSPost2010Prop31
280
     0
102
RTVSPost2010PropOp31
 70
     1
102
RTVSPost2010Prop32
280
     0
102
RTVSPost2010PropOp32
 70
     1
102
RTVSPost2010Prop33
280
     0
102
RTVSPost2010PropOp33
 70
     1
102
RTVSPost2010Prop34
280
     0
102
RTVSPost2010PropOp34
 70
     1
102
RTVSPost2010Prop35
280
     0
102
RTVSPost2010PropOp35
 70
     1
102
RTVSPost2010Prop36
280
     0
102
RTVSPost2010PropOp36
 70
     1
102
RTVSPost2010Prop37
 90
       50
102
RTVSPost2010PropOp37
 70
     1
102
RTVSPost2010Prop38
140
0.0
102
RTVSPost2010PropOp38
 70
     1
102
RTVSPost2010Prop39
140
1.0
102
RTVSPost2010PropOp39
 70
     1
102
RTVSPost2010Prop40
 90
        0
102
RTVSPost2010PropOp40
 70
     1
102
RTVSPost2010Prop41ColorIndex
 90
       18
102
RTVSPost2010Prop41ColorRGB
 90
        0
102
RTVSPost2010PropOp41
 70
     1
102
RTVSPost2010Prop42
 90
       50
102
RTVSPost2010PropOp42
 70
     1
102
RTVSPost2010Prop43
 90
        3
102
RTVSPost2010PropOp43
 70
     1
102
RTVSPost2010Prop44ColorIndex
 90
        5
102
RTVSPost2010Prop44ColorRGB
 90
      255
102
RTVSPost2010PropOp44
 70
     1
102
RTVSPost2010Prop45
280
     0
102
RTVSPost2010PropOp45
 70
     1
102
RTVSPost2010Prop46
 90
       50
102
RTVSPost2010PropOp46
 70
     1
102
RTVSPost2010Prop47
 90
       50
102
RTVSPost2010PropOp47
 70
     1
102
RTVSPost2010Prop48
 90
       50
102
RTVSPost2010PropOp48
 70
     1
102
RTVSPost2010Prop49
280
     0
102
RTVSPost2010PropOp49
 70
     1
102
RTVSPost2010Prop50
 90
       50
102
RTVSPost2010PropOp50
 70
     1
102
RTVSPost2010Prop51ColorIndex
 90
      256
102
RTVSPost2010Prop51ColorRGB
 90
-16777216
102
RTVSPost2010PropOp51
 70
     0
102
RTVSPost2010Prop52
140
1.0
102
RTVSPost2010PropOp52
 70
     0
102
RTVSPost2010Prop53
 90
        2
102
RTVSPost2010PropOp53
 70
     1
102
RTVSPost2010Prop54
  1
strokes_ogs.tif
102
RTVSPost2010PropOp54
 70
     1
102
RTVSPost2010Prop55
280
     0
102
RTVSPost2010PropOp55
 70
     1
102
RTVSPost2010Prop56
140
1.0
102
RTVSPost2010PropOp56
 70
     1
102
RTVSPost2010Prop57
140
1.0
102
RTVSPost2010PropOp57
 70
     1
102
RTVSPropertyOp0
 70
     1
102
RTVSPropertyOp1
 70
     1
102
RTVSPropertyOp2
 70
     1
102
RTVSPropertyOp3
 70
     1
102
RTVSPropertyOp4
 70
     1
102
RTVSPropertyOp5
 70
     1
102
RTVSPropertyOp6
 70
     1
102
RTVSPropertyOp7
 70
     1
102
RTVSPropertyOp8
 70
     1
102
RTVSPropertyOp9
 70
     1
102
RTVSPropertyOp10
 70
     1
102
RTVSPropertyOp11
 70
     1
102
RTVSPropertyOp12
 70
     1
102
RTVSPropertyOp13
 70
     1
102
RTVSPropertyOp14
 70
     1
102
RTVSPropertyOp15
 70
     1
102
RTVSPropertyOp16
 70
     1
102
RTVSPropertyOp17
 70
     1
102
RTVSPropertyOp18
 70
     1
102
RTVSPropertyOp19
 70
     1
102
RTVSPropertyOp20
 70
     1
102
RTVSPropertyOp21
 70
     1
102
RTVSPropertyOp22
 70
     1
102
RTVSPropertyOp23
 70
     1
102
RTVSPropertyOp24
 70
     1
102
RTVSPropertyOp25
 70
     1
102
RTVSPropertyOp26
 70
     1
102
RTVSPropertyOp27
 70
     1
102
RTVSPropertyOp28
 70
     1
102
RTVSPropertyOp29
 70
     1
102
RTVSPropertyOp30
 70
     1
102
RTVSPropertyOp31
 70
     1
102
RTVSPropertyOp32
 70
     1
102
RTVSPropertyOp33
 70
     1
102
RTVSPropertyOp34
 70
     1
102
RTVSPropertyOp35
 70
     1
102
RTVSPropertyOp36
 70
     1
102
RTVSPropertyOp37
 70
     1
102
RTVSPropertyOp38
 70
     1
102
RTVSPropertyOp39
 70
     1
102
RTVSPropertyOp40
 70
     1
102
RTVSPropertyOp41
 70
     1
102
RTVSPropertyOp42
 70
     1
102
RTVSPropertyOp43
 70
     1
102
RTVSPropertyOp44
 70
     1
102
RTVSPropertyOp45
 70
     1
102
RTVSPropertyOp46
 70
     1
102
RTVSPropertyOp47
 70
     1
102
RTVSPropertyOp48
 70
     1
102
RTVSPropertyOp49
 70
     1
102
RTVSPropertyOp50
 70
     1
102
RTVSPropertyOp51
 70
     0
102
RTVSPropertyOp52
 70
     0
102
RTVSPropertyOp53
 70
     1
102
RTVSPropertyOp54
 70
     1
102
RTVSPropertyOp55
 70
     1
102
RTVSPropertyOp56
 70
     1
102
RTVSPropertyOp57
 70
     1
102
RTVSPropertyOp58
 70
     1
102
RTVSPropertyOp59
 70
     1
102
RTVSPropertyOp60
 70
     1
102
RTVSPropertyOp61
 70
     1
102
RTVSPropertyOp62
 70
     1
  0
ENDSEC
  0
EOF
