  0
SECTION
  2
HEADER
  9
$ACADVER
  1
AC1015
  9
$ACADMAINTVER
 70
    20
  9
$DWGCODEPAGE
  3
ANSI_932
  9
$INSBASE
 10
0.0
 20
0.0
 30
0.0
  9
$EXTMIN
 10
-0.1281640493871237
 20
-0.1800399741405272
 30
-0.0015258207003583
  9
$EXTMAX
 10
4200.128183607161
 20
5900.180067448153
 30
0.0000000349246037
  9
$LIMMIN
 10
0.0
 20
0.0
  9
$LIMMAX
 10
297.0
 20
210.0
  9
$ORTHOMODE
 70
     1
  9
$REGENMODE
 70
     1
  9
$FILLMODE
 70
     0
  9
$QTEXTMODE
 70
     0
  9
$MIRRTEXT
 70
     1
  9
$LTSCALE
 40
100.0
  9
$ATTMODE
 70
     1
  9
$TEXTSIZE
 40
180.0
  9
$TRACEWID
 40
0.05
  9
$TEXTSTYLE
  7
STANDARD
  9
$CLAYER
  8
3
  9
$CELTYPE
  6
ByLayer
  9
$CECOLOR
 62
   256
  9
$CELTSCALE
 40
1.0
  9
$DISPSILH
 70
     0
  9
$DIMSCALE
 40
20.0
  9
$DIMASZ
 40
2.0
  9
$DIMEXO
 40
1.0
  9
$DIMDLI
 40
10.0
  9
$DIMRND
 40
0.0
  9
$DIMDLE
 40
0.0
  9
$DIMEXE
 40
1.0
  9
$DIMTP
 40
1.0
  9
$DIMTM
 40
1.0
  9
$DIMTXT
 40
3.0
  9
$DIMCEN
 40
0.0
  9
$DIMTSZ
 40
0.0
  9
$DIMTOL
 70
     0
  9
$DIMLIM
 70
     0
  9
$DIMTIH
 70
     0
  9
$DIMTOH
 70
     0
  9
$DIMSE1
 70
     0
  9
$DIMSE2
 70
     0
  9
$DIMTAD
 70
     1
  9
$DIMZIN
 70
     8
  9
$DIMBLK
  1

  9
$DIMASO
 70
     1
  9
$DIMSHO
 70
     1
  9
$DIMPOST
  1

  9
$DIMAPOST
  1

  9
$DIMALT
 70
     0
  9
$DIMALTD
 70
     2
  9
$DIMALTF
 40
0.039
  9
$DIMLFAC
 40
1.0
  9
$DIMTOFL
 70
     1
  9
$DIMTVP
 40
0.0
  9
$DIMTIX
 70
     0
  9
$DIMSOXD
 70
     0
  9
$DIMSAH
 70
     1
  9
$DIMBLK1
  1
OPEN
  9
$DIMBLK2
  1
OPEN
  9
$DIMSTYLE
  2
IGA
  9
$DIMCLRD
 70
     0
  9
$DIMCLRE
 70
     0
  9
$DIMCLRT
 70
     0
  9
$DIMTFAC
 40
10.0
  9
$DIMGAP
 40
1.0
  9
$DIMJUST
 70
     0
  9
$DIMSD1
 70
     0
  9
$DIMSD2
 70
     0
  9
$DIMTOLJ
 70
     1
  9
$DIMTZIN
 70
     0
  9
$DIMALTZ
 70
     0
  9
$DIMALTTZ
 70
     0
  9
$DIMUPT
 70
     0
  9
$DIMDEC
 70
     4
  9
$DIMTDEC
 70
     4
  9
$DIMALTU
 70
     2
  9
$DIMALTTD
 70
     2
  9
$DIMTXSTY
  7
STANDARD
  9
$DIMAUNIT
 70
     0
  9
$DIMADEC
 70
     0
  9
$DIMALTRND
 40
0.0
  9
$DIMAZIN
 70
     0
  9
$DIMDSEP
 70
    46
  9
$DIMATFIT
 70
     3
  9
$DIMFRAC
 70
     0
  9
$DIMLDRBLK
  1
OPEN
  9
$DIMLUNIT
 70
     2
  9
$DIMLWD
 70
    -2
  9
$DIMLWE
 70
    -2
  9
$DIMTMOVE
 70
     0
  9
$LUNITS
 70
     2
  9
$LUPREC
 70
     3
  9
$SKETCHINC
 40
0.1
  9
$FILLETRAD
 40
50.0
  9
$AUNITS
 70
     0
  9
$AUPREC
 70
     0
  9
$MENU
  1
acad
  9
$ELEVATION
 40
0.0
  9
$PELEVATION
 40
0.0
  9
$THICKNESS
 40
0.0
  9
$LIMCHECK
 70
     0
  9
$CHAMFERA
 40
0.5
  9
$CHAMFERB
 40
0.5
  9
$CHAMFERC
 40
0.0
  9
$CHAMFERD
 40
0.0
  9
$SKPOLY
 70
     0
  9
$TDCREATE
 40
2451387.483285764
  9
$TDUCREATE
 40
2451387.108285764
  9
$TDUPDATE
 40
2460262.625767072
  9
$TDUUPDATE
 40
2460262.250767072
  9
$TDINDWG
 40
0.0178171875
  9
$TDUSRTIMER
 40
0.0178171412
  9
$USRTIMER
 70
     1
  9
$ANGBASE
 50
0.0
  9
$ANGDIR
 70
     0
  9
$PDMODE
 70
     0
  9
$PDSIZE
 40
0.0
  9
$PLINEWID
 40
0.0
  9
$SPLFRAME
 70
     0
  9
$SPLINETYPE
 70
     6
  9
$SPLINESEGS
 70
     8
  9
$HANDSEED
  5
83C4
  9
$SURFTAB1
 70
     6
  9
$SURFTAB2
 70
     6
  9
$SURFTYPE
 70
     6
  9
$SURFU
 70
     6
  9
$SURFV
 70
     6
  9
$UCSBASE
  2

  9
$UCSNAME
  2

  9
$UCSORG
 10
0.0
 20
0.0
 30
0.0
  9
$UCSXDIR
 10
1.0
 20
0.0
 30
0.0
  9
$UCSYDIR
 10
0.0
 20
1.0
 30
0.0
  9
$UCSORTHOREF
  2

  9
$UCSORTHOVIEW
 70
     0
  9
$UCSORGTOP
 10
0.0
 20
0.0
 30
0.0
  9
$UCSORGBOTTOM
 10
0.0
 20
0.0
 30
0.0
  9
$UCSORGLEFT
 10
0.0
 20
0.0
 30
0.0
  9
$UCSORGRIGHT
 10
0.0
 20
0.0
 30
0.0
  9
$UCSORGFRONT
 10
0.0
 20
0.0
 30
0.0
  9
$UCSORGBACK
 10
0.0
 20
0.0
 30
0.0
  9
$PUCSBASE
  2

  9
$PUCSNAME
  2

  9
$PUCSORG
 10
0.0
 20
0.0
 30
0.0
  9
$PUCSXDIR
 10
1.0
 20
0.0
 30
0.0
  9
$PUCSYDIR
 10
0.0
 20
1.0
 30
0.0
  9
$PUCSORTHOREF
  2

  9
$PUCSORTHOVIEW
 70
     0
  9
$PUCSORGTOP
 10
0.0
 20
0.0
 30
0.0
  9
$PUCSORGBOTTOM
 10
0.0
 20
0.0
 30
0.0
  9
$PUCSORGLEFT
 10
0.0
 20
0.0
 30
0.0
  9
$PUCSORGRIGHT
 10
0.0
 20
0.0
 30
0.0
  9
$PUCSORGFRONT
 10
0.0
 20
0.0
 30
0.0
  9
$PUCSORGBACK
 10
0.0
 20
0.0
 30
0.0
  9
$USERI1
 70
     0
  9
$USERI2
 70
     0
  9
$USERI3
 70
     0
  9
$USERI4
 70
     0
  9
$USERI5
 70
     0
  9
$USERR1
 40
0.0
  9
$USERR2
 40
0.0
  9
$USERR3
 40
0.0
  9
$USERR4
 40
0.0
  9
$USERR5
 40
0.0
  9
$WORLDVIEW
 70
     1
  9
$SHADEDGE
 70
     3
  9
$SHADEDIF
 70
    70
  9
$TILEMODE
 70
     1
  9
$MAXACTVP
 70
    16
  9
$PINSBASE
 10
0.0
 20
0.0
 30
0.0
  9
$PLIMCHECK
 70
     0
  9
$PEXTMIN
 10
1.000000000000000E+20
 20
1.000000000000000E+20
 30
1.000000000000000E+20
  9
$PEXTMAX
 10
-1.000000000000000E+20
 20
-1.000000000000000E+20
 30
-1.000000000000000E+20
  9
$PLIMMIN
 10
0.0
 20
0.0
  9
$PLIMMAX
 10
12.0
 20
9.0
  9
$UNITMODE
 70
     0
  9
$VISRETAIN
 70
     0
  9
$PLINEGEN
 70
     0
  9
$PSLTSCALE
 70
     1
  9
$TREEDEPTH
 70
  3020
  9
$CMLSTYLE
  2
Standard
  9
$CMLJUST
 70
     0
  9
$CMLSCALE
 40
1.0
  9
$PROXYGRAPHICS
 70
     1
  9
$MEASUREMENT
 70
     0
  9
$CELWEIGHT
370
    -1
  9
$ENDCAPS
280
     0
  9
$JOINSTYLE
280
     0
  9
$LWDISPLAY
290
     0
  9
$INSUNITS
 70
     0
  9
$HYPERLINKBASE
  1

  9
$STYLESHEET
  1

  9
$XEDIT
290
     1
  9
$CEPSNTYPE
380
     0
  9
$PSTYLEMODE
290
     1
  9
$FINGERPRINTGUID
  2
{294F1143-8C3E-456B-A8A2-26BFE342AE8E}
  9
$VERSIONGUID
  2
{BB229C52-3CF2-4CE7-95FC-BCD2C1B38F76}
  9
$EXTNAMES
290
     1
  9
$PSVPSCALE
 40
0.0
  9
$OLESTARTUP
290
     0
  0
ENDSEC
  0
SECTION
  2
CLASSES
  0
CLASS
  1
ACDBDICTIONARYWDFLT
  2
AcDbDictionaryWithDefault
  3
ObjectDBX Classes
 90
        0
280
     0
281
     0
  0
CLASS
  1
MATERIAL
  2
AcDbMaterial
  3
ObjectDBX Classes
 90
     1153
280
     0
281
     0
  0
CLASS
  1
VISUALSTYLE
  2
AcDbVisualStyle
  3
ObjectDBX Classes
 90
     4095
280
     0
281
     0
  0
CLASS
  1
SCALE
  2
AcDbScale
  3
ObjectDBX Classes
 90
     1153
280
     0
281
     0
  0
CLASS
  1
TABLESTYLE
  2
AcDbTableStyle
  3
ObjectDBX Classes
 90
     4095
280
     0
281
     0
  0
CLASS
  1
MLEADERSTYLE
  2
AcDbMLeaderStyle
  3
ACDB_MLEADERSTYLE_CLASS
 90
     4095
280
     0
281
     0
  0
CLASS
  1
ACDBSECTIONVIEWSTYLE
  2
AcDbSectionViewStyle
  3
ObjectDBX Classes
 90
     1025
280
     0
281
     0
  0
CLASS
  1
ACDBDETAILVIEWSTYLE
  2
AcDbDetailViewStyle
  3
ObjectDBX Classes
 90
     1025
280
     0
281
     0
  0
CLASS
  1
SORTENTSTABLE
  2
AcDbSortentsTable
  3
ObjectDBX Classes
 90
        0
280
     0
281
     0
  0
CLASS
  1
DICTIONARYVAR
  2
AcDbDictionaryVar
  3
ObjectDBX Classes
 90
        0
280
     0
281
     0
  0
CLASS
  1
CELLSTYLEMAP
  2
AcDbCellStyleMap
  3
ObjectDBX Classes
 90
     1152
280
     0
281
     0
  0
CLASS
  1
ACDBPLACEHOLDER
  2
AcDbPlaceHolder
  3
ObjectDBX Classes
 90
        0
280
     0
281
     0
  0
CLASS
  1
LAYOUT
  2
AcDbLayout
  3
ObjectDBX Classes
 90
        0
280
     0
281
     0
  0
ENDSEC
  0
SECTION
  2
TABLES
  0
TABLE
  2
VPORT
  5
817C
330
0
100
AcDbSymbolTable
 70
     1
  0
VPORT
  5
81E8
330
817C
100
AcDbSymbolTableRecord
100
AcDbViewportTableRecord
  2
*ACTIVE
 70
     0
 10
0.0
 20
0.0
 11
1.0
 21
1.0
 12
2100.000009778887
 22
2950.000013737006
 13
0.0
 23
0.0
 14
10.0
 24
10.0
 15
10.0
 25
10.0
 16
0.0
 26
0.0
 36
1.0
 17
0.0
 27
0.0
 37
0.0
 40
5938.142562752639
 41
2.050213675213675
 42
50.0
 43
0.0
 44
0.0
 50
0.0
 51
0.0
 71
     0
 72
   100
 73
     1
 74
     0
 75
     0
 76
     0
 77
     0
 78
     0
281
     0
 65
     1
110
0.0
120
0.0
130
0.0
111
1.0
121
0.0
131
0.0
112
0.0
122
1.0
132
0.0
 79
     0
146
0.0
1001
ACAD_NAV_VCDISPLAY
1070
     3
  0
ENDTAB
  0
TABLE
  2
LTYPE
  5
8179
330
0
100
AcDbSymbolTable
 70
     3
  0
LTYPE
  5
81CE
330
8179
100
AcDbSymbolTableRecord
100
AcDbLinetypeTableRecord
  2
ByBlock
 70
     0
  3

 72
    65
 73
     0
 40
0.0
  0
LTYPE
  5
81CF
330
8179
100
AcDbSymbolTableRecord
100
AcDbLinetypeTableRecord
  2
ByLayer
 70
     0
  3

 72
    65
 73
     0
 40
0.0
  0
LTYPE
  5
81D0
330
8179
100
AcDbSymbolTableRecord
100
AcDbLinetypeTableRecord
  2
CONTINUOUS
 70
     0
  3
Solid line
 72
    65
 73
     0
 40
0.0
  0
LTYPE
  5
81E9
330
8179
100
AcDbSymbolTableRecord
100
AcDbLinetypeTableRecord
  2
CENTER
 70
     0
  3
____ _ ____ _ ____ _ ____ _ ____ _ ____ _ ____ 
 72
    65
 73
     4
 40
2.0
 49
1.25
 74
     0
 49
-0.25
 74
     0
 49
0.25
 74
     0
 49
-0.25
 74
     0
  0
ENDTAB
  0
TABLE
  2
LAYER
  5
8176
330
0
100
AcDbSymbolTable
 70
     6
  0
LAYER
  5
81C8
102
{ACAD_XDICTIONARY
360
836E
102
}
330
8176
100
AcDbSymbolTableRecord
100
AcDbLayerTableRecord
  2
0
 70
     0
 62
     7
  6
CONTINUOUS
370
    -3
390
8183
  0
LAYER
  5
81E7
102
{ACAD_XDICTIONARY
360
8370
102
}
330
8176
100
AcDbSymbolTableRecord
100
AcDbLayerTableRecord
  2
3
 70
     0
 62
     2
  6
CONTINUOUS
370
    -3
390
8183
  0
LAYER
  5
81EA
102
{ACAD_XDICTIONARY
360
8372
102
}
330
8176
100
AcDbSymbolTableRecord
100
AcDbLayerTableRecord
  2
2
 70
     0
 62
     3
  6
CENTER
370
    -3
390
8183
  0
LAYER
  5
81EB
102
{ACAD_XDICTIONARY
360
8374
102
}
330
8176
100
AcDbSymbolTableRecord
100
AcDbLayerTableRecord
  2
1
 70
     0
 62
     4
  6
CONTINUOUS
370
    -3
390
8183
  0
LAYER
  5
81EC
102
{ACAD_XDICTIONARY
360
8376
102
}
330
8176
100
AcDbSymbolTableRecord
100
AcDbLayerTableRecord
  2
4
 70
     0
 62
     7
  6
CONTINUOUS
370
    -3
390
8183
  0
LAYER
  5
81ED
330
8176
100
AcDbSymbolTableRecord
100
AcDbLayerTableRecord
  2
DEFPOINTS
 70
     0
 62
     7
  6
CONTINUOUS
290
     0
370
    -3
390
8183
  0
ENDTAB
  0
TABLE
  2
STYLE
  5
8177
330
0
100
AcDbSymbolTable
 70
     2
  0
STYLE
  5
81C9
330
8177
100
AcDbSymbolTableRecord
100
AcDbTextStyleTableRecord
  2
STANDARD
 70
     0
 40
0.0
 41
1.0
 50
0.0
 71
     0
 42
180.0
  3
simplex.shx
  4
extfont.shx
  0
STYLE
  5
81CD
330
8177
100
AcDbSymbolTableRecord
100
AcDbTextStyleTableRecord
  2
Annotative
 70
     0
 40
0.0
 41
1.0
 50
0.0
 71
     0
 42
0.2
  3
txt
  4

1001
AcadAnnotative
1000
AnnotativeData
1002
{
1070
     1
1070
     1
1002
}
  0
ENDTAB
  0
TABLE
  2
VIEW
  5
817A
330
0
100
AcDbSymbolTable
 70
     0
  0
ENDTAB
  0
TABLE
  2
UCS
  5
817B
330
0
100
AcDbSymbolTable
 70
     0
  0
ENDTAB
  0
TABLE
  2
APPID
  5
817D
330
0
100
AcDbSymbolTable
 70
     6
  0
APPID
  5
81CA
330
817D
100
AcDbSymbolTableRecord
100
AcDbRegAppTableRecord
  2
ACAD
 70
     0
  0
APPID
  5
81D1
330
817D
100
AcDbSymbolTableRecord
100
AcDbRegAppTableRecord
  2
AcadAnnotative
 70
     0
  0
APPID
  5
8244
330
817D
100
AcDbSymbolTableRecord
100
AcDbRegAppTableRecord
  2
AcadAnnoMonitorAlertIconDisabled
 70
     0
  0
APPID
  5
8245
330
817D
100
AcDbSymbolTableRecord
100
AcDbRegAppTableRecord
  2
ACAD_EXEMPT_FROM_CAD_STANDARDS
 70
     0
  0
APPID
  5
8382
330
817D
100
AcDbSymbolTableRecord
100
AcDbRegAppTableRecord
  2
ACAD_NAV_VCDISPLAY
 70
     0
  0
APPID
  5
83BB
330
817D
100
AcDbSymbolTableRecord
100
AcDbRegAppTableRecord
  2
ACAD_MLEADERVER
 70
     0
  0
ENDTAB
  0
TABLE
  2
DIMSTYLE
  5
817E
330
0
100
AcDbSymbolTable
 70
     4
100
AcDbDimStyleTable
 71
     1
340
81EE
  0
DIMSTYLE
105
81CB
102
{ACAD_REACTORS
330
7C2A
330
7C2B
330
7C88
330
7C89
330
7C8A
330
7C90
330
7CA0
330
7CA2
330
80AA
330
80B7
330
80DE
102
}
330
817E
100
AcDbSymbolTableRecord
100
AcDbDimStyleTableRecord
  2
Standard
 70
     0
340
81C9
  0
DIMSTYLE
105
81CC
330
817E
100
AcDbSymbolTableRecord
100
AcDbDimStyleTableRecord
  2
Annotative
 70
     0
340
81C9
1001
AcadAnnotative
1000
AnnotativeData
1002
{
1070
     1
1070
     1
1002
}
  0
DIMSTYLE
105
81EE
102
{ACAD_REACTORS
330
822A
330
8237
330
82D5
330
82E6
330
8305
330
8312
330
831F
330
832C
330
8342
330
8358
102
}
330
817E
100
AcDbSymbolTableRecord
100
AcDbDimStyleTableRecord
  2
IGA
 70
     0
 40
2.0
 41
2.0
 42
0.5
 43
10.0
 44
1.0
 47
1.0
 48
1.0
 73
     0
 74
     0
 77
     1
 78
     8
140
3.0
141
0.0
143
0.03937
146
10.0
147
1.0
173
     1
271
     3
272
     3
279
     2
284
     8
285
     8
286
     8
340
81C9
  0
DIMSTYLE
105
81EF
330
817E
100
AcDbSymbolTableRecord
100
AcDbDimStyleTableRecord
  2
MATSU
 70
     0
 41
2.0
 42
1.0
 43
10.0
 44
1.0
 73
     0
 74
     0
 77
     1
 78
     8
140
3.0
141
0.0
143
0.03937
147
0.5
172
     1
173
     1
176
   256
177
   256
178
   256
271
     3
272
     3
279
     2
284
     8
285
     8
286
     8
340
81C9
  0
ENDTAB
  0
TABLE
  2
BLOCK_RECORD
  5
8175
330
0
100
AcDbSymbolTable
 70
    41
  0
BLOCK_RECORD
  5
81E3
102
{ACAD_XDICTIONARY
360
82E3
102
}
330
8175
100
AcDbSymbolTableRecord
100
AcDbBlockTableRecord
  2
*Model_Space
340
81E6
  0
BLOCK_RECORD
  5
81DF
330
8175
100
AcDbSymbolTableRecord
100
AcDbBlockTableRecord
  2
*Paper_Space
340
81E2
  0
BLOCK_RECORD
  5
81F3
330
8175
100
AcDbSymbolTableRecord
100
AcDbBlockTableRecord
  2
$MODEL_SPACE
340
0
  0
BLOCK_RECORD
  5
81F5
330
8175
100
AcDbSymbolTableRecord
100
AcDbBlockTableRecord
  2
$PAPER_SPACE
340
0
  0
BLOCK_RECORD
  5
81F7
330
8175
100
AcDbSymbolTableRecord
100
AcDbBlockTableRecord
  2
_OPEN
340
0
102
{BLKREFS
331
7DEA
331
7DEB
331
7DF5
331
7DF6
331
7F46
331
7F47
331
7E21
331
7E22
331
7E37
331
7E38
331
7F66
331
7F67
331
7F5B
331
7F5C
331
7E58
331
7E59
331
7F26
331
7F27
331
8017
331
8018
331
814E
331
814F
331
8156
331
8157
331
815E
331
815F
331
8300
331
830C
331
830D
331
8319
331
831A
331
8326
331
8327
331
833C
331
833D
331
8352
331
8353
331
8368
331
8369
331
7EB8
331
7EB9
331
8168
331
80A3
331
80A4
331
80B0
331
80B1
331
80BD
331
80BE
331
80CA
331
80CB
331
80D7
331
7F06
331
7F07
331
8167
331
82C6
331
82C7
331
82CF
331
82D0
331
82DC
331
82DD
331
82FF
331
80D8
102
}
  0
BLOCK_RECORD
  5
81F9
330
8175
100
AcDbSymbolTableRecord
100
AcDbBlockTableRecord
  2
YA_N
340
0
102
{BLKREFS
331
7BFC
331
7C11
102
}
  0
BLOCK_RECORD
  5
81FB
330
8175
100
AcDbSymbolTableRecord
100
AcDbBlockTableRecord
  2
*D4
340
0
  0
BLOCK_RECORD
  5
81FD
330
8175
100
AcDbSymbolTableRecord
100
AcDbBlockTableRecord
  2
*D5
340
0
  0
BLOCK_RECORD
  5
81FF
330
8175
100
AcDbSymbolTableRecord
100
AcDbBlockTableRecord
  2
*D6
340
0
  0
BLOCK_RECORD
  5
8201
330
8175
100
AcDbSymbolTableRecord
100
AcDbBlockTableRecord
  2
*D7
340
0
  0
BLOCK_RECORD
  5
8203
330
8175
100
AcDbSymbolTableRecord
100
AcDbBlockTableRecord
  2
*D8
340
0
  0
BLOCK_RECORD
  5
8205
330
8175
100
AcDbSymbolTableRecord
100
AcDbBlockTableRecord
  2
*D9
340
0
  0
BLOCK_RECORD
  5
8207
330
8175
100
AcDbSymbolTableRecord
100
AcDbBlockTableRecord
  2
*D10
340
0
  0
BLOCK_RECORD
  5
8209
330
8175
100
AcDbSymbolTableRecord
100
AcDbBlockTableRecord
  2
*D11
340
0
  0
BLOCK_RECORD
  5
820B
330
8175
100
AcDbSymbolTableRecord
100
AcDbBlockTableRecord
  2
*D12
340
0
  0
BLOCK_RECORD
  5
820D
330
8175
100
AcDbSymbolTableRecord
100
AcDbBlockTableRecord
  2
*D13
340
0
  0
BLOCK_RECORD
  5
820F
330
8175
100
AcDbSymbolTableRecord
100
AcDbBlockTableRecord
  2
*D14
340
0
  0
BLOCK_RECORD
  5
8211
330
8175
100
AcDbSymbolTableRecord
100
AcDbBlockTableRecord
  2
*D15
340
0
  0
BLOCK_RECORD
  5
8213
330
8175
100
AcDbSymbolTableRecord
100
AcDbBlockTableRecord
  2
*D16
340
0
  0
BLOCK_RECORD
  5
8215
330
8175
100
AcDbSymbolTableRecord
100
AcDbBlockTableRecord
  2
*D17
340
0
  0
BLOCK_RECORD
  5
8217
330
8175
100
AcDbSymbolTableRecord
100
AcDbBlockTableRecord
  2
*D18
340
0
  0
BLOCK_RECORD
  5
8219
330
8175
100
AcDbSymbolTableRecord
100
AcDbBlockTableRecord
  2
*D19
340
0
  0
BLOCK_RECORD
  5
821B
330
8175
100
AcDbSymbolTableRecord
100
AcDbBlockTableRecord
  2
_DOT
340
0
  0
BLOCK_RECORD
  5
821D
330
8175
100
AcDbSymbolTableRecord
100
AcDbBlockTableRecord
  2
_NONE
340
0
  0
BLOCK_RECORD
  5
821F
330
8175
100
AcDbSymbolTableRecord
100
AcDbBlockTableRecord
  2
*D22
340
0
  0
BLOCK_RECORD
  5
8221
330
8175
100
AcDbSymbolTableRecord
100
AcDbBlockTableRecord
  2
*D23
340
0
  0
BLOCK_RECORD
  5
8223
330
8175
100
AcDbSymbolTableRecord
100
AcDbBlockTableRecord
  2
*D24
340
0
  0
BLOCK_RECORD
  5
8225
330
8175
100
AcDbSymbolTableRecord
100
AcDbBlockTableRecord
  2
*D25
340
0
  0
BLOCK_RECORD
  5
8227
330
8175
100
AcDbSymbolTableRecord
100
AcDbBlockTableRecord
  2
*D26
340
0
  0
BLOCK_RECORD
  5
822B
330
8175
100
AcDbSymbolTableRecord
100
AcDbBlockTableRecord
  2
*D27
340
0
  0
BLOCK_RECORD
  5
8238
330
8175
100
AcDbSymbolTableRecord
100
AcDbBlockTableRecord
  2
*D28
340
0
  0
BLOCK_RECORD
  5
828F
330
8175
100
AcDbSymbolTableRecord
100
AcDbBlockTableRecord
  2
*D29
340
0
  0
BLOCK_RECORD
  5
829C
330
8175
100
AcDbSymbolTableRecord
100
AcDbBlockTableRecord
  2
*D30
340
0
  0
BLOCK_RECORD
  5
82A9
330
8175
100
AcDbSymbolTableRecord
100
AcDbBlockTableRecord
  2
*D31
340
0
  0
BLOCK_RECORD
  5
82B6
330
8175
100
AcDbSymbolTableRecord
100
AcDbBlockTableRecord
  2
*D32
340
0
  0
BLOCK_RECORD
  5
82D6
330
8175
100
AcDbSymbolTableRecord
100
AcDbBlockTableRecord
  2
*D33
340
0
  0
BLOCK_RECORD
  5
82E7
330
8175
100
AcDbSymbolTableRecord
100
AcDbBlockTableRecord
  2
*D34
340
0
  0
BLOCK_RECORD
  5
8306
330
8175
100
AcDbSymbolTableRecord
100
AcDbBlockTableRecord
  2
*D35
340
0
  0
BLOCK_RECORD
  5
8313
330
8175
100
AcDbSymbolTableRecord
100
AcDbBlockTableRecord
  2
*D36
340
0
  0
BLOCK_RECORD
  5
8320
330
8175
100
AcDbSymbolTableRecord
100
AcDbBlockTableRecord
  2
*D37
340
0
  0
BLOCK_RECORD
  5
832D
330
8175
100
AcDbSymbolTableRecord
100
AcDbBlockTableRecord
  2
*D38
340
0
  0
BLOCK_RECORD
  5
8343
330
8175
100
AcDbSymbolTableRecord
100
AcDbBlockTableRecord
  2
*D39
340
0
  0
BLOCK_RECORD
  5
8359
330
8175
100
AcDbSymbolTableRecord
100
AcDbBlockTableRecord
  2
*D40
340
0
  0
ENDTAB
  0
ENDSEC
  0
SECTION
  2
BLOCKS
  0
BLOCK
  5
81E4
330
81E3
100
AcDbEntity
  8
0
100
AcDbBlockBegin
  2
*Model_Space
 70
     0
 10
0.0
 20
0.0
 30
0.0
  3
*Model_Space
  1

  0
ENDBLK
  5
81E5
330
81E3
100
AcDbEntity
  8
0
100
AcDbBlockEnd
  0
BLOCK
  5
81E0
330
81DF
100
AcDbEntity
 67
     1
  8
0
100
AcDbBlockBegin
  2
*Paper_Space
 70
     0
 10
0.0
 20
0.0
 30
0.0
  3
*Paper_Space
  1

  0
ENDBLK
  5
81E1
330
81DF
100
AcDbEntity
 67
     1
  8
0
100
AcDbBlockEnd
  0
BLOCK
  5
81F4
330
81F3
100
AcDbEntity
  8
0
100
AcDbBlockBegin
  2
$MODEL_SPACE
 70
     0
 10
0.0
 20
0.0
 30
0.0
  3
$MODEL_SPACE
  1

  0
ENDBLK
  5
1B
330
81F3
100
AcDbEntity
  8
0
100
AcDbBlockEnd
  0
BLOCK
  5
81F6
330
81F5
100
AcDbEntity
  8
0
100
AcDbBlockBegin
  2
$PAPER_SPACE
 70
     0
 10
0.0
 20
0.0
 30
0.0
  3
$PAPER_SPACE
  1

  0
ENDBLK
  5
18
330
81F5
100
AcDbEntity
  8
0
100
AcDbBlockEnd
  0
BLOCK
  5
81F8
330
81F7
100
AcDbEntity
  8
0
100
AcDbBlockBegin
  2
_OPEN
 70
     0
 10
0.0
 20
0.0
 30
0.0
  3
_OPEN
  1

  0
LINE
  5
79FD
330
81F7
100
AcDbEntity
  8
0
  6
ByBlock
 62
     0
100
AcDbLine
 10
-1.0
 20
0.1666666666666666
 30
0.0
 11
0.0
 21
0.0
 31
0.0
  0
LINE
  5
79FE
330
81F7
100
AcDbEntity
  8
0
  6
ByBlock
 62
     0
100
AcDbLine
 10
0.0
 20
0.0
 30
0.0
 11
-1.0
 21
-0.1666666666666666
 31
0.0
  0
LINE
  5
79FF
330
81F7
100
AcDbEntity
  8
0
  6
ByBlock
 62
     0
100
AcDbLine
 10
0.0
 20
0.0
 30
0.0
 11
-1.0
 21
0.0
 31
0.0
  0
ENDBLK
  5
7A01
330
81F7
100
AcDbEntity
  8
0
100
AcDbBlockEnd
  0
BLOCK
  5
81FA
330
81F9
100
AcDbEntity
  8
0
100
AcDbBlockBegin
  2
YA_N
 70
     0
 10
0.0
 20
0.0
 30
0.0
  3
YA_N
  1

  0
ENDBLK
  5
7A0C
330
81F9
100
AcDbEntity
  8
0
100
AcDbBlockEnd
  0
BLOCK
  5
81FC
330
81FB
100
AcDbEntity
  8
0
100
AcDbBlockBegin
  2
*D4
 70
     1
 10
0.0
 20
0.0
 30
0.0
  3
*D4
  1

  0
LINE
  5
7DE7
330
81FB
100
AcDbEntity
  8
0
  6
ByBlock
100
AcDbLine
 10
-327.9612595271856
 20
-109.9023735498794
 30
0.0
 11
-456.5227942337424
 21
-109.9023735498794
 31
0.0
  0
LINE
  5
7DE8
330
81FB
100
AcDbEntity
  8
0
  6
ByBlock
100
AcDbLine
 10
-327.9612595271856
 20
540.0976264501204
 30
0.0
 11
-456.5227942337424
 21
540.0976264501204
 31
0.0
  0
LINE
  5
7DE9
330
81FB
100
AcDbEntity
  8
0
  6
ByBlock
100
AcDbLine
 10
-436.5227942337424
 20
-69.9023735498795
 30
0.0
 11
-436.5227942337424
 21
500.0976264501204
 31
0.0
  0
INSERT
  5
7DEA
330
81FB
100
AcDbEntity
  8
0
  6
ByBlock
100
AcDbBlockReference
  2
_OPEN
 10
-436.5227942337424
 20
-109.9023735498794
 30
0.0
 41
40.0
 42
40.0
 43
40.0
 50
270.0
  0
INSERT
  5
7DEB
330
81FB
100
AcDbEntity
  8
0
  6
ByBlock
100
AcDbBlockReference
  2
_OPEN
 10
-436.5227942337424
 20
540.0976264501204
 30
0.0
 41
40.0
 42
40.0
 43
40.0
 50
90.0
  0
TEXT
  5
7DEC
330
81FB
100
AcDbEntity
  8
3
100
AcDbText
 10
-446.5227942337422
 20
137.9547693072633
 30
0.0
 40
60.0
  1
650
 50
90.0
100
AcDbText
  0
POINT
  5
7DED
330
81FB
100
AcDbEntity
  8
DEFPOINTS
  6
ByBlock
 62
     0
100
AcDbPoint
 10
-307.9612595271855
 20
-109.9023735498794
 30
0.0
  0
POINT
  5
7DEE
330
81FB
100
AcDbEntity
  8
DEFPOINTS
  6
ByBlock
 62
     0
100
AcDbPoint
 10
-307.9612595271855
 20
540.0976264501204
 30
0.0
  0
POINT
  5
7DEF
330
81FB
100
AcDbEntity
  8
DEFPOINTS
  6
ByBlock
 62
     0
100
AcDbPoint
 10
-436.5227942337424
 20
540.0976264501204
 30
0.0
  0
ENDBLK
  5
7DF0
330
81FB
100
AcDbEntity
  8
0
100
AcDbBlockEnd
  0
BLOCK
  5
81FE
330
81FD
100
AcDbEntity
  8
0
100
AcDbBlockBegin
  2
*D5
 70
     1
 10
0.0
 20
0.0
 30
0.0
  3
*D5
  1

  0
LINE
  5
7DF2
330
81FD
100
AcDbEntity
  8
0
  6
ByBlock
100
AcDbLine
 10
-327.9612595271856
 20
-109.9023735498794
 30
0.0
 11
-576.1118528099395
 21
-109.9023735498794
 31
0.0
  0
LINE
  5
7DF3
330
81FD
100
AcDbEntity
  8
0
  6
ByBlock
100
AcDbLine
 10
-374.8542326301812
 20
568.0976264501205
 30
0.0
 11
-576.1118528099395
 21
568.0976264501205
 31
0.0
  0
LINE
  5
7DF4
330
81FD
100
AcDbEntity
  8
0
  6
ByBlock
100
AcDbLine
 10
-556.1118528099394
 20
-69.9023735498795
 30
0.0
 11
-556.1118528099394
 21
528.0976264501203
 31
0.0
  0
INSERT
  5
7DF5
330
81FD
100
AcDbEntity
  8
0
  6
ByBlock
100
AcDbBlockReference
  2
_OPEN
 10
-556.1118528099394
 20
-109.9023735498794
 30
0.0
 41
40.0
 42
40.0
 43
40.0
 50
270.0
  0
INSERT
  5
7DF6
330
81FD
100
AcDbEntity
  8
0
  6
ByBlock
100
AcDbBlockReference
  2
_OPEN
 10
-556.1118528099394
 20
568.0976264501205
 30
0.0
 41
40.0
 42
40.0
 43
40.0
 50
90.0
  0
TEXT
  5
7DF7
330
81FD
100
AcDbEntity
  8
3
100
AcDbText
 10
-566.1118528099397
 20
151.9547693072633
 30
0.0
 40
60.0
  1
678
 50
90.0
100
AcDbText
  0
POINT
  5
7DF8
330
81FD
100
AcDbEntity
  8
DEFPOINTS
  6
ByBlock
 62
     0
100
AcDbPoint
 10
-307.9612595271855
 20
-109.9023735498794
 30
0.0
  0
POINT
  5
7DF9
330
81FD
100
AcDbEntity
  8
DEFPOINTS
  6
ByBlock
 62
     0
100
AcDbPoint
 10
-354.8542326301812
 20
568.0976264501205
 30
0.0
  0
POINT
  5
7DFA
330
81FD
100
AcDbEntity
  8
DEFPOINTS
  6
ByBlock
 62
     0
100
AcDbPoint
 10
-556.1118528099394
 20
568.0976264501205
 30
0.0
  0
ENDBLK
  5
7DFB
330
81FD
100
AcDbEntity
  8
0
100
AcDbBlockEnd
  0
BLOCK
  5
8200
330
81FF
100
AcDbEntity
  8
0
100
AcDbBlockBegin
  2
*D6
 70
     1
 10
0.0
 20
0.0
 30
0.0
  3
*D6
  1

  0
LINE
  5
7F43
330
81FF
100
AcDbEntity
  8
0
  6
ByBlock
100
AcDbLine
 10
3668.964424613871
 20
2654.660298728197
 30
0.0
 11
3917.001458184535
 21
2654.660298728197
 31
0.0
  0
LINE
  5
7F44
330
81FF
100
AcDbEntity
  8
0
  6
ByBlock
100
AcDbLine
 10
3668.964424613871
 20
1984.660298728196
 30
0.0
 11
3917.001458184535
 21
1984.660298728196
 31
0.0
  0
LINE
  5
7F45
330
81FF
100
AcDbEntity
  8
0
  6
ByBlock
100
AcDbLine
 10
3897.001458184535
 20
2614.660298728197
 30
0.0
 11
3897.001458184535
 21
2024.660298728196
 31
0.0
  0
INSERT
  5
7F46
330
81FF
100
AcDbEntity
  8
0
  6
ByBlock
100
AcDbBlockReference
  2
_OPEN
 10
3897.001458184535
 20
2654.660298728197
 30
0.0
 41
40.0
 42
40.0
 43
40.0
 50
90.0
  0
INSERT
  5
7F47
330
81FF
100
AcDbEntity
  8
0
  6
ByBlock
100
AcDbBlockReference
  2
_OPEN
 10
3897.001458184535
 20
1984.660298728196
 30
0.0
 41
40.0
 42
40.0
 43
40.0
 50
270.0
  0
TEXT
  5
7F48
330
81FF
100
AcDbEntity
  8
3
100
AcDbText
 10
3887.001458184535
 20
2212.517441585339
 30
0.0
 40
60.0
  1
\U+03C6670
 50
90.0
100
AcDbText
  0
POINT
  5
7F49
330
81FF
100
AcDbEntity
  8
DEFPOINTS
  6
ByBlock
 62
     0
100
AcDbPoint
 10
3648.964424613871
 20
2654.660298728197
 30
0.0
  0
POINT
  5
7F4A
330
81FF
100
AcDbEntity
  8
DEFPOINTS
  6
ByBlock
 62
     0
100
AcDbPoint
 10
3648.964424613871
 20
1984.660298728196
 30
0.0
  0
POINT
  5
7F4B
330
81FF
100
AcDbEntity
  8
DEFPOINTS
  6
ByBlock
 62
     0
100
AcDbPoint
 10
3897.001458184535
 20
1984.660298728196
 30
0.0
  0
ENDBLK
  5
7F4C
330
81FF
100
AcDbEntity
  8
0
100
AcDbBlockEnd
  0
BLOCK
  5
8202
330
8201
100
AcDbEntity
  8
0
100
AcDbBlockBegin
  2
*D7
 70
     1
 10
0.0
 20
0.0
 30
0.0
  3
*D7
  1

  0
LINE
  5
7E1E
330
8201
100
AcDbEntity
  8
0
  6
ByBlock
100
AcDbLine
 10
2167.296193483282
 20
1018.497617330824
 30
0.0
 11
2167.296193483282
 21
1113.682524828345
 31
0.0
  0
LINE
  5
7E1F
330
8201
100
AcDbEntity
  8
0
  6
ByBlock
100
AcDbLine
 10
2967.296193483282
 20
1018.497617330824
 30
0.0
 11
2967.296193483282
 21
1113.682524828345
 31
0.0
  0
LINE
  5
7E20
330
8201
100
AcDbEntity
  8
0
  6
ByBlock
100
AcDbLine
 10
2207.296193483281
 20
1093.682524828345
 30
0.0
 11
2927.296193483282
 21
1093.682524828345
 31
0.0
  0
INSERT
  5
7E21
330
8201
100
AcDbEntity
  8
0
  6
ByBlock
100
AcDbBlockReference
  2
_OPEN
 10
2167.296193483282
 20
1093.682524828345
 30
0.0
 41
40.0
 42
40.0
 43
40.0
 50
180.0
  0
INSERT
  5
7E22
330
8201
100
AcDbEntity
  8
0
  6
ByBlock
100
AcDbBlockReference
  2
_OPEN
 10
2967.296193483282
 20
1093.682524828345
 30
0.0
 41
40.0
 42
40.0
 43
40.0
  0
TEXT
  5
7E23
330
8201
100
AcDbEntity
  8
3
100
AcDbText
 10
2490.153336340425
 20
1103.682524828345
 30
0.0
 40
60.0
  1
800
100
AcDbText
  0
POINT
  5
7E24
330
8201
100
AcDbEntity
  8
DEFPOINTS
  6
ByBlock
 62
     0
100
AcDbPoint
 10
2167.296193483282
 20
998.4976173308242
 30
0.0
  0
POINT
  5
7E25
330
8201
100
AcDbEntity
  8
DEFPOINTS
  6
ByBlock
 62
     0
100
AcDbPoint
 10
2967.296193483282
 20
998.4976173308238
 30
0.0
  0
POINT
  5
7E26
330
8201
100
AcDbEntity
  8
DEFPOINTS
  6
ByBlock
 62
     0
100
AcDbPoint
 10
2967.296193483282
 20
1093.682524828345
 30
0.0
  0
ENDBLK
  5
7E27
330
8201
100
AcDbEntity
  8
0
100
AcDbBlockEnd
  0
BLOCK
  5
8204
330
8203
100
AcDbEntity
  8
0
100
AcDbBlockBegin
  2
*D8
 70
     1
 10
0.0
 20
0.0
 30
0.0
  3
*D8
  1

  0
LINE
  5
7E34
330
8203
100
AcDbEntity
  8
0
  6
ByBlock
100
AcDbLine
 10
1202.038740472814
 20
1858.357209896735
 30
0.0
 11
1202.038740472814
 21
1582.955611777533
 31
0.0
  0
LINE
  5
7E35
330
8203
100
AcDbEntity
  8
0
  6
ByBlock
100
AcDbLine
 10
-247.9612595271855
 20
1858.357209896736
 30
0.0
 11
-247.9612595271855
 21
1582.955611777533
 31
0.0
  0
LINE
  5
7E36
330
8203
100
AcDbEntity
  8
0
  6
ByBlock
100
AcDbLine
 10
1162.038740472814
 20
1602.955611777533
 30
0.0
 11
-207.9612595271855
 21
1602.955611777533
 31
0.0
  0
INSERT
  5
7E37
330
8203
100
AcDbEntity
  8
0
  6
ByBlock
100
AcDbBlockReference
  2
_OPEN
 10
1202.038740472814
 20
1602.955611777533
 30
0.0
 41
40.0
 42
40.0
 43
40.0
  0
INSERT
  5
7E38
330
8203
100
AcDbEntity
  8
0
  6
ByBlock
100
AcDbBlockReference
  2
_OPEN
 10
-247.9612595271855
 20
1602.955611777533
 30
0.0
 41
40.0
 42
40.0
 43
40.0
 50
180.0
  0
TEXT
  5
7E39
330
8203
100
AcDbEntity
  8
3
100
AcDbText
 10
377.0387404728144
 20
1612.955611777533
 30
0.0
 40
60.0
  1
1450
100
AcDbText
  0
POINT
  5
7E3A
330
8203
100
AcDbEntity
  8
DEFPOINTS
  6
ByBlock
 62
     0
100
AcDbPoint
 10
1202.038740472814
 20
1878.357209896735
 30
0.0
  0
POINT
  5
7E3B
330
8203
100
AcDbEntity
  8
DEFPOINTS
  6
ByBlock
 62
     0
100
AcDbPoint
 10
-247.9612595271855
 20
1878.357209896736
 30
0.0
  0
POINT
  5
7E3C
330
8203
100
AcDbEntity
  8
DEFPOINTS
  6
ByBlock
 62
     0
100
AcDbPoint
 10
-247.9612595271855
 20
1602.955611777533
 30
0.0
  0
ENDBLK
  5
7E3D
330
8203
100
AcDbEntity
  8
0
100
AcDbBlockEnd
  0
BLOCK
  5
8206
330
8205
100
AcDbEntity
  8
0
100
AcDbBlockBegin
  2
*D9
 70
     1
 10
0.0
 20
0.0
 30
0.0
  3
*D9
  1

  0
LINE
  5
7F63
330
8205
100
AcDbEntity
  8
0
  6
ByBlock
100
AcDbLine
 10
746.1549378146927
 20
3492.710584264269
 30
0.0
 11
537.3629668160848
 21
3492.710584264269
 31
0.0
  0
LINE
  5
7F64
330
8205
100
AcDbEntity
  8
0
  6
ByBlock
100
AcDbLine
 10
746.1549378146919
 20
4498.71058426427
 30
0.0
 11
537.3629668160848
 21
4498.71058426427
 31
0.0
  0
LINE
  5
7F65
330
8205
100
AcDbEntity
  8
0
  6
ByBlock
100
AcDbLine
 10
557.3629668160848
 20
3532.710584264269
 30
0.0
 11
557.3629668160848
 21
4458.71058426427
 31
0.0
  0
INSERT
  5
7F66
330
8205
100
AcDbEntity
  8
0
  6
ByBlock
100
AcDbBlockReference
  2
_OPEN
 10
557.3629668160848
 20
3492.710584264269
 30
0.0
 41
40.0
 42
40.0
 43
40.0
 50
270.0
  0
INSERT
  5
7F67
330
8205
100
AcDbEntity
  8
0
  6
ByBlock
100
AcDbBlockReference
  2
_OPEN
 10
557.3629668160848
 20
4498.71058426427
 30
0.0
 41
40.0
 42
40.0
 43
40.0
 50
90.0
  0
TEXT
  5
7F68
330
8205
100
AcDbEntity
  8
3
100
AcDbText
 10
547.3629668160848
 20
3897.13915569284
 30
0.0
 40
60.0
  1
1006
 50
90.0
100
AcDbText
  0
POINT
  5
7F69
330
8205
100
AcDbEntity
  8
DEFPOINTS
  6
ByBlock
 62
     0
100
AcDbPoint
 10
766.1549378146927
 20
3492.710584264269
 30
0.0
  0
POINT
  5
7F6A
330
8205
100
AcDbEntity
  8
DEFPOINTS
  6
ByBlock
 62
     0
100
AcDbPoint
 10
766.1549378146919
 20
4498.71058426427
 30
0.0
  0
POINT
  5
7F6B
330
8205
100
AcDbEntity
  8
DEFPOINTS
  6
ByBlock
 62
     0
100
AcDbPoint
 10
557.3629668160848
 20
4498.71058426427
 30
0.0
  0
ENDBLK
  5
7F6C
330
8205
100
AcDbEntity
  8
0
100
AcDbBlockEnd
  0
BLOCK
  5
8208
330
8207
100
AcDbEntity
  8
0
100
AcDbBlockBegin
  2
*D10
 70
     1
 10
0.0
 20
0.0
 30
0.0
  3
*D10
  1

  0
LINE
  5
7F58
330
8207
100
AcDbEntity
  8
0
  6
ByBlock
100
AcDbLine
 10
1566.154937814693
 20
4518.710584264268
 30
0.0
 11
1566.154937814693
 21
4614.543070233767
 31
0.0
  0
LINE
  5
7F59
330
8207
100
AcDbEntity
  8
0
  6
ByBlock
100
AcDbLine
 10
766.1549378146919
 20
4518.710584264272
 30
0.0
 11
766.1549378146919
 21
4614.543070233767
 31
0.0
  0
LINE
  5
7F5A
330
8207
100
AcDbEntity
  8
0
  6
ByBlock
100
AcDbLine
 10
1526.154937814693
 20
4594.543070233767
 30
0.0
 11
806.1549378146919
 21
4594.543070233767
 31
0.0
  0
INSERT
  5
7F5B
330
8207
100
AcDbEntity
  8
0
  6
ByBlock
100
AcDbBlockReference
  2
_OPEN
 10
1566.154937814693
 20
4594.543070233767
 30
0.0
 41
40.0
 42
40.0
 43
40.0
  0
INSERT
  5
7F5C
330
8207
100
AcDbEntity
  8
0
  6
ByBlock
100
AcDbBlockReference
  2
_OPEN
 10
766.1549378146919
 20
4594.543070233767
 30
0.0
 41
40.0
 42
40.0
 43
40.0
 50
180.0
  0
TEXT
  5
7F5D
330
8207
100
AcDbEntity
  8
3
100
AcDbText
 10
1089.012080671835
 20
4604.543070233767
 30
0.0
 40
60.0
  1
800
100
AcDbText
  0
POINT
  5
7F5E
330
8207
100
AcDbEntity
  8
DEFPOINTS
  6
ByBlock
 62
     0
100
AcDbPoint
 10
1566.154937814693
 20
4498.710584264268
 30
0.0
  0
POINT
  5
7F5F
330
8207
100
AcDbEntity
  8
DEFPOINTS
  6
ByBlock
 62
     0
100
AcDbPoint
 10
766.1549378146919
 20
4498.71058426427
 30
0.0
  0
POINT
  5
7F60
330
8207
100
AcDbEntity
  8
DEFPOINTS
  6
ByBlock
 62
     0
100
AcDbPoint
 10
766.1549378146919
 20
4594.543070233767
 30
0.0
  0
ENDBLK
  5
7F61
330
8207
100
AcDbEntity
  8
0
100
AcDbBlockEnd
  0
BLOCK
  5
820A
330
8209
100
AcDbEntity
  8
0
100
AcDbBlockBegin
  2
*D11
 70
     1
 10
0.0
 20
0.0
 30
0.0
  3
*D11
  1

  0
LINE
  5
7E55
330
8209
100
AcDbEntity
  8
0
  6
ByBlock
100
AcDbLine
 10
1222.038740472814
 20
2478.357209896735
 30
0.0
 11
1372.466324348095
 21
2478.357209896735
 31
0.0
  0
LINE
  5
7E56
330
8209
100
AcDbEntity
  8
0
  6
ByBlock
100
AcDbLine
 10
1222.038740472814
 20
1878.357209896735
 30
0.0
 11
1372.466324348095
 21
1878.357209896735
 31
0.0
  0
LINE
  5
7E57
330
8209
100
AcDbEntity
  8
0
  6
ByBlock
100
AcDbLine
 10
1352.466324348095
 20
2438.357209896735
 30
0.0
 11
1352.466324348095
 21
1918.357209896735
 31
0.0
  0
INSERT
  5
7E58
330
8209
100
AcDbEntity
  8
0
  6
ByBlock
100
AcDbBlockReference
  2
_OPEN
 10
1352.466324348095
 20
2478.357209896735
 30
0.0
 41
40.0
 42
40.0
 43
40.0
 50
90.0
  0
INSERT
  5
7E59
330
8209
100
AcDbEntity
  8
0
  6
ByBlock
100
AcDbBlockReference
  2
_OPEN
 10
1352.466324348095
 20
1878.357209896735
 30
0.0
 41
40.0
 42
40.0
 43
40.0
 50
270.0
  0
TEXT
  5
7E5A
330
8209
100
AcDbEntity
  8
3
100
AcDbText
 10
1342.466324348095
 20
2101.214352753876
 30
0.0
 40
60.0
  1
600
 50
90.0
100
AcDbText
  0
POINT
  5
7E5B
330
8209
100
AcDbEntity
  8
DEFPOINTS
  6
ByBlock
 62
     0
100
AcDbPoint
 10
1202.038740472814
 20
2478.357209896735
 30
0.0
  0
POINT
  5
7E5C
330
8209
100
AcDbEntity
  8
DEFPOINTS
  6
ByBlock
 62
     0
100
AcDbPoint
 10
1202.038740472814
 20
1878.357209896735
 30
0.0
  0
POINT
  5
7E5D
330
8209
100
AcDbEntity
  8
DEFPOINTS
  6
ByBlock
 62
     0
100
AcDbPoint
 10
1352.466324348095
 20
1878.357209896735
 30
0.0
  0
ENDBLK
  5
7E5E
330
8209
100
AcDbEntity
  8
0
100
AcDbBlockEnd
  0
BLOCK
  5
820C
330
820B
100
AcDbEntity
  8
0
100
AcDbBlockBegin
  2
*D12
 70
     1
 10
0.0
 20
0.0
 30
0.0
  3
*D12
  1

  0
LINE
  5
7F23
330
820B
100
AcDbEntity
  8
0
  6
ByBlock
100
AcDbLine
 10
2216.154937814692
 20
1742.987676433646
 30
0.0
 11
2216.154937814692
 21
3123.034868643582
 31
0.0
  0
LINE
  5
7F24
330
820B
100
AcDbEntity
  8
0
  6
ByBlock
100
AcDbLine
 10
706.1549378146927
 20
2383.152369081682
 30
0.0
 11
706.1549378146927
 21
3123.034868643582
 31
0.0
  0
LINE
  5
7F25
330
820B
100
AcDbEntity
  8
0
  6
ByBlock
100
AcDbLine
 10
2176.154937814692
 20
3103.034868643582
 30
0.0
 11
746.1549378146927
 21
3103.034868643582
 31
0.0
  0
INSERT
  5
7F26
330
820B
100
AcDbEntity
  8
0
  6
ByBlock
100
AcDbBlockReference
  2
_OPEN
 10
2216.154937814692
 20
3103.034868643582
 30
0.0
 41
40.0
 42
40.0
 43
40.0
  0
INSERT
  5
7F27
330
820B
100
AcDbEntity
  8
0
  6
ByBlock
100
AcDbBlockReference
  2
_OPEN
 10
706.1549378146927
 20
3103.034868643582
 30
0.0
 41
40.0
 42
40.0
 43
40.0
 50
180.0
  0
TEXT
  5
7F28
330
820B
100
AcDbEntity
  8
3
100
AcDbText
 10
1366.869223528978
 20
3113.034868643581
 30
0.0
 40
60.0
  1
1510
100
AcDbText
  0
POINT
  5
7F29
330
820B
100
AcDbEntity
  8
DEFPOINTS
  6
ByBlock
 62
     0
100
AcDbPoint
 10
2216.154937814692
 20
1722.987676433645
 30
0.0
  0
POINT
  5
7F2A
330
820B
100
AcDbEntity
  8
DEFPOINTS
  6
ByBlock
 62
     0
100
AcDbPoint
 10
706.1549378146927
 20
2363.152369081683
 30
0.0
  0
POINT
  5
7F2B
330
820B
100
AcDbEntity
  8
DEFPOINTS
  6
ByBlock
 62
     0
100
AcDbPoint
 10
706.1549378146927
 20
3103.034868643582
 30
0.0
  0
ENDBLK
  5
7F2C
330
820B
100
AcDbEntity
  8
0
100
AcDbBlockEnd
  0
BLOCK
  5
820E
330
820D
100
AcDbEntity
  8
0
100
AcDbBlockBegin
  2
*D13
 70
     1
 10
0.0
 20
0.0
 30
0.0
  3
*D13
  1

  0
LINE
  5
8014
330
820D
100
AcDbEntity
  8
0
  6
ByBlock
100
AcDbLine
 10
3743.464424613871
 20
2309.660298728196
 30
0.0
 11
3743.464424613871
 21
3011.096369271985
 31
0.0
  0
LINE
  5
8015
330
820D
100
AcDbEntity
  8
0
  6
ByBlock
100
AcDbLine
 10
3243.464424613871
 20
2927.011009353422
 30
0.0
 11
3243.464424613871
 21
3011.096369271985
 31
0.0
  0
LINE
  5
8016
330
820D
100
AcDbEntity
  8
0
  6
ByBlock
100
AcDbLine
 10
3703.464424613871
 20
2991.096369271985
 30
0.0
 11
3283.464424613871
 21
2991.096369271985
 31
0.0
  0
INSERT
  5
8017
330
820D
100
AcDbEntity
  8
0
  6
ByBlock
100
AcDbBlockReference
  2
_OPEN
 10
3743.464424613871
 20
2991.096369271985
 30
0.0
 41
40.0
 42
40.0
 43
40.0
  0
INSERT
  5
8018
330
820D
100
AcDbEntity
  8
0
  6
ByBlock
100
AcDbBlockReference
  2
_OPEN
 10
3243.464424613871
 20
2991.096369271985
 30
0.0
 41
40.0
 42
40.0
 43
40.0
 50
180.0
  0
TEXT
  5
8019
330
820D
100
AcDbEntity
  8
3
100
AcDbText
 10
3383.464424613871
 20
3026.810654986271
 30
0.0
 40
60.0
  1
(510)
100
AcDbText
  0
POINT
  5
801A
330
820D
100
AcDbEntity
  8
DEFPOINTS
  6
ByBlock
 62
     0
100
AcDbPoint
 10
3743.464424613871
 20
2289.660298728196
 30
0.0
  0
POINT
  5
801B
330
820D
100
AcDbEntity
  8
DEFPOINTS
  6
ByBlock
 62
     0
100
AcDbPoint
 10
3243.464424613871
 20
2907.011009353422
 30
0.0
  0
POINT
  5
801C
330
820D
100
AcDbEntity
  8
DEFPOINTS
  6
ByBlock
 62
     0
100
AcDbPoint
 10
3243.464424613871
 20
2991.096369271985
 30
0.0
  0
ENDBLK
  5
801D
330
820D
100
AcDbEntity
  8
0
100
AcDbBlockEnd
  0
BLOCK
  5
8210
330
820F
100
AcDbEntity
  8
0
100
AcDbBlockBegin
  2
*D14
 70
     1
 10
0.0
 20
0.0
 30
0.0
  3
*D14
  1

  0
LINE
  5
814C
330
820F
100
AcDbEntity
  8
3
100
AcDbLine
 10
2563.464424613871
 20
2489.660298728197
 30
0.0
 11
2563.464424613871
 21
3011.096369271985
 31
0.0
  0
LINE
  5
814D
330
820F
100
AcDbEntity
  8
3
100
AcDbLine
 10
3203.464424613871
 20
2991.096369271985
 30
0.0
 11
2603.464424613871
 21
2991.096369271985
 31
0.0
  0
INSERT
  5
814E
330
820F
100
AcDbEntity
  8
3
100
AcDbBlockReference
  2
_OPEN
 10
3243.464424613871
 20
2991.096369271985
 30
0.0
 41
40.0
 42
40.0
 43
40.0
  0
INSERT
  5
814F
330
820F
100
AcDbEntity
  8
3
100
AcDbBlockReference
  2
_OPEN
 10
2563.464424613871
 20
2991.096369271985
 30
0.0
 41
40.0
 42
40.0
 43
40.0
 50
180.0
  0
TEXT
  5
8170
330
820F
100
AcDbEntity
  8
3
100
AcDbText
 10
2783.46
 20
2974.9
 30
0.0
 40
60.0
  1
MAX
100
AcDbText
  0
TEXT
  5
8171
330
820F
100
AcDbEntity
  8
3
100
AcDbText
 10
2783.46
 20
2896.9
 30
0.0
 40
60.0
  1
710
100
AcDbText
  0
POINT
  5
8151
330
820F
100
AcDbEntity
  8
DEFPOINTS
 62
     0
100
AcDbPoint
 10
3243.464424613871
 20
2907.011009353422
 30
0.0
  0
POINT
  5
8152
330
820F
100
AcDbEntity
  8
DEFPOINTS
 62
     0
100
AcDbPoint
 10
2563.464424613871
 20
2469.660298728197
 30
0.0
  0
POINT
  5
8153
330
820F
100
AcDbEntity
  8
DEFPOINTS
 62
     0
100
AcDbPoint
 10
2563.464424613871
 20
2991.096369271985
 30
0.0
  0
ENDBLK
  5
8012
330
820F
100
AcDbEntity
  8
0
100
AcDbBlockEnd
  0
BLOCK
  5
8212
330
8211
100
AcDbEntity
  8
0
100
AcDbBlockBegin
  2
*D15
 70
     1
 10
0.0
 20
0.0
 30
0.0
  3
*D15
  1

  0
LINE
  5
8154
330
8211
100
AcDbEntity
  8
3
100
AcDbLine
 10
2459.055040675533
 20
4112.710584264267
 30
0.0
 11
2459.055040675533
 21
4614.543070233767
 31
0.0
  0
LINE
  5
8155
330
8211
100
AcDbEntity
  8
3
100
AcDbLine
 10
1849.055040675533
 20
4594.543070233767
 30
0.0
 11
2419.055040675532
 21
4594.543070233767
 31
0.0
  0
INSERT
  5
8156
330
8211
100
AcDbEntity
  8
3
100
AcDbBlockReference
  2
_OPEN
 10
1809.055040675533
 20
4594.543070233767
 30
0.0
 41
40.0
 42
40.0
 43
40.0
 50
180.0
  0
INSERT
  5
8157
330
8211
100
AcDbEntity
  8
3
100
AcDbBlockReference
  2
_OPEN
 10
2459.055040675533
 20
4594.543070233767
 30
0.0
 41
40.0
 42
40.0
 43
40.0
  0
TEXT
  5
8172
330
8211
100
AcDbEntity
  8
3
100
AcDbText
 10
2014.06
 20
4528.34
 30
0.0
 40
60.0
  1
650
100
AcDbText
  0
POINT
  5
8159
330
8211
100
AcDbEntity
  8
DEFPOINTS
 62
     0
100
AcDbPoint
 10
1809.055040675533
 20
4498.710584264268
 30
0.0
  0
POINT
  5
815A
330
8211
100
AcDbEntity
  8
DEFPOINTS
 62
     0
100
AcDbPoint
 10
2459.055040675533
 20
4092.710584264266
 30
0.0
  0
POINT
  5
815B
330
8211
100
AcDbEntity
  8
DEFPOINTS
 62
     0
100
AcDbPoint
 10
2459.055040675533
 20
4594.543070233767
 30
0.0
  0
ENDBLK
  5
7F56
330
8211
100
AcDbEntity
  8
0
100
AcDbBlockEnd
  0
BLOCK
  5
8214
330
8213
100
AcDbEntity
  8
0
100
AcDbBlockBegin
  2
*D16
 70
     1
 10
0.0
 20
0.0
 30
0.0
  3
*D16
  1

  0
LINE
  5
7F03
330
8213
100
AcDbEntity
  8
0
  6
ByBlock
100
AcDbLine
 10
706.1549378146927
 20
2402.987676433645
 30
0.0
 11
706.1549378146927
 21
2992.206601340543
 31
0.0
  0
LINE
  5
7F04
330
8213
100
AcDbEntity
  8
0
  6
ByBlock
100
AcDbLine
 10
1166.154937814692
 20
2858.70588540751
 30
0.0
 11
1166.154937814692
 21
2992.206601340543
 31
0.0
  0
LINE
  5
7F05
330
8213
100
AcDbEntity
  8
0
  6
ByBlock
100
AcDbLine
 10
746.1549378146927
 20
2972.206601340543
 30
0.0
 11
1126.154937814692
 21
2972.206601340543
 31
0.0
  0
INSERT
  5
7F06
330
8213
100
AcDbEntity
  8
0
  6
ByBlock
100
AcDbBlockReference
  2
_OPEN
 10
706.1549378146927
 20
2972.206601340543
 30
0.0
 41
40.0
 42
40.0
 43
40.0
 50
180.0
  0
INSERT
  5
7F07
330
8213
100
AcDbEntity
  8
0
  6
ByBlock
100
AcDbBlockReference
  2
_OPEN
 10
1166.154937814692
 20
2972.206601340543
 30
0.0
 41
40.0
 42
40.0
 43
40.0
  0
TEXT
  5
7F08
330
8213
100
AcDbEntity
  8
3
100
AcDbText
 10
859.0120806718356
 20
2982.206601340543
 30
0.0
 40
60.0
  1
460
100
AcDbText
  0
POINT
  5
7F09
330
8213
100
AcDbEntity
  8
DEFPOINTS
  6
ByBlock
 62
     0
100
AcDbPoint
 10
706.1549378146927
 20
2382.987676433645
 30
0.0
  0
POINT
  5
7F0A
330
8213
100
AcDbEntity
  8
DEFPOINTS
  6
ByBlock
 62
     0
100
AcDbPoint
 10
1166.154937814692
 20
2838.70588540751
 30
0.0
  0
POINT
  5
7F0B
330
8213
100
AcDbEntity
  8
DEFPOINTS
  6
ByBlock
 62
     0
100
AcDbPoint
 10
1166.154937814692
 20
2972.206601340543
 30
0.0
  0
ENDBLK
  5
7F0C
330
8213
100
AcDbEntity
  8
0
100
AcDbBlockEnd
  0
BLOCK
  5
8216
330
8215
100
AcDbEntity
  8
0
100
AcDbBlockBegin
  2
*D17
 70
     1
 10
0.0
 20
0.0
 30
0.0
  3
*D17
  1

  0
LINE
  5
815C
330
8215
100
AcDbEntity
  8
3
100
AcDbLine
 10
1957.055040675532
 20
2292.660298728196
 30
0.0
 11
1957.055040675532
 21
2928.879223635093
 31
0.0
  0
LINE
  5
815D
330
8215
100
AcDbEntity
  8
3
100
AcDbLine
 10
1449.055040675532
 20
2908.879223635093
 30
0.0
 11
1917.055040675532
 21
2908.879223635093
 31
0.0
  0
INSERT
  5
815E
330
8215
100
AcDbEntity
  8
3
100
AcDbBlockReference
  2
_OPEN
 10
1409.055040675532
 20
2908.879223635093
 30
0.0
 41
40.0
 42
40.0
 43
40.0
 50
180.0
  0
INSERT
  5
815F
330
8215
100
AcDbEntity
  8
3
100
AcDbBlockReference
  2
_OPEN
 10
1957.055040675532
 20
2908.879223635093
 30
0.0
 41
40.0
 42
40.0
 43
40.0
  0
TEXT
  5
8173
330
8215
100
AcDbEntity
  8
3
100
AcDbText
 10
1563.06
 20
2842.68
 30
0.0
 40
60.0
  1
548
100
AcDbText
  0
POINT
  5
8161
330
8215
100
AcDbEntity
  8
DEFPOINTS
 62
     0
100
AcDbPoint
 10
1409.055040675532
 20
2775.378507702062
 30
0.0
  0
POINT
  5
8162
330
8215
100
AcDbEntity
  8
DEFPOINTS
 62
     0
100
AcDbPoint
 10
1957.055040675532
 20
2272.660298728196
 30
0.0
  0
POINT
  5
8163
330
8215
100
AcDbEntity
  8
DEFPOINTS
 62
     0
100
AcDbPoint
 10
1957.055040675532
 20
2908.879223635093
 30
0.0
  0
ENDBLK
  5
7EF6
330
8215
100
AcDbEntity
  8
0
100
AcDbBlockEnd
  0
BLOCK
  5
8218
330
8217
100
AcDbEntity
  8
0
100
AcDbBlockBegin
  2
*D18
 70
     1
 10
0.0
 20
0.0
 30
0.0
  3
*D18
  1

  0
LINE
  5
7EB5
330
8217
100
AcDbEntity
  8
0
  6
ByBlock
100
AcDbLine
 10
179.0387404728144
 20
1022.09762645012
 30
0.0
 11
-683.540011941328
 21
1022.09762645012
 31
0.0
  0
LINE
  5
7EB6
330
8217
100
AcDbEntity
  8
0
  6
ByBlock
100
AcDbLine
 10
-394.8542326301812
 20
568.0976264501205
 30
0.0
 11
-683.540011941328
 21
568.0976264501205
 31
0.0
  0
LINE
  5
7EB7
330
8217
100
AcDbEntity
  8
0
  6
ByBlock
100
AcDbLine
 10
-663.5400119413279
 20
982.0976264501204
 30
0.0
 11
-663.5400119413279
 21
608.0976264501205
 31
0.0
  0
INSERT
  5
7EB8
330
8217
100
AcDbEntity
  8
0
  6
ByBlock
100
AcDbBlockReference
  2
_OPEN
 10
-663.5400119413279
 20
1022.09762645012
 30
0.0
 41
40.0
 42
40.0
 43
40.0
 50
90.0
  0
INSERT
  5
7EB9
330
8217
100
AcDbEntity
  8
0
  6
ByBlock
100
AcDbBlockReference
  2
_OPEN
 10
-663.5400119413279
 20
568.0976264501205
 30
0.0
 41
40.0
 42
40.0
 43
40.0
 50
270.0
  0
TEXT
  5
7EBA
330
8217
100
AcDbEntity
  8
3
100
AcDbText
 10
-673.5400119413278
 20
716.526197878692
 30
0.0
 40
60.0
  1
454
 50
90.0
100
AcDbText
  0
POINT
  5
7EBB
330
8217
100
AcDbEntity
  8
DEFPOINTS
  6
ByBlock
 62
     0
100
AcDbPoint
 10
199.0387404728144
 20
1022.09762645012
 30
0.0
  0
POINT
  5
7EBC
330
8217
100
AcDbEntity
  8
DEFPOINTS
  6
ByBlock
 62
     0
100
AcDbPoint
 10
-374.8542326301812
 20
568.0976264501205
 30
0.0
  0
POINT
  5
7EBD
330
8217
100
AcDbEntity
  8
DEFPOINTS
  6
ByBlock
 62
     0
100
AcDbPoint
 10
-663.5400119413279
 20
568.0976264501205
 30
0.0
  0
ENDBLK
  5
7EBE
330
8217
100
AcDbEntity
  8
0
100
AcDbBlockEnd
  0
BLOCK
  5
821A
330
8219
100
AcDbEntity
  8
0
100
AcDbBlockBegin
  2
*D19
 70
     1
 10
0.0
 20
0.0
 30
0.0
  3
*D19
  1

  0
LINE
  5
8164
330
8219
100
AcDbEntity
  8
3
 62
     0
100
AcDbLine
 10
872.1620675725372
 20
2319.660298728196
 30
0.0
 11
573.4762882613905
 21
2319.660298728196
 31
0.0
  0
LINE
  5
8165
330
8219
100
AcDbEntity
  8
3
 62
     0
100
AcDbLine
 10
999.0550406755327
 20
1519.660298728196
 30
0.0
 11
573.4762882613904
 21
1519.660298728196
 31
0.0
  0
LINE
  5
8166
330
8219
100
AcDbEntity
  8
3
 62
     0
100
AcDbLine
 10
593.4762882613905
 20
2279.660298728197
 30
0.0
 11
593.4762882613904
 21
1559.660298728196
 31
0.0
  0
INSERT
  5
8167
330
8219
100
AcDbEntity
  8
3
 62
     0
100
AcDbBlockReference
  2
_OPEN
 10
593.4762882613905
 20
2319.660298728196
 30
0.0
 41
40.0
 42
40.0
 43
40.0
 50
90.0
  0
INSERT
  5
8168
330
8219
100
AcDbEntity
  8
3
 62
     0
100
AcDbBlockReference
  2
_OPEN
 10
593.4762882613904
 20
1519.660298728196
 30
0.0
 41
40.0
 42
40.0
 43
40.0
 50
270.0
  0
TEXT
  5
8174
330
8219
100
AcDbEntity
  8
3
 62
     0
100
AcDbText
 10
423.4759999999999
 20
1813.46
 30
0.0
 40
60.0
  1
800
100
AcDbText
  0
POINT
  5
816A
330
8219
100
AcDbEntity
  8
DEFPOINTS
 62
     0
100
AcDbPoint
 10
882.1620675725371
 20
2319.660298728196
 30
0.0
  0
POINT
  5
816B
330
8219
100
AcDbEntity
  8
DEFPOINTS
 62
     0
100
AcDbPoint
 10
1009.055040675532
 20
1519.660298728196
 30
0.0
  0
POINT
  5
816C
330
8219
100
AcDbEntity
  8
DEFPOINTS
 62
     0
100
AcDbPoint
 10
593.4762882613904
 20
1519.660298728196
 30
0.0
  0
ENDBLK
  5
7FAE
330
8219
100
AcDbEntity
  8
0
100
AcDbBlockEnd
  0
BLOCK
  5
821C
330
821B
100
AcDbEntity
  8
0
100
AcDbBlockBegin
  2
_DOT
 70
     0
 10
0.0
 20
0.0
 30
0.0
  3
_DOT
  1

  0
LWPOLYLINE
  5
7FFA
330
821B
100
AcDbEntity
  8
0
  6
ByBlock
 62
     0
100
AcDbPolyline
 90
        2
 70
     1
 43
0.25
 10
-0.125
 20
0.0
 42
1.0
 10
0.125
 20
0.0
 42
1.0
  0
LINE
  5
7FFE
330
821B
100
AcDbEntity
  8
0
  6
ByBlock
 62
     0
100
AcDbLine
 10
-0.25
 20
0.0
 30
0.0
 11
-1.0
 21
0.0
 31
0.0
  0
ENDBLK
  5
7FDD
330
821B
100
AcDbEntity
  8
0
100
AcDbBlockEnd
  0
BLOCK
  5
821E
330
821D
100
AcDbEntity
  8
0
100
AcDbBlockBegin
  2
_NONE
 70
     0
 10
0.0
 20
0.0
 30
0.0
  3
_NONE
  1

  0
CIRCLE
  5
806B
330
821D
100
AcDbEntity
  8
0
  6
ByBlock
 62
     0
100
AcDbCircle
 10
0.0
 20
0.0
 30
0.0
 40
0.25
  0
ENDBLK
  5
806C
330
821D
100
AcDbEntity
  8
0
100
AcDbBlockEnd
  0
BLOCK
  5
8220
330
821F
100
AcDbEntity
  8
0
100
AcDbBlockBegin
  2
*D22
 70
     1
 10
0.0
 20
0.0
 30
0.0
  3
*D22
  1

  0
LINE
  5
80A0
330
821F
100
AcDbEntity
  8
0
  6
ByBlock
 62
     0
100
AcDbLine
 10
1009.055040675532
 20
1499.660298728196
 30
0.0
 11
1009.055040675532
 21
1355.69413622905
 31
0.0
  0
LINE
  5
80A1
330
821F
100
AcDbEntity
  8
0
  6
ByBlock
 62
     0
100
AcDbLine
 10
1409.055040675533
 20
1499.660298728197
 30
0.0
 11
1409.055040675533
 21
1355.69413622905
 31
0.0
  0
LINE
  5
80A2
330
821F
100
AcDbEntity
  8
0
  6
ByBlock
 62
     0
100
AcDbLine
 10
1049.055040675533
 20
1375.69413622905
 30
0.0
 11
1369.055040675533
 21
1375.69413622905
 31
0.0
  0
INSERT
  5
80A3
330
821F
100
AcDbEntity
  8
0
  6
ByBlock
 62
     0
100
AcDbBlockReference
  2
_OPEN
 10
1009.055040675532
 20
1375.69413622905
 30
0.0
 41
40.0
 42
40.0
 43
40.0
 50
180.0
  0
INSERT
  5
80A4
330
821F
100
AcDbEntity
  8
0
  6
ByBlock
 62
     0
100
AcDbBlockReference
  2
_OPEN
 10
1409.055040675533
 20
1375.69413622905
 30
0.0
 41
40.0
 42
40.0
 43
40.0
  0
TEXT
  5
80A5
330
821F
100
AcDbEntity
  8
3
 62
     0
100
AcDbText
 10
1131.912183532675
 20
1395.69413622905
 30
0.0
 40
60.0
  1
400
100
AcDbText
  0
POINT
  5
80A6
330
821F
100
AcDbEntity
  8
DEFPOINTS
  6
ByBlock
 62
     0
100
AcDbPoint
 10
1009.055040675532
 20
1519.660298728196
 30
0.0
  0
POINT
  5
80A7
330
821F
100
AcDbEntity
  8
DEFPOINTS
  6
ByBlock
 62
     0
100
AcDbPoint
 10
1409.055040675533
 20
1519.660298728197
 30
0.0
  0
POINT
  5
80A8
330
821F
100
AcDbEntity
  8
DEFPOINTS
  6
ByBlock
 62
     0
100
AcDbPoint
 10
1409.055040675533
 20
1375.69413622905
 30
0.0
  0
ENDBLK
  5
80A9
330
821F
100
AcDbEntity
  8
0
100
AcDbBlockEnd
  0
BLOCK
  5
8222
330
8221
100
AcDbEntity
  8
0
100
AcDbBlockBegin
  2
*D23
 70
     1
 10
0.0
 20
0.0
 30
0.0
  3
*D23
  1

  0
LINE
  5
80AD
330
8221
100
AcDbEntity
  8
0
  6
ByBlock
 62
     0
100
AcDbLine
 10
1409.055040675533
 20
1499.660298728197
 30
0.0
 11
1409.055040675533
 21
1355.69413622905
 31
0.0
  0
LINE
  5
80AE
330
8221
100
AcDbEntity
  8
0
  6
ByBlock
 62
     0
100
AcDbLine
 10
2459.055040675533
 20
1499.660298728196
 30
0.0
 11
2459.055040675533
 21
1355.69413622905
 31
0.0
  0
LINE
  5
80AF
330
8221
100
AcDbEntity
  8
0
  6
ByBlock
 62
     0
100
AcDbLine
 10
1449.055040675533
 20
1375.69413622905
 30
0.0
 11
2419.055040675532
 21
1375.69413622905
 31
0.0
  0
INSERT
  5
80B0
330
8221
100
AcDbEntity
  8
0
  6
ByBlock
 62
     0
100
AcDbBlockReference
  2
_OPEN
 10
1409.055040675533
 20
1375.69413622905
 30
0.0
 41
40.0
 42
40.0
 43
40.0
 50
180.0
  0
INSERT
  5
80B1
330
8221
100
AcDbEntity
  8
0
  6
ByBlock
 62
     0
100
AcDbBlockReference
  2
_OPEN
 10
2459.055040675533
 20
1375.69413622905
 30
0.0
 41
40.0
 42
40.0
 43
40.0
  0
TEXT
  5
80B2
330
8221
100
AcDbEntity
  8
3
 62
     0
100
AcDbText
 10
1834.055040675533
 20
1395.69413622905
 30
0.0
 40
60.0
  1
1050
100
AcDbText
  0
POINT
  5
80B3
330
8221
100
AcDbEntity
  8
DEFPOINTS
  6
ByBlock
 62
     0
100
AcDbPoint
 10
1409.055040675533
 20
1519.660298728197
 30
0.0
  0
POINT
  5
80B4
330
8221
100
AcDbEntity
  8
DEFPOINTS
  6
ByBlock
 62
     0
100
AcDbPoint
 10
2459.055040675533
 20
1519.660298728196
 30
0.0
  0
POINT
  5
80B5
330
8221
100
AcDbEntity
  8
DEFPOINTS
  6
ByBlock
 62
     0
100
AcDbPoint
 10
2459.055040675533
 20
1375.69413622905
 30
0.0
  0
ENDBLK
  5
80B6
330
8221
100
AcDbEntity
  8
0
100
AcDbBlockEnd
  0
BLOCK
  5
8224
330
8223
100
AcDbEntity
  8
0
100
AcDbBlockBegin
  2
*D24
 70
     1
 10
0.0
 20
0.0
 30
0.0
  3
*D24
  1

  0
LINE
  5
80BA
330
8223
100
AcDbEntity
  8
0
  6
ByBlock
 62
     0
100
AcDbLine
 10
2690.464424613871
 20
1499.660298728196
 30
0.0
 11
2690.464424613871
 21
1355.69413622905
 31
0.0
  0
LINE
  5
80BB
330
8223
100
AcDbEntity
  8
0
  6
ByBlock
 62
     0
100
AcDbLine
 10
3243.464424613871
 20
1499.660298728197
 30
0.0
 11
3243.464424613871
 21
1355.69413622905
 31
0.0
  0
LINE
  5
80BC
330
8223
100
AcDbEntity
  8
0
  6
ByBlock
 62
     0
100
AcDbLine
 10
2730.464424613871
 20
1375.69413622905
 30
0.0
 11
3203.464424613871
 21
1375.69413622905
 31
0.0
  0
INSERT
  5
80BD
330
8223
100
AcDbEntity
  8
0
  6
ByBlock
 62
     0
100
AcDbBlockReference
  2
_OPEN
 10
2690.464424613871
 20
1375.69413622905
 30
0.0
 41
40.0
 42
40.0
 43
40.0
 50
180.0
  0
INSERT
  5
80BE
330
8223
100
AcDbEntity
  8
0
  6
ByBlock
 62
     0
100
AcDbBlockReference
  2
_OPEN
 10
3243.464424613871
 20
1375.69413622905
 30
0.0
 41
40.0
 42
40.0
 43
40.0
  0
TEXT
  5
80BF
330
8223
100
AcDbEntity
  8
3
 62
     0
100
AcDbText
 10
2889.821567471014
 20
1395.69413622905
 30
0.0
 40
60.0
  1
553
100
AcDbText
  0
POINT
  5
80C0
330
8223
100
AcDbEntity
  8
DEFPOINTS
  6
ByBlock
 62
     0
100
AcDbPoint
 10
2690.464424613871
 20
1519.660298728196
 30
0.0
  0
POINT
  5
80C1
330
8223
100
AcDbEntity
  8
DEFPOINTS
  6
ByBlock
 62
     0
100
AcDbPoint
 10
3243.464424613871
 20
1519.660298728197
 30
0.0
  0
POINT
  5
80C2
330
8223
100
AcDbEntity
  8
DEFPOINTS
  6
ByBlock
 62
     0
100
AcDbPoint
 10
3243.464424613871
 20
1375.69413622905
 30
0.0
  0
ENDBLK
  5
80C3
330
8223
100
AcDbEntity
  8
0
100
AcDbBlockEnd
  0
BLOCK
  5
8226
330
8225
100
AcDbEntity
  8
0
100
AcDbBlockBegin
  2
*D25
 70
     1
 10
0.0
 20
0.0
 30
0.0
  3
*D25
  1

  0
LINE
  5
80C7
330
8225
100
AcDbEntity
  8
0
  6
ByBlock
 62
     0
100
AcDbLine
 10
3243.464424613871
 20
1499.660298728197
 30
0.0
 11
3243.464424613871
 21
1355.69413622905
 31
0.0
  0
LINE
  5
80C8
330
8225
100
AcDbEntity
  8
0
  6
ByBlock
 62
     0
100
AcDbLine
 10
3696.464424613871
 20
1499.660298728196
 30
0.0
 11
3696.464424613871
 21
1355.69413622905
 31
0.0
  0
LINE
  5
80C9
330
8225
100
AcDbEntity
  8
0
  6
ByBlock
 62
     0
100
AcDbLine
 10
3283.464424613871
 20
1375.69413622905
 30
0.0
 11
3656.464424613871
 21
1375.69413622905
 31
0.0
  0
INSERT
  5
80CA
330
8225
100
AcDbEntity
  8
0
  6
ByBlock
 62
     0
100
AcDbBlockReference
  2
_OPEN
 10
3243.464424613871
 20
1375.69413622905
 30
0.0
 41
40.0
 42
40.0
 43
40.0
 50
180.0
  0
INSERT
  5
80CB
330
8225
100
AcDbEntity
  8
0
  6
ByBlock
 62
     0
100
AcDbBlockReference
  2
_OPEN
 10
3696.464424613871
 20
1375.69413622905
 30
0.0
 41
40.0
 42
40.0
 43
40.0
  0
TEXT
  5
80CC
330
8225
100
AcDbEntity
  8
3
 62
     0
100
AcDbText
 10
3392.821567471013
 20
1395.69413622905
 30
0.0
 40
60.0
  1
453
100
AcDbText
  0
POINT
  5
80CD
330
8225
100
AcDbEntity
  8
DEFPOINTS
  6
ByBlock
 62
     0
100
AcDbPoint
 10
3243.464424613871
 20
1519.660298728197
 30
0.0
  0
POINT
  5
80CE
330
8225
100
AcDbEntity
  8
DEFPOINTS
  6
ByBlock
 62
     0
100
AcDbPoint
 10
3696.464424613871
 20
1519.660298728196
 30
0.0
  0
POINT
  5
80CF
330
8225
100
AcDbEntity
  8
DEFPOINTS
  6
ByBlock
 62
     0
100
AcDbPoint
 10
3696.464424613871
 20
1375.69413622905
 30
0.0
  0
ENDBLK
  5
80D0
330
8225
100
AcDbEntity
  8
0
100
AcDbBlockEnd
  0
BLOCK
  5
8228
330
8227
100
AcDbEntity
  8
0
100
AcDbBlockBegin
  2
*D26
 70
     1
 10
0.0
 20
0.0
 30
0.0
  3
*D26
  1

  0
LINE
  5
80D4
330
8227
100
AcDbEntity
  8
0
  6
ByBlock
 62
     0
100
AcDbLine
 10
989.0550406755327
 20
1519.660298728196
 30
0.0
 11
444.8323018277768
 21
1519.660298728196
 31
0.0
  0
LINE
  5
80D5
330
8227
100
AcDbEntity
  8
0
  6
ByBlock
 62
     0
100
AcDbLine
 10
1416.055040675533
 20
2773.660298728197
 30
0.0
 11
444.8323018277768
 21
2773.660298728197
 31
0.0
  0
LINE
  5
80D6
330
8227
100
AcDbEntity
  8
0
  6
ByBlock
 62
     0
100
AcDbLine
 10
464.8323018277769
 20
1559.660298728196
 30
0.0
 11
464.8323018277769
 21
2733.660298728196
 31
0.0
  0
INSERT
  5
80D7
330
8227
100
AcDbEntity
  8
0
  6
ByBlock
 62
     0
100
AcDbBlockReference
  2
_OPEN
 10
464.8323018277769
 20
1519.660298728196
 30
0.0
 41
40.0
 42
40.0
 43
40.0
 50
270.0
  0
INSERT
  5
80D8
330
8227
100
AcDbEntity
  8
0
  6
ByBlock
 62
     0
100
AcDbBlockReference
  2
_OPEN
 10
464.8323018277769
 20
2773.660298728197
 30
0.0
 41
40.0
 42
40.0
 43
40.0
 50
90.0
  0
TEXT
  5
80D9
330
8227
100
AcDbEntity
  8
3
 62
     0
100
AcDbText
 10
444.8323018277768
 20
2045.231727299625
 30
0.0
 40
60.0
  1
1254
 50
90.0
100
AcDbText
  0
POINT
  5
80DA
330
8227
100
AcDbEntity
  8
DEFPOINTS
  6
ByBlock
 62
     0
100
AcDbPoint
 10
1009.055040675532
 20
1519.660298728196
 30
0.0
  0
POINT
  5
80DB
330
8227
100
AcDbEntity
  8
DEFPOINTS
  6
ByBlock
 62
     0
100
AcDbPoint
 10
1436.055040675532
 20
2773.660298728197
 30
0.0
  0
POINT
  5
80DC
330
8227
100
AcDbEntity
  8
DEFPOINTS
  6
ByBlock
 62
     0
100
AcDbPoint
 10
464.8323018277769
 20
2773.660298728197
 30
0.0
  0
ENDBLK
  5
80DD
330
8227
100
AcDbEntity
  8
0
100
AcDbBlockEnd
  0
BLOCK
  5
822C
330
822B
100
AcDbEntity
  8
0
100
AcDbBlockBegin
  2
*D27
 70
     1
 10
0.0
 20
0.0
 30
0.0
  3
*D27
  1

  0
LINE
  5
82C3
330
822B
100
AcDbEntity
  8
3
 62
     0
370
    -2
100
AcDbLine
 10
2624.981369091031
 20
2489.660298728197
 30
0.0
 11
2624.981369091031
 21
3047.549551552706
 31
0.0
  0
LINE
  5
82C4
330
822B
100
AcDbEntity
  8
3
 62
     0
370
    -2
100
AcDbLine
 10
3404.981369091031
 20
2935.245197106421
 30
0.0
 11
3404.981369091031
 21
3047.549551552706
 31
0.0
  0
LINE
  5
82C5
330
822B
100
AcDbEntity
  8
3
 62
     0
370
    -2
100
AcDbLine
 10
2664.981369091031
 20
3027.549551552706
 30
0.0
 11
3364.981369091031
 21
3027.549551552706
 31
0.0
  0
INSERT
  5
82C6
330
822B
100
AcDbEntity
  8
3
 62
     0
370
    -2
100
AcDbBlockReference
  2
_OPEN
 10
2624.981369091031
 20
3027.549551552706
 30
0.0
 41
40.0
 42
40.0
 43
40.0
 50
180.0
  0
INSERT
  5
82C7
330
822B
100
AcDbEntity
  8
3
 62
     0
370
    -2
100
AcDbBlockReference
  2
_OPEN
 10
3404.981369091031
 20
3027.549551552706
 30
0.0
 41
40.0
 42
40.0
 43
40.0
  0
MTEXT
  5
82C8
330
822B
100
AcDbEntity
  8
3
 62
     0
100
AcDbMText
 10
3014.981369091031
 20
3093.263837266992
 30
0.0
 40
60.0
 41
0.0
 71
     5
 72
     1
  1
\A1;(780)
 73
     1
 44
1.0
1001
ACAD
1000
MTEXTBEGIN
1070
    73
1070
     1
1070
    44
1040
1.0
1070
    74
1070
     0
1000
MTEXTEND
  0
POINT
  5
82C9
330
822B
100
AcDbEntity
  8
DEFPOINTS
 62
     0
100
AcDbPoint
 10
2624.981369091031
 20
2469.660298728197
 30
0.0
  0
POINT
  5
82CA
330
822B
100
AcDbEntity
  8
DEFPOINTS
 62
     0
100
AcDbPoint
 10
3404.981369091031
 20
2915.245197106421
 30
0.0
  0
POINT
  5
82CB
330
822B
100
AcDbEntity
  8
DEFPOINTS
 62
     0
100
AcDbPoint
 10
3404.981369091031
 20
3027.549551552706
 30
0.0
  0
ENDBLK
  5
822D
330
822B
100
AcDbEntity
  8
0
100
AcDbBlockEnd
  0
BLOCK
  5
8239
330
8238
100
AcDbEntity
  8
0
100
AcDbBlockBegin
  2
*D28
 70
     1
 10
0.0
 20
0.0
 30
0.0
  3
*D28
  1

  0
LINE
  5
82CC
330
8238
100
AcDbEntity
  8
3
 62
     0
370
    -2
100
AcDbLine
 10
3404.981369091031
 20
2935.245197106421
 30
0.0
 11
3404.981369091031
 21
3047.549551552706
 31
0.0
  0
LINE
  5
82CD
330
8238
100
AcDbEntity
  8
3
 62
     0
370
    -2
100
AcDbLine
 10
3914.981369091032
 20
2309.660298728196
 30
0.0
 11
3914.981369091032
 21
3047.549551552706
 31
0.0
  0
LINE
  5
82CE
330
8238
100
AcDbEntity
  8
3
 62
     0
370
    -2
100
AcDbLine
 10
3444.981369091031
 20
3027.549551552706
 30
0.0
 11
3874.981369091031
 21
3027.549551552706
 31
0.0
  0
INSERT
  5
82CF
330
8238
100
AcDbEntity
  8
3
 62
     0
370
    -2
100
AcDbBlockReference
  2
_OPEN
 10
3404.981369091031
 20
3027.549551552706
 30
0.0
 41
40.0
 42
40.0
 43
40.0
 50
180.0
  0
INSERT
  5
82D0
330
8238
100
AcDbEntity
  8
3
 62
     0
370
    -2
100
AcDbBlockReference
  2
_OPEN
 10
3914.981369091032
 20
3027.549551552706
 30
0.0
 41
40.0
 42
40.0
 43
40.0
  0
MTEXT
  5
82D1
330
8238
100
AcDbEntity
  8
3
 62
     0
100
AcDbMText
 10
3659.981369091031
 20
3093.263837266992
 30
0.0
 40
60.0
 41
0.0
 71
     5
 72
     1
  1
\A1;(510)
 73
     1
 44
1.0
1001
ACAD
1000
MTEXTBEGIN
1070
    73
1070
     1
1070
    44
1040
1.0
1070
    74
1070
     0
1000
MTEXTEND
  0
POINT
  5
82D2
330
8238
100
AcDbEntity
  8
DEFPOINTS
 62
     0
100
AcDbPoint
 10
3404.981369091031
 20
2915.245197106421
 30
0.0
  0
POINT
  5
82D3
330
8238
100
AcDbEntity
  8
DEFPOINTS
 62
     0
100
AcDbPoint
 10
3914.981369091032
 20
2289.660298728196
 30
0.0
  0
POINT
  5
82D4
330
8238
100
AcDbEntity
  8
DEFPOINTS
 62
     0
100
AcDbPoint
 10
3914.981369091032
 20
3027.549551552706
 30
0.0
  0
ENDBLK
  5
823A
330
8238
100
AcDbEntity
  8
0
100
AcDbBlockEnd
  0
BLOCK
  5
8290
330
828F
100
AcDbEntity
  8
0
100
AcDbBlockBegin
  2
*D29
 70
     1
 10
0.0
 20
0.0
 30
0.0
  3
*D29
  1

  0
LINE
  5
8292
330
828F
100
AcDbEntity
  8
3
 62
     0
370
    -2
100
AcDbLine
 10
3811.731369091031
 20
2654.660298728197
 30
0.0
 11
4062.118402661694
 21
2654.660298728197
 31
0.0
  0
LINE
  5
8293
330
828F
100
AcDbEntity
  8
3
 62
     0
370
    -2
100
AcDbLine
 10
3811.731369091031
 20
1984.660298728196
 30
0.0
 11
4062.118402661694
 21
1984.660298728196
 31
0.0
  0
LINE
  5
8294
330
828F
100
AcDbEntity
  8
3
 62
     0
370
    -2
100
AcDbLine
 10
4058.518402661695
 20
2651.060298728197
 30
0.0
 11
4058.518402661695
 21
2323.260298728197
 31
0.0
  0
LINE
  5
8295
330
828F
100
AcDbEntity
  8
3
 62
     0
370
    -2
100
AcDbLine
 10
4058.518402661695
 20
1988.260298728196
 30
0.0
 11
4058.518402661695
 21
2316.060298728197
 31
0.0
  0
SOLID
  5
8296
330
828F
100
AcDbEntity
  8
3
 62
     0
100
AcDbTrace
 10
4057.918402661695
 20
2651.060298728197
 30
0.0
 11
4059.118402661694
 21
2651.060298728197
 31
0.0
 12
4058.518402661695
 22
2654.660298728197
 32
0.0
 13
4058.518402661695
 23
2654.660298728197
 33
0.0
  0
SOLID
  5
8297
330
828F
100
AcDbEntity
  8
3
 62
     0
100
AcDbTrace
 10
4057.918402661695
 20
1988.260298728196
 30
0.0
 11
4059.118402661694
 21
1988.260298728196
 31
0.0
 12
4058.518402661695
 22
1984.660298728196
 32
0.0
 13
4058.518402661695
 23
1984.660298728196
 33
0.0
  0
MTEXT
  5
8298
330
828F
100
AcDbEntity
  8
3
 62
     0
100
AcDbMText
 10
4058.518402661694
 20
2319.660298728198
 30
0.0
 40
3.599999999999999
 41
0.0
 71
     5
 72
     1
  1
\A1;\U+03C6670.0000
 73
     1
 44
1.0
1001
ACAD
1000
MTEXTBEGIN
1070
    73
1070
     1
1070
    44
1040
1.0
1070
    74
1070
     0
1000
MTEXTEND
  0
POINT
  5
8299
330
828F
100
AcDbEntity
  8
DEFPOINTS
 62
     0
100
AcDbPoint
 10
3810.481369091031
 20
2654.660298728197
 30
0.0
  0
POINT
  5
829A
330
828F
100
AcDbEntity
  8
DEFPOINTS
 62
     0
100
AcDbPoint
 10
3810.481369091031
 20
1984.660298728196
 30
0.0
  0
POINT
  5
829B
330
828F
100
AcDbEntity
  8
DEFPOINTS
 62
     0
100
AcDbPoint
 10
4058.518402661695
 20
1984.660298728196
 30
0.0
  0
ENDBLK
  5
8291
330
828F
100
AcDbEntity
  8
0
100
AcDbBlockEnd
  0
BLOCK
  5
829D
330
829C
100
AcDbEntity
  8
0
100
AcDbBlockBegin
  2
*D30
 70
     1
 10
0.0
 20
0.0
 30
0.0
  3
*D30
  1

  0
LINE
  5
829F
330
829C
100
AcDbEntity
  8
3
 62
     0
370
    -2
100
AcDbLine
 10
3004.98136909103
 20
2751.310289608901
 30
0.0
 11
3004.98136909103
 21
2848.845197106422
 31
0.0
  0
LINE
  5
82A0
330
829C
100
AcDbEntity
  8
3
 62
     0
370
    -2
100
AcDbLine
 10
3804.98136909103
 20
2751.310289608901
 30
0.0
 11
3804.98136909103
 21
2848.845197106422
 31
0.0
  0
LINE
  5
82A1
330
829C
100
AcDbEntity
  8
3
 62
     0
370
    -2
100
AcDbLine
 10
3008.58136909103
 20
2845.245197106422
 30
0.0
 11
3390.838511948173
 21
2845.245197106422
 31
0.0
  0
LINE
  5
82A2
330
829C
100
AcDbEntity
  8
3
 62
     0
370
    -2
100
AcDbLine
 10
3801.381369091031
 20
2845.245197106422
 30
0.0
 11
3419.124226233888
 21
2845.245197106422
 31
0.0
  0
SOLID
  5
82A3
330
829C
100
AcDbEntity
  8
3
 62
     0
100
AcDbTrace
 10
3008.58136909103
 20
2845.845197106422
 30
0.0
 11
3008.58136909103
 21
2844.645197106422
 31
0.0
 12
3004.98136909103
 22
2845.245197106422
 32
0.0
 13
3004.98136909103
 23
2845.245197106422
 33
0.0
  0
SOLID
  5
82A4
330
829C
100
AcDbEntity
  8
3
 62
     0
100
AcDbTrace
 10
3801.381369091031
 20
2845.845197106422
 30
0.0
 11
3801.381369091031
 21
2844.645197106422
 31
0.0
 12
3804.98136909103
 22
2845.245197106422
 32
0.0
 13
3804.98136909103
 23
2845.245197106422
 33
0.0
  0
MTEXT
  5
82A5
330
829C
100
AcDbEntity
  8
3
 62
     0
100
AcDbMText
 10
3404.98136909103
 20
2845.245197106422
 30
0.0
 40
3.599999999999999
 41
0.0
 71
     5
 72
     1
  1
\A1;800.0000
 73
     1
 44
1.0
1001
ACAD
1000
MTEXTBEGIN
1070
    73
1070
     1
1070
    44
1040
1.0
1070
    74
1070
     0
1000
MTEXTEND
  0
POINT
  5
82A6
330
829C
100
AcDbEntity
  8
DEFPOINTS
 62
     0
100
AcDbPoint
 10
3004.98136909103
 20
2750.0602896089
 30
0.0
  0
POINT
  5
82A7
330
829C
100
AcDbEntity
  8
DEFPOINTS
 62
     0
100
AcDbPoint
 10
3804.98136909103
 20
2750.0602896089
 30
0.0
  0
POINT
  5
82A8
330
829C
100
AcDbEntity
  8
DEFPOINTS
 62
     0
100
AcDbPoint
 10
3804.98136909103
 20
2845.245197106422
 30
0.0
  0
ENDBLK
  5
829E
330
829C
100
AcDbEntity
  8
0
100
AcDbBlockEnd
  0
BLOCK
  5
82AA
330
82A9
100
AcDbEntity
  8
0
100
AcDbBlockBegin
  2
*D31
 70
     1
 10
0.0
 20
0.0
 30
0.0
  3
*D31
  1

  0
LINE
  5
82AC
330
82A9
100
AcDbEntity
  8
3
 62
     0
370
    -2
100
AcDbLine
 10
2851.981369091031
 20
1499.660298728196
 30
0.0
 11
2851.981369091031
 21
1372.09413622905
 31
0.0
  0
LINE
  5
82AD
330
82A9
100
AcDbEntity
  8
3
 62
     0
370
    -2
100
AcDbLine
 10
3404.981369091031
 20
1499.660298728197
 30
0.0
 11
3404.981369091031
 21
1372.09413622905
 31
0.0
  0
LINE
  5
82AE
330
82A9
100
AcDbEntity
  8
3
 62
     0
370
    -2
100
AcDbLine
 10
2855.581369091031
 20
1375.69413622905
 30
0.0
 11
3122.05279766246
 21
1375.69413622905
 31
0.0
  0
LINE
  5
82AF
330
82A9
100
AcDbEntity
  8
3
 62
     0
370
    -2
100
AcDbLine
 10
3401.381369091031
 20
1375.69413622905
 30
0.0
 11
3134.909940519603
 21
1375.69413622905
 31
0.0
  0
SOLID
  5
82B0
330
82A9
100
AcDbEntity
  8
3
 62
     0
100
AcDbTrace
 10
2855.581369091031
 20
1376.29413622905
 30
0.0
 11
2855.581369091031
 21
1375.09413622905
 31
0.0
 12
2851.981369091031
 22
1375.69413622905
 32
0.0
 13
2851.981369091031
 23
1375.69413622905
 33
0.0
  0
SOLID
  5
82B1
330
82A9
100
AcDbEntity
  8
3
 62
     0
100
AcDbTrace
 10
3401.381369091031
 20
1376.29413622905
 30
0.0
 11
3401.381369091031
 21
1375.09413622905
 31
0.0
 12
3404.981369091031
 22
1375.69413622905
 32
0.0
 13
3404.981369091031
 23
1375.69413622905
 33
0.0
  0
MTEXT
  5
82B2
330
82A9
100
AcDbEntity
  8
3
 62
     0
100
AcDbMText
 10
3128.481369091031
 20
1375.69413622905
 30
0.0
 40
3.599999999999999
 41
0.0
 71
     5
 72
     1
  1
\A1;553
 73
     1
 44
1.0
1001
ACAD
1000
MTEXTBEGIN
1070
    73
1070
     1
1070
    44
1040
1.0
1070
    74
1070
     0
1000
MTEXTEND
  0
POINT
  5
82B3
330
82A9
100
AcDbEntity
  8
DEFPOINTS
 62
     0
100
AcDbPoint
 10
2851.981369091031
 20
1519.660298728196
 30
0.0
  0
POINT
  5
82B4
330
82A9
100
AcDbEntity
  8
DEFPOINTS
 62
     0
100
AcDbPoint
 10
3404.981369091031
 20
1519.660298728197
 30
0.0
  0
POINT
  5
82B5
330
82A9
100
AcDbEntity
  8
DEFPOINTS
 62
     0
100
AcDbPoint
 10
3404.981369091031
 20
1375.69413622905
 30
0.0
  0
ENDBLK
  5
82AB
330
82A9
100
AcDbEntity
  8
0
100
AcDbBlockEnd
  0
BLOCK
  5
82B7
330
82B6
100
AcDbEntity
  8
0
100
AcDbBlockBegin
  2
*D32
 70
     1
 10
0.0
 20
0.0
 30
0.0
  3
*D32
  1

  0
LINE
  5
82B9
330
82B6
100
AcDbEntity
  8
3
 62
     0
370
    -2
100
AcDbLine
 10
3404.981369091031
 20
1499.660298728197
 30
0.0
 11
3404.981369091031
 21
1372.09413622905
 31
0.0
  0
LINE
  5
82BA
330
82B6
100
AcDbEntity
  8
3
 62
     0
370
    -2
100
AcDbLine
 10
3857.981369091032
 20
1499.660298728196
 30
0.0
 11
3857.981369091032
 21
1372.09413622905
 31
0.0
  0
LINE
  5
82BB
330
82B6
100
AcDbEntity
  8
3
 62
     0
370
    -2
100
AcDbLine
 10
3408.581369091031
 20
1375.69413622905
 30
0.0
 11
3625.05279766246
 21
1375.69413622905
 31
0.0
  0
LINE
  5
82BC
330
82B6
100
AcDbEntity
  8
3
 62
     0
370
    -2
100
AcDbLine
 10
3854.381369091031
 20
1375.69413622905
 30
0.0
 11
3637.909940519602
 21
1375.69413622905
 31
0.0
  0
SOLID
  5
82BD
330
82B6
100
AcDbEntity
  8
3
 62
     0
100
AcDbTrace
 10
3408.581369091031
 20
1376.29413622905
 30
0.0
 11
3408.581369091031
 21
1375.09413622905
 31
0.0
 12
3404.981369091031
 22
1375.69413622905
 32
0.0
 13
3404.981369091031
 23
1375.69413622905
 33
0.0
  0
SOLID
  5
82BE
330
82B6
100
AcDbEntity
  8
3
 62
     0
100
AcDbTrace
 10
3854.381369091031
 20
1376.29413622905
 30
0.0
 11
3854.381369091031
 21
1375.09413622905
 31
0.0
 12
3857.981369091032
 22
1375.69413622905
 32
0.0
 13
3857.981369091032
 23
1375.69413622905
 33
0.0
  0
MTEXT
  5
82BF
330
82B6
100
AcDbEntity
  8
3
 62
     0
100
AcDbMText
 10
3631.481369091031
 20
1375.69413622905
 30
0.0
 40
3.599999999999999
 41
0.0
 71
     5
 72
     1
  1
\A1;453
 73
     1
 44
1.0
1001
ACAD
1000
MTEXTBEGIN
1070
    73
1070
     1
1070
    44
1040
1.0
1070
    74
1070
     0
1000
MTEXTEND
  0
POINT
  5
82C0
330
82B6
100
AcDbEntity
  8
DEFPOINTS
 62
     0
100
AcDbPoint
 10
3404.981369091031
 20
1519.660298728197
 30
0.0
  0
POINT
  5
82C1
330
82B6
100
AcDbEntity
  8
DEFPOINTS
 62
     0
100
AcDbPoint
 10
3857.981369091032
 20
1519.660298728196
 30
0.0
  0
POINT
  5
82C2
330
82B6
100
AcDbEntity
  8
DEFPOINTS
 62
     0
100
AcDbPoint
 10
3857.981369091032
 20
1375.69413622905
 30
0.0
  0
ENDBLK
  5
82B8
330
82B6
100
AcDbEntity
  8
0
100
AcDbBlockEnd
  0
BLOCK
  5
82D7
330
82D6
100
AcDbEntity
  8
0
100
AcDbBlockBegin
  2
*D33
 70
     1
 10
0.0
 20
0.0
 30
0.0
  3
*D33
  1

  0
LINE
  5
82D9
330
82D6
100
AcDbEntity
  8
3
 62
     0
370
    -2
100
AcDbLine
 10
3004.98136909103
 20
2793.660298728197
 30
0.0
 11
3004.98136909103
 21
2865.245197106422
 31
0.0
  0
LINE
  5
82DA
330
82D6
100
AcDbEntity
  8
3
 62
     0
370
    -2
100
AcDbLine
 10
3804.98136909103
 20
2793.660298728197
 30
0.0
 11
3804.98136909103
 21
2865.245197106422
 31
0.0
  0
LINE
  5
82DB
330
82D6
100
AcDbEntity
  8
3
 62
     0
370
    -2
100
AcDbLine
 10
3044.98136909103
 20
2845.245197106422
 30
0.0
 11
3764.98136909103
 21
2845.245197106422
 31
0.0
  0
INSERT
  5
82DC
330
82D6
100
AcDbEntity
  8
3
 62
     0
370
    -2
100
AcDbBlockReference
  2
_OPEN
 10
3004.98136909103
 20
2845.245197106422
 30
0.0
 41
40.0
 42
40.0
 43
40.0
 50
180.0
  0
INSERT
  5
82DD
330
82D6
100
AcDbEntity
  8
3
 62
     0
370
    -2
100
AcDbBlockReference
  2
_OPEN
 10
3804.98136909103
 20
2845.245197106422
 30
0.0
 41
40.0
 42
40.0
 43
40.0
  0
MTEXT
  5
82DE
330
82D6
100
AcDbEntity
  8
3
 62
     0
100
AcDbMText
 10
3404.98136909103
 20
2895.245197106422
 30
0.0
 40
60.0
 41
0.0
 71
     5
 72
     1
  1
\A1;800
 73
     1
 44
1.0
1001
ACAD
1000
MTEXTBEGIN
1070
    73
1070
     1
1070
    44
1040
1.0
1070
    74
1070
     0
1000
MTEXTEND
  0
POINT
  5
82DF
330
82D6
100
AcDbEntity
  8
DEFPOINTS
 62
     0
100
AcDbPoint
 10
3004.98136909103
 20
2773.660298728197
 30
0.0
  0
POINT
  5
82E0
330
82D6
100
AcDbEntity
  8
DEFPOINTS
 62
     0
100
AcDbPoint
 10
3804.98136909103
 20
2773.660298728197
 30
0.0
  0
POINT
  5
82E1
330
82D6
100
AcDbEntity
  8
DEFPOINTS
 62
     0
100
AcDbPoint
 10
3804.98136909103
 20
2845.245197106422
 30
0.0
  0
ENDBLK
  5
82D8
330
82D6
100
AcDbEntity
  8
0
100
AcDbBlockEnd
  0
BLOCK
  5
82E8
330
82E7
100
AcDbEntity
  8
0
100
AcDbBlockBegin
  2
*D34
 70
     1
 10
0.0
 20
0.0
 30
0.0
  3
*D34
  1

  0
LINE
  5
82FC
330
82E7
100
AcDbEntity
  8
3
 62
     0
370
    -2
100
AcDbLine
 10
3824.981369091031
 20
2654.660298728197
 30
0.0
 11
4059.582672521083
 21
2654.660298728197
 31
0.0
  0
LINE
  5
82FD
330
82E7
100
AcDbEntity
  8
3
 62
     0
370
    -2
100
AcDbLine
 10
3824.981369091031
 20
1984.660298728196
 30
0.0
 11
4059.582672521083
 21
1984.660298728196
 31
0.0
  0
LINE
  5
82FE
330
82E7
100
AcDbEntity
  8
3
 62
     0
370
    -2
100
AcDbLine
 10
4039.582672521083
 20
2614.660298728197
 30
0.0
 11
4039.582672521083
 21
2024.660298728196
 31
0.0
  0
INSERT
  5
82FF
330
82E7
100
AcDbEntity
  8
3
 62
     0
370
    -2
100
AcDbBlockReference
  2
_OPEN
 10
4039.582672521083
 20
2654.660298728197
 30
0.0
 41
40.0
 42
40.0
 43
40.0
 50
90.0
  0
INSERT
  5
8300
330
82E7
100
AcDbEntity
  8
3
 62
     0
370
    -2
100
AcDbBlockReference
  2
_OPEN
 10
4039.582672521083
 20
1984.660298728196
 30
0.0
 41
40.0
 42
40.0
 43
40.0
 50
270.0
  0
MTEXT
  5
8301
330
82E7
100
AcDbEntity
  8
3
 62
     0
100
AcDbMText
 10
3989.582672521083
 20
2319.660298728197
 30
0.0
 40
60.0
 41
0.0
 71
     5
 72
     1
  1
\A1;\U+03C6670
 11
0.0000000000000001
 21
1.0
 31
0.0
 73
     1
 44
1.0
1001
ACAD
1000
MTEXTBEGIN
1070
    73
1070
     1
1070
    44
1040
1.0
1070
    74
1070
     0
1000
MTEXTEND
  0
POINT
  5
8302
330
82E7
100
AcDbEntity
  8
DEFPOINTS
 62
     0
100
AcDbPoint
 10
3804.981369091031
 20
2654.660298728197
 30
0.0
  0
POINT
  5
8303
330
82E7
100
AcDbEntity
  8
DEFPOINTS
 62
     0
100
AcDbPoint
 10
3804.981369091031
 20
1984.660298728196
 30
0.0
  0
POINT
  5
8304
330
82E7
100
AcDbEntity
  8
DEFPOINTS
 62
     0
100
AcDbPoint
 10
4039.582672521083
 20
1984.660298728196
 30
0.0
  0
ENDBLK
  5
82E9
330
82E7
100
AcDbEntity
  8
0
100
AcDbBlockEnd
  0
BLOCK
  5
8307
330
8306
100
AcDbEntity
  8
0
100
AcDbBlockBegin
  2
*D35
 70
     1
 10
0.0
 20
0.0
 30
0.0
  3
*D35
  1

  0
LINE
  5
8309
330
8306
100
AcDbEntity
  8
3
 62
     0
370
    -2
100
AcDbLine
 10
2851.981369091031
 20
1499.660298728196
 30
0.0
 11
2851.981369091031
 21
1359.762810247321
 31
0.0
  0
LINE
  5
830A
330
8306
100
AcDbEntity
  8
3
 62
     0
370
    -2
100
AcDbLine
 10
3404.981369091031
 20
1499.660298728196
 30
0.0
 11
3404.981369091031
 21
1359.762810247321
 31
0.0
  0
LINE
  5
830B
330
8306
100
AcDbEntity
  8
3
 62
     0
370
    -2
100
AcDbLine
 10
2891.981369091031
 20
1379.762810247321
 30
0.0
 11
3364.981369091031
 21
1379.762810247321
 31
0.0
  0
INSERT
  5
830C
330
8306
100
AcDbEntity
  8
3
 62
     0
370
    -2
100
AcDbBlockReference
  2
_OPEN
 10
2851.981369091031
 20
1379.762810247321
 30
0.0
 41
40.0
 42
40.0
 43
40.0
 50
180.0
  0
INSERT
  5
830D
330
8306
100
AcDbEntity
  8
3
 62
     0
370
    -2
100
AcDbBlockReference
  2
_OPEN
 10
3404.981369091031
 20
1379.762810247321
 30
0.0
 41
40.0
 42
40.0
 43
40.0
  0
MTEXT
  5
830E
330
8306
100
AcDbEntity
  8
3
 62
     0
100
AcDbMText
 10
3128.481369091031
 20
1429.762810247321
 30
0.0
 40
60.0
 41
0.0
 71
     5
 72
     1
  1
\A1;553
 73
     1
 44
1.0
1001
ACAD
1000
MTEXTBEGIN
1070
    73
1070
     1
1070
    44
1040
1.0
1070
    74
1070
     0
1000
MTEXTEND
  0
POINT
  5
830F
330
8306
100
AcDbEntity
  8
DEFPOINTS
 62
     0
100
AcDbPoint
 10
2851.981369091031
 20
1519.660298728196
 30
0.0
  0
POINT
  5
8310
330
8306
100
AcDbEntity
  8
DEFPOINTS
 62
     0
100
AcDbPoint
 10
3404.981369091031
 20
1519.660298728196
 30
0.0
  0
POINT
  5
8311
330
8306
100
AcDbEntity
  8
DEFPOINTS
 62
     0
100
AcDbPoint
 10
3404.981369091031
 20
1379.762810247321
 30
0.0
  0
ENDBLK
  5
8308
330
8306
100
AcDbEntity
  8
0
100
AcDbBlockEnd
  0
BLOCK
  5
8314
330
8313
100
AcDbEntity
  8
0
100
AcDbBlockBegin
  2
*D36
 70
     1
 10
0.0
 20
0.0
 30
0.0
  3
*D36
  1

  0
LINE
  5
8316
330
8313
100
AcDbEntity
  8
3
 62
     0
370
    -2
100
AcDbLine
 10
3404.981369091031
 20
1499.660298728196
 30
0.0
 11
3404.981369091031
 21
1359.762810247321
 31
0.0
  0
LINE
  5
8317
330
8313
100
AcDbEntity
  8
3
 62
     0
370
    -2
100
AcDbLine
 10
3857.981369091032
 20
1499.660298728196
 30
0.0
 11
3857.981369091032
 21
1359.762810247321
 31
0.0
  0
LINE
  5
8318
330
8313
100
AcDbEntity
  8
3
 62
     0
370
    -2
100
AcDbLine
 10
3444.981369091031
 20
1379.762810247321
 30
0.0
 11
3817.981369091031
 21
1379.762810247321
 31
0.0
  0
INSERT
  5
8319
330
8313
100
AcDbEntity
  8
3
 62
     0
370
    -2
100
AcDbBlockReference
  2
_OPEN
 10
3404.981369091031
 20
1379.762810247321
 30
0.0
 41
40.0
 42
40.0
 43
40.0
 50
180.0
  0
INSERT
  5
831A
330
8313
100
AcDbEntity
  8
3
 62
     0
370
    -2
100
AcDbBlockReference
  2
_OPEN
 10
3857.981369091032
 20
1379.762810247321
 30
0.0
 41
40.0
 42
40.0
 43
40.0
  0
MTEXT
  5
831B
330
8313
100
AcDbEntity
  8
3
 62
     0
100
AcDbMText
 10
3631.481369091031
 20
1429.762810247321
 30
0.0
 40
60.0
 41
0.0
 71
     5
 72
     1
  1
\A1;453
 73
     1
 44
1.0
1001
ACAD
1000
MTEXTBEGIN
1070
    73
1070
     1
1070
    44
1040
1.0
1070
    74
1070
     0
1000
MTEXTEND
  0
POINT
  5
831C
330
8313
100
AcDbEntity
  8
DEFPOINTS
 62
     0
100
AcDbPoint
 10
3404.981369091031
 20
1519.660298728196
 30
0.0
  0
POINT
  5
831D
330
8313
100
AcDbEntity
  8
DEFPOINTS
 62
     0
100
AcDbPoint
 10
3857.981369091032
 20
1519.660298728196
 30
0.0
  0
POINT
  5
831E
330
8313
100
AcDbEntity
  8
DEFPOINTS
 62
     0
100
AcDbPoint
 10
3857.981369091032
 20
1379.762810247321
 30
0.0
  0
ENDBLK
  5
8315
330
8313
100
AcDbEntity
  8
0
100
AcDbBlockEnd
  0
BLOCK
  5
8321
330
8320
100
AcDbEntity
  8
0
100
AcDbBlockBegin
  2
*D37
 70
     1
 10
0.0
 20
0.0
 30
0.0
  3
*D37
  1

  0
LINE
  5
8323
330
8320
100
AcDbEntity
  8
3
 62
     0
370
    -2
100
AcDbLine
 10
1009.055040675532
 20
3472.710584264269
 30
0.0
 11
1009.055040675532
 21
3130.208701098438
 31
0.0
  0
LINE
  5
8324
330
8320
100
AcDbEntity
  8
3
 62
     0
370
    -2
100
AcDbLine
 10
2459.055040675533
 20
3472.710584264268
 30
0.0
 11
2459.055040675533
 21
3130.208701098438
 31
0.0
  0
LINE
  5
8325
330
8320
100
AcDbEntity
  8
3
 62
     0
370
    -2
100
AcDbLine
 10
1049.055040675532
 20
3150.208701098438
 30
0.0
 11
2419.055040675534
 21
3150.208701098438
 31
0.0
  0
INSERT
  5
8326
330
8320
100
AcDbEntity
  8
3
 62
     0
370
    -2
100
AcDbBlockReference
  2
_OPEN
 10
1009.055040675532
 20
3150.208701098438
 30
0.0
 41
40.0
 42
40.0
 43
40.0
 50
180.0
  0
INSERT
  5
8327
330
8320
100
AcDbEntity
  8
3
 62
     0
370
    -2
100
AcDbBlockReference
  2
_OPEN
 10
2459.055040675533
 20
3150.208701098438
 30
0.0
 41
40.0
 42
40.0
 43
40.0
  0
MTEXT
  5
8328
330
8320
100
AcDbEntity
  8
3
 62
     0
100
AcDbMText
 10
1734.055040675533
 20
3200.208701098438
 30
0.0
 40
60.0
 41
0.0
 71
     5
 72
     1
  1
\A1;1450
 73
     1
 44
1.0
1001
ACAD
1000
MTEXTBEGIN
1070
    73
1070
     1
1070
    44
1040
1.0
1070
    74
1070
     0
1000
MTEXTEND
  0
POINT
  5
8329
330
8320
100
AcDbEntity
  8
DEFPOINTS
 62
     0
100
AcDbPoint
 10
1009.055040675532
 20
3492.710584264269
 30
0.0
  0
POINT
  5
832A
330
8320
100
AcDbEntity
  8
DEFPOINTS
 62
     0
100
AcDbPoint
 10
2459.055040675533
 20
3492.710584264268
 30
0.0
  0
POINT
  5
832B
330
8320
100
AcDbEntity
  8
DEFPOINTS
 62
     0
100
AcDbPoint
 10
2459.055040675533
 20
3150.208701098438
 30
0.0
  0
ENDBLK
  5
8322
330
8320
100
AcDbEntity
  8
0
100
AcDbBlockEnd
  0
BLOCK
  5
832E
330
832D
100
AcDbEntity
  8
0
100
AcDbBlockBegin
  2
*D38
 70
     1
 10
0.0
 20
0.0
 30
0.0
  3
*D38
  1

  0
LINE
  5
8339
330
832D
100
AcDbEntity
  8
3
 62
     0
370
    -2
100
AcDbLine
 10
1409.055040675532
 20
2795.378507702061
 30
0.0
 11
1409.055040675532
 21
2928.879223635095
 31
0.0
  0
LINE
  5
833A
330
832D
100
AcDbEntity
  8
3
 62
     0
370
    -2
100
AcDbLine
 10
1957.055040675532
 20
2292.660298728196
 30
0.0
 11
1957.055040675532
 21
2928.879223635095
 31
0.0
  0
LINE
  5
833B
330
832D
100
AcDbEntity
  8
3
 62
     0
370
    -2
100
AcDbLine
 10
1449.055040675532
 20
2908.879223635094
 30
0.0
 11
1917.055040675532
 21
2908.879223635094
 31
0.0
  0
INSERT
  5
833C
330
832D
100
AcDbEntity
  8
3
 62
     0
370
    -2
100
AcDbBlockReference
  2
_OPEN
 10
1409.055040675532
 20
2908.879223635094
 30
0.0
 41
40.0
 42
40.0
 43
40.0
 50
180.0
  0
INSERT
  5
833D
330
832D
100
AcDbEntity
  8
3
 62
     0
370
    -2
100
AcDbBlockReference
  2
_OPEN
 10
1957.055040675532
 20
2908.879223635094
 30
0.0
 41
40.0
 42
40.0
 43
40.0
  0
MTEXT
  5
833E
330
832D
100
AcDbEntity
  8
3
 62
     0
100
AcDbMText
 10
1683.055040675531
 20
2958.879223635094
 30
0.0
 40
60.0
 41
0.0
 71
     5
 72
     1
  1
\A1;548
 73
     1
 44
1.0
1001
ACAD
1000
MTEXTBEGIN
1070
    73
1070
     1
1070
    44
1040
1.0
1070
    74
1070
     0
1000
MTEXTEND
  0
POINT
  5
833F
330
832D
100
AcDbEntity
  8
DEFPOINTS
 62
     0
100
AcDbPoint
 10
1409.055040675532
 20
2775.378507702062
 30
0.0
  0
POINT
  5
8340
330
832D
100
AcDbEntity
  8
DEFPOINTS
 62
     0
100
AcDbPoint
 10
1957.055040675532
 20
2272.660298728196
 30
0.0
  0
POINT
  5
8341
330
832D
100
AcDbEntity
  8
DEFPOINTS
 62
     0
100
AcDbPoint
 10
1957.055040675532
 20
2908.879223635094
 30
0.0
  0
ENDBLK
  5
832F
330
832D
100
AcDbEntity
  8
0
100
AcDbBlockEnd
  0
BLOCK
  5
8344
330
8343
100
AcDbEntity
  8
0
100
AcDbBlockBegin
  2
*D39
 70
     1
 10
0.0
 20
0.0
 30
0.0
  3
*D39
  1

  0
LINE
  5
834F
330
8343
100
AcDbEntity
  8
3
 62
     0
370
    -2
100
AcDbLine
 10
989.055040675532
 20
1519.660298728196
 30
0.0
 11
573.47628826139
 21
1519.660298728196
 31
0.0
  0
LINE
  5
8350
330
8343
100
AcDbEntity
  8
3
 62
     0
370
    -2
100
AcDbLine
 10
882.1620675725371
 20
2319.660298728196
 30
0.0
 11
573.4762882613901
 21
2319.660298728196
 31
0.0
  0
LINE
  5
8351
330
8343
100
AcDbEntity
  8
3
 62
     0
370
    -2
100
AcDbLine
 10
593.47628826139
 20
1559.660298728196
 30
0.0
 11
593.4762882613901
 21
2279.660298728197
 31
0.0
  0
INSERT
  5
8352
330
8343
100
AcDbEntity
  8
3
 62
     0
370
    -2
100
AcDbBlockReference
  2
_OPEN
 10
593.47628826139
 20
1519.660298728196
 30
0.0
 41
40.0
 42
40.0
 43
40.0
 50
270.0
  0
INSERT
  5
8353
330
8343
100
AcDbEntity
  8
3
 62
     0
370
    -2
100
AcDbBlockReference
  2
_OPEN
 10
593.4762882613902
 20
2319.660298728196
 30
0.0
 41
40.0
 42
40.0
 43
40.0
 50
90.0
  0
MTEXT
  5
8354
330
8343
100
AcDbEntity
  8
3
 62
     0
100
AcDbMText
 10
543.4762882613897
 20
1919.660298728196
 30
0.0
 40
60.0
 41
0.0
 71
     5
 72
     1
  1
\A1;800
 11
0.0000000000000001
 21
1.0
 31
0.0
 73
     1
 44
1.0
1001
ACAD
1000
MTEXTBEGIN
1070
    73
1070
     1
1070
    44
1040
1.0
1070
    74
1070
     0
1000
MTEXTEND
  0
POINT
  5
8355
330
8343
100
AcDbEntity
  8
DEFPOINTS
 62
     0
100
AcDbPoint
 10
1009.055040675532
 20
1519.660298728196
 30
0.0
  0
POINT
  5
8356
330
8343
100
AcDbEntity
  8
DEFPOINTS
 62
     0
100
AcDbPoint
 10
902.1620675725372
 20
2319.660298728196
 30
0.0
  0
POINT
  5
8357
330
8343
100
AcDbEntity
  8
DEFPOINTS
 62
     0
100
AcDbPoint
 10
593.4762882613902
 20
2319.660298728196
 30
0.0
  0
ENDBLK
  5
8345
330
8343
100
AcDbEntity
  8
0
100
AcDbBlockEnd
  0
BLOCK
  5
835A
330
8359
100
AcDbEntity
  8
0
100
AcDbBlockBegin
  2
*D40
 70
     1
 10
0.0
 20
0.0
 30
0.0
  3
*D40
  1

  0
LINE
  5
8365
330
8359
100
AcDbEntity
  8
3
 62
     0
370
    -2
100
AcDbLine
 10
1809.055040675533
 20
4518.710584264268
 30
0.0
 11
1809.055040675533
 21
4614.543070233767
 31
0.0
  0
LINE
  5
8366
330
8359
100
AcDbEntity
  8
3
 62
     0
370
    -2
100
AcDbLine
 10
2459.055040675533
 20
4112.710584264267
 30
0.0
 11
2459.055040675533
 21
4614.543070233767
 31
0.0
  0
LINE
  5
8367
330
8359
100
AcDbEntity
  8
3
 62
     0
370
    -2
100
AcDbLine
 10
1849.055040675533
 20
4594.543070233767
 30
0.0
 11
2419.055040675534
 21
4594.543070233767
 31
0.0
  0
INSERT
  5
8368
330
8359
100
AcDbEntity
  8
3
 62
     0
370
    -2
100
AcDbBlockReference
  2
_OPEN
 10
1809.055040675533
 20
4594.543070233767
 30
0.0
 41
40.0
 42
40.0
 43
40.0
 50
180.0
  0
INSERT
  5
8369
330
8359
100
AcDbEntity
  8
3
 62
     0
370
    -2
100
AcDbBlockReference
  2
_OPEN
 10
2459.055040675533
 20
4594.543070233767
 30
0.0
 41
40.0
 42
40.0
 43
40.0
  0
MTEXT
  5
836A
330
8359
100
AcDbEntity
  8
3
 62
     0
100
AcDbMText
 10
2134.055040675533
 20
4644.543070233767
 30
0.0
 40
60.0
 41
0.0
 71
     5
 72
     1
  1
\A1;650
 73
     1
 44
1.0
1001
ACAD
1000
MTEXTBEGIN
1070
    73
1070
     1
1070
    44
1040
1.0
1070
    74
1070
     0
1000
MTEXTEND
  0
POINT
  5
836B
330
8359
100
AcDbEntity
  8
DEFPOINTS
 62
     0
100
AcDbPoint
 10
1809.055040675533
 20
4498.710584264268
 30
0.0
  0
POINT
  5
836C
330
8359
100
AcDbEntity
  8
DEFPOINTS
 62
     0
100
AcDbPoint
 10
2459.055040675533
 20
4092.710584264266
 30
0.0
  0
POINT
  5
836D
330
8359
100
AcDbEntity
  8
DEFPOINTS
 62
     0
100
AcDbPoint
 10
2459.055040675533
 20
4594.543070233767
 30
0.0
  0
ENDBLK
  5
835B
330
8359
100
AcDbEntity
  8
0
100
AcDbBlockEnd
  0
ENDSEC
  0
SECTION
  2
ENTITIES
  0
INSERT
  5
7BFC
330
81E3
100
AcDbEntity
  8
0
100
AcDbBlockReference
  2
YA_N
 10
6.0
 20
5.0
 30
0.0
  0
LINE
  5
7BFE
330
81E3
100
AcDbEntity
  8
2
100
AcDbLine
 10
2020.308782981459
 20
2319.660298728196
 30
0.0
 11
902.1620675725372
 21
2319.660298728196
 31
0.0
  0
LINE
  5
7BFF
330
81E3
100
AcDbEntity
  8
2
100
AcDbLine
 10
1409.055040675532
 20
2775.378507702062
 30
0.0
 11
1409.055040675533
 21
1519.660298728197
 31
0.0
  0
ARC
  5
7C00
330
81E3
100
AcDbEntity
  8
1
100
AcDbCircle
 10
1362.055040675532
 20
2272.660298728196
 30
0.0
 40
595.0
100
AcDbArc
 50
274.5306050426826
 51
4.530605042682608
  0
ARC
  5
7C01
330
81E3
100
AcDbEntity
  8
1
100
AcDbCircle
 10
1456.055040675533
 20
2272.660298728196
 30
0.0
 40
501.0
100
AcDbArc
 50
5.382968649881314
 51
95.38296864988129
  0
ARC
  5
7C02
330
81E3
100
AcDbEntity
  8
1
100
AcDbCircle
 10
1447.055040675532
 20
2357.660298728196
 30
0.0
 40
416.0
100
AcDbArc
 50
95.2410550612967
 51
185.2410550612967
  0
LINE
  5
7C03
330
81E3
100
AcDbEntity
  8
1
100
AcDbLine
 10
949.0550406755327
 20
1599.660298728196
 30
0.0
 11
949.0550406755327
 21
2333.660298728196
 31
0.0
  0
LINE
  5
7C04
330
81E3
100
AcDbEntity
  8
1
100
AcDbLine
 10
949.0550406755327
 20
1641.660298728196
 30
0.0
 11
1409.055040675532
 21
1679.51950599851
 31
0.0
  0
LINE
  5
7C05
330
81E3
100
AcDbEntity
  8
1
100
AcDbLine
 10
1032.093504176117
 20
2291.660298728197
 30
0.0
 11
949.0550406755327
 21
2291.660298728197
 31
0.0
  0
LINE
  5
7C06
330
81E3
100
AcDbEntity
  8
1
100
AcDbLine
 10
989.0550406755327
 20
1644.952403708223
 30
0.0
 11
989.0550406755327
 21
2291.660298728197
 31
0.0
  0
LINE
  5
7C07
330
81E3
100
AcDbEntity
  8
1
100
AcDbLine
 10
952.0550406755328
 20
1599.660298728196
 30
0.0
 11
949.0550406755327
 21
1599.660298728196
 31
0.0
  0
LINE
  5
7C08
330
81E3
100
AcDbEntity
  8
1
100
AcDbLine
 10
952.0550406755328
 20
2333.660298728196
 30
0.0
 11
949.0550406755327
 21
2333.660298728196
 31
0.0
  0
LINE
  5
7C09
330
81E3
100
AcDbEntity
  8
1
100
AcDbLine
 10
952.0550406755328
 20
1599.660298728196
 30
0.0
 11
952.0550406755328
 21
2333.660298728196
 31
0.0
  0
LINE
  5
7C0A
330
81E3
100
AcDbEntity
  8
2
100
AcDbLine
 10
3404.981369091031
 20
2828.773054748349
 30
0.0
 11
3404.981369091031
 21
1519.660298728197
 31
0.0
  0
LINE
  5
7C0B
330
81E3
100
AcDbEntity
  8
2
100
AcDbLine
 10
2622.98136909103
 20
2319.660298728196
 30
0.0
 11
3910.65304371318
 21
2319.660298728196
 31
0.0
  0
LINE
  5
7C0C
330
81E3
100
AcDbEntity
  8
1
100
AcDbLine
 10
3857.981369091032
 20
1619.660298728196
 30
0.0
 11
3857.981369091032
 21
1614.19016751501
 31
0.0
  0
LINE
  5
7C0D
330
81E3
100
AcDbEntity
  8
1
100
AcDbLine
 10
3804.98136909103
 20
2773.660298728197
 30
0.0
 11
3804.981369091031
 21
2347.660298728197
 31
0.0
  0
LINE
  5
7C0E
330
81E3
100
AcDbEntity
  8
1
100
AcDbLine
 10
3804.98136909103
 20
2347.660298728197
 30
0.0
 11
3804.981369091031
 21
1641.660298728196
 31
0.0
  0
LINE
  5
7C0F
330
81E3
100
AcDbEntity
  8
2
100
AcDbLine
 10
1409.055040675532
 20
4526.508670769092
 30
0.0
 11
1409.055040675532
 21
3242.157300992572
 31
0.0
  0
LINE
  5
7C10
330
81E3
100
AcDbEntity
  8
2
100
AcDbLine
 10
2010.902890374351
 20
4045.710584264269
 30
0.0
 11
899.5445059917091
 21
4045.710584264269
 31
0.0
  0
INSERT
  5
7C11
330
81E3
100
AcDbEntity
  8
0
100
AcDbBlockReference
  2
YA_N
 10
-1221.011981710642
 20
-542.7332483964637
 30
0.0
 41
15.0
 42
15.0
 43
15.0
  0
ARC
  5
7C17
330
81E3
100
AcDbEntity
  8
1
100
AcDbCircle
 10
2259.055040675534
 20
1836.660298728197
 30
0.0
 40
142.5
100
AcDbArc
 50
180.0
 51
213.0338076719878
  0
ARC
  5
7C18
330
81E3
100
AcDbEntity
  8
1
100
AcDbCircle
 10
2259.055040675534
 20
1836.660298728197
 30
0.0
 40
142.5
100
AcDbArc
 50
326.9661316176382
 51
180.0
  0
LINE
  5
7C19
330
81E3
100
AcDbEntity
  8
2
100
AcDbLine
 10
2259.055040675534
 20
1998.259039845455
 30
0.0
 11
2259.055040675534
 21
1519.660298728197
 31
0.0
  0
LINE
  5
7C1A
330
81E3
100
AcDbEntity
  8
1
100
AcDbLine
 10
2378.519698684455
 20
1758.978605345449
 30
0.0
 11
2389.055040675532
 21
1719.660298728196
 31
0.0
  0
LINE
  5
7C1B
330
81E3
100
AcDbEntity
  8
1
100
AcDbLine
 10
2389.055040675532
 20
1719.462898728196
 30
0.0
 11
2389.055040675532
 21
1704.660298728196
 31
0.0
  0
LINE
  5
7C1C
330
81E3
100
AcDbEntity
  8
1
100
AcDbLine
 10
2139.590300355472
 20
1758.978731929756
 30
0.0
 11
2129.055040675532
 21
1719.660298728196
 31
0.0
  0
LINE
  5
7C1D
330
81E3
100
AcDbEntity
  8
1
100
AcDbLine
 10
2129.055040675532
 20
1719.462898728196
 30
0.0
 11
2129.055040675532
 21
1704.660298728196
 31
0.0
  0
LINE
  5
7C1E
330
81E3
100
AcDbEntity
  8
2
100
AcDbLine
 10
2429.592605491123
 20
1836.660298728197
 30
0.0
 11
2090.554275149872
 21
1836.660298728197
 31
0.0
  0
LINE
  5
7C1F
330
81E3
100
AcDbEntity
  8
1
100
AcDbLine
 10
2059.055040675533
 20
1659.660298728196
 30
0.0
 11
2059.055040675533
 21
1619.660298728196
 31
0.0
  0
LINE
  5
7C20
330
81E3
100
AcDbEntity
  8
1
100
AcDbLine
 10
2459.055040675533
 20
1659.660298728196
 30
0.0
 11
2459.055040675533
 21
1619.660298728196
 31
0.0
  0
LINE
  5
7C22
330
81E3
100
AcDbEntity
  8
1
100
AcDbLine
 10
2422.890697289327
 20
1704.660298728196
 30
0.0
 11
2096.432529284205
 21
1704.660298728196
 31
0.0
  0
LINE
  5
7C23
330
81E3
100
AcDbEntity
  8
1
100
AcDbLine
 10
2434.055040675533
 20
1659.660298728196
 30
0.0
 11
2422.890697289327
 21
1704.660298728196
 31
0.0
  0
LINE
  5
7C24
330
81E3
100
AcDbEntity
  8
1
100
AcDbLine
 10
2084.055040675532
 20
1659.660298728196
 30
0.0
 11
2096.432529284205
 21
1704.660298728196
 31
0.0
  0
DIMENSION
  5
7C2A
330
81E3
100
AcDbEntity
  8
3
100
AcDbDimension
  2
*D4
 10
820.4935059689757
 20
2291.660298728197
 30
0.0
 11
780.493505968976
 21
2029.987676433646
 31
0.0
 12
1257.016300202718
 22
1751.562672278076
 32
0.0
 71
     5
 42
-1.0
  3
Standard
100
AcDbAlignedDimension
 13
949.0550406755327
 23
1641.660298728196
 33
0.0
 14
949.0550406755327
 24
2291.660298728197
 34
0.0
 50
270.0
100
AcDbRotatedDimension
1001
ACAD
1000
DSTYLE
1002
{
1070
    40
1040
20.0
1002
}
  0
DIMENSION
  5
7C2B
330
81E3
100
AcDbEntity
  8
3
100
AcDbDimension
  2
*D5
 10
700.9044473927787
 20
2319.660298728196
 30
0.0
 11
660.9044473927788
 21
2043.987676433645
 31
0.0
 12
1257.016300202718
 22
1751.562672278076
 32
0.0
 71
     5
 42
-1.0
  3
Standard
100
AcDbAlignedDimension
 13
949.0550406755327
 23
1641.660298728196
 33
0.0
 14
902.1620675725372
 24
2319.660298728196
 34
0.0
 50
270.0
100
AcDbRotatedDimension
1001
ACAD
1000
DSTYLE
1002
{
1070
    40
1040
20.0
1002
}
  0
LINE
  5
7C2D
330
81E3
100
AcDbEntity
  8
2
100
AcDbLine
 10
2622.98136909103
 20
1836.660298728197
 30
0.0
 11
3346.887207735206
 21
1836.660298728197
 31
0.0
  0
LINE
  5
7C2F
330
81E3
100
AcDbEntity
  8
1
100
AcDbLine
 10
3004.98136909103
 20
2773.660298728197
 30
0.0
 11
3004.98136909103
 21
2347.660298728197
 31
0.0
  0
LINE
  5
7C30
330
81E3
100
AcDbEntity
  8
1
100
AcDbLine
 10
3004.98136909103
 20
2347.660298728197
 30
0.0
 11
3004.98136909103
 21
1979.160298728197
 31
0.0
  0
LINE
  5
7C31
330
81E3
100
AcDbEntity
  8
1
100
AcDbLine
 10
3914.981369091032
 20
2289.660298728196
 30
0.0
 11
3914.981369091032
 21
2189.660298728196
 31
0.0
  0
ARC
  5
7C32
330
81E3
100
AcDbEntity
  8
1
100
AcDbCircle
 10
3904.981369091031
 20
2289.660298728196
 30
0.0
 40
10.0
100
AcDbArc
 50
0.0
 51
90.0
  0
ARC
  5
7C33
330
81E3
100
AcDbEntity
  8
1
100
AcDbCircle
 10
3904.981369091031
 20
2189.660298728196
 30
0.0
 40
10.0
100
AcDbArc
 50
270.0
 51
0.0
  0
LINE
  5
7C34
330
81E3
100
AcDbEntity
  8
1
100
AcDbLine
 10
3804.981369091031
 20
2179.660298728196
 30
0.0
 11
3904.981369091031
 21
2179.660298728196
 31
0.0
  0
LINE
  5
7C35
330
81E3
100
AcDbEntity
  8
1
100
AcDbLine
 10
3804.981369091031
 20
2299.660298728197
 30
0.0
 11
3904.981369091031
 21
2299.660298728197
 31
0.0
  0
CIRCLE
  5
7C36
330
81E3
100
AcDbEntity
  8
1
100
AcDbCircle
 10
2259.055040675534
 20
1836.660298728197
 30
0.0
 40
79.0
  0
CIRCLE
  5
7C37
330
81E3
100
AcDbEntity
  8
1
100
AcDbCircle
 10
1409.055040675532
 20
2319.660298728196
 30
0.0
 40
88.9
  0
ARC
  5
7C38
330
81E3
100
AcDbEntity
  8
1
100
AcDbCircle
 10
1409.055040675532
 20
2319.660298728196
 30
0.0
 40
150.0
100
AcDbArc
 50
77.52830244339076
 51
257.5283024433907
  0
ARC
  5
7C39
330
81E3
100
AcDbEntity
  8
1
100
AcDbCircle
 10
2259.055040675534
 20
1836.660298728197
 30
0.0
 40
150.0
100
AcDbArc
 50
257.5283024433907
 51
77.52830244339076
  0
LINE
  5
7C3A
330
81E3
100
AcDbEntity
  8
1
100
AcDbLine
 10
1441.448639546832
 20
2466.120719156943
 30
0.0
 11
2291.448639546831
 21
1983.120719156943
 31
0.0
  0
LINE
  5
7C3B
330
81E3
100
AcDbEntity
  8
1
100
AcDbLine
 10
1429.239539342421
 20
2406.238563977428
 30
0.0
 11
2276.991771774341
 21
1913.597114866433
 31
0.0
  0
LINE
  5
7C3C
330
81E3
100
AcDbEntity
  8
1
100
AcDbLine
 10
1390.844809799904
 20
2232.645371896897
 30
0.0
 11
2242.872720774805
 21
1759.335448113206
 31
0.0
  0
LINE
  5
7C3D
330
81E3
100
AcDbEntity
  8
1
100
AcDbLine
 10
1376.661441804232
 20
2173.199878299449
 30
0.0
 11
2226.661441804233
 21
1690.199878299449
 31
0.0
  0
LINE
  5
7C3E
330
81E3
100
AcDbEntity
  8
1
100
AcDbLine
 10
2752.981369091031
 20
2408.560298728197
 30
0.0
 11
2752.98136909103
 21
2230.760298728196
 31
0.0
  0
LINE
  5
7C3F
330
81E3
100
AcDbEntity
  8
1
100
AcDbLine
 10
2834.981369091031
 20
2408.560298728197
 30
0.0
 11
2834.98136909103
 21
2230.760298728197
 31
0.0
  0
LINE
  5
7C40
330
81E3
100
AcDbEntity
  8
1
100
AcDbLine
 10
2752.981369091031
 20
2408.560298728197
 30
0.0
 11
2834.981369091031
 21
2408.560298728197
 31
0.0
  0
LINE
  5
7C41
330
81E3
100
AcDbEntity
  8
1
100
AcDbLine
 10
2752.98136909103
 20
2230.760298728196
 30
0.0
 11
2834.98136909103
 21
2230.760298728197
 31
0.0
  0
LINE
  5
7C42
330
81E3
100
AcDbEntity
  8
1
100
AcDbLine
 10
2752.98136909103
 20
1915.660298728196
 30
0.0
 11
2834.98136909103
 21
1915.660298728196
 31
0.0
  0
LINE
  5
7C43
330
81E3
100
AcDbEntity
  8
1
100
AcDbLine
 10
2752.981369091029
 20
1757.660298728197
 30
0.0
 11
2834.981369091029
 21
1757.660298728197
 31
0.0
  0
LINE
  5
7C44
330
81E3
100
AcDbEntity
  8
1
100
AcDbLine
 10
2624.981369091031
 20
2469.660298728197
 30
0.0
 11
2624.981369091029
 21
1686.660298728196
 31
0.0
  0
LINE
  5
7C45
330
81E3
100
AcDbEntity
  8
1
100
AcDbLine
 10
2884.981369091031
 20
2469.660298728197
 30
0.0
 11
2884.981369091031
 21
2449.660298728197
 31
0.0
  0
LINE
  5
7C46
330
81E3
100
AcDbEntity
  8
1
100
AcDbLine
 10
2624.981369091032
 20
2469.660298728197
 30
0.0
 11
2884.981369091031
 21
2469.660298728197
 31
0.0
  0
LINE
  5
7C47
330
81E3
100
AcDbEntity
  8
1
100
AcDbLine
 10
2624.981369091029
 20
1686.660298728196
 30
0.0
 11
2884.981369091029
 21
1686.660298728196
 31
0.0
  0
LINE
  5
7C48
330
81E3
100
AcDbEntity
  8
1
100
AcDbLine
 10
2884.981369091029
 20
1694.160298728196
 30
0.0
 11
2884.981369091029
 21
1686.660298728196
 31
0.0
  0
LINE
  5
7C49
330
81E3
100
AcDbEntity
  8
1
100
AcDbLine
 10
1809.055040675533
 20
4498.710584264268
 30
0.0
 11
1009.055040675532
 21
4498.71058426427
 31
0.0
  0
LINE
  5
7C4A
330
81E3
100
AcDbEntity
  8
1
100
AcDbLine
 10
2459.055040675533
 20
3492.710584264268
 30
0.0
 11
1009.055040675532
 21
3492.710584264269
 31
0.0
  0
LINE
  5
7C4B
330
81E3
100
AcDbEntity
  8
1
100
AcDbLine
 10
1009.055040675532
 20
4498.710584264268
 30
0.0
 11
1009.055040675532
 21
4445.710584264269
 31
0.0
  0
LINE
  5
7C4C
330
81E3
100
AcDbEntity
  8
1
100
AcDbLine
 10
1809.055040675533
 20
4498.710584264268
 30
0.0
 11
1809.055040675533
 21
4445.710584264269
 31
0.0
  0
LINE
  5
7C4D
330
81E3
100
AcDbEntity
  8
1
100
AcDbLine
 10
2459.055040675533
 20
4092.710584264266
 30
0.0
 11
2459.055040675533
 21
3492.710584264268
 31
0.0
  0
LINE
  5
7C4E
330
81E3
100
AcDbEntity
  8
1
100
AcDbLine
 10
2459.055040675533
 20
4092.710584264266
 30
0.0
 11
1957.055040675532
 21
4092.710584264266
 31
0.0
  0
ARC
  5
7C56
330
81E3
100
AcDbEntity
  8
1
100
AcDbCircle
 10
2912.48136909103
 20
2286.460298728196
 30
0.0
 40
10.0
100
AcDbArc
 50
90.0
 51
180.0
  0
ARC
  5
7C57
330
81E3
100
AcDbEntity
  8
1
100
AcDbCircle
 10
2912.48136909103
 20
2186.460298728196
 30
0.0
 40
10.0
100
AcDbArc
 50
180.0
 51
270.0
  0
LINE
  5
7C58
330
81E3
100
AcDbEntity
  8
1
100
AcDbLine
 10
3004.98136909103
 20
2176.460298728196
 30
0.0
 11
2912.48136909103
 21
2176.460298728196
 31
0.0
  0
LINE
  5
7C59
330
81E3
100
AcDbEntity
  8
1
100
AcDbLine
 10
3004.98136909103
 20
2296.460298728196
 30
0.0
 11
2912.48136909103
 21
2296.460298728196
 31
0.0
  0
LINE
  5
7C5A
330
81E3
100
AcDbEntity
  8
1
100
AcDbLine
 10
2902.48136909103
 20
2286.460298728196
 30
0.0
 11
2902.48136909103
 21
2186.460298728196
 31
0.0
  0
LINE
  5
7C5B
330
81E3
100
AcDbEntity
  8
1
100
AcDbLine
 10
2834.98136909103
 20
2294.660298728196
 30
0.0
 11
2906.881369091031
 21
2294.660298728196
 31
0.0
  0
LINE
  5
7C5D
330
81E3
100
AcDbEntity
  8
1
100
AcDbLine
 10
1009.055040675532
 20
1619.660298728196
 30
0.0
 11
1009.055040675532
 21
1519.660298728196
 31
0.0
  0
LINE
  5
7C5E
330
81E3
100
AcDbEntity
  8
1
100
AcDbLine
 10
2459.055040675533
 20
1619.660298728196
 30
0.0
 11
1009.055040675532
 21
1619.660298728196
 31
0.0
1001
ACAD
1000
ASC_BOUNDS
1002
{
1070
    19
1005
0
1005
0
1002
}
  0
LINE
  5
7C5F
330
81E3
100
AcDbEntity
  8
1
100
AcDbLine
 10
2459.055040675533
 20
1519.660298728196
 30
0.0
 11
1009.055040675532
 21
1519.660298728196
 31
0.0
  0
LINE
  5
7C60
330
81E3
100
AcDbEntity
  8
1
100
AcDbLine
 10
2459.055040675533
 20
1619.660298728196
 30
0.0
 11
2459.055040675533
 21
1519.660298728196
 31
0.0
  0
LINE
  5
7C61
330
81E3
100
AcDbEntity
  8
1
100
AcDbLine
 10
2851.981369091031
 20
1619.660298728196
 30
0.0
 11
3857.281369091032
 21
1619.660298728196
 31
0.0
1001
ACAD
1000
ASC_BOUNDS
1002
{
1070
    19
1002
}
  0
LINE
  5
7C62
330
81E3
100
AcDbEntity
  8
1
100
AcDbLine
 10
2851.981369091031
 20
1619.660298728196
 30
0.0
 11
2851.981369091031
 21
1519.660298728196
 31
0.0
  0
LINE
  5
7C63
330
81E3
100
AcDbEntity
  8
1
100
AcDbLine
 10
2851.981369091031
 20
1519.660298728196
 30
0.0
 11
3857.98136909103
 21
1519.660298728196
 31
0.0
  0
LINE
  5
7C64
330
81E3
100
AcDbEntity
  8
1
100
AcDbLine
 10
3857.981369091032
 20
1619.660298728196
 30
0.0
 11
3857.981369091032
 21
1519.660298728196
 31
0.0
  0
ARC
  5
7C65
330
81E3
100
AcDbEntity
  8
1
100
AcDbCircle
 10
1409.055040675532
 20
2319.660298728196
 30
0.0
 40
378.0
100
AcDbArc
 50
180.0
 51
184.2480226667285
  0
LINE
  5
7C66
330
81E3
100
AcDbEntity
  8
1
100
AcDbLine
 10
1957.055040675532
 20
4445.710584264269
 30
0.0
 11
949.0550406755327
 21
4445.710584264269
 31
0.0
  0
LINE
  5
7C67
330
81E3
100
AcDbEntity
  8
1
100
AcDbLine
 10
1957.055040675532
 20
3645.71058426427
 30
0.0
 11
949.0550406755327
 21
3645.71058426427
 31
0.0
  0
LINE
  5
7C68
330
81E3
100
AcDbEntity
  8
1
100
AcDbLine
 10
949.0550406755327
 20
4485.710584264269
 30
0.0
 11
949.0550406755327
 21
3605.71058426427
 31
0.0
  0
LINE
  5
7C69
330
81E3
100
AcDbEntity
  8
1
100
AcDbLine
 10
1957.055040675532
 20
4445.710584264269
 30
0.0
 11
1957.055040675532
 21
3645.71058426427
 31
0.0
  0
LINE
  5
7C6A
330
81E3
100
AcDbEntity
  8
1
100
AcDbLine
 10
989.0550406755336
 20
4445.710584264269
 30
0.0
 11
989.0550406755327
 21
3645.71058426427
 31
0.0
  0
LINE
  5
7C6B
330
81E3
100
AcDbEntity
  8
1
100
AcDbLine
 10
1009.055040675532
 20
3645.71058426427
 30
0.0
 11
1009.055040675532
 21
3492.710584264269
 31
0.0
  0
LINE
  5
7C6C
330
81E3
100
AcDbEntity
  8
1
100
AcDbLine
 10
2338.055040675532
 20
3393.710584264268
 30
0.0
 11
2180.055040675533
 21
3393.710584264268
 31
0.0
  0
LINE
  5
7C6D
330
81E3
100
AcDbEntity
  8
1
100
AcDbLine
 10
2338.055040675532
 20
3475.710584264269
 30
0.0
 11
2180.055040675533
 21
3475.710584264269
 31
0.0
  0
LINE
  5
7C6E
330
81E3
100
AcDbEntity
  8
1
100
AcDbLine
 10
1320.155040675532
 20
3475.710584264269
 30
0.0
 11
1320.155040675532
 21
3393.710584264269
 31
0.0
  0
LINE
  5
7C6F
330
81E3
100
AcDbEntity
  8
1
100
AcDbLine
 10
1497.955040675533
 20
3475.710584264269
 30
0.0
 11
1497.955040675533
 21
3393.710584264269
 31
0.0
  0
LINE
  5
7C70
330
81E3
100
AcDbEntity
  8
1
100
AcDbLine
 10
2180.055040675533
 20
3475.710584264269
 30
0.0
 11
2180.055040675533
 21
3393.710584264268
 31
0.0
  0
LINE
  5
7C71
330
81E3
100
AcDbEntity
  8
1
100
AcDbLine
 10
2338.055040675532
 20
3475.710584264269
 30
0.0
 11
2338.055040675532
 21
3393.710584264268
 31
0.0
  0
LINE
  5
7C72
330
81E3
100
AcDbEntity
  8
1
100
AcDbLine
 10
2409.055040675533
 20
3265.710584264268
 30
0.0
 11
1259.055040675532
 21
3265.710584264269
 31
0.0
  0
LINE
  5
7C73
330
81E3
100
AcDbEntity
  8
1
100
AcDbLine
 10
1259.055040675532
 20
3525.710584264269
 30
0.0
 11
1259.055040675532
 21
3265.710584264269
 31
0.0
  0
LINE
  5
7C74
330
81E3
100
AcDbEntity
  8
1
100
AcDbLine
 10
2409.055040675533
 20
3525.710584264268
 30
0.0
 11
2409.055040675533
 21
3265.710584264268
 31
0.0
  0
LINE
  5
7C75
330
81E3
100
AcDbEntity
  8
1
100
AcDbLine
 10
2409.055040675533
 20
3525.710584264268
 30
0.0
 11
1259.055040675532
 21
3525.710584264269
 31
0.0
  0
LINE
  5
7C76
330
81E3
100
AcDbEntity
  8
1
100
AcDbLine
 10
1497.955040675533
 20
3475.710584264269
 30
0.0
 11
1320.155040675532
 21
3475.710584264269
 31
0.0
  0
LINE
  5
7C77
330
81E3
100
AcDbEntity
  8
1
100
AcDbLine
 10
1497.955040675533
 20
3393.710584264269
 30
0.0
 11
1320.155040675532
 21
3393.710584264269
 31
0.0
  0
LINE
  5
7C78
330
81E3
100
AcDbEntity
  8
2
100
AcDbLine
 10
2259.055040675534
 20
3954.301477430891
 30
0.0
 11
2259.055040675534
 21
3242.157300992572
 31
0.0
  0
LINE
  5
7C79
330
81E3
100
AcDbEntity
  8
1
100
AcDbLine
 10
2116.555040675533
 20
3912.710284264269
 30
0.0
 11
2401.555040675532
 21
3912.710284264269
 31
0.0
  0
LINE
  5
7C7A
330
81E3
100
AcDbEntity
  8
1
100
AcDbLine
 10
2116.555040675533
 20
3522.710584264268
 30
0.0
 11
2401.555040675532
 21
3522.710584264269
 31
0.0
  0
LINE
  5
7C7B
330
81E3
100
AcDbEntity
  8
1
100
AcDbLine
 10
2278.055040675532
 20
3522.710584264268
 30
0.0
 11
2278.055040675532
 21
3475.710584264269
 31
0.0
  0
LINE
  5
7C7C
330
81E3
100
AcDbEntity
  8
1
100
AcDbLine
 10
2240.055040675533
 20
3522.710584264268
 30
0.0
 11
2240.055040675533
 21
3475.710584264269
 31
0.0
  0
LINE
  5
7C7D
330
81E3
100
AcDbEntity
  8
1
100
AcDbLine
 10
2401.555040675532
 20
3912.710284264269
 30
0.0
 11
2401.555040675532
 21
3522.710584264269
 31
0.0
  0
LINE
  5
7C7E
330
81E3
100
AcDbEntity
  8
1
100
AcDbLine
 10
2116.555040675533
 20
3912.710284264269
 30
0.0
 11
2116.555040675533
 21
3522.710584264268
 31
0.0
  0
LINE
  5
7C7F
330
81E3
100
AcDbEntity
  8
1
100
AcDbLine
 10
1384.055040675532
 20
3645.71058426427
 30
0.0
 11
1384.055040675532
 21
3475.710584264269
 31
0.0
  0
LINE
  5
7C80
330
81E3
100
AcDbEntity
  8
1
100
AcDbLine
 10
1434.055040675533
 20
3645.71058426427
 30
0.0
 11
1434.055040675533
 21
3475.710584264269
 31
0.0
  0
LINE
  5
7C81
330
81E3
100
AcDbEntity
  8
1
100
AcDbLine
 10
2834.981369091031
 20
2344.660298728197
 30
0.0
 11
3004.98136909103
 21
2344.660298728197
 31
0.0
  0
CIRCLE
  5
7C82
330
81E3
100
AcDbEntity
  8
1
100
AcDbCircle
 10
1409.055040675532
 20
2319.660298728196
 30
0.0
 40
335.0
  0
CIRCLE
  5
7C83
330
81E3
100
AcDbEntity
  8
1
100
AcDbCircle
 10
1409.055040675532
 20
2319.660298728196
 30
0.0
 40
375.0
  0
LINE
  5
7C84
330
81E3
100
AcDbEntity
  8
1
100
AcDbLine
 10
2459.055040675532
 20
1659.660298728196
 30
0.0
 11
2059.055040675533
 21
1659.660298728196
 31
0.0
  0
POINT
  5
7C85
330
81E3
100
AcDbEntity
  8
1
100
AcDbPoint
 10
3914.981369091032
 20
2289.660298728196
 30
0.0
  0
POINT
  5
7C86
330
81E3
100
AcDbEntity
  8
1
100
AcDbPoint
 10
2624.981369091031
 20
2469.660298728197
 30
0.0
  0
DIMENSION
  5
7C88
330
81E3
100
AcDbEntity
  8
3
100
AcDbDimension
  2
*D9
 10
800.2630696769246
 20
4498.71058426427
 30
0.0
 11
760.2630696769246
 21
3995.710584264269
 31
0.0
 12
242.90010286084
 22
0.0
 32
0.0
 71
     5
 42
-1.0
  3
Standard
100
AcDbAlignedDimension
 13
1009.055040675532
 23
3492.710584264269
 33
0.0
 14
1009.055040675532
 24
4498.71058426427
 34
0.0
 50
270.0
100
AcDbRotatedDimension
1001
ACAD
1000
DSTYLE
1002
{
1070
    40
1040
20.0
1002
}
  0
DIMENSION
  5
7C89
330
81E3
100
AcDbEntity
  8
3
100
AcDbDimension
  2
*D10
 10
1009.055040675532
 20
4594.543070233767
 30
0.0
 11
1409.055040675532
 21
4634.543070233767
 31
0.0
 12
242.90010286084
 22
0.0
 32
0.0
 71
     5
 42
-1.0
  3
Standard
100
AcDbAlignedDimension
 13
1809.055040675533
 23
4498.710584264268
 33
0.0
 14
1009.055040675532
 24
4498.71058426427
 34
0.0
100
AcDbRotatedDimension
1001
ACAD
1000
DSTYLE
1002
{
1070
    40
1040
20.0
1002
}
  0
DIMENSION
  5
7C8A
330
81E3
100
AcDbEntity
  8
3
100
AcDbDimension
  2
*D11
 10
2609.482624550814
 20
3492.710584264268
 30
0.0
 11
2569.482624550813
 21
3845.483388793175
 31
0.0
 12
1257.016300202718
 22
1614.353374367532
 32
0.0
 71
     5
 42
-1.0
  3
Standard
100
AcDbAlignedDimension
 13
2459.055040675533
 23
4092.710584264266
 33
0.0
 14
2459.055040675533
 24
3492.710584264268
 34
0.0
 50
270.0
100
AcDbRotatedDimension
1001
ACAD
1000
DSTYLE
1002
{
1070
    40
1040
20.0
1002
}
  0
DIMENSION
  5
7C90
330
81E3
100
AcDbEntity
  8
3
100
AcDbDimension
  2
*D12
 10
949.0550406755327
 20
3039.707490938132
 30
0.0
 11
1704.055040675533
 21
3143.034868643582
 31
0.0
 12
242.90010286084
 22
-63.32737770544918
 32
0.0
 71
     5
 42
-1.0
  3
Standard
100
AcDbAlignedDimension
 13
2459.055040675533
 23
1659.660298728196
 33
0.0
 14
949.0550406755327
 24
2299.824991376233
 34
0.0
100
AcDbRotatedDimension
1001
ACAD
1000
DSTYLE
1002
{
1070
    40
1040
20.0
1002
}
  0
LINE
  5
7C91
330
81E3
100
AcDbEntity
  8
1
100
AcDbLine
 10
2881.98136909103
 20
1694.160298728196
 30
0.0
 11
2881.98136909103
 21
1979.160298728197
 31
0.0
  0
LINE
  5
7C92
330
81E3
100
AcDbEntity
  8
1
100
AcDbLine
 10
3271.98136909103
 20
1979.160298728197
 30
0.0
 11
2881.98136909103
 21
1979.160298728197
 31
0.0
  0
LINE
  5
7C93
330
81E3
100
AcDbEntity
  8
1
100
AcDbLine
 10
2881.98136909103
 20
1817.660298728196
 30
0.0
 11
2834.981369091031
 21
1817.660298728196
 31
0.0
  0
LINE
  5
7C94
330
81E3
100
AcDbEntity
  8
1
100
AcDbLine
 10
2881.98136909103
 20
1855.660298728196
 30
0.0
 11
2834.981369091031
 21
1855.660298728196
 31
0.0
  0
LINE
  5
7C95
330
81E3
100
AcDbEntity
  8
1
100
AcDbLine
 10
3271.981369091029
 20
1694.160298728196
 30
0.0
 11
2881.98136909103
 21
1694.160298728196
 31
0.0
  0
POINT
  5
7C97
330
81E3
100
AcDbEntity
  8
1
100
AcDbPoint
 10
1009.055040675532
 20
1519.660298728196
 30
0.0
  0
LINE
  5
7C98
330
81E3
100
AcDbEntity
  8
1
100
AcDbLine
 10
2834.981369091028
 20
1915.660298728196
 30
0.0
 11
2834.981369091028
 21
1757.660298728197
 31
0.0
  0
LINE
  5
7C99
330
81E3
100
AcDbEntity
  8
1
100
AcDbLine
 10
2752.981369091029
 20
1915.660298728196
 30
0.0
 11
2752.981369091027
 21
1757.660298728197
 31
0.0
  0
DIMENSION
  5
7CA0
330
81E3
100
AcDbEntity
  8
3
100
AcDbDimension
  2
*D16
 10
1409.055040675532
 20
2908.879223635093
 30
0.0
 11
1179.055040675532
 21
3012.206601340543
 31
0.0
 12
242.90010286084
 22
-63.32737770544918
 32
0.0
 71
     5
 42
-1.0
  3
Standard
100
AcDbAlignedDimension
 13
949.0550406755327
 23
2319.660298728196
 33
0.0
 14
1409.055040675532
 24
2775.378507702062
 34
0.0
100
AcDbRotatedDimension
1001
ACAD
1000
DSTYLE
1002
{
1070
    40
1040
20.0
1002
}
  0
DIMENSION
  5
7CA2
330
81E3
100
AcDbEntity
  8
3
100
AcDbDimension
  2
*D18
 10
593.4762882613904
 20
2319.660298728196
 30
0.0
 11
553.4762882613904
 21
2609.987676433645
 31
0.0
 12
1257.016300202718
 22
1751.562672278076
 32
0.0
 71
     5
 42
-1.0
  3
Standard
100
AcDbAlignedDimension
 13
1456.055040675533
 23
2773.660298728197
 33
0.0
 14
882.1620675725371
 24
2319.660298728196
 34
0.0
 50
270.0
100
AcDbRotatedDimension
1001
ACAD
1000
DSTYLE
1002
{
1070
    40
1040
20.0
1002
}
  0
LINE
  5
7CA6
330
81E3
100
AcDbEntity
  8
1
100
AcDbLine
 10
3004.98136909103
 20
2773.660298728197
 30
0.0
 11
3804.981369091031
 21
2773.660298728197
 31
0.0
  0
LINE
  5
7CA7
330
81E3
100
AcDbEntity
  8
1
100
AcDbLine
 10
3225.41227537653
 20
1641.660298728196
 30
0.0
 11
3804.981369091031
 21
1641.660298728196
 31
0.0
  0
LINE
  5
7CAC
330
81E3
100
AcDbEntity
  8
1
100
AcDbLine
 10
3271.98136909103
 20
1694.160298728196
 30
0.0
 11
3271.98136909103
 21
1979.160298728196
 31
0.0
  0
LINE
  5
7CAD
330
81E3
100
AcDbEntity
  8
1
100
AcDbLine
 10
3225.41227537653
 20
1694.160298728196
 30
0.0
 11
3225.41227537653
 21
1619.660298728196
 31
0.0
  0
LINE
  5
7CAE
330
81E3
100
AcDbEntity
  8
1
100
AcDbLine
 10
2949.307083837121
 20
1694.160298728196
 30
0.0
 11
2949.307083837121
 21
1619.660298728196
 31
0.0
  0
LINE
  5
7CAF
330
81E3
100
AcDbEntity
  8
1
100
AcDbLine
 10
2949.307083837121
 20
1659.660298728196
 30
0.0
 11
3225.41227537653
 21
1659.660298728196
 31
0.0
  0
LINE
  5
7F6D
330
81E3
100
AcDbEntity
  8
4
100
AcDbLine
 10
3700.0
 20
1000.0
 30
0.0
 11
3700.0
 21
600.0
 31
0.0
  0
LINE
  5
7F6E
330
81E3
100
AcDbEntity
  8
4
100
AcDbLine
 10
2300.0
 20
1000.0
 30
0.0
 11
2300.0
 21
600.0
 31
0.0
  0
LINE
  5
7F6F
330
81E3
100
AcDbEntity
  8
4
100
AcDbLine
 10
1300.0
 20
1000.0
 30
0.0
 11
1300.0
 21
600.0
 31
0.0
  0
LINE
  5
7F72
330
81E3
100
AcDbEntity
  8
4
100
AcDbLine
 10
1300.0
 20
600.0
 30
0.0
 11
3700.0
 21
600.0
 31
0.0
  0
LINE
  5
7F73
330
81E3
100
AcDbEntity
  8
4
100
AcDbLine
 10
1300.0
 20
800.0
 30
0.0
 11
3700.0
 21
800.0
 31
0.0
  0
TEXT
  5
7F74
330
81E3
100
AcDbEntity
  8
4
100
AcDbText
 10
1377.004161693803
 20
863.0860517332255
 30
0.0
 40
100.0
  1
機器名称
100
AcDbText
  0
TEXT
  5
7F75
330
81E3
100
AcDbEntity
  8
4
100
AcDbText
 10
1372.516212049595
 20
643.2903134640219
 30
0.0
 40
100.0
  1
機器型番
100
AcDbText
  0
TEXT
  5
7F76
330
81E3
100
AcDbEntity
  8
4
100
AcDbText
 10
2355.357490975329
 20
845.1435379151371
 30
0.0
 40
100.0
  1
ミツヤ多翼送風機
100
AcDbText
  0
TEXT
  5
7F77
330
81E3
100
AcDbEntity
  8
4
100
AcDbText
 10
2373.308991170961
 20
634.3191685598867
 30
0.0
 40
100.0
  1
MF#4-5
100
AcDbText
  0
TEXT
  5
7F79
330
81E3
100
AcDbEntity
  8
4
100
AcDbText
 10
1608.914910157378
 20
4766.857682665031
 30
0.0
 40
107.9999999999999
  1
床置ベット
100
AcDbText
  0
TEXT
  5
7F7A
330
81E3
100
AcDbEntity
  8
4
100
AcDbText
 10
632.3351866588928
 20
5067.761952398596
 30
0.0
 40
144.0
  1
遠心式両吸込両持多翼ファン
100
AcDbText
  0
LINE
  5
7F7B
330
81E3
100
AcDbEntity
  8
4
100
AcDbLine
 10
500.0
 20
4938.817508529609
 30
0.0
 11
3700.0
 21
4938.817508529609
 31
0.0
  0
LINE
  5
7F7C
330
81E3
100
AcDbEntity
  8
4
100
AcDbLine
 10
500.0
 20
5338.81750852961
 30
0.0
 11
3700.0
 21
5338.81750852961
 31
0.0
  0
LINE
  5
7F7D
330
81E3
100
AcDbEntity
  8
4
100
AcDbLine
 10
1300.0
 20
1000.0
 30
0.0
 11
3700.0
 21
1000.0
 31
0.0
  0
LINE
  5
7F7E
330
81E3
100
AcDbEntity
  8
4
100
AcDbLine
 10
500.0
 20
5338.81750852961
 30
0.0
 11
500.0
 21
4938.817508529609
 31
0.0
  0
TEXT
  5
7F7F
330
81E3
100
AcDbEntity
  8
4
100
AcDbText
 10
737.1972456719738
 20
4764.638955092687
 30
0.0
 40
107.9999999999999
  1
右回転左横向
100
AcDbText
  0
TEXT
  5
7F80
330
81E3
100
AcDbEntity
  8
4
100
AcDbText
 10
2937.939118498579
 20
5412.122162990619
 30
0.0
 40
112.0
  1
No.
100
AcDbText
  0
TEXT
  5
7F81
330
81E3
100
AcDbEntity
  8
4
100
AcDbText
 10
2622.592125200027
 20
4766.857682665031
 30
0.0
 40
107.9999999999999
  1
縮尺：1/20
100
AcDbText
  0
LINE
  5
7F82
330
81E3
100
AcDbEntity
  8
4
100
AcDbLine
 10
3700.0
 20
5338.81750852961
 30
0.0
 11
3700.0
 21
4938.817508529609
 31
0.0
  0
LINE
  5
7F83
330
81E3
100
AcDbEntity
  8
4
100
AcDbLine
 10
4200.0
 20
5900.0
 30
0.0
 11
4200.0
 21
5900.0
 31
0.0
  0
LINE
  5
7F84
330
81E3
100
AcDbEntity
  8
4
100
AcDbLine
 10
2881.234844719729
 20
5362.527166250802
 30
0.0
 11
2881.234844719729
 21
5573.304523099504
 31
0.0
  0
LINE
  5
7F85
330
81E3
100
AcDbEntity
  8
4
100
AcDbLine
 10
2881.234844719729
 20
5573.304523099504
 30
0.0
 11
3700.0
 21
5573.304523099504
 31
0.0
  0
LINE
  5
7F86
330
81E3
100
AcDbEntity
  8
4
100
AcDbLine
 10
3700.0
 20
5573.304523099504
 30
0.0
 11
3700.0
 21
5362.527166250802
 31
0.0
  0
LINE
  5
7F87
330
81E3
100
AcDbEntity
  8
4
100
AcDbLine
 10
3700.0
 20
5362.527166250802
 30
0.0
 11
2881.234844719729
 21
5362.527166250802
 31
0.0
  0
LINE
  5
7F88
330
81E3
100
AcDbEntity
  8
4
100
AcDbLine
 10
0.0
 20
0.0
 30
0.0
 11
0.0
 21
5900.0
 31
0.0
  0
LINE
  5
7F89
330
81E3
100
AcDbEntity
  8
4
100
AcDbLine
 10
0.0
 20
5900.0
 30
0.0
 11
4200.0
 21
5900.0
 31
0.0
  0
LINE
  5
7F8A
330
81E3
100
AcDbEntity
  8
4
100
AcDbLine
 10
4200.0
 20
5900.0
 30
0.0
 11
4200.0
 21
0.0
 31
0.0
  0
LINE
  5
7F8B
330
81E3
100
AcDbEntity
  8
4
100
AcDbLine
 10
4200.0
 20
0.0
 30
0.0
 11
0.0
 21
0.0
 31
0.0
  0
DIMENSION
  5
80AA
330
81E3
100
AcDbEntity
  8
3
100
AcDbDimension
  2
*D22
 10
1409.055040675533
 20
1375.69413622905
 30
0.0
 11
1209.055040675532
 21
1425.69413622905
 31
0.0
 71
     5
 42
-1.0
  3
Standard
100
AcDbAlignedDimension
 13
1009.055040675532
 23
1519.660298728196
 33
0.0
 14
1409.055040675533
 24
1519.660298728197
 34
0.0
100
AcDbRotatedDimension
1001
ACAD
1000
DSTYLE
1002
{
1070
   172
1070
     1
1070
    40
1040
20.0
1070
    42
1040
1.0
1070
   271
1070
     0
1070
   143
1040
0.039
1002
}
  0
DIMENSION
  5
80B7
330
81E3
100
AcDbEntity
  8
3
100
AcDbDimension
  2
*D23
 10
2459.055040675533
 20
1375.69413622905
 30
0.0
 11
1934.055040675533
 21
1425.69413622905
 31
0.0
 71
     5
 42
-1.0
  3
Standard
100
AcDbAlignedDimension
 13
1409.055040675533
 23
1519.660298728197
 33
0.0
 14
2459.055040675533
 24
1519.660298728196
 34
0.0
100
AcDbRotatedDimension
1001
ACAD
1000
DSTYLE
1002
{
1070
   172
1070
     1
1070
    40
1040
20.0
1070
    42
1040
1.0
1070
   271
1070
     0
1070
   143
1040
0.039
1002
}
  0
DIMENSION
  5
80DE
330
81E3
100
AcDbEntity
  8
3
100
AcDbDimension
  2
*D26
 10
464.8323018277769
 20
2773.660298728197
 30
0.0
 11
414.8323018277769
 21
2146.660298728196
 31
0.0
 71
     5
 42
-1.0
  3
Standard
100
AcDbAlignedDimension
 13
1009.055040675532
 23
1519.660298728196
 33
0.0
 14
1436.055040675532
 24
2773.660298728197
 34
0.0
 50
90.0
100
AcDbRotatedDimension
1001
ACAD
1000
DSTYLE
1002
{
1070
   172
1070
     1
1070
    40
1040
20.0
1070
    42
1040
1.0
1070
   271
1070
     0
1070
   143
1040
0.039
1002
}
  0
DIMENSION
  5
822A
330
81E3
100
AcDbEntity
  8
3
100
AcDbDimension
  2
*D27
 10
3404.981369091031
 20
3027.549551552706
 30
0.0
 11
3014.981369091031
 21
3093.263837266992
 31
0.0
 70
    32
  1
(<>)
 71
     5
 42
780.0
  3
IGA
100
AcDbAlignedDimension
 13
2624.981369091031
 23
2469.660298728197
 33
0.0
 14
3404.981369091031
 24
2915.245197106421
 34
0.0
100
AcDbRotatedDimension
1001
ACAD
1000
DSTYLE
1002
{
1070
    40
1040
20.0
1070
    42
1040
1.0
1070
   143
1040
0.039
1070
   172
1070
     1
1070
   271
1070
     4
1070
   272
1070
     4
1070
   279
1070
     0
1070
   284
1070
     0
1070
   285
1070
     0
1070
   286
1070
     0
1070
   341
1005
81F7
1070
   343
1005
81F7
1070
   344
1005
81F7
1002
}
  0
DIMENSION
  5
8237
330
81E3
100
AcDbEntity
  8
3
100
AcDbDimension
  2
*D28
 10
3914.981369091032
 20
3027.549551552706
 30
0.0
 11
3659.981369091031
 21
3093.263837266992
 31
0.0
 70
    32
  1
(<>)
 71
     5
 42
510.0
  3
IGA
100
AcDbAlignedDimension
 13
3404.981369091031
 23
2915.245197106421
 33
0.0
 14
3914.981369091032
 24
2289.660298728196
 34
0.0
100
AcDbRotatedDimension
1001
ACAD
1000
DSTYLE
1002
{
1070
    40
1040
20.0
1070
    42
1040
1.0
1070
   143
1040
0.039
1070
   172
1070
     1
1070
   271
1070
     4
1070
   272
1070
     4
1070
   279
1070
     1
1070
   284
1070
     0
1070
   285
1070
     0
1070
   286
1070
     0
1070
   341
1005
81F7
1070
   343
1005
81F7
1070
   344
1005
81F7
1002
}
  0
DIMENSION
  5
82D5
330
81E3
100
AcDbEntity
  8
3
100
AcDbDimension
  2
*D33
 10
3804.98136909103
 20
2845.245197106422
 30
0.0
 11
3404.98136909103
 21
2895.245197106422
 31
0.0
 70
    32
 71
     5
 42
800.0
  3
IGA
100
AcDbAlignedDimension
 13
3004.98136909103
 23
2773.660298728197
 33
0.0
 14
3804.98136909103
 24
2773.660298728197
 34
0.0
100
AcDbRotatedDimension
1001
ACAD
1000
DSTYLE
1002
{
1070
    40
1040
20.0
1070
    42
1040
1.0
1070
   143
1040
0.039
1070
   172
1070
     1
1070
   271
1070
     4
1070
   272
1070
     4
1070
   279
1070
     0
1070
   284
1070
     0
1070
   285
1070
     0
1070
   286
1070
     0
1070
   341
1005
81F7
1070
   343
1005
81F7
1070
   344
1005
81F7
1002
}
  0
DIMENSION
  5
82E6
330
81E3
100
AcDbEntity
  8
3
100
AcDbDimension
  2
*D34
 10
4039.582672521083
 20
1984.660298728196
 30
0.0
 11
3989.582672521083
 21
2319.660298728197
 31
0.0
 70
    32
  1
\U+03C6<>
 71
     5
 42
670.0
  3
IGA
100
AcDbAlignedDimension
 13
3804.981369091031
 23
2654.660298728197
 33
0.0
 14
3804.981369091031
 24
1984.660298728196
 34
0.0
 50
90.0
100
AcDbRotatedDimension
1001
ACAD
1000
DSTYLE
1002
{
1070
    40
1040
20.0
1070
    42
1040
1.0
1070
   143
1040
0.039
1070
   172
1070
     1
1070
   271
1070
     4
1070
   272
1070
     4
1070
   279
1070
     0
1070
   284
1070
     0
1070
   285
1070
     0
1070
   286
1070
     0
1070
   341
1005
81F7
1070
   343
1005
81F7
1070
   344
1005
81F7
1002
}
  0
DIMENSION
  5
8305
330
81E3
100
AcDbEntity
  8
3
100
AcDbDimension
  2
*D35
 10
3404.981369091031
 20
1379.762810247321
 30
0.0
 11
3128.481369091031
 21
1429.762810247321
 31
0.0
 70
    32
 71
     5
 42
553.0
  3
IGA
100
AcDbAlignedDimension
 13
2851.981369091031
 23
1519.660298728196
 33
0.0
 14
3404.981369091031
 24
1519.660298728196
 34
0.0
100
AcDbRotatedDimension
1001
ACAD
1000
DSTYLE
1002
{
1070
    40
1040
20.0
1070
    42
1040
1.0
1070
   143
1040
0.039
1070
   172
1070
     1
1070
   271
1070
     4
1070
   272
1070
     4
1070
   279
1070
     0
1070
   284
1070
     0
1070
   285
1070
     0
1070
   286
1070
     0
1070
   341
1005
81F7
1070
   343
1005
81F7
1070
   344
1005
81F7
1002
}
  0
DIMENSION
  5
8312
330
81E3
100
AcDbEntity
  8
3
100
AcDbDimension
  2
*D36
 10
3857.981369091032
 20
1379.762810247321
 30
0.0
 11
3631.481369091031
 21
1429.762810247321
 31
0.0
 70
    32
 71
     5
 42
453.0
  3
IGA
100
AcDbAlignedDimension
 13
3404.981369091031
 23
1519.660298728196
 33
0.0
 14
3857.981369091032
 24
1519.660298728196
 34
0.0
100
AcDbRotatedDimension
1001
ACAD
1000
DSTYLE
1002
{
1070
    40
1040
20.0
1070
    42
1040
1.0
1070
   143
1040
0.039
1070
   172
1070
     1
1070
   271
1070
     4
1070
   272
1070
     4
1070
   279
1070
     1
1070
   284
1070
     0
1070
   285
1070
     0
1070
   286
1070
     0
1070
   341
1005
81F7
1070
   343
1005
81F7
1070
   344
1005
81F7
1002
}
  0
DIMENSION
  5
831F
330
81E3
100
AcDbEntity
  8
3
100
AcDbDimension
  2
*D37
 10
2459.055040675533
 20
3150.208701098438
 30
0.0
 11
1734.055040675533
 21
3200.208701098438
 31
0.0
 70
    32
 71
     5
 42
1450.000000000001
  3
IGA
100
AcDbAlignedDimension
 13
1009.055040675532
 23
3492.710584264269
 33
0.0
 14
2459.055040675533
 24
3492.710584264268
 34
0.0
100
AcDbRotatedDimension
1001
ACAD
1000
DSTYLE
1002
{
1070
    40
1040
20.0
1070
    42
1040
1.0
1070
   143
1040
0.039
1070
   172
1070
     1
1070
   271
1070
     4
1070
   272
1070
     4
1070
   279
1070
     0
1070
   284
1070
     0
1070
   285
1070
     0
1070
   286
1070
     0
1070
   341
1005
81F7
1070
   343
1005
81F7
1070
   344
1005
81F7
1002
}
  0
DIMENSION
  5
832C
330
81E3
100
AcDbEntity
  8
3
100
AcDbDimension
  2
*D38
 10
1957.055040675532
 20
2908.879223635094
 30
0.0
 11
1683.055040675531
 21
2958.879223635094
 31
0.0
 70
    32
 71
     5
 42
548.0000000000002
  3
IGA
100
AcDbAlignedDimension
 13
1409.055040675532
 23
2775.378507702062
 33
0.0
 14
1957.055040675532
 24
2272.660298728196
 34
0.0
100
AcDbRotatedDimension
1001
ACAD
1000
DSTYLE
1002
{
1070
    40
1040
20.0
1070
    42
1040
1.0
1070
   143
1040
0.039
1070
   172
1070
     1
1070
   271
1070
     4
1070
   272
1070
     4
1070
   279
1070
     0
1070
   284
1070
     0
1070
   285
1070
     0
1070
   286
1070
     0
1070
   341
1005
81F7
1070
   343
1005
81F7
1070
   344
1005
81F7
1002
}
  0
DIMENSION
  5
8342
330
81E3
100
AcDbEntity
  8
3
100
AcDbDimension
  2
*D39
 10
593.4762882613902
 20
2319.660298728196
 30
0.0
 11
543.4762882613897
 21
1919.660298728196
 31
0.0
 70
    32
 71
     5
 42
800.0
  3
IGA
100
AcDbAlignedDimension
 13
1009.055040675532
 23
1519.660298728196
 33
0.0
 14
902.1620675725372
 24
2319.660298728196
 34
0.0
 50
90.0
100
AcDbRotatedDimension
1001
ACAD
1000
DSTYLE
1002
{
1070
    40
1040
20.0
1070
    42
1040
1.0
1070
   143
1040
0.039
1070
   172
1070
     1
1070
   271
1070
     4
1070
   272
1070
     4
1070
   279
1070
     0
1070
   284
1070
     0
1070
   285
1070
     0
1070
   286
1070
     0
1070
   341
1005
81F7
1070
   343
1005
81F7
1070
   344
1005
81F7
1002
}
  0
DIMENSION
  5
8358
330
81E3
100
AcDbEntity
  8
3
100
AcDbDimension
  2
*D40
 10
2459.055040675533
 20
4594.543070233767
 30
0.0
 11
2134.055040675533
 21
4644.543070233767
 31
0.0
 70
    32
 71
     5
 42
650.0000000000004
  3
IGA
100
AcDbAlignedDimension
 13
1809.055040675533
 23
4498.710584264268
 33
0.0
 14
2459.055040675533
 24
4092.710584264266
 34
0.0
100
AcDbRotatedDimension
1001
ACAD
1000
DSTYLE
1002
{
1070
    40
1040
20.0
1070
    42
1040
1.0
1070
   143
1040
0.039
1070
   172
1070
     1
1070
   271
1070
     4
1070
   272
1070
     4
1070
   279
1070
     0
1070
   284
1070
     0
1070
   285
1070
     0
1070
   286
1070
     0
1070
   341
1005
81F7
1070
   343
1005
81F7
1070
   344
1005
81F7
1002
}
  0
ENDSEC
  0
SECTION
  2
OBJECTS
  0
DICTIONARY
  5
8180
330
0
100
AcDbDictionary
281
     1
  3
ACAD_CIP_PREVIOUS_PRODUCT_INFO
350
8229
  3
ACAD_COLOR
350
81D6
  3
ACAD_DETAILVIEWSTYLE
350
81DD
  3
ACAD_GROUP
350
8181
  3
ACAD_LAYOUT
350
81D5
  3
ACAD_MATERIAL
350
8184
  3
ACAD_MLEADERSTYLE
350
81D9
  3
ACAD_MLINESTYLE
350
81D2
  3
ACAD_PLOTSETTINGS
350
81D4
  3
ACAD_PLOTSTYLENAME
350
8182
  3
ACAD_SCALELIST
350
81B6
  3
ACAD_SECTIONVIEWSTYLE
350
81DB
  3
ACAD_TABLESTYLE
350
81D7
  3
ACAD_VISUALSTYLE
350
819D
  3
ACDB_RECOMPOSE_DATA
350
8385
  3
AcDbVariableDictionary
350
8378
  3
DWGPROPS
350
8386
  0
DICTIONARY
  5
836E
330
81C8
100
AcDbDictionary
280
     1
281
     1
  3
ADSK_XREC_LAYER_RECONCILED
360
836F
  0
DICTIONARY
  5
8370
330
81E7
100
AcDbDictionary
280
     1
281
     1
  3
ADSK_XREC_LAYER_RECONCILED
360
8371
  0
DICTIONARY
  5
8372
330
81EA
100
AcDbDictionary
280
     1
281
     1
  3
ADSK_XREC_LAYER_RECONCILED
360
8373
  0
DICTIONARY
  5
8374
330
81EB
100
AcDbDictionary
280
     1
281
     1
  3
ADSK_XREC_LAYER_RECONCILED
360
8375
  0
DICTIONARY
  5
8376
330
81EC
100
AcDbDictionary
280
     1
281
     1
  3
ADSK_XREC_LAYER_RECONCILED
360
8377
  0
DICTIONARY
  5
82E3
330
81E3
100
AcDbDictionary
280
     1
281
     1
  3
ACAD_SORTENTS
360
82E4
  0
XRECORD
  5
8229
102
{ACAD_REACTORS
330
8180
102
}
330
8180
100
AcDbXrecord
280
     1
300
ACDLT
300
2015
300
INVLTS_F_S
  0
DICTIONARY
  5
81D6
102
{ACAD_REACTORS
330
8180
102
}
330
8180
100
AcDbDictionary
281
     1
  0
DICTIONARY
  5
81DD
102
{ACAD_REACTORS
330
8180
102
}
330
8180
100
AcDbDictionary
281
     1
  3
Imperial24
350
81DE
  0
DICTIONARY
  5
8181
102
{ACAD_REACTORS
330
8180
102
}
330
8180
100
AcDbDictionary
281
     1
  0
DICTIONARY
  5
81D5
102
{ACAD_REACTORS
330
8180
102
}
330
8180
100
AcDbDictionary
281
     1
  3
Model
350
81E6
  3
レイアウト1
350
81E2
  0
DICTIONARY
  5
8184
102
{ACAD_REACTORS
330
8180
102
}
330
8180
100
AcDbDictionary
281
     1
  3
ByBlock
350
818D
  3
ByLayer
350
8185
  3
Global
350
8195
  0
DICTIONARY
  5
81D9
102
{ACAD_REACTORS
330
8180
102
}
330
8180
100
AcDbDictionary
281
     1
  3
Standard
350
81DA
  0
DICTIONARY
  5
81D2
102
{ACAD_REACTORS
330
8180
102
}
330
8180
100
AcDbDictionary
281
     1
  3
Standard
350
81D3
  0
DICTIONARY
  5
81D4
102
{ACAD_REACTORS
330
8180
102
}
330
8180
100
AcDbDictionary
281
     1
  0
ACDBDICTIONARYWDFLT
  5
8182
102
{ACAD_REACTORS
330
8180
102
}
330
8180
100
AcDbDictionary
281
     1
  3
Normal
350
8183
100
AcDbDictionaryWithDefault
340
8183
  0
DICTIONARY
  5
81B6
102
{ACAD_REACTORS
330
8180
102
}
330
8180
100
AcDbDictionary
281
     1
  3
A0
350
81B7
  3
A1
350
81B8
  3
A2
350
81B9
  3
A3
350
81BA
  3
A4
350
81BB
  3
A5
350
81BC
  3
A6
350
81BD
  3
A7
350
81BE
  3
A8
350
81BF
  3
A9
350
81C0
  3
B0
350
81C1
  3
B1
350
81C2
  3
B2
350
81C3
  3
B3
350
81C4
  3
B4
350
81C5
  3
B5
350
81C6
  3
B6
350
81C7
  0
DICTIONARY
  5
81DB
102
{ACAD_REACTORS
330
8180
102
}
330
8180
100
AcDbDictionary
281
     1
  3
Imperial24
350
81DC
  0
DICTIONARY
  5
81D7
102
{ACAD_REACTORS
330
8180
102
}
330
8180
100
AcDbDictionary
281
     1
  3
Standard
350
81D8
  0
DICTIONARY
  5
819D
102
{ACAD_REACTORS
330
8180
102
}
330
8180
100
AcDbDictionary
281
     1
  3
2dWireframe
350
81A3
  3
Basic
350
81A2
  3
Brighten
350
81A9
  3
ColorChange
350
81AD
  3
Conceptual
350
81A6
  3
Dim
350
81A8
  3
EdgeColorOff
350
81B5
  3
Facepattern
350
81AC
  3
Flat
350
819E
  3
FlatWithEdges
350
819F
  3
Gouraud
350
81A0
  3
GouraudWithEdges
350
81A1
  3
Hidden
350
81A5
  3
JitterOff
350
81B3
  3
Linepattern
350
81AB
  3
OverhangOff
350
81B4
  3
Realistic
350
81A7
  3
Shaded
350
81B2
  3
Shaded with edges
350
81B1
  3
Shades of Gray
350
81AE
  3
Sketchy
350
81AF
  3
Thicken
350
81AA
  3
Wireframe
350
81A4
  3
X-Ray
350
81B0
  0
XRECORD
  5
8385
102
{ACAD_REACTORS
330
8180
102
}
330
8180
100
AcDbXrecord
280
     1
 90
        1
330
81D8
  0
DICTIONARY
  5
8378
102
{ACAD_REACTORS
330
8180
102
}
330
8180
100
AcDbDictionary
281
     1
  3
CANNOSCALE
350
837D
  3
CMLEADERSTYLE
350
837A
  3
CTABLESTYLE
350
8379
  3
CVIEWDETAILSTYLE
350
837B
  3
CVIEWSECTIONSTYLE
350
837C
  3
DIMASSOC
350
8380
  3
INDEXCTL
350
837F
  3
SORTENTS
350
837E
  3
XCLIPFRAME
350
8381
  0
XRECORD
  5
8386
102
{ACAD_REACTORS
330
8180
102
}
330
8180
100
AcDbXrecord
280
     1
  1
DWGPROPS COOKIE
  2

  3

  4

  6

  7

  8
yasukiyo.ogawa
  9

300
=
301
=
302
=
303
=
304
=
305
=
306
=
307
=
308
=
309
=
 40
0.0178163310185185
 41
2451387.483285764
 42
2460262.625767072
  1

 90
        0
  0
XRECORD
  5
836F
102
{ACAD_REACTORS
330
836E
102
}
330
836E
100
AcDbXrecord
280
     1
290
     1
  0
XRECORD
  5
8371
102
{ACAD_REACTORS
330
8370
102
}
330
8370
100
AcDbXrecord
280
     1
290
     1
  0
XRECORD
  5
8373
102
{ACAD_REACTORS
330
8372
102
}
330
8372
100
AcDbXrecord
280
     1
290
     1
  0
XRECORD
  5
8375
102
{ACAD_REACTORS
330
8374
102
}
330
8374
100
AcDbXrecord
280
     1
290
     1
  0
XRECORD
  5
8377
102
{ACAD_REACTORS
330
8376
102
}
330
8376
100
AcDbXrecord
280
     1
290
     1
  0
SORTENTSTABLE
  5
82E4
102
{ACAD_REACTORS
330
82E3
102
}
330
82E3
100
AcDbSortentsTable
330
81E3
331
7C7B
  5
7C7D
331
7C69
  5
7C6B
331
7C58
  5
7C5A
331
7CAE
  5
7F6D
331
7F7F
  5
7F81
331
7C36
  5
7C38
331
7C47
  5
7C49
331
7C03
  5
7C03
331
7F80
  5
7F82
331
7C7C
  5
7C7E
331
7C6A
  5
7C6C
331
7C59
  5
7C5B
331
7C48
  5
7C4A
331
7CAF
  5
7F6E
331
7C37
  5
7C39
331
7C04
  5
7C04
331
7F81
  5
7F83
331
7C38
  5
7C3A
331
7C7D
  5
7C7F
331
7C6B
  5
7C6D
331
7C5A
  5
7C5D
331
7C49
  5
7C4B
331
7C05
  5
7C05
331
7CA0
  5
7CA2
331
7F82
  5
7F84
331
7C39
  5
7C3B
331
80AA
  5
80C4
331
7C6C
  5
7C6E
331
7C5B
  5
7C5E
331
7C4A
  5
7C4C
331
7C7E
  5
7C80
331
80DE
  5
8237
331
7C17
  5
7C19
331
7C06
  5
7C06
331
7C90
  5
7C92
331
7F72
  5
7F74
331
7C18
  5
7C1A
331
7F83
  5
7F85
331
7C3A
  5
7C3C
331
7C7F
  5
7C81
331
7C6D
  5
7C6F
331
7C4B
  5
7C4D
331
7C07
  5
7C07
331
7C80
  5
7C82
331
7C91
  5
7C93
331
7CA2
  5
7CA6
331
7C19
  5
7C1B
331
7F73
  5
7F75
331
7C2A
  5
7C2D
331
7F84
  5
7F86
331
7C6E
  5
7C70
331
7C5D
  5
7C5F
331
7C4C
  5
7C4E
331
7C3B
  5
7C3D
331
7C08
  5
7C08
331
7C81
  5
7C83
331
7C70
  5
7C72
331
7C92
  5
7C94
331
7C1A
  5
7C1C
331
7F74
  5
7F76
331
7C2B
  5
7C2F
331
7F85
  5
7F87
331
7C6F
  5
7C71
331
7C5E
  5
7C60
331
7C4D
  5
7C52
331
7C3C
  5
7C3E
331
7C09
  5
7C09
331
7C82
  5
7C84
331
7C71
  5
7C73
331
7C93
  5
7C95
331
7F75
  5
7F77
331
7C1B
  5
7C1D
331
7F86
  5
7F88
331
7C3D
  5
7C3F
331
8237
  5
82E2
331
82D5
  5
82E5
331
7C5F
  5
7C61
331
7C4E
  5
7C56
331
7C0A
  5
7C0A
331
822A
  5
82D5
331
7C72
  5
7C74
331
7C83
  5
7C85
331
7C94
  5
7C97
331
7F76
  5
7F79
331
7C2D
  5
7C30
331
7C1C
  5
7C1E
331
7F87
  5
7F89
331
7C3E
  5
7C40
331
7C60
  5
7C62
331
7C0B
  5
7C0B
331
7C84
  5
7C86
331
7C73
  5
7C75
331
7C95
  5
7C98
331
7C0C
  5
7C0E
331
7F77
  5
7F7A
331
7CA6
  5
7CAC
331
7C1D
  5
7C1F
331
7F88
  5
7F8A
331
7C61
  5
7C63
331
7C3F
  5
7C41
331
7C74
  5
7C76
331
7F6D
  5
7F6F
331
7C85
  5
7C87
331
7CA7
  5
7CAD
331
7C1E
  5
7C20
331
7C0D
  5
7C0F
331
7F89
  5
7F8B
331
7C40
  5
7C42
331
7C2F
  5
7C31
331
7C62
  5
7C64
331
7BFC
  5
7BFC
331
7F6E
  5
7F72
331
7C86
  5
7C88
331
7C75
  5
7C77
331
7C97
  5
7C99
331
7C0E
  5
7C10
331
7F79
  5
7F7B
331
7C30
  5
7C32
331
7C1F
  5
7C22
331
7F8A
  5
80AA
331
7C63
  5
7C65
331
7C41
  5
7C43
331
7C76
  5
7C78
331
7F6F
  5
7F73
331
7C98
  5
7C9F
331
7C0F
  5
7C11
331
7F7A
  5
7F7C
331
7C31
  5
7C33
331
7C20
  5
7C23
331
7F8B
  5
80B7
331
7C64
  5
7C66
331
7C42
  5
7C44
331
7BFE
  5
7BFE
331
7C77
  5
7C79
331
7C88
  5
7C8A
331
7C99
  5
7CA0
331
7C10
  5
7C17
331
7F7B
  5
7F7D
331
7C32
  5
7C34
331
7C65
  5
7C67
331
7C43
  5
7C45
331
7BFF
  5
7BFF
331
7C78
  5
7C7A
331
7C89
  5
7C90
331
7F7C
  5
7F7E
331
7C33
  5
7C35
331
7C22
  5
7C24
331
7C11
  5
7C18
331
7C66
  5
7C68
331
7C44
  5
7C46
331
7C00
  5
7C00
331
7C79
  5
7C7B
331
7C8A
  5
7C91
331
7CAC
  5
7CAE
331
7C23
  5
7C2A
331
7F7D
  5
7F7F
331
7C34
  5
7C36
331
7C67
  5
7C69
331
7C56
  5
7C58
331
7C45
  5
7C47
331
7C01
  5
7C01
331
80B7
  5
80D1
331
7C68
  5
7C6A
331
7C7A
  5
7C7C
331
7CAD
  5
7CAF
331
7C24
  5
7C2B
331
7F7E
  5
7F80
331
7C35
  5
7C37
331
7C57
  5
7C59
331
7C46
  5
7C48
331
7C02
  5
7C02
  0
ACDBDETAILVIEWSTYLE
  5
81DE
102
{ACAD_XDICTIONARY
360
83BE
102
}
102
{ACAD_REACTORS
330
81DD
102
}
330
81DD
100
AcDbModelDocViewStyle
 70
     0
  3
Imperial24
290
     0
100
AcDbDetailViewStyle
 70
     0
 71
     0
 90
        3
 71
     1
340
81C9
 40
0.24
340
0
 40
0.24
300

 40
0.36
280
     3
 71
     2
340
81D0
 90
       25
 71
     3
340
81C9
 40
0.24
 90
        1
 40
0.75
 90
        1
300
%<\AcVar ViewType \f "%tc1">% %<\AcVar ViewDetailId>%\PSCALE %<\AcVar ViewScale \f "%sn">%
 71
     4
340
81D0
 90
       25
340
81D0
 90
       25
280
     0
  0
LAYOUT
  5
81E6
102
{ACAD_XDICTIONARY
360
83C2
102
}
102
{ACAD_REACTORS
330
81D5
102
}
330
81D5
100
AcDbPlotSettings
  1

  2
RICOH imagio MP W3600 RPCS
  4

  6

 40
0.0
 41
0.0
 42
0.0
 43
0.0
 44
0.0
 45
0.0
 46
0.0
 47
0.0
 48
0.0
 49
0.0
140
0.0
141
0.0
142
1.0
143
1.0
 70
  1712
 72
     0
 73
     0
 74
     0
  7

 75
     0
147
1.0
148
0.0
149
0.0
100
AcDbLayout
  1
Model
 70
     1
 71
     0
 10
0.0
 20
0.0
 11
12.0
 21
9.0
 12
0.0
 22
0.0
 32
0.0
 14
0.0
 24
0.0
 34
0.0
 15
0.0
 25
0.0
 35
0.0
146
0.0
 13
0.0
 23
0.0
 33
0.0
 16
1.0
 26
0.0
 36
0.0
 17
0.0
 27
1.0
 37
0.0
 76
     0
330
81E3
331
81E8
  0
LAYOUT
  5
81E2
102
{ACAD_XDICTIONARY
360
83C0
102
}
102
{ACAD_REACTORS
330
81D5
102
}
330
81D5
100
AcDbPlotSettings
  1

  2
RICOH imagio MP W3600 RPCS
  4

  6

 40
0.0
 41
0.0
 42
0.0
 43
0.0
 44
0.0
 45
0.0
 46
0.0
 47
0.0
 48
0.0
 49
0.0
140
0.0
141
0.0
142
1.0
143
1.0
 70
   688
 72
     0
 73
     0
 74
     5
  7

 75
    16
147
1.0
148
0.0
149
0.0
100
AcDbLayout
  1
レイアウト1
 70
     1
 71
     1
 10
0.0
 20
0.0
 11
12.0
 21
9.0
 12
0.0
 22
0.0
 32
0.0
 14
1.000000000000000E+20
 24
1.000000000000000E+20
 34
1.000000000000000E+20
 15
-1.000000000000000E+20
 25
-1.000000000000000E+20
 35
-1.000000000000000E+20
146
0.0
 13
0.0
 23
0.0
 33
0.0
 16
1.0
 26
0.0
 36
0.0
 17
0.0
 27
1.0
 37
0.0
 76
     0
330
81DF
  0
MATERIAL
  5
818D
102
{ACAD_XDICTIONARY
360
818E
102
}
102
{ACAD_REACTORS
330
8184
102
}
330
8184
100
AcDbMaterial
  1
ByBlock
 72
     0
 43
0.0208333333333333
 43
0.0
 43
0.0
 43
0.0
 43
0.0
 43
0.0208333333333333
 43
0.0
 43
0.0
 43
0.0
 43
0.0
 43
1.0
 43
0.0
 43
0.0
 43
0.0
 43
0.0
 43
1.0
 77
     0
 47
0.0208333333333333
 47
0.0
 47
0.0
 47
0.0
 47
0.0
 47
0.0208333333333333
 47
0.0
 47
0.0
 47
0.0
 47
0.0
 47
1.0
 47
0.0
 47
0.0
 47
0.0
 47
0.0
 47
1.0
171
     0
 49
0.0208333333333333
 49
0.0
 49
0.0
 49
0.0
 49
0.0
 49
0.0208333333333333
 49
0.0
 49
0.0
 49
0.0
 49
0.0
 49
1.0
 49
0.0
 49
0.0
 49
0.0
 49
0.0
 49
1.0
175
     0
142
0.0208333333333333
142
0.0
142
0.0
142
0.0
142
0.0
142
0.0208333333333333
142
0.0
142
0.0
142
0.0
142
0.0
142
1.0
142
0.0
142
0.0
142
0.0
142
0.0
142
1.0
179
     0
144
0.0208333333333333
144
0.0
144
0.0
144
0.0
144
0.0
144
0.0208333333333333
144
0.0
144
0.0
144
0.0
144
0.0
144
1.0
144
0.0
144
0.0
144
0.0
144
0.0
144
1.0
147
0.0208333333333333
147
0.0
147
0.0
147
0.0
147
0.0
147
0.0208333333333333
147
0.0
147
0.0
147
0.0
147
0.0
147
1.0
147
0.0
147
0.0
147
0.0
147
0.0
147
1.0
  0
MATERIAL
  5
8185
102
{ACAD_XDICTIONARY
360
8186
102
}
102
{ACAD_REACTORS
330
8184
102
}
330
8184
100
AcDbMaterial
  1
ByLayer
 72
     0
 43
0.0208333333333333
 43
0.0
 43
0.0
 43
0.0
 43
0.0
 43
0.0208333333333333
 43
0.0
 43
0.0
 43
0.0
 43
0.0
 43
1.0
 43
0.0
 43
0.0
 43
0.0
 43
0.0
 43
1.0
 77
     0
 47
0.0208333333333333
 47
0.0
 47
0.0
 47
0.0
 47
0.0
 47
0.0208333333333333
 47
0.0
 47
0.0
 47
0.0
 47
0.0
 47
1.0
 47
0.0
 47
0.0
 47
0.0
 47
0.0
 47
1.0
171
     0
 49
0.0208333333333333
 49
0.0
 49
0.0
 49
0.0
 49
0.0
 49
0.0208333333333333
 49
0.0
 49
0.0
 49
0.0
 49
0.0
 49
1.0
 49
0.0
 49
0.0
 49
0.0
 49
0.0
 49
1.0
175
     0
142
0.0208333333333333
142
0.0
142
0.0
142
0.0
142
0.0
142
0.0208333333333333
142
0.0
142
0.0
142
0.0
142
0.0
142
1.0
142
0.0
142
0.0
142
0.0
142
0.0
142
1.0
179
     0
144
0.0208333333333333
144
0.0
144
0.0
144
0.0
144
0.0
144
0.0208333333333333
144
0.0
144
0.0
144
0.0
144
0.0
144
1.0
144
0.0
144
0.0
144
0.0
144
0.0
144
1.0
147
0.0208333333333333
147
0.0
147
0.0
147
0.0
147
0.0
147
0.0208333333333333
147
0.0
147
0.0
147
0.0
147
0.0
147
1.0
147
0.0
147
0.0
147
0.0
147
0.0
147
1.0
  0
MATERIAL
  5
8195
102
{ACAD_XDICTIONARY
360
8196
102
}
102
{ACAD_REACTORS
330
8184
102
}
330
8184
100
AcDbMaterial
  1
Global
 72
     0
 43
0.0208333333333333
 43
0.0
 43
0.0
 43
0.0
 43
0.0
 43
0.0208333333333333
 43
0.0
 43
0.0
 43
0.0
 43
0.0
 43
1.0
 43
0.0
 43
0.0
 43
0.0
 43
0.0
 43
1.0
 77
     0
 47
0.0208333333333333
 47
0.0
 47
0.0
 47
0.0
 47
0.0
 47
0.0208333333333333
 47
0.0
 47
0.0
 47
0.0
 47
0.0
 47
1.0
 47
0.0
 47
0.0
 47
0.0
 47
0.0
 47
1.0
171
     0
 49
0.0208333333333333
 49
0.0
 49
0.0
 49
0.0
 49
0.0
 49
0.0208333333333333
 49
0.0
 49
0.0
 49
0.0
 49
0.0
 49
1.0
 49
0.0
 49
0.0
 49
0.0
 49
0.0
 49
1.0
175
     0
142
0.0208333333333333
142
0.0
142
0.0
142
0.0
142
0.0
142
0.0208333333333333
142
0.0
142
0.0
142
0.0
142
0.0
142
1.0
142
0.0
142
0.0
142
0.0
142
0.0
142
1.0
179
     0
144
0.0208333333333333
144
0.0
144
0.0
144
0.0
144
0.0
144
0.0208333333333333
144
0.0
144
0.0
144
0.0
144
0.0
144
1.0
144
0.0
144
0.0
144
0.0
144
0.0
144
1.0
147
0.0208333333333333
147
0.0
147
0.0
147
0.0
147
0.0
147
0.0208333333333333
147
0.0
147
0.0
147
0.0
147
0.0
147
1.0
147
0.0
147
0.0
147
0.0
147
0.0
147
1.0
  0
MLEADERSTYLE
  5
81DA
102
{ACAD_REACTORS
330
81D9
102
}
330
81D9
100
AcDbMLeaderStyle
170
     2
171
     1
172
     0
 90
        2
 40
0.0
 41
0.0
173
     1
 91
-1056964608
340
81CE
 92
       -2
290
     1
 42
0.09
291
     1
 43
0.36
  3
Standard
 44
0.18
300

342
81C9
174
     1
178
     6
175
     1
176
     0
 93
-1056964608
 45
0.18
292
     0
297
     0
 46
0.18
 94
-1056964608
 47
1.0
 49
1.0
140
1.0
293
     1
141
0.0
294
     1
177
     0
142
1.0
295
     0
296
     0
143
0.125
1001
ACAD_MLEADERVER
1070
     2
  0
MLINESTYLE
  5
81D3
102
{ACAD_REACTORS
330
81D2
102
}
330
81D2
100
AcDbMlineStyle
  2
STANDARD
 70
     0
  3

 62
   256
 51
90.0
 52
90.0
 71
     2
 49
0.5
 62
   256
  6
BYLAYER
 49
-0.5
 62
   256
  6
BYLAYER
  0
ACDBPLACEHOLDER
  5
8183
102
{ACAD_REACTORS
330
8182
102
}
330
8182
  0
SCALE
  5
81B7
102
{ACAD_REACTORS
330
81B6
102
}
330
81B6
100
AcDbScale
 70
     0
300
1:1
140
1.0
141
1.0
290
     1
  0
SCALE
  5
81B8
102
{ACAD_REACTORS
330
81B6
102
}
330
81B6
100
AcDbScale
 70
     0
300
1/128" = 1'-0"
140
0.0078125
141
12.0
290
     0
  0
SCALE
  5
81B9
102
{ACAD_REACTORS
330
81B6
102
}
330
81B6
100
AcDbScale
 70
     0
300
1/64" = 1'-0"
140
0.015625
141
12.0
290
     0
  0
SCALE
  5
81BA
102
{ACAD_REACTORS
330
81B6
102
}
330
81B6
100
AcDbScale
 70
     0
300
1/32" = 1'-0"
140
0.03125
141
12.0
290
     0
  0
SCALE
  5
81BB
102
{ACAD_REACTORS
330
81B6
102
}
330
81B6
100
AcDbScale
 70
     0
300
1/16" = 1'-0"
140
0.0625
141
12.0
290
     0
  0
SCALE
  5
81BC
102
{ACAD_REACTORS
330
81B6
102
}
330
81B6
100
AcDbScale
 70
     0
300
3/32" = 1'-0"
140
0.09375
141
12.0
290
     0
  0
SCALE
  5
81BD
102
{ACAD_REACTORS
330
81B6
102
}
330
81B6
100
AcDbScale
 70
     0
300
1/8" = 1'-0"
140
0.125
141
12.0
290
     0
  0
SCALE
  5
81BE
102
{ACAD_REACTORS
330
81B6
102
}
330
81B6
100
AcDbScale
 70
     0
300
3/16" = 1'-0"
140
0.1875
141
12.0
290
     0
  0
SCALE
  5
81BF
102
{ACAD_REACTORS
330
81B6
102
}
330
81B6
100
AcDbScale
 70
     0
300
1/4" = 1'-0"
140
0.25
141
12.0
290
     0
  0
SCALE
  5
81C0
102
{ACAD_REACTORS
330
81B6
102
}
330
81B6
100
AcDbScale
 70
     0
300
3/8" = 1'-0"
140
0.375
141
12.0
290
     0
  0
SCALE
  5
81C1
102
{ACAD_REACTORS
330
81B6
102
}
330
81B6
100
AcDbScale
 70
     0
300
1/2" = 1'-0"
140
0.5
141
12.0
290
     0
  0
SCALE
  5
81C2
102
{ACAD_REACTORS
330
81B6
102
}
330
81B6
100
AcDbScale
 70
     0
300
3/4" = 1'-0"
140
0.75
141
12.0
290
     0
  0
SCALE
  5
81C3
102
{ACAD_REACTORS
330
81B6
102
}
330
81B6
100
AcDbScale
 70
     0
300
1" = 1'-0"
140
1.0
141
12.0
290
     0
  0
SCALE
  5
81C4
102
{ACAD_REACTORS
330
81B6
102
}
330
81B6
100
AcDbScale
 70
     0
300
1-1/2" = 1'-0"
140
1.5
141
12.0
290
     0
  0
SCALE
  5
81C5
102
{ACAD_REACTORS
330
81B6
102
}
330
81B6
100
AcDbScale
 70
     0
300
3" = 1'-0"
140
3.0
141
12.0
290
     0
  0
SCALE
  5
81C6
102
{ACAD_REACTORS
330
81B6
102
}
330
81B6
100
AcDbScale
 70
     0
300
6" = 1'-0"
140
6.0
141
12.0
290
     0
  0
SCALE
  5
81C7
102
{ACAD_REACTORS
330
81B6
102
}
330
81B6
100
AcDbScale
 70
     0
300
1'-0" = 1'-0"
140
12.0
141
12.0
290
     0
  0
ACDBSECTIONVIEWSTYLE
  5
81DC
102
{ACAD_XDICTIONARY
360
83BC
102
}
102
{ACAD_REACTORS
330
81DB
102
}
330
81DB
100
AcDbModelDocViewStyle
 70
     0
  3
Imperial24
290
     0
100
AcDbSectionViewStyle
 70
     0
 71
     0
 90
       78
 71
     1
340
81C9
 40
0.24
340
0
340
0
 40
0.24
300
I, O, Q, S, X, Z
 40
0.48
 90
        3
 40
0.18
 90
        1
 71
     2
340
81D0
 90
       25
340
81D0
 90
       50
 40
0.24
 40
0.0
 40
0.24
 71
     3
340
81C9
 40
0.24
 90
        1
 40
0.75
 90
        1
300
%<\AcVar ViewType \f "%tc1">% %<\AcVar ViewSectionStartId>%-%<\AcVar ViewSectionEndId>%\PSCALE %<\AcVar ViewScale \f "%sn">%
 71
     4
300
ANSI31
 40
1.0
 90
        0
290
     0
290
     0
 90
        6
 40
0.0
 40
1.570796326794896
 40
0.2617993877991494
 40
1.308996938995747
 40
-0.2617993877991494
 40
1.832595714594046
  0
TABLESTYLE
  5
81D8
102
{ACAD_XDICTIONARY
360
8383
102
}
102
{ACAD_REACTORS
330
81D7
102
}
330
81D7
100
AcDbTableStyle
  3
Standard
 70
     0
 71
     0
 40
0.06
 41
0.06
280
     0
281
     0
  7
STANDARD
140
0.18
170
     2
 62
     0
 63
     7
283
     0
274
    -2
284
     1
 64
     0
275
    -2
285
     1
 65
     0
276
    -2
286
     1
 66
     0
277
    -2
287
     1
 67
     0
278
    -2
288
     1
 68
     0
279
    -2
289
     1
 69
     0
  7
STANDARD
140
0.25
170
     5
 62
     0
 63
     7
283
     0
274
    -2
284
     1
 64
     0
275
    -2
285
     1
 65
     0
276
    -2
286
     1
 66
     0
277
    -2
287
     1
 67
     0
278
    -2
288
     1
 68
     0
279
    -2
289
     1
 69
     0
  7
STANDARD
140
0.18
170
     5
 62
     0
 63
     7
283
     0
274
    -2
284
     1
 64
     0
275
    -2
285
     1
 65
     0
276
    -2
286
     1
 66
     0
277
    -2
287
     1
 67
     0
278
    -2
288
     1
 68
     0
279
    -2
289
     1
 69
     0
  0
VISUALSTYLE
  5
81A3
102
{ACAD_XDICTIONARY
360
8394
102
}
102
{ACAD_REACTORS
330
819D
102
}
330
819D
100
AcDbVisualStyle
  2
2dWireframe
 70
     4
 71
     0
 72
     2
 73
     0
 90
        0
 40
-0.6
 41
-30.0
 62
     5
 63
     7
 74
     1
 91
        4
 64
     7
 65
   257
 75
     1
175
     1
 42
1.0
 92
        0
 66
   257
 43
1.0
 76
     1
 77
     6
 78
     2
 67
     7
 79
     5
170
     0
171
     0
290
     0
174
     0
 93
        1
 44
0.0
173
     0
291
     0
 45
0.0
1001
ACAD
1000
AcDbSavedByObjectVersion
1070
     0
  0
VISUALSTYLE
  5
81A2
102
{ACAD_XDICTIONARY
360
8392
102
}
102
{ACAD_REACTORS
330
819D
102
}
330
819D
100
AcDbVisualStyle
  2
Basic
 70
     7
 71
     1
 72
     0
 73
     1
 90
        0
 40
-0.6
 41
-30.0
 62
     5
 63
     7
 74
     0
 91
        4
 64
     7
 65
   257
 75
     1
175
     1
 42
1.0
 92
        8
 66
     7
 43
1.0
 76
     1
 77
     6
 78
     2
 67
     7
 79
     5
170
     0
171
     0
290
     0
174
     0
 93
        1
 44
0.0
173
     0
291
     1
 45
0.0
1001
ACAD
1000
AcDbSavedByObjectVersion
1070
     0
  0
VISUALSTYLE
  5
81A9
102
{ACAD_XDICTIONARY
360
83A0
102
}
102
{ACAD_REACTORS
330
819D
102
}
330
819D
100
AcDbVisualStyle
  2
Brighten
 70
    12
 71
     2
 72
     2
 73
     0
 90
        0
 40
-0.6
 41
-30.0
 62
     5
 63
     7
 74
     1
 91
        4
 64
     7
 65
   257
 75
     1
175
     1
 42
1.0
 92
        8
 66
     7
 43
1.0
 76
     1
 77
     6
 78
     2
 67
     7
 79
     5
170
     0
171
     0
290
     0
174
     0
 93
        1
 44
50.0
173
     0
291
     1
 45
0.0
1001
ACAD
1000
AcDbSavedByObjectVersion
1070
     0
  0
VISUALSTYLE
  5
81AD
102
{ACAD_XDICTIONARY
360
83A8
102
}
102
{ACAD_REACTORS
330
819D
102
}
330
819D
100
AcDbVisualStyle
  2
ColorChange
 70
    16
 71
     2
 72
     2
 73
     3
 90
        0
 40
-0.6
 41
-30.0
 62
     5
 63
     8
 74
     1
 91
        4
 64
     7
 65
   257
 75
     1
175
     1
 42
1.0
 92
        8
 66
     8
 43
1.0
 76
     1
 77
     6
 78
     2
 67
     7
 79
     5
170
     0
171
     0
290
     0
174
     0
 93
        1
 44
0.0
173
     0
291
     1
 45
0.0
1001
ACAD
1000
AcDbSavedByObjectVersion
1070
     0
  0
VISUALSTYLE
  5
81A6
102
{ACAD_XDICTIONARY
360
839A
102
}
102
{ACAD_REACTORS
330
819D
102
}
330
819D
100
AcDbVisualStyle
  2
Conceptual
 70
     9
 71
     3
 72
     2
 73
     0
 90
        0
 40
-0.6
 41
-30.0
 62
     5
 63
     7
 74
     2
 91
        2
 64
     7
 65
   257
 75
     1
175
     1
 42
179.0
 92
        8
 66
     7
 43
1.0
 76
     1
 77
     6
 78
     2
 67
     7
 79
     3
170
     0
171
     0
290
     0
174
     0
 93
        1
 44
0.0
173
     0
291
     0
 45
0.0
1001
ACAD
1000
AcDbSavedByObjectVersion
1070
     0
  0
VISUALSTYLE
  5
81A8
102
{ACAD_XDICTIONARY
360
839E
102
}
102
{ACAD_REACTORS
330
819D
102
}
330
819D
100
AcDbVisualStyle
  2
Dim
 70
    11
 71
     2
 72
     2
 73
     0
 90
        0
 40
-0.6
 41
-30.0
 62
     5
 63
     7
 74
     1
 91
        4
 64
     7
 65
   257
 75
     1
175
     1
 42
1.0
 92
        8
 66
     7
 43
1.0
 76
     1
 77
     6
 78
     2
 67
     7
 79
     5
170
     0
171
     0
290
     0
174
     0
 93
        1
 44
-50.0
173
     0
291
     1
 45
0.0
1001
ACAD
1000
AcDbSavedByObjectVersion
1070
     0
  0
VISUALSTYLE
  5
81B5
102
{ACAD_XDICTIONARY
360
83B8
102
}
102
{ACAD_REACTORS
330
819D
102
}
330
819D
100
AcDbVisualStyle
  2
EdgeColorOff
 70
    22
 71
     2
 72
     2
 73
     0
 90
        0
 40
-0.6
 41
-30.0
 62
     5
 63
     7
 74
     1
 91
        4
 64
     7
 65
   257
 75
     1
175
     1
 42
1.0
 92
        8
 66
     7
 43
1.0
 76
     1
 77
     6
 78
     2
 67
     7
 79
     5
170
     0
171
     0
290
     0
174
     0
 93
        1
 44
0.0
173
     0
291
     1
 45
0.0
1001
ACAD
1000
AcDbSavedByObjectVersion
1070
     0
  0
VISUALSTYLE
  5
81AC
102
{ACAD_XDICTIONARY
360
83A6
102
}
102
{ACAD_REACTORS
330
819D
102
}
330
819D
100
AcDbVisualStyle
  2
Facepattern
 70
    15
 71
     2
 72
     2
 73
     0
 90
        0
 40
-0.6
 41
-30.0
 62
     5
 63
     7
 74
     1
 91
        4
 64
     7
 65
   257
 75
     1
175
     1
 42
1.0
 92
        8
 66
     7
 43
1.0
 76
     1
 77
     6
 78
     2
 67
     7
 79
     5
170
     0
171
     0
290
     0
174
     0
 93
        1
 44
0.0
173
     0
291
     1
 45
0.0
1001
ACAD
1000
AcDbSavedByObjectVersion
1070
     0
  0
VISUALSTYLE
  5
819E
102
{ACAD_XDICTIONARY
360
838A
102
}
102
{ACAD_REACTORS
330
819D
102
}
330
819D
100
AcDbVisualStyle
  2
Flat
 70
     0
 71
     2
 72
     1
 73
     1
 90
        2
 40
-0.6
 41
30.0
 62
     5
 63
     7
 74
     0
 91
        0
 64
     7
 65
   257
 75
     1
175
     1
 42
1.0
 92
        8
 66
     7
 43
1.0
 76
     1
 77
     6
 78
     2
 67
     7
 79
     5
170
     0
171
     0
290
     0
174
     0
 93
       13
 44
0.0
173
     0
291
     1
 45
0.0
1001
ACAD
1000
AcDbSavedByObjectVersion
1070
     0
  0
VISUALSTYLE
  5
819F
102
{ACAD_XDICTIONARY
360
838C
102
}
102
{ACAD_REACTORS
330
819D
102
}
330
819D
100
AcDbVisualStyle
  2
FlatWithEdges
 70
     1
 71
     2
 72
     1
 73
     1
 90
        2
 40
-0.6
 41
30.0
 62
     5
 63
     7
 74
     1
 91
        0
 64
     7
 65
   257
 75
     1
175
     1
 42
1.0
 92
        0
 66
   257
 43
1.0
 76
     1
 77
     6
 78
     2
 67
     7
 79
     5
170
     0
171
     0
290
     0
174
     0
 93
       13
 44
0.0
173
     0
291
     1
 45
0.0
1001
ACAD
1000
AcDbSavedByObjectVersion
1070
     0
  0
VISUALSTYLE
  5
81A0
102
{ACAD_XDICTIONARY
360
838E
102
}
102
{ACAD_REACTORS
330
819D
102
}
330
819D
100
AcDbVisualStyle
  2
Gouraud
 70
     2
 71
     2
 72
     2
 73
     1
 90
        2
 40
-0.6
 41
30.0
 62
     5
 63
     7
 74
     0
 91
        0
 64
     7
 65
   257
 75
     1
175
     1
 42
1.0
 92
        0
 66
     7
 43
1.0
 76
     1
 77
     6
 78
     2
 67
     7
 79
     5
170
     0
171
     0
290
     0
174
     0
 93
       13
 44
0.0
173
     0
291
     1
 45
0.0
1001
ACAD
1000
AcDbSavedByObjectVersion
1070
     0
  0
VISUALSTYLE
  5
81A1
102
{ACAD_XDICTIONARY
360
8390
102
}
102
{ACAD_REACTORS
330
819D
102
}
330
819D
100
AcDbVisualStyle
  2
GouraudWithEdges
 70
     3
 71
     2
 72
     2
 73
     1
 90
        2
 40
-0.6
 41
30.0
 62
     5
 63
     7
 74
     1
 91
        0
 64
     7
 65
   257
 75
     1
175
     1
 42
1.0
 92
        0
 66
   257
 43
1.0
 76
     1
 77
     6
 78
     2
 67
     7
 79
     5
170
     0
171
     0
290
     0
174
     0
 93
       13
 44
0.0
173
     0
291
     1
 45
0.0
1001
ACAD
1000
AcDbSavedByObjectVersion
1070
     0
  0
VISUALSTYLE
  5
81A5
102
{ACAD_XDICTIONARY
360
8398
102
}
102
{ACAD_REACTORS
330
819D
102
}
330
819D
100
AcDbVisualStyle
  2
Hidden
 70
     6
 71
     1
 72
     2
 73
     2
 90
        0
 40
-0.6
 41
-30.0
 62
     5
 63
     7
 74
     2
 91
        2
 64
     7
 65
   257
 75
     2
175
     1
 42
40.0
 92
        0
 66
   257
 43
1.0
 76
     1
 77
     6
 78
     2
 67
     7
 79
     3
170
     0
171
     0
290
     0
174
     0
 93
        1
 44
0.0
173
     0
291
     0
 45
0.0
1001
ACAD
1000
AcDbSavedByObjectVersion
1070
     0
  0
VISUALSTYLE
  5
81B3
102
{ACAD_XDICTIONARY
360
83B4
102
}
102
{ACAD_REACTORS
330
819D
102
}
330
819D
100
AcDbVisualStyle
  2
JitterOff
 70
    20
 71
     2
 72
     2
 73
     0
 90
        0
 40
-0.6
 41
-30.0
 62
     5
 63
     7
 74
     1
 91
        4
 64
     7
 65
   257
 75
     1
175
     1
 42
1.0
 92
       10
 66
     7
 43
1.0
 76
     1
 77
     6
 78
     2
 67
     7
 79
     5
170
     0
171
     0
290
     0
174
     0
 93
        1
 44
0.0
173
     0
291
     1
 45
0.0
1001
ACAD
1000
AcDbSavedByObjectVersion
1070
     0
  0
VISUALSTYLE
  5
81AB
102
{ACAD_XDICTIONARY
360
83A4
102
}
102
{ACAD_REACTORS
330
819D
102
}
330
819D
100
AcDbVisualStyle
  2
Linepattern
 70
    14
 71
     2
 72
     2
 73
     0
 90
        0
 40
-0.6
 41
-30.0
 62
     5
 63
     7
 74
     1
 91
        4
 64
     7
 65
   257
 75
     7
175
     7
 42
1.0
 92
        8
 66
     7
 43
1.0
 76
     1
 77
     6
 78
     2
 67
     7
 79
     5
170
     0
171
     0
290
     0
174
     0
 93
        1
 44
0.0
173
     0
291
     1
 45
0.0
1001
ACAD
1000
AcDbSavedByObjectVersion
1070
     0
  0
VISUALSTYLE
  5
81B4
102
{ACAD_XDICTIONARY
360
83B6
102
}
102
{ACAD_REACTORS
330
819D
102
}
330
819D
100
AcDbVisualStyle
  2
OverhangOff
 70
    21
 71
     2
 72
     2
 73
     0
 90
        0
 40
-0.6
 41
-30.0
 62
     5
 63
     7
 74
     1
 91
        4
 64
     7
 65
   257
 75
     1
175
     1
 42
1.0
 92
        9
 66
     7
 43
1.0
 76
     1
 77
     6
 78
     2
 67
     7
 79
     5
170
     0
171
     0
290
     0
174
     0
 93
        1
 44
0.0
173
     0
291
     1
 45
0.0
1001
ACAD
1000
AcDbSavedByObjectVersion
1070
     0
  0
VISUALSTYLE
  5
81A7
102
{ACAD_XDICTIONARY
360
839C
102
}
102
{ACAD_REACTORS
330
819D
102
}
330
819D
100
AcDbVisualStyle
  2
Realistic
 70
     8
 71
     2
 72
     3
 73
     0
 90
        2
 40
-0.6
 41
30.0
 62
     5
 63
     7
 74
     0
 91
        0
 64
     7
 65
   257
 75
     1
175
     1
 42
1.0
 92
        8
 66
   257
 43
1.0
 76
     1
 77
     6
 78
     2
 67
     7
 79
     3
170
     0
171
     0
290
     0
174
     0
 93
       13
 44
0.0
173
     0
291
     0
 45
0.0
1001
ACAD
1000
AcDbSavedByObjectVersion
1070
     0
  0
VISUALSTYLE
  5
81B2
102
{ACAD_XDICTIONARY
360
83B2
102
}
102
{ACAD_REACTORS
330
819D
102
}
330
819D
100
AcDbVisualStyle
  2
Shaded
 70
    27
 71
     2
 72
     2
 73
     1
 90
        2
 40
-0.6
 41
30.0
 62
     5
 63
     7
 74
     0
 91
        4
 64
     7
 65
   257
 75
     1
175
     1
 42
1.0
 92
        8
 66
   257
 43
1.0
 76
     1
 77
     6
 78
     2
 67
     8
 79
     3
170
     0
171
     0
290
     0
174
     0
 93
        5
 44
0.0
173
     0
291
     0
 45
0.0
1001
ACAD
1000
AcDbSavedByObjectVersion
1070
     0
  0
VISUALSTYLE
  5
81B1
102
{ACAD_XDICTIONARY
360
83B0
102
}
102
{ACAD_REACTORS
330
819D
102
}
330
819D
100
AcDbVisualStyle
  2
Shaded with edges
 70
    26
 71
     2
 72
     2
 73
     1
 90
        2
 40
-0.6
 41
30.0
 62
     5
 63
     7
 74
     1
 91
       10
 64
     7
 65
   257
 75
     2
175
     1
 42
1.0
 92
        8
 66
   257
 43
1.0
 76
     1
 77
     6
 78
     2
 67
     7
 79
     3
170
     0
171
     0
290
     0
174
     0
 93
        5
 44
0.0
173
     0
291
     0
 45
0.0
1001
ACAD
1000
AcDbSavedByObjectVersion
1070
     0
  0
VISUALSTYLE
  5
81AE
102
{ACAD_XDICTIONARY
360
83AA
102
}
102
{ACAD_REACTORS
330
819D
102
}
330
819D
100
AcDbVisualStyle
  2
Shades of Gray
 70
    23
 71
     2
 72
     2
 73
     3
 90
        0
 40
-0.6
 41
-30.0
 62
     5
 63
     7
 74
     2
 91
        2
 64
     7
 65
     7
 75
     1
175
     1
 42
40.0
 92
        8
 66
     7
 43
1.0
 76
     1
 77
     6
 78
     2
 67
     7
 79
     3
170
     0
171
     0
290
     0
174
     0
 93
        1
 44
0.0
173
     0
291
     0
 45
0.0
1001
ACAD
1000
AcDbSavedByObjectVersion
1070
     0
  0
VISUALSTYLE
  5
81AF
102
{ACAD_XDICTIONARY
360
83AC
102
}
102
{ACAD_REACTORS
330
819D
102
}
330
819D
100
AcDbVisualStyle
  2
Sketchy
 70
    24
 71
     1
 72
     2
 73
     2
 90
        0
 40
-0.6
 41
-30.0
 62
     5
 63
     7
 74
     2
 91
        2
 64
     7
 65
     7
 75
     1
175
     1
 42
40.0
 92
       11
 66
     7
 43
1.0
 76
     1
 77
     6
 78
     2
 67
     7
 79
     6
170
     0
171
     0
290
     0
174
     0
 93
        1
 44
0.0
173
     0
291
     0
 45
0.0
1001
ACAD
1000
AcDbSavedByObjectVersion
1070
     0
  0
VISUALSTYLE
  5
81AA
102
{ACAD_XDICTIONARY
360
83A2
102
}
102
{ACAD_REACTORS
330
819D
102
}
330
819D
100
AcDbVisualStyle
  2
Thicken
 70
    13
 71
     2
 72
     2
 73
     0
 90
        0
 40
-0.6
 41
-30.0
 62
     5
 63
     7
 74
     1
 91
        4
 64
     7
 65
   257
 75
     1
175
     1
 42
1.0
 92
       12
 66
     7
 43
1.0
 76
     1
 77
     6
 78
     2
 67
     7
 79
     5
170
     0
171
     0
290
     0
174
     0
 93
        1
 44
0.0
173
     0
291
     1
 45
0.0
1001
ACAD
1000
AcDbSavedByObjectVersion
1070
     0
  0
VISUALSTYLE
  5
81A4
102
{ACAD_XDICTIONARY
360
8396
102
}
102
{ACAD_REACTORS
330
819D
102
}
330
819D
100
AcDbVisualStyle
  2
Wireframe
 70
     5
 71
     0
 72
     2
 73
     0
 90
        0
 40
-0.6
 41
-30.0
 62
     5
 63
     7
 74
     1
 91
        4
 64
     7
 65
   257
 75
     1
175
     1
 42
1.0
 92
        0
 66
   257
 43
1.0
 76
     1
 77
     6
 78
     2
 67
     7
 79
     3
170
     0
171
     0
290
     0
174
     0
 93
        1
 44
0.0
173
     0
291
     0
 45
0.0
1001
ACAD
1000
AcDbSavedByObjectVersion
1070
     0
  0
VISUALSTYLE
  5
81B0
102
{ACAD_XDICTIONARY
360
83AE
102
}
102
{ACAD_REACTORS
330
819D
102
}
330
819D
100
AcDbVisualStyle
  2
X-Ray
 70
    25
 71
     2
 72
     2
 73
     1
 90
        1
 40
0.5
 41
-30.0
 62
     5
 63
     7
 74
     1
 91
        0
 64
     7
 65
   257
 75
     1
175
     1
 42
1.0
 92
        8
 66
     7
 43
1.0
 76
     1
 77
     6
 78
     2
 67
     7
 79
     3
170
     0
171
     0
290
     0
174
     0
 93
       13
 44
0.0
173
     0
291
     0
 45
0.0
1001
ACAD
1000
AcDbSavedByObjectVersion
1070
     0
  0
DICTIONARYVAR
  5
837D
102
{ACAD_REACTORS
330
8378
102
}
330
8378
100
DictionaryVariables
280
     0
  1
1:1
  0
DICTIONARYVAR
  5
837A
102
{ACAD_REACTORS
330
8378
102
}
330
8378
100
DictionaryVariables
280
     0
  1
STANDARD
  0
DICTIONARYVAR
  5
8379
102
{ACAD_REACTORS
330
8378
102
}
330
8378
100
DictionaryVariables
280
     0
  1
STANDARD
  0
DICTIONARYVAR
  5
837B
102
{ACAD_REACTORS
330
8378
102
}
330
8378
100
DictionaryVariables
280
     0
  1
Imperial24
  0
DICTIONARYVAR
  5
837C
102
{ACAD_REACTORS
330
8378
102
}
330
8378
100
DictionaryVariables
280
     0
  1
Imperial24
  0
DICTIONARYVAR
  5
8380
102
{ACAD_REACTORS
330
8378
102
}
330
8378
100
DictionaryVariables
280
     0
  1
1
  0
DICTIONARYVAR
  5
837F
102
{ACAD_REACTORS
330
8378
102
}
330
8378
100
DictionaryVariables
280
     0
  1
0
  0
DICTIONARYVAR
  5
837E
102
{ACAD_REACTORS
330
8378
102
}
330
8378
100
DictionaryVariables
280
     0
  1
127
  0
DICTIONARYVAR
  5
8381
102
{ACAD_REACTORS
330
8378
102
}
330
8378
100
DictionaryVariables
280
     0
  1
2
  0
DICTIONARY
  5
83BE
330
81DE
100
AcDbDictionary
280
     1
281
     1
  3
ACAD_XREC_ROUNDTRIP
360
83BF
  0
DICTIONARY
  5
83C2
330
81E6
100
AcDbDictionary
280
     1
281
     1
  3
ACAD_XREC_ROUNDTRIP
360
83C3
  0
DICTIONARY
  5
83C0
330
81E2
100
AcDbDictionary
280
     1
281
     1
  3
ACAD_XREC_ROUNDTRIP
360
83C1
  0
DICTIONARY
  5
818E
330
818D
100
AcDbDictionary
280
     1
281
     1
  3
ACAD_XREC_ROUNDTRIP
360
8388
  3
BUMPTILE
360
8190
  3
DIFFUSETILE
360
818F
  3
OPACITYTILE
360
8193
  3
REFLECTIONTILE
360
8192
  3
REFRACTIONTILE
360
8194
  3
SPECULARTILE
360
8191
  0
DICTIONARY
  5
8186
330
8185
100
AcDbDictionary
280
     1
281
     1
  3
ACAD_XREC_ROUNDTRIP
360
8387
  3
BUMPTILE
360
8188
  3
DIFFUSETILE
360
8187
  3
OPACITYTILE
360
818B
  3
REFLECTIONTILE
360
818A
  3
REFRACTIONTILE
360
818C
  3
SPECULARTILE
360
8189
  0
DICTIONARY
  5
8196
330
8195
100
AcDbDictionary
280
     1
281
     1
  3
ACAD_XREC_ROUNDTRIP
360
8389
  3
BUMPTILE
360
8198
  3
DIFFUSETILE
360
8197
  3
OPACITYTILE
360
819B
  3
REFLECTIONTILE
360
819A
  3
REFRACTIONTILE
360
819C
  3
SPECULARTILE
360
8199
  0
DICTIONARY
  5
83BC
330
81DC
100
AcDbDictionary
280
     1
281
     1
  3
ACAD_XREC_ROUNDTRIP
360
83BD
  0
DICTIONARY
  5
8383
330
81D8
100
AcDbDictionary
280
     1
281
     1
  3
ACAD_ROUNDTRIP_2008_TABLESTYLE_CELLSTYLEMAP
360
8384
  3
ACAD_XREC_ROUNDTRIP
360
83BA
  0
DICTIONARY
  5
8394
330
81A3
100
AcDbDictionary
280
     1
281
     1
  3
ACAD_XREC_ROUNDTRIP
360
8395
  0
DICTIONARY
  5
8392
330
81A2
100
AcDbDictionary
280
     1
281
     1
  3
ACAD_XREC_ROUNDTRIP
360
8393
  0
DICTIONARY
  5
83A0
330
81A9
100
AcDbDictionary
280
     1
281
     1
  3
ACAD_XREC_ROUNDTRIP
360
83A1
  0
DICTIONARY
  5
83A8
330
81AD
100
AcDbDictionary
280
     1
281
     1
  3
ACAD_XREC_ROUNDTRIP
360
83A9
  0
DICTIONARY
  5
839A
330
81A6
100
AcDbDictionary
280
     1
281
     1
  3
ACAD_XREC_ROUNDTRIP
360
839B
  0
DICTIONARY
  5
839E
330
81A8
100
AcDbDictionary
280
     1
281
     1
  3
ACAD_XREC_ROUNDTRIP
360
839F
  0
DICTIONARY
  5
83B8
330
81B5
100
AcDbDictionary
280
     1
281
     1
  3
ACAD_XREC_ROUNDTRIP
360
83B9
  0
DICTIONARY
  5
83A6
330
81AC
100
AcDbDictionary
280
     1
281
     1
  3
ACAD_XREC_ROUNDTRIP
360
83A7
  0
DICTIONARY
  5
838A
330
819E
100
AcDbDictionary
280
     1
281
     1
  3
ACAD_XREC_ROUNDTRIP
360
838B
  0
DICTIONARY
  5
838C
330
819F
100
AcDbDictionary
280
     1
281
     1
  3
ACAD_XREC_ROUNDTRIP
360
838D
  0
DICTIONARY
  5
838E
330
81A0
100
AcDbDictionary
280
     1
281
     1
  3
ACAD_XREC_ROUNDTRIP
360
838F
  0
DICTIONARY
  5
8390
330
81A1
100
AcDbDictionary
280
     1
281
     1
  3
ACAD_XREC_ROUNDTRIP
360
8391
  0
DICTIONARY
  5
8398
330
81A5
100
AcDbDictionary
280
     1
281
     1
  3
ACAD_XREC_ROUNDTRIP
360
8399
  0
DICTIONARY
  5
83B4
330
81B3
100
AcDbDictionary
280
     1
281
     1
  3
ACAD_XREC_ROUNDTRIP
360
83B5
  0
DICTIONARY
  5
83A4
330
81AB
100
AcDbDictionary
280
     1
281
     1
  3
ACAD_XREC_ROUNDTRIP
360
83A5
  0
DICTIONARY
  5
83B6
330
81B4
100
AcDbDictionary
280
     1
281
     1
  3
ACAD_XREC_ROUNDTRIP
360
83B7
  0
DICTIONARY
  5
839C
330
81A7
100
AcDbDictionary
280
     1
281
     1
  3
ACAD_XREC_ROUNDTRIP
360
839D
  0
DICTIONARY
  5
83B2
330
81B2
100
AcDbDictionary
280
     1
281
     1
  3
ACAD_XREC_ROUNDTRIP
360
83B3
  0
DICTIONARY
  5
83B0
330
81B1
100
AcDbDictionary
280
     1
281
     1
  3
ACAD_XREC_ROUNDTRIP
360
83B1
  0
DICTIONARY
  5
83AA
330
81AE
100
AcDbDictionary
280
     1
281
     1
  3
ACAD_XREC_ROUNDTRIP
360
83AB
  0
DICTIONARY
  5
83AC
330
81AF
100
AcDbDictionary
280
     1
281
     1
  3
ACAD_XREC_ROUNDTRIP
360
83AD
  0
DICTIONARY
  5
83A2
330
81AA
100
AcDbDictionary
280
     1
281
     1
  3
ACAD_XREC_ROUNDTRIP
360
83A3
  0
DICTIONARY
  5
8396
330
81A4
100
AcDbDictionary
280
     1
281
     1
  3
ACAD_XREC_ROUNDTRIP
360
8397
  0
DICTIONARY
  5
83AE
330
81B0
100
AcDbDictionary
280
     1
281
     1
  3
ACAD_XREC_ROUNDTRIP
360
83AF
  0
XRECORD
  5
83BF
102
{ACAD_REACTORS
330
83BE
102
}
330
83BE
100
AcDbXrecord
280
     1
102
DISPLAYNAME
  1
Imperial24
102
FLAGS
 90
        0
  0
XRECORD
  5
83C3
102
{ACAD_REACTORS
330
83C2
102
}
330
83C2
100
AcDbXrecord
280
     1
102
SHADEPLOT
 70
     0
102
SHADEPLOTRESLEVEL
 70
     2
102
SHADEPLOTCUSTOMDPI
 70
   300
  0
XRECORD
  5
83C1
102
{ACAD_REACTORS
330
83C0
102
}
330
83C0
100
AcDbXrecord
280
     1
102
SHADEPLOT
 70
     0
102
SHADEPLOTRESLEVEL
 70
     2
102
SHADEPLOTCUSTOMDPI
 70
   300
  0
XRECORD
  5
8388
102
{ACAD_REACTORS
330
818E
102
}
330
818E
100
AcDbXrecord
280
     1
102
MATERIAL
148
0.0
149
0.0
149
0.0
 93
        0
 94
      127
282
     0
 72
     0
 77
     0
171
     0
175
     0
179
     0
273
     0
  0
XRECORD
  5
8190
102
{ACAD_REACTORS
330
818E
102
}
330
818E
100
AcDbXrecord
280
     1
270
     1
271
     1
  0
XRECORD
  5
818F
102
{ACAD_REACTORS
330
818E
102
}
330
818E
100
AcDbXrecord
280
     1
270
     1
271
     1
  0
XRECORD
  5
8193
102
{ACAD_REACTORS
330
818E
102
}
330
818E
100
AcDbXrecord
280
     1
270
     1
271
     1
  0
XRECORD
  5
8192
102
{ACAD_REACTORS
330
818E
102
}
330
818E
100
AcDbXrecord
280
     1
270
     1
271
     1
  0
XRECORD
  5
8194
102
{ACAD_REACTORS
330
818E
102
}
330
818E
100
AcDbXrecord
280
     1
270
     1
271
     1
  0
XRECORD
  5
8191
102
{ACAD_REACTORS
330
818E
102
}
330
818E
100
AcDbXrecord
280
     1
270
     1
271
     1
  0
XRECORD
  5
8387
102
{ACAD_REACTORS
330
8186
102
}
330
8186
100
AcDbXrecord
280
     1
102
MATERIAL
148
0.0
149
0.0
149
0.0
 93
        0
 94
      127
282
     0
 72
     0
 77
     0
171
     0
175
     0
179
     0
273
     0
  0
XRECORD
  5
8188
102
{ACAD_REACTORS
330
8186
102
}
330
8186
100
AcDbXrecord
280
     1
270
     1
271
     1
  0
XRECORD
  5
8187
102
{ACAD_REACTORS
330
8186
102
}
330
8186
100
AcDbXrecord
280
     1
270
     1
271
     1
  0
XRECORD
  5
818B
102
{ACAD_REACTORS
330
8186
102
}
330
8186
100
AcDbXrecord
280
     1
270
     1
271
     1
  0
XRECORD
  5
818A
102
{ACAD_REACTORS
330
8186
102
}
330
8186
100
AcDbXrecord
280
     1
270
     1
271
     1
  0
XRECORD
  5
818C
102
{ACAD_REACTORS
330
8186
102
}
330
8186
100
AcDbXrecord
280
     1
270
     1
271
     1
  0
XRECORD
  5
8189
102
{ACAD_REACTORS
330
8186
102
}
330
8186
100
AcDbXrecord
280
     1
270
     1
271
     1
  0
XRECORD
  5
8389
102
{ACAD_REACTORS
330
8196
102
}
330
8196
100
AcDbXrecord
280
     1
102
MATERIAL
148
0.0
149
0.0
149
0.0
 93
        0
 94
      127
282
     0
 72
     0
 77
     0
171
     0
175
     0
179
     0
273
     0
  0
XRECORD
  5
8198
102
{ACAD_REACTORS
330
8196
102
}
330
8196
100
AcDbXrecord
280
     1
270
     1
271
     1
  0
XRECORD
  5
8197
102
{ACAD_REACTORS
330
8196
102
}
330
8196
100
AcDbXrecord
280
     1
270
     1
271
     1
  0
XRECORD
  5
819B
102
{ACAD_REACTORS
330
8196
102
}
330
8196
100
AcDbXrecord
280
     1
270
     1
271
     1
  0
XRECORD
  5
819A
102
{ACAD_REACTORS
330
8196
102
}
330
8196
100
AcDbXrecord
280
     1
270
     1
271
     1
  0
XRECORD
  5
819C
102
{ACAD_REACTORS
330
8196
102
}
330
8196
100
AcDbXrecord
280
     1
270
     1
271
     1
  0
XRECORD
  5
8199
102
{ACAD_REACTORS
330
8196
102
}
330
8196
100
AcDbXrecord
280
     1
270
     1
271
     1
  0
XRECORD
  5
83BD
102
{ACAD_REACTORS
330
83BC
102
}
330
83BC
100
AcDbXrecord
280
     1
102
DISPLAYNAME
  1
Imperial24
102
FLAGS
 90
        0
  0
CELLSTYLEMAP
  5
8384
102
{ACAD_REACTORS
330
8383
102
}
330
8383
100
AcDbCellStyleMap
 90
        3
300
CELLSTYLE
  1
TABLEFORMAT_BEGIN
 90
        5
170
     1
 91
        0
 92
    32768
 62
   257
 93
        1
300
CONTENTFORMAT
  1
CONTENTFORMAT_BEGIN
 90
        0
 91
        0
 92
      512
 93
        0
300

 40
0.0
140
1.0
 94
        5
 62
     0
340
81C9
144
0.25
309
CONTENTFORMAT_END
171
     0
 94
        0
309
TABLEFORMAT_END
  1
CELLSTYLE_BEGIN
 90
        1
 91
        1
300
_TITLE
309
CELLSTYLE_END
300
CELLSTYLE
  1
TABLEFORMAT_BEGIN
 90
        5
170
     1
 91
        0
 92
        0
 62
   257
 93
        1
300
CONTENTFORMAT
  1
CONTENTFORMAT_BEGIN
 90
        0
 91
        0
 92
      512
 93
        0
300

 40
0.0
140
1.0
 94
        5
 62
     0
340
81C9
144
0.18
309
CONTENTFORMAT_END
171
     0
 94
        0
309
TABLEFORMAT_END
  1
CELLSTYLE_BEGIN
 90
        2
 91
        1
300
_HEADER
309
CELLSTYLE_END
300
CELLSTYLE
  1
TABLEFORMAT_BEGIN
 90
        5
170
     1
 91
        0
 92
        0
 62
   257
 93
        1
300
CONTENTFORMAT
  1
CONTENTFORMAT_BEGIN
 90
        0
 91
        0
 92
      512
 93
        0
300

 40
0.0
140
1.0
 94
        2
 62
     0
340
81C9
144
0.18
309
CONTENTFORMAT_END
171
     0
 94
        0
309
TABLEFORMAT_END
  1
CELLSTYLE_BEGIN
 90
        3
 91
        2
300
_DATA
309
CELLSTYLE_END
  0
XRECORD
  5
83BA
102
{ACAD_REACTORS
330
8383
102
}
330
8383
100
AcDbXrecord
280
     1
102
ACAD_ROUNDTRIP_PRE2007_TABLESTYLE
 90
      512
 91
        0
  1

 92
      512
 93
        0
  2

 94
      512
 95
        0
  3

  0
XRECORD
  5
8395
102
{ACAD_REACTORS
330
8394
102
}
330
8394
100
AcDbXrecord
280
     1
102
RTVSPost2010Prop28
280
     1
102
RTVSPost2010PropOp28
 70
     1
102
RTVSPost2010Prop29
280
     1
102
RTVSPost2010PropOp29
 70
     1
102
RTVSPost2010Prop30
280
     0
102
RTVSPost2010PropOp30
 70
     1
102
RTVSPost2010Prop31
280
     0
102
RTVSPost2010PropOp31
 70
     1
102
RTVSPost2010Prop32
280
     0
102
RTVSPost2010PropOp32
 70
     1
102
RTVSPost2010Prop33
280
     0
102
RTVSPost2010PropOp33
 70
     1
102
RTVSPost2010Prop34
280
     0
102
RTVSPost2010PropOp34
 70
     1
102
RTVSPost2010Prop35
280
     0
102
RTVSPost2010PropOp35
 70
     1
102
RTVSPost2010Prop36
280
     0
102
RTVSPost2010PropOp36
 70
     1
102
RTVSPost2010Prop37
 90
       50
102
RTVSPost2010PropOp37
 70
     1
102
RTVSPost2010Prop38
140
0.0
102
RTVSPost2010PropOp38
 70
     1
102
RTVSPost2010Prop39
140
1.0
102
RTVSPost2010PropOp39
 70
     1
102
RTVSPost2010Prop40
 90
        0
102
RTVSPost2010PropOp40
 70
     1
102
RTVSPost2010Prop41ColorIndex
 90
       18
102
RTVSPost2010Prop41ColorRGB
 90
        0
102
RTVSPost2010PropOp41
 70
     1
102
RTVSPost2010Prop42
 90
       50
102
RTVSPost2010PropOp42
 70
     1
102
RTVSPost2010Prop43
 90
        3
102
RTVSPost2010PropOp43
 70
     1
102
RTVSPost2010Prop44ColorIndex
 90
        5
102
RTVSPost2010Prop44ColorRGB
 90
      255
102
RTVSPost2010PropOp44
 70
     1
102
RTVSPost2010Prop45
280
     0
102
RTVSPost2010PropOp45
 70
     1
102
RTVSPost2010Prop46
 90
       50
102
RTVSPost2010PropOp46
 70
     1
102
RTVSPost2010Prop47
 90
       50
102
RTVSPost2010PropOp47
 70
     1
102
RTVSPost2010Prop48
 90
       50
102
RTVSPost2010PropOp48
 70
     1
102
RTVSPost2010Prop49
280
     0
102
RTVSPost2010PropOp49
 70
     1
102
RTVSPost2010Prop50
 90
       50
102
RTVSPost2010PropOp50
 70
     1
102
RTVSPost2010Prop51ColorIndex
 90
      256
102
RTVSPost2010Prop51ColorRGB
 90
-16777216
102
RTVSPost2010PropOp51
 70
     0
102
RTVSPost2010Prop52
140
1.0
102
RTVSPost2010PropOp52
 70
     0
102
RTVSPost2010Prop53
 90
        2
102
RTVSPost2010PropOp53
 70
     1
102
RTVSPost2010Prop54
  1
strokes_ogs.tif
102
RTVSPost2010PropOp54
 70
     1
102
RTVSPost2010Prop55
280
     0
102
RTVSPost2010PropOp55
 70
     1
102
RTVSPost2010Prop56
140
1.0
102
RTVSPost2010PropOp56
 70
     1
102
RTVSPost2010Prop57
140
1.0
102
RTVSPost2010PropOp57
 70
     1
102
RTVSPropertyOp0
 70
     1
102
RTVSPropertyOp1
 70
     1
102
RTVSPropertyOp2
 70
     1
102
RTVSPropertyOp3
 70
     1
102
RTVSPropertyOp4
 70
     1
102
RTVSPropertyOp5
 70
     1
102
RTVSPropertyOp6
 70
     1
102
RTVSPropertyOp7
 70
     1
102
RTVSPropertyOp8
 70
     1
102
RTVSPropertyOp9
 70
     1
102
RTVSPropertyOp10
 70
     1
102
RTVSPropertyOp11
 70
     1
102
RTVSPropertyOp12
 70
     1
102
RTVSPropertyOp13
 70
     1
102
RTVSPropertyOp14
 70
     1
102
RTVSPropertyOp15
 70
     1
102
RTVSPropertyOp16
 70
     1
102
RTVSPropertyOp17
 70
     1
102
RTVSPropertyOp18
 70
     1
102
RTVSPropertyOp19
 70
     1
102
RTVSPropertyOp20
 70
     1
102
RTVSPropertyOp21
 70
     1
102
RTVSPropertyOp22
 70
     1
102
RTVSPropertyOp23
 70
     1
102
RTVSPropertyOp24
 70
     1
102
RTVSPropertyOp25
 70
     1
102
RTVSPropertyOp26
 70
     1
102
RTVSPropertyOp27
 70
     1
102
RTVSPropertyOp28
 70
     1
102
RTVSPropertyOp29
 70
     1
102
RTVSPropertyOp30
 70
     1
102
RTVSPropertyOp31
 70
     1
102
RTVSPropertyOp32
 70
     1
102
RTVSPropertyOp33
 70
     1
102
RTVSPropertyOp34
 70
     1
102
RTVSPropertyOp35
 70
     1
102
RTVSPropertyOp36
 70
     1
102
RTVSPropertyOp37
 70
     1
102
RTVSPropertyOp38
 70
     1
102
RTVSPropertyOp39
 70
     1
102
RTVSPropertyOp40
 70
     1
102
RTVSPropertyOp41
 70
     1
102
RTVSPropertyOp42
 70
     1
102
RTVSPropertyOp43
 70
     1
102
RTVSPropertyOp44
 70
     1
102
RTVSPropertyOp45
 70
     1
102
RTVSPropertyOp46
 70
     1
102
RTVSPropertyOp47
 70
     1
102
RTVSPropertyOp48
 70
     1
102
RTVSPropertyOp49
 70
     1
102
RTVSPropertyOp50
 70
     1
102
RTVSPropertyOp51
 70
     0
102
RTVSPropertyOp52
 70
     0
102
RTVSPropertyOp53
 70
     1
102
RTVSPropertyOp54
 70
     1
102
RTVSPropertyOp55
 70
     1
102
RTVSPropertyOp56
 70
     1
102
RTVSPropertyOp57
 70
     1
102
RTVSPropertyOp58
 70
     1
102
RTVSPropertyOp59
 70
     1
102
RTVSPropertyOp60
 70
     1
102
RTVSPropertyOp61
 70
     1
102
RTVSPropertyOp62
 70
     1
  0
XRECORD
  5
8393
102
{ACAD_REACTORS
330
8392
102
}
330
8392
100
AcDbXrecord
280
     1
102
RTVSPost2010Prop28
280
     0
102
RTVSPost2010PropOp28
 70
     1
102
RTVSPost2010Prop29
280
     1
102
RTVSPost2010PropOp29
 70
     1
102
RTVSPost2010Prop30
280
     1
102
RTVSPost2010PropOp30
 70
     1
102
RTVSPost2010Prop31
280
     0
102
RTVSPost2010PropOp31
 70
     1
102
RTVSPost2010Prop32
280
     0
102
RTVSPost2010PropOp32
 70
     1
102
RTVSPost2010Prop33
280
     0
102
RTVSPost2010PropOp33
 70
     1
102
RTVSPost2010Prop34
280
     0
102
RTVSPost2010PropOp34
 70
     1
102
RTVSPost2010Prop35
280
     0
102
RTVSPost2010PropOp35
 70
     1
102
RTVSPost2010Prop36
280
     0
102
RTVSPost2010PropOp36
 70
     1
102
RTVSPost2010Prop37
 90
       50
102
RTVSPost2010PropOp37
 70
     1
102
RTVSPost2010Prop38
140
0.0
102
RTVSPost2010PropOp38
 70
     1
102
RTVSPost2010Prop39
140
1.0
102
RTVSPost2010PropOp39
 70
     1
102
RTVSPost2010Prop40
 90
        0
102
RTVSPost2010PropOp40
 70
     1
102
RTVSPost2010Prop41ColorIndex
 90
       18
102
RTVSPost2010Prop41ColorRGB
 90
        0
102
RTVSPost2010PropOp41
 70
     1
102
RTVSPost2010Prop42
 90
       50
102
RTVSPost2010PropOp42
 70
     1
102
RTVSPost2010Prop43
 90
        3
102
RTVSPost2010PropOp43
 70
     1
102
RTVSPost2010Prop44ColorIndex
 90
        5
102
RTVSPost2010Prop44ColorRGB
 90
      255
102
RTVSPost2010PropOp44
 70
     1
102
RTVSPost2010Prop45
280
     0
102
RTVSPost2010PropOp45
 70
     1
102
RTVSPost2010Prop46
 90
       50
102
RTVSPost2010PropOp46
 70
     1
102
RTVSPost2010Prop47
 90
       50
102
RTVSPost2010PropOp47
 70
     1
102
RTVSPost2010Prop48
 90
       50
102
RTVSPost2010PropOp48
 70
     1
102
RTVSPost2010Prop49
280
     0
102
RTVSPost2010PropOp49
 70
     1
102
RTVSPost2010Prop50
 90
       50
102
RTVSPost2010PropOp50
 70
     1
102
RTVSPost2010Prop51ColorIndex
 90
      256
102
RTVSPost2010Prop51ColorRGB
 90
-16777216
102
RTVSPost2010PropOp51
 70
     0
102
RTVSPost2010Prop52
140
1.0
102
RTVSPost2010PropOp52
 70
     0
102
RTVSPost2010Prop53
 90
        2
102
RTVSPost2010PropOp53
 70
     1
102
RTVSPost2010Prop54
  1
strokes_ogs.tif
102
RTVSPost2010PropOp54
 70
     1
102
RTVSPost2010Prop55
280
     0
102
RTVSPost2010PropOp55
 70
     1
102
RTVSPost2010Prop56
140
1.0
102
RTVSPost2010PropOp56
 70
     1
102
RTVSPost2010Prop57
140
1.0
102
RTVSPost2010PropOp57
 70
     1
102
RTVSPropertyOp0
 70
     1
102
RTVSPropertyOp1
 70
     1
102
RTVSPropertyOp2
 70
     1
102
RTVSPropertyOp3
 70
     1
102
RTVSPropertyOp4
 70
     1
102
RTVSPropertyOp5
 70
     1
102
RTVSPropertyOp6
 70
     1
102
RTVSPropertyOp7
 70
     1
102
RTVSPropertyOp8
 70
     1
102
RTVSPropertyOp9
 70
     1
102
RTVSPropertyOp10
 70
     1
102
RTVSPropertyOp11
 70
     1
102
RTVSPropertyOp12
 70
     1
102
RTVSPropertyOp13
 70
     1
102
RTVSPropertyOp14
 70
     1
102
RTVSPropertyOp15
 70
     1
102
RTVSPropertyOp16
 70
     1
102
RTVSPropertyOp17
 70
     1
102
RTVSPropertyOp18
 70
     1
102
RTVSPropertyOp19
 70
     1
102
RTVSPropertyOp20
 70
     1
102
RTVSPropertyOp21
 70
     1
102
RTVSPropertyOp22
 70
     1
102
RTVSPropertyOp23
 70
     1
102
RTVSPropertyOp24
 70
     1
102
RTVSPropertyOp25
 70
     1
102
RTVSPropertyOp26
 70
     1
102
RTVSPropertyOp27
 70
     1
102
RTVSPropertyOp28
 70
     1
102
RTVSPropertyOp29
 70
     1
102
RTVSPropertyOp30
 70
     1
102
RTVSPropertyOp31
 70
     1
102
RTVSPropertyOp32
 70
     1
102
RTVSPropertyOp33
 70
     1
102
RTVSPropertyOp34
 70
     1
102
RTVSPropertyOp35
 70
     1
102
RTVSPropertyOp36
 70
     1
102
RTVSPropertyOp37
 70
     1
102
RTVSPropertyOp38
 70
     1
102
RTVSPropertyOp39
 70
     1
102
RTVSPropertyOp40
 70
     1
102
RTVSPropertyOp41
 70
     1
102
RTVSPropertyOp42
 70
     1
102
RTVSPropertyOp43
 70
     1
102
RTVSPropertyOp44
 70
     1
102
RTVSPropertyOp45
 70
     1
102
RTVSPropertyOp46
 70
     1
102
RTVSPropertyOp47
 70
     1
102
RTVSPropertyOp48
 70
     1
102
RTVSPropertyOp49
 70
     1
102
RTVSPropertyOp50
 70
     1
102
RTVSPropertyOp51
 70
     0
102
RTVSPropertyOp52
 70
     0
102
RTVSPropertyOp53
 70
     1
102
RTVSPropertyOp54
 70
     1
102
RTVSPropertyOp55
 70
     1
102
RTVSPropertyOp56
 70
     1
102
RTVSPropertyOp57
 70
     1
102
RTVSPropertyOp58
 70
     1
102
RTVSPropertyOp59
 70
     1
102
RTVSPropertyOp60
 70
     1
102
RTVSPropertyOp61
 70
     1
102
RTVSPropertyOp62
 70
     1
  0
XRECORD
  5
83A1
102
{ACAD_REACTORS
330
83A0
102
}
330
83A0
100
AcDbXrecord
280
     1
102
RTVSPost2010Prop28
280
     0
102
RTVSPost2010PropOp28
 70
     1
102
RTVSPost2010Prop29
280
     1
102
RTVSPost2010PropOp29
 70
     1
102
RTVSPost2010Prop30
280
     1
102
RTVSPost2010PropOp30
 70
     1
102
RTVSPost2010Prop31
280
     0
102
RTVSPost2010PropOp31
 70
     1
102
RTVSPost2010Prop32
280
     0
102
RTVSPost2010PropOp32
 70
     1
102
RTVSPost2010Prop33
280
     0
102
RTVSPost2010PropOp33
 70
     1
102
RTVSPost2010Prop34
280
     0
102
RTVSPost2010PropOp34
 70
     1
102
RTVSPost2010Prop35
280
     0
102
RTVSPost2010PropOp35
 70
     1
102
RTVSPost2010Prop36
280
     0
102
RTVSPost2010PropOp36
 70
     1
102
RTVSPost2010Prop37
 90
       50
102
RTVSPost2010PropOp37
 70
     1
102
RTVSPost2010Prop38
140
0.0
102
RTVSPost2010PropOp38
 70
     1
102
RTVSPost2010Prop39
140
1.0
102
RTVSPost2010PropOp39
 70
     1
102
RTVSPost2010Prop40
 90
        0
102
RTVSPost2010PropOp40
 70
     1
102
RTVSPost2010Prop41ColorIndex
 90
       18
102
RTVSPost2010Prop41ColorRGB
 90
        0
102
RTVSPost2010PropOp41
 70
     1
102
RTVSPost2010Prop42
 90
       50
102
RTVSPost2010PropOp42
 70
     1
102
RTVSPost2010Prop43
 90
        3
102
RTVSPost2010PropOp43
 70
     1
102
RTVSPost2010Prop44ColorIndex
 90
        5
102
RTVSPost2010Prop44ColorRGB
 90
      255
102
RTVSPost2010PropOp44
 70
     1
102
RTVSPost2010Prop45
280
     0
102
RTVSPost2010PropOp45
 70
     1
102
RTVSPost2010Prop46
 90
       50
102
RTVSPost2010PropOp46
 70
     1
102
RTVSPost2010Prop47
 90
       50
102
RTVSPost2010PropOp47
 70
     1
102
RTVSPost2010Prop48
 90
       50
102
RTVSPost2010PropOp48
 70
     1
102
RTVSPost2010Prop49
280
     0
102
RTVSPost2010PropOp49
 70
     1
102
RTVSPost2010Prop50
 90
       50
102
RTVSPost2010PropOp50
 70
     1
102
RTVSPost2010Prop51ColorIndex
 90
      256
102
RTVSPost2010Prop51ColorRGB
 90
-16777216
102
RTVSPost2010PropOp51
 70
     0
102
RTVSPost2010Prop52
140
1.0
102
RTVSPost2010PropOp52
 70
     0
102
RTVSPost2010Prop53
 90
        2
102
RTVSPost2010PropOp53
 70
     1
102
RTVSPost2010Prop54
  1
strokes_ogs.tif
102
RTVSPost2010PropOp54
 70
     1
102
RTVSPost2010Prop55
280
     0
102
RTVSPost2010PropOp55
 70
     1
102
RTVSPost2010Prop56
140
1.0
102
RTVSPost2010PropOp56
 70
     1
102
RTVSPost2010Prop57
140
1.0
102
RTVSPost2010PropOp57
 70
     1
102
RTVSPropertyOp0
 70
     1
102
RTVSPropertyOp1
 70
     1
102
RTVSPropertyOp2
 70
     1
102
RTVSPropertyOp3
 70
     1
102
RTVSPropertyOp4
 70
     1
102
RTVSPropertyOp5
 70
     1
102
RTVSPropertyOp6
 70
     1
102
RTVSPropertyOp7
 70
     1
102
RTVSPropertyOp8
 70
     1
102
RTVSPropertyOp9
 70
     1
102
RTVSPropertyOp10
 70
     1
102
RTVSPropertyOp11
 70
     1
102
RTVSPropertyOp12
 70
     1
102
RTVSPropertyOp13
 70
     1
102
RTVSPropertyOp14
 70
     1
102
RTVSPropertyOp15
 70
     1
102
RTVSPropertyOp16
 70
     1
102
RTVSPropertyOp17
 70
     1
102
RTVSPropertyOp18
 70
     1
102
RTVSPropertyOp19
 70
     1
102
RTVSPropertyOp20
 70
     1
102
RTVSPropertyOp21
 70
     1
102
RTVSPropertyOp22
 70
     1
102
RTVSPropertyOp23
 70
     1
102
RTVSPropertyOp24
 70
     1
102
RTVSPropertyOp25
 70
     1
102
RTVSPropertyOp26
 70
     1
102
RTVSPropertyOp27
 70
     1
102
RTVSPropertyOp28
 70
     1
102
RTVSPropertyOp29
 70
     1
102
RTVSPropertyOp30
 70
     1
102
RTVSPropertyOp31
 70
     1
102
RTVSPropertyOp32
 70
     1
102
RTVSPropertyOp33
 70
     1
102
RTVSPropertyOp34
 70
     1
102
RTVSPropertyOp35
 70
     1
102
RTVSPropertyOp36
 70
     1
102
RTVSPropertyOp37
 70
     1
102
RTVSPropertyOp38
 70
     1
102
RTVSPropertyOp39
 70
     1
102
RTVSPropertyOp40
 70
     1
102
RTVSPropertyOp41
 70
     1
102
RTVSPropertyOp42
 70
     1
102
RTVSPropertyOp43
 70
     1
102
RTVSPropertyOp44
 70
     1
102
RTVSPropertyOp45
 70
     1
102
RTVSPropertyOp46
 70
     1
102
RTVSPropertyOp47
 70
     1
102
RTVSPropertyOp48
 70
     1
102
RTVSPropertyOp49
 70
     1
102
RTVSPropertyOp50
 70
     1
102
RTVSPropertyOp51
 70
     0
102
RTVSPropertyOp52
 70
     0
102
RTVSPropertyOp53
 70
     1
102
RTVSPropertyOp54
 70
     1
102
RTVSPropertyOp55
 70
     1
102
RTVSPropertyOp56
 70
     1
102
RTVSPropertyOp57
 70
     1
102
RTVSPropertyOp58
 70
     1
102
RTVSPropertyOp59
 70
     1
102
RTVSPropertyOp60
 70
     1
102
RTVSPropertyOp61
 70
     1
102
RTVSPropertyOp62
 70
     1
  0
XRECORD
  5
83A9
102
{ACAD_REACTORS
330
83A8
102
}
330
83A8
100
AcDbXrecord
280
     1
102
RTVSPost2010Prop28
280
     0
102
RTVSPost2010PropOp28
 70
     1
102
RTVSPost2010Prop29
280
     1
102
RTVSPost2010PropOp29
 70
     1
102
RTVSPost2010Prop30
280
     1
102
RTVSPost2010PropOp30
 70
     1
102
RTVSPost2010Prop31
280
     0
102
RTVSPost2010PropOp31
 70
     1
102
RTVSPost2010Prop32
280
     0
102
RTVSPost2010PropOp32
 70
     1
102
RTVSPost2010Prop33
280
     0
102
RTVSPost2010PropOp33
 70
     1
102
RTVSPost2010Prop34
280
     0
102
RTVSPost2010PropOp34
 70
     1
102
RTVSPost2010Prop35
280
     0
102
RTVSPost2010PropOp35
 70
     1
102
RTVSPost2010Prop36
280
     0
102
RTVSPost2010PropOp36
 70
     1
102
RTVSPost2010Prop37
 90
       50
102
RTVSPost2010PropOp37
 70
     1
102
RTVSPost2010Prop38
140
0.0
102
RTVSPost2010PropOp38
 70
     1
102
RTVSPost2010Prop39
140
1.0
102
RTVSPost2010PropOp39
 70
     1
102
RTVSPost2010Prop40
 90
        0
102
RTVSPost2010PropOp40
 70
     1
102
RTVSPost2010Prop41ColorIndex
 90
       18
102
RTVSPost2010Prop41ColorRGB
 90
        0
102
RTVSPost2010PropOp41
 70
     1
102
RTVSPost2010Prop42
 90
       50
102
RTVSPost2010PropOp42
 70
     1
102
RTVSPost2010Prop43
 90
        3
102
RTVSPost2010PropOp43
 70
     1
102
RTVSPost2010Prop44ColorIndex
 90
        5
102
RTVSPost2010Prop44ColorRGB
 90
      255
102
RTVSPost2010PropOp44
 70
     1
102
RTVSPost2010Prop45
280
     0
102
RTVSPost2010PropOp45
 70
     1
102
RTVSPost2010Prop46
 90
       50
102
RTVSPost2010PropOp46
 70
     1
102
RTVSPost2010Prop47
 90
       50
102
RTVSPost2010PropOp47
 70
     1
102
RTVSPost2010Prop48
 90
       50
102
RTVSPost2010PropOp48
 70
     1
102
RTVSPost2010Prop49
280
     0
102
RTVSPost2010PropOp49
 70
     1
102
RTVSPost2010Prop50
 90
       50
102
RTVSPost2010PropOp50
 70
     1
102
RTVSPost2010Prop51ColorIndex
 90
      256
102
RTVSPost2010Prop51ColorRGB
 90
-16777216
102
RTVSPost2010PropOp51
 70
     0
102
RTVSPost2010Prop52
140
1.0
102
RTVSPost2010PropOp52
 70
     0
102
RTVSPost2010Prop53
 90
        2
102
RTVSPost2010PropOp53
 70
     1
102
RTVSPost2010Prop54
  1
strokes_ogs.tif
102
RTVSPost2010PropOp54
 70
     1
102
RTVSPost2010Prop55
280
     0
102
RTVSPost2010PropOp55
 70
     1
102
RTVSPost2010Prop56
140
1.0
102
RTVSPost2010PropOp56
 70
     1
102
RTVSPost2010Prop57
140
1.0
102
RTVSPost2010PropOp57
 70
     1
102
RTVSPropertyOp0
 70
     1
102
RTVSPropertyOp1
 70
     1
102
RTVSPropertyOp2
 70
     1
102
RTVSPropertyOp3
 70
     1
102
RTVSPropertyOp4
 70
     1
102
RTVSPropertyOp5
 70
     1
102
RTVSPropertyOp6
 70
     1
102
RTVSPropertyOp7
 70
     1
102
RTVSPropertyOp8
 70
     1
102
RTVSPropertyOp9
 70
     1
102
RTVSPropertyOp10
 70
     1
102
RTVSPropertyOp11
 70
     1
102
RTVSPropertyOp12
 70
     1
102
RTVSPropertyOp13
 70
     1
102
RTVSPropertyOp14
 70
     1
102
RTVSPropertyOp15
 70
     1
102
RTVSPropertyOp16
 70
     1
102
RTVSPropertyOp17
 70
     1
102
RTVSPropertyOp18
 70
     1
102
RTVSPropertyOp19
 70
     1
102
RTVSPropertyOp20
 70
     1
102
RTVSPropertyOp21
 70
     1
102
RTVSPropertyOp22
 70
     1
102
RTVSPropertyOp23
 70
     1
102
RTVSPropertyOp24
 70
     1
102
RTVSPropertyOp25
 70
     1
102
RTVSPropertyOp26
 70
     1
102
RTVSPropertyOp27
 70
     1
102
RTVSPropertyOp28
 70
     1
102
RTVSPropertyOp29
 70
     1
102
RTVSPropertyOp30
 70
     1
102
RTVSPropertyOp31
 70
     1
102
RTVSPropertyOp32
 70
     1
102
RTVSPropertyOp33
 70
     1
102
RTVSPropertyOp34
 70
     1
102
RTVSPropertyOp35
 70
     1
102
RTVSPropertyOp36
 70
     1
102
RTVSPropertyOp37
 70
     1
102
RTVSPropertyOp38
 70
     1
102
RTVSPropertyOp39
 70
     1
102
RTVSPropertyOp40
 70
     1
102
RTVSPropertyOp41
 70
     1
102
RTVSPropertyOp42
 70
     1
102
RTVSPropertyOp43
 70
     1
102
RTVSPropertyOp44
 70
     1
102
RTVSPropertyOp45
 70
     1
102
RTVSPropertyOp46
 70
     1
102
RTVSPropertyOp47
 70
     1
102
RTVSPropertyOp48
 70
     1
102
RTVSPropertyOp49
 70
     1
102
RTVSPropertyOp50
 70
     1
102
RTVSPropertyOp51
 70
     0
102
RTVSPropertyOp52
 70
     0
102
RTVSPropertyOp53
 70
     1
102
RTVSPropertyOp54
 70
     1
102
RTVSPropertyOp55
 70
     1
102
RTVSPropertyOp56
 70
     1
102
RTVSPropertyOp57
 70
     1
102
RTVSPropertyOp58
 70
     1
102
RTVSPropertyOp59
 70
     1
102
RTVSPropertyOp60
 70
     1
102
RTVSPropertyOp61
 70
     1
102
RTVSPropertyOp62
 70
     1
  0
XRECORD
  5
839B
102
{ACAD_REACTORS
330
839A
102
}
330
839A
100
AcDbXrecord
280
     1
102
RTVSPost2010Prop28
280
     0
102
RTVSPost2010PropOp28
 70
     1
102
RTVSPost2010Prop29
280
     1
102
RTVSPost2010PropOp29
 70
     1
102
RTVSPost2010Prop30
280
     1
102
RTVSPost2010PropOp30
 70
     1
102
RTVSPost2010Prop31
280
     0
102
RTVSPost2010PropOp31
 70
     1
102
RTVSPost2010Prop32
280
     0
102
RTVSPost2010PropOp32
 70
     1
102
RTVSPost2010Prop33
280
     0
102
RTVSPost2010PropOp33
 70
     1
102
RTVSPost2010Prop34
280
     0
102
RTVSPost2010PropOp34
 70
     1
102
RTVSPost2010Prop35
280
     0
102
RTVSPost2010PropOp35
 70
     1
102
RTVSPost2010Prop36
280
     0
102
RTVSPost2010PropOp36
 70
     1
102
RTVSPost2010Prop37
 90
       50
102
RTVSPost2010PropOp37
 70
     1
102
RTVSPost2010Prop38
140
0.0
102
RTVSPost2010PropOp38
 70
     1
102
RTVSPost2010Prop39
140
1.0
102
RTVSPost2010PropOp39
 70
     1
102
RTVSPost2010Prop40
 90
        0
102
RTVSPost2010PropOp40
 70
     1
102
RTVSPost2010Prop41ColorIndex
 90
       18
102
RTVSPost2010Prop41ColorRGB
 90
        0
102
RTVSPost2010PropOp41
 70
     1
102
RTVSPost2010Prop42
 90
       50
102
RTVSPost2010PropOp42
 70
     1
102
RTVSPost2010Prop43
 90
        3
102
RTVSPost2010PropOp43
 70
     1
102
RTVSPost2010Prop44ColorIndex
 90
        5
102
RTVSPost2010Prop44ColorRGB
 90
      255
102
RTVSPost2010PropOp44
 70
     1
102
RTVSPost2010Prop45
280
     0
102
RTVSPost2010PropOp45
 70
     1
102
RTVSPost2010Prop46
 90
       50
102
RTVSPost2010PropOp46
 70
     1
102
RTVSPost2010Prop47
 90
       50
102
RTVSPost2010PropOp47
 70
     1
102
RTVSPost2010Prop48
 90
       50
102
RTVSPost2010PropOp48
 70
     1
102
RTVSPost2010Prop49
280
     0
102
RTVSPost2010PropOp49
 70
     1
102
RTVSPost2010Prop50
 90
       50
102
RTVSPost2010PropOp50
 70
     1
102
RTVSPost2010Prop51ColorIndex
 90
      256
102
RTVSPost2010Prop51ColorRGB
 90
-16777216
102
RTVSPost2010PropOp51
 70
     0
102
RTVSPost2010Prop52
140
1.0
102
RTVSPost2010PropOp52
 70
     0
102
RTVSPost2010Prop53
 90
        2
102
RTVSPost2010PropOp53
 70
     1
102
RTVSPost2010Prop54
  1
strokes_ogs.tif
102
RTVSPost2010PropOp54
 70
     1
102
RTVSPost2010Prop55
280
     0
102
RTVSPost2010PropOp55
 70
     1
102
RTVSPost2010Prop56
140
1.0
102
RTVSPost2010PropOp56
 70
     1
102
RTVSPost2010Prop57
140
1.0
102
RTVSPost2010PropOp57
 70
     1
102
RTVSPropertyOp0
 70
     1
102
RTVSPropertyOp1
 70
     1
102
RTVSPropertyOp2
 70
     1
102
RTVSPropertyOp3
 70
     1
102
RTVSPropertyOp4
 70
     1
102
RTVSPropertyOp5
 70
     1
102
RTVSPropertyOp6
 70
     1
102
RTVSPropertyOp7
 70
     1
102
RTVSPropertyOp8
 70
     1
102
RTVSPropertyOp9
 70
     1
102
RTVSPropertyOp10
 70
     1
102
RTVSPropertyOp11
 70
     1
102
RTVSPropertyOp12
 70
     1
102
RTVSPropertyOp13
 70
     1
102
RTVSPropertyOp14
 70
     1
102
RTVSPropertyOp15
 70
     1
102
RTVSPropertyOp16
 70
     1
102
RTVSPropertyOp17
 70
     1
102
RTVSPropertyOp18
 70
     1
102
RTVSPropertyOp19
 70
     1
102
RTVSPropertyOp20
 70
     1
102
RTVSPropertyOp21
 70
     1
102
RTVSPropertyOp22
 70
     1
102
RTVSPropertyOp23
 70
     1
102
RTVSPropertyOp24
 70
     1
102
RTVSPropertyOp25
 70
     1
102
RTVSPropertyOp26
 70
     1
102
RTVSPropertyOp27
 70
     1
102
RTVSPropertyOp28
 70
     1
102
RTVSPropertyOp29
 70
     1
102
RTVSPropertyOp30
 70
     1
102
RTVSPropertyOp31
 70
     1
102
RTVSPropertyOp32
 70
     1
102
RTVSPropertyOp33
 70
     1
102
RTVSPropertyOp34
 70
     1
102
RTVSPropertyOp35
 70
     1
102
RTVSPropertyOp36
 70
     1
102
RTVSPropertyOp37
 70
     1
102
RTVSPropertyOp38
 70
     1
102
RTVSPropertyOp39
 70
     1
102
RTVSPropertyOp40
 70
     1
102
RTVSPropertyOp41
 70
     1
102
RTVSPropertyOp42
 70
     1
102
RTVSPropertyOp43
 70
     1
102
RTVSPropertyOp44
 70
     1
102
RTVSPropertyOp45
 70
     1
102
RTVSPropertyOp46
 70
     1
102
RTVSPropertyOp47
 70
     1
102
RTVSPropertyOp48
 70
     1
102
RTVSPropertyOp49
 70
     1
102
RTVSPropertyOp50
 70
     1
102
RTVSPropertyOp51
 70
     0
102
RTVSPropertyOp52
 70
     0
102
RTVSPropertyOp53
 70
     1
102
RTVSPropertyOp54
 70
     1
102
RTVSPropertyOp55
 70
     1
102
RTVSPropertyOp56
 70
     1
102
RTVSPropertyOp57
 70
     1
102
RTVSPropertyOp58
 70
     1
102
RTVSPropertyOp59
 70
     1
102
RTVSPropertyOp60
 70
     1
102
RTVSPropertyOp61
 70
     1
102
RTVSPropertyOp62
 70
     1
  0
XRECORD
  5
839F
102
{ACAD_REACTORS
330
839E
102
}
330
839E
100
AcDbXrecord
280
     1
102
RTVSPost2010Prop28
280
     0
102
RTVSPost2010PropOp28
 70
     1
102
RTVSPost2010Prop29
280
     1
102
RTVSPost2010PropOp29
 70
     1
102
RTVSPost2010Prop30
280
     1
102
RTVSPost2010PropOp30
 70
     1
102
RTVSPost2010Prop31
280
     0
102
RTVSPost2010PropOp31
 70
     1
102
RTVSPost2010Prop32
280
     0
102
RTVSPost2010PropOp32
 70
     1
102
RTVSPost2010Prop33
280
     0
102
RTVSPost2010PropOp33
 70
     1
102
RTVSPost2010Prop34
280
     0
102
RTVSPost2010PropOp34
 70
     1
102
RTVSPost2010Prop35
280
     0
102
RTVSPost2010PropOp35
 70
     1
102
RTVSPost2010Prop36
280
     0
102
RTVSPost2010PropOp36
 70
     1
102
RTVSPost2010Prop37
 90
       50
102
RTVSPost2010PropOp37
 70
     1
102
RTVSPost2010Prop38
140
0.0
102
RTVSPost2010PropOp38
 70
     1
102
RTVSPost2010Prop39
140
1.0
102
RTVSPost2010PropOp39
 70
     1
102
RTVSPost2010Prop40
 90
        0
102
RTVSPost2010PropOp40
 70
     1
102
RTVSPost2010Prop41ColorIndex
 90
       18
102
RTVSPost2010Prop41ColorRGB
 90
        0
102
RTVSPost2010PropOp41
 70
     1
102
RTVSPost2010Prop42
 90
       50
102
RTVSPost2010PropOp42
 70
     1
102
RTVSPost2010Prop43
 90
        3
102
RTVSPost2010PropOp43
 70
     1
102
RTVSPost2010Prop44ColorIndex
 90
        5
102
RTVSPost2010Prop44ColorRGB
 90
      255
102
RTVSPost2010PropOp44
 70
     1
102
RTVSPost2010Prop45
280
     0
102
RTVSPost2010PropOp45
 70
     1
102
RTVSPost2010Prop46
 90
       50
102
RTVSPost2010PropOp46
 70
     1
102
RTVSPost2010Prop47
 90
       50
102
RTVSPost2010PropOp47
 70
     1
102
RTVSPost2010Prop48
 90
       50
102
RTVSPost2010PropOp48
 70
     1
102
RTVSPost2010Prop49
280
     0
102
RTVSPost2010PropOp49
 70
     1
102
RTVSPost2010Prop50
 90
       50
102
RTVSPost2010PropOp50
 70
     1
102
RTVSPost2010Prop51ColorIndex
 90
      256
102
RTVSPost2010Prop51ColorRGB
 90
-16777216
102
RTVSPost2010PropOp51
 70
     0
102
RTVSPost2010Prop52
140
1.0
102
RTVSPost2010PropOp52
 70
     0
102
RTVSPost2010Prop53
 90
        2
102
RTVSPost2010PropOp53
 70
     1
102
RTVSPost2010Prop54
  1
strokes_ogs.tif
102
RTVSPost2010PropOp54
 70
     1
102
RTVSPost2010Prop55
280
     0
102
RTVSPost2010PropOp55
 70
     1
102
RTVSPost2010Prop56
140
1.0
102
RTVSPost2010PropOp56
 70
     1
102
RTVSPost2010Prop57
140
1.0
102
RTVSPost2010PropOp57
 70
     1
102
RTVSPropertyOp0
 70
     1
102
RTVSPropertyOp1
 70
     1
102
RTVSPropertyOp2
 70
     1
102
RTVSPropertyOp3
 70
     1
102
RTVSPropertyOp4
 70
     1
102
RTVSPropertyOp5
 70
     1
102
RTVSPropertyOp6
 70
     1
102
RTVSPropertyOp7
 70
     1
102
RTVSPropertyOp8
 70
     1
102
RTVSPropertyOp9
 70
     1
102
RTVSPropertyOp10
 70
     1
102
RTVSPropertyOp11
 70
     1
102
RTVSPropertyOp12
 70
     1
102
RTVSPropertyOp13
 70
     1
102
RTVSPropertyOp14
 70
     1
102
RTVSPropertyOp15
 70
     1
102
RTVSPropertyOp16
 70
     1
102
RTVSPropertyOp17
 70
     1
102
RTVSPropertyOp18
 70
     1
102
RTVSPropertyOp19
 70
     1
102
RTVSPropertyOp20
 70
     1
102
RTVSPropertyOp21
 70
     1
102
RTVSPropertyOp22
 70
     1
102
RTVSPropertyOp23
 70
     1
102
RTVSPropertyOp24
 70
     1
102
RTVSPropertyOp25
 70
     1
102
RTVSPropertyOp26
 70
     1
102
RTVSPropertyOp27
 70
     1
102
RTVSPropertyOp28
 70
     1
102
RTVSPropertyOp29
 70
     1
102
RTVSPropertyOp30
 70
     1
102
RTVSPropertyOp31
 70
     1
102
RTVSPropertyOp32
 70
     1
102
RTVSPropertyOp33
 70
     1
102
RTVSPropertyOp34
 70
     1
102
RTVSPropertyOp35
 70
     1
102
RTVSPropertyOp36
 70
     1
102
RTVSPropertyOp37
 70
     1
102
RTVSPropertyOp38
 70
     1
102
RTVSPropertyOp39
 70
     1
102
RTVSPropertyOp40
 70
     1
102
RTVSPropertyOp41
 70
     1
102
RTVSPropertyOp42
 70
     1
102
RTVSPropertyOp43
 70
     1
102
RTVSPropertyOp44
 70
     1
102
RTVSPropertyOp45
 70
     1
102
RTVSPropertyOp46
 70
     1
102
RTVSPropertyOp47
 70
     1
102
RTVSPropertyOp48
 70
     1
102
RTVSPropertyOp49
 70
     1
102
RTVSPropertyOp50
 70
     1
102
RTVSPropertyOp51
 70
     0
102
RTVSPropertyOp52
 70
     0
102
RTVSPropertyOp53
 70
     1
102
RTVSPropertyOp54
 70
     1
102
RTVSPropertyOp55
 70
     1
102
RTVSPropertyOp56
 70
     1
102
RTVSPropertyOp57
 70
     1
102
RTVSPropertyOp58
 70
     1
102
RTVSPropertyOp59
 70
     1
102
RTVSPropertyOp60
 70
     1
102
RTVSPropertyOp61
 70
     1
102
RTVSPropertyOp62
 70
     1
  0
XRECORD
  5
83B9
102
{ACAD_REACTORS
330
83B8
102
}
330
83B8
100
AcDbXrecord
280
     1
102
RTVSPost2010Prop28
280
     0
102
RTVSPost2010PropOp28
 70
     1
102
RTVSPost2010Prop29
280
     1
102
RTVSPost2010PropOp29
 70
     1
102
RTVSPost2010Prop30
280
     1
102
RTVSPost2010PropOp30
 70
     1
102
RTVSPost2010Prop31
280
     0
102
RTVSPost2010PropOp31
 70
     1
102
RTVSPost2010Prop32
280
     0
102
RTVSPost2010PropOp32
 70
     1
102
RTVSPost2010Prop33
280
     0
102
RTVSPost2010PropOp33
 70
     1
102
RTVSPost2010Prop34
280
     0
102
RTVSPost2010PropOp34
 70
     1
102
RTVSPost2010Prop35
280
     0
102
RTVSPost2010PropOp35
 70
     1
102
RTVSPost2010Prop36
280
     0
102
RTVSPost2010PropOp36
 70
     1
102
RTVSPost2010Prop37
 90
       50
102
RTVSPost2010PropOp37
 70
     0
102
RTVSPost2010Prop38
140
0.0
102
RTVSPost2010PropOp38
 70
     0
102
RTVSPost2010Prop39
140
1.0
102
RTVSPost2010PropOp39
 70
     0
102
RTVSPost2010Prop40
 90
        0
102
RTVSPost2010PropOp40
 70
     0
102
RTVSPost2010Prop41ColorIndex
 90
       18
102
RTVSPost2010Prop41ColorRGB
 90
        0
102
RTVSPost2010PropOp41
 70
     0
102
RTVSPost2010Prop42
 90
       50
102
RTVSPost2010PropOp42
 70
     0
102
RTVSPost2010Prop43
 90
        3
102
RTVSPost2010PropOp43
 70
     0
102
RTVSPost2010Prop44ColorIndex
 90
        5
102
RTVSPost2010Prop44ColorRGB
 90
      255
102
RTVSPost2010PropOp44
 70
     0
102
RTVSPost2010Prop45
280
     0
102
RTVSPost2010PropOp45
 70
     1
102
RTVSPost2010Prop46
 90
       50
102
RTVSPost2010PropOp46
 70
     0
102
RTVSPost2010Prop47
 90
       50
102
RTVSPost2010PropOp47
 70
     0
102
RTVSPost2010Prop48
 90
       50
102
RTVSPost2010PropOp48
 70
     0
102
RTVSPost2010Prop49
280
     0
102
RTVSPost2010PropOp49
 70
     1
102
RTVSPost2010Prop50
 90
       50
102
RTVSPost2010PropOp50
 70
     0
102
RTVSPost2010Prop51ColorIndex
 90
      256
102
RTVSPost2010Prop51ColorRGB
 90
-16777216
102
RTVSPost2010PropOp51
 70
     0
102
RTVSPost2010Prop52
140
1.0
102
RTVSPost2010PropOp52
 70
     0
102
RTVSPost2010Prop53
 90
        2
102
RTVSPost2010PropOp53
 70
     0
102
RTVSPost2010Prop54
  1
strokes_ogs.tif
102
RTVSPost2010PropOp54
 70
     0
102
RTVSPost2010Prop55
280
     0
102
RTVSPost2010PropOp55
 70
     1
102
RTVSPost2010Prop56
140
1.0
102
RTVSPost2010PropOp56
 70
     0
102
RTVSPost2010Prop57
140
1.0
102
RTVSPost2010PropOp57
 70
     0
102
RTVSPropertyOp0
 70
     0
102
RTVSPropertyOp1
 70
     0
102
RTVSPropertyOp2
 70
     0
102
RTVSPropertyOp3
 70
     0
102
RTVSPropertyOp4
 70
     0
102
RTVSPropertyOp5
 70
     0
102
RTVSPropertyOp6
 70
     0
102
RTVSPropertyOp7
 70
     0
102
RTVSPropertyOp8
 70
     0
102
RTVSPropertyOp9
 70
     0
102
RTVSPropertyOp10
 70
     0
102
RTVSPropertyOp11
 70
     0
102
RTVSPropertyOp12
 70
     0
102
RTVSPropertyOp13
 70
     0
102
RTVSPropertyOp14
 70
     2
102
RTVSPropertyOp15
 70
     0
102
RTVSPropertyOp16
 70
     0
102
RTVSPropertyOp17
 70
     0
102
RTVSPropertyOp18
 70
     0
102
RTVSPropertyOp19
 70
     0
102
RTVSPropertyOp20
 70
     0
102
RTVSPropertyOp21
 70
     0
102
RTVSPropertyOp22
 70
     0
102
RTVSPropertyOp23
 70
     0
102
RTVSPropertyOp24
 70
     0
102
RTVSPropertyOp25
 70
     0
102
RTVSPropertyOp26
 70
     0
102
RTVSPropertyOp27
 70
     0
102
RTVSPropertyOp28
 70
     1
102
RTVSPropertyOp29
 70
     1
102
RTVSPropertyOp30
 70
     1
102
RTVSPropertyOp31
 70
     1
102
RTVSPropertyOp32
 70
     1
102
RTVSPropertyOp33
 70
     1
102
RTVSPropertyOp34
 70
     1
102
RTVSPropertyOp35
 70
     1
102
RTVSPropertyOp36
 70
     1
102
RTVSPropertyOp37
 70
     0
102
RTVSPropertyOp38
 70
     0
102
RTVSPropertyOp39
 70
     0
102
RTVSPropertyOp40
 70
     0
102
RTVSPropertyOp41
 70
     0
102
RTVSPropertyOp42
 70
     0
102
RTVSPropertyOp43
 70
     0
102
RTVSPropertyOp44
 70
     0
102
RTVSPropertyOp45
 70
     1
102
RTVSPropertyOp46
 70
     0
102
RTVSPropertyOp47
 70
     0
102
RTVSPropertyOp48
 70
     0
102
RTVSPropertyOp49
 70
     1
102
RTVSPropertyOp50
 70
     0
102
RTVSPropertyOp51
 70
     0
102
RTVSPropertyOp52
 70
     0
102
RTVSPropertyOp53
 70
     0
102
RTVSPropertyOp54
 70
     0
102
RTVSPropertyOp55
 70
     1
102
RTVSPropertyOp56
 70
     0
102
RTVSPropertyOp57
 70
     0
102
RTVSPropertyOp58
 70
     0
102
RTVSPropertyOp59
 70
     0
102
RTVSPropertyOp60
 70
     0
102
RTVSPropertyOp61
 70
     0
102
RTVSPropertyOp62
 70
     0
  0
XRECORD
  5
83A7
102
{ACAD_REACTORS
330
83A6
102
}
330
83A6
100
AcDbXrecord
280
     1
102
RTVSPost2010Prop28
280
     0
102
RTVSPost2010PropOp28
 70
     1
102
RTVSPost2010Prop29
280
     1
102
RTVSPost2010PropOp29
 70
     1
102
RTVSPost2010Prop30
280
     1
102
RTVSPost2010PropOp30
 70
     1
102
RTVSPost2010Prop31
280
     0
102
RTVSPost2010PropOp31
 70
     1
102
RTVSPost2010Prop32
280
     0
102
RTVSPost2010PropOp32
 70
     1
102
RTVSPost2010Prop33
280
     0
102
RTVSPost2010PropOp33
 70
     1
102
RTVSPost2010Prop34
280
     0
102
RTVSPost2010PropOp34
 70
     1
102
RTVSPost2010Prop35
280
     0
102
RTVSPost2010PropOp35
 70
     1
102
RTVSPost2010Prop36
280
     0
102
RTVSPost2010PropOp36
 70
     1
102
RTVSPost2010Prop37
 90
       50
102
RTVSPost2010PropOp37
 70
     1
102
RTVSPost2010Prop38
140
0.0
102
RTVSPost2010PropOp38
 70
     1
102
RTVSPost2010Prop39
140
1.0
102
RTVSPost2010PropOp39
 70
     1
102
RTVSPost2010Prop40
 90
        0
102
RTVSPost2010PropOp40
 70
     1
102
RTVSPost2010Prop41ColorIndex
 90
       18
102
RTVSPost2010Prop41ColorRGB
 90
        0
102
RTVSPost2010PropOp41
 70
     1
102
RTVSPost2010Prop42
 90
       50
102
RTVSPost2010PropOp42
 70
     1
102
RTVSPost2010Prop43
 90
        3
102
RTVSPost2010PropOp43
 70
     1
102
RTVSPost2010Prop44ColorIndex
 90
        5
102
RTVSPost2010Prop44ColorRGB
 90
      255
102
RTVSPost2010PropOp44
 70
     1
102
RTVSPost2010Prop45
280
     0
102
RTVSPost2010PropOp45
 70
     1
102
RTVSPost2010Prop46
 90
       50
102
RTVSPost2010PropOp46
 70
     1
102
RTVSPost2010Prop47
 90
       50
102
RTVSPost2010PropOp47
 70
     1
102
RTVSPost2010Prop48
 90
       50
102
RTVSPost2010PropOp48
 70
     1
102
RTVSPost2010Prop49
280
     0
102
RTVSPost2010PropOp49
 70
     1
102
RTVSPost2010Prop50
 90
       50
102
RTVSPost2010PropOp50
 70
     1
102
RTVSPost2010Prop51ColorIndex
 90
      256
102
RTVSPost2010Prop51ColorRGB
 90
-16777216
102
RTVSPost2010PropOp51
 70
     0
102
RTVSPost2010Prop52
140
1.0
102
RTVSPost2010PropOp52
 70
     0
102
RTVSPost2010Prop53
 90
        2
102
RTVSPost2010PropOp53
 70
     1
102
RTVSPost2010Prop54
  1
strokes_ogs.tif
102
RTVSPost2010PropOp54
 70
     1
102
RTVSPost2010Prop55
280
     0
102
RTVSPost2010PropOp55
 70
     1
102
RTVSPost2010Prop56
140
1.0
102
RTVSPost2010PropOp56
 70
     1
102
RTVSPost2010Prop57
140
1.0
102
RTVSPost2010PropOp57
 70
     1
102
RTVSPropertyOp0
 70
     1
102
RTVSPropertyOp1
 70
     1
102
RTVSPropertyOp2
 70
     1
102
RTVSPropertyOp3
 70
     1
102
RTVSPropertyOp4
 70
     1
102
RTVSPropertyOp5
 70
     1
102
RTVSPropertyOp6
 70
     1
102
RTVSPropertyOp7
 70
     1
102
RTVSPropertyOp8
 70
     1
102
RTVSPropertyOp9
 70
     1
102
RTVSPropertyOp10
 70
     1
102
RTVSPropertyOp11
 70
     1
102
RTVSPropertyOp12
 70
     1
102
RTVSPropertyOp13
 70
     1
102
RTVSPropertyOp14
 70
     1
102
RTVSPropertyOp15
 70
     1
102
RTVSPropertyOp16
 70
     1
102
RTVSPropertyOp17
 70
     1
102
RTVSPropertyOp18
 70
     1
102
RTVSPropertyOp19
 70
     1
102
RTVSPropertyOp20
 70
     1
102
RTVSPropertyOp21
 70
     1
102
RTVSPropertyOp22
 70
     1
102
RTVSPropertyOp23
 70
     1
102
RTVSPropertyOp24
 70
     1
102
RTVSPropertyOp25
 70
     1
102
RTVSPropertyOp26
 70
     1
102
RTVSPropertyOp27
 70
     1
102
RTVSPropertyOp28
 70
     1
102
RTVSPropertyOp29
 70
     1
102
RTVSPropertyOp30
 70
     1
102
RTVSPropertyOp31
 70
     1
102
RTVSPropertyOp32
 70
     1
102
RTVSPropertyOp33
 70
     1
102
RTVSPropertyOp34
 70
     1
102
RTVSPropertyOp35
 70
     1
102
RTVSPropertyOp36
 70
     1
102
RTVSPropertyOp37
 70
     1
102
RTVSPropertyOp38
 70
     1
102
RTVSPropertyOp39
 70
     1
102
RTVSPropertyOp40
 70
     1
102
RTVSPropertyOp41
 70
     1
102
RTVSPropertyOp42
 70
     1
102
RTVSPropertyOp43
 70
     1
102
RTVSPropertyOp44
 70
     1
102
RTVSPropertyOp45
 70
     1
102
RTVSPropertyOp46
 70
     1
102
RTVSPropertyOp47
 70
     1
102
RTVSPropertyOp48
 70
     1
102
RTVSPropertyOp49
 70
     1
102
RTVSPropertyOp50
 70
     1
102
RTVSPropertyOp51
 70
     0
102
RTVSPropertyOp52
 70
     0
102
RTVSPropertyOp53
 70
     1
102
RTVSPropertyOp54
 70
     1
102
RTVSPropertyOp55
 70
     1
102
RTVSPropertyOp56
 70
     1
102
RTVSPropertyOp57
 70
     1
102
RTVSPropertyOp58
 70
     1
102
RTVSPropertyOp59
 70
     1
102
RTVSPropertyOp60
 70
     1
102
RTVSPropertyOp61
 70
     1
102
RTVSPropertyOp62
 70
     1
  0
XRECORD
  5
838B
102
{ACAD_REACTORS
330
838A
102
}
330
838A
100
AcDbXrecord
280
     1
102
RTVSPost2010Prop28
280
     0
102
RTVSPost2010PropOp28
 70
     1
102
RTVSPost2010Prop29
280
     1
102
RTVSPost2010PropOp29
 70
     1
102
RTVSPost2010Prop30
280
     1
102
RTVSPost2010PropOp30
 70
     1
102
RTVSPost2010Prop31
280
     0
102
RTVSPost2010PropOp31
 70
     1
102
RTVSPost2010Prop32
280
     0
102
RTVSPost2010PropOp32
 70
     1
102
RTVSPost2010Prop33
280
     0
102
RTVSPost2010PropOp33
 70
     1
102
RTVSPost2010Prop34
280
     0
102
RTVSPost2010PropOp34
 70
     1
102
RTVSPost2010Prop35
280
     0
102
RTVSPost2010PropOp35
 70
     1
102
RTVSPost2010Prop36
280
     0
102
RTVSPost2010PropOp36
 70
     1
102
RTVSPost2010Prop37
 90
       50
102
RTVSPost2010PropOp37
 70
     1
102
RTVSPost2010Prop38
140
0.0
102
RTVSPost2010PropOp38
 70
     1
102
RTVSPost2010Prop39
140
1.0
102
RTVSPost2010PropOp39
 70
     1
102
RTVSPost2010Prop40
 90
        0
102
RTVSPost2010PropOp40
 70
     1
102
RTVSPost2010Prop41ColorIndex
 90
       18
102
RTVSPost2010Prop41ColorRGB
 90
        0
102
RTVSPost2010PropOp41
 70
     1
102
RTVSPost2010Prop42
 90
       50
102
RTVSPost2010PropOp42
 70
     1
102
RTVSPost2010Prop43
 90
        3
102
RTVSPost2010PropOp43
 70
     1
102
RTVSPost2010Prop44ColorIndex
 90
        5
102
RTVSPost2010Prop44ColorRGB
 90
      255
102
RTVSPost2010PropOp44
 70
     1
102
RTVSPost2010Prop45
280
     0
102
RTVSPost2010PropOp45
 70
     1
102
RTVSPost2010Prop46
 90
       50
102
RTVSPost2010PropOp46
 70
     1
102
RTVSPost2010Prop47
 90
       50
102
RTVSPost2010PropOp47
 70
     1
102
RTVSPost2010Prop48
 90
       50
102
RTVSPost2010PropOp48
 70
     1
102
RTVSPost2010Prop49
280
     0
102
RTVSPost2010PropOp49
 70
     1
102
RTVSPost2010Prop50
 90
       50
102
RTVSPost2010PropOp50
 70
     1
102
RTVSPost2010Prop51ColorIndex
 90
      256
102
RTVSPost2010Prop51ColorRGB
 90
-16777216
102
RTVSPost2010PropOp51
 70
     0
102
RTVSPost2010Prop52
140
1.0
102
RTVSPost2010PropOp52
 70
     0
102
RTVSPost2010Prop53
 90
        2
102
RTVSPost2010PropOp53
 70
     1
102
RTVSPost2010Prop54
  1
strokes_ogs.tif
102
RTVSPost2010PropOp54
 70
     1
102
RTVSPost2010Prop55
280
     0
102
RTVSPost2010PropOp55
 70
     1
102
RTVSPost2010Prop56
140
1.0
102
RTVSPost2010PropOp56
 70
     1
102
RTVSPost2010Prop57
140
1.0
102
RTVSPost2010PropOp57
 70
     1
102
RTVSPropertyOp0
 70
     1
102
RTVSPropertyOp1
 70
     1
102
RTVSPropertyOp2
 70
     1
102
RTVSPropertyOp3
 70
     1
102
RTVSPropertyOp4
 70
     1
102
RTVSPropertyOp5
 70
     1
102
RTVSPropertyOp6
 70
     1
102
RTVSPropertyOp7
 70
     1
102
RTVSPropertyOp8
 70
     1
102
RTVSPropertyOp9
 70
     1
102
RTVSPropertyOp10
 70
     1
102
RTVSPropertyOp11
 70
     1
102
RTVSPropertyOp12
 70
     1
102
RTVSPropertyOp13
 70
     1
102
RTVSPropertyOp14
 70
     1
102
RTVSPropertyOp15
 70
     1
102
RTVSPropertyOp16
 70
     1
102
RTVSPropertyOp17
 70
     1
102
RTVSPropertyOp18
 70
     1
102
RTVSPropertyOp19
 70
     1
102
RTVSPropertyOp20
 70
     1
102
RTVSPropertyOp21
 70
     1
102
RTVSPropertyOp22
 70
     1
102
RTVSPropertyOp23
 70
     1
102
RTVSPropertyOp24
 70
     1
102
RTVSPropertyOp25
 70
     1
102
RTVSPropertyOp26
 70
     1
102
RTVSPropertyOp27
 70
     1
102
RTVSPropertyOp28
 70
     1
102
RTVSPropertyOp29
 70
     1
102
RTVSPropertyOp30
 70
     1
102
RTVSPropertyOp31
 70
     1
102
RTVSPropertyOp32
 70
     1
102
RTVSPropertyOp33
 70
     1
102
RTVSPropertyOp34
 70
     1
102
RTVSPropertyOp35
 70
     1
102
RTVSPropertyOp36
 70
     1
102
RTVSPropertyOp37
 70
     1
102
RTVSPropertyOp38
 70
     1
102
RTVSPropertyOp39
 70
     1
102
RTVSPropertyOp40
 70
     1
102
RTVSPropertyOp41
 70
     1
102
RTVSPropertyOp42
 70
     1
102
RTVSPropertyOp43
 70
     1
102
RTVSPropertyOp44
 70
     1
102
RTVSPropertyOp45
 70
     1
102
RTVSPropertyOp46
 70
     1
102
RTVSPropertyOp47
 70
     1
102
RTVSPropertyOp48
 70
     1
102
RTVSPropertyOp49
 70
     1
102
RTVSPropertyOp50
 70
     1
102
RTVSPropertyOp51
 70
     0
102
RTVSPropertyOp52
 70
     0
102
RTVSPropertyOp53
 70
     1
102
RTVSPropertyOp54
 70
     1
102
RTVSPropertyOp55
 70
     1
102
RTVSPropertyOp56
 70
     1
102
RTVSPropertyOp57
 70
     1
102
RTVSPropertyOp58
 70
     1
102
RTVSPropertyOp59
 70
     1
102
RTVSPropertyOp60
 70
     1
102
RTVSPropertyOp61
 70
     1
102
RTVSPropertyOp62
 70
     1
  0
XRECORD
  5
838D
102
{ACAD_REACTORS
330
838C
102
}
330
838C
100
AcDbXrecord
280
     1
102
RTVSPost2010Prop28
280
     0
102
RTVSPost2010PropOp28
 70
     1
102
RTVSPost2010Prop29
280
     1
102
RTVSPost2010PropOp29
 70
     1
102
RTVSPost2010Prop30
280
     1
102
RTVSPost2010PropOp30
 70
     1
102
RTVSPost2010Prop31
280
     0
102
RTVSPost2010PropOp31
 70
     1
102
RTVSPost2010Prop32
280
     0
102
RTVSPost2010PropOp32
 70
     1
102
RTVSPost2010Prop33
280
     0
102
RTVSPost2010PropOp33
 70
     1
102
RTVSPost2010Prop34
280
     0
102
RTVSPost2010PropOp34
 70
     1
102
RTVSPost2010Prop35
280
     0
102
RTVSPost2010PropOp35
 70
     1
102
RTVSPost2010Prop36
280
     0
102
RTVSPost2010PropOp36
 70
     1
102
RTVSPost2010Prop37
 90
       50
102
RTVSPost2010PropOp37
 70
     1
102
RTVSPost2010Prop38
140
0.0
102
RTVSPost2010PropOp38
 70
     1
102
RTVSPost2010Prop39
140
1.0
102
RTVSPost2010PropOp39
 70
     1
102
RTVSPost2010Prop40
 90
        0
102
RTVSPost2010PropOp40
 70
     1
102
RTVSPost2010Prop41ColorIndex
 90
       18
102
RTVSPost2010Prop41ColorRGB
 90
        0
102
RTVSPost2010PropOp41
 70
     1
102
RTVSPost2010Prop42
 90
       50
102
RTVSPost2010PropOp42
 70
     1
102
RTVSPost2010Prop43
 90
        3
102
RTVSPost2010PropOp43
 70
     1
102
RTVSPost2010Prop44ColorIndex
 90
        5
102
RTVSPost2010Prop44ColorRGB
 90
      255
102
RTVSPost2010PropOp44
 70
     1
102
RTVSPost2010Prop45
280
     0
102
RTVSPost2010PropOp45
 70
     1
102
RTVSPost2010Prop46
 90
       50
102
RTVSPost2010PropOp46
 70
     1
102
RTVSPost2010Prop47
 90
       50
102
RTVSPost2010PropOp47
 70
     1
102
RTVSPost2010Prop48
 90
       50
102
RTVSPost2010PropOp48
 70
     1
102
RTVSPost2010Prop49
280
     0
102
RTVSPost2010PropOp49
 70
     1
102
RTVSPost2010Prop50
 90
       50
102
RTVSPost2010PropOp50
 70
     1
102
RTVSPost2010Prop51ColorIndex
 90
      256
102
RTVSPost2010Prop51ColorRGB
 90
-16777216
102
RTVSPost2010PropOp51
 70
     0
102
RTVSPost2010Prop52
140
1.0
102
RTVSPost2010PropOp52
 70
     0
102
RTVSPost2010Prop53
 90
        2
102
RTVSPost2010PropOp53
 70
     1
102
RTVSPost2010Prop54
  1
strokes_ogs.tif
102
RTVSPost2010PropOp54
 70
     1
102
RTVSPost2010Prop55
280
     0
102
RTVSPost2010PropOp55
 70
     1
102
RTVSPost2010Prop56
140
1.0
102
RTVSPost2010PropOp56
 70
     1
102
RTVSPost2010Prop57
140
1.0
102
RTVSPost2010PropOp57
 70
     1
102
RTVSPropertyOp0
 70
     1
102
RTVSPropertyOp1
 70
     1
102
RTVSPropertyOp2
 70
     1
102
RTVSPropertyOp3
 70
     1
102
RTVSPropertyOp4
 70
     1
102
RTVSPropertyOp5
 70
     1
102
RTVSPropertyOp6
 70
     1
102
RTVSPropertyOp7
 70
     1
102
RTVSPropertyOp8
 70
     1
102
RTVSPropertyOp9
 70
     1
102
RTVSPropertyOp10
 70
     1
102
RTVSPropertyOp11
 70
     1
102
RTVSPropertyOp12
 70
     1
102
RTVSPropertyOp13
 70
     1
102
RTVSPropertyOp14
 70
     1
102
RTVSPropertyOp15
 70
     1
102
RTVSPropertyOp16
 70
     1
102
RTVSPropertyOp17
 70
     1
102
RTVSPropertyOp18
 70
     1
102
RTVSPropertyOp19
 70
     1
102
RTVSPropertyOp20
 70
     1
102
RTVSPropertyOp21
 70
     1
102
RTVSPropertyOp22
 70
     1
102
RTVSPropertyOp23
 70
     1
102
RTVSPropertyOp24
 70
     1
102
RTVSPropertyOp25
 70
     1
102
RTVSPropertyOp26
 70
     1
102
RTVSPropertyOp27
 70
     1
102
RTVSPropertyOp28
 70
     1
102
RTVSPropertyOp29
 70
     1
102
RTVSPropertyOp30
 70
     1
102
RTVSPropertyOp31
 70
     1
102
RTVSPropertyOp32
 70
     1
102
RTVSPropertyOp33
 70
     1
102
RTVSPropertyOp34
 70
     1
102
RTVSPropertyOp35
 70
     1
102
RTVSPropertyOp36
 70
     1
102
RTVSPropertyOp37
 70
     1
102
RTVSPropertyOp38
 70
     1
102
RTVSPropertyOp39
 70
     1
102
RTVSPropertyOp40
 70
     1
102
RTVSPropertyOp41
 70
     1
102
RTVSPropertyOp42
 70
     1
102
RTVSPropertyOp43
 70
     1
102
RTVSPropertyOp44
 70
     1
102
RTVSPropertyOp45
 70
     1
102
RTVSPropertyOp46
 70
     1
102
RTVSPropertyOp47
 70
     1
102
RTVSPropertyOp48
 70
     1
102
RTVSPropertyOp49
 70
     1
102
RTVSPropertyOp50
 70
     1
102
RTVSPropertyOp51
 70
     0
102
RTVSPropertyOp52
 70
     0
102
RTVSPropertyOp53
 70
     1
102
RTVSPropertyOp54
 70
     1
102
RTVSPropertyOp55
 70
     1
102
RTVSPropertyOp56
 70
     1
102
RTVSPropertyOp57
 70
     1
102
RTVSPropertyOp58
 70
     1
102
RTVSPropertyOp59
 70
     1
102
RTVSPropertyOp60
 70
     1
102
RTVSPropertyOp61
 70
     1
102
RTVSPropertyOp62
 70
     1
  0
XRECORD
  5
838F
102
{ACAD_REACTORS
330
838E
102
}
330
838E
100
AcDbXrecord
280
     1
102
RTVSPost2010Prop28
280
     0
102
RTVSPost2010PropOp28
 70
     1
102
RTVSPost2010Prop29
280
     1
102
RTVSPost2010PropOp29
 70
     1
102
RTVSPost2010Prop30
280
     1
102
RTVSPost2010PropOp30
 70
     1
102
RTVSPost2010Prop31
280
     0
102
RTVSPost2010PropOp31
 70
     1
102
RTVSPost2010Prop32
280
     0
102
RTVSPost2010PropOp32
 70
     1
102
RTVSPost2010Prop33
280
     0
102
RTVSPost2010PropOp33
 70
     1
102
RTVSPost2010Prop34
280
     0
102
RTVSPost2010PropOp34
 70
     1
102
RTVSPost2010Prop35
280
     0
102
RTVSPost2010PropOp35
 70
     1
102
RTVSPost2010Prop36
280
     0
102
RTVSPost2010PropOp36
 70
     1
102
RTVSPost2010Prop37
 90
       50
102
RTVSPost2010PropOp37
 70
     1
102
RTVSPost2010Prop38
140
0.0
102
RTVSPost2010PropOp38
 70
     1
102
RTVSPost2010Prop39
140
1.0
102
RTVSPost2010PropOp39
 70
     1
102
RTVSPost2010Prop40
 90
        0
102
RTVSPost2010PropOp40
 70
     1
102
RTVSPost2010Prop41ColorIndex
 90
       18
102
RTVSPost2010Prop41ColorRGB
 90
        0
102
RTVSPost2010PropOp41
 70
     1
102
RTVSPost2010Prop42
 90
       50
102
RTVSPost2010PropOp42
 70
     1
102
RTVSPost2010Prop43
 90
        3
102
RTVSPost2010PropOp43
 70
     1
102
RTVSPost2010Prop44ColorIndex
 90
        5
102
RTVSPost2010Prop44ColorRGB
 90
      255
102
RTVSPost2010PropOp44
 70
     1
102
RTVSPost2010Prop45
280
     0
102
RTVSPost2010PropOp45
 70
     1
102
RTVSPost2010Prop46
 90
       50
102
RTVSPost2010PropOp46
 70
     1
102
RTVSPost2010Prop47
 90
       50
102
RTVSPost2010PropOp47
 70
     1
102
RTVSPost2010Prop48
 90
       50
102
RTVSPost2010PropOp48
 70
     1
102
RTVSPost2010Prop49
280
     0
102
RTVSPost2010PropOp49
 70
     1
102
RTVSPost2010Prop50
 90
       50
102
RTVSPost2010PropOp50
 70
     1
102
RTVSPost2010Prop51ColorIndex
 90
      256
102
RTVSPost2010Prop51ColorRGB
 90
-16777216
102
RTVSPost2010PropOp51
 70
     0
102
RTVSPost2010Prop52
140
1.0
102
RTVSPost2010PropOp52
 70
     0
102
RTVSPost2010Prop53
 90
        2
102
RTVSPost2010PropOp53
 70
     1
102
RTVSPost2010Prop54
  1
strokes_ogs.tif
102
RTVSPost2010PropOp54
 70
     1
102
RTVSPost2010Prop55
280
     0
102
RTVSPost2010PropOp55
 70
     1
102
RTVSPost2010Prop56
140
1.0
102
RTVSPost2010PropOp56
 70
     1
102
RTVSPost2010Prop57
140
1.0
102
RTVSPost2010PropOp57
 70
     1
102
RTVSPropertyOp0
 70
     1
102
RTVSPropertyOp1
 70
     1
102
RTVSPropertyOp2
 70
     1
102
RTVSPropertyOp3
 70
     1
102
RTVSPropertyOp4
 70
     1
102
RTVSPropertyOp5
 70
     1
102
RTVSPropertyOp6
 70
     1
102
RTVSPropertyOp7
 70
     1
102
RTVSPropertyOp8
 70
     1
102
RTVSPropertyOp9
 70
     1
102
RTVSPropertyOp10
 70
     1
102
RTVSPropertyOp11
 70
     1
102
RTVSPropertyOp12
 70
     1
102
RTVSPropertyOp13
 70
     1
102
RTVSPropertyOp14
 70
     1
102
RTVSPropertyOp15
 70
     1
102
RTVSPropertyOp16
 70
     1
102
RTVSPropertyOp17
 70
     1
102
RTVSPropertyOp18
 70
     1
102
RTVSPropertyOp19
 70
     1
102
RTVSPropertyOp20
 70
     1
102
RTVSPropertyOp21
 70
     1
102
RTVSPropertyOp22
 70
     1
102
RTVSPropertyOp23
 70
     1
102
RTVSPropertyOp24
 70
     1
102
RTVSPropertyOp25
 70
     1
102
RTVSPropertyOp26
 70
     1
102
RTVSPropertyOp27
 70
     1
102
RTVSPropertyOp28
 70
     1
102
RTVSPropertyOp29
 70
     1
102
RTVSPropertyOp30
 70
     1
102
RTVSPropertyOp31
 70
     1
102
RTVSPropertyOp32
 70
     1
102
RTVSPropertyOp33
 70
     1
102
RTVSPropertyOp34
 70
     1
102
RTVSPropertyOp35
 70
     1
102
RTVSPropertyOp36
 70
     1
102
RTVSPropertyOp37
 70
     1
102
RTVSPropertyOp38
 70
     1
102
RTVSPropertyOp39
 70
     1
102
RTVSPropertyOp40
 70
     1
102
RTVSPropertyOp41
 70
     1
102
RTVSPropertyOp42
 70
     1
102
RTVSPropertyOp43
 70
     1
102
RTVSPropertyOp44
 70
     1
102
RTVSPropertyOp45
 70
     1
102
RTVSPropertyOp46
 70
     1
102
RTVSPropertyOp47
 70
     1
102
RTVSPropertyOp48
 70
     1
102
RTVSPropertyOp49
 70
     1
102
RTVSPropertyOp50
 70
     1
102
RTVSPropertyOp51
 70
     0
102
RTVSPropertyOp52
 70
     0
102
RTVSPropertyOp53
 70
     1
102
RTVSPropertyOp54
 70
     1
102
RTVSPropertyOp55
 70
     1
102
RTVSPropertyOp56
 70
     1
102
RTVSPropertyOp57
 70
     1
102
RTVSPropertyOp58
 70
     1
102
RTVSPropertyOp59
 70
     1
102
RTVSPropertyOp60
 70
     1
102
RTVSPropertyOp61
 70
     1
102
RTVSPropertyOp62
 70
     1
  0
XRECORD
  5
8391
102
{ACAD_REACTORS
330
8390
102
}
330
8390
100
AcDbXrecord
280
     1
102
RTVSPost2010Prop28
280
     0
102
RTVSPost2010PropOp28
 70
     1
102
RTVSPost2010Prop29
280
     1
102
RTVSPost2010PropOp29
 70
     1
102
RTVSPost2010Prop30
280
     1
102
RTVSPost2010PropOp30
 70
     1
102
RTVSPost2010Prop31
280
     0
102
RTVSPost2010PropOp31
 70
     1
102
RTVSPost2010Prop32
280
     0
102
RTVSPost2010PropOp32
 70
     1
102
RTVSPost2010Prop33
280
     0
102
RTVSPost2010PropOp33
 70
     1
102
RTVSPost2010Prop34
280
     0
102
RTVSPost2010PropOp34
 70
     1
102
RTVSPost2010Prop35
280
     0
102
RTVSPost2010PropOp35
 70
     1
102
RTVSPost2010Prop36
280
     0
102
RTVSPost2010PropOp36
 70
     1
102
RTVSPost2010Prop37
 90
       50
102
RTVSPost2010PropOp37
 70
     1
102
RTVSPost2010Prop38
140
0.0
102
RTVSPost2010PropOp38
 70
     1
102
RTVSPost2010Prop39
140
1.0
102
RTVSPost2010PropOp39
 70
     1
102
RTVSPost2010Prop40
 90
        0
102
RTVSPost2010PropOp40
 70
     1
102
RTVSPost2010Prop41ColorIndex
 90
       18
102
RTVSPost2010Prop41ColorRGB
 90
        0
102
RTVSPost2010PropOp41
 70
     1
102
RTVSPost2010Prop42
 90
       50
102
RTVSPost2010PropOp42
 70
     1
102
RTVSPost2010Prop43
 90
        3
102
RTVSPost2010PropOp43
 70
     1
102
RTVSPost2010Prop44ColorIndex
 90
        5
102
RTVSPost2010Prop44ColorRGB
 90
      255
102
RTVSPost2010PropOp44
 70
     1
102
RTVSPost2010Prop45
280
     0
102
RTVSPost2010PropOp45
 70
     1
102
RTVSPost2010Prop46
 90
       50
102
RTVSPost2010PropOp46
 70
     1
102
RTVSPost2010Prop47
 90
       50
102
RTVSPost2010PropOp47
 70
     1
102
RTVSPost2010Prop48
 90
       50
102
RTVSPost2010PropOp48
 70
     1
102
RTVSPost2010Prop49
280
     0
102
RTVSPost2010PropOp49
 70
     1
102
RTVSPost2010Prop50
 90
       50
102
RTVSPost2010PropOp50
 70
     1
102
RTVSPost2010Prop51ColorIndex
 90
      256
102
RTVSPost2010Prop51ColorRGB
 90
-16777216
102
RTVSPost2010PropOp51
 70
     0
102
RTVSPost2010Prop52
140
1.0
102
RTVSPost2010PropOp52
 70
     0
102
RTVSPost2010Prop53
 90
        2
102
RTVSPost2010PropOp53
 70
     1
102
RTVSPost2010Prop54
  1
strokes_ogs.tif
102
RTVSPost2010PropOp54
 70
     1
102
RTVSPost2010Prop55
280
     0
102
RTVSPost2010PropOp55
 70
     1
102
RTVSPost2010Prop56
140
1.0
102
RTVSPost2010PropOp56
 70
     1
102
RTVSPost2010Prop57
140
1.0
102
RTVSPost2010PropOp57
 70
     1
102
RTVSPropertyOp0
 70
     1
102
RTVSPropertyOp1
 70
     1
102
RTVSPropertyOp2
 70
     1
102
RTVSPropertyOp3
 70
     1
102
RTVSPropertyOp4
 70
     1
102
RTVSPropertyOp5
 70
     1
102
RTVSPropertyOp6
 70
     1
102
RTVSPropertyOp7
 70
     1
102
RTVSPropertyOp8
 70
     1
102
RTVSPropertyOp9
 70
     1
102
RTVSPropertyOp10
 70
     1
102
RTVSPropertyOp11
 70
     1
102
RTVSPropertyOp12
 70
     1
102
RTVSPropertyOp13
 70
     1
102
RTVSPropertyOp14
 70
     1
102
RTVSPropertyOp15
 70
     1
102
RTVSPropertyOp16
 70
     1
102
RTVSPropertyOp17
 70
     1
102
RTVSPropertyOp18
 70
     1
102
RTVSPropertyOp19
 70
     1
102
RTVSPropertyOp20
 70
     1
102
RTVSPropertyOp21
 70
     1
102
RTVSPropertyOp22
 70
     1
102
RTVSPropertyOp23
 70
     1
102
RTVSPropertyOp24
 70
     1
102
RTVSPropertyOp25
 70
     1
102
RTVSPropertyOp26
 70
     1
102
RTVSPropertyOp27
 70
     1
102
RTVSPropertyOp28
 70
     1
102
RTVSPropertyOp29
 70
     1
102
RTVSPropertyOp30
 70
     1
102
RTVSPropertyOp31
 70
     1
102
RTVSPropertyOp32
 70
     1
102
RTVSPropertyOp33
 70
     1
102
RTVSPropertyOp34
 70
     1
102
RTVSPropertyOp35
 70
     1
102
RTVSPropertyOp36
 70
     1
102
RTVSPropertyOp37
 70
     1
102
RTVSPropertyOp38
 70
     1
102
RTVSPropertyOp39
 70
     1
102
RTVSPropertyOp40
 70
     1
102
RTVSPropertyOp41
 70
     1
102
RTVSPropertyOp42
 70
     1
102
RTVSPropertyOp43
 70
     1
102
RTVSPropertyOp44
 70
     1
102
RTVSPropertyOp45
 70
     1
102
RTVSPropertyOp46
 70
     1
102
RTVSPropertyOp47
 70
     1
102
RTVSPropertyOp48
 70
     1
102
RTVSPropertyOp49
 70
     1
102
RTVSPropertyOp50
 70
     1
102
RTVSPropertyOp51
 70
     0
102
RTVSPropertyOp52
 70
     0
102
RTVSPropertyOp53
 70
     1
102
RTVSPropertyOp54
 70
     1
102
RTVSPropertyOp55
 70
     1
102
RTVSPropertyOp56
 70
     1
102
RTVSPropertyOp57
 70
     1
102
RTVSPropertyOp58
 70
     1
102
RTVSPropertyOp59
 70
     1
102
RTVSPropertyOp60
 70
     1
102
RTVSPropertyOp61
 70
     1
102
RTVSPropertyOp62
 70
     1
  0
XRECORD
  5
8399
102
{ACAD_REACTORS
330
8398
102
}
330
8398
100
AcDbXrecord
280
     1
102
RTVSPost2010Prop28
280
     0
102
RTVSPost2010PropOp28
 70
     1
102
RTVSPost2010Prop29
280
     1
102
RTVSPost2010PropOp29
 70
     1
102
RTVSPost2010Prop30
280
     1
102
RTVSPost2010PropOp30
 70
     1
102
RTVSPost2010Prop31
280
     0
102
RTVSPost2010PropOp31
 70
     1
102
RTVSPost2010Prop32
280
     0
102
RTVSPost2010PropOp32
 70
     1
102
RTVSPost2010Prop33
280
     0
102
RTVSPost2010PropOp33
 70
     1
102
RTVSPost2010Prop34
280
     0
102
RTVSPost2010PropOp34
 70
     1
102
RTVSPost2010Prop35
280
     0
102
RTVSPost2010PropOp35
 70
     1
102
RTVSPost2010Prop36
280
     0
102
RTVSPost2010PropOp36
 70
     1
102
RTVSPost2010Prop37
 90
       50
102
RTVSPost2010PropOp37
 70
     1
102
RTVSPost2010Prop38
140
0.0
102
RTVSPost2010PropOp38
 70
     1
102
RTVSPost2010Prop39
140
1.0
102
RTVSPost2010PropOp39
 70
     1
102
RTVSPost2010Prop40
 90
        0
102
RTVSPost2010PropOp40
 70
     1
102
RTVSPost2010Prop41ColorIndex
 90
       18
102
RTVSPost2010Prop41ColorRGB
 90
        0
102
RTVSPost2010PropOp41
 70
     1
102
RTVSPost2010Prop42
 90
       50
102
RTVSPost2010PropOp42
 70
     1
102
RTVSPost2010Prop43
 90
        3
102
RTVSPost2010PropOp43
 70
     1
102
RTVSPost2010Prop44ColorIndex
 90
        5
102
RTVSPost2010Prop44ColorRGB
 90
      255
102
RTVSPost2010PropOp44
 70
     1
102
RTVSPost2010Prop45
280
     0
102
RTVSPost2010PropOp45
 70
     1
102
RTVSPost2010Prop46
 90
       50
102
RTVSPost2010PropOp46
 70
     1
102
RTVSPost2010Prop47
 90
       50
102
RTVSPost2010PropOp47
 70
     1
102
RTVSPost2010Prop48
 90
       50
102
RTVSPost2010PropOp48
 70
     1
102
RTVSPost2010Prop49
280
     0
102
RTVSPost2010PropOp49
 70
     1
102
RTVSPost2010Prop50
 90
       50
102
RTVSPost2010PropOp50
 70
     1
102
RTVSPost2010Prop51ColorIndex
 90
      256
102
RTVSPost2010Prop51ColorRGB
 90
-16777216
102
RTVSPost2010PropOp51
 70
     0
102
RTVSPost2010Prop52
140
1.0
102
RTVSPost2010PropOp52
 70
     0
102
RTVSPost2010Prop53
 90
        2
102
RTVSPost2010PropOp53
 70
     1
102
RTVSPost2010Prop54
  1
strokes_ogs.tif
102
RTVSPost2010PropOp54
 70
     1
102
RTVSPost2010Prop55
280
     0
102
RTVSPost2010PropOp55
 70
     1
102
RTVSPost2010Prop56
140
1.0
102
RTVSPost2010PropOp56
 70
     1
102
RTVSPost2010Prop57
140
1.0
102
RTVSPost2010PropOp57
 70
     1
102
RTVSPropertyOp0
 70
     1
102
RTVSPropertyOp1
 70
     1
102
RTVSPropertyOp2
 70
     1
102
RTVSPropertyOp3
 70
     1
102
RTVSPropertyOp4
 70
     1
102
RTVSPropertyOp5
 70
     1
102
RTVSPropertyOp6
 70
     1
102
RTVSPropertyOp7
 70
     1
102
RTVSPropertyOp8
 70
     1
102
RTVSPropertyOp9
 70
     1
102
RTVSPropertyOp10
 70
     1
102
RTVSPropertyOp11
 70
     1
102
RTVSPropertyOp12
 70
     1
102
RTVSPropertyOp13
 70
     1
102
RTVSPropertyOp14
 70
     1
102
RTVSPropertyOp15
 70
     1
102
RTVSPropertyOp16
 70
     1
102
RTVSPropertyOp17
 70
     1
102
RTVSPropertyOp18
 70
     1
102
RTVSPropertyOp19
 70
     1
102
RTVSPropertyOp20
 70
     1
102
RTVSPropertyOp21
 70
     1
102
RTVSPropertyOp22
 70
     1
102
RTVSPropertyOp23
 70
     1
102
RTVSPropertyOp24
 70
     1
102
RTVSPropertyOp25
 70
     1
102
RTVSPropertyOp26
 70
     1
102
RTVSPropertyOp27
 70
     1
102
RTVSPropertyOp28
 70
     1
102
RTVSPropertyOp29
 70
     1
102
RTVSPropertyOp30
 70
     1
102
RTVSPropertyOp31
 70
     1
102
RTVSPropertyOp32
 70
     1
102
RTVSPropertyOp33
 70
     1
102
RTVSPropertyOp34
 70
     1
102
RTVSPropertyOp35
 70
     1
102
RTVSPropertyOp36
 70
     1
102
RTVSPropertyOp37
 70
     1
102
RTVSPropertyOp38
 70
     1
102
RTVSPropertyOp39
 70
     1
102
RTVSPropertyOp40
 70
     1
102
RTVSPropertyOp41
 70
     1
102
RTVSPropertyOp42
 70
     1
102
RTVSPropertyOp43
 70
     1
102
RTVSPropertyOp44
 70
     1
102
RTVSPropertyOp45
 70
     1
102
RTVSPropertyOp46
 70
     1
102
RTVSPropertyOp47
 70
     1
102
RTVSPropertyOp48
 70
     1
102
RTVSPropertyOp49
 70
     1
102
RTVSPropertyOp50
 70
     1
102
RTVSPropertyOp51
 70
     0
102
RTVSPropertyOp52
 70
     0
102
RTVSPropertyOp53
 70
     1
102
RTVSPropertyOp54
 70
     1
102
RTVSPropertyOp55
 70
     1
102
RTVSPropertyOp56
 70
     1
102
RTVSPropertyOp57
 70
     1
102
RTVSPropertyOp58
 70
     1
102
RTVSPropertyOp59
 70
     1
102
RTVSPropertyOp60
 70
     1
102
RTVSPropertyOp61
 70
     1
102
RTVSPropertyOp62
 70
     1
  0
XRECORD
  5
83B5
102
{ACAD_REACTORS
330
83B4
102
}
330
83B4
100
AcDbXrecord
280
     1
102
RTVSPost2010Prop28
280
     0
102
RTVSPost2010PropOp28
 70
     1
102
RTVSPost2010Prop29
280
     1
102
RTVSPost2010PropOp29
 70
     1
102
RTVSPost2010Prop30
280
     1
102
RTVSPost2010PropOp30
 70
     1
102
RTVSPost2010Prop31
280
     0
102
RTVSPost2010PropOp31
 70
     1
102
RTVSPost2010Prop32
280
     0
102
RTVSPost2010PropOp32
 70
     1
102
RTVSPost2010Prop33
280
     0
102
RTVSPost2010PropOp33
 70
     1
102
RTVSPost2010Prop34
280
     0
102
RTVSPost2010PropOp34
 70
     1
102
RTVSPost2010Prop35
280
     0
102
RTVSPost2010PropOp35
 70
     1
102
RTVSPost2010Prop36
280
     0
102
RTVSPost2010PropOp36
 70
     1
102
RTVSPost2010Prop37
 90
       50
102
RTVSPost2010PropOp37
 70
     0
102
RTVSPost2010Prop38
140
0.0
102
RTVSPost2010PropOp38
 70
     0
102
RTVSPost2010Prop39
140
1.0
102
RTVSPost2010PropOp39
 70
     0
102
RTVSPost2010Prop40
 90
        0
102
RTVSPost2010PropOp40
 70
     0
102
RTVSPost2010Prop41ColorIndex
 90
       18
102
RTVSPost2010Prop41ColorRGB
 90
        0
102
RTVSPost2010PropOp41
 70
     0
102
RTVSPost2010Prop42
 90
       50
102
RTVSPost2010PropOp42
 70
     0
102
RTVSPost2010Prop43
 90
        3
102
RTVSPost2010PropOp43
 70
     0
102
RTVSPost2010Prop44ColorIndex
 90
        5
102
RTVSPost2010Prop44ColorRGB
 90
      255
102
RTVSPost2010PropOp44
 70
     0
102
RTVSPost2010Prop45
280
     0
102
RTVSPost2010PropOp45
 70
     1
102
RTVSPost2010Prop46
 90
       50
102
RTVSPost2010PropOp46
 70
     0
102
RTVSPost2010Prop47
 90
       50
102
RTVSPost2010PropOp47
 70
     0
102
RTVSPost2010Prop48
 90
       50
102
RTVSPost2010PropOp48
 70
     0
102
RTVSPost2010Prop49
280
     0
102
RTVSPost2010PropOp49
 70
     1
102
RTVSPost2010Prop50
 90
       50
102
RTVSPost2010PropOp50
 70
     0
102
RTVSPost2010Prop51ColorIndex
 90
      256
102
RTVSPost2010Prop51ColorRGB
 90
-16777216
102
RTVSPost2010PropOp51
 70
     0
102
RTVSPost2010Prop52
140
1.0
102
RTVSPost2010PropOp52
 70
     0
102
RTVSPost2010Prop53
 90
        2
102
RTVSPost2010PropOp53
 70
     0
102
RTVSPost2010Prop54
  1
strokes_ogs.tif
102
RTVSPost2010PropOp54
 70
     0
102
RTVSPost2010Prop55
280
     0
102
RTVSPost2010PropOp55
 70
     1
102
RTVSPost2010Prop56
140
1.0
102
RTVSPost2010PropOp56
 70
     0
102
RTVSPost2010Prop57
140
1.0
102
RTVSPost2010PropOp57
 70
     0
102
RTVSPropertyOp0
 70
     0
102
RTVSPropertyOp1
 70
     0
102
RTVSPropertyOp2
 70
     0
102
RTVSPropertyOp3
 70
     0
102
RTVSPropertyOp4
 70
     0
102
RTVSPropertyOp5
 70
     0
102
RTVSPropertyOp6
 70
     0
102
RTVSPropertyOp7
 70
     0
102
RTVSPropertyOp8
 70
     0
102
RTVSPropertyOp9
 70
     0
102
RTVSPropertyOp10
 70
     0
102
RTVSPropertyOp11
 70
     0
102
RTVSPropertyOp12
 70
     0
102
RTVSPropertyOp13
 70
     0
102
RTVSPropertyOp14
 70
     2
102
RTVSPropertyOp15
 70
     0
102
RTVSPropertyOp16
 70
     0
102
RTVSPropertyOp17
 70
     0
102
RTVSPropertyOp18
 70
     0
102
RTVSPropertyOp19
 70
     0
102
RTVSPropertyOp20
 70
     0
102
RTVSPropertyOp21
 70
     0
102
RTVSPropertyOp22
 70
     0
102
RTVSPropertyOp23
 70
     0
102
RTVSPropertyOp24
 70
     0
102
RTVSPropertyOp25
 70
     0
102
RTVSPropertyOp26
 70
     0
102
RTVSPropertyOp27
 70
     0
102
RTVSPropertyOp28
 70
     1
102
RTVSPropertyOp29
 70
     1
102
RTVSPropertyOp30
 70
     1
102
RTVSPropertyOp31
 70
     1
102
RTVSPropertyOp32
 70
     1
102
RTVSPropertyOp33
 70
     1
102
RTVSPropertyOp34
 70
     1
102
RTVSPropertyOp35
 70
     1
102
RTVSPropertyOp36
 70
     1
102
RTVSPropertyOp37
 70
     0
102
RTVSPropertyOp38
 70
     0
102
RTVSPropertyOp39
 70
     0
102
RTVSPropertyOp40
 70
     0
102
RTVSPropertyOp41
 70
     0
102
RTVSPropertyOp42
 70
     0
102
RTVSPropertyOp43
 70
     0
102
RTVSPropertyOp44
 70
     0
102
RTVSPropertyOp45
 70
     1
102
RTVSPropertyOp46
 70
     0
102
RTVSPropertyOp47
 70
     0
102
RTVSPropertyOp48
 70
     0
102
RTVSPropertyOp49
 70
     1
102
RTVSPropertyOp50
 70
     0
102
RTVSPropertyOp51
 70
     0
102
RTVSPropertyOp52
 70
     0
102
RTVSPropertyOp53
 70
     0
102
RTVSPropertyOp54
 70
     0
102
RTVSPropertyOp55
 70
     1
102
RTVSPropertyOp56
 70
     0
102
RTVSPropertyOp57
 70
     0
102
RTVSPropertyOp58
 70
     0
102
RTVSPropertyOp59
 70
     0
102
RTVSPropertyOp60
 70
     0
102
RTVSPropertyOp61
 70
     0
102
RTVSPropertyOp62
 70
     0
  0
XRECORD
  5
83A5
102
{ACAD_REACTORS
330
83A4
102
}
330
83A4
100
AcDbXrecord
280
     1
102
RTVSPost2010Prop28
280
     0
102
RTVSPost2010PropOp28
 70
     1
102
RTVSPost2010Prop29
280
     1
102
RTVSPost2010PropOp29
 70
     1
102
RTVSPost2010Prop30
280
     1
102
RTVSPost2010PropOp30
 70
     1
102
RTVSPost2010Prop31
280
     0
102
RTVSPost2010PropOp31
 70
     1
102
RTVSPost2010Prop32
280
     0
102
RTVSPost2010PropOp32
 70
     1
102
RTVSPost2010Prop33
280
     0
102
RTVSPost2010PropOp33
 70
     1
102
RTVSPost2010Prop34
280
     0
102
RTVSPost2010PropOp34
 70
     1
102
RTVSPost2010Prop35
280
     0
102
RTVSPost2010PropOp35
 70
     1
102
RTVSPost2010Prop36
280
     0
102
RTVSPost2010PropOp36
 70
     1
102
RTVSPost2010Prop37
 90
       50
102
RTVSPost2010PropOp37
 70
     1
102
RTVSPost2010Prop38
140
0.0
102
RTVSPost2010PropOp38
 70
     1
102
RTVSPost2010Prop39
140
1.0
102
RTVSPost2010PropOp39
 70
     1
102
RTVSPost2010Prop40
 90
        0
102
RTVSPost2010PropOp40
 70
     1
102
RTVSPost2010Prop41ColorIndex
 90
       18
102
RTVSPost2010Prop41ColorRGB
 90
        0
102
RTVSPost2010PropOp41
 70
     1
102
RTVSPost2010Prop42
 90
       50
102
RTVSPost2010PropOp42
 70
     1
102
RTVSPost2010Prop43
 90
        3
102
RTVSPost2010PropOp43
 70
     1
102
RTVSPost2010Prop44ColorIndex
 90
        5
102
RTVSPost2010Prop44ColorRGB
 90
      255
102
RTVSPost2010PropOp44
 70
     1
102
RTVSPost2010Prop45
280
     0
102
RTVSPost2010PropOp45
 70
     1
102
RTVSPost2010Prop46
 90
       50
102
RTVSPost2010PropOp46
 70
     1
102
RTVSPost2010Prop47
 90
       50
102
RTVSPost2010PropOp47
 70
     1
102
RTVSPost2010Prop48
 90
       50
102
RTVSPost2010PropOp48
 70
     1
102
RTVSPost2010Prop49
280
     0
102
RTVSPost2010PropOp49
 70
     1
102
RTVSPost2010Prop50
 90
       50
102
RTVSPost2010PropOp50
 70
     1
102
RTVSPost2010Prop51ColorIndex
 90
      256
102
RTVSPost2010Prop51ColorRGB
 90
-16777216
102
RTVSPost2010PropOp51
 70
     0
102
RTVSPost2010Prop52
140
1.0
102
RTVSPost2010PropOp52
 70
     0
102
RTVSPost2010Prop53
 90
        2
102
RTVSPost2010PropOp53
 70
     1
102
RTVSPost2010Prop54
  1
strokes_ogs.tif
102
RTVSPost2010PropOp54
 70
     1
102
RTVSPost2010Prop55
280
     0
102
RTVSPost2010PropOp55
 70
     1
102
RTVSPost2010Prop56
140
1.0
102
RTVSPost2010PropOp56
 70
     1
102
RTVSPost2010Prop57
140
1.0
102
RTVSPost2010PropOp57
 70
     1
102
RTVSPropertyOp0
 70
     1
102
RTVSPropertyOp1
 70
     1
102
RTVSPropertyOp2
 70
     1
102
RTVSPropertyOp3
 70
     1
102
RTVSPropertyOp4
 70
     1
102
RTVSPropertyOp5
 70
     1
102
RTVSPropertyOp6
 70
     1
102
RTVSPropertyOp7
 70
     1
102
RTVSPropertyOp8
 70
     1
102
RTVSPropertyOp9
 70
     1
102
RTVSPropertyOp10
 70
     1
102
RTVSPropertyOp11
 70
     1
102
RTVSPropertyOp12
 70
     1
102
RTVSPropertyOp13
 70
     1
102
RTVSPropertyOp14
 70
     1
102
RTVSPropertyOp15
 70
     1
102
RTVSPropertyOp16
 70
     1
102
RTVSPropertyOp17
 70
     1
102
RTVSPropertyOp18
 70
     1
102
RTVSPropertyOp19
 70
     1
102
RTVSPropertyOp20
 70
     1
102
RTVSPropertyOp21
 70
     1
102
RTVSPropertyOp22
 70
     1
102
RTVSPropertyOp23
 70
     1
102
RTVSPropertyOp24
 70
     1
102
RTVSPropertyOp25
 70
     1
102
RTVSPropertyOp26
 70
     1
102
RTVSPropertyOp27
 70
     1
102
RTVSPropertyOp28
 70
     1
102
RTVSPropertyOp29
 70
     1
102
RTVSPropertyOp30
 70
     1
102
RTVSPropertyOp31
 70
     1
102
RTVSPropertyOp32
 70
     1
102
RTVSPropertyOp33
 70
     1
102
RTVSPropertyOp34
 70
     1
102
RTVSPropertyOp35
 70
     1
102
RTVSPropertyOp36
 70
     1
102
RTVSPropertyOp37
 70
     1
102
RTVSPropertyOp38
 70
     1
102
RTVSPropertyOp39
 70
     1
102
RTVSPropertyOp40
 70
     1
102
RTVSPropertyOp41
 70
     1
102
RTVSPropertyOp42
 70
     1
102
RTVSPropertyOp43
 70
     1
102
RTVSPropertyOp44
 70
     1
102
RTVSPropertyOp45
 70
     1
102
RTVSPropertyOp46
 70
     1
102
RTVSPropertyOp47
 70
     1
102
RTVSPropertyOp48
 70
     1
102
RTVSPropertyOp49
 70
     1
102
RTVSPropertyOp50
 70
     1
102
RTVSPropertyOp51
 70
     0
102
RTVSPropertyOp52
 70
     0
102
RTVSPropertyOp53
 70
     1
102
RTVSPropertyOp54
 70
     1
102
RTVSPropertyOp55
 70
     1
102
RTVSPropertyOp56
 70
     1
102
RTVSPropertyOp57
 70
     1
102
RTVSPropertyOp58
 70
     1
102
RTVSPropertyOp59
 70
     1
102
RTVSPropertyOp60
 70
     1
102
RTVSPropertyOp61
 70
     1
102
RTVSPropertyOp62
 70
     1
  0
XRECORD
  5
83B7
102
{ACAD_REACTORS
330
83B6
102
}
330
83B6
100
AcDbXrecord
280
     1
102
RTVSPost2010Prop28
280
     0
102
RTVSPost2010PropOp28
 70
     1
102
RTVSPost2010Prop29
280
     1
102
RTVSPost2010PropOp29
 70
     1
102
RTVSPost2010Prop30
280
     1
102
RTVSPost2010PropOp30
 70
     1
102
RTVSPost2010Prop31
280
     0
102
RTVSPost2010PropOp31
 70
     1
102
RTVSPost2010Prop32
280
     0
102
RTVSPost2010PropOp32
 70
     1
102
RTVSPost2010Prop33
280
     0
102
RTVSPost2010PropOp33
 70
     1
102
RTVSPost2010Prop34
280
     0
102
RTVSPost2010PropOp34
 70
     1
102
RTVSPost2010Prop35
280
     0
102
RTVSPost2010PropOp35
 70
     1
102
RTVSPost2010Prop36
280
     0
102
RTVSPost2010PropOp36
 70
     1
102
RTVSPost2010Prop37
 90
       50
102
RTVSPost2010PropOp37
 70
     0
102
RTVSPost2010Prop38
140
0.0
102
RTVSPost2010PropOp38
 70
     0
102
RTVSPost2010Prop39
140
1.0
102
RTVSPost2010PropOp39
 70
     0
102
RTVSPost2010Prop40
 90
        0
102
RTVSPost2010PropOp40
 70
     0
102
RTVSPost2010Prop41ColorIndex
 90
       18
102
RTVSPost2010Prop41ColorRGB
 90
        0
102
RTVSPost2010PropOp41
 70
     0
102
RTVSPost2010Prop42
 90
       50
102
RTVSPost2010PropOp42
 70
     0
102
RTVSPost2010Prop43
 90
        3
102
RTVSPost2010PropOp43
 70
     0
102
RTVSPost2010Prop44ColorIndex
 90
        5
102
RTVSPost2010Prop44ColorRGB
 90
      255
102
RTVSPost2010PropOp44
 70
     0
102
RTVSPost2010Prop45
280
     0
102
RTVSPost2010PropOp45
 70
     1
102
RTVSPost2010Prop46
 90
       50
102
RTVSPost2010PropOp46
 70
     0
102
RTVSPost2010Prop47
 90
       50
102
RTVSPost2010PropOp47
 70
     0
102
RTVSPost2010Prop48
 90
       50
102
RTVSPost2010PropOp48
 70
     0
102
RTVSPost2010Prop49
280
     0
102
RTVSPost2010PropOp49
 70
     1
102
RTVSPost2010Prop50
 90
       50
102
RTVSPost2010PropOp50
 70
     0
102
RTVSPost2010Prop51ColorIndex
 90
      256
102
RTVSPost2010Prop51ColorRGB
 90
-16777216
102
RTVSPost2010PropOp51
 70
     0
102
RTVSPost2010Prop52
140
1.0
102
RTVSPost2010PropOp52
 70
     0
102
RTVSPost2010Prop53
 90
        2
102
RTVSPost2010PropOp53
 70
     0
102
RTVSPost2010Prop54
  1
strokes_ogs.tif
102
RTVSPost2010PropOp54
 70
     0
102
RTVSPost2010Prop55
280
     0
102
RTVSPost2010PropOp55
 70
     1
102
RTVSPost2010Prop56
140
1.0
102
RTVSPost2010PropOp56
 70
     0
102
RTVSPost2010Prop57
140
1.0
102
RTVSPost2010PropOp57
 70
     0
102
RTVSPropertyOp0
 70
     0
102
RTVSPropertyOp1
 70
     0
102
RTVSPropertyOp2
 70
     0
102
RTVSPropertyOp3
 70
     0
102
RTVSPropertyOp4
 70
     0
102
RTVSPropertyOp5
 70
     0
102
RTVSPropertyOp6
 70
     0
102
RTVSPropertyOp7
 70
     0
102
RTVSPropertyOp8
 70
     0
102
RTVSPropertyOp9
 70
     0
102
RTVSPropertyOp10
 70
     0
102
RTVSPropertyOp11
 70
     0
102
RTVSPropertyOp12
 70
     0
102
RTVSPropertyOp13
 70
     0
102
RTVSPropertyOp14
 70
     2
102
RTVSPropertyOp15
 70
     0
102
RTVSPropertyOp16
 70
     0
102
RTVSPropertyOp17
 70
     0
102
RTVSPropertyOp18
 70
     0
102
RTVSPropertyOp19
 70
     0
102
RTVSPropertyOp20
 70
     0
102
RTVSPropertyOp21
 70
     0
102
RTVSPropertyOp22
 70
     0
102
RTVSPropertyOp23
 70
     0
102
RTVSPropertyOp24
 70
     0
102
RTVSPropertyOp25
 70
     0
102
RTVSPropertyOp26
 70
     0
102
RTVSPropertyOp27
 70
     0
102
RTVSPropertyOp28
 70
     1
102
RTVSPropertyOp29
 70
     1
102
RTVSPropertyOp30
 70
     1
102
RTVSPropertyOp31
 70
     1
102
RTVSPropertyOp32
 70
     1
102
RTVSPropertyOp33
 70
     1
102
RTVSPropertyOp34
 70
     1
102
RTVSPropertyOp35
 70
     1
102
RTVSPropertyOp36
 70
     1
102
RTVSPropertyOp37
 70
     0
102
RTVSPropertyOp38
 70
     0
102
RTVSPropertyOp39
 70
     0
102
RTVSPropertyOp40
 70
     0
102
RTVSPropertyOp41
 70
     0
102
RTVSPropertyOp42
 70
     0
102
RTVSPropertyOp43
 70
     0
102
RTVSPropertyOp44
 70
     0
102
RTVSPropertyOp45
 70
     1
102
RTVSPropertyOp46
 70
     0
102
RTVSPropertyOp47
 70
     0
102
RTVSPropertyOp48
 70
     0
102
RTVSPropertyOp49
 70
     1
102
RTVSPropertyOp50
 70
     0
102
RTVSPropertyOp51
 70
     0
102
RTVSPropertyOp52
 70
     0
102
RTVSPropertyOp53
 70
     0
102
RTVSPropertyOp54
 70
     0
102
RTVSPropertyOp55
 70
     1
102
RTVSPropertyOp56
 70
     0
102
RTVSPropertyOp57
 70
     0
102
RTVSPropertyOp58
 70
     0
102
RTVSPropertyOp59
 70
     0
102
RTVSPropertyOp60
 70
     0
102
RTVSPropertyOp61
 70
     0
102
RTVSPropertyOp62
 70
     0
  0
XRECORD
  5
839D
102
{ACAD_REACTORS
330
839C
102
}
330
839C
100
AcDbXrecord
280
     1
102
RTVSPost2010Prop28
280
     0
102
RTVSPost2010PropOp28
 70
     1
102
RTVSPost2010Prop29
280
     1
102
RTVSPost2010PropOp29
 70
     1
102
RTVSPost2010Prop30
280
     1
102
RTVSPost2010PropOp30
 70
     1
102
RTVSPost2010Prop31
280
     0
102
RTVSPost2010PropOp31
 70
     1
102
RTVSPost2010Prop32
280
     0
102
RTVSPost2010PropOp32
 70
     1
102
RTVSPost2010Prop33
280
     0
102
RTVSPost2010PropOp33
 70
     1
102
RTVSPost2010Prop34
280
     0
102
RTVSPost2010PropOp34
 70
     1
102
RTVSPost2010Prop35
280
     0
102
RTVSPost2010PropOp35
 70
     1
102
RTVSPost2010Prop36
280
     0
102
RTVSPost2010PropOp36
 70
     1
102
RTVSPost2010Prop37
 90
       50
102
RTVSPost2010PropOp37
 70
     1
102
RTVSPost2010Prop38
140
0.0
102
RTVSPost2010PropOp38
 70
     1
102
RTVSPost2010Prop39
140
1.0
102
RTVSPost2010PropOp39
 70
     1
102
RTVSPost2010Prop40
 90
        0
102
RTVSPost2010PropOp40
 70
     1
102
RTVSPost2010Prop41ColorIndex
 90
       18
102
RTVSPost2010Prop41ColorRGB
 90
        0
102
RTVSPost2010PropOp41
 70
     1
102
RTVSPost2010Prop42
 90
       50
102
RTVSPost2010PropOp42
 70
     1
102
RTVSPost2010Prop43
 90
        3
102
RTVSPost2010PropOp43
 70
     1
102
RTVSPost2010Prop44ColorIndex
 90
        5
102
RTVSPost2010Prop44ColorRGB
 90
      255
102
RTVSPost2010PropOp44
 70
     1
102
RTVSPost2010Prop45
280
     0
102
RTVSPost2010PropOp45
 70
     1
102
RTVSPost2010Prop46
 90
       50
102
RTVSPost2010PropOp46
 70
     1
102
RTVSPost2010Prop47
 90
       50
102
RTVSPost2010PropOp47
 70
     1
102
RTVSPost2010Prop48
 90
       50
102
RTVSPost2010PropOp48
 70
     1
102
RTVSPost2010Prop49
280
     0
102
RTVSPost2010PropOp49
 70
     1
102
RTVSPost2010Prop50
 90
       50
102
RTVSPost2010PropOp50
 70
     1
102
RTVSPost2010Prop51ColorIndex
 90
      256
102
RTVSPost2010Prop51ColorRGB
 90
-16777216
102
RTVSPost2010PropOp51
 70
     0
102
RTVSPost2010Prop52
140
1.0
102
RTVSPost2010PropOp52
 70
     0
102
RTVSPost2010Prop53
 90
        2
102
RTVSPost2010PropOp53
 70
     1
102
RTVSPost2010Prop54
  1
strokes_ogs.tif
102
RTVSPost2010PropOp54
 70
     1
102
RTVSPost2010Prop55
280
     0
102
RTVSPost2010PropOp55
 70
     1
102
RTVSPost2010Prop56
140
1.0
102
RTVSPost2010PropOp56
 70
     1
102
RTVSPost2010Prop57
140
1.0
102
RTVSPost2010PropOp57
 70
     1
102
RTVSPropertyOp0
 70
     1
102
RTVSPropertyOp1
 70
     1
102
RTVSPropertyOp2
 70
     1
102
RTVSPropertyOp3
 70
     1
102
RTVSPropertyOp4
 70
     1
102
RTVSPropertyOp5
 70
     1
102
RTVSPropertyOp6
 70
     1
102
RTVSPropertyOp7
 70
     1
102
RTVSPropertyOp8
 70
     1
102
RTVSPropertyOp9
 70
     1
102
RTVSPropertyOp10
 70
     1
102
RTVSPropertyOp11
 70
     1
102
RTVSPropertyOp12
 70
     1
102
RTVSPropertyOp13
 70
     1
102
RTVSPropertyOp14
 70
     1
102
RTVSPropertyOp15
 70
     1
102
RTVSPropertyOp16
 70
     1
102
RTVSPropertyOp17
 70
     1
102
RTVSPropertyOp18
 70
     1
102
RTVSPropertyOp19
 70
     1
102
RTVSPropertyOp20
 70
     1
102
RTVSPropertyOp21
 70
     1
102
RTVSPropertyOp22
 70
     1
102
RTVSPropertyOp23
 70
     1
102
RTVSPropertyOp24
 70
     1
102
RTVSPropertyOp25
 70
     1
102
RTVSPropertyOp26
 70
     1
102
RTVSPropertyOp27
 70
     1
102
RTVSPropertyOp28
 70
     1
102
RTVSPropertyOp29
 70
     1
102
RTVSPropertyOp30
 70
     1
102
RTVSPropertyOp31
 70
     1
102
RTVSPropertyOp32
 70
     1
102
RTVSPropertyOp33
 70
     1
102
RTVSPropertyOp34
 70
     1
102
RTVSPropertyOp35
 70
     1
102
RTVSPropertyOp36
 70
     1
102
RTVSPropertyOp37
 70
     1
102
RTVSPropertyOp38
 70
     1
102
RTVSPropertyOp39
 70
     1
102
RTVSPropertyOp40
 70
     1
102
RTVSPropertyOp41
 70
     1
102
RTVSPropertyOp42
 70
     1
102
RTVSPropertyOp43
 70
     1
102
RTVSPropertyOp44
 70
     1
102
RTVSPropertyOp45
 70
     1
102
RTVSPropertyOp46
 70
     1
102
RTVSPropertyOp47
 70
     1
102
RTVSPropertyOp48
 70
     1
102
RTVSPropertyOp49
 70
     1
102
RTVSPropertyOp50
 70
     1
102
RTVSPropertyOp51
 70
     0
102
RTVSPropertyOp52
 70
     0
102
RTVSPropertyOp53
 70
     1
102
RTVSPropertyOp54
 70
     1
102
RTVSPropertyOp55
 70
     1
102
RTVSPropertyOp56
 70
     1
102
RTVSPropertyOp57
 70
     1
102
RTVSPropertyOp58
 70
     1
102
RTVSPropertyOp59
 70
     1
102
RTVSPropertyOp60
 70
     1
102
RTVSPropertyOp61
 70
     1
102
RTVSPropertyOp62
 70
     1
  0
XRECORD
  5
83B3
102
{ACAD_REACTORS
330
83B2
102
}
330
83B2
100
AcDbXrecord
280
     1
102
RTVSPost2010Prop28
280
     0
102
RTVSPost2010PropOp28
 70
     1
102
RTVSPost2010Prop29
280
     1
102
RTVSPost2010PropOp29
 70
     1
102
RTVSPost2010Prop30
280
     1
102
RTVSPost2010PropOp30
 70
     1
102
RTVSPost2010Prop31
280
     0
102
RTVSPost2010PropOp31
 70
     1
102
RTVSPost2010Prop32
280
     0
102
RTVSPost2010PropOp32
 70
     1
102
RTVSPost2010Prop33
280
     0
102
RTVSPost2010PropOp33
 70
     1
102
RTVSPost2010Prop34
280
     0
102
RTVSPost2010PropOp34
 70
     1
102
RTVSPost2010Prop35
280
     0
102
RTVSPost2010PropOp35
 70
     1
102
RTVSPost2010Prop36
280
     0
102
RTVSPost2010PropOp36
 70
     1
102
RTVSPost2010Prop37
 90
       50
102
RTVSPost2010PropOp37
 70
     1
102
RTVSPost2010Prop38
140
0.0
102
RTVSPost2010PropOp38
 70
     1
102
RTVSPost2010Prop39
140
1.0
102
RTVSPost2010PropOp39
 70
     1
102
RTVSPost2010Prop40
 90
        0
102
RTVSPost2010PropOp40
 70
     1
102
RTVSPost2010Prop41ColorIndex
 90
       18
102
RTVSPost2010Prop41ColorRGB
 90
        0
102
RTVSPost2010PropOp41
 70
     1
102
RTVSPost2010Prop42
 90
       50
102
RTVSPost2010PropOp42
 70
     1
102
RTVSPost2010Prop43
 90
        3
102
RTVSPost2010PropOp43
 70
     1
102
RTVSPost2010Prop44ColorIndex
 90
        5
102
RTVSPost2010Prop44ColorRGB
 90
      255
102
RTVSPost2010PropOp44
 70
     1
102
RTVSPost2010Prop45
280
     0
102
RTVSPost2010PropOp45
 70
     1
102
RTVSPost2010Prop46
 90
       50
102
RTVSPost2010PropOp46
 70
     1
102
RTVSPost2010Prop47
 90
       50
102
RTVSPost2010PropOp47
 70
     1
102
RTVSPost2010Prop48
 90
       50
102
RTVSPost2010PropOp48
 70
     1
102
RTVSPost2010Prop49
280
     0
102
RTVSPost2010PropOp49
 70
     1
102
RTVSPost2010Prop50
 90
       50
102
RTVSPost2010PropOp50
 70
     1
102
RTVSPost2010Prop51ColorIndex
 90
      256
102
RTVSPost2010Prop51ColorRGB
 90
-16777216
102
RTVSPost2010PropOp51
 70
     0
102
RTVSPost2010Prop52
140
1.0
102
RTVSPost2010PropOp52
 70
     0
102
RTVSPost2010Prop53
 90
        2
102
RTVSPost2010PropOp53
 70
     1
102
RTVSPost2010Prop54
  1
strokes_ogs.tif
102
RTVSPost2010PropOp54
 70
     1
102
RTVSPost2010Prop55
280
     0
102
RTVSPost2010PropOp55
 70
     1
102
RTVSPost2010Prop56
140
1.0
102
RTVSPost2010PropOp56
 70
     1
102
RTVSPost2010Prop57
140
1.0
102
RTVSPost2010PropOp57
 70
     1
102
RTVSPropertyOp0
 70
     1
102
RTVSPropertyOp1
 70
     1
102
RTVSPropertyOp2
 70
     1
102
RTVSPropertyOp3
 70
     1
102
RTVSPropertyOp4
 70
     1
102
RTVSPropertyOp5
 70
     1
102
RTVSPropertyOp6
 70
     1
102
RTVSPropertyOp7
 70
     1
102
RTVSPropertyOp8
 70
     1
102
RTVSPropertyOp9
 70
     1
102
RTVSPropertyOp10
 70
     1
102
RTVSPropertyOp11
 70
     1
102
RTVSPropertyOp12
 70
     1
102
RTVSPropertyOp13
 70
     1
102
RTVSPropertyOp14
 70
     1
102
RTVSPropertyOp15
 70
     1
102
RTVSPropertyOp16
 70
     1
102
RTVSPropertyOp17
 70
     1
102
RTVSPropertyOp18
 70
     1
102
RTVSPropertyOp19
 70
     1
102
RTVSPropertyOp20
 70
     1
102
RTVSPropertyOp21
 70
     1
102
RTVSPropertyOp22
 70
     1
102
RTVSPropertyOp23
 70
     1
102
RTVSPropertyOp24
 70
     1
102
RTVSPropertyOp25
 70
     1
102
RTVSPropertyOp26
 70
     1
102
RTVSPropertyOp27
 70
     1
102
RTVSPropertyOp28
 70
     1
102
RTVSPropertyOp29
 70
     1
102
RTVSPropertyOp30
 70
     1
102
RTVSPropertyOp31
 70
     1
102
RTVSPropertyOp32
 70
     1
102
RTVSPropertyOp33
 70
     1
102
RTVSPropertyOp34
 70
     1
102
RTVSPropertyOp35
 70
     1
102
RTVSPropertyOp36
 70
     1
102
RTVSPropertyOp37
 70
     1
102
RTVSPropertyOp38
 70
     1
102
RTVSPropertyOp39
 70
     1
102
RTVSPropertyOp40
 70
     1
102
RTVSPropertyOp41
 70
     1
102
RTVSPropertyOp42
 70
     1
102
RTVSPropertyOp43
 70
     1
102
RTVSPropertyOp44
 70
     1
102
RTVSPropertyOp45
 70
     1
102
RTVSPropertyOp46
 70
     1
102
RTVSPropertyOp47
 70
     1
102
RTVSPropertyOp48
 70
     1
102
RTVSPropertyOp49
 70
     1
102
RTVSPropertyOp50
 70
     1
102
RTVSPropertyOp51
 70
     0
102
RTVSPropertyOp52
 70
     0
102
RTVSPropertyOp53
 70
     1
102
RTVSPropertyOp54
 70
     1
102
RTVSPropertyOp55
 70
     1
102
RTVSPropertyOp56
 70
     1
102
RTVSPropertyOp57
 70
     1
102
RTVSPropertyOp58
 70
     1
102
RTVSPropertyOp59
 70
     1
102
RTVSPropertyOp60
 70
     1
102
RTVSPropertyOp61
 70
     1
102
RTVSPropertyOp62
 70
     1
  0
XRECORD
  5
83B1
102
{ACAD_REACTORS
330
83B0
102
}
330
83B0
100
AcDbXrecord
280
     1
102
RTVSPost2010Prop28
280
     0
102
RTVSPost2010PropOp28
 70
     1
102
RTVSPost2010Prop29
280
     1
102
RTVSPost2010PropOp29
 70
     1
102
RTVSPost2010Prop30
280
     1
102
RTVSPost2010PropOp30
 70
     1
102
RTVSPost2010Prop31
280
     0
102
RTVSPost2010PropOp31
 70
     1
102
RTVSPost2010Prop32
280
     0
102
RTVSPost2010PropOp32
 70
     1
102
RTVSPost2010Prop33
280
     0
102
RTVSPost2010PropOp33
 70
     1
102
RTVSPost2010Prop34
280
     0
102
RTVSPost2010PropOp34
 70
     1
102
RTVSPost2010Prop35
280
     0
102
RTVSPost2010PropOp35
 70
     1
102
RTVSPost2010Prop36
280
     0
102
RTVSPost2010PropOp36
 70
     1
102
RTVSPost2010Prop37
 90
       50
102
RTVSPost2010PropOp37
 70
     1
102
RTVSPost2010Prop38
140
0.0
102
RTVSPost2010PropOp38
 70
     1
102
RTVSPost2010Prop39
140
1.0
102
RTVSPost2010PropOp39
 70
     1
102
RTVSPost2010Prop40
 90
        0
102
RTVSPost2010PropOp40
 70
     1
102
RTVSPost2010Prop41ColorIndex
 90
       18
102
RTVSPost2010Prop41ColorRGB
 90
        0
102
RTVSPost2010PropOp41
 70
     1
102
RTVSPost2010Prop42
 90
       50
102
RTVSPost2010PropOp42
 70
     1
102
RTVSPost2010Prop43
 90
        3
102
RTVSPost2010PropOp43
 70
     1
102
RTVSPost2010Prop44ColorIndex
 90
        5
102
RTVSPost2010Prop44ColorRGB
 90
      255
102
RTVSPost2010PropOp44
 70
     1
102
RTVSPost2010Prop45
280
     0
102
RTVSPost2010PropOp45
 70
     1
102
RTVSPost2010Prop46
 90
       50
102
RTVSPost2010PropOp46
 70
     1
102
RTVSPost2010Prop47
 90
       50
102
RTVSPost2010PropOp47
 70
     1
102
RTVSPost2010Prop48
 90
       50
102
RTVSPost2010PropOp48
 70
     1
102
RTVSPost2010Prop49
280
     0
102
RTVSPost2010PropOp49
 70
     1
102
RTVSPost2010Prop50
 90
       50
102
RTVSPost2010PropOp50
 70
     1
102
RTVSPost2010Prop51ColorIndex
 90
      256
102
RTVSPost2010Prop51ColorRGB
 90
-16777216
102
RTVSPost2010PropOp51
 70
     0
102
RTVSPost2010Prop52
140
1.0
102
RTVSPost2010PropOp52
 70
     0
102
RTVSPost2010Prop53
 90
        2
102
RTVSPost2010PropOp53
 70
     1
102
RTVSPost2010Prop54
  1
strokes_ogs.tif
102
RTVSPost2010PropOp54
 70
     1
102
RTVSPost2010Prop55
280
     0
102
RTVSPost2010PropOp55
 70
     1
102
RTVSPost2010Prop56
140
1.0
102
RTVSPost2010PropOp56
 70
     1
102
RTVSPost2010Prop57
140
1.0
102
RTVSPost2010PropOp57
 70
     1
102
RTVSPropertyOp0
 70
     1
102
RTVSPropertyOp1
 70
     1
102
RTVSPropertyOp2
 70
     1
102
RTVSPropertyOp3
 70
     1
102
RTVSPropertyOp4
 70
     1
102
RTVSPropertyOp5
 70
     1
102
RTVSPropertyOp6
 70
     1
102
RTVSPropertyOp7
 70
     1
102
RTVSPropertyOp8
 70
     1
102
RTVSPropertyOp9
 70
     1
102
RTVSPropertyOp10
 70
     1
102
RTVSPropertyOp11
 70
     1
102
RTVSPropertyOp12
 70
     1
102
RTVSPropertyOp13
 70
     1
102
RTVSPropertyOp14
 70
     1
102
RTVSPropertyOp15
 70
     1
102
RTVSPropertyOp16
 70
     1
102
RTVSPropertyOp17
 70
     1
102
RTVSPropertyOp18
 70
     1
102
RTVSPropertyOp19
 70
     1
102
RTVSPropertyOp20
 70
     1
102
RTVSPropertyOp21
 70
     1
102
RTVSPropertyOp22
 70
     1
102
RTVSPropertyOp23
 70
     1
102
RTVSPropertyOp24
 70
     1
102
RTVSPropertyOp25
 70
     1
102
RTVSPropertyOp26
 70
     1
102
RTVSPropertyOp27
 70
     1
102
RTVSPropertyOp28
 70
     1
102
RTVSPropertyOp29
 70
     1
102
RTVSPropertyOp30
 70
     1
102
RTVSPropertyOp31
 70
     1
102
RTVSPropertyOp32
 70
     1
102
RTVSPropertyOp33
 70
     1
102
RTVSPropertyOp34
 70
     1
102
RTVSPropertyOp35
 70
     1
102
RTVSPropertyOp36
 70
     1
102
RTVSPropertyOp37
 70
     1
102
RTVSPropertyOp38
 70
     1
102
RTVSPropertyOp39
 70
     1
102
RTVSPropertyOp40
 70
     1
102
RTVSPropertyOp41
 70
     1
102
RTVSPropertyOp42
 70
     1
102
RTVSPropertyOp43
 70
     1
102
RTVSPropertyOp44
 70
     1
102
RTVSPropertyOp45
 70
     1
102
RTVSPropertyOp46
 70
     1
102
RTVSPropertyOp47
 70
     1
102
RTVSPropertyOp48
 70
     1
102
RTVSPropertyOp49
 70
     1
102
RTVSPropertyOp50
 70
     1
102
RTVSPropertyOp51
 70
     0
102
RTVSPropertyOp52
 70
     0
102
RTVSPropertyOp53
 70
     1
102
RTVSPropertyOp54
 70
     1
102
RTVSPropertyOp55
 70
     1
102
RTVSPropertyOp56
 70
     1
102
RTVSPropertyOp57
 70
     1
102
RTVSPropertyOp58
 70
     1
102
RTVSPropertyOp59
 70
     1
102
RTVSPropertyOp60
 70
     1
102
RTVSPropertyOp61
 70
     1
102
RTVSPropertyOp62
 70
     1
  0
XRECORD
  5
83AB
102
{ACAD_REACTORS
330
83AA
102
}
330
83AA
100
AcDbXrecord
280
     1
102
RTVSPost2010Prop28
280
     0
102
RTVSPost2010PropOp28
 70
     1
102
RTVSPost2010Prop29
280
     1
102
RTVSPost2010PropOp29
 70
     1
102
RTVSPost2010Prop30
280
     1
102
RTVSPost2010PropOp30
 70
     1
102
RTVSPost2010Prop31
280
     0
102
RTVSPost2010PropOp31
 70
     1
102
RTVSPost2010Prop32
280
     0
102
RTVSPost2010PropOp32
 70
     1
102
RTVSPost2010Prop33
280
     0
102
RTVSPost2010PropOp33
 70
     1
102
RTVSPost2010Prop34
280
     0
102
RTVSPost2010PropOp34
 70
     1
102
RTVSPost2010Prop35
280
     0
102
RTVSPost2010PropOp35
 70
     1
102
RTVSPost2010Prop36
280
     0
102
RTVSPost2010PropOp36
 70
     1
102
RTVSPost2010Prop37
 90
       50
102
RTVSPost2010PropOp37
 70
     1
102
RTVSPost2010Prop38
140
0.0
102
RTVSPost2010PropOp38
 70
     1
102
RTVSPost2010Prop39
140
1.0
102
RTVSPost2010PropOp39
 70
     1
102
RTVSPost2010Prop40
 90
        0
102
RTVSPost2010PropOp40
 70
     1
102
RTVSPost2010Prop41ColorIndex
 90
       18
102
RTVSPost2010Prop41ColorRGB
 90
        0
102
RTVSPost2010PropOp41
 70
     1
102
RTVSPost2010Prop42
 90
       50
102
RTVSPost2010PropOp42
 70
     1
102
RTVSPost2010Prop43
 90
        3
102
RTVSPost2010PropOp43
 70
     1
102
RTVSPost2010Prop44ColorIndex
 90
        5
102
RTVSPost2010Prop44ColorRGB
 90
      255
102
RTVSPost2010PropOp44
 70
     1
102
RTVSPost2010Prop45
280
     0
102
RTVSPost2010PropOp45
 70
     1
102
RTVSPost2010Prop46
 90
       50
102
RTVSPost2010PropOp46
 70
     1
102
RTVSPost2010Prop47
 90
       50
102
RTVSPost2010PropOp47
 70
     1
102
RTVSPost2010Prop48
 90
       50
102
RTVSPost2010PropOp48
 70
     1
102
RTVSPost2010Prop49
280
     0
102
RTVSPost2010PropOp49
 70
     1
102
RTVSPost2010Prop50
 90
       50
102
RTVSPost2010PropOp50
 70
     1
102
RTVSPost2010Prop51ColorIndex
 90
      256
102
RTVSPost2010Prop51ColorRGB
 90
-16777216
102
RTVSPost2010PropOp51
 70
     0
102
RTVSPost2010Prop52
140
1.0
102
RTVSPost2010PropOp52
 70
     0
102
RTVSPost2010Prop53
 90
        2
102
RTVSPost2010PropOp53
 70
     1
102
RTVSPost2010Prop54
  1
strokes_ogs.tif
102
RTVSPost2010PropOp54
 70
     1
102
RTVSPost2010Prop55
280
     0
102
RTVSPost2010PropOp55
 70
     1
102
RTVSPost2010Prop56
140
1.0
102
RTVSPost2010PropOp56
 70
     1
102
RTVSPost2010Prop57
140
1.0
102
RTVSPost2010PropOp57
 70
     1
102
RTVSPropertyOp0
 70
     1
102
RTVSPropertyOp1
 70
     1
102
RTVSPropertyOp2
 70
     1
102
RTVSPropertyOp3
 70
     1
102
RTVSPropertyOp4
 70
     1
102
RTVSPropertyOp5
 70
     1
102
RTVSPropertyOp6
 70
     1
102
RTVSPropertyOp7
 70
     1
102
RTVSPropertyOp8
 70
     1
102
RTVSPropertyOp9
 70
     1
102
RTVSPropertyOp10
 70
     1
102
RTVSPropertyOp11
 70
     1
102
RTVSPropertyOp12
 70
     1
102
RTVSPropertyOp13
 70
     1
102
RTVSPropertyOp14
 70
     1
102
RTVSPropertyOp15
 70
     1
102
RTVSPropertyOp16
 70
     1
102
RTVSPropertyOp17
 70
     1
102
RTVSPropertyOp18
 70
     1
102
RTVSPropertyOp19
 70
     1
102
RTVSPropertyOp20
 70
     1
102
RTVSPropertyOp21
 70
     1
102
RTVSPropertyOp22
 70
     1
102
RTVSPropertyOp23
 70
     1
102
RTVSPropertyOp24
 70
     1
102
RTVSPropertyOp25
 70
     1
102
RTVSPropertyOp26
 70
     1
102
RTVSPropertyOp27
 70
     1
102
RTVSPropertyOp28
 70
     1
102
RTVSPropertyOp29
 70
     1
102
RTVSPropertyOp30
 70
     1
102
RTVSPropertyOp31
 70
     1
102
RTVSPropertyOp32
 70
     1
102
RTVSPropertyOp33
 70
     1
102
RTVSPropertyOp34
 70
     1
102
RTVSPropertyOp35
 70
     1
102
RTVSPropertyOp36
 70
     1
102
RTVSPropertyOp37
 70
     1
102
RTVSPropertyOp38
 70
     1
102
RTVSPropertyOp39
 70
     1
102
RTVSPropertyOp40
 70
     1
102
RTVSPropertyOp41
 70
     1
102
RTVSPropertyOp42
 70
     1
102
RTVSPropertyOp43
 70
     1
102
RTVSPropertyOp44
 70
     1
102
RTVSPropertyOp45
 70
     1
102
RTVSPropertyOp46
 70
     1
102
RTVSPropertyOp47
 70
     1
102
RTVSPropertyOp48
 70
     1
102
RTVSPropertyOp49
 70
     1
102
RTVSPropertyOp50
 70
     1
102
RTVSPropertyOp51
 70
     0
102
RTVSPropertyOp52
 70
     0
102
RTVSPropertyOp53
 70
     1
102
RTVSPropertyOp54
 70
     1
102
RTVSPropertyOp55
 70
     1
102
RTVSPropertyOp56
 70
     1
102
RTVSPropertyOp57
 70
     1
102
RTVSPropertyOp58
 70
     1
102
RTVSPropertyOp59
 70
     1
102
RTVSPropertyOp60
 70
     1
102
RTVSPropertyOp61
 70
     1
102
RTVSPropertyOp62
 70
     1
  0
XRECORD
  5
83AD
102
{ACAD_REACTORS
330
83AC
102
}
330
83AC
100
AcDbXrecord
280
     1
102
RTVSPost2010Prop28
280
     0
102
RTVSPost2010PropOp28
 70
     1
102
RTVSPost2010Prop29
280
     1
102
RTVSPost2010PropOp29
 70
     1
102
RTVSPost2010Prop30
280
     1
102
RTVSPost2010PropOp30
 70
     1
102
RTVSPost2010Prop31
280
     0
102
RTVSPost2010PropOp31
 70
     1
102
RTVSPost2010Prop32
280
     0
102
RTVSPost2010PropOp32
 70
     1
102
RTVSPost2010Prop33
280
     0
102
RTVSPost2010PropOp33
 70
     1
102
RTVSPost2010Prop34
280
     0
102
RTVSPost2010PropOp34
 70
     1
102
RTVSPost2010Prop35
280
     0
102
RTVSPost2010PropOp35
 70
     1
102
RTVSPost2010Prop36
280
     0
102
RTVSPost2010PropOp36
 70
     1
102
RTVSPost2010Prop37
 90
       50
102
RTVSPost2010PropOp37
 70
     1
102
RTVSPost2010Prop38
140
0.0
102
RTVSPost2010PropOp38
 70
     1
102
RTVSPost2010Prop39
140
1.0
102
RTVSPost2010PropOp39
 70
     1
102
RTVSPost2010Prop40
 90
        0
102
RTVSPost2010PropOp40
 70
     1
102
RTVSPost2010Prop41ColorIndex
 90
       18
102
RTVSPost2010Prop41ColorRGB
 90
        0
102
RTVSPost2010PropOp41
 70
     1
102
RTVSPost2010Prop42
 90
       50
102
RTVSPost2010PropOp42
 70
     1
102
RTVSPost2010Prop43
 90
        3
102
RTVSPost2010PropOp43
 70
     1
102
RTVSPost2010Prop44ColorIndex
 90
        5
102
RTVSPost2010Prop44ColorRGB
 90
      255
102
RTVSPost2010PropOp44
 70
     1
102
RTVSPost2010Prop45
280
     0
102
RTVSPost2010PropOp45
 70
     1
102
RTVSPost2010Prop46
 90
       50
102
RTVSPost2010PropOp46
 70
     1
102
RTVSPost2010Prop47
 90
       50
102
RTVSPost2010PropOp47
 70
     1
102
RTVSPost2010Prop48
 90
       50
102
RTVSPost2010PropOp48
 70
     1
102
RTVSPost2010Prop49
280
     0
102
RTVSPost2010PropOp49
 70
     1
102
RTVSPost2010Prop50
 90
       50
102
RTVSPost2010PropOp50
 70
     1
102
RTVSPost2010Prop51ColorIndex
 90
      256
102
RTVSPost2010Prop51ColorRGB
 90
-16777216
102
RTVSPost2010PropOp51
 70
     0
102
RTVSPost2010Prop52
140
1.0
102
RTVSPost2010PropOp52
 70
     0
102
RTVSPost2010Prop53
 90
        2
102
RTVSPost2010PropOp53
 70
     1
102
RTVSPost2010Prop54
  1
strokes_ogs.tif
102
RTVSPost2010PropOp54
 70
     1
102
RTVSPost2010Prop55
280
     0
102
RTVSPost2010PropOp55
 70
     1
102
RTVSPost2010Prop56
140
1.0
102
RTVSPost2010PropOp56
 70
     1
102
RTVSPost2010Prop57
140
1.0
102
RTVSPost2010PropOp57
 70
     1
102
RTVSPropertyOp0
 70
     1
102
RTVSPropertyOp1
 70
     1
102
RTVSPropertyOp2
 70
     1
102
RTVSPropertyOp3
 70
     1
102
RTVSPropertyOp4
 70
     1
102
RTVSPropertyOp5
 70
     1
102
RTVSPropertyOp6
 70
     1
102
RTVSPropertyOp7
 70
     1
102
RTVSPropertyOp8
 70
     1
102
RTVSPropertyOp9
 70
     1
102
RTVSPropertyOp10
 70
     1
102
RTVSPropertyOp11
 70
     1
102
RTVSPropertyOp12
 70
     1
102
RTVSPropertyOp13
 70
     1
102
RTVSPropertyOp14
 70
     1
102
RTVSPropertyOp15
 70
     1
102
RTVSPropertyOp16
 70
     1
102
RTVSPropertyOp17
 70
     1
102
RTVSPropertyOp18
 70
     1
102
RTVSPropertyOp19
 70
     1
102
RTVSPropertyOp20
 70
     1
102
RTVSPropertyOp21
 70
     1
102
RTVSPropertyOp22
 70
     1
102
RTVSPropertyOp23
 70
     1
102
RTVSPropertyOp24
 70
     1
102
RTVSPropertyOp25
 70
     1
102
RTVSPropertyOp26
 70
     1
102
RTVSPropertyOp27
 70
     1
102
RTVSPropertyOp28
 70
     1
102
RTVSPropertyOp29
 70
     1
102
RTVSPropertyOp30
 70
     1
102
RTVSPropertyOp31
 70
     1
102
RTVSPropertyOp32
 70
     1
102
RTVSPropertyOp33
 70
     1
102
RTVSPropertyOp34
 70
     1
102
RTVSPropertyOp35
 70
     1
102
RTVSPropertyOp36
 70
     1
102
RTVSPropertyOp37
 70
     1
102
RTVSPropertyOp38
 70
     1
102
RTVSPropertyOp39
 70
     1
102
RTVSPropertyOp40
 70
     1
102
RTVSPropertyOp41
 70
     1
102
RTVSPropertyOp42
 70
     1
102
RTVSPropertyOp43
 70
     1
102
RTVSPropertyOp44
 70
     1
102
RTVSPropertyOp45
 70
     1
102
RTVSPropertyOp46
 70
     1
102
RTVSPropertyOp47
 70
     1
102
RTVSPropertyOp48
 70
     1
102
RTVSPropertyOp49
 70
     1
102
RTVSPropertyOp50
 70
     1
102
RTVSPropertyOp51
 70
     0
102
RTVSPropertyOp52
 70
     0
102
RTVSPropertyOp53
 70
     1
102
RTVSPropertyOp54
 70
     1
102
RTVSPropertyOp55
 70
     1
102
RTVSPropertyOp56
 70
     1
102
RTVSPropertyOp57
 70
     1
102
RTVSPropertyOp58
 70
     1
102
RTVSPropertyOp59
 70
     1
102
RTVSPropertyOp60
 70
     1
102
RTVSPropertyOp61
 70
     1
102
RTVSPropertyOp62
 70
     1
  0
XRECORD
  5
83A3
102
{ACAD_REACTORS
330
83A2
102
}
330
83A2
100
AcDbXrecord
280
     1
102
RTVSPost2010Prop28
280
     0
102
RTVSPost2010PropOp28
 70
     1
102
RTVSPost2010Prop29
280
     1
102
RTVSPost2010PropOp29
 70
     1
102
RTVSPost2010Prop30
280
     1
102
RTVSPost2010PropOp30
 70
     1
102
RTVSPost2010Prop31
280
     0
102
RTVSPost2010PropOp31
 70
     1
102
RTVSPost2010Prop32
280
     0
102
RTVSPost2010PropOp32
 70
     1
102
RTVSPost2010Prop33
280
     0
102
RTVSPost2010PropOp33
 70
     1
102
RTVSPost2010Prop34
280
     0
102
RTVSPost2010PropOp34
 70
     1
102
RTVSPost2010Prop35
280
     0
102
RTVSPost2010PropOp35
 70
     1
102
RTVSPost2010Prop36
280
     0
102
RTVSPost2010PropOp36
 70
     1
102
RTVSPost2010Prop37
 90
       50
102
RTVSPost2010PropOp37
 70
     1
102
RTVSPost2010Prop38
140
0.0
102
RTVSPost2010PropOp38
 70
     1
102
RTVSPost2010Prop39
140
1.0
102
RTVSPost2010PropOp39
 70
     1
102
RTVSPost2010Prop40
 90
        0
102
RTVSPost2010PropOp40
 70
     1
102
RTVSPost2010Prop41ColorIndex
 90
       18
102
RTVSPost2010Prop41ColorRGB
 90
        0
102
RTVSPost2010PropOp41
 70
     1
102
RTVSPost2010Prop42
 90
       50
102
RTVSPost2010PropOp42
 70
     1
102
RTVSPost2010Prop43
 90
        3
102
RTVSPost2010PropOp43
 70
     1
102
RTVSPost2010Prop44ColorIndex
 90
        5
102
RTVSPost2010Prop44ColorRGB
 90
      255
102
RTVSPost2010PropOp44
 70
     1
102
RTVSPost2010Prop45
280
     0
102
RTVSPost2010PropOp45
 70
     1
102
RTVSPost2010Prop46
 90
       50
102
RTVSPost2010PropOp46
 70
     1
102
RTVSPost2010Prop47
 90
       50
102
RTVSPost2010PropOp47
 70
     1
102
RTVSPost2010Prop48
 90
       50
102
RTVSPost2010PropOp48
 70
     1
102
RTVSPost2010Prop49
280
     0
102
RTVSPost2010PropOp49
 70
     1
102
RTVSPost2010Prop50
 90
       50
102
RTVSPost2010PropOp50
 70
     1
102
RTVSPost2010Prop51ColorIndex
 90
      256
102
RTVSPost2010Prop51ColorRGB
 90
-16777216
102
RTVSPost2010PropOp51
 70
     0
102
RTVSPost2010Prop52
140
1.0
102
RTVSPost2010PropOp52
 70
     0
102
RTVSPost2010Prop53
 90
        2
102
RTVSPost2010PropOp53
 70
     1
102
RTVSPost2010Prop54
  1
strokes_ogs.tif
102
RTVSPost2010PropOp54
 70
     1
102
RTVSPost2010Prop55
280
     0
102
RTVSPost2010PropOp55
 70
     1
102
RTVSPost2010Prop56
140
1.0
102
RTVSPost2010PropOp56
 70
     1
102
RTVSPost2010Prop57
140
1.0
102
RTVSPost2010PropOp57
 70
     1
102
RTVSPropertyOp0
 70
     1
102
RTVSPropertyOp1
 70
     1
102
RTVSPropertyOp2
 70
     1
102
RTVSPropertyOp3
 70
     1
102
RTVSPropertyOp4
 70
     1
102
RTVSPropertyOp5
 70
     1
102
RTVSPropertyOp6
 70
     1
102
RTVSPropertyOp7
 70
     1
102
RTVSPropertyOp8
 70
     1
102
RTVSPropertyOp9
 70
     1
102
RTVSPropertyOp10
 70
     1
102
RTVSPropertyOp11
 70
     1
102
RTVSPropertyOp12
 70
     1
102
RTVSPropertyOp13
 70
     1
102
RTVSPropertyOp14
 70
     1
102
RTVSPropertyOp15
 70
     1
102
RTVSPropertyOp16
 70
     1
102
RTVSPropertyOp17
 70
     1
102
RTVSPropertyOp18
 70
     1
102
RTVSPropertyOp19
 70
     1
102
RTVSPropertyOp20
 70
     1
102
RTVSPropertyOp21
 70
     1
102
RTVSPropertyOp22
 70
     1
102
RTVSPropertyOp23
 70
     1
102
RTVSPropertyOp24
 70
     1
102
RTVSPropertyOp25
 70
     1
102
RTVSPropertyOp26
 70
     1
102
RTVSPropertyOp27
 70
     1
102
RTVSPropertyOp28
 70
     1
102
RTVSPropertyOp29
 70
     1
102
RTVSPropertyOp30
 70
     1
102
RTVSPropertyOp31
 70
     1
102
RTVSPropertyOp32
 70
     1
102
RTVSPropertyOp33
 70
     1
102
RTVSPropertyOp34
 70
     1
102
RTVSPropertyOp35
 70
     1
102
RTVSPropertyOp36
 70
     1
102
RTVSPropertyOp37
 70
     1
102
RTVSPropertyOp38
 70
     1
102
RTVSPropertyOp39
 70
     1
102
RTVSPropertyOp40
 70
     1
102
RTVSPropertyOp41
 70
     1
102
RTVSPropertyOp42
 70
     1
102
RTVSPropertyOp43
 70
     1
102
RTVSPropertyOp44
 70
     1
102
RTVSPropertyOp45
 70
     1
102
RTVSPropertyOp46
 70
     1
102
RTVSPropertyOp47
 70
     1
102
RTVSPropertyOp48
 70
     1
102
RTVSPropertyOp49
 70
     1
102
RTVSPropertyOp50
 70
     1
102
RTVSPropertyOp51
 70
     0
102
RTVSPropertyOp52
 70
     0
102
RTVSPropertyOp53
 70
     1
102
RTVSPropertyOp54
 70
     1
102
RTVSPropertyOp55
 70
     1
102
RTVSPropertyOp56
 70
     1
102
RTVSPropertyOp57
 70
     1
102
RTVSPropertyOp58
 70
     1
102
RTVSPropertyOp59
 70
     1
102
RTVSPropertyOp60
 70
     1
102
RTVSPropertyOp61
 70
     1
102
RTVSPropertyOp62
 70
     1
  0
XRECORD
  5
8397
102
{ACAD_REACTORS
330
8396
102
}
330
8396
100
AcDbXrecord
280
     1
102
RTVSPost2010Prop28
280
     0
102
RTVSPost2010PropOp28
 70
     1
102
RTVSPost2010Prop29
280
     1
102
RTVSPost2010PropOp29
 70
     1
102
RTVSPost2010Prop30
280
     1
102
RTVSPost2010PropOp30
 70
     1
102
RTVSPost2010Prop31
280
     0
102
RTVSPost2010PropOp31
 70
     1
102
RTVSPost2010Prop32
280
     0
102
RTVSPost2010PropOp32
 70
     1
102
RTVSPost2010Prop33
280
     0
102
RTVSPost2010PropOp33
 70
     1
102
RTVSPost2010Prop34
280
     0
102
RTVSPost2010PropOp34
 70
     1
102
RTVSPost2010Prop35
280
     0
102
RTVSPost2010PropOp35
 70
     1
102
RTVSPost2010Prop36
280
     0
102
RTVSPost2010PropOp36
 70
     1
102
RTVSPost2010Prop37
 90
       50
102
RTVSPost2010PropOp37
 70
     1
102
RTVSPost2010Prop38
140
0.0
102
RTVSPost2010PropOp38
 70
     1
102
RTVSPost2010Prop39
140
1.0
102
RTVSPost2010PropOp39
 70
     1
102
RTVSPost2010Prop40
 90
        0
102
RTVSPost2010PropOp40
 70
     1
102
RTVSPost2010Prop41ColorIndex
 90
       18
102
RTVSPost2010Prop41ColorRGB
 90
        0
102
RTVSPost2010PropOp41
 70
     1
102
RTVSPost2010Prop42
 90
       50
102
RTVSPost2010PropOp42
 70
     1
102
RTVSPost2010Prop43
 90
        3
102
RTVSPost2010PropOp43
 70
     1
102
RTVSPost2010Prop44ColorIndex
 90
        5
102
RTVSPost2010Prop44ColorRGB
 90
      255
102
RTVSPost2010PropOp44
 70
     1
102
RTVSPost2010Prop45
280
     0
102
RTVSPost2010PropOp45
 70
     1
102
RTVSPost2010Prop46
 90
       50
102
RTVSPost2010PropOp46
 70
     1
102
RTVSPost2010Prop47
 90
       50
102
RTVSPost2010PropOp47
 70
     1
102
RTVSPost2010Prop48
 90
       50
102
RTVSPost2010PropOp48
 70
     1
102
RTVSPost2010Prop49
280
     0
102
RTVSPost2010PropOp49
 70
     1
102
RTVSPost2010Prop50
 90
       50
102
RTVSPost2010PropOp50
 70
     1
102
RTVSPost2010Prop51ColorIndex
 90
      256
102
RTVSPost2010Prop51ColorRGB
 90
-16777216
102
RTVSPost2010PropOp51
 70
     0
102
RTVSPost2010Prop52
140
1.0
102
RTVSPost2010PropOp52
 70
     0
102
RTVSPost2010Prop53
 90
        2
102
RTVSPost2010PropOp53
 70
     1
102
RTVSPost2010Prop54
  1
strokes_ogs.tif
102
RTVSPost2010PropOp54
 70
     1
102
RTVSPost2010Prop55
280
     0
102
RTVSPost2010PropOp55
 70
     1
102
RTVSPost2010Prop56
140
1.0
102
RTVSPost2010PropOp56
 70
     1
102
RTVSPost2010Prop57
140
1.0
102
RTVSPost2010PropOp57
 70
     1
102
RTVSPropertyOp0
 70
     1
102
RTVSPropertyOp1
 70
     1
102
RTVSPropertyOp2
 70
     1
102
RTVSPropertyOp3
 70
     1
102
RTVSPropertyOp4
 70
     1
102
RTVSPropertyOp5
 70
     1
102
RTVSPropertyOp6
 70
     1
102
RTVSPropertyOp7
 70
     1
102
RTVSPropertyOp8
 70
     1
102
RTVSPropertyOp9
 70
     1
102
RTVSPropertyOp10
 70
     1
102
RTVSPropertyOp11
 70
     1
102
RTVSPropertyOp12
 70
     1
102
RTVSPropertyOp13
 70
     1
102
RTVSPropertyOp14
 70
     1
102
RTVSPropertyOp15
 70
     1
102
RTVSPropertyOp16
 70
     1
102
RTVSPropertyOp17
 70
     1
102
RTVSPropertyOp18
 70
     1
102
RTVSPropertyOp19
 70
     1
102
RTVSPropertyOp20
 70
     1
102
RTVSPropertyOp21
 70
     1
102
RTVSPropertyOp22
 70
     1
102
RTVSPropertyOp23
 70
     1
102
RTVSPropertyOp24
 70
     1
102
RTVSPropertyOp25
 70
     1
102
RTVSPropertyOp26
 70
     1
102
RTVSPropertyOp27
 70
     1
102
RTVSPropertyOp28
 70
     1
102
RTVSPropertyOp29
 70
     1
102
RTVSPropertyOp30
 70
     1
102
RTVSPropertyOp31
 70
     1
102
RTVSPropertyOp32
 70
     1
102
RTVSPropertyOp33
 70
     1
102
RTVSPropertyOp34
 70
     1
102
RTVSPropertyOp35
 70
     1
102
RTVSPropertyOp36
 70
     1
102
RTVSPropertyOp37
 70
     1
102
RTVSPropertyOp38
 70
     1
102
RTVSPropertyOp39
 70
     1
102
RTVSPropertyOp40
 70
     1
102
RTVSPropertyOp41
 70
     1
102
RTVSPropertyOp42
 70
     1
102
RTVSPropertyOp43
 70
     1
102
RTVSPropertyOp44
 70
     1
102
RTVSPropertyOp45
 70
     1
102
RTVSPropertyOp46
 70
     1
102
RTVSPropertyOp47
 70
     1
102
RTVSPropertyOp48
 70
     1
102
RTVSPropertyOp49
 70
     1
102
RTVSPropertyOp50
 70
     1
102
RTVSPropertyOp51
 70
     0
102
RTVSPropertyOp52
 70
     0
102
RTVSPropertyOp53
 70
     1
102
RTVSPropertyOp54
 70
     1
102
RTVSPropertyOp55
 70
     1
102
RTVSPropertyOp56
 70
     1
102
RTVSPropertyOp57
 70
     1
102
RTVSPropertyOp58
 70
     1
102
RTVSPropertyOp59
 70
     1
102
RTVSPropertyOp60
 70
     1
102
RTVSPropertyOp61
 70
     1
102
RTVSPropertyOp62
 70
     1
  0
XRECORD
  5
83AF
102
{ACAD_REACTORS
330
83AE
102
}
330
83AE
100
AcDbXrecord
280
     1
102
RTVSPost2010Prop28
280
     0
102
RTVSPost2010PropOp28
 70
     1
102
RTVSPost2010Prop29
280
     1
102
RTVSPost2010PropOp29
 70
     1
102
RTVSPost2010Prop30
280
     1
102
RTVSPost2010PropOp30
 70
     1
102
RTVSPost2010Prop31
280
     0
102
RTVSPost2010PropOp31
 70
     1
102
RTVSPost2010Prop32
280
     0
102
RTVSPost2010PropOp32
 70
     1
102
RTVSPost2010Prop33
280
     0
102
RTVSPost2010PropOp33
 70
     1
102
RTVSPost2010Prop34
280
     0
102
RTVSPost2010PropOp34
 70
     1
102
RTVSPost2010Prop35
280
     0
102
RTVSPost2010PropOp35
 70
     1
102
RTVSPost2010Prop36
280
     0
102
RTVSPost2010PropOp36
 70
     1
102
RTVSPost2010Prop37
 90
       50
102
RTVSPost2010PropOp37
 70
     1
102
RTVSPost2010Prop38
140
0.0
102
RTVSPost2010PropOp38
 70
     1
102
RTVSPost2010Prop39
140
1.0
102
RTVSPost2010PropOp39
 70
     1
102
RTVSPost2010Prop40
 90
        0
102
RTVSPost2010PropOp40
 70
     1
102
RTVSPost2010Prop41ColorIndex
 90
       18
102
RTVSPost2010Prop41ColorRGB
 90
        0
102
RTVSPost2010PropOp41
 70
     1
102
RTVSPost2010Prop42
 90
       50
102
RTVSPost2010PropOp42
 70
     1
102
RTVSPost2010Prop43
 90
        3
102
RTVSPost2010PropOp43
 70
     1
102
RTVSPost2010Prop44ColorIndex
 90
        5
102
RTVSPost2010Prop44ColorRGB
 90
      255
102
RTVSPost2010PropOp44
 70
     1
102
RTVSPost2010Prop45
280
     0
102
RTVSPost2010PropOp45
 70
     1
102
RTVSPost2010Prop46
 90
       50
102
RTVSPost2010PropOp46
 70
     1
102
RTVSPost2010Prop47
 90
       50
102
RTVSPost2010PropOp47
 70
     1
102
RTVSPost2010Prop48
 90
       50
102
RTVSPost2010PropOp48
 70
     1
102
RTVSPost2010Prop49
280
     0
102
RTVSPost2010PropOp49
 70
     1
102
RTVSPost2010Prop50
 90
       50
102
RTVSPost2010PropOp50
 70
     1
102
RTVSPost2010Prop51ColorIndex
 90
      256
102
RTVSPost2010Prop51ColorRGB
 90
-16777216
102
RTVSPost2010PropOp51
 70
     0
102
RTVSPost2010Prop52
140
1.0
102
RTVSPost2010PropOp52
 70
     0
102
RTVSPost2010Prop53
 90
        2
102
RTVSPost2010PropOp53
 70
     1
102
RTVSPost2010Prop54
  1
strokes_ogs.tif
102
RTVSPost2010PropOp54
 70
     1
102
RTVSPost2010Prop55
280
     0
102
RTVSPost2010PropOp55
 70
     1
102
RTVSPost2010Prop56
140
1.0
102
RTVSPost2010PropOp56
 70
     1
102
RTVSPost2010Prop57
140
1.0
102
RTVSPost2010PropOp57
 70
     1
102
RTVSPropertyOp0
 70
     1
102
RTVSPropertyOp1
 70
     1
102
RTVSPropertyOp2
 70
     1
102
RTVSPropertyOp3
 70
     1
102
RTVSPropertyOp4
 70
     1
102
RTVSPropertyOp5
 70
     1
102
RTVSPropertyOp6
 70
     1
102
RTVSPropertyOp7
 70
     1
102
RTVSPropertyOp8
 70
     1
102
RTVSPropertyOp9
 70
     1
102
RTVSPropertyOp10
 70
     1
102
RTVSPropertyOp11
 70
     1
102
RTVSPropertyOp12
 70
     1
102
RTVSPropertyOp13
 70
     1
102
RTVSPropertyOp14
 70
     1
102
RTVSPropertyOp15
 70
     1
102
RTVSPropertyOp16
 70
     1
102
RTVSPropertyOp17
 70
     1
102
RTVSPropertyOp18
 70
     1
102
RTVSPropertyOp19
 70
     1
102
RTVSPropertyOp20
 70
     1
102
RTVSPropertyOp21
 70
     1
102
RTVSPropertyOp22
 70
     1
102
RTVSPropertyOp23
 70
     1
102
RTVSPropertyOp24
 70
     1
102
RTVSPropertyOp25
 70
     1
102
RTVSPropertyOp26
 70
     1
102
RTVSPropertyOp27
 70
     1
102
RTVSPropertyOp28
 70
     1
102
RTVSPropertyOp29
 70
     1
102
RTVSPropertyOp30
 70
     1
102
RTVSPropertyOp31
 70
     1
102
RTVSPropertyOp32
 70
     1
102
RTVSPropertyOp33
 70
     1
102
RTVSPropertyOp34
 70
     1
102
RTVSPropertyOp35
 70
     1
102
RTVSPropertyOp36
 70
     1
102
RTVSPropertyOp37
 70
     1
102
RTVSPropertyOp38
 70
     1
102
RTVSPropertyOp39
 70
     1
102
RTVSPropertyOp40
 70
     1
102
RTVSPropertyOp41
 70
     1
102
RTVSPropertyOp42
 70
     1
102
RTVSPropertyOp43
 70
     1
102
RTVSPropertyOp44
 70
     1
102
RTVSPropertyOp45
 70
     1
102
RTVSPropertyOp46
 70
     1
102
RTVSPropertyOp47
 70
     1
102
RTVSPropertyOp48
 70
     1
102
RTVSPropertyOp49
 70
     1
102
RTVSPropertyOp50
 70
     1
102
RTVSPropertyOp51
 70
     0
102
RTVSPropertyOp52
 70
     0
102
RTVSPropertyOp53
 70
     1
102
RTVSPropertyOp54
 70
     1
102
RTVSPropertyOp55
 70
     1
102
RTVSPropertyOp56
 70
     1
102
RTVSPropertyOp57
 70
     1
102
RTVSPropertyOp58
 70
     1
102
RTVSPropertyOp59
 70
     1
102
RTVSPropertyOp60
 70
     1
102
RTVSPropertyOp61
 70
     1
102
RTVSPropertyOp62
 70
     1
  0
ENDSEC
  0
EOF
