  0
SECTION
  2
HEADER
  9
$ACADVER
  1
AC1015
  9
$ACADMAINTVER
 70
    20
  9
$DWGCODEPAGE
  3
ANSI_932
  9
$INSBASE
 10
0.0
 20
0.0
 30
0.0
  9
$EXTMIN
 10
-0.1281640493871237
 20
-0.1800399741405272
 30
-0.0015258207003583
  9
$EXTMAX
 10
4200.128183607161
 20
5900.180067448153
 30
0.0000000349246037
  9
$LIMMIN
 10
0.0
 20
0.0
  9
$LIMMAX
 10
297.0
 20
210.0
  9
$ORTHOMODE
 70
     1
  9
$REGENMODE
 70
     1
  9
$FILLMODE
 70
     0
  9
$QTEXTMODE
 70
     0
  9
$MIRRTEXT
 70
     1
  9
$LTSCALE
 40
100.0
  9
$ATTMODE
 70
     1
  9
$TEXTSIZE
 40
180.0
  9
$TRACEWID
 40
0.05
  9
$TEXTSTYLE
  7
STANDARD
  9
$CLAYER
  8
3
  9
$CELTYPE
  6
ByLayer
  9
$CECOLOR
 62
   256
  9
$CELTSCALE
 40
1.0
  9
$DISPSILH
 70
     0
  9
$DIMSCALE
 40
20.0
  9
$DIMASZ
 40
2.0
  9
$DIMEXO
 40
1.0
  9
$DIMDLI
 40
10.0
  9
$DIMRND
 40
0.0
  9
$DIMDLE
 40
0.0
  9
$DIMEXE
 40
1.0
  9
$DIMTP
 40
1.0
  9
$DIMTM
 40
1.0
  9
$DIMTXT
 40
3.0
  9
$DIMCEN
 40
0.0
  9
$DIMTSZ
 40
0.0
  9
$DIMTOL
 70
     0
  9
$DIMLIM
 70
     0
  9
$DIMTIH
 70
     0
  9
$DIMTOH
 70
     0
  9
$DIMSE1
 70
     0
  9
$DIMSE2
 70
     0
  9
$DIMTAD
 70
     1
  9
$DIMZIN
 70
     8
  9
$DIMBLK
  1

  9
$DIMASO
 70
     1
  9
$DIMSHO
 70
     1
  9
$DIMPOST
  1

  9
$DIMAPOST
  1

  9
$DIMALT
 70
     0
  9
$DIMALTD
 70
     2
  9
$DIMALTF
 40
0.039
  9
$DIMLFAC
 40
1.0
  9
$DIMTOFL
 70
     1
  9
$DIMTVP
 40
0.0
  9
$DIMTIX
 70
     0
  9
$DIMSOXD
 70
     0
  9
$DIMSAH
 70
     1
  9
$DIMBLK1
  1
OPEN
  9
$DIMBLK2
  1
OPEN
  9
$DIMSTYLE
  2
IGA
  9
$DIMCLRD
 70
     0
  9
$DIMCLRE
 70
     0
  9
$DIMCLRT
 70
     0
  9
$DIMTFAC
 40
10.0
  9
$DIMGAP
 40
1.0
  9
$DIMJUST
 70
     0
  9
$DIMSD1
 70
     0
  9
$DIMSD2
 70
     0
  9
$DIMTOLJ
 70
     1
  9
$DIMTZIN
 70
     0
  9
$DIMALTZ
 70
     0
  9
$DIMALTTZ
 70
     0
  9
$DIMUPT
 70
     0
  9
$DIMDEC
 70
     4
  9
$DIMTDEC
 70
     4
  9
$DIMALTU
 70
     2
  9
$DIMALTTD
 70
     2
  9
$DIMTXSTY
  7
STANDARD
  9
$DIMAUNIT
 70
     0
  9
$DIMADEC
 70
     0
  9
$DIMALTRND
 40
0.0
  9
$DIMAZIN
 70
     0
  9
$DIMDSEP
 70
    46
  9
$DIMATFIT
 70
     3
  9
$DIMFRAC
 70
     0
  9
$DIMLDRBLK
  1
OPEN
  9
$DIMLUNIT
 70
     2
  9
$DIMLWD
 70
    -2
  9
$DIMLWE
 70
    -2
  9
$DIMTMOVE
 70
     0
  9
$LUNITS
 70
     2
  9
$LUPREC
 70
     3
  9
$SKETCHINC
 40
0.1
  9
$FILLETRAD
 40
50.0
  9
$AUNITS
 70
     0
  9
$AUPREC
 70
     0
  9
$MENU
  1
acad
  9
$ELEVATION
 40
0.0
  9
$PELEVATION
 40
0.0
  9
$THICKNESS
 40
0.0
  9
$LIMCHECK
 70
     0
  9
$CHAMFERA
 40
0.5
  9
$CHAMFERB
 40
0.5
  9
$CHAMFERC
 40
0.0
  9
$CHAMFERD
 40
0.0
  9
$SKPOLY
 70
     0
  9
$TDCREATE
 40
2451387.576625463
  9
$TDUCREATE
 40
2451387.201625463
  9
$TDUPDATE
 40
2460262.618407396
  9
$TDUUPDATE
 40
2460262.243407396
  9
$TDINDWG
 40
0.0132372685
  9
$TDUSRTIMER
 40
0.0132372338
  9
$USRTIMER
 70
     1
  9
$ANGBASE
 50
0.0
  9
$ANGDIR
 70
     0
  9
$PDMODE
 70
     0
  9
$PDSIZE
 40
0.0
  9
$PLINEWID
 40
0.0
  9
$SPLFRAME
 70
     0
  9
$SPLINETYPE
 70
     6
  9
$SPLINESEGS
 70
     8
  9
$HANDSEED
  5
82D0
  9
$SURFTAB1
 70
     6
  9
$SURFTAB2
 70
     6
  9
$SURFTYPE
 70
     6
  9
$SURFU
 70
     6
  9
$SURFV
 70
     6
  9
$UCSBASE
  2

  9
$UCSNAME
  2

  9
$UCSORG
 10
0.0
 20
0.0
 30
0.0
  9
$UCSXDIR
 10
1.0
 20
0.0
 30
0.0
  9
$UCSYDIR
 10
0.0
 20
1.0
 30
0.0
  9
$UCSORTHOREF
  2

  9
$UCSORTHOVIEW
 70
     0
  9
$UCSORGTOP
 10
0.0
 20
0.0
 30
0.0
  9
$UCSORGBOTTOM
 10
0.0
 20
0.0
 30
0.0
  9
$UCSORGLEFT
 10
0.0
 20
0.0
 30
0.0
  9
$UCSORGRIGHT
 10
0.0
 20
0.0
 30
0.0
  9
$UCSORGFRONT
 10
0.0
 20
0.0
 30
0.0
  9
$UCSORGBACK
 10
0.0
 20
0.0
 30
0.0
  9
$PUCSBASE
  2

  9
$PUCSNAME
  2

  9
$PUCSORG
 10
0.0
 20
0.0
 30
0.0
  9
$PUCSXDIR
 10
1.0
 20
0.0
 30
0.0
  9
$PUCSYDIR
 10
0.0
 20
1.0
 30
0.0
  9
$PUCSORTHOREF
  2

  9
$PUCSORTHOVIEW
 70
     0
  9
$PUCSORGTOP
 10
0.0
 20
0.0
 30
0.0
  9
$PUCSORGBOTTOM
 10
0.0
 20
0.0
 30
0.0
  9
$PUCSORGLEFT
 10
0.0
 20
0.0
 30
0.0
  9
$PUCSORGRIGHT
 10
0.0
 20
0.0
 30
0.0
  9
$PUCSORGFRONT
 10
0.0
 20
0.0
 30
0.0
  9
$PUCSORGBACK
 10
0.0
 20
0.0
 30
0.0
  9
$USERI1
 70
     0
  9
$USERI2
 70
     0
  9
$USERI3
 70
     0
  9
$USERI4
 70
     0
  9
$USERI5
 70
     0
  9
$USERR1
 40
0.0
  9
$USERR2
 40
0.0
  9
$USERR3
 40
0.0
  9
$USERR4
 40
0.0
  9
$USERR5
 40
0.0
  9
$WORLDVIEW
 70
     1
  9
$SHADEDGE
 70
     3
  9
$SHADEDIF
 70
    70
  9
$TILEMODE
 70
     1
  9
$MAXACTVP
 70
    16
  9
$PINSBASE
 10
0.0
 20
0.0
 30
0.0
  9
$PLIMCHECK
 70
     0
  9
$PEXTMIN
 10
1.000000000000000E+20
 20
1.000000000000000E+20
 30
1.000000000000000E+20
  9
$PEXTMAX
 10
-1.000000000000000E+20
 20
-1.000000000000000E+20
 30
-1.000000000000000E+20
  9
$PLIMMIN
 10
0.0
 20
0.0
  9
$PLIMMAX
 10
12.0
 20
9.0
  9
$UNITMODE
 70
     0
  9
$VISRETAIN
 70
     0
  9
$PLINEGEN
 70
     0
  9
$PSLTSCALE
 70
     1
  9
$TREEDEPTH
 70
  3020
  9
$CMLSTYLE
  2
Standard
  9
$CMLJUST
 70
     0
  9
$CMLSCALE
 40
1.0
  9
$PROXYGRAPHICS
 70
     1
  9
$MEASUREMENT
 70
     0
  9
$CELWEIGHT
370
    -1
  9
$ENDCAPS
280
     0
  9
$JOINSTYLE
280
     0
  9
$LWDISPLAY
290
     0
  9
$INSUNITS
 70
     0
  9
$HYPERLINKBASE
  1

  9
$STYLESHEET
  1

  9
$XEDIT
290
     1
  9
$CEPSNTYPE
380
     0
  9
$PSTYLEMODE
290
     1
  9
$FINGERPRINTGUID
  2
{3B38FD1E-9A92-4AB6-AE72-AB5B0F03E3D7}
  9
$VERSIONGUID
  2
{742D6054-E807-4CB8-94EE-3087E2B164F6}
  9
$EXTNAMES
290
     1
  9
$PSVPSCALE
 40
0.0
  9
$OLESTARTUP
290
     0
  0
ENDSEC
  0
SECTION
  2
CLASSES
  0
CLASS
  1
ACDBDICTIONARYWDFLT
  2
AcDbDictionaryWithDefault
  3
ObjectDBX Classes
 90
        0
280
     0
281
     0
  0
CLASS
  1
MATERIAL
  2
AcDbMaterial
  3
ObjectDBX Classes
 90
     1153
280
     0
281
     0
  0
CLASS
  1
VISUALSTYLE
  2
AcDbVisualStyle
  3
ObjectDBX Classes
 90
     4095
280
     0
281
     0
  0
CLASS
  1
SCALE
  2
AcDbScale
  3
ObjectDBX Classes
 90
     1153
280
     0
281
     0
  0
CLASS
  1
TABLESTYLE
  2
AcDbTableStyle
  3
ObjectDBX Classes
 90
     4095
280
     0
281
     0
  0
CLASS
  1
MLEADERSTYLE
  2
AcDbMLeaderStyle
  3
ACDB_MLEADERSTYLE_CLASS
 90
     4095
280
     0
281
     0
  0
CLASS
  1
ACDBSECTIONVIEWSTYLE
  2
AcDbSectionViewStyle
  3
ObjectDBX Classes
 90
     1025
280
     0
281
     0
  0
CLASS
  1
ACDBDETAILVIEWSTYLE
  2
AcDbDetailViewStyle
  3
ObjectDBX Classes
 90
     1025
280
     0
281
     0
  0
CLASS
  1
DICTIONARYVAR
  2
AcDbDictionaryVar
  3
ObjectDBX Classes
 90
        0
280
     0
281
     0
  0
CLASS
  1
CELLSTYLEMAP
  2
AcDbCellStyleMap
  3
ObjectDBX Classes
 90
     1152
280
     0
281
     0
  0
CLASS
  1
ACDBPLACEHOLDER
  2
AcDbPlaceHolder
  3
ObjectDBX Classes
 90
        0
280
     0
281
     0
  0
CLASS
  1
LAYOUT
  2
AcDbLayout
  3
ObjectDBX Classes
 90
        0
280
     0
281
     0
  0
ENDSEC
  0
SECTION
  2
TABLES
  0
TABLE
  2
VPORT
  5
8118
330
0
100
AcDbSymbolTable
 70
     1
  0
VPORT
  5
8184
330
8118
100
AcDbSymbolTableRecord
100
AcDbViewportTableRecord
  2
*ACTIVE
 70
     0
 10
0.0
 20
0.0
 11
1.0
 21
1.0
 12
2100.000009778887
 22
2950.000013737006
 13
0.0
 23
0.0
 14
10.0
 24
10.0
 15
10.0
 25
10.0
 16
0.0
 26
0.0
 36
1.0
 17
0.0
 27
0.0
 37
0.0
 40
5938.142562752639
 41
2.050213675213675
 42
50.0
 43
0.0
 44
0.0
 50
0.0
 51
0.0
 71
     0
 72
   100
 73
     1
 74
     0
 75
     0
 76
     0
 77
     0
 78
     0
281
     0
 65
     1
110
0.0
120
0.0
130
0.0
111
1.0
121
0.0
131
0.0
112
0.0
122
1.0
132
0.0
 79
     0
146
0.0
1001
ACAD_NAV_VCDISPLAY
1070
     3
  0
ENDTAB
  0
TABLE
  2
LTYPE
  5
8115
330
0
100
AcDbSymbolTable
 70
     3
  0
LTYPE
  5
816A
330
8115
100
AcDbSymbolTableRecord
100
AcDbLinetypeTableRecord
  2
ByBlock
 70
     0
  3

 72
    65
 73
     0
 40
0.0
  0
LTYPE
  5
816B
330
8115
100
AcDbSymbolTableRecord
100
AcDbLinetypeTableRecord
  2
ByLayer
 70
     0
  3

 72
    65
 73
     0
 40
0.0
  0
LTYPE
  5
816C
330
8115
100
AcDbSymbolTableRecord
100
AcDbLinetypeTableRecord
  2
CONTINUOUS
 70
     0
  3
Solid line
 72
    65
 73
     0
 40
0.0
  0
LTYPE
  5
8185
330
8115
100
AcDbSymbolTableRecord
100
AcDbLinetypeTableRecord
  2
CENTER
 70
     0
  3
____ _ ____ _ ____ _ ____ _ ____ _ ____ _ ____ 
 72
    65
 73
     4
 40
2.0
 49
1.25
 74
     0
 49
-0.25
 74
     0
 49
0.25
 74
     0
 49
-0.25
 74
     0
  0
ENDTAB
  0
TABLE
  2
LAYER
  5
8112
330
0
100
AcDbSymbolTable
 70
     6
  0
LAYER
  5
8164
102
{ACAD_XDICTIONARY
360
827A
102
}
330
8112
100
AcDbSymbolTableRecord
100
AcDbLayerTableRecord
  2
0
 70
     0
 62
     7
  6
CONTINUOUS
370
    -3
390
811F
  0
LAYER
  5
8183
102
{ACAD_XDICTIONARY
360
827C
102
}
330
8112
100
AcDbSymbolTableRecord
100
AcDbLayerTableRecord
  2
3
 70
     0
 62
     2
  6
CONTINUOUS
370
    -3
390
811F
  0
LAYER
  5
8186
102
{ACAD_XDICTIONARY
360
827E
102
}
330
8112
100
AcDbSymbolTableRecord
100
AcDbLayerTableRecord
  2
2
 70
     0
 62
     3
  6
CENTER
370
    -3
390
811F
  0
LAYER
  5
8187
102
{ACAD_XDICTIONARY
360
8280
102
}
330
8112
100
AcDbSymbolTableRecord
100
AcDbLayerTableRecord
  2
1
 70
     0
 62
     4
  6
CONTINUOUS
370
    -3
390
811F
  0
LAYER
  5
8188
102
{ACAD_XDICTIONARY
360
8282
102
}
330
8112
100
AcDbSymbolTableRecord
100
AcDbLayerTableRecord
  2
4
 70
     0
 62
     7
  6
CONTINUOUS
370
    -3
390
811F
  0
LAYER
  5
8189
330
8112
100
AcDbSymbolTableRecord
100
AcDbLayerTableRecord
  2
DEFPOINTS
 70
     0
 62
     7
  6
CONTINUOUS
290
     0
370
    -3
390
811F
  0
ENDTAB
  0
TABLE
  2
STYLE
  5
8113
330
0
100
AcDbSymbolTable
 70
     2
  0
STYLE
  5
8165
330
8113
100
AcDbSymbolTableRecord
100
AcDbTextStyleTableRecord
  2
STANDARD
 70
     0
 40
0.0
 41
1.0
 50
0.0
 71
     0
 42
180.0
  3
simplex.shx
  4
extfont.shx
  0
STYLE
  5
8169
330
8113
100
AcDbSymbolTableRecord
100
AcDbTextStyleTableRecord
  2
Annotative
 70
     0
 40
0.0
 41
1.0
 50
0.0
 71
     0
 42
0.2
  3
txt
  4

1001
AcadAnnotative
1000
AnnotativeData
1002
{
1070
     1
1070
     1
1002
}
  0
ENDTAB
  0
TABLE
  2
VIEW
  5
8116
330
0
100
AcDbSymbolTable
 70
     0
  0
ENDTAB
  0
TABLE
  2
UCS
  5
8117
330
0
100
AcDbSymbolTable
 70
     0
  0
ENDTAB
  0
TABLE
  2
APPID
  5
8119
330
0
100
AcDbSymbolTable
 70
     6
  0
APPID
  5
8166
330
8119
100
AcDbSymbolTableRecord
100
AcDbRegAppTableRecord
  2
ACAD
 70
     0
  0
APPID
  5
816D
330
8119
100
AcDbSymbolTableRecord
100
AcDbRegAppTableRecord
  2
AcadAnnotative
 70
     0
  0
APPID
  5
81E0
330
8119
100
AcDbSymbolTableRecord
100
AcDbRegAppTableRecord
  2
AcadAnnoMonitorAlertIconDisabled
 70
     0
  0
APPID
  5
81E1
330
8119
100
AcDbSymbolTableRecord
100
AcDbRegAppTableRecord
  2
ACAD_EXEMPT_FROM_CAD_STANDARDS
 70
     0
  0
APPID
  5
828E
330
8119
100
AcDbSymbolTableRecord
100
AcDbRegAppTableRecord
  2
ACAD_NAV_VCDISPLAY
 70
     0
  0
APPID
  5
82C7
330
8119
100
AcDbSymbolTableRecord
100
AcDbRegAppTableRecord
  2
ACAD_MLEADERVER
 70
     0
  0
ENDTAB
  0
TABLE
  2
DIMSTYLE
  5
811A
330
0
100
AcDbSymbolTable
 70
     4
100
AcDbDimStyleTable
 71
     2
340
818A
340
8167
  0
DIMSTYLE
105
8167
102
{ACAD_REACTORS
330
7C26
330
7C27
330
7C4E
330
7C51
330
7C84
330
7C85
330
7C86
330
7C8C
330
7C9C
330
7C9E
330
803B
330
8048
330
8055
330
806F
330
807C
102
}
330
811A
100
AcDbSymbolTableRecord
100
AcDbDimStyleTableRecord
  2
Standard
 70
     0
340
8165
  0
DIMSTYLE
105
8168
330
811A
100
AcDbSymbolTableRecord
100
AcDbDimStyleTableRecord
  2
Annotative
 70
     0
340
8165
1001
AcadAnnotative
1000
AnnotativeData
1002
{
1070
     1
1070
     1
1002
}
  0
DIMSTYLE
105
818A
102
{ACAD_REACTORS
330
81C6
330
81D3
330
822B
330
8238
330
824E
330
8264
102
}
330
811A
100
AcDbSymbolTableRecord
100
AcDbDimStyleTableRecord
  2
IGA
 70
     0
 40
2.0
 41
2.0
 42
0.5
 43
10.0
 44
1.0
 47
1.0
 48
1.0
 73
     0
 74
     0
 77
     1
 78
     8
140
3.0
141
0.0
143
0.03937
146
10.0
147
1.0
173
     1
271
     3
272
     3
279
     2
284
     8
285
     8
286
     8
340
8165
  0
DIMSTYLE
105
818B
330
811A
100
AcDbSymbolTableRecord
100
AcDbDimStyleTableRecord
  2
MATSU
 70
     0
 41
2.0
 42
1.0
 43
10.0
 44
1.0
 73
     0
 74
     0
 77
     1
 78
     8
140
3.0
141
0.0
143
0.03937
147
0.5
172
     1
173
     1
176
   256
177
   256
178
   256
271
     3
272
     3
279
     2
284
     8
285
     8
286
     8
340
8165
  0
ENDTAB
  0
TABLE
  2
BLOCK_RECORD
  5
8111
330
0
100
AcDbSymbolTable
 70
    33
  0
BLOCK_RECORD
  5
817F
330
8111
100
AcDbSymbolTableRecord
100
AcDbBlockTableRecord
  2
*Model_Space
340
8182
  0
BLOCK_RECORD
  5
817B
330
8111
100
AcDbSymbolTableRecord
100
AcDbBlockTableRecord
  2
*Paper_Space
340
817E
  0
BLOCK_RECORD
  5
818F
330
8111
100
AcDbSymbolTableRecord
100
AcDbBlockTableRecord
  2
$MODEL_SPACE
340
0
  0
BLOCK_RECORD
  5
8191
330
8111
100
AcDbSymbolTableRecord
100
AcDbBlockTableRecord
  2
$PAPER_SPACE
340
0
  0
BLOCK_RECORD
  5
8193
330
8111
100
AcDbSymbolTableRecord
100
AcDbBlockTableRecord
  2
_OPEN
340
0
102
{BLKREFS
331
8232
331
8233
331
8248
331
8249
331
825E
331
825F
331
8274
331
8275
331
7DE2
331
7DE3
331
7DED
331
7DEE
331
7DF8
331
7DF9
331
7E19
331
7E1A
331
7E2F
331
7E30
331
7E3A
331
7E3B
331
7E45
331
7E46
331
7F9E
331
7F9F
331
7EF4
331
7EF5
331
7EFF
331
7FB7
331
7FB8
331
80EB
331
80EC
331
80F3
331
80F4
331
80FB
331
80FC
331
7F00
331
8103
331
8104
331
8068
331
8069
331
8075
331
8076
331
821C
331
821D
331
8225
331
8226
331
7EB0
331
7EB1
331
8034
331
8035
331
8041
331
8042
331
804E
331
804F
102
}
  0
BLOCK_RECORD
  5
8195
330
8111
100
AcDbSymbolTableRecord
100
AcDbBlockTableRecord
  2
YA_N
340
0
102
{BLKREFS
331
7BF8
331
7C0D
102
}
  0
BLOCK_RECORD
  5
8197
330
8111
100
AcDbSymbolTableRecord
100
AcDbBlockTableRecord
  2
*D4
340
0
  0
BLOCK_RECORD
  5
8199
330
8111
100
AcDbSymbolTableRecord
100
AcDbBlockTableRecord
  2
*D5
340
0
  0
BLOCK_RECORD
  5
819B
330
8111
100
AcDbSymbolTableRecord
100
AcDbBlockTableRecord
  2
*D6
340
0
  0
BLOCK_RECORD
  5
819D
330
8111
100
AcDbSymbolTableRecord
100
AcDbBlockTableRecord
  2
*D7
340
0
  0
BLOCK_RECORD
  5
819F
330
8111
100
AcDbSymbolTableRecord
100
AcDbBlockTableRecord
  2
*D8
340
0
  0
BLOCK_RECORD
  5
81A1
330
8111
100
AcDbSymbolTableRecord
100
AcDbBlockTableRecord
  2
*D9
340
0
  0
BLOCK_RECORD
  5
81A3
330
8111
100
AcDbSymbolTableRecord
100
AcDbBlockTableRecord
  2
*D10
340
0
  0
BLOCK_RECORD
  5
81A5
330
8111
100
AcDbSymbolTableRecord
100
AcDbBlockTableRecord
  2
*D11
340
0
  0
BLOCK_RECORD
  5
81A7
330
8111
100
AcDbSymbolTableRecord
100
AcDbBlockTableRecord
  2
*D12
340
0
  0
BLOCK_RECORD
  5
81A9
330
8111
100
AcDbSymbolTableRecord
100
AcDbBlockTableRecord
  2
*D13
340
0
  0
BLOCK_RECORD
  5
81AB
330
8111
100
AcDbSymbolTableRecord
100
AcDbBlockTableRecord
  2
*D14
340
0
  0
BLOCK_RECORD
  5
81AD
330
8111
100
AcDbSymbolTableRecord
100
AcDbBlockTableRecord
  2
*D15
340
0
  0
BLOCK_RECORD
  5
81AF
330
8111
100
AcDbSymbolTableRecord
100
AcDbBlockTableRecord
  2
*D16
340
0
  0
BLOCK_RECORD
  5
81B1
330
8111
100
AcDbSymbolTableRecord
100
AcDbBlockTableRecord
  2
*D17
340
0
  0
BLOCK_RECORD
  5
81B3
330
8111
100
AcDbSymbolTableRecord
100
AcDbBlockTableRecord
  2
*D18
340
0
  0
BLOCK_RECORD
  5
81B5
330
8111
100
AcDbSymbolTableRecord
100
AcDbBlockTableRecord
  2
*D19
340
0
  0
BLOCK_RECORD
  5
81B7
330
8111
100
AcDbSymbolTableRecord
100
AcDbBlockTableRecord
  2
_DOT
340
0
  0
BLOCK_RECORD
  5
81B9
330
8111
100
AcDbSymbolTableRecord
100
AcDbBlockTableRecord
  2
_NONE
340
0
  0
BLOCK_RECORD
  5
81BB
330
8111
100
AcDbSymbolTableRecord
100
AcDbBlockTableRecord
  2
*D22
340
0
  0
BLOCK_RECORD
  5
81BD
330
8111
100
AcDbSymbolTableRecord
100
AcDbBlockTableRecord
  2
*D23
340
0
  0
BLOCK_RECORD
  5
81BF
330
8111
100
AcDbSymbolTableRecord
100
AcDbBlockTableRecord
  2
*D24
340
0
  0
BLOCK_RECORD
  5
81C1
330
8111
100
AcDbSymbolTableRecord
100
AcDbBlockTableRecord
  2
*D25
340
0
  0
BLOCK_RECORD
  5
81C3
330
8111
100
AcDbSymbolTableRecord
100
AcDbBlockTableRecord
  2
*D26
340
0
  0
BLOCK_RECORD
  5
81C7
330
8111
100
AcDbSymbolTableRecord
100
AcDbBlockTableRecord
  2
*D27
340
0
  0
BLOCK_RECORD
  5
81D4
330
8111
100
AcDbSymbolTableRecord
100
AcDbBlockTableRecord
  2
*D28
340
0
  0
BLOCK_RECORD
  5
822C
330
8111
100
AcDbSymbolTableRecord
100
AcDbBlockTableRecord
  2
*D29
340
0
  0
BLOCK_RECORD
  5
8239
330
8111
100
AcDbSymbolTableRecord
100
AcDbBlockTableRecord
  2
*D30
340
0
  0
BLOCK_RECORD
  5
824F
330
8111
100
AcDbSymbolTableRecord
100
AcDbBlockTableRecord
  2
*D31
340
0
  0
BLOCK_RECORD
  5
8265
330
8111
100
AcDbSymbolTableRecord
100
AcDbBlockTableRecord
  2
*D32
340
0
  0
ENDTAB
  0
ENDSEC
  0
SECTION
  2
BLOCKS
  0
BLOCK
  5
8180
330
817F
100
AcDbEntity
  8
0
100
AcDbBlockBegin
  2
*Model_Space
 70
     0
 10
0.0
 20
0.0
 30
0.0
  3
*Model_Space
  1

  0
ENDBLK
  5
8181
330
817F
100
AcDbEntity
  8
0
100
AcDbBlockEnd
  0
BLOCK
  5
817C
330
817B
100
AcDbEntity
 67
     1
  8
0
100
AcDbBlockBegin
  2
*Paper_Space
 70
     0
 10
0.0
 20
0.0
 30
0.0
  3
*Paper_Space
  1

  0
ENDBLK
  5
817D
330
817B
100
AcDbEntity
 67
     1
  8
0
100
AcDbBlockEnd
  0
BLOCK
  5
8190
330
818F
100
AcDbEntity
  8
0
100
AcDbBlockBegin
  2
$MODEL_SPACE
 70
     0
 10
0.0
 20
0.0
 30
0.0
  3
$MODEL_SPACE
  1

  0
ENDBLK
  5
1B
330
818F
100
AcDbEntity
  8
0
100
AcDbBlockEnd
  0
BLOCK
  5
8192
330
8191
100
AcDbEntity
  8
0
100
AcDbBlockBegin
  2
$PAPER_SPACE
 70
     0
 10
0.0
 20
0.0
 30
0.0
  3
$PAPER_SPACE
  1

  0
ENDBLK
  5
18
330
8191
100
AcDbEntity
  8
0
100
AcDbBlockEnd
  0
BLOCK
  5
8194
330
8193
100
AcDbEntity
  8
0
100
AcDbBlockBegin
  2
_OPEN
 70
     0
 10
0.0
 20
0.0
 30
0.0
  3
_OPEN
  1

  0
LINE
  5
79FD
330
8193
100
AcDbEntity
  8
0
  6
ByBlock
 62
     0
100
AcDbLine
 10
-1.0
 20
0.1666666666666666
 30
0.0
 11
0.0
 21
0.0
 31
0.0
  0
LINE
  5
79FE
330
8193
100
AcDbEntity
  8
0
  6
ByBlock
 62
     0
100
AcDbLine
 10
0.0
 20
0.0
 30
0.0
 11
-1.0
 21
-0.1666666666666666
 31
0.0
  0
LINE
  5
79FF
330
8193
100
AcDbEntity
  8
0
  6
ByBlock
 62
     0
100
AcDbLine
 10
0.0
 20
0.0
 30
0.0
 11
-1.0
 21
0.0
 31
0.0
  0
ENDBLK
  5
7A01
330
8193
100
AcDbEntity
  8
0
100
AcDbBlockEnd
  0
BLOCK
  5
8196
330
8195
100
AcDbEntity
  8
0
100
AcDbBlockBegin
  2
YA_N
 70
     0
 10
0.0
 20
0.0
 30
0.0
  3
YA_N
  1

  0
ENDBLK
  5
7A0C
330
8195
100
AcDbEntity
  8
0
100
AcDbBlockEnd
  0
BLOCK
  5
8198
330
8197
100
AcDbEntity
  8
0
100
AcDbBlockBegin
  2
*D4
 70
     1
 10
0.0
 20
0.0
 30
0.0
  3
*D4
  1

  0
LINE
  5
7DDF
330
8197
100
AcDbEntity
  8
0
  6
ByBlock
100
AcDbLine
 10
1059.652996394238
 20
-109.9023735498794
 30
0.0
 11
1188.214531100795
 21
-109.9023735498794
 31
0.0
  0
LINE
  5
7DE0
330
8197
100
AcDbEntity
  8
0
  6
ByBlock
100
AcDbLine
 10
1059.652996394238
 20
540.0976264501204
 30
0.0
 11
1188.214531100795
 21
540.0976264501204
 31
0.0
  0
LINE
  5
7DE1
330
8197
100
AcDbEntity
  8
0
  6
ByBlock
100
AcDbLine
 10
1168.214531100795
 20
-69.9023735498795
 30
0.0
 11
1168.214531100795
 21
500.0976264501204
 31
0.0
  0
INSERT
  5
7DE2
330
8197
100
AcDbEntity
  8
0
  6
ByBlock
100
AcDbBlockReference
  2
_OPEN
 10
1168.214531100795
 20
-109.9023735498794
 30
0.0
 41
40.0
 42
40.0
 43
40.0
 50
270.0
  0
INSERT
  5
7DE3
330
8197
100
AcDbEntity
  8
0
  6
ByBlock
100
AcDbBlockReference
  2
_OPEN
 10
1168.214531100795
 20
540.0976264501204
 30
0.0
 41
40.0
 42
40.0
 43
40.0
 50
90.0
  0
TEXT
  5
7DE4
330
8197
100
AcDbEntity
  8
3
100
AcDbText
 10
1158.214531100795
 20
137.9547693072633
 30
0.0
 40
60.0
  1
650
 50
90.0
100
AcDbText
  0
POINT
  5
7DE5
330
8197
100
AcDbEntity
  8
DEFPOINTS
  6
ByBlock
 62
     0
100
AcDbPoint
 10
1039.652996394238
 20
-109.9023735498794
 30
0.0
  0
POINT
  5
7DE6
330
8197
100
AcDbEntity
  8
DEFPOINTS
  6
ByBlock
 62
     0
100
AcDbPoint
 10
1039.652996394238
 20
540.0976264501204
 30
0.0
  0
POINT
  5
7DE7
330
8197
100
AcDbEntity
  8
DEFPOINTS
  6
ByBlock
 62
     0
100
AcDbPoint
 10
1168.214531100795
 20
540.0976264501204
 30
0.0
  0
ENDBLK
  5
7DE8
330
8197
100
AcDbEntity
  8
0
100
AcDbBlockEnd
  0
BLOCK
  5
819A
330
8199
100
AcDbEntity
  8
0
100
AcDbBlockBegin
  2
*D5
 70
     1
 10
0.0
 20
0.0
 30
0.0
  3
*D5
  1

  0
LINE
  5
7DEA
330
8199
100
AcDbEntity
  8
0
  6
ByBlock
100
AcDbLine
 10
1059.652996394238
 20
-109.9023735498794
 30
0.0
 11
1307.803589676992
 21
-109.9023735498794
 31
0.0
  0
LINE
  5
7DEB
330
8199
100
AcDbEntity
  8
0
  6
ByBlock
100
AcDbLine
 10
1106.545969497234
 20
568.0976264501205
 30
0.0
 11
1307.803589676992
 21
568.0976264501205
 31
0.0
  0
LINE
  5
7DEC
330
8199
100
AcDbEntity
  8
0
  6
ByBlock
100
AcDbLine
 10
1287.803589676992
 20
-69.9023735498795
 30
0.0
 11
1287.803589676992
 21
528.0976264501203
 31
0.0
  0
INSERT
  5
7DED
330
8199
100
AcDbEntity
  8
0
  6
ByBlock
100
AcDbBlockReference
  2
_OPEN
 10
1287.803589676992
 20
-109.9023735498794
 30
0.0
 41
40.0
 42
40.0
 43
40.0
 50
270.0
  0
INSERT
  5
7DEE
330
8199
100
AcDbEntity
  8
0
  6
ByBlock
100
AcDbBlockReference
  2
_OPEN
 10
1287.803589676992
 20
568.0976264501205
 30
0.0
 41
40.0
 42
40.0
 43
40.0
 50
90.0
  0
TEXT
  5
7DEF
330
8199
100
AcDbEntity
  8
3
100
AcDbText
 10
1277.803589676992
 20
151.9547693072633
 30
0.0
 40
60.0
  1
678
 50
90.0
100
AcDbText
  0
POINT
  5
7DF0
330
8199
100
AcDbEntity
  8
DEFPOINTS
  6
ByBlock
 62
     0
100
AcDbPoint
 10
1039.652996394238
 20
-109.9023735498794
 30
0.0
  0
POINT
  5
7DF1
330
8199
100
AcDbEntity
  8
DEFPOINTS
  6
ByBlock
 62
     0
100
AcDbPoint
 10
1086.545969497234
 20
568.0976264501205
 30
0.0
  0
POINT
  5
7DF2
330
8199
100
AcDbEntity
  8
DEFPOINTS
  6
ByBlock
 62
     0
100
AcDbPoint
 10
1287.803589676992
 20
568.0976264501205
 30
0.0
  0
ENDBLK
  5
7DF3
330
8199
100
AcDbEntity
  8
0
100
AcDbBlockEnd
  0
BLOCK
  5
819C
330
819B
100
AcDbEntity
  8
0
100
AcDbBlockBegin
  2
*D6
 70
     1
 10
0.0
 20
0.0
 30
0.0
  3
*D6
  1

  0
LINE
  5
7DF5
330
819B
100
AcDbEntity
  8
0
  6
ByBlock
100
AcDbLine
 10
2992.796193483283
 20
903.0976264501203
 30
0.0
 11
3240.833227053947
 21
903.0976264501203
 31
0.0
  0
LINE
  5
7DF6
330
819B
100
AcDbEntity
  8
0
  6
ByBlock
100
AcDbLine
 10
2992.796193483283
 20
233.0976264501205
 30
0.0
 11
3240.833227053947
 21
233.0976264501205
 31
0.0
  0
LINE
  5
7DF7
330
819B
100
AcDbEntity
  8
0
  6
ByBlock
100
AcDbLine
 10
3220.833227053946
 20
863.0976264501205
 30
0.0
 11
3220.833227053946
 21
273.0976264501205
 31
0.0
  0
INSERT
  5
7DF8
330
819B
100
AcDbEntity
  8
0
  6
ByBlock
100
AcDbBlockReference
  2
_OPEN
 10
3220.833227053946
 20
903.0976264501203
 30
0.0
 41
40.0
 42
40.0
 43
40.0
 50
90.0
  0
INSERT
  5
7DF9
330
819B
100
AcDbEntity
  8
0
  6
ByBlock
100
AcDbBlockReference
  2
_OPEN
 10
3220.833227053946
 20
233.0976264501205
 30
0.0
 41
40.0
 42
40.0
 43
40.0
 50
270.0
  0
TEXT
  5
7DFA
330
819B
100
AcDbEntity
  8
3
100
AcDbText
 10
3210.833227053947
 20
460.9547693072634
 30
0.0
 40
60.0
  1
\U+03C6670
 50
90.0
100
AcDbText
  0
POINT
  5
7DFB
330
819B
100
AcDbEntity
  8
DEFPOINTS
  6
ByBlock
 62
     0
100
AcDbPoint
 10
2972.796193483283
 20
903.0976264501203
 30
0.0
  0
POINT
  5
7DFC
330
819B
100
AcDbEntity
  8
DEFPOINTS
  6
ByBlock
 62
     0
100
AcDbPoint
 10
2972.796193483283
 20
233.0976264501205
 30
0.0
  0
POINT
  5
7DFD
330
819B
100
AcDbEntity
  8
DEFPOINTS
  6
ByBlock
 62
     0
100
AcDbPoint
 10
3220.833227053946
 20
233.0976264501205
 30
0.0
  0
ENDBLK
  5
7DFE
330
819B
100
AcDbEntity
  8
0
100
AcDbBlockEnd
  0
BLOCK
  5
819E
330
819D
100
AcDbEntity
  8
0
100
AcDbBlockBegin
  2
*D7
 70
     1
 10
0.0
 20
0.0
 30
0.0
  3
*D7
  1

  0
LINE
  5
7E16
330
819D
100
AcDbEntity
  8
0
  6
ByBlock
100
AcDbLine
 10
2167.296193483282
 20
1018.497617330824
 30
0.0
 11
2167.296193483282
 21
1113.682524828345
 31
0.0
  0
LINE
  5
7E17
330
819D
100
AcDbEntity
  8
0
  6
ByBlock
100
AcDbLine
 10
2967.296193483282
 20
1018.497617330824
 30
0.0
 11
2967.296193483282
 21
1113.682524828345
 31
0.0
  0
LINE
  5
7E18
330
819D
100
AcDbEntity
  8
0
  6
ByBlock
100
AcDbLine
 10
2207.296193483281
 20
1093.682524828345
 30
0.0
 11
2927.296193483282
 21
1093.682524828345
 31
0.0
  0
INSERT
  5
7E19
330
819D
100
AcDbEntity
  8
0
  6
ByBlock
100
AcDbBlockReference
  2
_OPEN
 10
2167.296193483282
 20
1093.682524828345
 30
0.0
 41
40.0
 42
40.0
 43
40.0
 50
180.0
  0
INSERT
  5
7E1A
330
819D
100
AcDbEntity
  8
0
  6
ByBlock
100
AcDbBlockReference
  2
_OPEN
 10
2967.296193483282
 20
1093.682524828345
 30
0.0
 41
40.0
 42
40.0
 43
40.0
  0
TEXT
  5
7E1B
330
819D
100
AcDbEntity
  8
3
100
AcDbText
 10
2490.153336340425
 20
1103.682524828345
 30
0.0
 40
60.0
  1
800
100
AcDbText
  0
POINT
  5
7E1C
330
819D
100
AcDbEntity
  8
DEFPOINTS
  6
ByBlock
 62
     0
100
AcDbPoint
 10
2167.296193483282
 20
998.4976173308242
 30
0.0
  0
POINT
  5
7E1D
330
819D
100
AcDbEntity
  8
DEFPOINTS
  6
ByBlock
 62
     0
100
AcDbPoint
 10
2967.296193483282
 20
998.4976173308238
 30
0.0
  0
POINT
  5
7E1E
330
819D
100
AcDbEntity
  8
DEFPOINTS
  6
ByBlock
 62
     0
100
AcDbPoint
 10
2967.296193483282
 20
1093.682524828345
 30
0.0
  0
ENDBLK
  5
7E1F
330
819D
100
AcDbEntity
  8
0
100
AcDbBlockEnd
  0
BLOCK
  5
81A0
330
819F
100
AcDbEntity
  8
0
100
AcDbBlockBegin
  2
*D8
 70
     1
 10
0.0
 20
0.0
 30
0.0
  3
*D8
  1

  0
LINE
  5
7E2C
330
819F
100
AcDbEntity
  8
0
  6
ByBlock
100
AcDbLine
 10
-470.3470036057614
 20
2138.414968530632
 30
0.0
 11
-470.3470036057614
 21
1863.01337041143
 31
0.0
  0
LINE
  5
7E2D
330
819F
100
AcDbEntity
  8
0
  6
ByBlock
100
AcDbLine
 10
979.6529963942385
 20
2138.414968530633
 30
0.0
 11
979.6529963942385
 21
1863.01337041143
 31
0.0
  0
LINE
  5
7E2E
330
819F
100
AcDbEntity
  8
0
  6
ByBlock
100
AcDbLine
 10
-430.3470036057614
 20
1883.01337041143
 30
0.0
 11
939.6529963942384
 21
1883.01337041143
 31
0.0
  0
INSERT
  5
7E2F
330
819F
100
AcDbEntity
  8
0
  6
ByBlock
100
AcDbBlockReference
  2
_OPEN
 10
-470.3470036057614
 20
1883.01337041143
 30
0.0
 41
40.0
 42
40.0
 43
40.0
 50
180.0
  0
INSERT
  5
7E30
330
819F
100
AcDbEntity
  8
0
  6
ByBlock
100
AcDbBlockReference
  2
_OPEN
 10
979.6529963942385
 20
1883.01337041143
 30
0.0
 41
40.0
 42
40.0
 43
40.0
  0
TEXT
  5
7E31
330
819F
100
AcDbEntity
  8
3
100
AcDbText
 10
154.6529963942385
 20
1893.01337041143
 30
0.0
 40
60.0
  1
1450
100
AcDbText
  0
POINT
  5
7E32
330
819F
100
AcDbEntity
  8
DEFPOINTS
  6
ByBlock
 62
     0
100
AcDbPoint
 10
-470.3470036057614
 20
2158.414968530632
 30
0.0
  0
POINT
  5
7E33
330
819F
100
AcDbEntity
  8
DEFPOINTS
  6
ByBlock
 62
     0
100
AcDbPoint
 10
979.6529963942385
 20
2158.414968530633
 30
0.0
  0
POINT
  5
7E34
330
819F
100
AcDbEntity
  8
DEFPOINTS
  6
ByBlock
 62
     0
100
AcDbPoint
 10
979.6529963942385
 20
1883.01337041143
 30
0.0
  0
ENDBLK
  5
7E35
330
819F
100
AcDbEntity
  8
0
100
AcDbBlockEnd
  0
BLOCK
  5
81A2
330
81A1
100
AcDbEntity
  8
0
100
AcDbBlockBegin
  2
*D9
 70
     1
 10
0.0
 20
0.0
 30
0.0
  3
*D9
  1

  0
LINE
  5
7E37
330
81A1
100
AcDbEntity
  8
0
  6
ByBlock
100
AcDbLine
 10
999.6529963942384
 20
2158.414968530633
 30
0.0
 11
1208.444967392846
 21
2158.414968530633
 31
0.0
  0
LINE
  5
7E38
330
81A1
100
AcDbEntity
  8
0
  6
ByBlock
100
AcDbLine
 10
999.6529963942387
 20
3164.414968530635
 30
0.0
 11
1208.444967392846
 21
3164.414968530635
 31
0.0
  0
LINE
  5
7E39
330
81A1
100
AcDbEntity
  8
0
  6
ByBlock
100
AcDbLine
 10
1188.444967392846
 20
2198.414968530633
 30
0.0
 11
1188.444967392846
 21
3124.414968530635
 31
0.0
  0
INSERT
  5
7E3A
330
81A1
100
AcDbEntity
  8
0
  6
ByBlock
100
AcDbBlockReference
  2
_OPEN
 10
1188.444967392846
 20
2158.414968530633
 30
0.0
 41
40.0
 42
40.0
 43
40.0
 50
270.0
  0
INSERT
  5
7E3B
330
81A1
100
AcDbEntity
  8
0
  6
ByBlock
100
AcDbBlockReference
  2
_OPEN
 10
1188.444967392846
 20
3164.414968530635
 30
0.0
 41
40.0
 42
40.0
 43
40.0
 50
90.0
  0
TEXT
  5
7E3C
330
81A1
100
AcDbEntity
  8
3
100
AcDbText
 10
1178.444967392846
 20
2562.843539959205
 30
0.0
 40
60.0
  1
1006
 50
90.0
100
AcDbText
  0
POINT
  5
7E3D
330
81A1
100
AcDbEntity
  8
DEFPOINTS
  6
ByBlock
 62
     0
100
AcDbPoint
 10
979.6529963942385
 20
2158.414968530633
 30
0.0
  0
POINT
  5
7E3E
330
81A1
100
AcDbEntity
  8
DEFPOINTS
  6
ByBlock
 62
     0
100
AcDbPoint
 10
979.6529963942386
 20
3164.414968530635
 30
0.0
  0
POINT
  5
7E3F
330
81A1
100
AcDbEntity
  8
DEFPOINTS
  6
ByBlock
 62
     0
100
AcDbPoint
 10
1188.444967392846
 20
3164.414968530635
 30
0.0
  0
ENDBLK
  5
7E40
330
81A1
100
AcDbEntity
  8
0
100
AcDbBlockEnd
  0
BLOCK
  5
81A4
330
81A3
100
AcDbEntity
  8
0
100
AcDbBlockBegin
  2
*D10
 70
     1
 10
0.0
 20
0.0
 30
0.0
  3
*D10
  1

  0
LINE
  5
7E42
330
81A3
100
AcDbEntity
  8
0
  6
ByBlock
100
AcDbLine
 10
179.6529963942384
 20
3184.414968530634
 30
0.0
 11
179.6529963942384
 21
3333.020259029039
 31
0.0
  0
LINE
  5
7E43
330
81A3
100
AcDbEntity
  8
0
  6
ByBlock
100
AcDbLine
 10
979.6529963942386
 20
3184.414968530635
 30
0.0
 11
979.6529963942386
 21
3333.020259029039
 31
0.0
  0
LINE
  5
7E44
330
81A3
100
AcDbEntity
  8
0
  6
ByBlock
100
AcDbLine
 10
219.6529963942384
 20
3313.020259029039
 30
0.0
 11
939.652996394239
 21
3313.020259029039
 31
0.0
  0
INSERT
  5
7E45
330
81A3
100
AcDbEntity
  8
0
  6
ByBlock
100
AcDbBlockReference
  2
_OPEN
 10
179.6529963942384
 20
3313.020259029039
 30
0.0
 41
40.0
 42
40.0
 43
40.0
 50
180.0
  0
INSERT
  5
7E46
330
81A3
100
AcDbEntity
  8
0
  6
ByBlock
100
AcDbBlockReference
  2
_OPEN
 10
979.6529963942386
 20
3313.020259029039
 30
0.0
 41
40.0
 42
40.0
 43
40.0
  0
TEXT
  5
7E47
330
81A3
100
AcDbEntity
  8
3
100
AcDbText
 10
502.5101392513816
 20
3323.020259029039
 30
0.0
 40
60.0
  1
800
100
AcDbText
  0
POINT
  5
7E48
330
81A3
100
AcDbEntity
  8
DEFPOINTS
  6
ByBlock
 62
     0
100
AcDbPoint
 10
179.6529963942384
 20
3164.414968530634
 30
0.0
  0
POINT
  5
7E49
330
81A3
100
AcDbEntity
  8
DEFPOINTS
  6
ByBlock
 62
     0
100
AcDbPoint
 10
979.6529963942386
 20
3164.414968530635
 30
0.0
  0
POINT
  5
7E4A
330
81A3
100
AcDbEntity
  8
DEFPOINTS
  6
ByBlock
 62
     0
100
AcDbPoint
 10
979.6529963942386
 20
3313.020259029039
 30
0.0
  0
ENDBLK
  5
7E4B
330
81A3
100
AcDbEntity
  8
0
100
AcDbBlockEnd
  0
BLOCK
  5
81A6
330
81A5
100
AcDbEntity
  8
0
100
AcDbBlockBegin
  2
*D11
 70
     1
 10
0.0
 20
0.0
 30
0.0
  3
*D11
  1

  0
LINE
  5
7F9B
330
81A5
100
AcDbEntity
  8
0
  6
ByBlock
100
AcDbLine
 10
335.0964112281989
 20
4072.318859462983
 30
0.0
 11
216.3514467743152
 21
4072.318859462983
 31
0.0
  0
LINE
  5
7F9C
330
81A5
100
AcDbEntity
  8
0
  6
ByBlock
100
AcDbLine
 10
335.0964112281989
 20
3472.318859462983
 30
0.0
 11
216.3514467743152
 21
3472.318859462983
 31
0.0
  0
LINE
  5
7F9D
330
81A5
100
AcDbEntity
  8
0
  6
ByBlock
100
AcDbLine
 10
236.3514467743152
 20
4032.318859462981
 30
0.0
 11
236.3514467743152
 21
3512.318859462983
 31
0.0
  0
INSERT
  5
7F9E
330
81A5
100
AcDbEntity
  8
0
  6
ByBlock
100
AcDbBlockReference
  2
_OPEN
 10
236.3514467743152
 20
4072.318859462983
 30
0.0
 41
40.0
 42
40.0
 43
40.0
 50
90.0
  0
INSERT
  5
7F9F
330
81A5
100
AcDbEntity
  8
0
  6
ByBlock
100
AcDbBlockReference
  2
_OPEN
 10
236.3514467743152
 20
3472.318859462983
 30
0.0
 41
40.0
 42
40.0
 43
40.0
 50
270.0
  0
TEXT
  5
7FA0
330
81A5
100
AcDbEntity
  8
3
100
AcDbText
 10
226.3514467743152
 20
3695.176002320125
 30
0.0
 40
60.0
  1
600
 50
90.0
100
AcDbText
  0
POINT
  5
7FA1
330
81A5
100
AcDbEntity
  8
DEFPOINTS
  6
ByBlock
 62
     0
100
AcDbPoint
 10
355.0964112281989
 20
4072.318859462983
 30
0.0
  0
POINT
  5
7FA2
330
81A5
100
AcDbEntity
  8
DEFPOINTS
  6
ByBlock
 62
     0
100
AcDbPoint
 10
355.0964112281989
 20
3472.318859462983
 30
0.0
  0
POINT
  5
7FA3
330
81A5
100
AcDbEntity
  8
DEFPOINTS
  6
ByBlock
 62
     0
100
AcDbPoint
 10
236.3514467743152
 20
3472.318859462983
 30
0.0
  0
ENDBLK
  5
7FA4
330
81A5
100
AcDbEntity
  8
0
100
AcDbBlockEnd
  0
BLOCK
  5
81A8
330
81A7
100
AcDbEntity
  8
0
100
AcDbBlockBegin
  2
*D12
 70
     1
 10
0.0
 20
0.0
 30
0.0
  3
*D12
  1

  0
LINE
  5
7EF1
330
81A7
100
AcDbEntity
  8
0
  6
ByBlock
100
AcDbLine
 10
355.0964112281989
 20
1695.847673143363
 30
0.0
 11
355.0964112281989
 21
3065.340322853661
 31
0.0
  0
LINE
  5
7EF2
330
81A7
100
AcDbEntity
  8
0
  6
ByBlock
100
AcDbLine
 10
1865.096411228199
 20
2336.0123657914
 30
0.0
 11
1865.096411228199
 21
3065.340322853661
 31
0.0
  0
LINE
  5
7EF3
330
81A7
100
AcDbEntity
  8
0
  6
ByBlock
100
AcDbLine
 10
395.0964112281989
 20
3045.340322853661
 30
0.0
 11
1825.096411228199
 21
3045.340322853661
 31
0.0
  0
INSERT
  5
7EF4
330
81A7
100
AcDbEntity
  8
0
  6
ByBlock
100
AcDbBlockReference
  2
_OPEN
 10
355.0964112281989
 20
3045.340322853661
 30
0.0
 41
40.0
 42
40.0
 43
40.0
 50
180.0
  0
INSERT
  5
7EF5
330
81A7
100
AcDbEntity
  8
0
  6
ByBlock
100
AcDbBlockReference
  2
_OPEN
 10
1865.096411228199
 20
3045.340322853661
 30
0.0
 41
40.0
 42
40.0
 43
40.0
  0
TEXT
  5
7EF6
330
81A7
100
AcDbEntity
  8
3
100
AcDbText
 10
1015.810696942484
 20
3055.340322853661
 30
0.0
 40
60.0
  1
1510
100
AcDbText
  0
POINT
  5
7EF7
330
81A7
100
AcDbEntity
  8
DEFPOINTS
  6
ByBlock
 62
     0
100
AcDbPoint
 10
355.0964112281989
 20
1675.847673143364
 30
0.0
  0
POINT
  5
7EF8
330
81A7
100
AcDbEntity
  8
DEFPOINTS
  6
ByBlock
 62
     0
100
AcDbPoint
 10
1865.096411228199
 20
2316.0123657914
 30
0.0
  0
POINT
  5
7EF9
330
81A7
100
AcDbEntity
  8
DEFPOINTS
  6
ByBlock
 62
     0
100
AcDbPoint
 10
1865.096411228199
 20
3045.340322853661
 30
0.0
  0
ENDBLK
  5
7EFA
330
81A7
100
AcDbEntity
  8
0
100
AcDbBlockEnd
  0
BLOCK
  5
81AA
330
81A9
100
AcDbEntity
  8
0
100
AcDbBlockBegin
  2
*D13
 70
     1
 10
0.0
 20
0.0
 30
0.0
  3
*D13
  1

  0
LINE
  5
7FB4
330
81A9
100
AcDbEntity
  8
0
  6
ByBlock
100
AcDbLine
 10
3892.739608317243
 20
2325.847673143363
 30
0.0
 11
3892.739608317243
 21
3027.283743687152
 31
0.0
  0
LINE
  5
7FB5
330
81A9
100
AcDbEntity
  8
0
  6
ByBlock
100
AcDbLine
 10
3392.739608317243
 20
2974.862072621314
 30
0.0
 11
3392.739608317243
 21
3027.283743687152
 31
0.0
  0
LINE
  5
7FB6
330
81A9
100
AcDbEntity
  8
0
  6
ByBlock
100
AcDbLine
 10
3852.739608317243
 20
3007.283743687152
 30
0.0
 11
3432.739608317243
 21
3007.283743687152
 31
0.0
  0
INSERT
  5
7FB7
330
81A9
100
AcDbEntity
  8
0
  6
ByBlock
100
AcDbBlockReference
  2
_OPEN
 10
3892.739608317243
 20
3007.283743687152
 30
0.0
 41
40.0
 42
40.0
 43
40.0
  0
INSERT
  5
7FB8
330
81A9
100
AcDbEntity
  8
0
  6
ByBlock
100
AcDbBlockReference
  2
_OPEN
 10
3392.739608317243
 20
3007.283743687152
 30
0.0
 41
40.0
 42
40.0
 43
40.0
 50
180.0
  0
TEXT
  5
7FB9
330
81A9
100
AcDbEntity
  8
3
100
AcDbText
 10
3532.739608317243
 20
3042.998029401438
 30
0.0
 40
60.0
  1
(510)
100
AcDbText
  0
POINT
  5
7FBA
330
81A9
100
AcDbEntity
  8
DEFPOINTS
  6
ByBlock
 62
     0
100
AcDbPoint
 10
3892.739608317243
 20
2305.847673143363
 30
0.0
  0
POINT
  5
7FBB
330
81A9
100
AcDbEntity
  8
DEFPOINTS
  6
ByBlock
 62
     0
100
AcDbPoint
 10
3392.739608317243
 20
2954.862072621314
 30
0.0
  0
POINT
  5
7FBC
330
81A9
100
AcDbEntity
  8
DEFPOINTS
  6
ByBlock
 62
     0
100
AcDbPoint
 10
3392.739608317243
 20
3007.283743687152
 30
0.0
  0
ENDBLK
  5
7FBD
330
81A9
100
AcDbEntity
  8
0
100
AcDbBlockEnd
  0
BLOCK
  5
81AC
330
81AB
100
AcDbEntity
  8
0
100
AcDbBlockBegin
  2
*D14
 70
     1
 10
0.0
 20
0.0
 30
0.0
  3
*D14
  1

  0
LINE
  5
80E9
330
81AB
100
AcDbEntity
  8
3
100
AcDbLine
 10
2712.739608317243
 20
2505.847673143364
 30
0.0
 11
2712.739608317243
 21
3027.283743687152
 31
0.0
  0
LINE
  5
80EA
330
81AB
100
AcDbEntity
  8
3
100
AcDbLine
 10
3352.739608317243
 20
3007.283743687152
 30
0.0
 11
2752.739608317243
 21
3007.283743687152
 31
0.0
  0
INSERT
  5
80EB
330
81AB
100
AcDbEntity
  8
3
100
AcDbBlockReference
  2
_OPEN
 10
3392.739608317243
 20
3007.283743687152
 30
0.0
 41
40.0
 42
40.0
 43
40.0
  0
INSERT
  5
80EC
330
81AB
100
AcDbEntity
  8
3
100
AcDbBlockReference
  2
_OPEN
 10
2712.739608317243
 20
3007.283743687152
 30
0.0
 41
40.0
 42
40.0
 43
40.0
 50
180.0
  0
TEXT
  5
810C
330
81AB
100
AcDbEntity
  8
3
100
AcDbText
 10
2932.74
 20
2991.08
 30
0.0
 40
60.0
  1
MAX
100
AcDbText
  0
TEXT
  5
810D
330
81AB
100
AcDbEntity
  8
3
100
AcDbText
 10
2932.74
 20
2913.08
 30
0.0
 40
60.0
  1
710
100
AcDbText
  0
POINT
  5
80EE
330
81AB
100
AcDbEntity
  8
DEFPOINTS
 62
     0
100
AcDbPoint
 10
3392.739608317243
 20
2954.862072621314
 30
0.0
  0
POINT
  5
80EF
330
81AB
100
AcDbEntity
  8
DEFPOINTS
 62
     0
100
AcDbPoint
 10
2712.739608317243
 20
2485.847673143364
 30
0.0
  0
POINT
  5
80F0
330
81AB
100
AcDbEntity
  8
DEFPOINTS
 62
     0
100
AcDbPoint
 10
2712.739608317243
 20
3007.283743687152
 30
0.0
  0
ENDBLK
  5
7FB2
330
81AB
100
AcDbEntity
  8
0
100
AcDbBlockEnd
  0
BLOCK
  5
81AE
330
81AD
100
AcDbEntity
  8
0
100
AcDbBlockBegin
  2
*D15
 70
     1
 10
0.0
 20
0.0
 30
0.0
  3
*D15
  1

  0
LINE
  5
80F1
330
81AD
100
AcDbEntity
  8
3
100
AcDbLine
 10
460.7051632629889
 20
4092.318859462981
 30
0.0
 11
460.705163262989
 21
4646.924149961389
 31
0.0
  0
LINE
  5
80F2
330
81AD
100
AcDbEntity
  8
3
100
AcDbLine
 10
1070.705163262988
 20
4626.924149961388
 30
0.0
 11
500.7051632629892
 21
4626.924149961388
 31
0.0
  0
INSERT
  5
80F3
330
81AD
100
AcDbEntity
  8
3
100
AcDbBlockReference
  2
_OPEN
 10
1110.705163262988
 20
4626.924149961388
 30
0.0
 41
40.0
 42
40.0
 43
40.0
  0
INSERT
  5
80F4
330
81AD
100
AcDbEntity
  8
3
100
AcDbBlockReference
  2
_OPEN
 10
460.705163262989
 20
4626.924149961388
 30
0.0
 41
40.0
 42
40.0
 43
40.0
 50
180.0
  0
TEXT
  5
810E
330
81AD
100
AcDbEntity
  8
3
100
AcDbText
 10
665.705
 20
4560.72
 30
0.0
 40
60.0
  1
650
100
AcDbText
  0
POINT
  5
80F6
330
81AD
100
AcDbEntity
  8
DEFPOINTS
 62
     0
100
AcDbPoint
 10
1110.705163262988
 20
4478.318859462985
 30
0.0
  0
POINT
  5
80F7
330
81AD
100
AcDbEntity
  8
DEFPOINTS
 62
     0
100
AcDbPoint
 10
460.7051632629889
 20
4072.31885946298
 30
0.0
  0
POINT
  5
80F8
330
81AD
100
AcDbEntity
  8
DEFPOINTS
 62
     0
100
AcDbPoint
 10
460.705163262989
 20
4626.924149961388
 30
0.0
  0
ENDBLK
  5
7E96
330
81AD
100
AcDbEntity
  8
0
100
AcDbBlockEnd
  0
BLOCK
  5
81B0
330
81AF
100
AcDbEntity
  8
0
100
AcDbBlockBegin
  2
*D16
 70
     1
 10
0.0
 20
0.0
 30
0.0
  3
*D16
  1

  0
LINE
  5
7EFC
330
81AF
100
AcDbEntity
  8
0
  6
ByBlock
100
AcDbLine
 10
1865.096411228199
 20
2355.847673143363
 30
0.0
 11
1865.096411228199
 21
2945.066613388714
 31
0.0
  0
LINE
  5
7EFD
330
81AF
100
AcDbEntity
  8
0
  6
ByBlock
100
AcDbLine
 10
1405.096411228199
 20
2885.447817660772
 30
0.0
 11
1405.096411228199
 21
2945.066613388714
 31
0.0
  0
LINE
  5
7EFE
330
81AF
100
AcDbEntity
  8
0
  6
ByBlock
100
AcDbLine
 10
1825.096411228199
 20
2925.066613388714
 30
0.0
 11
1445.096411228199
 21
2925.066613388714
 31
0.0
  0
INSERT
  5
7EFF
330
81AF
100
AcDbEntity
  8
0
  6
ByBlock
100
AcDbBlockReference
  2
_OPEN
 10
1865.096411228199
 20
2925.066613388714
 30
0.0
 41
40.0
 42
40.0
 43
40.0
  0
INSERT
  5
7F00
330
81AF
100
AcDbEntity
  8
0
  6
ByBlock
100
AcDbBlockReference
  2
_OPEN
 10
1405.096411228199
 20
2925.066613388714
 30
0.0
 41
40.0
 42
40.0
 43
40.0
 50
180.0
  0
TEXT
  5
7F01
330
81AF
100
AcDbEntity
  8
3
100
AcDbText
 10
1557.953554085341
 20
2935.066613388713
 30
0.0
 40
60.0
  1
460
100
AcDbText
  0
POINT
  5
7F02
330
81AF
100
AcDbEntity
  8
DEFPOINTS
  6
ByBlock
 62
     0
100
AcDbPoint
 10
1865.096411228199
 20
2335.847673143363
 30
0.0
  0
POINT
  5
7F03
330
81AF
100
AcDbEntity
  8
DEFPOINTS
  6
ByBlock
 62
     0
100
AcDbPoint
 10
1405.096411228199
 20
2865.447817660772
 30
0.0
  0
POINT
  5
7F04
330
81AF
100
AcDbEntity
  8
DEFPOINTS
  6
ByBlock
 62
     0
100
AcDbPoint
 10
1405.096411228199
 20
2925.066613388714
 30
0.0
  0
ENDBLK
  5
7F05
330
81AF
100
AcDbEntity
  8
0
100
AcDbBlockEnd
  0
BLOCK
  5
81B2
330
81B1
100
AcDbEntity
  8
0
100
AcDbBlockBegin
  2
*D17
 70
     1
 10
0.0
 20
0.0
 30
0.0
  3
*D17
  1

  0
LINE
  5
80F9
330
81B1
100
AcDbEntity
  8
3
100
AcDbLine
 10
962.7051632629893
 20
2308.847673143364
 30
0.0
 11
962.7051632629893
 21
2945.066613388714
 31
0.0
  0
LINE
  5
80FA
330
81B1
100
AcDbEntity
  8
3
100
AcDbLine
 10
1470.705163262989
 20
2925.066613388714
 30
0.0
 11
1002.705163262989
 21
2925.066613388714
 31
0.0
  0
INSERT
  5
80FB
330
81B1
100
AcDbEntity
  8
3
100
AcDbBlockReference
  2
_OPEN
 10
1510.705163262989
 20
2925.066613388714
 30
0.0
 41
40.0
 42
40.0
 43
40.0
  0
INSERT
  5
80FC
330
81B1
100
AcDbEntity
  8
3
100
AcDbBlockReference
  2
_OPEN
 10
962.7051632629893
 20
2925.066613388714
 30
0.0
 41
40.0
 42
40.0
 43
40.0
 50
180.0
  0
TEXT
  5
810F
330
81B1
100
AcDbEntity
  8
3
100
AcDbText
 10
1116.71
 20
2858.87
 30
0.0
 40
60.0
  1
548
100
AcDbText
  0
POINT
  5
80FE
330
81B1
100
AcDbEntity
  8
DEFPOINTS
 62
     0
100
AcDbPoint
 10
1510.705163262989
 20
2865.447817660772
 30
0.0
  0
POINT
  5
80FF
330
81B1
100
AcDbEntity
  8
DEFPOINTS
 62
     0
100
AcDbPoint
 10
962.7051632629893
 20
2288.847673143363
 30
0.0
  0
POINT
  5
8100
330
81B1
100
AcDbEntity
  8
DEFPOINTS
 62
     0
100
AcDbPoint
 10
962.7051632629893
 20
2925.066613388714
 30
0.0
  0
ENDBLK
  5
7F0F
330
81B1
100
AcDbEntity
  8
0
100
AcDbBlockEnd
  0
BLOCK
  5
81B4
330
81B3
100
AcDbEntity
  8
0
100
AcDbBlockBegin
  2
*D18
 70
     1
 10
0.0
 20
0.0
 30
0.0
  3
*D18
  1

  0
LINE
  5
7EAD
330
81B3
100
AcDbEntity
  8
0
  6
ByBlock
100
AcDbLine
 10
552.6529963942383
 20
1022.09762645012
 30
0.0
 11
1415.23174880838
 21
1022.09762645012
 31
0.0
  0
LINE
  5
7EAE
330
81B3
100
AcDbEntity
  8
0
  6
ByBlock
100
AcDbLine
 10
1126.545969497234
 20
568.0976264501205
 30
0.0
 11
1415.23174880838
 21
568.0976264501205
 31
0.0
  0
LINE
  5
7EAF
330
81B3
100
AcDbEntity
  8
0
  6
ByBlock
100
AcDbLine
 10
1395.23174880838
 20
982.0976264501204
 30
0.0
 11
1395.23174880838
 21
608.0976264501205
 31
0.0
  0
INSERT
  5
7EB0
330
81B3
100
AcDbEntity
  8
0
  6
ByBlock
100
AcDbBlockReference
  2
_OPEN
 10
1395.23174880838
 20
1022.09762645012
 30
0.0
 41
40.0
 42
40.0
 43
40.0
 50
90.0
  0
INSERT
  5
7EB1
330
81B3
100
AcDbEntity
  8
0
  6
ByBlock
100
AcDbBlockReference
  2
_OPEN
 10
1395.23174880838
 20
568.0976264501205
 30
0.0
 41
40.0
 42
40.0
 43
40.0
 50
270.0
  0
TEXT
  5
7EB2
330
81B3
100
AcDbEntity
  8
3
100
AcDbText
 10
1385.23174880838
 20
716.526197878692
 30
0.0
 40
60.0
  1
454
 50
90.0
100
AcDbText
  0
POINT
  5
7EB3
330
81B3
100
AcDbEntity
  8
DEFPOINTS
  6
ByBlock
 62
     0
100
AcDbPoint
 10
532.6529963942383
 20
1022.09762645012
 30
0.0
  0
POINT
  5
7EB4
330
81B3
100
AcDbEntity
  8
DEFPOINTS
  6
ByBlock
 62
     0
100
AcDbPoint
 10
1106.545969497234
 20
568.0976264501205
 30
0.0
  0
POINT
  5
7EB5
330
81B3
100
AcDbEntity
  8
DEFPOINTS
  6
ByBlock
 62
     0
100
AcDbPoint
 10
1395.23174880838
 20
568.0976264501205
 30
0.0
  0
ENDBLK
  5
7EB6
330
81B3
100
AcDbEntity
  8
0
100
AcDbBlockEnd
  0
BLOCK
  5
81B6
330
81B5
100
AcDbEntity
  8
0
100
AcDbBlockBegin
  2
*D19
 70
     1
 10
0.0
 20
0.0
 30
0.0
  3
*D19
  1

  0
LINE
  5
8101
330
81B5
100
AcDbEntity
  8
3
100
AcDbLine
 10
1930.705163262989
 20
1535.847673143363
 30
0.0
 11
2346.283915677131
 21
1535.847673143363
 31
0.0
  0
LINE
  5
8102
330
81B5
100
AcDbEntity
  8
3
100
AcDbLine
 10
2326.283915677131
 20
2295.847673143363
 30
0.0
 11
2326.283915677131
 21
1575.847673143363
 31
0.0
  0
INSERT
  5
8103
330
81B5
100
AcDbEntity
  8
3
100
AcDbBlockReference
  2
_OPEN
 10
2326.283915677131
 20
2335.847673143363
 30
0.0
 41
40.0
 42
40.0
 43
40.0
 50
90.0
  0
INSERT
  5
8104
330
81B5
100
AcDbEntity
  8
3
100
AcDbBlockReference
  2
_OPEN
 10
2326.283915677131
 20
1535.847673143363
 30
0.0
 41
40.0
 42
40.0
 43
40.0
 50
270.0
  0
TEXT
  5
8110
330
81B5
100
AcDbEntity
  8
3
100
AcDbText
 10
2166.28
 20
1829.65
 30
0.0
 40
60.0
  1
800
100
AcDbText
  0
POINT
  5
8106
330
81B5
100
AcDbEntity
  8
DEFPOINTS
 62
     0
100
AcDbPoint
 10
2037.598136365985
 20
2335.847673143363
 30
0.0
  0
POINT
  5
8107
330
81B5
100
AcDbEntity
  8
DEFPOINTS
 62
     0
100
AcDbPoint
 10
1910.705163262989
 20
1535.847673143363
 30
0.0
  0
POINT
  5
8108
330
81B5
100
AcDbEntity
  8
DEFPOINTS
 62
     0
100
AcDbPoint
 10
2326.283915677131
 20
1535.847673143363
 30
0.0
  0
ENDBLK
  5
7EC0
330
81B5
100
AcDbEntity
  8
0
100
AcDbBlockEnd
  0
BLOCK
  5
81B8
330
81B7
100
AcDbEntity
  8
0
100
AcDbBlockBegin
  2
_DOT
 70
     0
 10
0.0
 20
0.0
 30
0.0
  3
_DOT
  1

  0
LWPOLYLINE
  5
7F8F
330
81B7
100
AcDbEntity
  8
0
  6
ByBlock
 62
     0
100
AcDbPolyline
 90
        2
 70
     1
 43
0.25
 10
-0.125
 20
0.0
 42
1.0
 10
0.125
 20
0.0
 42
1.0
  0
LINE
  5
7F93
330
81B7
100
AcDbEntity
  8
0
  6
ByBlock
 62
     0
100
AcDbLine
 10
-0.25
 20
0.0
 30
0.0
 11
-1.0
 21
0.0
 31
0.0
  0
ENDBLK
  5
7F72
330
81B7
100
AcDbEntity
  8
0
100
AcDbBlockEnd
  0
BLOCK
  5
81BA
330
81B9
100
AcDbEntity
  8
0
100
AcDbBlockBegin
  2
_NONE
 70
     0
 10
0.0
 20
0.0
 30
0.0
  3
_NONE
  1

  0
CIRCLE
  5
7FFC
330
81B9
100
AcDbEntity
  8
0
  6
ByBlock
 62
     0
100
AcDbCircle
 10
0.0
 20
0.0
 30
0.0
 40
0.25
  0
ENDBLK
  5
7FFD
330
81B9
100
AcDbEntity
  8
0
100
AcDbBlockEnd
  0
BLOCK
  5
81BC
330
81BB
100
AcDbEntity
  8
0
100
AcDbBlockBegin
  2
*D22
 70
     1
 10
0.0
 20
0.0
 30
0.0
  3
*D22
  1

  0
LINE
  5
8031
330
81BB
100
AcDbEntity
  8
0
  6
ByBlock
 62
     0
100
AcDbLine
 10
460.7051632629889
 20
1515.847673143364
 30
0.0
 11
460.7051632629889
 21
1363.316623380695
 31
0.0
  0
LINE
  5
8032
330
81BB
100
AcDbEntity
  8
0
  6
ByBlock
 62
     0
100
AcDbLine
 10
1510.705163262989
 20
1515.847673143364
 30
0.0
 11
1510.705163262989
 21
1363.316623380695
 31
0.0
  0
LINE
  5
8033
330
81BB
100
AcDbEntity
  8
0
  6
ByBlock
 62
     0
100
AcDbLine
 10
500.7051632629891
 20
1383.316623380695
 30
0.0
 11
1470.705163262989
 21
1383.316623380695
 31
0.0
  0
INSERT
  5
8034
330
81BB
100
AcDbEntity
  8
0
  6
ByBlock
 62
     0
100
AcDbBlockReference
  2
_OPEN
 10
460.7051632629889
 20
1383.316623380695
 30
0.0
 41
40.0
 42
40.0
 43
40.0
 50
180.0
  0
INSERT
  5
8035
330
81BB
100
AcDbEntity
  8
0
  6
ByBlock
 62
     0
100
AcDbBlockReference
  2
_OPEN
 10
1510.705163262989
 20
1383.316623380695
 30
0.0
 41
40.0
 42
40.0
 43
40.0
  0
TEXT
  5
8036
330
81BB
100
AcDbEntity
  8
3
 62
     0
100
AcDbText
 10
885.705163262989
 20
1403.316623380695
 30
0.0
 40
60.0
  1
1050
100
AcDbText
  0
POINT
  5
8037
330
81BB
100
AcDbEntity
  8
DEFPOINTS
  6
ByBlock
 62
     0
100
AcDbPoint
 10
460.7051632629889
 20
1535.847673143363
 30
0.0
  0
POINT
  5
8038
330
81BB
100
AcDbEntity
  8
DEFPOINTS
  6
ByBlock
 62
     0
100
AcDbPoint
 10
1510.705163262989
 20
1535.847673143363
 30
0.0
  0
POINT
  5
8039
330
81BB
100
AcDbEntity
  8
DEFPOINTS
  6
ByBlock
 62
     0
100
AcDbPoint
 10
1510.705163262989
 20
1383.316623380695
 30
0.0
  0
ENDBLK
  5
803A
330
81BB
100
AcDbEntity
  8
0
100
AcDbBlockEnd
  0
BLOCK
  5
81BE
330
81BD
100
AcDbEntity
  8
0
100
AcDbBlockBegin
  2
*D23
 70
     1
 10
0.0
 20
0.0
 30
0.0
  3
*D23
  1

  0
LINE
  5
803E
330
81BD
100
AcDbEntity
  8
0
  6
ByBlock
 62
     0
100
AcDbLine
 10
1510.705163262989
 20
1515.847673143364
 30
0.0
 11
1510.705163262989
 21
1363.316623380695
 31
0.0
  0
LINE
  5
803F
330
81BD
100
AcDbEntity
  8
0
  6
ByBlock
 62
     0
100
AcDbLine
 10
1910.705163262989
 20
1515.847673143364
 30
0.0
 11
1910.705163262989
 21
1363.316623380695
 31
0.0
  0
LINE
  5
8040
330
81BD
100
AcDbEntity
  8
0
  6
ByBlock
 62
     0
100
AcDbLine
 10
1550.705163262988
 20
1383.316623380695
 30
0.0
 11
1870.705163262989
 21
1383.316623380695
 31
0.0
  0
INSERT
  5
8041
330
81BD
100
AcDbEntity
  8
0
  6
ByBlock
 62
     0
100
AcDbBlockReference
  2
_OPEN
 10
1510.705163262989
 20
1383.316623380695
 30
0.0
 41
40.0
 42
40.0
 43
40.0
 50
180.0
  0
INSERT
  5
8042
330
81BD
100
AcDbEntity
  8
0
  6
ByBlock
 62
     0
100
AcDbBlockReference
  2
_OPEN
 10
1910.705163262989
 20
1383.316623380695
 30
0.0
 41
40.0
 42
40.0
 43
40.0
  0
TEXT
  5
8043
330
81BD
100
AcDbEntity
  8
3
 62
     0
100
AcDbText
 10
1633.562306120132
 20
1403.316623380695
 30
0.0
 40
60.0
  1
400
100
AcDbText
  0
POINT
  5
8044
330
81BD
100
AcDbEntity
  8
DEFPOINTS
  6
ByBlock
 62
     0
100
AcDbPoint
 10
1510.705163262989
 20
1535.847673143363
 30
0.0
  0
POINT
  5
8045
330
81BD
100
AcDbEntity
  8
DEFPOINTS
  6
ByBlock
 62
     0
100
AcDbPoint
 10
1910.705163262989
 20
1535.847673143363
 30
0.0
  0
POINT
  5
8046
330
81BD
100
AcDbEntity
  8
DEFPOINTS
  6
ByBlock
 62
     0
100
AcDbPoint
 10
1910.705163262989
 20
1383.316623380695
 30
0.0
  0
ENDBLK
  5
8047
330
81BD
100
AcDbEntity
  8
0
100
AcDbBlockEnd
  0
BLOCK
  5
81C0
330
81BF
100
AcDbEntity
  8
0
100
AcDbBlockBegin
  2
*D24
 70
     1
 10
0.0
 20
0.0
 30
0.0
  3
*D24
  1

  0
LINE
  5
804B
330
81BF
100
AcDbEntity
  8
0
  6
ByBlock
 62
     0
100
AcDbLine
 10
2839.739608317243
 20
1515.847673143364
 30
0.0
 11
2839.739608317243
 21
1363.316623380695
 31
0.0
  0
LINE
  5
804C
330
81BF
100
AcDbEntity
  8
0
  6
ByBlock
 62
     0
100
AcDbLine
 10
3392.739608317243
 20
1515.847673143364
 30
0.0
 11
3392.739608317243
 21
1363.316623380695
 31
0.0
  0
LINE
  5
804D
330
81BF
100
AcDbEntity
  8
0
  6
ByBlock
 62
     0
100
AcDbLine
 10
2879.739608317243
 20
1383.316623380695
 30
0.0
 11
3352.739608317243
 21
1383.316623380695
 31
0.0
  0
INSERT
  5
804E
330
81BF
100
AcDbEntity
  8
0
  6
ByBlock
 62
     0
100
AcDbBlockReference
  2
_OPEN
 10
2839.739608317243
 20
1383.316623380695
 30
0.0
 41
40.0
 42
40.0
 43
40.0
 50
180.0
  0
INSERT
  5
804F
330
81BF
100
AcDbEntity
  8
0
  6
ByBlock
 62
     0
100
AcDbBlockReference
  2
_OPEN
 10
3392.739608317243
 20
1383.316623380695
 30
0.0
 41
40.0
 42
40.0
 43
40.0
  0
TEXT
  5
8050
330
81BF
100
AcDbEntity
  8
3
 62
     0
100
AcDbText
 10
3039.096751174386
 20
1403.316623380695
 30
0.0
 40
60.0
  1
553
100
AcDbText
  0
POINT
  5
8051
330
81BF
100
AcDbEntity
  8
DEFPOINTS
  6
ByBlock
 62
     0
100
AcDbPoint
 10
2839.739608317243
 20
1535.847673143363
 30
0.0
  0
POINT
  5
8052
330
81BF
100
AcDbEntity
  8
DEFPOINTS
  6
ByBlock
 62
     0
100
AcDbPoint
 10
3392.739608317243
 20
1535.847673143364
 30
0.0
  0
POINT
  5
8053
330
81BF
100
AcDbEntity
  8
DEFPOINTS
  6
ByBlock
 62
     0
100
AcDbPoint
 10
3392.739608317243
 20
1383.316623380695
 30
0.0
  0
ENDBLK
  5
8054
330
81BF
100
AcDbEntity
  8
0
100
AcDbBlockEnd
  0
BLOCK
  5
81C2
330
81C1
100
AcDbEntity
  8
0
100
AcDbBlockBegin
  2
*D25
 70
     1
 10
0.0
 20
0.0
 30
0.0
  3
*D25
  1

  0
LINE
  5
8065
330
81C1
100
AcDbEntity
  8
0
  6
ByBlock
 62
     0
100
AcDbLine
 10
3392.739608317243
 20
1515.847673143364
 30
0.0
 11
3392.739608317243
 21
1363.316623380695
 31
0.0
  0
LINE
  5
8066
330
81C1
100
AcDbEntity
  8
0
  6
ByBlock
 62
     0
100
AcDbLine
 10
3845.739608317244
 20
1515.847673143364
 30
0.0
 11
3845.739608317244
 21
1363.316623380695
 31
0.0
  0
LINE
  5
8067
330
81C1
100
AcDbEntity
  8
0
  6
ByBlock
 62
     0
100
AcDbLine
 10
3432.739608317243
 20
1383.316623380695
 30
0.0
 11
3805.739608317243
 21
1383.316623380695
 31
0.0
  0
INSERT
  5
8068
330
81C1
100
AcDbEntity
  8
0
  6
ByBlock
 62
     0
100
AcDbBlockReference
  2
_OPEN
 10
3392.739608317243
 20
1383.316623380695
 30
0.0
 41
40.0
 42
40.0
 43
40.0
 50
180.0
  0
INSERT
  5
8069
330
81C1
100
AcDbEntity
  8
0
  6
ByBlock
 62
     0
100
AcDbBlockReference
  2
_OPEN
 10
3845.739608317244
 20
1383.316623380695
 30
0.0
 41
40.0
 42
40.0
 43
40.0
  0
TEXT
  5
806A
330
81C1
100
AcDbEntity
  8
3
 62
     0
100
AcDbText
 10
3542.096751174386
 20
1403.316623380695
 30
0.0
 40
60.0
  1
453
100
AcDbText
  0
POINT
  5
806B
330
81C1
100
AcDbEntity
  8
DEFPOINTS
  6
ByBlock
 62
     0
100
AcDbPoint
 10
3392.739608317243
 20
1535.847673143364
 30
0.0
  0
POINT
  5
806C
330
81C1
100
AcDbEntity
  8
DEFPOINTS
  6
ByBlock
 62
     0
100
AcDbPoint
 10
3845.739608317244
 20
1535.847673143363
 30
0.0
  0
POINT
  5
806D
330
81C1
100
AcDbEntity
  8
DEFPOINTS
  6
ByBlock
 62
     0
100
AcDbPoint
 10
3845.739608317244
 20
1383.316623380695
 30
0.0
  0
ENDBLK
  5
806E
330
81C1
100
AcDbEntity
  8
0
100
AcDbBlockEnd
  0
BLOCK
  5
81C4
330
81C3
100
AcDbEntity
  8
0
100
AcDbBlockBegin
  2
*D26
 70
     1
 10
0.0
 20
0.0
 30
0.0
  3
*D26
  1

  0
LINE
  5
8072
330
81C3
100
AcDbEntity
  8
0
  6
ByBlock
 62
     0
100
AcDbLine
 10
1930.705163262989
 20
1535.847673143363
 30
0.0
 11
2470.209666884773
 21
1535.847673143363
 31
0.0
  0
LINE
  5
8073
330
81C3
100
AcDbEntity
  8
0
  6
ByBlock
 62
     0
100
AcDbLine
 10
1503.705163262989
 20
2789.847673143365
 30
0.0
 11
2470.209666884773
 21
2789.847673143365
 31
0.0
  0
LINE
  5
8074
330
81C3
100
AcDbEntity
  8
0
  6
ByBlock
 62
     0
100
AcDbLine
 10
2450.209666884773
 20
1575.847673143363
 30
0.0
 11
2450.209666884773
 21
2749.847673143364
 31
0.0
  0
INSERT
  5
8075
330
81C3
100
AcDbEntity
  8
0
  6
ByBlock
 62
     0
100
AcDbBlockReference
  2
_OPEN
 10
2450.209666884773
 20
1535.847673143363
 30
0.0
 41
40.0
 42
40.0
 43
40.0
 50
270.0
  0
INSERT
  5
8076
330
81C3
100
AcDbEntity
  8
0
  6
ByBlock
 62
     0
100
AcDbBlockReference
  2
_OPEN
 10
2450.209666884773
 20
2789.847673143365
 30
0.0
 41
40.0
 42
40.0
 43
40.0
 50
90.0
  0
TEXT
  5
8077
330
81C3
100
AcDbEntity
  8
3
 62
     0
100
AcDbText
 10
2430.209666884773
 20
2061.419101714792
 30
0.0
 40
60.0
  1
1254
 50
90.0
100
AcDbText
  0
POINT
  5
8078
330
81C3
100
AcDbEntity
  8
DEFPOINTS
  6
ByBlock
 62
     0
100
AcDbPoint
 10
1910.705163262989
 20
1535.847673143363
 30
0.0
  0
POINT
  5
8079
330
81C3
100
AcDbEntity
  8
DEFPOINTS
  6
ByBlock
 62
     0
100
AcDbPoint
 10
1483.705163262989
 20
2789.847673143365
 30
0.0
  0
POINT
  5
807A
330
81C3
100
AcDbEntity
  8
DEFPOINTS
  6
ByBlock
 62
     0
100
AcDbPoint
 10
2450.209666884773
 20
2789.847673143365
 30
0.0
  0
ENDBLK
  5
807B
330
81C3
100
AcDbEntity
  8
0
100
AcDbBlockEnd
  0
BLOCK
  5
81C8
330
81C7
100
AcDbEntity
  8
0
100
AcDbBlockBegin
  2
*D27
 70
     1
 10
0.0
 20
0.0
 30
0.0
  3
*D27
  1

  0
LINE
  5
8222
330
81C7
100
AcDbEntity
  8
3
 62
     0
370
    -2
100
AcDbLine
 10
2612.739608317243
 20
2505.847673143364
 30
0.0
 11
2612.739608317243
 21
3045.867786547407
 31
0.0
  0
LINE
  5
8223
330
81C7
100
AcDbEntity
  8
3
 62
     0
370
    -2
100
AcDbLine
 10
3392.739608317243
 20
2951.432571521588
 30
0.0
 11
3392.739608317243
 21
3045.867786547407
 31
0.0
  0
LINE
  5
8224
330
81C7
100
AcDbEntity
  8
3
 62
     0
370
    -2
100
AcDbLine
 10
2652.739608317243
 20
3025.867786547407
 30
0.0
 11
3352.739608317243
 21
3025.867786547407
 31
0.0
  0
INSERT
  5
8225
330
81C7
100
AcDbEntity
  8
3
 62
     0
370
    -2
100
AcDbBlockReference
  2
_OPEN
 10
2612.739608317243
 20
3025.867786547407
 30
0.0
 41
40.0
 42
40.0
 43
40.0
 50
180.0
  0
INSERT
  5
8226
330
81C7
100
AcDbEntity
  8
3
 62
     0
370
    -2
100
AcDbBlockReference
  2
_OPEN
 10
3392.739608317243
 20
3025.867786547407
 30
0.0
 41
40.0
 42
40.0
 43
40.0
  0
MTEXT
  5
8227
330
81C7
100
AcDbEntity
  8
3
 62
     0
100
AcDbMText
 10
3002.739608317243
 20
3091.582072261693
 30
0.0
 40
60.0
 41
0.0
 71
     5
 72
     1
  1
\A1;(780)
 73
     1
 44
1.0
1001
ACAD
1000
MTEXTBEGIN
1070
    73
1070
     1
1070
    44
1040
1.0
1070
    74
1070
     0
1000
MTEXTEND
  0
POINT
  5
8228
330
81C7
100
AcDbEntity
  8
DEFPOINTS
 62
     0
100
AcDbPoint
 10
2612.739608317243
 20
2485.847673143364
 30
0.0
  0
POINT
  5
8229
330
81C7
100
AcDbEntity
  8
DEFPOINTS
 62
     0
100
AcDbPoint
 10
3392.739608317243
 20
2931.432571521588
 30
0.0
  0
POINT
  5
822A
330
81C7
100
AcDbEntity
  8
DEFPOINTS
 62
     0
100
AcDbPoint
 10
3392.739608317243
 20
3025.867786547407
 30
0.0
  0
ENDBLK
  5
81C9
330
81C7
100
AcDbEntity
  8
0
100
AcDbBlockEnd
  0
BLOCK
  5
81D5
330
81D4
100
AcDbEntity
  8
0
100
AcDbBlockBegin
  2
*D28
 70
     1
 10
0.0
 20
0.0
 30
0.0
  3
*D28
  1

  0
LINE
  5
8219
330
81D4
100
AcDbEntity
  8
3
 62
     0
370
    -2
100
AcDbLine
 10
3392.739608317243
 20
2951.432571521588
 30
0.0
 11
3392.739608317243
 21
3045.867786547407
 31
0.0
  0
LINE
  5
821A
330
81D4
100
AcDbEntity
  8
3
 62
     0
370
    -2
100
AcDbLine
 10
3902.739608317244
 20
2325.847673143363
 30
0.0
 11
3902.739608317244
 21
3045.867786547407
 31
0.0
  0
LINE
  5
821B
330
81D4
100
AcDbEntity
  8
3
 62
     0
370
    -2
100
AcDbLine
 10
3432.739608317243
 20
3025.867786547407
 30
0.0
 11
3862.739608317244
 21
3025.867786547407
 31
0.0
  0
INSERT
  5
821C
330
81D4
100
AcDbEntity
  8
3
 62
     0
370
    -2
100
AcDbBlockReference
  2
_OPEN
 10
3392.739608317243
 20
3025.867786547407
 30
0.0
 41
40.0
 42
40.0
 43
40.0
 50
180.0
  0
INSERT
  5
821D
330
81D4
100
AcDbEntity
  8
3
 62
     0
370
    -2
100
AcDbBlockReference
  2
_OPEN
 10
3902.739608317244
 20
3025.867786547407
 30
0.0
 41
40.0
 42
40.0
 43
40.0
  0
MTEXT
  5
821E
330
81D4
100
AcDbEntity
  8
3
 62
     0
100
AcDbMText
 10
3647.739608317244
 20
3091.582072261693
 30
0.0
 40
60.0
 41
0.0
 71
     5
 72
     1
  1
\A1;(510)
 73
     1
 44
1.0
1001
ACAD
1000
MTEXTBEGIN
1070
    73
1070
     1
1070
    44
1040
1.0
1070
    74
1070
     0
1000
MTEXTEND
  0
POINT
  5
821F
330
81D4
100
AcDbEntity
  8
DEFPOINTS
 62
     0
100
AcDbPoint
 10
3392.739608317243
 20
2931.432571521588
 30
0.0
  0
POINT
  5
8220
330
81D4
100
AcDbEntity
  8
DEFPOINTS
 62
     0
100
AcDbPoint
 10
3902.739608317244
 20
2305.847673143363
 30
0.0
  0
POINT
  5
8221
330
81D4
100
AcDbEntity
  8
DEFPOINTS
 62
     0
100
AcDbPoint
 10
3902.739608317244
 20
3025.867786547407
 30
0.0
  0
ENDBLK
  5
81D6
330
81D4
100
AcDbEntity
  8
0
100
AcDbBlockEnd
  0
BLOCK
  5
822D
330
822C
100
AcDbEntity
  8
0
100
AcDbBlockBegin
  2
*D29
 70
     1
 10
0.0
 20
0.0
 30
0.0
  3
*D29
  1

  0
LINE
  5
822F
330
822C
100
AcDbEntity
  8
3
 62
     0
370
    -2
100
AcDbLine
 10
460.7051632629889
 20
3452.318859462983
 30
0.0
 11
460.7051632629889
 21
3123.478450309462
 31
0.0
  0
LINE
  5
8230
330
822C
100
AcDbEntity
  8
3
 62
     0
370
    -2
100
AcDbLine
 10
1910.705163262989
 20
3452.318859462983
 30
0.0
 11
1910.705163262989
 21
3123.478450309462
 31
0.0
  0
LINE
  5
8231
330
822C
100
AcDbEntity
  8
3
 62
     0
370
    -2
100
AcDbLine
 10
500.7051632629889
 20
3143.478450309462
 30
0.0
 11
1870.705163262989
 21
3143.478450309462
 31
0.0
  0
INSERT
  5
8232
330
822C
100
AcDbEntity
  8
3
 62
     0
370
    -2
100
AcDbBlockReference
  2
_OPEN
 10
460.7051632629889
 20
3143.478450309462
 30
0.0
 41
40.0
 42
40.0
 43
40.0
 50
180.0
  0
INSERT
  5
8233
330
822C
100
AcDbEntity
  8
3
 62
     0
370
    -2
100
AcDbBlockReference
  2
_OPEN
 10
1910.705163262989
 20
3143.478450309462
 30
0.0
 41
40.0
 42
40.0
 43
40.0
  0
MTEXT
  5
8234
330
822C
100
AcDbEntity
  8
3
 62
     0
100
AcDbMText
 10
1185.705163262989
 20
3193.478450309461
 30
0.0
 40
60.0
 41
0.0
 71
     5
 72
     1
  1
\A1;1450
 73
     1
 44
1.0
1001
ACAD
1000
MTEXTBEGIN
1070
    73
1070
     1
1070
    44
1040
1.0
1070
    74
1070
     0
1000
MTEXTEND
  0
POINT
  5
8235
330
822C
100
AcDbEntity
  8
DEFPOINTS
 62
     0
100
AcDbPoint
 10
460.7051632629889
 20
3472.318859462983
 30
0.0
  0
POINT
  5
8236
330
822C
100
AcDbEntity
  8
DEFPOINTS
 62
     0
100
AcDbPoint
 10
1910.705163262989
 20
3472.318859462983
 30
0.0
  0
POINT
  5
8237
330
822C
100
AcDbEntity
  8
DEFPOINTS
 62
     0
100
AcDbPoint
 10
1910.705163262989
 20
3143.478450309462
 30
0.0
  0
ENDBLK
  5
822E
330
822C
100
AcDbEntity
  8
0
100
AcDbBlockEnd
  0
BLOCK
  5
823A
330
8239
100
AcDbEntity
  8
0
100
AcDbBlockBegin
  2
*D30
 70
     1
 10
0.0
 20
0.0
 30
0.0
  3
*D30
  1

  0
LINE
  5
8245
330
8239
100
AcDbEntity
  8
3
 62
     0
370
    -2
100
AcDbLine
 10
1510.705163262989
 20
2885.447817660772
 30
0.0
 11
1510.705163262989
 21
2945.066613388714
 31
0.0
  0
LINE
  5
8246
330
8239
100
AcDbEntity
  8
3
 62
     0
370
    -2
100
AcDbLine
 10
962.7051632629889
 20
2308.847673143363
 30
0.0
 11
962.7051632629889
 21
2945.066613388714
 31
0.0
  0
LINE
  5
8247
330
8239
100
AcDbEntity
  8
3
 62
     0
370
    -2
100
AcDbLine
 10
1470.705163262989
 20
2925.066613388714
 30
0.0
 11
1002.705163262989
 21
2925.066613388714
 31
0.0
  0
INSERT
  5
8248
330
8239
100
AcDbEntity
  8
3
 62
     0
370
    -2
100
AcDbBlockReference
  2
_OPEN
 10
1510.705163262989
 20
2925.066613388714
 30
0.0
 41
40.0
 42
40.0
 43
40.0
  0
INSERT
  5
8249
330
8239
100
AcDbEntity
  8
3
 62
     0
370
    -2
100
AcDbBlockReference
  2
_OPEN
 10
962.7051632629889
 20
2925.066613388714
 30
0.0
 41
40.0
 42
40.0
 43
40.0
 50
180.0
  0
MTEXT
  5
824A
330
8239
100
AcDbEntity
  8
3
 62
     0
100
AcDbMText
 10
1236.705163262989
 20
2975.066613388714
 30
0.0
 40
60.0
 41
0.0
 71
     5
 72
     1
  1
\A1;548
 73
     1
 44
1.0
1001
ACAD
1000
MTEXTBEGIN
1070
    73
1070
     1
1070
    44
1040
1.0
1070
    74
1070
     0
1000
MTEXTEND
  0
POINT
  5
824B
330
8239
100
AcDbEntity
  8
DEFPOINTS
 62
     0
100
AcDbPoint
 10
1510.705163262989
 20
2865.447817660772
 30
0.0
  0
POINT
  5
824C
330
8239
100
AcDbEntity
  8
DEFPOINTS
 62
     0
100
AcDbPoint
 10
962.7051632629889
 20
2288.847673143363
 30
0.0
  0
POINT
  5
824D
330
8239
100
AcDbEntity
  8
DEFPOINTS
 62
     0
100
AcDbPoint
 10
962.7051632629889
 20
2925.066613388714
 30
0.0
  0
ENDBLK
  5
823B
330
8239
100
AcDbEntity
  8
0
100
AcDbBlockEnd
  0
BLOCK
  5
8250
330
824F
100
AcDbEntity
  8
0
100
AcDbBlockBegin
  2
*D31
 70
     1
 10
0.0
 20
0.0
 30
0.0
  3
*D31
  1

  0
LINE
  5
825B
330
824F
100
AcDbEntity
  8
3
 62
     0
370
    -2
100
AcDbLine
 10
1930.705163262989
 20
1535.847673143363
 30
0.0
 11
2346.283915677131
 21
1535.847673143363
 31
0.0
  0
LINE
  5
825C
330
824F
100
AcDbEntity
  8
3
 62
     0
370
    -2
100
AcDbLine
 10
2037.598136365984
 20
2335.847673143363
 30
0.0
 11
2346.283915677131
 21
2335.847673143363
 31
0.0
  0
LINE
  5
825D
330
824F
100
AcDbEntity
  8
3
 62
     0
370
    -2
100
AcDbLine
 10
2326.283915677131
 20
1575.847673143363
 30
0.0
 11
2326.283915677131
 21
2295.847673143363
 31
0.0
  0
INSERT
  5
825E
330
824F
100
AcDbEntity
  8
3
 62
     0
370
    -2
100
AcDbBlockReference
  2
_OPEN
 10
2326.283915677131
 20
1535.847673143363
 30
0.0
 41
40.0
 42
40.0
 43
40.0
 50
270.0
  0
INSERT
  5
825F
330
824F
100
AcDbEntity
  8
3
 62
     0
370
    -2
100
AcDbBlockReference
  2
_OPEN
 10
2326.283915677131
 20
2335.847673143363
 30
0.0
 41
40.0
 42
40.0
 43
40.0
 50
90.0
  0
MTEXT
  5
8260
330
824F
100
AcDbEntity
  8
3
 62
     0
100
AcDbMText
 10
2276.28391567713
 20
1935.847673143363
 30
0.0
 40
60.0
 41
0.0
 71
     5
 72
     1
  1
\A1;800
 11
0.0000000000000001
 21
1.0
 31
0.0
 73
     1
 44
1.0
1001
ACAD
1000
MTEXTBEGIN
1070
    73
1070
     1
1070
    44
1040
1.0
1070
    74
1070
     0
1000
MTEXTEND
  0
POINT
  5
8261
330
824F
100
AcDbEntity
  8
DEFPOINTS
 62
     0
100
AcDbPoint
 10
1910.705163262989
 20
1535.847673143363
 30
0.0
  0
POINT
  5
8262
330
824F
100
AcDbEntity
  8
DEFPOINTS
 62
     0
100
AcDbPoint
 10
2017.598136365984
 20
2335.847673143363
 30
0.0
  0
POINT
  5
8263
330
824F
100
AcDbEntity
  8
DEFPOINTS
 62
     0
100
AcDbPoint
 10
2326.283915677131
 20
2335.847673143363
 30
0.0
  0
ENDBLK
  5
8251
330
824F
100
AcDbEntity
  8
0
100
AcDbBlockEnd
  0
BLOCK
  5
8266
330
8265
100
AcDbEntity
  8
0
100
AcDbBlockBegin
  2
*D32
 70
     1
 10
0.0
 20
0.0
 30
0.0
  3
*D32
  1

  0
LINE
  5
8271
330
8265
100
AcDbEntity
  8
3
 62
     0
370
    -2
100
AcDbLine
 10
1110.705163262988
 20
4498.318859462986
 30
0.0
 11
1110.705163262988
 21
4646.924149961387
 31
0.0
  0
LINE
  5
8272
330
8265
100
AcDbEntity
  8
3
 62
     0
370
    -2
100
AcDbLine
 10
460.7051632629889
 20
4092.318859462983
 30
0.0
 11
460.705163262989
 21
4646.924149961387
 31
0.0
  0
LINE
  5
8273
330
8265
100
AcDbEntity
  8
3
 62
     0
370
    -2
100
AcDbLine
 10
1070.705163262988
 20
4626.924149961388
 30
0.0
 11
500.705163262989
 21
4626.924149961388
 31
0.0
  0
INSERT
  5
8274
330
8265
100
AcDbEntity
  8
3
 62
     0
370
    -2
100
AcDbBlockReference
  2
_OPEN
 10
1110.705163262988
 20
4626.924149961388
 30
0.0
 41
40.0
 42
40.0
 43
40.0
  0
INSERT
  5
8275
330
8265
100
AcDbEntity
  8
3
 62
     0
370
    -2
100
AcDbBlockReference
  2
_OPEN
 10
460.705163262989
 20
4626.924149961388
 30
0.0
 41
40.0
 42
40.0
 43
40.0
 50
180.0
  0
MTEXT
  5
8276
330
8265
100
AcDbEntity
  8
3
 62
     0
100
AcDbMText
 10
785.7051632629889
 20
4676.924149961387
 30
0.0
 40
60.0
 41
0.0
 71
     5
 72
     1
  1
\A1;650
 73
     1
 44
1.0
1001
ACAD
1000
MTEXTBEGIN
1070
    73
1070
     1
1070
    44
1040
1.0
1070
    74
1070
     0
1000
MTEXTEND
  0
POINT
  5
8277
330
8265
100
AcDbEntity
  8
DEFPOINTS
 62
     0
100
AcDbPoint
 10
1110.705163262988
 20
4478.318859462985
 30
0.0
  0
POINT
  5
8278
330
8265
100
AcDbEntity
  8
DEFPOINTS
 62
     0
100
AcDbPoint
 10
460.7051632629889
 20
4072.318859462983
 30
0.0
  0
POINT
  5
8279
330
8265
100
AcDbEntity
  8
DEFPOINTS
 62
     0
100
AcDbPoint
 10
460.705163262989
 20
4626.924149961388
 30
0.0
  0
ENDBLK
  5
8267
330
8265
100
AcDbEntity
  8
0
100
AcDbBlockEnd
  0
ENDSEC
  0
SECTION
  2
ENTITIES
  0
INSERT
  5
7BF8
330
817F
100
AcDbEntity
  8
0
100
AcDbBlockReference
  2
YA_N
 10
6.0
 20
5.0
 30
0.0
  0
LINE
  5
7BFA
330
817F
100
AcDbEntity
  8
2
100
AcDbLine
 10
899.4514209570624
 20
2335.847673143363
 30
0.0
 11
2017.598136365984
 21
2335.847673143363
 31
0.0
  0
LINE
  5
7BFB
330
817F
100
AcDbEntity
  8
2
100
AcDbLine
 10
1510.705163262989
 20
2865.447817660772
 30
0.0
 11
1510.705163262989
 21
1535.847673143363
 31
0.0
  0
ARC
  5
7BFC
330
817F
100
AcDbEntity
  8
1
100
AcDbCircle
 10
1557.705163262989
 20
2288.847673143363
 30
0.0
 40
595.0
100
AcDbArc
 50
175.4693949573172
 51
265.4693949573172
  0
ARC
  5
7BFD
330
817F
100
AcDbEntity
  8
1
100
AcDbCircle
 10
1463.705163262989
 20
2288.847673143363
 30
0.0
 40
501.0
100
AcDbArc
 50
84.61703135011868
 51
174.6170313501186
  0
ARC
  5
7BFE
330
817F
100
AcDbEntity
  8
1
100
AcDbCircle
 10
1472.705163262989
 20
2373.847673143364
 30
0.0
 40
416.0
100
AcDbArc
 50
354.7589449387032
 51
84.75894493870329
  0
LINE
  5
7BFF
330
817F
100
AcDbEntity
  8
1
100
AcDbLine
 10
1970.705163262989
 20
1615.847673143363
 30
0.0
 11
1970.705163262989
 21
2349.847673143363
 31
0.0
  0
LINE
  5
7C00
330
817F
100
AcDbEntity
  8
1
100
AcDbLine
 10
1970.705163262989
 20
1657.847673143364
 30
0.0
 11
1510.705163262989
 21
1695.706880413678
 31
0.0
  0
LINE
  5
7C01
330
817F
100
AcDbEntity
  8
1
100
AcDbLine
 10
1887.666699762404
 20
2307.847673143363
 30
0.0
 11
1970.705163262989
 21
2307.847673143363
 31
0.0
  0
LINE
  5
7C02
330
817F
100
AcDbEntity
  8
1
100
AcDbLine
 10
1930.705163262989
 20
1661.13977812339
 30
0.0
 11
1930.705163262989
 21
2307.847673143363
 31
0.0
  0
LINE
  5
7C03
330
817F
100
AcDbEntity
  8
1
100
AcDbLine
 10
1967.705163262989
 20
1615.847673143363
 30
0.0
 11
1970.705163262989
 21
1615.847673143363
 31
0.0
  0
LINE
  5
7C04
330
817F
100
AcDbEntity
  8
1
100
AcDbLine
 10
1967.705163262989
 20
2349.847673143363
 30
0.0
 11
1970.705163262989
 21
2349.847673143363
 31
0.0
  0
LINE
  5
7C05
330
817F
100
AcDbEntity
  8
1
100
AcDbLine
 10
1967.705163262989
 20
1615.847673143363
 30
0.0
 11
1967.705163262989
 21
2349.847673143363
 31
0.0
  0
LINE
  5
7C06
330
817F
100
AcDbEntity
  8
2
100
AcDbLine
 10
3392.739608317243
 20
2844.960429163517
 30
0.0
 11
3392.739608317243
 21
1535.847673143364
 31
0.0
  0
LINE
  5
7C07
330
817F
100
AcDbEntity
  8
2
100
AcDbLine
 10
2610.739608317242
 20
2335.847673143363
 30
0.0
 11
3898.411282939392
 21
2335.847673143363
 31
0.0
  0
LINE
  5
7C08
330
817F
100
AcDbEntity
  8
1
100
AcDbLine
 10
3845.739608317244
 20
1635.847673143364
 30
0.0
 11
3845.739608317244
 21
1630.377541930178
 31
0.0
  0
LINE
  5
7C09
330
817F
100
AcDbEntity
  8
1
100
AcDbLine
 10
3792.739608317243
 20
2789.847673143365
 30
0.0
 11
3792.739608317243
 21
2363.847673143363
 31
0.0
  0
LINE
  5
7C0A
330
817F
100
AcDbEntity
  8
1
100
AcDbLine
 10
3792.739608317243
 20
2363.847673143363
 30
0.0
 11
3792.739608317245
 21
1657.847673143364
 31
0.0
  0
LINE
  5
7C0B
330
817F
100
AcDbEntity
  8
2
100
AcDbLine
 10
1510.705163262989
 20
4506.116945967806
 30
0.0
 11
1510.705163262989
 21
3221.765576191286
 31
0.0
  0
LINE
  5
7C0C
330
817F
100
AcDbEntity
  8
2
100
AcDbLine
 10
908.8573135641707
 20
4025.318859462981
 30
0.0
 11
2020.215697946813
 21
4025.318859462982
 31
0.0
  0
INSERT
  5
7C0D
330
817F
100
AcDbEntity
  8
0
100
AcDbBlockReference
  2
YA_N
 10
-1221.011981710642
 20
-542.7332483964637
 30
0.0
 41
15.0
 42
15.0
 43
15.0
  0
ARC
  5
7C13
330
817F
100
AcDbEntity
  8
1
100
AcDbCircle
 10
660.705163262989
 20
1852.847673143363
 30
0.0
 40
142.5
100
AcDbArc
 50
326.966192328012
 51
0.0
  0
ARC
  5
7C14
330
817F
100
AcDbEntity
  8
1
100
AcDbCircle
 10
660.705163262989
 20
1852.847673143363
 30
0.0
 40
142.5
100
AcDbArc
 50
0.0
 51
213.0338683823617
  0
LINE
  5
7C15
330
817F
100
AcDbEntity
  8
2
100
AcDbLine
 10
660.705163262989
 20
2014.446414260623
 30
0.0
 11
660.705163262989
 21
1535.847673143364
 31
0.0
  0
LINE
  5
7C16
330
817F
100
AcDbEntity
  8
1
100
AcDbLine
 10
541.2405052540663
 20
1775.165979760616
 30
0.0
 11
530.7051632629891
 21
1735.847673143364
 31
0.0
  0
LINE
  5
7C17
330
817F
100
AcDbEntity
  8
1
100
AcDbLine
 10
530.7051632629891
 20
1735.650273143364
 30
0.0
 11
530.7051632629891
 21
1720.847673143363
 31
0.0
  0
LINE
  5
7C18
330
817F
100
AcDbEntity
  8
1
100
AcDbLine
 10
780.1699035830497
 20
1775.166106344923
 30
0.0
 11
790.7051632629892
 21
1735.847673143364
 31
0.0
  0
LINE
  5
7C19
330
817F
100
AcDbEntity
  8
1
100
AcDbLine
 10
790.7051632629892
 20
1735.650273143364
 30
0.0
 11
790.7051632629892
 21
1720.847673143363
 31
0.0
  0
LINE
  5
7C1A
330
817F
100
AcDbEntity
  8
2
100
AcDbLine
 10
490.1675984473985
 20
1852.847673143363
 30
0.0
 11
829.2059287886495
 21
1852.847673143363
 31
0.0
  0
LINE
  5
7C1B
330
817F
100
AcDbEntity
  8
1
100
AcDbLine
 10
860.7051632629891
 20
1675.847673143364
 30
0.0
 11
860.7051632629891
 21
1635.847673143364
 31
0.0
  0
LINE
  5
7C1C
330
817F
100
AcDbEntity
  8
1
100
AcDbLine
 10
460.7051632629889
 20
1675.847673143364
 30
0.0
 11
460.7051632629889
 21
1635.847673143364
 31
0.0
  0
LINE
  5
7C1D
330
817F
100
AcDbEntity
  8
1
100
AcDbLine
 10
460.7051632629889
 20
1675.847673143364
 30
0.0
 11
485.7051632629889
 21
1675.847673143364
 31
0.0
  0
LINE
  5
7C1E
330
817F
100
AcDbEntity
  8
1
100
AcDbLine
 10
496.8695066491944
 20
1720.847673143363
 30
0.0
 11
823.3276746543159
 21
1720.847673143363
 31
0.0
  0
LINE
  5
7C1F
330
817F
100
AcDbEntity
  8
1
100
AcDbLine
 10
485.7051632629889
 20
1675.847673143364
 30
0.0
 11
496.8695066491944
 21
1720.847673143363
 31
0.0
  0
LINE
  5
7C20
330
817F
100
AcDbEntity
  8
1
100
AcDbLine
 10
835.7051632629891
 20
1675.847673143364
 30
0.0
 11
823.3276746543159
 21
1720.847673143363
 31
0.0
  0
DIMENSION
  5
7C26
330
817F
100
AcDbEntity
  8
3
100
AcDbDimension
  2
*D4
 10
2099.266697969545
 20
2307.847673143363
 30
0.0
 11
2059.266697969545
 21
1982.847673143363
 31
0.0
 12
931.0521668687504
 22
1767.750046693243
 32
0.0
 71
     5
 42
-1.0
  3
Standard
100
AcDbAlignedDimension
 13
1970.705163262989
 23
1657.847673143364
 33
0.0
 14
1970.705163262989
 24
2307.847673143363
 34
0.0
 50
90.0
100
AcDbRotatedDimension
1001
ACAD
1000
DSTYLE
1002
{
1070
    40
1040
20.0
1002
}
  0
DIMENSION
  5
7C27
330
817F
100
AcDbEntity
  8
3
100
AcDbDimension
  2
*D5
 10
2218.855756545743
 20
2335.847673143363
 30
0.0
 11
2178.855756545743
 21
1996.847673143363
 31
0.0
 12
931.0521668687504
 22
1767.750046693243
 32
0.0
 71
     5
 42
-1.0
  3
Standard
100
AcDbAlignedDimension
 13
1970.705163262989
 23
1657.847673143364
 33
0.0
 14
2017.598136365984
 24
2335.847673143363
 34
0.0
 50
90.0
100
AcDbRotatedDimension
1001
ACAD
1000
DSTYLE
1002
{
1070
    40
1040
20.0
1002
}
  0
LINE
  5
7C29
330
817F
100
AcDbEntity
  8
2
100
AcDbLine
 10
2610.739608317242
 20
1852.847673143363
 30
0.0
 11
2992.739608317242
 21
1852.847673143363
 31
0.0
  0
LINE
  5
7C2B
330
817F
100
AcDbEntity
  8
1
100
AcDbLine
 10
2992.739608317242
 20
2789.847673143365
 30
0.0
 11
2992.739608317242
 21
2363.847673143363
 31
0.0
  0
LINE
  5
7C2C
330
817F
100
AcDbEntity
  8
1
100
AcDbLine
 10
2992.739608317242
 20
2363.847673143363
 30
0.0
 11
2992.739608317242
 21
1657.847673143364
 31
0.0
  0
LINE
  5
7C2D
330
817F
100
AcDbEntity
  8
1
100
AcDbLine
 10
3902.739608317244
 20
2305.847673143363
 30
0.0
 11
3902.739608317244
 21
2205.847673143363
 31
0.0
  0
ARC
  5
7C2E
330
817F
100
AcDbEntity
  8
1
100
AcDbCircle
 10
3892.739608317245
 20
2305.847673143363
 30
0.0
 40
10.0
100
AcDbArc
 50
0.0
 51
90.0
  0
ARC
  5
7C2F
330
817F
100
AcDbEntity
  8
1
100
AcDbCircle
 10
3892.739608317245
 20
2205.847673143363
 30
0.0
 40
10.0
100
AcDbArc
 50
270.0
 51
0.0
  0
LINE
  5
7C30
330
817F
100
AcDbEntity
  8
1
100
AcDbLine
 10
3792.739608317243
 20
2195.847673143363
 30
0.0
 11
3892.739608317245
 21
2195.847673143363
 31
0.0
  0
LINE
  5
7C31
330
817F
100
AcDbEntity
  8
1
100
AcDbLine
 10
3792.739608317243
 20
2315.847673143363
 30
0.0
 11
3892.739608317245
 21
2315.847673143363
 31
0.0
  0
CIRCLE
  5
7C32
330
817F
100
AcDbEntity
  8
1
100
AcDbCircle
 10
660.705163262989
 20
1852.847673143363
 30
0.0
 40
79.0
  0
CIRCLE
  5
7C33
330
817F
100
AcDbEntity
  8
1
100
AcDbCircle
 10
1510.705163262989
 20
2335.847673143363
 30
0.0
 40
88.9
  0
ARC
  5
7C34
330
817F
100
AcDbEntity
  8
1
100
AcDbCircle
 10
1510.705163262989
 20
2335.847673143363
 30
0.0
 40
150.0
100
AcDbArc
 50
282.4716975566092
 51
102.4716975566092
  0
ARC
  5
7C35
330
817F
100
AcDbEntity
  8
1
100
AcDbCircle
 10
660.705163262989
 20
1852.847673143363
 30
0.0
 40
150.0
100
AcDbArc
 50
102.4716975566092
 51
282.4716975566092
  0
LINE
  5
7C36
330
817F
100
AcDbEntity
  8
1
100
AcDbLine
 10
1478.311564391689
 20
2482.308093572111
 30
0.0
 11
628.3115643916898
 21
1999.308093572111
 31
0.0
  0
LINE
  5
7C37
330
817F
100
AcDbEntity
  8
1
100
AcDbLine
 10
1490.5206645961
 20
2422.425938392595
 30
0.0
 11
642.7684321641791
 21
1929.7844892816
 31
0.0
  0
LINE
  5
7C38
330
817F
100
AcDbEntity
  8
1
100
AcDbLine
 10
1528.915394138617
 20
2248.832746312065
 30
0.0
 11
676.8874831637161
 21
1775.522822528373
 31
0.0
  0
LINE
  5
7C39
330
817F
100
AcDbEntity
  8
1
100
AcDbLine
 10
1543.098762134288
 20
2189.387252714616
 30
0.0
 11
693.0987621342883
 21
1706.387252714616
 31
0.0
  0
LINE
  5
7C3A
330
817F
100
AcDbEntity
  8
1
100
AcDbLine
 10
2740.739608317243
 20
2424.747673143364
 30
0.0
 11
2740.739608317242
 21
2246.947673143363
 31
0.0
  0
LINE
  5
7C3B
330
817F
100
AcDbEntity
  8
1
100
AcDbLine
 10
2822.739608317244
 20
2424.747673143364
 30
0.0
 11
2822.739608317242
 21
2246.947673143364
 31
0.0
  0
LINE
  5
7C3C
330
817F
100
AcDbEntity
  8
1
100
AcDbLine
 10
2740.739608317243
 20
2424.747673143364
 30
0.0
 11
2822.739608317244
 21
2424.747673143364
 31
0.0
  0
LINE
  5
7C3D
330
817F
100
AcDbEntity
  8
1
100
AcDbLine
 10
2740.739608317242
 20
2246.947673143363
 30
0.0
 11
2822.739608317242
 21
2246.947673143364
 31
0.0
  0
LINE
  5
7C3E
330
817F
100
AcDbEntity
  8
1
100
AcDbLine
 10
2740.739608317242
 20
1931.847673143363
 30
0.0
 11
2822.739608317242
 21
1931.847673143363
 31
0.0
  0
LINE
  5
7C3F
330
817F
100
AcDbEntity
  8
1
100
AcDbLine
 10
2740.739608317241
 20
1773.847673143364
 30
0.0
 11
2822.739608317241
 21
1773.847673143364
 31
0.0
  0
LINE
  5
7C40
330
817F
100
AcDbEntity
  8
1
100
AcDbLine
 10
2612.739608317243
 20
2485.847673143364
 30
0.0
 11
2612.739608317241
 21
1702.847673143363
 31
0.0
  0
LINE
  5
7C41
330
817F
100
AcDbEntity
  8
1
100
AcDbLine
 10
2872.739608317243
 20
2485.847673143364
 30
0.0
 11
2872.739608317245
 21
2465.847673143363
 31
0.0
  0
LINE
  5
7C42
330
817F
100
AcDbEntity
  8
1
100
AcDbLine
 10
2612.739608317244
 20
2485.847673143364
 30
0.0
 11
2872.739608317243
 21
2485.847673143364
 31
0.0
  0
LINE
  5
7C43
330
817F
100
AcDbEntity
  8
1
100
AcDbLine
 10
2612.739608317241
 20
1702.847673143363
 30
0.0
 11
2872.739608317241
 21
1702.847673143363
 31
0.0
  0
LINE
  5
7C44
330
817F
100
AcDbEntity
  8
1
100
AcDbLine
 10
2872.739608317241
 20
1710.347673143363
 30
0.0
 11
2872.739608317241
 21
1702.847673143363
 31
0.0
  0
LINE
  5
7C45
330
817F
100
AcDbEntity
  8
1
100
AcDbLine
 10
1110.705163262988
 20
4478.318859462985
 30
0.0
 11
1910.705163262989
 21
4478.318859462985
 31
0.0
  0
LINE
  5
7C46
330
817F
100
AcDbEntity
  8
1
100
AcDbLine
 10
460.7051632629889
 20
3472.318859462983
 30
0.0
 11
1910.705163262989
 21
3472.318859462983
 31
0.0
  0
LINE
  5
7C47
330
817F
100
AcDbEntity
  8
1
100
AcDbLine
 10
1910.705163262989
 20
4478.318859462985
 30
0.0
 11
1910.705163262989
 21
4425.318859462985
 31
0.0
  0
LINE
  5
7C48
330
817F
100
AcDbEntity
  8
1
100
AcDbLine
 10
1110.705163262988
 20
4478.318859462985
 30
0.0
 11
1110.705163262988
 21
4425.318859462982
 31
0.0
  0
LINE
  5
7C49
330
817F
100
AcDbEntity
  8
1
100
AcDbLine
 10
460.7051632629889
 20
4072.318859462983
 30
0.0
 11
460.7051632629889
 21
3472.318859462983
 31
0.0
  0
LINE
  5
7C4A
330
817F
100
AcDbEntity
  8
1
100
AcDbLine
 10
460.7051632629889
 20
4072.31885946298
 30
0.0
 11
962.7051632629893
 21
4072.318859462983
 31
0.0
  0
DIMENSION
  5
7C4E
330
817F
100
AcDbEntity
  8
3
100
AcDbDimension
  2
*D6
 10
4046.276641887906
 20
2000.847673143363
 30
0.0
 11
4006.276641887906
 21
2335.847673143363
 31
0.0
 12
825.4434148339605
 22
1767.750046693243
 32
0.0
 71
     5
 42
-1.0
  3
Standard
100
AcDbAlignedDimension
 13
3798.239608317245
 23
2670.847673143363
 33
0.0
 14
3798.239608317245
 24
2000.847673143363
 34
0.0
 50
90.0
100
AcDbRotatedDimension
1001
ACAD
1000
DSTYLE
1002
{
1070
    40
1040
20.0
1070
     3
1000
\U+03C6<>
1002
}
  0
DIMENSION
  5
7C51
330
817F
100
AcDbEntity
  8
3
100
AcDbDimension
  2
*D7
 10
3792.739608317243
 20
2861.432571521589
 30
0.0
 11
3392.739608317242
 21
2901.432571521589
 31
0.0
 12
825.4434148339605
 22
1767.750046693243
 32
0.0
 71
     5
 42
-1.0
  3
Standard
100
AcDbAlignedDimension
 13
2992.739608317242
 23
2766.247664024067
 33
0.0
 14
3792.739608317243
 24
2766.247664024067
 34
0.0
100
AcDbRotatedDimension
1001
ACAD
1000
DSTYLE
1002
{
1070
    40
1040
20.0
1002
}
  0
ARC
  5
7C52
330
817F
100
AcDbEntity
  8
1
100
AcDbCircle
 10
2900.239608317242
 20
2302.647673143363
 30
0.0
 40
10.0
100
AcDbArc
 50
90.0
 51
180.0
  0
ARC
  5
7C53
330
817F
100
AcDbEntity
  8
1
100
AcDbCircle
 10
2900.239608317242
 20
2202.647673143363
 30
0.0
 40
10.0
100
AcDbArc
 50
180.0
 51
270.0
  0
LINE
  5
7C54
330
817F
100
AcDbEntity
  8
1
100
AcDbLine
 10
2992.739608317242
 20
2192.647673143363
 30
0.0
 11
2900.239608317242
 21
2192.647673143363
 31
0.0
  0
LINE
  5
7C55
330
817F
100
AcDbEntity
  8
1
100
AcDbLine
 10
2992.739608317242
 20
2312.647673143363
 30
0.0
 11
2900.239608317242
 21
2312.647673143363
 31
0.0
  0
LINE
  5
7C56
330
817F
100
AcDbEntity
  8
1
100
AcDbLine
 10
2890.239608317243
 20
2302.647673143363
 30
0.0
 11
2890.239608317243
 21
2202.647673143363
 31
0.0
  0
LINE
  5
7C57
330
817F
100
AcDbEntity
  8
1
100
AcDbLine
 10
2822.739608317242
 20
2310.847673143364
 30
0.0
 11
2894.639608317243
 21
2310.847673143364
 31
0.0
  0
LINE
  5
7C59
330
817F
100
AcDbEntity
  8
1
100
AcDbLine
 10
1910.705163262989
 20
1635.847673143364
 30
0.0
 11
1910.705163262989
 21
1535.847673143363
 31
0.0
  0
LINE
  5
7C5A
330
817F
100
AcDbEntity
  8
1
100
AcDbLine
 10
460.7051632629889
 20
1635.847673143364
 30
0.0
 11
1910.705163262989
 21
1635.847673143364
 31
0.0
1001
ACAD
1000
ASC_BOUNDS
1002
{
1070
    19
1005
0
1005
0
1002
}
  0
LINE
  5
7C5B
330
817F
100
AcDbEntity
  8
1
100
AcDbLine
 10
460.7051632629889
 20
1535.847673143363
 30
0.0
 11
1910.705163262989
 21
1535.847673143363
 31
0.0
  0
LINE
  5
7C5C
330
817F
100
AcDbEntity
  8
1
100
AcDbLine
 10
460.7051632629889
 20
1635.847673143364
 30
0.0
 11
460.7051632629889
 21
1535.847673143363
 31
0.0
  0
LINE
  5
7C5D
330
817F
100
AcDbEntity
  8
1
100
AcDbLine
 10
2839.739608317243
 20
1635.847673143364
 30
0.0
 11
3845.039608317243
 21
1635.847673143364
 31
0.0
1001
ACAD
1000
ASC_BOUNDS
1002
{
1070
    19
1002
}
  0
LINE
  5
7C5E
330
817F
100
AcDbEntity
  8
1
100
AcDbLine
 10
2839.739608317243
 20
1635.847673143364
 30
0.0
 11
2839.739608317243
 21
1535.847673143363
 31
0.0
  0
LINE
  5
7C5F
330
817F
100
AcDbEntity
  8
1
100
AcDbLine
 10
2839.739608317243
 20
1535.847673143363
 30
0.0
 11
3845.739608317241
 21
1535.847673143363
 31
0.0
  0
LINE
  5
7C60
330
817F
100
AcDbEntity
  8
1
100
AcDbLine
 10
3845.739608317244
 20
1635.847673143364
 30
0.0
 11
3845.739608317244
 21
1535.847673143363
 31
0.0
  0
ARC
  5
7C61
330
817F
100
AcDbEntity
  8
1
100
AcDbCircle
 10
1510.705163262989
 20
2335.847673143363
 30
0.0
 40
378.0
100
AcDbArc
 50
355.7519773332714
 51
0.0
  0
LINE
  5
7C62
330
817F
100
AcDbEntity
  8
1
100
AcDbLine
 10
962.7051632629893
 20
4425.318859462982
 30
0.0
 11
1970.705163262989
 21
4425.318859462985
 31
0.0
  0
LINE
  5
7C63
330
817F
100
AcDbEntity
  8
1
100
AcDbLine
 10
962.7051632629893
 20
3625.318859462981
 30
0.0
 11
1970.705163262989
 21
3625.318859462984
 31
0.0
  0
LINE
  5
7C64
330
817F
100
AcDbEntity
  8
1
100
AcDbLine
 10
1970.705163262989
 20
4465.318859462985
 30
0.0
 11
1970.705163262989
 21
3585.318859462983
 31
0.0
  0
LINE
  5
7C65
330
817F
100
AcDbEntity
  8
1
100
AcDbLine
 10
962.7051632629893
 20
4425.318859462982
 30
0.0
 11
962.7051632629893
 21
3625.318859462981
 31
0.0
  0
LINE
  5
7C66
330
817F
100
AcDbEntity
  8
1
100
AcDbLine
 10
1930.705163262988
 20
4425.318859462985
 30
0.0
 11
1930.705163262989
 21
3625.318859462984
 31
0.0
  0
LINE
  5
7C67
330
817F
100
AcDbEntity
  8
1
100
AcDbLine
 10
1910.705163262989
 20
3625.318859462981
 30
0.0
 11
1910.705163262989
 21
3472.318859462983
 31
0.0
  0
LINE
  5
7C68
330
817F
100
AcDbEntity
  8
1
100
AcDbLine
 10
581.705163262989
 20
3373.318859462983
 30
0.0
 11
739.705163262989
 21
3373.318859462983
 31
0.0
  0
LINE
  5
7C69
330
817F
100
AcDbEntity
  8
1
100
AcDbLine
 10
581.705163262989
 20
3455.318859462984
 30
0.0
 11
739.705163262989
 21
3455.318859462984
 31
0.0
  0
LINE
  5
7C6A
330
817F
100
AcDbEntity
  8
1
100
AcDbLine
 10
1599.605163262989
 20
3455.318859462983
 30
0.0
 11
1599.605163262989
 21
3373.318859462983
 31
0.0
  0
LINE
  5
7C6B
330
817F
100
AcDbEntity
  8
1
100
AcDbLine
 10
1421.805163262988
 20
3455.318859462983
 30
0.0
 11
1421.805163262988
 21
3373.318859462983
 31
0.0
  0
LINE
  5
7C6C
330
817F
100
AcDbEntity
  8
1
100
AcDbLine
 10
739.705163262989
 20
3455.318859462983
 30
0.0
 11
739.705163262989
 21
3373.318859462983
 31
0.0
  0
LINE
  5
7C6D
330
817F
100
AcDbEntity
  8
1
100
AcDbLine
 10
581.705163262989
 20
3455.318859462983
 30
0.0
 11
581.705163262989
 21
3373.318859462983
 31
0.0
  0
LINE
  5
7C6E
330
817F
100
AcDbEntity
  8
1
100
AcDbLine
 10
510.7051632629889
 20
3245.318859462983
 30
0.0
 11
1660.705163262989
 21
3245.318859462983
 31
0.0
  0
LINE
  5
7C6F
330
817F
100
AcDbEntity
  8
1
100
AcDbLine
 10
1660.705163262989
 20
3505.318859462983
 30
0.0
 11
1660.705163262989
 21
3245.318859462983
 31
0.0
  0
LINE
  5
7C70
330
817F
100
AcDbEntity
  8
1
100
AcDbLine
 10
510.7051632629889
 20
3505.318859462983
 30
0.0
 11
510.7051632629889
 21
3245.318859462983
 31
0.0
  0
LINE
  5
7C71
330
817F
100
AcDbEntity
  8
1
100
AcDbLine
 10
510.7051632629889
 20
3505.318859462983
 30
0.0
 11
1660.705163262989
 21
3505.318859462983
 31
0.0
  0
LINE
  5
7C72
330
817F
100
AcDbEntity
  8
1
100
AcDbLine
 10
1421.805163262989
 20
3455.318859462983
 30
0.0
 11
1599.605163262989
 21
3455.318859462983
 31
0.0
  0
LINE
  5
7C73
330
817F
100
AcDbEntity
  8
1
100
AcDbLine
 10
1421.805163262988
 20
3373.318859462983
 30
0.0
 11
1599.605163262989
 21
3373.318859462983
 31
0.0
  0
LINE
  5
7C74
330
817F
100
AcDbEntity
  8
2
100
AcDbLine
 10
660.705163262989
 20
3933.909752629606
 30
0.0
 11
660.705163262989
 21
3221.765576191286
 31
0.0
  0
LINE
  5
7C75
330
817F
100
AcDbEntity
  8
1
100
AcDbLine
 10
803.205163262989
 20
3892.318559462983
 30
0.0
 11
518.2051632629891
 21
3892.318559462983
 31
0.0
  0
LINE
  5
7C76
330
817F
100
AcDbEntity
  8
1
100
AcDbLine
 10
803.205163262989
 20
3502.318859462983
 30
0.0
 11
518.2051632629891
 21
3502.318859462983
 31
0.0
  0
LINE
  5
7C77
330
817F
100
AcDbEntity
  8
1
100
AcDbLine
 10
641.7051632629891
 20
3502.318859462983
 30
0.0
 11
641.7051632629891
 21
3455.318859462984
 31
0.0
  0
LINE
  5
7C78
330
817F
100
AcDbEntity
  8
1
100
AcDbLine
 10
679.7051632629891
 20
3502.318859462983
 30
0.0
 11
679.7051632629891
 21
3455.318859462984
 31
0.0
  0
LINE
  5
7C79
330
817F
100
AcDbEntity
  8
1
100
AcDbLine
 10
518.2051632629891
 20
3892.318559462983
 30
0.0
 11
518.2051632629891
 21
3502.318859462983
 31
0.0
  0
LINE
  5
7C7A
330
817F
100
AcDbEntity
  8
1
100
AcDbLine
 10
803.205163262989
 20
3892.318559462983
 30
0.0
 11
803.205163262989
 21
3502.318859462983
 31
0.0
  0
LINE
  5
7C7B
330
817F
100
AcDbEntity
  8
1
100
AcDbLine
 10
1535.705163262989
 20
3625.318859462981
 30
0.0
 11
1535.705163262989
 21
3455.318859462983
 31
0.0
  0
LINE
  5
7C7C
330
817F
100
AcDbEntity
  8
1
100
AcDbLine
 10
1485.705163262989
 20
3625.318859462981
 30
0.0
 11
1485.705163262989
 21
3455.318859462983
 31
0.0
  0
LINE
  5
7C7D
330
817F
100
AcDbEntity
  8
1
100
AcDbLine
 10
2822.739608317243
 20
2360.847673143364
 30
0.0
 11
2992.739608317242
 21
2360.847673143364
 31
0.0
  0
CIRCLE
  5
7C7E
330
817F
100
AcDbEntity
  8
1
100
AcDbCircle
 10
1510.705163262989
 20
2335.847673143363
 30
0.0
 40
335.0
  0
CIRCLE
  5
7C7F
330
817F
100
AcDbEntity
  8
1
100
AcDbCircle
 10
1510.705163262989
 20
2335.847673143363
 30
0.0
 40
375.0
  0
LINE
  5
7C80
330
817F
100
AcDbEntity
  8
1
100
AcDbLine
 10
835.7051632629891
 20
1675.847673143364
 30
0.0
 11
860.7051632629891
 21
1675.847673143364
 31
0.0
  0
POINT
  5
7C81
330
817F
100
AcDbEntity
  8
1
100
AcDbPoint
 10
3902.739608317244
 20
2305.847673143363
 30
0.0
  0
POINT
  5
7C82
330
817F
100
AcDbEntity
  8
1
100
AcDbPoint
 10
2612.739608317243
 20
2485.847673143364
 30
0.0
  0
DIMENSION
  5
7C84
330
817F
100
AcDbEntity
  8
3
100
AcDbDimension
  2
*D9
 10
2119.497134261597
 20
4478.318859462985
 30
0.0
 11
2079.497134261597
 21
3975.318859462984
 31
0.0
 12
931.0521668687504
 22
1313.903890932349
 32
0.0
 71
     5
 42
-1.0
  3
Standard
100
AcDbAlignedDimension
 13
1910.705163262989
 23
3472.318859462983
 33
0.0
 14
1910.705163262989
 24
4478.318859462985
 34
0.0
 50
90.0
100
AcDbRotatedDimension
1001
ACAD
1000
DSTYLE
1002
{
1070
    40
1040
20.0
1002
}
  0
DIMENSION
  5
7C85
330
817F
100
AcDbEntity
  8
3
100
AcDbDimension
  2
*D10
 10
1910.705163262989
 20
4626.924149961388
 30
0.0
 11
1510.705163262989
 21
4666.924149961388
 31
0.0
 12
931.0521668687504
 22
1313.903890932349
 32
0.0
 71
     5
 42
-1.0
  3
Standard
100
AcDbAlignedDimension
 13
1110.705163262988
 23
4478.318859462985
 33
0.0
 14
1910.705163262989
 24
4478.318859462985
 34
0.0
100
AcDbRotatedDimension
1001
ACAD
1000
DSTYLE
1002
{
1070
    40
1040
20.0
1002
}
  0
DIMENSION
  5
7C86
330
817F
100
AcDbEntity
  8
3
100
AcDbDimension
  2
*D11
 10
341.9601988091053
 20
3472.318859462983
 30
0.0
 11
301.9601988091052
 21
3772.318859462983
 31
0.0
 12
105.60875203479
 22
0.0
 32
0.0
 71
     5
 42
-1.0
  3
Standard
100
AcDbAlignedDimension
 13
460.7051632629889
 23
4072.318859462983
 33
0.0
 14
460.7051632629889
 24
3472.318859462983
 34
0.0
 50
90.0
100
AcDbRotatedDimension
1001
ACAD
1000
DSTYLE
1002
{
1070
    40
1040
20.0
1002
}
  0
DIMENSION
  5
7C8C
330
817F
100
AcDbEntity
  8
3
100
AcDbDimension
  2
*D12
 10
1970.705163262989
 20
3045.340322853661
 30
0.0
 11
1215.705163262988
 21
3085.340322853661
 31
0.0
 12
105.60875203479
 22
0.0
 32
0.0
 71
     5
 42
-1.0
  3
Standard
100
AcDbAlignedDimension
 13
460.7051632629889
 23
1675.847673143364
 33
0.0
 14
1970.705163262989
 24
2316.0123657914
 34
0.0
100
AcDbRotatedDimension
1001
ACAD
1000
DSTYLE
1002
{
1070
    40
1040
20.0
1002
}
  0
LINE
  5
7C8D
330
817F
100
AcDbEntity
  8
1
100
AcDbLine
 10
2869.739608317242
 20
1710.347673143363
 30
0.0
 11
2869.739608317242
 21
1995.347673143363
 31
0.0
  0
LINE
  5
7C8E
330
817F
100
AcDbEntity
  8
1
100
AcDbLine
 10
2992.739608317242
 20
1995.347673143363
 30
0.0
 11
2869.739608317243
 21
1995.347673143363
 31
0.0
  0
LINE
  5
7C8F
330
817F
100
AcDbEntity
  8
1
100
AcDbLine
 10
2869.739608317242
 20
1833.847673143364
 30
0.0
 11
2822.739608317243
 21
1833.847673143364
 31
0.0
  0
LINE
  5
7C90
330
817F
100
AcDbEntity
  8
1
100
AcDbLine
 10
2869.739608317242
 20
1871.847673143363
 30
0.0
 11
2822.739608317243
 21
1871.847673143363
 31
0.0
  0
LINE
  5
7C91
330
817F
100
AcDbEntity
  8
1
100
AcDbLine
 10
2992.739608317242
 20
1710.347673143363
 30
0.0
 11
2869.739608317242
 21
1710.347673143363
 31
0.0
  0
POINT
  5
7C93
330
817F
100
AcDbEntity
  8
1
100
AcDbPoint
 10
1910.705163262989
 20
1535.847673143363
 30
0.0
  0
LINE
  5
7C94
330
817F
100
AcDbEntity
  8
1
100
AcDbLine
 10
2822.73960831724
 20
1931.847673143363
 30
0.0
 11
2822.73960831724
 21
1773.847673143364
 31
0.0
  0
LINE
  5
7C95
330
817F
100
AcDbEntity
  8
1
100
AcDbLine
 10
2740.739608317241
 20
1931.847673143363
 30
0.0
 11
2740.739608317239
 21
1773.847673143364
 31
0.0
  0
DIMENSION
  5
7C9C
330
817F
100
AcDbEntity
  8
3
100
AcDbDimension
  2
*D16
 10
1510.705163262989
 20
2925.066613388714
 30
0.0
 11
1740.705163262989
 21
2965.066613388714
 31
0.0
 12
105.60875203479
 22
0.0
 32
0.0
 71
     5
 42
-1.0
  3
Standard
100
AcDbAlignedDimension
 13
1970.705163262989
 23
2335.847673143363
 33
0.0
 14
1510.705163262989
 24
2865.447817660772
 34
0.0
100
AcDbRotatedDimension
1001
ACAD
1000
DSTYLE
1002
{
1070
    40
1040
20.0
1002
}
  0
DIMENSION
  5
7C9E
330
817F
100
AcDbEntity
  8
3
100
AcDbDimension
  2
*D18
 10
2326.283915677131
 20
2335.847673143363
 30
0.0
 11
2286.283915677131
 21
2562.847673143364
 31
0.0
 12
931.0521668687504
 22
1767.750046693243
 32
0.0
 71
     5
 42
-1.0
  3
Standard
100
AcDbAlignedDimension
 13
1463.705163262989
 23
2789.847673143365
 33
0.0
 14
2037.598136365985
 24
2335.847673143363
 34
0.0
 50
90.0
100
AcDbRotatedDimension
1001
ACAD
1000
DSTYLE
1002
{
1070
    40
1040
20.0
1002
}
  0
LINE
  5
7CA2
330
817F
100
AcDbEntity
  8
1
100
AcDbLine
 10
2992.739608317242
 20
2789.847673143365
 30
0.0
 11
3792.739608317243
 21
2789.847673143365
 31
0.0
  0
LINE
  5
7CA3
330
817F
100
AcDbEntity
  8
1
100
AcDbLine
 10
2992.739608317243
 20
1657.847673143364
 30
0.0
 11
3792.739608317245
 21
1657.847673143364
 31
0.0
  0
LINE
  5
7CA4
330
817F
100
AcDbEntity
  8
1
100
AcDbLine
 10
2992.739608317242
 20
2307.847673143363
 30
0.0
 11
3792.739608317243
 21
2307.847673143363
 31
0.0
  0
LINE
  5
7CA5
330
817F
100
AcDbEntity
  8
1
100
AcDbLine
 10
3792.739608317243
 20
2307.847673143363
 30
0.0
 11
2992.739608317242
 21
1657.847673143364
 31
0.0
  0
LINE
  5
7CA6
330
817F
100
AcDbEntity
  8
1
100
AcDbLine
 10
2992.739608317242
 20
2307.847673143363
 30
0.0
 11
3792.739608317245
 21
1657.847673143364
 31
0.0
  0
LINE
  5
7F25
330
817F
100
AcDbEntity
  8
4
100
AcDbLine
 10
3700.0
 20
1000.0
 30
0.0
 11
3700.0
 21
600.0
 31
0.0
  0
LINE
  5
7F26
330
817F
100
AcDbEntity
  8
4
100
AcDbLine
 10
2300.0
 20
1000.0
 30
0.0
 11
2300.0
 21
600.0
 31
0.0
  0
LINE
  5
7F27
330
817F
100
AcDbEntity
  8
4
100
AcDbLine
 10
1300.0
 20
1000.0
 30
0.0
 11
1300.0
 21
600.0
 31
0.0
  0
LINE
  5
7F2A
330
817F
100
AcDbEntity
  8
4
100
AcDbLine
 10
1300.0
 20
600.0
 30
0.0
 11
3700.0
 21
600.0
 31
0.0
  0
LINE
  5
7F2B
330
817F
100
AcDbEntity
  8
4
100
AcDbLine
 10
1300.0
 20
800.0
 30
0.0
 11
3700.0
 21
800.0
 31
0.0
  0
TEXT
  5
7F2C
330
817F
100
AcDbEntity
  8
4
100
AcDbText
 10
1377.004161693803
 20
863.0860517332255
 30
0.0
 40
100.0
  1
機器名称
100
AcDbText
  0
TEXT
  5
7F2D
330
817F
100
AcDbEntity
  8
4
100
AcDbText
 10
1372.516212049595
 20
643.2903134640219
 30
0.0
 40
100.0
  1
機器型番
100
AcDbText
  0
TEXT
  5
7F2E
330
817F
100
AcDbEntity
  8
4
100
AcDbText
 10
2355.357490975329
 20
845.1435379151371
 30
0.0
 40
100.0
  1
ミツヤ多翼送風機
100
AcDbText
  0
TEXT
  5
7F2F
330
817F
100
AcDbEntity
  8
4
100
AcDbText
 10
2373.308991170961
 20
634.3191685598867
 30
0.0
 40
100.0
  1
MF#4-5
100
AcDbText
  0
TEXT
  5
7F31
330
817F
100
AcDbEntity
  8
4
100
AcDbText
 10
1630.036683960145
 20
4766.857682665031
 30
0.0
 40
107.9999999999999
  1
床置ベット
100
AcDbText
  0
TEXT
  5
7F32
330
817F
100
AcDbEntity
  8
4
100
AcDbText
 10
632.3351866588928
 20
5067.761952398596
 30
0.0
 40
144.0
  1
遠心式両吸込両持多翼ファン
100
AcDbText
  0
LINE
  5
7F33
330
817F
100
AcDbEntity
  8
4
100
AcDbLine
 10
500.0
 20
4938.817508529609
 30
0.0
 11
3700.0
 21
4938.817508529609
 31
0.0
  0
LINE
  5
7F34
330
817F
100
AcDbEntity
  8
4
100
AcDbLine
 10
500.0
 20
5338.81750852961
 30
0.0
 11
3700.0
 21
5338.81750852961
 31
0.0
  0
LINE
  5
7F35
330
817F
100
AcDbEntity
  8
4
100
AcDbLine
 10
1300.0
 20
1000.0
 30
0.0
 11
3700.0
 21
1000.0
 31
0.0
  0
LINE
  5
7F36
330
817F
100
AcDbEntity
  8
4
100
AcDbLine
 10
500.0
 20
5338.81750852961
 30
0.0
 11
500.0
 21
4938.817508529609
 31
0.0
  0
TEXT
  5
7F37
330
817F
100
AcDbEntity
  8
4
100
AcDbText
 10
758.3190194747404
 20
4764.638955092687
 30
0.0
 40
107.9999999999999
  1
左回転右横向
100
AcDbText
  0
TEXT
  5
7F38
330
817F
100
AcDbEntity
  8
4
100
AcDbText
 10
2937.939118498579
 20
5412.122162990619
 30
0.0
 40
112.0
  1
No.
100
AcDbText
  0
TEXT
  5
7F39
330
817F
100
AcDbEntity
  8
4
100
AcDbText
 10
2622.592125200027
 20
4766.857682665031
 30
0.0
 40
107.9999999999999
  1
縮尺：1/20
100
AcDbText
  0
LINE
  5
7F3A
330
817F
100
AcDbEntity
  8
4
100
AcDbLine
 10
3700.0
 20
5338.81750852961
 30
0.0
 11
3700.0
 21
4938.817508529609
 31
0.0
  0
LINE
  5
7F3B
330
817F
100
AcDbEntity
  8
4
100
AcDbLine
 10
4200.0
 20
5900.0
 30
0.0
 11
4200.0
 21
5900.0
 31
0.0
  0
LINE
  5
7F3C
330
817F
100
AcDbEntity
  8
4
100
AcDbLine
 10
2881.234844719729
 20
5362.527166250802
 30
0.0
 11
2881.234844719729
 21
5573.304523099504
 31
0.0
  0
LINE
  5
7F3D
330
817F
100
AcDbEntity
  8
4
100
AcDbLine
 10
2881.234844719729
 20
5573.304523099504
 30
0.0
 11
3700.0
 21
5573.304523099504
 31
0.0
  0
LINE
  5
7F3E
330
817F
100
AcDbEntity
  8
4
100
AcDbLine
 10
3700.0
 20
5573.304523099504
 30
0.0
 11
3700.0
 21
5362.527166250802
 31
0.0
  0
LINE
  5
7F3F
330
817F
100
AcDbEntity
  8
4
100
AcDbLine
 10
3700.0
 20
5362.527166250802
 30
0.0
 11
2881.234844719729
 21
5362.527166250802
 31
0.0
  0
LINE
  5
7F40
330
817F
100
AcDbEntity
  8
4
100
AcDbLine
 10
0.0
 20
0.0
 30
0.0
 11
0.0
 21
5900.0
 31
0.0
  0
LINE
  5
7F41
330
817F
100
AcDbEntity
  8
4
100
AcDbLine
 10
0.0
 20
5900.0
 30
0.0
 11
4200.0
 21
5900.0
 31
0.0
  0
LINE
  5
7F42
330
817F
100
AcDbEntity
  8
4
100
AcDbLine
 10
4200.0
 20
5900.0
 30
0.0
 11
4200.0
 21
0.0
 31
0.0
  0
LINE
  5
7F43
330
817F
100
AcDbEntity
  8
4
100
AcDbLine
 10
4200.0
 20
0.0
 30
0.0
 11
0.0
 21
0.0
 31
0.0
  0
DIMENSION
  5
803B
330
817F
100
AcDbEntity
  8
3
100
AcDbDimension
  2
*D22
 10
1510.705163262989
 20
1383.316623380695
 30
0.0
 11
985.705163262989
 21
1433.316623380695
 31
0.0
 71
     5
 42
-1.0
  3
Standard
100
AcDbAlignedDimension
 13
460.7051632629889
 23
1535.847673143363
 33
0.0
 14
1510.705163262989
 24
1535.847673143363
 34
0.0
100
AcDbRotatedDimension
1001
ACAD
1000
DSTYLE
1002
{
1070
   172
1070
     1
1070
    40
1040
20.0
1070
    42
1040
1.0
1070
   271
1070
     0
1070
   143
1040
0.039
1002
}
  0
DIMENSION
  5
8048
330
817F
100
AcDbEntity
  8
3
100
AcDbDimension
  2
*D23
 10
1910.705163262989
 20
1383.316623380695
 30
0.0
 11
1710.705163262989
 21
1433.316623380695
 31
0.0
 71
     5
 42
-1.0
  3
Standard
100
AcDbAlignedDimension
 13
1510.705163262989
 23
1535.847673143363
 33
0.0
 14
1910.705163262989
 24
1535.847673143363
 34
0.0
100
AcDbRotatedDimension
1001
ACAD
1000
DSTYLE
1002
{
1070
   172
1070
     1
1070
    40
1040
20.0
1070
    42
1040
1.0
1070
   271
1070
     0
1070
   143
1040
0.039
1002
}
  0
DIMENSION
  5
8055
330
817F
100
AcDbEntity
  8
3
100
AcDbDimension
  2
*D24
 10
3392.739608317243
 20
1383.316623380695
 30
0.0
 11
3116.239608317243
 21
1433.316623380695
 31
0.0
 71
     5
 42
-1.0
  3
Standard
100
AcDbAlignedDimension
 13
2839.739608317243
 23
1535.847673143363
 33
0.0
 14
3392.739608317243
 24
1535.847673143364
 34
0.0
100
AcDbRotatedDimension
1001
ACAD
1000
DSTYLE
1002
{
1070
   172
1070
     1
1070
    40
1040
20.0
1070
    42
1040
1.0
1070
   271
1070
     0
1070
   143
1040
0.039
1002
}
  0
DIMENSION
  5
806F
330
817F
100
AcDbEntity
  8
3
100
AcDbDimension
  2
*D25
 10
3845.739608317244
 20
1383.316623380695
 30
0.0
 11
3619.239608317244
 21
1433.316623380695
 31
0.0
 71
     5
 42
-1.0
  3
Standard
100
AcDbAlignedDimension
 13
3392.739608317243
 23
1535.847673143364
 33
0.0
 14
3845.739608317244
 24
1535.847673143363
 34
0.0
100
AcDbRotatedDimension
1001
ACAD
1000
DSTYLE
1002
{
1070
   172
1070
     1
1070
    40
1040
20.0
1070
    42
1040
1.0
1070
   271
1070
     0
1070
   143
1040
0.039
1002
}
  0
DIMENSION
  5
807C
330
817F
100
AcDbEntity
  8
3
100
AcDbDimension
  2
*D26
 10
2450.209666884773
 20
2789.847673143365
 30
0.0
 11
2400.209666884773
 21
2162.847673143363
 31
0.0
 71
     5
 42
-1.0
  3
Standard
100
AcDbAlignedDimension
 13
1910.705163262989
 23
1535.847673143363
 33
0.0
 14
1483.705163262989
 24
2789.847673143365
 34
0.0
 50
90.0
100
AcDbRotatedDimension
1001
ACAD
1000
DSTYLE
1002
{
1070
   172
1070
     1
1070
    40
1040
20.0
1070
    42
1040
1.0
1070
   271
1070
     0
1070
   143
1040
0.039
1002
}
  0
DIMENSION
  5
81C6
330
817F
100
AcDbEntity
  8
3
100
AcDbDimension
  2
*D27
 10
3392.739608317243
 20
3025.867786547407
 30
0.0
 11
3002.739608317243
 21
3091.582072261693
 31
0.0
 70
    32
  1
(<>)
 71
     5
 42
780.0
  3
IGA
100
AcDbAlignedDimension
 13
2612.739608317243
 23
2485.847673143364
 33
0.0
 14
3392.739608317243
 24
2931.432571521588
 34
0.0
100
AcDbRotatedDimension
1001
ACAD
1000
DSTYLE
1002
{
1070
    40
1040
20.0
1070
    42
1040
1.0
1070
   143
1040
0.039
1070
   172
1070
     1
1070
   271
1070
     4
1070
   272
1070
     4
1070
   279
1070
     0
1070
   284
1070
     0
1070
   285
1070
     0
1070
   286
1070
     0
1070
   341
1005
8193
1070
   343
1005
8193
1070
   344
1005
8193
1002
}
  0
DIMENSION
  5
81D3
330
817F
100
AcDbEntity
  8
3
100
AcDbDimension
  2
*D28
 10
3902.739608317244
 20
3025.867786547407
 30
0.0
 11
3647.739608317244
 21
3091.582072261693
 31
0.0
 70
    32
  1
(<>)
 71
     5
 42
510.0000000000013
  3
IGA
100
AcDbAlignedDimension
 13
3392.739608317243
 23
2931.432571521588
 33
0.0
 14
3902.739608317244
 24
2305.847673143363
 34
0.0
100
AcDbRotatedDimension
1001
ACAD
1000
DSTYLE
1002
{
1070
    40
1040
20.0
1070
    42
1040
1.0
1070
   143
1040
0.039
1070
   172
1070
     1
1070
   271
1070
     4
1070
   272
1070
     4
1070
   279
1070
     1
1070
   284
1070
     0
1070
   285
1070
     0
1070
   286
1070
     0
1070
   341
1005
8193
1070
   343
1005
8193
1070
   344
1005
8193
1002
}
  0
DIMENSION
  5
822B
330
817F
100
AcDbEntity
  8
3
100
AcDbDimension
  2
*D29
 10
1910.705163262989
 20
3143.478450309462
 30
0.0
 11
1185.705163262989
 21
3193.478450309461
 31
0.0
 70
    32
 71
     5
 42
1450.0
  3
IGA
100
AcDbAlignedDimension
 13
460.7051632629889
 23
3472.318859462983
 33
0.0
 14
1910.705163262989
 24
3472.318859462983
 34
0.0
100
AcDbRotatedDimension
1001
ACAD
1000
DSTYLE
1002
{
1070
    40
1040
20.0
1070
    42
1040
1.0
1070
   143
1040
0.039
1070
   172
1070
     1
1070
   271
1070
     4
1070
   272
1070
     4
1070
   279
1070
     0
1070
   284
1070
     0
1070
   285
1070
     0
1070
   286
1070
     0
1070
   341
1005
8193
1070
   343
1005
8193
1070
   344
1005
8193
1002
}
  0
DIMENSION
  5
8238
330
817F
100
AcDbEntity
  8
3
100
AcDbDimension
  2
*D30
 10
962.7051632629889
 20
2925.066613388714
 30
0.0
 11
1236.705163262989
 21
2975.066613388714
 31
0.0
 70
    32
 71
     5
 42
548.0
  3
IGA
100
AcDbAlignedDimension
 13
1510.705163262989
 23
2865.447817660772
 33
0.0
 14
962.7051632629889
 24
2288.847673143363
 34
0.0
100
AcDbRotatedDimension
1001
ACAD
1000
DSTYLE
1002
{
1070
    40
1040
20.0
1070
    42
1040
1.0
1070
   143
1040
0.039
1070
   172
1070
     1
1070
   271
1070
     4
1070
   272
1070
     4
1070
   279
1070
     0
1070
   284
1070
     0
1070
   285
1070
     0
1070
   286
1070
     0
1070
   341
1005
8193
1070
   343
1005
8193
1070
   344
1005
8193
1002
}
  0
DIMENSION
  5
824E
330
817F
100
AcDbEntity
  8
3
100
AcDbDimension
  2
*D31
 10
2326.283915677131
 20
2335.847673143363
 30
0.0
 11
2276.28391567713
 21
1935.847673143363
 31
0.0
 70
    32
 71
     5
 42
800.0
  3
IGA
100
AcDbAlignedDimension
 13
1910.705163262989
 23
1535.847673143363
 33
0.0
 14
2017.598136365984
 24
2335.847673143363
 34
0.0
 50
90.0
100
AcDbRotatedDimension
1001
ACAD
1000
DSTYLE
1002
{
1070
    40
1040
20.0
1070
    42
1040
1.0
1070
   143
1040
0.039
1070
   172
1070
     1
1070
   271
1070
     4
1070
   272
1070
     4
1070
   279
1070
     0
1070
   284
1070
     0
1070
   285
1070
     0
1070
   286
1070
     0
1070
   341
1005
8193
1070
   343
1005
8193
1070
   344
1005
8193
1002
}
  0
DIMENSION
  5
8264
330
817F
100
AcDbEntity
  8
3
100
AcDbDimension
  2
*D32
 10
460.705163262989
 20
4626.924149961388
 30
0.0
 11
785.7051632629889
 21
4676.924149961387
 31
0.0
 70
    32
 71
     5
 42
649.9999999999998
  3
IGA
100
AcDbAlignedDimension
 13
1110.705163262988
 23
4478.318859462985
 33
0.0
 14
460.7051632629889
 24
4072.318859462983
 34
0.0
100
AcDbRotatedDimension
1001
ACAD
1000
DSTYLE
1002
{
1070
    40
1040
20.0
1070
    42
1040
1.0
1070
   143
1040
0.039
1070
   172
1070
     1
1070
   271
1070
     4
1070
   272
1070
     4
1070
   279
1070
     0
1070
   284
1070
     0
1070
   285
1070
     0
1070
   286
1070
     0
1070
   341
1005
8193
1070
   343
1005
8193
1070
   344
1005
8193
1002
}
  0
ENDSEC
  0
SECTION
  2
OBJECTS
  0
DICTIONARY
  5
811C
330
0
100
AcDbDictionary
281
     1
  3
ACAD_CIP_PREVIOUS_PRODUCT_INFO
350
81C5
  3
ACAD_COLOR
350
8172
  3
ACAD_DETAILVIEWSTYLE
350
8179
  3
ACAD_GROUP
350
811D
  3
ACAD_LAYOUT
350
8171
  3
ACAD_MATERIAL
350
8120
  3
ACAD_MLEADERSTYLE
350
8175
  3
ACAD_MLINESTYLE
350
816E
  3
ACAD_PLOTSETTINGS
350
8170
  3
ACAD_PLOTSTYLENAME
350
811E
  3
ACAD_SCALELIST
350
8152
  3
ACAD_SECTIONVIEWSTYLE
350
8177
  3
ACAD_TABLESTYLE
350
8173
  3
ACAD_VISUALSTYLE
350
8139
  3
ACDB_RECOMPOSE_DATA
350
8291
  3
AcDbVariableDictionary
350
8284
  3
DWGPROPS
350
8292
  0
DICTIONARY
  5
827A
330
8164
100
AcDbDictionary
280
     1
281
     1
  3
ADSK_XREC_LAYER_RECONCILED
360
827B
  0
DICTIONARY
  5
827C
330
8183
100
AcDbDictionary
280
     1
281
     1
  3
ADSK_XREC_LAYER_RECONCILED
360
827D
  0
DICTIONARY
  5
827E
330
8186
100
AcDbDictionary
280
     1
281
     1
  3
ADSK_XREC_LAYER_RECONCILED
360
827F
  0
DICTIONARY
  5
8280
330
8187
100
AcDbDictionary
280
     1
281
     1
  3
ADSK_XREC_LAYER_RECONCILED
360
8281
  0
DICTIONARY
  5
8282
330
8188
100
AcDbDictionary
280
     1
281
     1
  3
ADSK_XREC_LAYER_RECONCILED
360
8283
  0
XRECORD
  5
81C5
102
{ACAD_REACTORS
330
811C
102
}
330
811C
100
AcDbXrecord
280
     1
300
ACDLT
300
2015
300
INVLTS_F_S
  0
DICTIONARY
  5
8172
102
{ACAD_REACTORS
330
811C
102
}
330
811C
100
AcDbDictionary
281
     1
  0
DICTIONARY
  5
8179
102
{ACAD_REACTORS
330
811C
102
}
330
811C
100
AcDbDictionary
281
     1
  3
Imperial24
350
817A
  0
DICTIONARY
  5
811D
102
{ACAD_REACTORS
330
811C
102
}
330
811C
100
AcDbDictionary
281
     1
  0
DICTIONARY
  5
8171
102
{ACAD_REACTORS
330
811C
102
}
330
811C
100
AcDbDictionary
281
     1
  3
Model
350
8182
  3
レイアウト1
350
817E
  0
DICTIONARY
  5
8120
102
{ACAD_REACTORS
330
811C
102
}
330
811C
100
AcDbDictionary
281
     1
  3
ByBlock
350
8129
  3
ByLayer
350
8121
  3
Global
350
8131
  0
DICTIONARY
  5
8175
102
{ACAD_REACTORS
330
811C
102
}
330
811C
100
AcDbDictionary
281
     1
  3
Standard
350
8176
  0
DICTIONARY
  5
816E
102
{ACAD_REACTORS
330
811C
102
}
330
811C
100
AcDbDictionary
281
     1
  3
Standard
350
816F
  0
DICTIONARY
  5
8170
102
{ACAD_REACTORS
330
811C
102
}
330
811C
100
AcDbDictionary
281
     1
  0
ACDBDICTIONARYWDFLT
  5
811E
102
{ACAD_REACTORS
330
811C
102
}
330
811C
100
AcDbDictionary
281
     1
  3
Normal
350
811F
100
AcDbDictionaryWithDefault
340
811F
  0
DICTIONARY
  5
8152
102
{ACAD_REACTORS
330
811C
102
}
330
811C
100
AcDbDictionary
281
     1
  3
A0
350
8153
  3
A1
350
8154
  3
A2
350
8155
  3
A3
350
8156
  3
A4
350
8157
  3
A5
350
8158
  3
A6
350
8159
  3
A7
350
815A
  3
A8
350
815B
  3
A9
350
815C
  3
B0
350
815D
  3
B1
350
815E
  3
B2
350
815F
  3
B3
350
8160
  3
B4
350
8161
  3
B5
350
8162
  3
B6
350
8163
  0
DICTIONARY
  5
8177
102
{ACAD_REACTORS
330
811C
102
}
330
811C
100
AcDbDictionary
281
     1
  3
Imperial24
350
8178
  0
DICTIONARY
  5
8173
102
{ACAD_REACTORS
330
811C
102
}
330
811C
100
AcDbDictionary
281
     1
  3
Standard
350
8174
  0
DICTIONARY
  5
8139
102
{ACAD_REACTORS
330
811C
102
}
330
811C
100
AcDbDictionary
281
     1
  3
2dWireframe
350
813F
  3
Basic
350
813E
  3
Brighten
350
8145
  3
ColorChange
350
8149
  3
Conceptual
350
8142
  3
Dim
350
8144
  3
EdgeColorOff
350
8151
  3
Facepattern
350
8148
  3
Flat
350
813A
  3
FlatWithEdges
350
813B
  3
Gouraud
350
813C
  3
GouraudWithEdges
350
813D
  3
Hidden
350
8141
  3
JitterOff
350
814F
  3
Linepattern
350
8147
  3
OverhangOff
350
8150
  3
Realistic
350
8143
  3
Shaded
350
814E
  3
Shaded with edges
350
814D
  3
Shades of Gray
350
814A
  3
Sketchy
350
814B
  3
Thicken
350
8146
  3
Wireframe
350
8140
  3
X-Ray
350
814C
  0
XRECORD
  5
8291
102
{ACAD_REACTORS
330
811C
102
}
330
811C
100
AcDbXrecord
280
     1
 90
        1
330
8174
  0
DICTIONARY
  5
8284
102
{ACAD_REACTORS
330
811C
102
}
330
811C
100
AcDbDictionary
281
     1
  3
CANNOSCALE
350
8289
  3
CMLEADERSTYLE
350
8286
  3
CTABLESTYLE
350
8285
  3
CVIEWDETAILSTYLE
350
8287
  3
CVIEWSECTIONSTYLE
350
8288
  3
DIMASSOC
350
828C
  3
INDEXCTL
350
828B
  3
SORTENTS
350
828A
  3
XCLIPFRAME
350
828D
  0
XRECORD
  5
8292
102
{ACAD_REACTORS
330
811C
102
}
330
811C
100
AcDbXrecord
280
     1
  1
DWGPROPS COOKIE
  2

  3

  4

  6

  7

  8
yasukiyo.ogawa
  9

300
=
301
=
302
=
303
=
304
=
305
=
306
=
307
=
308
=
309
=
 40
0.0132364351851852
 41
2451387.576625463
 42
2460262.618407396
  1

 90
        0
  0
XRECORD
  5
827B
102
{ACAD_REACTORS
330
827A
102
}
330
827A
100
AcDbXrecord
280
     1
290
     1
  0
XRECORD
  5
827D
102
{ACAD_REACTORS
330
827C
102
}
330
827C
100
AcDbXrecord
280
     1
290
     1
  0
XRECORD
  5
827F
102
{ACAD_REACTORS
330
827E
102
}
330
827E
100
AcDbXrecord
280
     1
290
     1
  0
XRECORD
  5
8281
102
{ACAD_REACTORS
330
8280
102
}
330
8280
100
AcDbXrecord
280
     1
290
     1
  0
XRECORD
  5
8283
102
{ACAD_REACTORS
330
8282
102
}
330
8282
100
AcDbXrecord
280
     1
290
     1
  0
ACDBDETAILVIEWSTYLE
  5
817A
102
{ACAD_XDICTIONARY
360
82CA
102
}
102
{ACAD_REACTORS
330
8179
102
}
330
8179
100
AcDbModelDocViewStyle
 70
     0
  3
Imperial24
290
     0
100
AcDbDetailViewStyle
 70
     0
 71
     0
 90
        3
 71
     1
340
8165
 40
0.24
340
0
 40
0.24
300

 40
0.36
280
     3
 71
     2
340
816C
 90
       25
 71
     3
340
8165
 40
0.24
 90
        1
 40
0.75
 90
        1
300
%<\AcVar ViewType \f "%tc1">% %<\AcVar ViewDetailId>%\PSCALE %<\AcVar ViewScale \f "%sn">%
 71
     4
340
816C
 90
       25
340
816C
 90
       25
280
     0
  0
LAYOUT
  5
8182
102
{ACAD_XDICTIONARY
360
82CE
102
}
102
{ACAD_REACTORS
330
8171
102
}
330
8171
100
AcDbPlotSettings
  1

  2
RICOH imagio MP W3600 RPCS
  4

  6

 40
0.0
 41
0.0
 42
0.0
 43
0.0
 44
0.0
 45
0.0
 46
0.0
 47
0.0
 48
0.0
 49
0.0
140
0.0
141
0.0
142
1.0
143
1.0
 70
  1712
 72
     0
 73
     0
 74
     0
  7

 75
     0
147
1.0
148
0.0
149
0.0
100
AcDbLayout
  1
Model
 70
     1
 71
     0
 10
0.0
 20
0.0
 11
12.0
 21
9.0
 12
0.0
 22
0.0
 32
0.0
 14
0.0
 24
0.0
 34
0.0
 15
0.0
 25
0.0
 35
0.0
146
0.0
 13
0.0
 23
0.0
 33
0.0
 16
1.0
 26
0.0
 36
0.0
 17
0.0
 27
1.0
 37
0.0
 76
     0
330
817F
331
8184
  0
LAYOUT
  5
817E
102
{ACAD_XDICTIONARY
360
82CC
102
}
102
{ACAD_REACTORS
330
8171
102
}
330
8171
100
AcDbPlotSettings
  1

  2
RICOH imagio MP W3600 RPCS
  4

  6

 40
0.0
 41
0.0
 42
0.0
 43
0.0
 44
0.0
 45
0.0
 46
0.0
 47
0.0
 48
0.0
 49
0.0
140
0.0
141
0.0
142
1.0
143
1.0
 70
   688
 72
     0
 73
     0
 74
     5
  7

 75
    16
147
1.0
148
0.0
149
0.0
100
AcDbLayout
  1
レイアウト1
 70
     1
 71
     1
 10
0.0
 20
0.0
 11
12.0
 21
9.0
 12
0.0
 22
0.0
 32
0.0
 14
1.000000000000000E+20
 24
1.000000000000000E+20
 34
1.000000000000000E+20
 15
-1.000000000000000E+20
 25
-1.000000000000000E+20
 35
-1.000000000000000E+20
146
0.0
 13
0.0
 23
0.0
 33
0.0
 16
1.0
 26
0.0
 36
0.0
 17
0.0
 27
1.0
 37
0.0
 76
     0
330
817B
  0
MATERIAL
  5
8129
102
{ACAD_XDICTIONARY
360
812A
102
}
102
{ACAD_REACTORS
330
8120
102
}
330
8120
100
AcDbMaterial
  1
ByBlock
 72
     0
 43
0.0208333333333333
 43
0.0
 43
0.0
 43
0.0
 43
0.0
 43
0.0208333333333333
 43
0.0
 43
0.0
 43
0.0
 43
0.0
 43
1.0
 43
0.0
 43
0.0
 43
0.0
 43
0.0
 43
1.0
 77
     0
 47
0.0208333333333333
 47
0.0
 47
0.0
 47
0.0
 47
0.0
 47
0.0208333333333333
 47
0.0
 47
0.0
 47
0.0
 47
0.0
 47
1.0
 47
0.0
 47
0.0
 47
0.0
 47
0.0
 47
1.0
171
     0
 49
0.0208333333333333
 49
0.0
 49
0.0
 49
0.0
 49
0.0
 49
0.0208333333333333
 49
0.0
 49
0.0
 49
0.0
 49
0.0
 49
1.0
 49
0.0
 49
0.0
 49
0.0
 49
0.0
 49
1.0
175
     0
142
0.0208333333333333
142
0.0
142
0.0
142
0.0
142
0.0
142
0.0208333333333333
142
0.0
142
0.0
142
0.0
142
0.0
142
1.0
142
0.0
142
0.0
142
0.0
142
0.0
142
1.0
179
     0
144
0.0208333333333333
144
0.0
144
0.0
144
0.0
144
0.0
144
0.0208333333333333
144
0.0
144
0.0
144
0.0
144
0.0
144
1.0
144
0.0
144
0.0
144
0.0
144
0.0
144
1.0
147
0.0208333333333333
147
0.0
147
0.0
147
0.0
147
0.0
147
0.0208333333333333
147
0.0
147
0.0
147
0.0
147
0.0
147
1.0
147
0.0
147
0.0
147
0.0
147
0.0
147
1.0
  0
MATERIAL
  5
8121
102
{ACAD_XDICTIONARY
360
8122
102
}
102
{ACAD_REACTORS
330
8120
102
}
330
8120
100
AcDbMaterial
  1
ByLayer
 72
     0
 43
0.0208333333333333
 43
0.0
 43
0.0
 43
0.0
 43
0.0
 43
0.0208333333333333
 43
0.0
 43
0.0
 43
0.0
 43
0.0
 43
1.0
 43
0.0
 43
0.0
 43
0.0
 43
0.0
 43
1.0
 77
     0
 47
0.0208333333333333
 47
0.0
 47
0.0
 47
0.0
 47
0.0
 47
0.0208333333333333
 47
0.0
 47
0.0
 47
0.0
 47
0.0
 47
1.0
 47
0.0
 47
0.0
 47
0.0
 47
0.0
 47
1.0
171
     0
 49
0.0208333333333333
 49
0.0
 49
0.0
 49
0.0
 49
0.0
 49
0.0208333333333333
 49
0.0
 49
0.0
 49
0.0
 49
0.0
 49
1.0
 49
0.0
 49
0.0
 49
0.0
 49
0.0
 49
1.0
175
     0
142
0.0208333333333333
142
0.0
142
0.0
142
0.0
142
0.0
142
0.0208333333333333
142
0.0
142
0.0
142
0.0
142
0.0
142
1.0
142
0.0
142
0.0
142
0.0
142
0.0
142
1.0
179
     0
144
0.0208333333333333
144
0.0
144
0.0
144
0.0
144
0.0
144
0.0208333333333333
144
0.0
144
0.0
144
0.0
144
0.0
144
1.0
144
0.0
144
0.0
144
0.0
144
0.0
144
1.0
147
0.0208333333333333
147
0.0
147
0.0
147
0.0
147
0.0
147
0.0208333333333333
147
0.0
147
0.0
147
0.0
147
0.0
147
1.0
147
0.0
147
0.0
147
0.0
147
0.0
147
1.0
  0
MATERIAL
  5
8131
102
{ACAD_XDICTIONARY
360
8132
102
}
102
{ACAD_REACTORS
330
8120
102
}
330
8120
100
AcDbMaterial
  1
Global
 72
     0
 43
0.0208333333333333
 43
0.0
 43
0.0
 43
0.0
 43
0.0
 43
0.0208333333333333
 43
0.0
 43
0.0
 43
0.0
 43
0.0
 43
1.0
 43
0.0
 43
0.0
 43
0.0
 43
0.0
 43
1.0
 77
     0
 47
0.0208333333333333
 47
0.0
 47
0.0
 47
0.0
 47
0.0
 47
0.0208333333333333
 47
0.0
 47
0.0
 47
0.0
 47
0.0
 47
1.0
 47
0.0
 47
0.0
 47
0.0
 47
0.0
 47
1.0
171
     0
 49
0.0208333333333333
 49
0.0
 49
0.0
 49
0.0
 49
0.0
 49
0.0208333333333333
 49
0.0
 49
0.0
 49
0.0
 49
0.0
 49
1.0
 49
0.0
 49
0.0
 49
0.0
 49
0.0
 49
1.0
175
     0
142
0.0208333333333333
142
0.0
142
0.0
142
0.0
142
0.0
142
0.0208333333333333
142
0.0
142
0.0
142
0.0
142
0.0
142
1.0
142
0.0
142
0.0
142
0.0
142
0.0
142
1.0
179
     0
144
0.0208333333333333
144
0.0
144
0.0
144
0.0
144
0.0
144
0.0208333333333333
144
0.0
144
0.0
144
0.0
144
0.0
144
1.0
144
0.0
144
0.0
144
0.0
144
0.0
144
1.0
147
0.0208333333333333
147
0.0
147
0.0
147
0.0
147
0.0
147
0.0208333333333333
147
0.0
147
0.0
147
0.0
147
0.0
147
1.0
147
0.0
147
0.0
147
0.0
147
0.0
147
1.0
  0
MLEADERSTYLE
  5
8176
102
{ACAD_REACTORS
330
8175
102
}
330
8175
100
AcDbMLeaderStyle
170
     2
171
     1
172
     0
 90
        2
 40
0.0
 41
0.0
173
     1
 91
-1056964608
340
816A
 92
       -2
290
     1
 42
0.09
291
     1
 43
0.36
  3
Standard
 44
0.18
300

342
8165
174
     1
178
     6
175
     1
176
     0
 93
-1056964608
 45
0.18
292
     0
297
     0
 46
0.18
 94
-1056964608
 47
1.0
 49
1.0
140
1.0
293
     1
141
0.0
294
     1
177
     0
142
1.0
295
     0
296
     0
143
0.125
1001
ACAD_MLEADERVER
1070
     2
  0
MLINESTYLE
  5
816F
102
{ACAD_REACTORS
330
816E
102
}
330
816E
100
AcDbMlineStyle
  2
STANDARD
 70
     0
  3

 62
   256
 51
90.0
 52
90.0
 71
     2
 49
0.5
 62
   256
  6
BYLAYER
 49
-0.5
 62
   256
  6
BYLAYER
  0
ACDBPLACEHOLDER
  5
811F
102
{ACAD_REACTORS
330
811E
102
}
330
811E
  0
SCALE
  5
8153
102
{ACAD_REACTORS
330
8152
102
}
330
8152
100
AcDbScale
 70
     0
300
1:1
140
1.0
141
1.0
290
     1
  0
SCALE
  5
8154
102
{ACAD_REACTORS
330
8152
102
}
330
8152
100
AcDbScale
 70
     0
300
1/128" = 1'-0"
140
0.0078125
141
12.0
290
     0
  0
SCALE
  5
8155
102
{ACAD_REACTORS
330
8152
102
}
330
8152
100
AcDbScale
 70
     0
300
1/64" = 1'-0"
140
0.015625
141
12.0
290
     0
  0
SCALE
  5
8156
102
{ACAD_REACTORS
330
8152
102
}
330
8152
100
AcDbScale
 70
     0
300
1/32" = 1'-0"
140
0.03125
141
12.0
290
     0
  0
SCALE
  5
8157
102
{ACAD_REACTORS
330
8152
102
}
330
8152
100
AcDbScale
 70
     0
300
1/16" = 1'-0"
140
0.0625
141
12.0
290
     0
  0
SCALE
  5
8158
102
{ACAD_REACTORS
330
8152
102
}
330
8152
100
AcDbScale
 70
     0
300
3/32" = 1'-0"
140
0.09375
141
12.0
290
     0
  0
SCALE
  5
8159
102
{ACAD_REACTORS
330
8152
102
}
330
8152
100
AcDbScale
 70
     0
300
1/8" = 1'-0"
140
0.125
141
12.0
290
     0
  0
SCALE
  5
815A
102
{ACAD_REACTORS
330
8152
102
}
330
8152
100
AcDbScale
 70
     0
300
3/16" = 1'-0"
140
0.1875
141
12.0
290
     0
  0
SCALE
  5
815B
102
{ACAD_REACTORS
330
8152
102
}
330
8152
100
AcDbScale
 70
     0
300
1/4" = 1'-0"
140
0.25
141
12.0
290
     0
  0
SCALE
  5
815C
102
{ACAD_REACTORS
330
8152
102
}
330
8152
100
AcDbScale
 70
     0
300
3/8" = 1'-0"
140
0.375
141
12.0
290
     0
  0
SCALE
  5
815D
102
{ACAD_REACTORS
330
8152
102
}
330
8152
100
AcDbScale
 70
     0
300
1/2" = 1'-0"
140
0.5
141
12.0
290
     0
  0
SCALE
  5
815E
102
{ACAD_REACTORS
330
8152
102
}
330
8152
100
AcDbScale
 70
     0
300
3/4" = 1'-0"
140
0.75
141
12.0
290
     0
  0
SCALE
  5
815F
102
{ACAD_REACTORS
330
8152
102
}
330
8152
100
AcDbScale
 70
     0
300
1" = 1'-0"
140
1.0
141
12.0
290
     0
  0
SCALE
  5
8160
102
{ACAD_REACTORS
330
8152
102
}
330
8152
100
AcDbScale
 70
     0
300
1-1/2" = 1'-0"
140
1.5
141
12.0
290
     0
  0
SCALE
  5
8161
102
{ACAD_REACTORS
330
8152
102
}
330
8152
100
AcDbScale
 70
     0
300
3" = 1'-0"
140
3.0
141
12.0
290
     0
  0
SCALE
  5
8162
102
{ACAD_REACTORS
330
8152
102
}
330
8152
100
AcDbScale
 70
     0
300
6" = 1'-0"
140
6.0
141
12.0
290
     0
  0
SCALE
  5
8163
102
{ACAD_REACTORS
330
8152
102
}
330
8152
100
AcDbScale
 70
     0
300
1'-0" = 1'-0"
140
12.0
141
12.0
290
     0
  0
ACDBSECTIONVIEWSTYLE
  5
8178
102
{ACAD_XDICTIONARY
360
82C8
102
}
102
{ACAD_REACTORS
330
8177
102
}
330
8177
100
AcDbModelDocViewStyle
 70
     0
  3
Imperial24
290
     0
100
AcDbSectionViewStyle
 70
     0
 71
     0
 90
       78
 71
     1
340
8165
 40
0.24
340
0
340
0
 40
0.24
300
I, O, Q, S, X, Z
 40
0.48
 90
        3
 40
0.18
 90
        1
 71
     2
340
816C
 90
       25
340
816C
 90
       50
 40
0.24
 40
0.0
 40
0.24
 71
     3
340
8165
 40
0.24
 90
        1
 40
0.75
 90
        1
300
%<\AcVar ViewType \f "%tc1">% %<\AcVar ViewSectionStartId>%-%<\AcVar ViewSectionEndId>%\PSCALE %<\AcVar ViewScale \f "%sn">%
 71
     4
300
ANSI31
 40
1.0
 90
        0
290
     0
290
     0
 90
        6
 40
0.0
 40
1.570796326794896
 40
0.2617993877991494
 40
1.308996938995747
 40
-0.2617993877991494
 40
1.832595714594046
  0
TABLESTYLE
  5
8174
102
{ACAD_XDICTIONARY
360
828F
102
}
102
{ACAD_REACTORS
330
8173
102
}
330
8173
100
AcDbTableStyle
  3
Standard
 70
     0
 71
     0
 40
0.06
 41
0.06
280
     0
281
     0
  7
STANDARD
140
0.18
170
     2
 62
     0
 63
     7
283
     0
274
    -2
284
     1
 64
     0
275
    -2
285
     1
 65
     0
276
    -2
286
     1
 66
     0
277
    -2
287
     1
 67
     0
278
    -2
288
     1
 68
     0
279
    -2
289
     1
 69
     0
  7
STANDARD
140
0.25
170
     5
 62
     0
 63
     7
283
     0
274
    -2
284
     1
 64
     0
275
    -2
285
     1
 65
     0
276
    -2
286
     1
 66
     0
277
    -2
287
     1
 67
     0
278
    -2
288
     1
 68
     0
279
    -2
289
     1
 69
     0
  7
STANDARD
140
0.18
170
     5
 62
     0
 63
     7
283
     0
274
    -2
284
     1
 64
     0
275
    -2
285
     1
 65
     0
276
    -2
286
     1
 66
     0
277
    -2
287
     1
 67
     0
278
    -2
288
     1
 68
     0
279
    -2
289
     1
 69
     0
  0
VISUALSTYLE
  5
813F
102
{ACAD_XDICTIONARY
360
82A0
102
}
102
{ACAD_REACTORS
330
8139
102
}
330
8139
100
AcDbVisualStyle
  2
2dWireframe
 70
     4
 71
     0
 72
     2
 73
     0
 90
        0
 40
-0.6
 41
-30.0
 62
     5
 63
     7
 74
     1
 91
        4
 64
     7
 65
   257
 75
     1
175
     1
 42
1.0
 92
        0
 66
   257
 43
1.0
 76
     1
 77
     6
 78
     2
 67
     7
 79
     5
170
     0
171
     0
290
     0
174
     0
 93
        1
 44
0.0
173
     0
291
     0
 45
0.0
1001
ACAD
1000
AcDbSavedByObjectVersion
1070
     0
  0
VISUALSTYLE
  5
813E
102
{ACAD_XDICTIONARY
360
829E
102
}
102
{ACAD_REACTORS
330
8139
102
}
330
8139
100
AcDbVisualStyle
  2
Basic
 70
     7
 71
     1
 72
     0
 73
     1
 90
        0
 40
-0.6
 41
-30.0
 62
     5
 63
     7
 74
     0
 91
        4
 64
     7
 65
   257
 75
     1
175
     1
 42
1.0
 92
        8
 66
     7
 43
1.0
 76
     1
 77
     6
 78
     2
 67
     7
 79
     5
170
     0
171
     0
290
     0
174
     0
 93
        1
 44
0.0
173
     0
291
     1
 45
0.0
1001
ACAD
1000
AcDbSavedByObjectVersion
1070
     0
  0
VISUALSTYLE
  5
8145
102
{ACAD_XDICTIONARY
360
82AC
102
}
102
{ACAD_REACTORS
330
8139
102
}
330
8139
100
AcDbVisualStyle
  2
Brighten
 70
    12
 71
     2
 72
     2
 73
     0
 90
        0
 40
-0.6
 41
-30.0
 62
     5
 63
     7
 74
     1
 91
        4
 64
     7
 65
   257
 75
     1
175
     1
 42
1.0
 92
        8
 66
     7
 43
1.0
 76
     1
 77
     6
 78
     2
 67
     7
 79
     5
170
     0
171
     0
290
     0
174
     0
 93
        1
 44
50.0
173
     0
291
     1
 45
0.0
1001
ACAD
1000
AcDbSavedByObjectVersion
1070
     0
  0
VISUALSTYLE
  5
8149
102
{ACAD_XDICTIONARY
360
82B4
102
}
102
{ACAD_REACTORS
330
8139
102
}
330
8139
100
AcDbVisualStyle
  2
ColorChange
 70
    16
 71
     2
 72
     2
 73
     3
 90
        0
 40
-0.6
 41
-30.0
 62
     5
 63
     8
 74
     1
 91
        4
 64
     7
 65
   257
 75
     1
175
     1
 42
1.0
 92
        8
 66
     8
 43
1.0
 76
     1
 77
     6
 78
     2
 67
     7
 79
     5
170
     0
171
     0
290
     0
174
     0
 93
        1
 44
0.0
173
     0
291
     1
 45
0.0
1001
ACAD
1000
AcDbSavedByObjectVersion
1070
     0
  0
VISUALSTYLE
  5
8142
102
{ACAD_XDICTIONARY
360
82A6
102
}
102
{ACAD_REACTORS
330
8139
102
}
330
8139
100
AcDbVisualStyle
  2
Conceptual
 70
     9
 71
     3
 72
     2
 73
     0
 90
        0
 40
-0.6
 41
-30.0
 62
     5
 63
     7
 74
     2
 91
        2
 64
     7
 65
   257
 75
     1
175
     1
 42
179.0
 92
        8
 66
     7
 43
1.0
 76
     1
 77
     6
 78
     2
 67
     7
 79
     3
170
     0
171
     0
290
     0
174
     0
 93
        1
 44
0.0
173
     0
291
     0
 45
0.0
1001
ACAD
1000
AcDbSavedByObjectVersion
1070
     0
  0
VISUALSTYLE
  5
8144
102
{ACAD_XDICTIONARY
360
82AA
102
}
102
{ACAD_REACTORS
330
8139
102
}
330
8139
100
AcDbVisualStyle
  2
Dim
 70
    11
 71
     2
 72
     2
 73
     0
 90
        0
 40
-0.6
 41
-30.0
 62
     5
 63
     7
 74
     1
 91
        4
 64
     7
 65
   257
 75
     1
175
     1
 42
1.0
 92
        8
 66
     7
 43
1.0
 76
     1
 77
     6
 78
     2
 67
     7
 79
     5
170
     0
171
     0
290
     0
174
     0
 93
        1
 44
-50.0
173
     0
291
     1
 45
0.0
1001
ACAD
1000
AcDbSavedByObjectVersion
1070
     0
  0
VISUALSTYLE
  5
8151
102
{ACAD_XDICTIONARY
360
82C4
102
}
102
{ACAD_REACTORS
330
8139
102
}
330
8139
100
AcDbVisualStyle
  2
EdgeColorOff
 70
    22
 71
     2
 72
     2
 73
     0
 90
        0
 40
-0.6
 41
-30.0
 62
     5
 63
     7
 74
     1
 91
        4
 64
     7
 65
   257
 75
     1
175
     1
 42
1.0
 92
        8
 66
     7
 43
1.0
 76
     1
 77
     6
 78
     2
 67
     7
 79
     5
170
     0
171
     0
290
     0
174
     0
 93
        1
 44
0.0
173
     0
291
     1
 45
0.0
1001
ACAD
1000
AcDbSavedByObjectVersion
1070
     0
  0
VISUALSTYLE
  5
8148
102
{ACAD_XDICTIONARY
360
82B2
102
}
102
{ACAD_REACTORS
330
8139
102
}
330
8139
100
AcDbVisualStyle
  2
Facepattern
 70
    15
 71
     2
 72
     2
 73
     0
 90
        0
 40
-0.6
 41
-30.0
 62
     5
 63
     7
 74
     1
 91
        4
 64
     7
 65
   257
 75
     1
175
     1
 42
1.0
 92
        8
 66
     7
 43
1.0
 76
     1
 77
     6
 78
     2
 67
     7
 79
     5
170
     0
171
     0
290
     0
174
     0
 93
        1
 44
0.0
173
     0
291
     1
 45
0.0
1001
ACAD
1000
AcDbSavedByObjectVersion
1070
     0
  0
VISUALSTYLE
  5
813A
102
{ACAD_XDICTIONARY
360
8296
102
}
102
{ACAD_REACTORS
330
8139
102
}
330
8139
100
AcDbVisualStyle
  2
Flat
 70
     0
 71
     2
 72
     1
 73
     1
 90
        2
 40
-0.6
 41
30.0
 62
     5
 63
     7
 74
     0
 91
        0
 64
     7
 65
   257
 75
     1
175
     1
 42
1.0
 92
        8
 66
     7
 43
1.0
 76
     1
 77
     6
 78
     2
 67
     7
 79
     5
170
     0
171
     0
290
     0
174
     0
 93
       13
 44
0.0
173
     0
291
     1
 45
0.0
1001
ACAD
1000
AcDbSavedByObjectVersion
1070
     0
  0
VISUALSTYLE
  5
813B
102
{ACAD_XDICTIONARY
360
8298
102
}
102
{ACAD_REACTORS
330
8139
102
}
330
8139
100
AcDbVisualStyle
  2
FlatWithEdges
 70
     1
 71
     2
 72
     1
 73
     1
 90
        2
 40
-0.6
 41
30.0
 62
     5
 63
     7
 74
     1
 91
        0
 64
     7
 65
   257
 75
     1
175
     1
 42
1.0
 92
        0
 66
   257
 43
1.0
 76
     1
 77
     6
 78
     2
 67
     7
 79
     5
170
     0
171
     0
290
     0
174
     0
 93
       13
 44
0.0
173
     0
291
     1
 45
0.0
1001
ACAD
1000
AcDbSavedByObjectVersion
1070
     0
  0
VISUALSTYLE
  5
813C
102
{ACAD_XDICTIONARY
360
829A
102
}
102
{ACAD_REACTORS
330
8139
102
}
330
8139
100
AcDbVisualStyle
  2
Gouraud
 70
     2
 71
     2
 72
     2
 73
     1
 90
        2
 40
-0.6
 41
30.0
 62
     5
 63
     7
 74
     0
 91
        0
 64
     7
 65
   257
 75
     1
175
     1
 42
1.0
 92
        0
 66
     7
 43
1.0
 76
     1
 77
     6
 78
     2
 67
     7
 79
     5
170
     0
171
     0
290
     0
174
     0
 93
       13
 44
0.0
173
     0
291
     1
 45
0.0
1001
ACAD
1000
AcDbSavedByObjectVersion
1070
     0
  0
VISUALSTYLE
  5
813D
102
{ACAD_XDICTIONARY
360
829C
102
}
102
{ACAD_REACTORS
330
8139
102
}
330
8139
100
AcDbVisualStyle
  2
GouraudWithEdges
 70
     3
 71
     2
 72
     2
 73
     1
 90
        2
 40
-0.6
 41
30.0
 62
     5
 63
     7
 74
     1
 91
        0
 64
     7
 65
   257
 75
     1
175
     1
 42
1.0
 92
        0
 66
   257
 43
1.0
 76
     1
 77
     6
 78
     2
 67
     7
 79
     5
170
     0
171
     0
290
     0
174
     0
 93
       13
 44
0.0
173
     0
291
     1
 45
0.0
1001
ACAD
1000
AcDbSavedByObjectVersion
1070
     0
  0
VISUALSTYLE
  5
8141
102
{ACAD_XDICTIONARY
360
82A4
102
}
102
{ACAD_REACTORS
330
8139
102
}
330
8139
100
AcDbVisualStyle
  2
Hidden
 70
     6
 71
     1
 72
     2
 73
     2
 90
        0
 40
-0.6
 41
-30.0
 62
     5
 63
     7
 74
     2
 91
        2
 64
     7
 65
   257
 75
     2
175
     1
 42
40.0
 92
        0
 66
   257
 43
1.0
 76
     1
 77
     6
 78
     2
 67
     7
 79
     3
170
     0
171
     0
290
     0
174
     0
 93
        1
 44
0.0
173
     0
291
     0
 45
0.0
1001
ACAD
1000
AcDbSavedByObjectVersion
1070
     0
  0
VISUALSTYLE
  5
814F
102
{ACAD_XDICTIONARY
360
82C0
102
}
102
{ACAD_REACTORS
330
8139
102
}
330
8139
100
AcDbVisualStyle
  2
JitterOff
 70
    20
 71
     2
 72
     2
 73
     0
 90
        0
 40
-0.6
 41
-30.0
 62
     5
 63
     7
 74
     1
 91
        4
 64
     7
 65
   257
 75
     1
175
     1
 42
1.0
 92
       10
 66
     7
 43
1.0
 76
     1
 77
     6
 78
     2
 67
     7
 79
     5
170
     0
171
     0
290
     0
174
     0
 93
        1
 44
0.0
173
     0
291
     1
 45
0.0
1001
ACAD
1000
AcDbSavedByObjectVersion
1070
     0
  0
VISUALSTYLE
  5
8147
102
{ACAD_XDICTIONARY
360
82B0
102
}
102
{ACAD_REACTORS
330
8139
102
}
330
8139
100
AcDbVisualStyle
  2
Linepattern
 70
    14
 71
     2
 72
     2
 73
     0
 90
        0
 40
-0.6
 41
-30.0
 62
     5
 63
     7
 74
     1
 91
        4
 64
     7
 65
   257
 75
     7
175
     7
 42
1.0
 92
        8
 66
     7
 43
1.0
 76
     1
 77
     6
 78
     2
 67
     7
 79
     5
170
     0
171
     0
290
     0
174
     0
 93
        1
 44
0.0
173
     0
291
     1
 45
0.0
1001
ACAD
1000
AcDbSavedByObjectVersion
1070
     0
  0
VISUALSTYLE
  5
8150
102
{ACAD_XDICTIONARY
360
82C2
102
}
102
{ACAD_REACTORS
330
8139
102
}
330
8139
100
AcDbVisualStyle
  2
OverhangOff
 70
    21
 71
     2
 72
     2
 73
     0
 90
        0
 40
-0.6
 41
-30.0
 62
     5
 63
     7
 74
     1
 91
        4
 64
     7
 65
   257
 75
     1
175
     1
 42
1.0
 92
        9
 66
     7
 43
1.0
 76
     1
 77
     6
 78
     2
 67
     7
 79
     5
170
     0
171
     0
290
     0
174
     0
 93
        1
 44
0.0
173
     0
291
     1
 45
0.0
1001
ACAD
1000
AcDbSavedByObjectVersion
1070
     0
  0
VISUALSTYLE
  5
8143
102
{ACAD_XDICTIONARY
360
82A8
102
}
102
{ACAD_REACTORS
330
8139
102
}
330
8139
100
AcDbVisualStyle
  2
Realistic
 70
     8
 71
     2
 72
     3
 73
     0
 90
        2
 40
-0.6
 41
30.0
 62
     5
 63
     7
 74
     0
 91
        0
 64
     7
 65
   257
 75
     1
175
     1
 42
1.0
 92
        8
 66
   257
 43
1.0
 76
     1
 77
     6
 78
     2
 67
     7
 79
     3
170
     0
171
     0
290
     0
174
     0
 93
       13
 44
0.0
173
     0
291
     0
 45
0.0
1001
ACAD
1000
AcDbSavedByObjectVersion
1070
     0
  0
VISUALSTYLE
  5
814E
102
{ACAD_XDICTIONARY
360
82BE
102
}
102
{ACAD_REACTORS
330
8139
102
}
330
8139
100
AcDbVisualStyle
  2
Shaded
 70
    27
 71
     2
 72
     2
 73
     1
 90
        2
 40
-0.6
 41
30.0
 62
     5
 63
     7
 74
     0
 91
        4
 64
     7
 65
   257
 75
     1
175
     1
 42
1.0
 92
        8
 66
   257
 43
1.0
 76
     1
 77
     6
 78
     2
 67
     8
 79
     3
170
     0
171
     0
290
     0
174
     0
 93
        5
 44
0.0
173
     0
291
     0
 45
0.0
1001
ACAD
1000
AcDbSavedByObjectVersion
1070
     0
  0
VISUALSTYLE
  5
814D
102
{ACAD_XDICTIONARY
360
82BC
102
}
102
{ACAD_REACTORS
330
8139
102
}
330
8139
100
AcDbVisualStyle
  2
Shaded with edges
 70
    26
 71
     2
 72
     2
 73
     1
 90
        2
 40
-0.6
 41
30.0
 62
     5
 63
     7
 74
     1
 91
       10
 64
     7
 65
   257
 75
     2
175
     1
 42
1.0
 92
        8
 66
   257
 43
1.0
 76
     1
 77
     6
 78
     2
 67
     7
 79
     3
170
     0
171
     0
290
     0
174
     0
 93
        5
 44
0.0
173
     0
291
     0
 45
0.0
1001
ACAD
1000
AcDbSavedByObjectVersion
1070
     0
  0
VISUALSTYLE
  5
814A
102
{ACAD_XDICTIONARY
360
82B6
102
}
102
{ACAD_REACTORS
330
8139
102
}
330
8139
100
AcDbVisualStyle
  2
Shades of Gray
 70
    23
 71
     2
 72
     2
 73
     3
 90
        0
 40
-0.6
 41
-30.0
 62
     5
 63
     7
 74
     2
 91
        2
 64
     7
 65
     7
 75
     1
175
     1
 42
40.0
 92
        8
 66
     7
 43
1.0
 76
     1
 77
     6
 78
     2
 67
     7
 79
     3
170
     0
171
     0
290
     0
174
     0
 93
        1
 44
0.0
173
     0
291
     0
 45
0.0
1001
ACAD
1000
AcDbSavedByObjectVersion
1070
     0
  0
VISUALSTYLE
  5
814B
102
{ACAD_XDICTIONARY
360
82B8
102
}
102
{ACAD_REACTORS
330
8139
102
}
330
8139
100
AcDbVisualStyle
  2
Sketchy
 70
    24
 71
     1
 72
     2
 73
     2
 90
        0
 40
-0.6
 41
-30.0
 62
     5
 63
     7
 74
     2
 91
        2
 64
     7
 65
     7
 75
     1
175
     1
 42
40.0
 92
       11
 66
     7
 43
1.0
 76
     1
 77
     6
 78
     2
 67
     7
 79
     6
170
     0
171
     0
290
     0
174
     0
 93
        1
 44
0.0
173
     0
291
     0
 45
0.0
1001
ACAD
1000
AcDbSavedByObjectVersion
1070
     0
  0
VISUALSTYLE
  5
8146
102
{ACAD_XDICTIONARY
360
82AE
102
}
102
{ACAD_REACTORS
330
8139
102
}
330
8139
100
AcDbVisualStyle
  2
Thicken
 70
    13
 71
     2
 72
     2
 73
     0
 90
        0
 40
-0.6
 41
-30.0
 62
     5
 63
     7
 74
     1
 91
        4
 64
     7
 65
   257
 75
     1
175
     1
 42
1.0
 92
       12
 66
     7
 43
1.0
 76
     1
 77
     6
 78
     2
 67
     7
 79
     5
170
     0
171
     0
290
     0
174
     0
 93
        1
 44
0.0
173
     0
291
     1
 45
0.0
1001
ACAD
1000
AcDbSavedByObjectVersion
1070
     0
  0
VISUALSTYLE
  5
8140
102
{ACAD_XDICTIONARY
360
82A2
102
}
102
{ACAD_REACTORS
330
8139
102
}
330
8139
100
AcDbVisualStyle
  2
Wireframe
 70
     5
 71
     0
 72
     2
 73
     0
 90
        0
 40
-0.6
 41
-30.0
 62
     5
 63
     7
 74
     1
 91
        4
 64
     7
 65
   257
 75
     1
175
     1
 42
1.0
 92
        0
 66
   257
 43
1.0
 76
     1
 77
     6
 78
     2
 67
     7
 79
     3
170
     0
171
     0
290
     0
174
     0
 93
        1
 44
0.0
173
     0
291
     0
 45
0.0
1001
ACAD
1000
AcDbSavedByObjectVersion
1070
     0
  0
VISUALSTYLE
  5
814C
102
{ACAD_XDICTIONARY
360
82BA
102
}
102
{ACAD_REACTORS
330
8139
102
}
330
8139
100
AcDbVisualStyle
  2
X-Ray
 70
    25
 71
     2
 72
     2
 73
     1
 90
        1
 40
0.5
 41
-30.0
 62
     5
 63
     7
 74
     1
 91
        0
 64
     7
 65
   257
 75
     1
175
     1
 42
1.0
 92
        8
 66
     7
 43
1.0
 76
     1
 77
     6
 78
     2
 67
     7
 79
     3
170
     0
171
     0
290
     0
174
     0
 93
       13
 44
0.0
173
     0
291
     0
 45
0.0
1001
ACAD
1000
AcDbSavedByObjectVersion
1070
     0
  0
DICTIONARYVAR
  5
8289
102
{ACAD_REACTORS
330
8284
102
}
330
8284
100
DictionaryVariables
280
     0
  1
1:1
  0
DICTIONARYVAR
  5
8286
102
{ACAD_REACTORS
330
8284
102
}
330
8284
100
DictionaryVariables
280
     0
  1
STANDARD
  0
DICTIONARYVAR
  5
8285
102
{ACAD_REACTORS
330
8284
102
}
330
8284
100
DictionaryVariables
280
     0
  1
STANDARD
  0
DICTIONARYVAR
  5
8287
102
{ACAD_REACTORS
330
8284
102
}
330
8284
100
DictionaryVariables
280
     0
  1
Imperial24
  0
DICTIONARYVAR
  5
8288
102
{ACAD_REACTORS
330
8284
102
}
330
8284
100
DictionaryVariables
280
     0
  1
Imperial24
  0
DICTIONARYVAR
  5
828C
102
{ACAD_REACTORS
330
8284
102
}
330
8284
100
DictionaryVariables
280
     0
  1
1
  0
DICTIONARYVAR
  5
828B
102
{ACAD_REACTORS
330
8284
102
}
330
8284
100
DictionaryVariables
280
     0
  1
0
  0
DICTIONARYVAR
  5
828A
102
{ACAD_REACTORS
330
8284
102
}
330
8284
100
DictionaryVariables
280
     0
  1
127
  0
DICTIONARYVAR
  5
828D
102
{ACAD_REACTORS
330
8284
102
}
330
8284
100
DictionaryVariables
280
     0
  1
2
  0
DICTIONARY
  5
82CA
330
817A
100
AcDbDictionary
280
     1
281
     1
  3
ACAD_XREC_ROUNDTRIP
360
82CB
  0
DICTIONARY
  5
82CE
330
8182
100
AcDbDictionary
280
     1
281
     1
  3
ACAD_XREC_ROUNDTRIP
360
82CF
  0
DICTIONARY
  5
82CC
330
817E
100
AcDbDictionary
280
     1
281
     1
  3
ACAD_XREC_ROUNDTRIP
360
82CD
  0
DICTIONARY
  5
812A
330
8129
100
AcDbDictionary
280
     1
281
     1
  3
ACAD_XREC_ROUNDTRIP
360
8294
  3
BUMPTILE
360
812C
  3
DIFFUSETILE
360
812B
  3
OPACITYTILE
360
812F
  3
REFLECTIONTILE
360
812E
  3
REFRACTIONTILE
360
8130
  3
SPECULARTILE
360
812D
  0
DICTIONARY
  5
8122
330
8121
100
AcDbDictionary
280
     1
281
     1
  3
ACAD_XREC_ROUNDTRIP
360
8293
  3
BUMPTILE
360
8124
  3
DIFFUSETILE
360
8123
  3
OPACITYTILE
360
8127
  3
REFLECTIONTILE
360
8126
  3
REFRACTIONTILE
360
8128
  3
SPECULARTILE
360
8125
  0
DICTIONARY
  5
8132
330
8131
100
AcDbDictionary
280
     1
281
     1
  3
ACAD_XREC_ROUNDTRIP
360
8295
  3
BUMPTILE
360
8134
  3
DIFFUSETILE
360
8133
  3
OPACITYTILE
360
8137
  3
REFLECTIONTILE
360
8136
  3
REFRACTIONTILE
360
8138
  3
SPECULARTILE
360
8135
  0
DICTIONARY
  5
82C8
330
8178
100
AcDbDictionary
280
     1
281
     1
  3
ACAD_XREC_ROUNDTRIP
360
82C9
  0
DICTIONARY
  5
828F
330
8174
100
AcDbDictionary
280
     1
281
     1
  3
ACAD_ROUNDTRIP_2008_TABLESTYLE_CELLSTYLEMAP
360
8290
  3
ACAD_XREC_ROUNDTRIP
360
82C6
  0
DICTIONARY
  5
82A0
330
813F
100
AcDbDictionary
280
     1
281
     1
  3
ACAD_XREC_ROUNDTRIP
360
82A1
  0
DICTIONARY
  5
829E
330
813E
100
AcDbDictionary
280
     1
281
     1
  3
ACAD_XREC_ROUNDTRIP
360
829F
  0
DICTIONARY
  5
82AC
330
8145
100
AcDbDictionary
280
     1
281
     1
  3
ACAD_XREC_ROUNDTRIP
360
82AD
  0
DICTIONARY
  5
82B4
330
8149
100
AcDbDictionary
280
     1
281
     1
  3
ACAD_XREC_ROUNDTRIP
360
82B5
  0
DICTIONARY
  5
82A6
330
8142
100
AcDbDictionary
280
     1
281
     1
  3
ACAD_XREC_ROUNDTRIP
360
82A7
  0
DICTIONARY
  5
82AA
330
8144
100
AcDbDictionary
280
     1
281
     1
  3
ACAD_XREC_ROUNDTRIP
360
82AB
  0
DICTIONARY
  5
82C4
330
8151
100
AcDbDictionary
280
     1
281
     1
  3
ACAD_XREC_ROUNDTRIP
360
82C5
  0
DICTIONARY
  5
82B2
330
8148
100
AcDbDictionary
280
     1
281
     1
  3
ACAD_XREC_ROUNDTRIP
360
82B3
  0
DICTIONARY
  5
8296
330
813A
100
AcDbDictionary
280
     1
281
     1
  3
ACAD_XREC_ROUNDTRIP
360
8297
  0
DICTIONARY
  5
8298
330
813B
100
AcDbDictionary
280
     1
281
     1
  3
ACAD_XREC_ROUNDTRIP
360
8299
  0
DICTIONARY
  5
829A
330
813C
100
AcDbDictionary
280
     1
281
     1
  3
ACAD_XREC_ROUNDTRIP
360
829B
  0
DICTIONARY
  5
829C
330
813D
100
AcDbDictionary
280
     1
281
     1
  3
ACAD_XREC_ROUNDTRIP
360
829D
  0
DICTIONARY
  5
82A4
330
8141
100
AcDbDictionary
280
     1
281
     1
  3
ACAD_XREC_ROUNDTRIP
360
82A5
  0
DICTIONARY
  5
82C0
330
814F
100
AcDbDictionary
280
     1
281
     1
  3
ACAD_XREC_ROUNDTRIP
360
82C1
  0
DICTIONARY
  5
82B0
330
8147
100
AcDbDictionary
280
     1
281
     1
  3
ACAD_XREC_ROUNDTRIP
360
82B1
  0
DICTIONARY
  5
82C2
330
8150
100
AcDbDictionary
280
     1
281
     1
  3
ACAD_XREC_ROUNDTRIP
360
82C3
  0
DICTIONARY
  5
82A8
330
8143
100
AcDbDictionary
280
     1
281
     1
  3
ACAD_XREC_ROUNDTRIP
360
82A9
  0
DICTIONARY
  5
82BE
330
814E
100
AcDbDictionary
280
     1
281
     1
  3
ACAD_XREC_ROUNDTRIP
360
82BF
  0
DICTIONARY
  5
82BC
330
814D
100
AcDbDictionary
280
     1
281
     1
  3
ACAD_XREC_ROUNDTRIP
360
82BD
  0
DICTIONARY
  5
82B6
330
814A
100
AcDbDictionary
280
     1
281
     1
  3
ACAD_XREC_ROUNDTRIP
360
82B7
  0
DICTIONARY
  5
82B8
330
814B
100
AcDbDictionary
280
     1
281
     1
  3
ACAD_XREC_ROUNDTRIP
360
82B9
  0
DICTIONARY
  5
82AE
330
8146
100
AcDbDictionary
280
     1
281
     1
  3
ACAD_XREC_ROUNDTRIP
360
82AF
  0
DICTIONARY
  5
82A2
330
8140
100
AcDbDictionary
280
     1
281
     1
  3
ACAD_XREC_ROUNDTRIP
360
82A3
  0
DICTIONARY
  5
82BA
330
814C
100
AcDbDictionary
280
     1
281
     1
  3
ACAD_XREC_ROUNDTRIP
360
82BB
  0
XRECORD
  5
82CB
102
{ACAD_REACTORS
330
82CA
102
}
330
82CA
100
AcDbXrecord
280
     1
102
DISPLAYNAME
  1
Imperial24
102
FLAGS
 90
        0
  0
XRECORD
  5
82CF
102
{ACAD_REACTORS
330
82CE
102
}
330
82CE
100
AcDbXrecord
280
     1
102
SHADEPLOT
 70
     0
102
SHADEPLOTRESLEVEL
 70
     2
102
SHADEPLOTCUSTOMDPI
 70
   300
  0
XRECORD
  5
82CD
102
{ACAD_REACTORS
330
82CC
102
}
330
82CC
100
AcDbXrecord
280
     1
102
SHADEPLOT
 70
     0
102
SHADEPLOTRESLEVEL
 70
     2
102
SHADEPLOTCUSTOMDPI
 70
   300
  0
XRECORD
  5
8294
102
{ACAD_REACTORS
330
812A
102
}
330
812A
100
AcDbXrecord
280
     1
102
MATERIAL
148
0.0
149
0.0
149
0.0
 93
        0
 94
      127
282
     0
 72
     0
 77
     0
171
     0
175
     0
179
     0
273
     0
  0
XRECORD
  5
812C
102
{ACAD_REACTORS
330
812A
102
}
330
812A
100
AcDbXrecord
280
     1
270
     1
271
     1
  0
XRECORD
  5
812B
102
{ACAD_REACTORS
330
812A
102
}
330
812A
100
AcDbXrecord
280
     1
270
     1
271
     1
  0
XRECORD
  5
812F
102
{ACAD_REACTORS
330
812A
102
}
330
812A
100
AcDbXrecord
280
     1
270
     1
271
     1
  0
XRECORD
  5
812E
102
{ACAD_REACTORS
330
812A
102
}
330
812A
100
AcDbXrecord
280
     1
270
     1
271
     1
  0
XRECORD
  5
8130
102
{ACAD_REACTORS
330
812A
102
}
330
812A
100
AcDbXrecord
280
     1
270
     1
271
     1
  0
XRECORD
  5
812D
102
{ACAD_REACTORS
330
812A
102
}
330
812A
100
AcDbXrecord
280
     1
270
     1
271
     1
  0
XRECORD
  5
8293
102
{ACAD_REACTORS
330
8122
102
}
330
8122
100
AcDbXrecord
280
     1
102
MATERIAL
148
0.0
149
0.0
149
0.0
 93
        0
 94
      127
282
     0
 72
     0
 77
     0
171
     0
175
     0
179
     0
273
     0
  0
XRECORD
  5
8124
102
{ACAD_REACTORS
330
8122
102
}
330
8122
100
AcDbXrecord
280
     1
270
     1
271
     1
  0
XRECORD
  5
8123
102
{ACAD_REACTORS
330
8122
102
}
330
8122
100
AcDbXrecord
280
     1
270
     1
271
     1
  0
XRECORD
  5
8127
102
{ACAD_REACTORS
330
8122
102
}
330
8122
100
AcDbXrecord
280
     1
270
     1
271
     1
  0
XRECORD
  5
8126
102
{ACAD_REACTORS
330
8122
102
}
330
8122
100
AcDbXrecord
280
     1
270
     1
271
     1
  0
XRECORD
  5
8128
102
{ACAD_REACTORS
330
8122
102
}
330
8122
100
AcDbXrecord
280
     1
270
     1
271
     1
  0
XRECORD
  5
8125
102
{ACAD_REACTORS
330
8122
102
}
330
8122
100
AcDbXrecord
280
     1
270
     1
271
     1
  0
XRECORD
  5
8295
102
{ACAD_REACTORS
330
8132
102
}
330
8132
100
AcDbXrecord
280
     1
102
MATERIAL
148
0.0
149
0.0
149
0.0
 93
        0
 94
      127
282
     0
 72
     0
 77
     0
171
     0
175
     0
179
     0
273
     0
  0
XRECORD
  5
8134
102
{ACAD_REACTORS
330
8132
102
}
330
8132
100
AcDbXrecord
280
     1
270
     1
271
     1
  0
XRECORD
  5
8133
102
{ACAD_REACTORS
330
8132
102
}
330
8132
100
AcDbXrecord
280
     1
270
     1
271
     1
  0
XRECORD
  5
8137
102
{ACAD_REACTORS
330
8132
102
}
330
8132
100
AcDbXrecord
280
     1
270
     1
271
     1
  0
XRECORD
  5
8136
102
{ACAD_REACTORS
330
8132
102
}
330
8132
100
AcDbXrecord
280
     1
270
     1
271
     1
  0
XRECORD
  5
8138
102
{ACAD_REACTORS
330
8132
102
}
330
8132
100
AcDbXrecord
280
     1
270
     1
271
     1
  0
XRECORD
  5
8135
102
{ACAD_REACTORS
330
8132
102
}
330
8132
100
AcDbXrecord
280
     1
270
     1
271
     1
  0
XRECORD
  5
82C9
102
{ACAD_REACTORS
330
82C8
102
}
330
82C8
100
AcDbXrecord
280
     1
102
DISPLAYNAME
  1
Imperial24
102
FLAGS
 90
        0
  0
CELLSTYLEMAP
  5
8290
102
{ACAD_REACTORS
330
828F
102
}
330
828F
100
AcDbCellStyleMap
 90
        3
300
CELLSTYLE
  1
TABLEFORMAT_BEGIN
 90
        5
170
     1
 91
        0
 92
    32768
 62
   257
 93
        1
300
CONTENTFORMAT
  1
CONTENTFORMAT_BEGIN
 90
        0
 91
        0
 92
      512
 93
        0
300

 40
0.0
140
1.0
 94
        5
 62
     0
340
8165
144
0.25
309
CONTENTFORMAT_END
171
     0
 94
        0
309
TABLEFORMAT_END
  1
CELLSTYLE_BEGIN
 90
        1
 91
        1
300
_TITLE
309
CELLSTYLE_END
300
CELLSTYLE
  1
TABLEFORMAT_BEGIN
 90
        5
170
     1
 91
        0
 92
        0
 62
   257
 93
        1
300
CONTENTFORMAT
  1
CONTENTFORMAT_BEGIN
 90
        0
 91
        0
 92
      512
 93
        0
300

 40
0.0
140
1.0
 94
        5
 62
     0
340
8165
144
0.18
309
CONTENTFORMAT_END
171
     0
 94
        0
309
TABLEFORMAT_END
  1
CELLSTYLE_BEGIN
 90
        2
 91
        1
300
_HEADER
309
CELLSTYLE_END
300
CELLSTYLE
  1
TABLEFORMAT_BEGIN
 90
        5
170
     1
 91
        0
 92
        0
 62
   257
 93
        1
300
CONTENTFORMAT
  1
CONTENTFORMAT_BEGIN
 90
        0
 91
        0
 92
      512
 93
        0
300

 40
0.0
140
1.0
 94
        2
 62
     0
340
8165
144
0.18
309
CONTENTFORMAT_END
171
     0
 94
        0
309
TABLEFORMAT_END
  1
CELLSTYLE_BEGIN
 90
        3
 91
        2
300
_DATA
309
CELLSTYLE_END
  0
XRECORD
  5
82C6
102
{ACAD_REACTORS
330
828F
102
}
330
828F
100
AcDbXrecord
280
     1
102
ACAD_ROUNDTRIP_PRE2007_TABLESTYLE
 90
      512
 91
        0
  1

 92
      512
 93
        0
  2

 94
      512
 95
        0
  3

  0
XRECORD
  5
82A1
102
{ACAD_REACTORS
330
82A0
102
}
330
82A0
100
AcDbXrecord
280
     1
102
RTVSPost2010Prop28
280
     1
102
RTVSPost2010PropOp28
 70
     1
102
RTVSPost2010Prop29
280
     1
102
RTVSPost2010PropOp29
 70
     1
102
RTVSPost2010Prop30
280
     0
102
RTVSPost2010PropOp30
 70
     1
102
RTVSPost2010Prop31
280
     0
102
RTVSPost2010PropOp31
 70
     1
102
RTVSPost2010Prop32
280
     0
102
RTVSPost2010PropOp32
 70
     1
102
RTVSPost2010Prop33
280
     0
102
RTVSPost2010PropOp33
 70
     1
102
RTVSPost2010Prop34
280
     0
102
RTVSPost2010PropOp34
 70
     1
102
RTVSPost2010Prop35
280
     0
102
RTVSPost2010PropOp35
 70
     1
102
RTVSPost2010Prop36
280
     0
102
RTVSPost2010PropOp36
 70
     1
102
RTVSPost2010Prop37
 90
       50
102
RTVSPost2010PropOp37
 70
     1
102
RTVSPost2010Prop38
140
0.0
102
RTVSPost2010PropOp38
 70
     1
102
RTVSPost2010Prop39
140
1.0
102
RTVSPost2010PropOp39
 70
     1
102
RTVSPost2010Prop40
 90
        0
102
RTVSPost2010PropOp40
 70
     1
102
RTVSPost2010Prop41ColorIndex
 90
       18
102
RTVSPost2010Prop41ColorRGB
 90
        0
102
RTVSPost2010PropOp41
 70
     1
102
RTVSPost2010Prop42
 90
       50
102
RTVSPost2010PropOp42
 70
     1
102
RTVSPost2010Prop43
 90
        3
102
RTVSPost2010PropOp43
 70
     1
102
RTVSPost2010Prop44ColorIndex
 90
        5
102
RTVSPost2010Prop44ColorRGB
 90
      255
102
RTVSPost2010PropOp44
 70
     1
102
RTVSPost2010Prop45
280
     0
102
RTVSPost2010PropOp45
 70
     1
102
RTVSPost2010Prop46
 90
       50
102
RTVSPost2010PropOp46
 70
     1
102
RTVSPost2010Prop47
 90
       50
102
RTVSPost2010PropOp47
 70
     1
102
RTVSPost2010Prop48
 90
       50
102
RTVSPost2010PropOp48
 70
     1
102
RTVSPost2010Prop49
280
     0
102
RTVSPost2010PropOp49
 70
     1
102
RTVSPost2010Prop50
 90
       50
102
RTVSPost2010PropOp50
 70
     1
102
RTVSPost2010Prop51ColorIndex
 90
      256
102
RTVSPost2010Prop51ColorRGB
 90
-16777216
102
RTVSPost2010PropOp51
 70
     0
102
RTVSPost2010Prop52
140
1.0
102
RTVSPost2010PropOp52
 70
     0
102
RTVSPost2010Prop53
 90
        2
102
RTVSPost2010PropOp53
 70
     1
102
RTVSPost2010Prop54
  1
strokes_ogs.tif
102
RTVSPost2010PropOp54
 70
     1
102
RTVSPost2010Prop55
280
     0
102
RTVSPost2010PropOp55
 70
     1
102
RTVSPost2010Prop56
140
1.0
102
RTVSPost2010PropOp56
 70
     1
102
RTVSPost2010Prop57
140
1.0
102
RTVSPost2010PropOp57
 70
     1
102
RTVSPropertyOp0
 70
     1
102
RTVSPropertyOp1
 70
     1
102
RTVSPropertyOp2
 70
     1
102
RTVSPropertyOp3
 70
     1
102
RTVSPropertyOp4
 70
     1
102
RTVSPropertyOp5
 70
     1
102
RTVSPropertyOp6
 70
     1
102
RTVSPropertyOp7
 70
     1
102
RTVSPropertyOp8
 70
     1
102
RTVSPropertyOp9
 70
     1
102
RTVSPropertyOp10
 70
     1
102
RTVSPropertyOp11
 70
     1
102
RTVSPropertyOp12
 70
     1
102
RTVSPropertyOp13
 70
     1
102
RTVSPropertyOp14
 70
     1
102
RTVSPropertyOp15
 70
     1
102
RTVSPropertyOp16
 70
     1
102
RTVSPropertyOp17
 70
     1
102
RTVSPropertyOp18
 70
     1
102
RTVSPropertyOp19
 70
     1
102
RTVSPropertyOp20
 70
     1
102
RTVSPropertyOp21
 70
     1
102
RTVSPropertyOp22
 70
     1
102
RTVSPropertyOp23
 70
     1
102
RTVSPropertyOp24
 70
     1
102
RTVSPropertyOp25
 70
     1
102
RTVSPropertyOp26
 70
     1
102
RTVSPropertyOp27
 70
     1
102
RTVSPropertyOp28
 70
     1
102
RTVSPropertyOp29
 70
     1
102
RTVSPropertyOp30
 70
     1
102
RTVSPropertyOp31
 70
     1
102
RTVSPropertyOp32
 70
     1
102
RTVSPropertyOp33
 70
     1
102
RTVSPropertyOp34
 70
     1
102
RTVSPropertyOp35
 70
     1
102
RTVSPropertyOp36
 70
     1
102
RTVSPropertyOp37
 70
     1
102
RTVSPropertyOp38
 70
     1
102
RTVSPropertyOp39
 70
     1
102
RTVSPropertyOp40
 70
     1
102
RTVSPropertyOp41
 70
     1
102
RTVSPropertyOp42
 70
     1
102
RTVSPropertyOp43
 70
     1
102
RTVSPropertyOp44
 70
     1
102
RTVSPropertyOp45
 70
     1
102
RTVSPropertyOp46
 70
     1
102
RTVSPropertyOp47
 70
     1
102
RTVSPropertyOp48
 70
     1
102
RTVSPropertyOp49
 70
     1
102
RTVSPropertyOp50
 70
     1
102
RTVSPropertyOp51
 70
     0
102
RTVSPropertyOp52
 70
     0
102
RTVSPropertyOp53
 70
     1
102
RTVSPropertyOp54
 70
     1
102
RTVSPropertyOp55
 70
     1
102
RTVSPropertyOp56
 70
     1
102
RTVSPropertyOp57
 70
     1
102
RTVSPropertyOp58
 70
     1
102
RTVSPropertyOp59
 70
     1
102
RTVSPropertyOp60
 70
     1
102
RTVSPropertyOp61
 70
     1
102
RTVSPropertyOp62
 70
     1
  0
XRECORD
  5
829F
102
{ACAD_REACTORS
330
829E
102
}
330
829E
100
AcDbXrecord
280
     1
102
RTVSPost2010Prop28
280
     0
102
RTVSPost2010PropOp28
 70
     1
102
RTVSPost2010Prop29
280
     1
102
RTVSPost2010PropOp29
 70
     1
102
RTVSPost2010Prop30
280
     1
102
RTVSPost2010PropOp30
 70
     1
102
RTVSPost2010Prop31
280
     0
102
RTVSPost2010PropOp31
 70
     1
102
RTVSPost2010Prop32
280
     0
102
RTVSPost2010PropOp32
 70
     1
102
RTVSPost2010Prop33
280
     0
102
RTVSPost2010PropOp33
 70
     1
102
RTVSPost2010Prop34
280
     0
102
RTVSPost2010PropOp34
 70
     1
102
RTVSPost2010Prop35
280
     0
102
RTVSPost2010PropOp35
 70
     1
102
RTVSPost2010Prop36
280
     0
102
RTVSPost2010PropOp36
 70
     1
102
RTVSPost2010Prop37
 90
       50
102
RTVSPost2010PropOp37
 70
     1
102
RTVSPost2010Prop38
140
0.0
102
RTVSPost2010PropOp38
 70
     1
102
RTVSPost2010Prop39
140
1.0
102
RTVSPost2010PropOp39
 70
     1
102
RTVSPost2010Prop40
 90
        0
102
RTVSPost2010PropOp40
 70
     1
102
RTVSPost2010Prop41ColorIndex
 90
       18
102
RTVSPost2010Prop41ColorRGB
 90
        0
102
RTVSPost2010PropOp41
 70
     1
102
RTVSPost2010Prop42
 90
       50
102
RTVSPost2010PropOp42
 70
     1
102
RTVSPost2010Prop43
 90
        3
102
RTVSPost2010PropOp43
 70
     1
102
RTVSPost2010Prop44ColorIndex
 90
        5
102
RTVSPost2010Prop44ColorRGB
 90
      255
102
RTVSPost2010PropOp44
 70
     1
102
RTVSPost2010Prop45
280
     0
102
RTVSPost2010PropOp45
 70
     1
102
RTVSPost2010Prop46
 90
       50
102
RTVSPost2010PropOp46
 70
     1
102
RTVSPost2010Prop47
 90
       50
102
RTVSPost2010PropOp47
 70
     1
102
RTVSPost2010Prop48
 90
       50
102
RTVSPost2010PropOp48
 70
     1
102
RTVSPost2010Prop49
280
     0
102
RTVSPost2010PropOp49
 70
     1
102
RTVSPost2010Prop50
 90
       50
102
RTVSPost2010PropOp50
 70
     1
102
RTVSPost2010Prop51ColorIndex
 90
      256
102
RTVSPost2010Prop51ColorRGB
 90
-16777216
102
RTVSPost2010PropOp51
 70
     0
102
RTVSPost2010Prop52
140
1.0
102
RTVSPost2010PropOp52
 70
     0
102
RTVSPost2010Prop53
 90
        2
102
RTVSPost2010PropOp53
 70
     1
102
RTVSPost2010Prop54
  1
strokes_ogs.tif
102
RTVSPost2010PropOp54
 70
     1
102
RTVSPost2010Prop55
280
     0
102
RTVSPost2010PropOp55
 70
     1
102
RTVSPost2010Prop56
140
1.0
102
RTVSPost2010PropOp56
 70
     1
102
RTVSPost2010Prop57
140
1.0
102
RTVSPost2010PropOp57
 70
     1
102
RTVSPropertyOp0
 70
     1
102
RTVSPropertyOp1
 70
     1
102
RTVSPropertyOp2
 70
     1
102
RTVSPropertyOp3
 70
     1
102
RTVSPropertyOp4
 70
     1
102
RTVSPropertyOp5
 70
     1
102
RTVSPropertyOp6
 70
     1
102
RTVSPropertyOp7
 70
     1
102
RTVSPropertyOp8
 70
     1
102
RTVSPropertyOp9
 70
     1
102
RTVSPropertyOp10
 70
     1
102
RTVSPropertyOp11
 70
     1
102
RTVSPropertyOp12
 70
     1
102
RTVSPropertyOp13
 70
     1
102
RTVSPropertyOp14
 70
     1
102
RTVSPropertyOp15
 70
     1
102
RTVSPropertyOp16
 70
     1
102
RTVSPropertyOp17
 70
     1
102
RTVSPropertyOp18
 70
     1
102
RTVSPropertyOp19
 70
     1
102
RTVSPropertyOp20
 70
     1
102
RTVSPropertyOp21
 70
     1
102
RTVSPropertyOp22
 70
     1
102
RTVSPropertyOp23
 70
     1
102
RTVSPropertyOp24
 70
     1
102
RTVSPropertyOp25
 70
     1
102
RTVSPropertyOp26
 70
     1
102
RTVSPropertyOp27
 70
     1
102
RTVSPropertyOp28
 70
     1
102
RTVSPropertyOp29
 70
     1
102
RTVSPropertyOp30
 70
     1
102
RTVSPropertyOp31
 70
     1
102
RTVSPropertyOp32
 70
     1
102
RTVSPropertyOp33
 70
     1
102
RTVSPropertyOp34
 70
     1
102
RTVSPropertyOp35
 70
     1
102
RTVSPropertyOp36
 70
     1
102
RTVSPropertyOp37
 70
     1
102
RTVSPropertyOp38
 70
     1
102
RTVSPropertyOp39
 70
     1
102
RTVSPropertyOp40
 70
     1
102
RTVSPropertyOp41
 70
     1
102
RTVSPropertyOp42
 70
     1
102
RTVSPropertyOp43
 70
     1
102
RTVSPropertyOp44
 70
     1
102
RTVSPropertyOp45
 70
     1
102
RTVSPropertyOp46
 70
     1
102
RTVSPropertyOp47
 70
     1
102
RTVSPropertyOp48
 70
     1
102
RTVSPropertyOp49
 70
     1
102
RTVSPropertyOp50
 70
     1
102
RTVSPropertyOp51
 70
     0
102
RTVSPropertyOp52
 70
     0
102
RTVSPropertyOp53
 70
     1
102
RTVSPropertyOp54
 70
     1
102
RTVSPropertyOp55
 70
     1
102
RTVSPropertyOp56
 70
     1
102
RTVSPropertyOp57
 70
     1
102
RTVSPropertyOp58
 70
     1
102
RTVSPropertyOp59
 70
     1
102
RTVSPropertyOp60
 70
     1
102
RTVSPropertyOp61
 70
     1
102
RTVSPropertyOp62
 70
     1
  0
XRECORD
  5
82AD
102
{ACAD_REACTORS
330
82AC
102
}
330
82AC
100
AcDbXrecord
280
     1
102
RTVSPost2010Prop28
280
     0
102
RTVSPost2010PropOp28
 70
     1
102
RTVSPost2010Prop29
280
     1
102
RTVSPost2010PropOp29
 70
     1
102
RTVSPost2010Prop30
280
     1
102
RTVSPost2010PropOp30
 70
     1
102
RTVSPost2010Prop31
280
     0
102
RTVSPost2010PropOp31
 70
     1
102
RTVSPost2010Prop32
280
     0
102
RTVSPost2010PropOp32
 70
     1
102
RTVSPost2010Prop33
280
     0
102
RTVSPost2010PropOp33
 70
     1
102
RTVSPost2010Prop34
280
     0
102
RTVSPost2010PropOp34
 70
     1
102
RTVSPost2010Prop35
280
     0
102
RTVSPost2010PropOp35
 70
     1
102
RTVSPost2010Prop36
280
     0
102
RTVSPost2010PropOp36
 70
     1
102
RTVSPost2010Prop37
 90
       50
102
RTVSPost2010PropOp37
 70
     1
102
RTVSPost2010Prop38
140
0.0
102
RTVSPost2010PropOp38
 70
     1
102
RTVSPost2010Prop39
140
1.0
102
RTVSPost2010PropOp39
 70
     1
102
RTVSPost2010Prop40
 90
        0
102
RTVSPost2010PropOp40
 70
     1
102
RTVSPost2010Prop41ColorIndex
 90
       18
102
RTVSPost2010Prop41ColorRGB
 90
        0
102
RTVSPost2010PropOp41
 70
     1
102
RTVSPost2010Prop42
 90
       50
102
RTVSPost2010PropOp42
 70
     1
102
RTVSPost2010Prop43
 90
        3
102
RTVSPost2010PropOp43
 70
     1
102
RTVSPost2010Prop44ColorIndex
 90
        5
102
RTVSPost2010Prop44ColorRGB
 90
      255
102
RTVSPost2010PropOp44
 70
     1
102
RTVSPost2010Prop45
280
     0
102
RTVSPost2010PropOp45
 70
     1
102
RTVSPost2010Prop46
 90
       50
102
RTVSPost2010PropOp46
 70
     1
102
RTVSPost2010Prop47
 90
       50
102
RTVSPost2010PropOp47
 70
     1
102
RTVSPost2010Prop48
 90
       50
102
RTVSPost2010PropOp48
 70
     1
102
RTVSPost2010Prop49
280
     0
102
RTVSPost2010PropOp49
 70
     1
102
RTVSPost2010Prop50
 90
       50
102
RTVSPost2010PropOp50
 70
     1
102
RTVSPost2010Prop51ColorIndex
 90
      256
102
RTVSPost2010Prop51ColorRGB
 90
-16777216
102
RTVSPost2010PropOp51
 70
     0
102
RTVSPost2010Prop52
140
1.0
102
RTVSPost2010PropOp52
 70
     0
102
RTVSPost2010Prop53
 90
        2
102
RTVSPost2010PropOp53
 70
     1
102
RTVSPost2010Prop54
  1
strokes_ogs.tif
102
RTVSPost2010PropOp54
 70
     1
102
RTVSPost2010Prop55
280
     0
102
RTVSPost2010PropOp55
 70
     1
102
RTVSPost2010Prop56
140
1.0
102
RTVSPost2010PropOp56
 70
     1
102
RTVSPost2010Prop57
140
1.0
102
RTVSPost2010PropOp57
 70
     1
102
RTVSPropertyOp0
 70
     1
102
RTVSPropertyOp1
 70
     1
102
RTVSPropertyOp2
 70
     1
102
RTVSPropertyOp3
 70
     1
102
RTVSPropertyOp4
 70
     1
102
RTVSPropertyOp5
 70
     1
102
RTVSPropertyOp6
 70
     1
102
RTVSPropertyOp7
 70
     1
102
RTVSPropertyOp8
 70
     1
102
RTVSPropertyOp9
 70
     1
102
RTVSPropertyOp10
 70
     1
102
RTVSPropertyOp11
 70
     1
102
RTVSPropertyOp12
 70
     1
102
RTVSPropertyOp13
 70
     1
102
RTVSPropertyOp14
 70
     1
102
RTVSPropertyOp15
 70
     1
102
RTVSPropertyOp16
 70
     1
102
RTVSPropertyOp17
 70
     1
102
RTVSPropertyOp18
 70
     1
102
RTVSPropertyOp19
 70
     1
102
RTVSPropertyOp20
 70
     1
102
RTVSPropertyOp21
 70
     1
102
RTVSPropertyOp22
 70
     1
102
RTVSPropertyOp23
 70
     1
102
RTVSPropertyOp24
 70
     1
102
RTVSPropertyOp25
 70
     1
102
RTVSPropertyOp26
 70
     1
102
RTVSPropertyOp27
 70
     1
102
RTVSPropertyOp28
 70
     1
102
RTVSPropertyOp29
 70
     1
102
RTVSPropertyOp30
 70
     1
102
RTVSPropertyOp31
 70
     1
102
RTVSPropertyOp32
 70
     1
102
RTVSPropertyOp33
 70
     1
102
RTVSPropertyOp34
 70
     1
102
RTVSPropertyOp35
 70
     1
102
RTVSPropertyOp36
 70
     1
102
RTVSPropertyOp37
 70
     1
102
RTVSPropertyOp38
 70
     1
102
RTVSPropertyOp39
 70
     1
102
RTVSPropertyOp40
 70
     1
102
RTVSPropertyOp41
 70
     1
102
RTVSPropertyOp42
 70
     1
102
RTVSPropertyOp43
 70
     1
102
RTVSPropertyOp44
 70
     1
102
RTVSPropertyOp45
 70
     1
102
RTVSPropertyOp46
 70
     1
102
RTVSPropertyOp47
 70
     1
102
RTVSPropertyOp48
 70
     1
102
RTVSPropertyOp49
 70
     1
102
RTVSPropertyOp50
 70
     1
102
RTVSPropertyOp51
 70
     0
102
RTVSPropertyOp52
 70
     0
102
RTVSPropertyOp53
 70
     1
102
RTVSPropertyOp54
 70
     1
102
RTVSPropertyOp55
 70
     1
102
RTVSPropertyOp56
 70
     1
102
RTVSPropertyOp57
 70
     1
102
RTVSPropertyOp58
 70
     1
102
RTVSPropertyOp59
 70
     1
102
RTVSPropertyOp60
 70
     1
102
RTVSPropertyOp61
 70
     1
102
RTVSPropertyOp62
 70
     1
  0
XRECORD
  5
82B5
102
{ACAD_REACTORS
330
82B4
102
}
330
82B4
100
AcDbXrecord
280
     1
102
RTVSPost2010Prop28
280
     0
102
RTVSPost2010PropOp28
 70
     1
102
RTVSPost2010Prop29
280
     1
102
RTVSPost2010PropOp29
 70
     1
102
RTVSPost2010Prop30
280
     1
102
RTVSPost2010PropOp30
 70
     1
102
RTVSPost2010Prop31
280
     0
102
RTVSPost2010PropOp31
 70
     1
102
RTVSPost2010Prop32
280
     0
102
RTVSPost2010PropOp32
 70
     1
102
RTVSPost2010Prop33
280
     0
102
RTVSPost2010PropOp33
 70
     1
102
RTVSPost2010Prop34
280
     0
102
RTVSPost2010PropOp34
 70
     1
102
RTVSPost2010Prop35
280
     0
102
RTVSPost2010PropOp35
 70
     1
102
RTVSPost2010Prop36
280
     0
102
RTVSPost2010PropOp36
 70
     1
102
RTVSPost2010Prop37
 90
       50
102
RTVSPost2010PropOp37
 70
     1
102
RTVSPost2010Prop38
140
0.0
102
RTVSPost2010PropOp38
 70
     1
102
RTVSPost2010Prop39
140
1.0
102
RTVSPost2010PropOp39
 70
     1
102
RTVSPost2010Prop40
 90
        0
102
RTVSPost2010PropOp40
 70
     1
102
RTVSPost2010Prop41ColorIndex
 90
       18
102
RTVSPost2010Prop41ColorRGB
 90
        0
102
RTVSPost2010PropOp41
 70
     1
102
RTVSPost2010Prop42
 90
       50
102
RTVSPost2010PropOp42
 70
     1
102
RTVSPost2010Prop43
 90
        3
102
RTVSPost2010PropOp43
 70
     1
102
RTVSPost2010Prop44ColorIndex
 90
        5
102
RTVSPost2010Prop44ColorRGB
 90
      255
102
RTVSPost2010PropOp44
 70
     1
102
RTVSPost2010Prop45
280
     0
102
RTVSPost2010PropOp45
 70
     1
102
RTVSPost2010Prop46
 90
       50
102
RTVSPost2010PropOp46
 70
     1
102
RTVSPost2010Prop47
 90
       50
102
RTVSPost2010PropOp47
 70
     1
102
RTVSPost2010Prop48
 90
       50
102
RTVSPost2010PropOp48
 70
     1
102
RTVSPost2010Prop49
280
     0
102
RTVSPost2010PropOp49
 70
     1
102
RTVSPost2010Prop50
 90
       50
102
RTVSPost2010PropOp50
 70
     1
102
RTVSPost2010Prop51ColorIndex
 90
      256
102
RTVSPost2010Prop51ColorRGB
 90
-16777216
102
RTVSPost2010PropOp51
 70
     0
102
RTVSPost2010Prop52
140
1.0
102
RTVSPost2010PropOp52
 70
     0
102
RTVSPost2010Prop53
 90
        2
102
RTVSPost2010PropOp53
 70
     1
102
RTVSPost2010Prop54
  1
strokes_ogs.tif
102
RTVSPost2010PropOp54
 70
     1
102
RTVSPost2010Prop55
280
     0
102
RTVSPost2010PropOp55
 70
     1
102
RTVSPost2010Prop56
140
1.0
102
RTVSPost2010PropOp56
 70
     1
102
RTVSPost2010Prop57
140
1.0
102
RTVSPost2010PropOp57
 70
     1
102
RTVSPropertyOp0
 70
     1
102
RTVSPropertyOp1
 70
     1
102
RTVSPropertyOp2
 70
     1
102
RTVSPropertyOp3
 70
     1
102
RTVSPropertyOp4
 70
     1
102
RTVSPropertyOp5
 70
     1
102
RTVSPropertyOp6
 70
     1
102
RTVSPropertyOp7
 70
     1
102
RTVSPropertyOp8
 70
     1
102
RTVSPropertyOp9
 70
     1
102
RTVSPropertyOp10
 70
     1
102
RTVSPropertyOp11
 70
     1
102
RTVSPropertyOp12
 70
     1
102
RTVSPropertyOp13
 70
     1
102
RTVSPropertyOp14
 70
     1
102
RTVSPropertyOp15
 70
     1
102
RTVSPropertyOp16
 70
     1
102
RTVSPropertyOp17
 70
     1
102
RTVSPropertyOp18
 70
     1
102
RTVSPropertyOp19
 70
     1
102
RTVSPropertyOp20
 70
     1
102
RTVSPropertyOp21
 70
     1
102
RTVSPropertyOp22
 70
     1
102
RTVSPropertyOp23
 70
     1
102
RTVSPropertyOp24
 70
     1
102
RTVSPropertyOp25
 70
     1
102
RTVSPropertyOp26
 70
     1
102
RTVSPropertyOp27
 70
     1
102
RTVSPropertyOp28
 70
     1
102
RTVSPropertyOp29
 70
     1
102
RTVSPropertyOp30
 70
     1
102
RTVSPropertyOp31
 70
     1
102
RTVSPropertyOp32
 70
     1
102
RTVSPropertyOp33
 70
     1
102
RTVSPropertyOp34
 70
     1
102
RTVSPropertyOp35
 70
     1
102
RTVSPropertyOp36
 70
     1
102
RTVSPropertyOp37
 70
     1
102
RTVSPropertyOp38
 70
     1
102
RTVSPropertyOp39
 70
     1
102
RTVSPropertyOp40
 70
     1
102
RTVSPropertyOp41
 70
     1
102
RTVSPropertyOp42
 70
     1
102
RTVSPropertyOp43
 70
     1
102
RTVSPropertyOp44
 70
     1
102
RTVSPropertyOp45
 70
     1
102
RTVSPropertyOp46
 70
     1
102
RTVSPropertyOp47
 70
     1
102
RTVSPropertyOp48
 70
     1
102
RTVSPropertyOp49
 70
     1
102
RTVSPropertyOp50
 70
     1
102
RTVSPropertyOp51
 70
     0
102
RTVSPropertyOp52
 70
     0
102
RTVSPropertyOp53
 70
     1
102
RTVSPropertyOp54
 70
     1
102
RTVSPropertyOp55
 70
     1
102
RTVSPropertyOp56
 70
     1
102
RTVSPropertyOp57
 70
     1
102
RTVSPropertyOp58
 70
     1
102
RTVSPropertyOp59
 70
     1
102
RTVSPropertyOp60
 70
     1
102
RTVSPropertyOp61
 70
     1
102
RTVSPropertyOp62
 70
     1
  0
XRECORD
  5
82A7
102
{ACAD_REACTORS
330
82A6
102
}
330
82A6
100
AcDbXrecord
280
     1
102
RTVSPost2010Prop28
280
     0
102
RTVSPost2010PropOp28
 70
     1
102
RTVSPost2010Prop29
280
     1
102
RTVSPost2010PropOp29
 70
     1
102
RTVSPost2010Prop30
280
     1
102
RTVSPost2010PropOp30
 70
     1
102
RTVSPost2010Prop31
280
     0
102
RTVSPost2010PropOp31
 70
     1
102
RTVSPost2010Prop32
280
     0
102
RTVSPost2010PropOp32
 70
     1
102
RTVSPost2010Prop33
280
     0
102
RTVSPost2010PropOp33
 70
     1
102
RTVSPost2010Prop34
280
     0
102
RTVSPost2010PropOp34
 70
     1
102
RTVSPost2010Prop35
280
     0
102
RTVSPost2010PropOp35
 70
     1
102
RTVSPost2010Prop36
280
     0
102
RTVSPost2010PropOp36
 70
     1
102
RTVSPost2010Prop37
 90
       50
102
RTVSPost2010PropOp37
 70
     1
102
RTVSPost2010Prop38
140
0.0
102
RTVSPost2010PropOp38
 70
     1
102
RTVSPost2010Prop39
140
1.0
102
RTVSPost2010PropOp39
 70
     1
102
RTVSPost2010Prop40
 90
        0
102
RTVSPost2010PropOp40
 70
     1
102
RTVSPost2010Prop41ColorIndex
 90
       18
102
RTVSPost2010Prop41ColorRGB
 90
        0
102
RTVSPost2010PropOp41
 70
     1
102
RTVSPost2010Prop42
 90
       50
102
RTVSPost2010PropOp42
 70
     1
102
RTVSPost2010Prop43
 90
        3
102
RTVSPost2010PropOp43
 70
     1
102
RTVSPost2010Prop44ColorIndex
 90
        5
102
RTVSPost2010Prop44ColorRGB
 90
      255
102
RTVSPost2010PropOp44
 70
     1
102
RTVSPost2010Prop45
280
     0
102
RTVSPost2010PropOp45
 70
     1
102
RTVSPost2010Prop46
 90
       50
102
RTVSPost2010PropOp46
 70
     1
102
RTVSPost2010Prop47
 90
       50
102
RTVSPost2010PropOp47
 70
     1
102
RTVSPost2010Prop48
 90
       50
102
RTVSPost2010PropOp48
 70
     1
102
RTVSPost2010Prop49
280
     0
102
RTVSPost2010PropOp49
 70
     1
102
RTVSPost2010Prop50
 90
       50
102
RTVSPost2010PropOp50
 70
     1
102
RTVSPost2010Prop51ColorIndex
 90
      256
102
RTVSPost2010Prop51ColorRGB
 90
-16777216
102
RTVSPost2010PropOp51
 70
     0
102
RTVSPost2010Prop52
140
1.0
102
RTVSPost2010PropOp52
 70
     0
102
RTVSPost2010Prop53
 90
        2
102
RTVSPost2010PropOp53
 70
     1
102
RTVSPost2010Prop54
  1
strokes_ogs.tif
102
RTVSPost2010PropOp54
 70
     1
102
RTVSPost2010Prop55
280
     0
102
RTVSPost2010PropOp55
 70
     1
102
RTVSPost2010Prop56
140
1.0
102
RTVSPost2010PropOp56
 70
     1
102
RTVSPost2010Prop57
140
1.0
102
RTVSPost2010PropOp57
 70
     1
102
RTVSPropertyOp0
 70
     1
102
RTVSPropertyOp1
 70
     1
102
RTVSPropertyOp2
 70
     1
102
RTVSPropertyOp3
 70
     1
102
RTVSPropertyOp4
 70
     1
102
RTVSPropertyOp5
 70
     1
102
RTVSPropertyOp6
 70
     1
102
RTVSPropertyOp7
 70
     1
102
RTVSPropertyOp8
 70
     1
102
RTVSPropertyOp9
 70
     1
102
RTVSPropertyOp10
 70
     1
102
RTVSPropertyOp11
 70
     1
102
RTVSPropertyOp12
 70
     1
102
RTVSPropertyOp13
 70
     1
102
RTVSPropertyOp14
 70
     1
102
RTVSPropertyOp15
 70
     1
102
RTVSPropertyOp16
 70
     1
102
RTVSPropertyOp17
 70
     1
102
RTVSPropertyOp18
 70
     1
102
RTVSPropertyOp19
 70
     1
102
RTVSPropertyOp20
 70
     1
102
RTVSPropertyOp21
 70
     1
102
RTVSPropertyOp22
 70
     1
102
RTVSPropertyOp23
 70
     1
102
RTVSPropertyOp24
 70
     1
102
RTVSPropertyOp25
 70
     1
102
RTVSPropertyOp26
 70
     1
102
RTVSPropertyOp27
 70
     1
102
RTVSPropertyOp28
 70
     1
102
RTVSPropertyOp29
 70
     1
102
RTVSPropertyOp30
 70
     1
102
RTVSPropertyOp31
 70
     1
102
RTVSPropertyOp32
 70
     1
102
RTVSPropertyOp33
 70
     1
102
RTVSPropertyOp34
 70
     1
102
RTVSPropertyOp35
 70
     1
102
RTVSPropertyOp36
 70
     1
102
RTVSPropertyOp37
 70
     1
102
RTVSPropertyOp38
 70
     1
102
RTVSPropertyOp39
 70
     1
102
RTVSPropertyOp40
 70
     1
102
RTVSPropertyOp41
 70
     1
102
RTVSPropertyOp42
 70
     1
102
RTVSPropertyOp43
 70
     1
102
RTVSPropertyOp44
 70
     1
102
RTVSPropertyOp45
 70
     1
102
RTVSPropertyOp46
 70
     1
102
RTVSPropertyOp47
 70
     1
102
RTVSPropertyOp48
 70
     1
102
RTVSPropertyOp49
 70
     1
102
RTVSPropertyOp50
 70
     1
102
RTVSPropertyOp51
 70
     0
102
RTVSPropertyOp52
 70
     0
102
RTVSPropertyOp53
 70
     1
102
RTVSPropertyOp54
 70
     1
102
RTVSPropertyOp55
 70
     1
102
RTVSPropertyOp56
 70
     1
102
RTVSPropertyOp57
 70
     1
102
RTVSPropertyOp58
 70
     1
102
RTVSPropertyOp59
 70
     1
102
RTVSPropertyOp60
 70
     1
102
RTVSPropertyOp61
 70
     1
102
RTVSPropertyOp62
 70
     1
  0
XRECORD
  5
82AB
102
{ACAD_REACTORS
330
82AA
102
}
330
82AA
100
AcDbXrecord
280
     1
102
RTVSPost2010Prop28
280
     0
102
RTVSPost2010PropOp28
 70
     1
102
RTVSPost2010Prop29
280
     1
102
RTVSPost2010PropOp29
 70
     1
102
RTVSPost2010Prop30
280
     1
102
RTVSPost2010PropOp30
 70
     1
102
RTVSPost2010Prop31
280
     0
102
RTVSPost2010PropOp31
 70
     1
102
RTVSPost2010Prop32
280
     0
102
RTVSPost2010PropOp32
 70
     1
102
RTVSPost2010Prop33
280
     0
102
RTVSPost2010PropOp33
 70
     1
102
RTVSPost2010Prop34
280
     0
102
RTVSPost2010PropOp34
 70
     1
102
RTVSPost2010Prop35
280
     0
102
RTVSPost2010PropOp35
 70
     1
102
RTVSPost2010Prop36
280
     0
102
RTVSPost2010PropOp36
 70
     1
102
RTVSPost2010Prop37
 90
       50
102
RTVSPost2010PropOp37
 70
     1
102
RTVSPost2010Prop38
140
0.0
102
RTVSPost2010PropOp38
 70
     1
102
RTVSPost2010Prop39
140
1.0
102
RTVSPost2010PropOp39
 70
     1
102
RTVSPost2010Prop40
 90
        0
102
RTVSPost2010PropOp40
 70
     1
102
RTVSPost2010Prop41ColorIndex
 90
       18
102
RTVSPost2010Prop41ColorRGB
 90
        0
102
RTVSPost2010PropOp41
 70
     1
102
RTVSPost2010Prop42
 90
       50
102
RTVSPost2010PropOp42
 70
     1
102
RTVSPost2010Prop43
 90
        3
102
RTVSPost2010PropOp43
 70
     1
102
RTVSPost2010Prop44ColorIndex
 90
        5
102
RTVSPost2010Prop44ColorRGB
 90
      255
102
RTVSPost2010PropOp44
 70
     1
102
RTVSPost2010Prop45
280
     0
102
RTVSPost2010PropOp45
 70
     1
102
RTVSPost2010Prop46
 90
       50
102
RTVSPost2010PropOp46
 70
     1
102
RTVSPost2010Prop47
 90
       50
102
RTVSPost2010PropOp47
 70
     1
102
RTVSPost2010Prop48
 90
       50
102
RTVSPost2010PropOp48
 70
     1
102
RTVSPost2010Prop49
280
     0
102
RTVSPost2010PropOp49
 70
     1
102
RTVSPost2010Prop50
 90
       50
102
RTVSPost2010PropOp50
 70
     1
102
RTVSPost2010Prop51ColorIndex
 90
      256
102
RTVSPost2010Prop51ColorRGB
 90
-16777216
102
RTVSPost2010PropOp51
 70
     0
102
RTVSPost2010Prop52
140
1.0
102
RTVSPost2010PropOp52
 70
     0
102
RTVSPost2010Prop53
 90
        2
102
RTVSPost2010PropOp53
 70
     1
102
RTVSPost2010Prop54
  1
strokes_ogs.tif
102
RTVSPost2010PropOp54
 70
     1
102
RTVSPost2010Prop55
280
     0
102
RTVSPost2010PropOp55
 70
     1
102
RTVSPost2010Prop56
140
1.0
102
RTVSPost2010PropOp56
 70
     1
102
RTVSPost2010Prop57
140
1.0
102
RTVSPost2010PropOp57
 70
     1
102
RTVSPropertyOp0
 70
     1
102
RTVSPropertyOp1
 70
     1
102
RTVSPropertyOp2
 70
     1
102
RTVSPropertyOp3
 70
     1
102
RTVSPropertyOp4
 70
     1
102
RTVSPropertyOp5
 70
     1
102
RTVSPropertyOp6
 70
     1
102
RTVSPropertyOp7
 70
     1
102
RTVSPropertyOp8
 70
     1
102
RTVSPropertyOp9
 70
     1
102
RTVSPropertyOp10
 70
     1
102
RTVSPropertyOp11
 70
     1
102
RTVSPropertyOp12
 70
     1
102
RTVSPropertyOp13
 70
     1
102
RTVSPropertyOp14
 70
     1
102
RTVSPropertyOp15
 70
     1
102
RTVSPropertyOp16
 70
     1
102
RTVSPropertyOp17
 70
     1
102
RTVSPropertyOp18
 70
     1
102
RTVSPropertyOp19
 70
     1
102
RTVSPropertyOp20
 70
     1
102
RTVSPropertyOp21
 70
     1
102
RTVSPropertyOp22
 70
     1
102
RTVSPropertyOp23
 70
     1
102
RTVSPropertyOp24
 70
     1
102
RTVSPropertyOp25
 70
     1
102
RTVSPropertyOp26
 70
     1
102
RTVSPropertyOp27
 70
     1
102
RTVSPropertyOp28
 70
     1
102
RTVSPropertyOp29
 70
     1
102
RTVSPropertyOp30
 70
     1
102
RTVSPropertyOp31
 70
     1
102
RTVSPropertyOp32
 70
     1
102
RTVSPropertyOp33
 70
     1
102
RTVSPropertyOp34
 70
     1
102
RTVSPropertyOp35
 70
     1
102
RTVSPropertyOp36
 70
     1
102
RTVSPropertyOp37
 70
     1
102
RTVSPropertyOp38
 70
     1
102
RTVSPropertyOp39
 70
     1
102
RTVSPropertyOp40
 70
     1
102
RTVSPropertyOp41
 70
     1
102
RTVSPropertyOp42
 70
     1
102
RTVSPropertyOp43
 70
     1
102
RTVSPropertyOp44
 70
     1
102
RTVSPropertyOp45
 70
     1
102
RTVSPropertyOp46
 70
     1
102
RTVSPropertyOp47
 70
     1
102
RTVSPropertyOp48
 70
     1
102
RTVSPropertyOp49
 70
     1
102
RTVSPropertyOp50
 70
     1
102
RTVSPropertyOp51
 70
     0
102
RTVSPropertyOp52
 70
     0
102
RTVSPropertyOp53
 70
     1
102
RTVSPropertyOp54
 70
     1
102
RTVSPropertyOp55
 70
     1
102
RTVSPropertyOp56
 70
     1
102
RTVSPropertyOp57
 70
     1
102
RTVSPropertyOp58
 70
     1
102
RTVSPropertyOp59
 70
     1
102
RTVSPropertyOp60
 70
     1
102
RTVSPropertyOp61
 70
     1
102
RTVSPropertyOp62
 70
     1
  0
XRECORD
  5
82C5
102
{ACAD_REACTORS
330
82C4
102
}
330
82C4
100
AcDbXrecord
280
     1
102
RTVSPost2010Prop28
280
     0
102
RTVSPost2010PropOp28
 70
     1
102
RTVSPost2010Prop29
280
     1
102
RTVSPost2010PropOp29
 70
     1
102
RTVSPost2010Prop30
280
     1
102
RTVSPost2010PropOp30
 70
     1
102
RTVSPost2010Prop31
280
     0
102
RTVSPost2010PropOp31
 70
     1
102
RTVSPost2010Prop32
280
     0
102
RTVSPost2010PropOp32
 70
     1
102
RTVSPost2010Prop33
280
     0
102
RTVSPost2010PropOp33
 70
     1
102
RTVSPost2010Prop34
280
     0
102
RTVSPost2010PropOp34
 70
     1
102
RTVSPost2010Prop35
280
     0
102
RTVSPost2010PropOp35
 70
     1
102
RTVSPost2010Prop36
280
     0
102
RTVSPost2010PropOp36
 70
     1
102
RTVSPost2010Prop37
 90
       50
102
RTVSPost2010PropOp37
 70
     0
102
RTVSPost2010Prop38
140
0.0
102
RTVSPost2010PropOp38
 70
     0
102
RTVSPost2010Prop39
140
1.0
102
RTVSPost2010PropOp39
 70
     0
102
RTVSPost2010Prop40
 90
        0
102
RTVSPost2010PropOp40
 70
     0
102
RTVSPost2010Prop41ColorIndex
 90
       18
102
RTVSPost2010Prop41ColorRGB
 90
        0
102
RTVSPost2010PropOp41
 70
     0
102
RTVSPost2010Prop42
 90
       50
102
RTVSPost2010PropOp42
 70
     0
102
RTVSPost2010Prop43
 90
        3
102
RTVSPost2010PropOp43
 70
     0
102
RTVSPost2010Prop44ColorIndex
 90
        5
102
RTVSPost2010Prop44ColorRGB
 90
      255
102
RTVSPost2010PropOp44
 70
     0
102
RTVSPost2010Prop45
280
     0
102
RTVSPost2010PropOp45
 70
     1
102
RTVSPost2010Prop46
 90
       50
102
RTVSPost2010PropOp46
 70
     0
102
RTVSPost2010Prop47
 90
       50
102
RTVSPost2010PropOp47
 70
     0
102
RTVSPost2010Prop48
 90
       50
102
RTVSPost2010PropOp48
 70
     0
102
RTVSPost2010Prop49
280
     0
102
RTVSPost2010PropOp49
 70
     1
102
RTVSPost2010Prop50
 90
       50
102
RTVSPost2010PropOp50
 70
     0
102
RTVSPost2010Prop51ColorIndex
 90
      256
102
RTVSPost2010Prop51ColorRGB
 90
-16777216
102
RTVSPost2010PropOp51
 70
     0
102
RTVSPost2010Prop52
140
1.0
102
RTVSPost2010PropOp52
 70
     0
102
RTVSPost2010Prop53
 90
        2
102
RTVSPost2010PropOp53
 70
     0
102
RTVSPost2010Prop54
  1
strokes_ogs.tif
102
RTVSPost2010PropOp54
 70
     0
102
RTVSPost2010Prop55
280
     0
102
RTVSPost2010PropOp55
 70
     1
102
RTVSPost2010Prop56
140
1.0
102
RTVSPost2010PropOp56
 70
     0
102
RTVSPost2010Prop57
140
1.0
102
RTVSPost2010PropOp57
 70
     0
102
RTVSPropertyOp0
 70
     0
102
RTVSPropertyOp1
 70
     0
102
RTVSPropertyOp2
 70
     0
102
RTVSPropertyOp3
 70
     0
102
RTVSPropertyOp4
 70
     0
102
RTVSPropertyOp5
 70
     0
102
RTVSPropertyOp6
 70
     0
102
RTVSPropertyOp7
 70
     0
102
RTVSPropertyOp8
 70
     0
102
RTVSPropertyOp9
 70
     0
102
RTVSPropertyOp10
 70
     0
102
RTVSPropertyOp11
 70
     0
102
RTVSPropertyOp12
 70
     0
102
RTVSPropertyOp13
 70
     0
102
RTVSPropertyOp14
 70
     2
102
RTVSPropertyOp15
 70
     0
102
RTVSPropertyOp16
 70
     0
102
RTVSPropertyOp17
 70
     0
102
RTVSPropertyOp18
 70
     0
102
RTVSPropertyOp19
 70
     0
102
RTVSPropertyOp20
 70
     0
102
RTVSPropertyOp21
 70
     0
102
RTVSPropertyOp22
 70
     0
102
RTVSPropertyOp23
 70
     0
102
RTVSPropertyOp24
 70
     0
102
RTVSPropertyOp25
 70
     0
102
RTVSPropertyOp26
 70
     0
102
RTVSPropertyOp27
 70
     0
102
RTVSPropertyOp28
 70
     1
102
RTVSPropertyOp29
 70
     1
102
RTVSPropertyOp30
 70
     1
102
RTVSPropertyOp31
 70
     1
102
RTVSPropertyOp32
 70
     1
102
RTVSPropertyOp33
 70
     1
102
RTVSPropertyOp34
 70
     1
102
RTVSPropertyOp35
 70
     1
102
RTVSPropertyOp36
 70
     1
102
RTVSPropertyOp37
 70
     0
102
RTVSPropertyOp38
 70
     0
102
RTVSPropertyOp39
 70
     0
102
RTVSPropertyOp40
 70
     0
102
RTVSPropertyOp41
 70
     0
102
RTVSPropertyOp42
 70
     0
102
RTVSPropertyOp43
 70
     0
102
RTVSPropertyOp44
 70
     0
102
RTVSPropertyOp45
 70
     1
102
RTVSPropertyOp46
 70
     0
102
RTVSPropertyOp47
 70
     0
102
RTVSPropertyOp48
 70
     0
102
RTVSPropertyOp49
 70
     1
102
RTVSPropertyOp50
 70
     0
102
RTVSPropertyOp51
 70
     0
102
RTVSPropertyOp52
 70
     0
102
RTVSPropertyOp53
 70
     0
102
RTVSPropertyOp54
 70
     0
102
RTVSPropertyOp55
 70
     1
102
RTVSPropertyOp56
 70
     0
102
RTVSPropertyOp57
 70
     0
102
RTVSPropertyOp58
 70
     0
102
RTVSPropertyOp59
 70
     0
102
RTVSPropertyOp60
 70
     0
102
RTVSPropertyOp61
 70
     0
102
RTVSPropertyOp62
 70
     0
  0
XRECORD
  5
82B3
102
{ACAD_REACTORS
330
82B2
102
}
330
82B2
100
AcDbXrecord
280
     1
102
RTVSPost2010Prop28
280
     0
102
RTVSPost2010PropOp28
 70
     1
102
RTVSPost2010Prop29
280
     1
102
RTVSPost2010PropOp29
 70
     1
102
RTVSPost2010Prop30
280
     1
102
RTVSPost2010PropOp30
 70
     1
102
RTVSPost2010Prop31
280
     0
102
RTVSPost2010PropOp31
 70
     1
102
RTVSPost2010Prop32
280
     0
102
RTVSPost2010PropOp32
 70
     1
102
RTVSPost2010Prop33
280
     0
102
RTVSPost2010PropOp33
 70
     1
102
RTVSPost2010Prop34
280
     0
102
RTVSPost2010PropOp34
 70
     1
102
RTVSPost2010Prop35
280
     0
102
RTVSPost2010PropOp35
 70
     1
102
RTVSPost2010Prop36
280
     0
102
RTVSPost2010PropOp36
 70
     1
102
RTVSPost2010Prop37
 90
       50
102
RTVSPost2010PropOp37
 70
     1
102
RTVSPost2010Prop38
140
0.0
102
RTVSPost2010PropOp38
 70
     1
102
RTVSPost2010Prop39
140
1.0
102
RTVSPost2010PropOp39
 70
     1
102
RTVSPost2010Prop40
 90
        0
102
RTVSPost2010PropOp40
 70
     1
102
RTVSPost2010Prop41ColorIndex
 90
       18
102
RTVSPost2010Prop41ColorRGB
 90
        0
102
RTVSPost2010PropOp41
 70
     1
102
RTVSPost2010Prop42
 90
       50
102
RTVSPost2010PropOp42
 70
     1
102
RTVSPost2010Prop43
 90
        3
102
RTVSPost2010PropOp43
 70
     1
102
RTVSPost2010Prop44ColorIndex
 90
        5
102
RTVSPost2010Prop44ColorRGB
 90
      255
102
RTVSPost2010PropOp44
 70
     1
102
RTVSPost2010Prop45
280
     0
102
RTVSPost2010PropOp45
 70
     1
102
RTVSPost2010Prop46
 90
       50
102
RTVSPost2010PropOp46
 70
     1
102
RTVSPost2010Prop47
 90
       50
102
RTVSPost2010PropOp47
 70
     1
102
RTVSPost2010Prop48
 90
       50
102
RTVSPost2010PropOp48
 70
     1
102
RTVSPost2010Prop49
280
     0
102
RTVSPost2010PropOp49
 70
     1
102
RTVSPost2010Prop50
 90
       50
102
RTVSPost2010PropOp50
 70
     1
102
RTVSPost2010Prop51ColorIndex
 90
      256
102
RTVSPost2010Prop51ColorRGB
 90
-16777216
102
RTVSPost2010PropOp51
 70
     0
102
RTVSPost2010Prop52
140
1.0
102
RTVSPost2010PropOp52
 70
     0
102
RTVSPost2010Prop53
 90
        2
102
RTVSPost2010PropOp53
 70
     1
102
RTVSPost2010Prop54
  1
strokes_ogs.tif
102
RTVSPost2010PropOp54
 70
     1
102
RTVSPost2010Prop55
280
     0
102
RTVSPost2010PropOp55
 70
     1
102
RTVSPost2010Prop56
140
1.0
102
RTVSPost2010PropOp56
 70
     1
102
RTVSPost2010Prop57
140
1.0
102
RTVSPost2010PropOp57
 70
     1
102
RTVSPropertyOp0
 70
     1
102
RTVSPropertyOp1
 70
     1
102
RTVSPropertyOp2
 70
     1
102
RTVSPropertyOp3
 70
     1
102
RTVSPropertyOp4
 70
     1
102
RTVSPropertyOp5
 70
     1
102
RTVSPropertyOp6
 70
     1
102
RTVSPropertyOp7
 70
     1
102
RTVSPropertyOp8
 70
     1
102
RTVSPropertyOp9
 70
     1
102
RTVSPropertyOp10
 70
     1
102
RTVSPropertyOp11
 70
     1
102
RTVSPropertyOp12
 70
     1
102
RTVSPropertyOp13
 70
     1
102
RTVSPropertyOp14
 70
     1
102
RTVSPropertyOp15
 70
     1
102
RTVSPropertyOp16
 70
     1
102
RTVSPropertyOp17
 70
     1
102
RTVSPropertyOp18
 70
     1
102
RTVSPropertyOp19
 70
     1
102
RTVSPropertyOp20
 70
     1
102
RTVSPropertyOp21
 70
     1
102
RTVSPropertyOp22
 70
     1
102
RTVSPropertyOp23
 70
     1
102
RTVSPropertyOp24
 70
     1
102
RTVSPropertyOp25
 70
     1
102
RTVSPropertyOp26
 70
     1
102
RTVSPropertyOp27
 70
     1
102
RTVSPropertyOp28
 70
     1
102
RTVSPropertyOp29
 70
     1
102
RTVSPropertyOp30
 70
     1
102
RTVSPropertyOp31
 70
     1
102
RTVSPropertyOp32
 70
     1
102
RTVSPropertyOp33
 70
     1
102
RTVSPropertyOp34
 70
     1
102
RTVSPropertyOp35
 70
     1
102
RTVSPropertyOp36
 70
     1
102
RTVSPropertyOp37
 70
     1
102
RTVSPropertyOp38
 70
     1
102
RTVSPropertyOp39
 70
     1
102
RTVSPropertyOp40
 70
     1
102
RTVSPropertyOp41
 70
     1
102
RTVSPropertyOp42
 70
     1
102
RTVSPropertyOp43
 70
     1
102
RTVSPropertyOp44
 70
     1
102
RTVSPropertyOp45
 70
     1
102
RTVSPropertyOp46
 70
     1
102
RTVSPropertyOp47
 70
     1
102
RTVSPropertyOp48
 70
     1
102
RTVSPropertyOp49
 70
     1
102
RTVSPropertyOp50
 70
     1
102
RTVSPropertyOp51
 70
     0
102
RTVSPropertyOp52
 70
     0
102
RTVSPropertyOp53
 70
     1
102
RTVSPropertyOp54
 70
     1
102
RTVSPropertyOp55
 70
     1
102
RTVSPropertyOp56
 70
     1
102
RTVSPropertyOp57
 70
     1
102
RTVSPropertyOp58
 70
     1
102
RTVSPropertyOp59
 70
     1
102
RTVSPropertyOp60
 70
     1
102
RTVSPropertyOp61
 70
     1
102
RTVSPropertyOp62
 70
     1
  0
XRECORD
  5
8297
102
{ACAD_REACTORS
330
8296
102
}
330
8296
100
AcDbXrecord
280
     1
102
RTVSPost2010Prop28
280
     0
102
RTVSPost2010PropOp28
 70
     1
102
RTVSPost2010Prop29
280
     1
102
RTVSPost2010PropOp29
 70
     1
102
RTVSPost2010Prop30
280
     1
102
RTVSPost2010PropOp30
 70
     1
102
RTVSPost2010Prop31
280
     0
102
RTVSPost2010PropOp31
 70
     1
102
RTVSPost2010Prop32
280
     0
102
RTVSPost2010PropOp32
 70
     1
102
RTVSPost2010Prop33
280
     0
102
RTVSPost2010PropOp33
 70
     1
102
RTVSPost2010Prop34
280
     0
102
RTVSPost2010PropOp34
 70
     1
102
RTVSPost2010Prop35
280
     0
102
RTVSPost2010PropOp35
 70
     1
102
RTVSPost2010Prop36
280
     0
102
RTVSPost2010PropOp36
 70
     1
102
RTVSPost2010Prop37
 90
       50
102
RTVSPost2010PropOp37
 70
     1
102
RTVSPost2010Prop38
140
0.0
102
RTVSPost2010PropOp38
 70
     1
102
RTVSPost2010Prop39
140
1.0
102
RTVSPost2010PropOp39
 70
     1
102
RTVSPost2010Prop40
 90
        0
102
RTVSPost2010PropOp40
 70
     1
102
RTVSPost2010Prop41ColorIndex
 90
       18
102
RTVSPost2010Prop41ColorRGB
 90
        0
102
RTVSPost2010PropOp41
 70
     1
102
RTVSPost2010Prop42
 90
       50
102
RTVSPost2010PropOp42
 70
     1
102
RTVSPost2010Prop43
 90
        3
102
RTVSPost2010PropOp43
 70
     1
102
RTVSPost2010Prop44ColorIndex
 90
        5
102
RTVSPost2010Prop44ColorRGB
 90
      255
102
RTVSPost2010PropOp44
 70
     1
102
RTVSPost2010Prop45
280
     0
102
RTVSPost2010PropOp45
 70
     1
102
RTVSPost2010Prop46
 90
       50
102
RTVSPost2010PropOp46
 70
     1
102
RTVSPost2010Prop47
 90
       50
102
RTVSPost2010PropOp47
 70
     1
102
RTVSPost2010Prop48
 90
       50
102
RTVSPost2010PropOp48
 70
     1
102
RTVSPost2010Prop49
280
     0
102
RTVSPost2010PropOp49
 70
     1
102
RTVSPost2010Prop50
 90
       50
102
RTVSPost2010PropOp50
 70
     1
102
RTVSPost2010Prop51ColorIndex
 90
      256
102
RTVSPost2010Prop51ColorRGB
 90
-16777216
102
RTVSPost2010PropOp51
 70
     0
102
RTVSPost2010Prop52
140
1.0
102
RTVSPost2010PropOp52
 70
     0
102
RTVSPost2010Prop53
 90
        2
102
RTVSPost2010PropOp53
 70
     1
102
RTVSPost2010Prop54
  1
strokes_ogs.tif
102
RTVSPost2010PropOp54
 70
     1
102
RTVSPost2010Prop55
280
     0
102
RTVSPost2010PropOp55
 70
     1
102
RTVSPost2010Prop56
140
1.0
102
RTVSPost2010PropOp56
 70
     1
102
RTVSPost2010Prop57
140
1.0
102
RTVSPost2010PropOp57
 70
     1
102
RTVSPropertyOp0
 70
     1
102
RTVSPropertyOp1
 70
     1
102
RTVSPropertyOp2
 70
     1
102
RTVSPropertyOp3
 70
     1
102
RTVSPropertyOp4
 70
     1
102
RTVSPropertyOp5
 70
     1
102
RTVSPropertyOp6
 70
     1
102
RTVSPropertyOp7
 70
     1
102
RTVSPropertyOp8
 70
     1
102
RTVSPropertyOp9
 70
     1
102
RTVSPropertyOp10
 70
     1
102
RTVSPropertyOp11
 70
     1
102
RTVSPropertyOp12
 70
     1
102
RTVSPropertyOp13
 70
     1
102
RTVSPropertyOp14
 70
     1
102
RTVSPropertyOp15
 70
     1
102
RTVSPropertyOp16
 70
     1
102
RTVSPropertyOp17
 70
     1
102
RTVSPropertyOp18
 70
     1
102
RTVSPropertyOp19
 70
     1
102
RTVSPropertyOp20
 70
     1
102
RTVSPropertyOp21
 70
     1
102
RTVSPropertyOp22
 70
     1
102
RTVSPropertyOp23
 70
     1
102
RTVSPropertyOp24
 70
     1
102
RTVSPropertyOp25
 70
     1
102
RTVSPropertyOp26
 70
     1
102
RTVSPropertyOp27
 70
     1
102
RTVSPropertyOp28
 70
     1
102
RTVSPropertyOp29
 70
     1
102
RTVSPropertyOp30
 70
     1
102
RTVSPropertyOp31
 70
     1
102
RTVSPropertyOp32
 70
     1
102
RTVSPropertyOp33
 70
     1
102
RTVSPropertyOp34
 70
     1
102
RTVSPropertyOp35
 70
     1
102
RTVSPropertyOp36
 70
     1
102
RTVSPropertyOp37
 70
     1
102
RTVSPropertyOp38
 70
     1
102
RTVSPropertyOp39
 70
     1
102
RTVSPropertyOp40
 70
     1
102
RTVSPropertyOp41
 70
     1
102
RTVSPropertyOp42
 70
     1
102
RTVSPropertyOp43
 70
     1
102
RTVSPropertyOp44
 70
     1
102
RTVSPropertyOp45
 70
     1
102
RTVSPropertyOp46
 70
     1
102
RTVSPropertyOp47
 70
     1
102
RTVSPropertyOp48
 70
     1
102
RTVSPropertyOp49
 70
     1
102
RTVSPropertyOp50
 70
     1
102
RTVSPropertyOp51
 70
     0
102
RTVSPropertyOp52
 70
     0
102
RTVSPropertyOp53
 70
     1
102
RTVSPropertyOp54
 70
     1
102
RTVSPropertyOp55
 70
     1
102
RTVSPropertyOp56
 70
     1
102
RTVSPropertyOp57
 70
     1
102
RTVSPropertyOp58
 70
     1
102
RTVSPropertyOp59
 70
     1
102
RTVSPropertyOp60
 70
     1
102
RTVSPropertyOp61
 70
     1
102
RTVSPropertyOp62
 70
     1
  0
XRECORD
  5
8299
102
{ACAD_REACTORS
330
8298
102
}
330
8298
100
AcDbXrecord
280
     1
102
RTVSPost2010Prop28
280
     0
102
RTVSPost2010PropOp28
 70
     1
102
RTVSPost2010Prop29
280
     1
102
RTVSPost2010PropOp29
 70
     1
102
RTVSPost2010Prop30
280
     1
102
RTVSPost2010PropOp30
 70
     1
102
RTVSPost2010Prop31
280
     0
102
RTVSPost2010PropOp31
 70
     1
102
RTVSPost2010Prop32
280
     0
102
RTVSPost2010PropOp32
 70
     1
102
RTVSPost2010Prop33
280
     0
102
RTVSPost2010PropOp33
 70
     1
102
RTVSPost2010Prop34
280
     0
102
RTVSPost2010PropOp34
 70
     1
102
RTVSPost2010Prop35
280
     0
102
RTVSPost2010PropOp35
 70
     1
102
RTVSPost2010Prop36
280
     0
102
RTVSPost2010PropOp36
 70
     1
102
RTVSPost2010Prop37
 90
       50
102
RTVSPost2010PropOp37
 70
     1
102
RTVSPost2010Prop38
140
0.0
102
RTVSPost2010PropOp38
 70
     1
102
RTVSPost2010Prop39
140
1.0
102
RTVSPost2010PropOp39
 70
     1
102
RTVSPost2010Prop40
 90
        0
102
RTVSPost2010PropOp40
 70
     1
102
RTVSPost2010Prop41ColorIndex
 90
       18
102
RTVSPost2010Prop41ColorRGB
 90
        0
102
RTVSPost2010PropOp41
 70
     1
102
RTVSPost2010Prop42
 90
       50
102
RTVSPost2010PropOp42
 70
     1
102
RTVSPost2010Prop43
 90
        3
102
RTVSPost2010PropOp43
 70
     1
102
RTVSPost2010Prop44ColorIndex
 90
        5
102
RTVSPost2010Prop44ColorRGB
 90
      255
102
RTVSPost2010PropOp44
 70
     1
102
RTVSPost2010Prop45
280
     0
102
RTVSPost2010PropOp45
 70
     1
102
RTVSPost2010Prop46
 90
       50
102
RTVSPost2010PropOp46
 70
     1
102
RTVSPost2010Prop47
 90
       50
102
RTVSPost2010PropOp47
 70
     1
102
RTVSPost2010Prop48
 90
       50
102
RTVSPost2010PropOp48
 70
     1
102
RTVSPost2010Prop49
280
     0
102
RTVSPost2010PropOp49
 70
     1
102
RTVSPost2010Prop50
 90
       50
102
RTVSPost2010PropOp50
 70
     1
102
RTVSPost2010Prop51ColorIndex
 90
      256
102
RTVSPost2010Prop51ColorRGB
 90
-16777216
102
RTVSPost2010PropOp51
 70
     0
102
RTVSPost2010Prop52
140
1.0
102
RTVSPost2010PropOp52
 70
     0
102
RTVSPost2010Prop53
 90
        2
102
RTVSPost2010PropOp53
 70
     1
102
RTVSPost2010Prop54
  1
strokes_ogs.tif
102
RTVSPost2010PropOp54
 70
     1
102
RTVSPost2010Prop55
280
     0
102
RTVSPost2010PropOp55
 70
     1
102
RTVSPost2010Prop56
140
1.0
102
RTVSPost2010PropOp56
 70
     1
102
RTVSPost2010Prop57
140
1.0
102
RTVSPost2010PropOp57
 70
     1
102
RTVSPropertyOp0
 70
     1
102
RTVSPropertyOp1
 70
     1
102
RTVSPropertyOp2
 70
     1
102
RTVSPropertyOp3
 70
     1
102
RTVSPropertyOp4
 70
     1
102
RTVSPropertyOp5
 70
     1
102
RTVSPropertyOp6
 70
     1
102
RTVSPropertyOp7
 70
     1
102
RTVSPropertyOp8
 70
     1
102
RTVSPropertyOp9
 70
     1
102
RTVSPropertyOp10
 70
     1
102
RTVSPropertyOp11
 70
     1
102
RTVSPropertyOp12
 70
     1
102
RTVSPropertyOp13
 70
     1
102
RTVSPropertyOp14
 70
     1
102
RTVSPropertyOp15
 70
     1
102
RTVSPropertyOp16
 70
     1
102
RTVSPropertyOp17
 70
     1
102
RTVSPropertyOp18
 70
     1
102
RTVSPropertyOp19
 70
     1
102
RTVSPropertyOp20
 70
     1
102
RTVSPropertyOp21
 70
     1
102
RTVSPropertyOp22
 70
     1
102
RTVSPropertyOp23
 70
     1
102
RTVSPropertyOp24
 70
     1
102
RTVSPropertyOp25
 70
     1
102
RTVSPropertyOp26
 70
     1
102
RTVSPropertyOp27
 70
     1
102
RTVSPropertyOp28
 70
     1
102
RTVSPropertyOp29
 70
     1
102
RTVSPropertyOp30
 70
     1
102
RTVSPropertyOp31
 70
     1
102
RTVSPropertyOp32
 70
     1
102
RTVSPropertyOp33
 70
     1
102
RTVSPropertyOp34
 70
     1
102
RTVSPropertyOp35
 70
     1
102
RTVSPropertyOp36
 70
     1
102
RTVSPropertyOp37
 70
     1
102
RTVSPropertyOp38
 70
     1
102
RTVSPropertyOp39
 70
     1
102
RTVSPropertyOp40
 70
     1
102
RTVSPropertyOp41
 70
     1
102
RTVSPropertyOp42
 70
     1
102
RTVSPropertyOp43
 70
     1
102
RTVSPropertyOp44
 70
     1
102
RTVSPropertyOp45
 70
     1
102
RTVSPropertyOp46
 70
     1
102
RTVSPropertyOp47
 70
     1
102
RTVSPropertyOp48
 70
     1
102
RTVSPropertyOp49
 70
     1
102
RTVSPropertyOp50
 70
     1
102
RTVSPropertyOp51
 70
     0
102
RTVSPropertyOp52
 70
     0
102
RTVSPropertyOp53
 70
     1
102
RTVSPropertyOp54
 70
     1
102
RTVSPropertyOp55
 70
     1
102
RTVSPropertyOp56
 70
     1
102
RTVSPropertyOp57
 70
     1
102
RTVSPropertyOp58
 70
     1
102
RTVSPropertyOp59
 70
     1
102
RTVSPropertyOp60
 70
     1
102
RTVSPropertyOp61
 70
     1
102
RTVSPropertyOp62
 70
     1
  0
XRECORD
  5
829B
102
{ACAD_REACTORS
330
829A
102
}
330
829A
100
AcDbXrecord
280
     1
102
RTVSPost2010Prop28
280
     0
102
RTVSPost2010PropOp28
 70
     1
102
RTVSPost2010Prop29
280
     1
102
RTVSPost2010PropOp29
 70
     1
102
RTVSPost2010Prop30
280
     1
102
RTVSPost2010PropOp30
 70
     1
102
RTVSPost2010Prop31
280
     0
102
RTVSPost2010PropOp31
 70
     1
102
RTVSPost2010Prop32
280
     0
102
RTVSPost2010PropOp32
 70
     1
102
RTVSPost2010Prop33
280
     0
102
RTVSPost2010PropOp33
 70
     1
102
RTVSPost2010Prop34
280
     0
102
RTVSPost2010PropOp34
 70
     1
102
RTVSPost2010Prop35
280
     0
102
RTVSPost2010PropOp35
 70
     1
102
RTVSPost2010Prop36
280
     0
102
RTVSPost2010PropOp36
 70
     1
102
RTVSPost2010Prop37
 90
       50
102
RTVSPost2010PropOp37
 70
     1
102
RTVSPost2010Prop38
140
0.0
102
RTVSPost2010PropOp38
 70
     1
102
RTVSPost2010Prop39
140
1.0
102
RTVSPost2010PropOp39
 70
     1
102
RTVSPost2010Prop40
 90
        0
102
RTVSPost2010PropOp40
 70
     1
102
RTVSPost2010Prop41ColorIndex
 90
       18
102
RTVSPost2010Prop41ColorRGB
 90
        0
102
RTVSPost2010PropOp41
 70
     1
102
RTVSPost2010Prop42
 90
       50
102
RTVSPost2010PropOp42
 70
     1
102
RTVSPost2010Prop43
 90
        3
102
RTVSPost2010PropOp43
 70
     1
102
RTVSPost2010Prop44ColorIndex
 90
        5
102
RTVSPost2010Prop44ColorRGB
 90
      255
102
RTVSPost2010PropOp44
 70
     1
102
RTVSPost2010Prop45
280
     0
102
RTVSPost2010PropOp45
 70
     1
102
RTVSPost2010Prop46
 90
       50
102
RTVSPost2010PropOp46
 70
     1
102
RTVSPost2010Prop47
 90
       50
102
RTVSPost2010PropOp47
 70
     1
102
RTVSPost2010Prop48
 90
       50
102
RTVSPost2010PropOp48
 70
     1
102
RTVSPost2010Prop49
280
     0
102
RTVSPost2010PropOp49
 70
     1
102
RTVSPost2010Prop50
 90
       50
102
RTVSPost2010PropOp50
 70
     1
102
RTVSPost2010Prop51ColorIndex
 90
      256
102
RTVSPost2010Prop51ColorRGB
 90
-16777216
102
RTVSPost2010PropOp51
 70
     0
102
RTVSPost2010Prop52
140
1.0
102
RTVSPost2010PropOp52
 70
     0
102
RTVSPost2010Prop53
 90
        2
102
RTVSPost2010PropOp53
 70
     1
102
RTVSPost2010Prop54
  1
strokes_ogs.tif
102
RTVSPost2010PropOp54
 70
     1
102
RTVSPost2010Prop55
280
     0
102
RTVSPost2010PropOp55
 70
     1
102
RTVSPost2010Prop56
140
1.0
102
RTVSPost2010PropOp56
 70
     1
102
RTVSPost2010Prop57
140
1.0
102
RTVSPost2010PropOp57
 70
     1
102
RTVSPropertyOp0
 70
     1
102
RTVSPropertyOp1
 70
     1
102
RTVSPropertyOp2
 70
     1
102
RTVSPropertyOp3
 70
     1
102
RTVSPropertyOp4
 70
     1
102
RTVSPropertyOp5
 70
     1
102
RTVSPropertyOp6
 70
     1
102
RTVSPropertyOp7
 70
     1
102
RTVSPropertyOp8
 70
     1
102
RTVSPropertyOp9
 70
     1
102
RTVSPropertyOp10
 70
     1
102
RTVSPropertyOp11
 70
     1
102
RTVSPropertyOp12
 70
     1
102
RTVSPropertyOp13
 70
     1
102
RTVSPropertyOp14
 70
     1
102
RTVSPropertyOp15
 70
     1
102
RTVSPropertyOp16
 70
     1
102
RTVSPropertyOp17
 70
     1
102
RTVSPropertyOp18
 70
     1
102
RTVSPropertyOp19
 70
     1
102
RTVSPropertyOp20
 70
     1
102
RTVSPropertyOp21
 70
     1
102
RTVSPropertyOp22
 70
     1
102
RTVSPropertyOp23
 70
     1
102
RTVSPropertyOp24
 70
     1
102
RTVSPropertyOp25
 70
     1
102
RTVSPropertyOp26
 70
     1
102
RTVSPropertyOp27
 70
     1
102
RTVSPropertyOp28
 70
     1
102
RTVSPropertyOp29
 70
     1
102
RTVSPropertyOp30
 70
     1
102
RTVSPropertyOp31
 70
     1
102
RTVSPropertyOp32
 70
     1
102
RTVSPropertyOp33
 70
     1
102
RTVSPropertyOp34
 70
     1
102
RTVSPropertyOp35
 70
     1
102
RTVSPropertyOp36
 70
     1
102
RTVSPropertyOp37
 70
     1
102
RTVSPropertyOp38
 70
     1
102
RTVSPropertyOp39
 70
     1
102
RTVSPropertyOp40
 70
     1
102
RTVSPropertyOp41
 70
     1
102
RTVSPropertyOp42
 70
     1
102
RTVSPropertyOp43
 70
     1
102
RTVSPropertyOp44
 70
     1
102
RTVSPropertyOp45
 70
     1
102
RTVSPropertyOp46
 70
     1
102
RTVSPropertyOp47
 70
     1
102
RTVSPropertyOp48
 70
     1
102
RTVSPropertyOp49
 70
     1
102
RTVSPropertyOp50
 70
     1
102
RTVSPropertyOp51
 70
     0
102
RTVSPropertyOp52
 70
     0
102
RTVSPropertyOp53
 70
     1
102
RTVSPropertyOp54
 70
     1
102
RTVSPropertyOp55
 70
     1
102
RTVSPropertyOp56
 70
     1
102
RTVSPropertyOp57
 70
     1
102
RTVSPropertyOp58
 70
     1
102
RTVSPropertyOp59
 70
     1
102
RTVSPropertyOp60
 70
     1
102
RTVSPropertyOp61
 70
     1
102
RTVSPropertyOp62
 70
     1
  0
XRECORD
  5
829D
102
{ACAD_REACTORS
330
829C
102
}
330
829C
100
AcDbXrecord
280
     1
102
RTVSPost2010Prop28
280
     0
102
RTVSPost2010PropOp28
 70
     1
102
RTVSPost2010Prop29
280
     1
102
RTVSPost2010PropOp29
 70
     1
102
RTVSPost2010Prop30
280
     1
102
RTVSPost2010PropOp30
 70
     1
102
RTVSPost2010Prop31
280
     0
102
RTVSPost2010PropOp31
 70
     1
102
RTVSPost2010Prop32
280
     0
102
RTVSPost2010PropOp32
 70
     1
102
RTVSPost2010Prop33
280
     0
102
RTVSPost2010PropOp33
 70
     1
102
RTVSPost2010Prop34
280
     0
102
RTVSPost2010PropOp34
 70
     1
102
RTVSPost2010Prop35
280
     0
102
RTVSPost2010PropOp35
 70
     1
102
RTVSPost2010Prop36
280
     0
102
RTVSPost2010PropOp36
 70
     1
102
RTVSPost2010Prop37
 90
       50
102
RTVSPost2010PropOp37
 70
     1
102
RTVSPost2010Prop38
140
0.0
102
RTVSPost2010PropOp38
 70
     1
102
RTVSPost2010Prop39
140
1.0
102
RTVSPost2010PropOp39
 70
     1
102
RTVSPost2010Prop40
 90
        0
102
RTVSPost2010PropOp40
 70
     1
102
RTVSPost2010Prop41ColorIndex
 90
       18
102
RTVSPost2010Prop41ColorRGB
 90
        0
102
RTVSPost2010PropOp41
 70
     1
102
RTVSPost2010Prop42
 90
       50
102
RTVSPost2010PropOp42
 70
     1
102
RTVSPost2010Prop43
 90
        3
102
RTVSPost2010PropOp43
 70
     1
102
RTVSPost2010Prop44ColorIndex
 90
        5
102
RTVSPost2010Prop44ColorRGB
 90
      255
102
RTVSPost2010PropOp44
 70
     1
102
RTVSPost2010Prop45
280
     0
102
RTVSPost2010PropOp45
 70
     1
102
RTVSPost2010Prop46
 90
       50
102
RTVSPost2010PropOp46
 70
     1
102
RTVSPost2010Prop47
 90
       50
102
RTVSPost2010PropOp47
 70
     1
102
RTVSPost2010Prop48
 90
       50
102
RTVSPost2010PropOp48
 70
     1
102
RTVSPost2010Prop49
280
     0
102
RTVSPost2010PropOp49
 70
     1
102
RTVSPost2010Prop50
 90
       50
102
RTVSPost2010PropOp50
 70
     1
102
RTVSPost2010Prop51ColorIndex
 90
      256
102
RTVSPost2010Prop51ColorRGB
 90
-16777216
102
RTVSPost2010PropOp51
 70
     0
102
RTVSPost2010Prop52
140
1.0
102
RTVSPost2010PropOp52
 70
     0
102
RTVSPost2010Prop53
 90
        2
102
RTVSPost2010PropOp53
 70
     1
102
RTVSPost2010Prop54
  1
strokes_ogs.tif
102
RTVSPost2010PropOp54
 70
     1
102
RTVSPost2010Prop55
280
     0
102
RTVSPost2010PropOp55
 70
     1
102
RTVSPost2010Prop56
140
1.0
102
RTVSPost2010PropOp56
 70
     1
102
RTVSPost2010Prop57
140
1.0
102
RTVSPost2010PropOp57
 70
     1
102
RTVSPropertyOp0
 70
     1
102
RTVSPropertyOp1
 70
     1
102
RTVSPropertyOp2
 70
     1
102
RTVSPropertyOp3
 70
     1
102
RTVSPropertyOp4
 70
     1
102
RTVSPropertyOp5
 70
     1
102
RTVSPropertyOp6
 70
     1
102
RTVSPropertyOp7
 70
     1
102
RTVSPropertyOp8
 70
     1
102
RTVSPropertyOp9
 70
     1
102
RTVSPropertyOp10
 70
     1
102
RTVSPropertyOp11
 70
     1
102
RTVSPropertyOp12
 70
     1
102
RTVSPropertyOp13
 70
     1
102
RTVSPropertyOp14
 70
     1
102
RTVSPropertyOp15
 70
     1
102
RTVSPropertyOp16
 70
     1
102
RTVSPropertyOp17
 70
     1
102
RTVSPropertyOp18
 70
     1
102
RTVSPropertyOp19
 70
     1
102
RTVSPropertyOp20
 70
     1
102
RTVSPropertyOp21
 70
     1
102
RTVSPropertyOp22
 70
     1
102
RTVSPropertyOp23
 70
     1
102
RTVSPropertyOp24
 70
     1
102
RTVSPropertyOp25
 70
     1
102
RTVSPropertyOp26
 70
     1
102
RTVSPropertyOp27
 70
     1
102
RTVSPropertyOp28
 70
     1
102
RTVSPropertyOp29
 70
     1
102
RTVSPropertyOp30
 70
     1
102
RTVSPropertyOp31
 70
     1
102
RTVSPropertyOp32
 70
     1
102
RTVSPropertyOp33
 70
     1
102
RTVSPropertyOp34
 70
     1
102
RTVSPropertyOp35
 70
     1
102
RTVSPropertyOp36
 70
     1
102
RTVSPropertyOp37
 70
     1
102
RTVSPropertyOp38
 70
     1
102
RTVSPropertyOp39
 70
     1
102
RTVSPropertyOp40
 70
     1
102
RTVSPropertyOp41
 70
     1
102
RTVSPropertyOp42
 70
     1
102
RTVSPropertyOp43
 70
     1
102
RTVSPropertyOp44
 70
     1
102
RTVSPropertyOp45
 70
     1
102
RTVSPropertyOp46
 70
     1
102
RTVSPropertyOp47
 70
     1
102
RTVSPropertyOp48
 70
     1
102
RTVSPropertyOp49
 70
     1
102
RTVSPropertyOp50
 70
     1
102
RTVSPropertyOp51
 70
     0
102
RTVSPropertyOp52
 70
     0
102
RTVSPropertyOp53
 70
     1
102
RTVSPropertyOp54
 70
     1
102
RTVSPropertyOp55
 70
     1
102
RTVSPropertyOp56
 70
     1
102
RTVSPropertyOp57
 70
     1
102
RTVSPropertyOp58
 70
     1
102
RTVSPropertyOp59
 70
     1
102
RTVSPropertyOp60
 70
     1
102
RTVSPropertyOp61
 70
     1
102
RTVSPropertyOp62
 70
     1
  0
XRECORD
  5
82A5
102
{ACAD_REACTORS
330
82A4
102
}
330
82A4
100
AcDbXrecord
280
     1
102
RTVSPost2010Prop28
280
     0
102
RTVSPost2010PropOp28
 70
     1
102
RTVSPost2010Prop29
280
     1
102
RTVSPost2010PropOp29
 70
     1
102
RTVSPost2010Prop30
280
     1
102
RTVSPost2010PropOp30
 70
     1
102
RTVSPost2010Prop31
280
     0
102
RTVSPost2010PropOp31
 70
     1
102
RTVSPost2010Prop32
280
     0
102
RTVSPost2010PropOp32
 70
     1
102
RTVSPost2010Prop33
280
     0
102
RTVSPost2010PropOp33
 70
     1
102
RTVSPost2010Prop34
280
     0
102
RTVSPost2010PropOp34
 70
     1
102
RTVSPost2010Prop35
280
     0
102
RTVSPost2010PropOp35
 70
     1
102
RTVSPost2010Prop36
280
     0
102
RTVSPost2010PropOp36
 70
     1
102
RTVSPost2010Prop37
 90
       50
102
RTVSPost2010PropOp37
 70
     1
102
RTVSPost2010Prop38
140
0.0
102
RTVSPost2010PropOp38
 70
     1
102
RTVSPost2010Prop39
140
1.0
102
RTVSPost2010PropOp39
 70
     1
102
RTVSPost2010Prop40
 90
        0
102
RTVSPost2010PropOp40
 70
     1
102
RTVSPost2010Prop41ColorIndex
 90
       18
102
RTVSPost2010Prop41ColorRGB
 90
        0
102
RTVSPost2010PropOp41
 70
     1
102
RTVSPost2010Prop42
 90
       50
102
RTVSPost2010PropOp42
 70
     1
102
RTVSPost2010Prop43
 90
        3
102
RTVSPost2010PropOp43
 70
     1
102
RTVSPost2010Prop44ColorIndex
 90
        5
102
RTVSPost2010Prop44ColorRGB
 90
      255
102
RTVSPost2010PropOp44
 70
     1
102
RTVSPost2010Prop45
280
     0
102
RTVSPost2010PropOp45
 70
     1
102
RTVSPost2010Prop46
 90
       50
102
RTVSPost2010PropOp46
 70
     1
102
RTVSPost2010Prop47
 90
       50
102
RTVSPost2010PropOp47
 70
     1
102
RTVSPost2010Prop48
 90
       50
102
RTVSPost2010PropOp48
 70
     1
102
RTVSPost2010Prop49
280
     0
102
RTVSPost2010PropOp49
 70
     1
102
RTVSPost2010Prop50
 90
       50
102
RTVSPost2010PropOp50
 70
     1
102
RTVSPost2010Prop51ColorIndex
 90
      256
102
RTVSPost2010Prop51ColorRGB
 90
-16777216
102
RTVSPost2010PropOp51
 70
     0
102
RTVSPost2010Prop52
140
1.0
102
RTVSPost2010PropOp52
 70
     0
102
RTVSPost2010Prop53
 90
        2
102
RTVSPost2010PropOp53
 70
     1
102
RTVSPost2010Prop54
  1
strokes_ogs.tif
102
RTVSPost2010PropOp54
 70
     1
102
RTVSPost2010Prop55
280
     0
102
RTVSPost2010PropOp55
 70
     1
102
RTVSPost2010Prop56
140
1.0
102
RTVSPost2010PropOp56
 70
     1
102
RTVSPost2010Prop57
140
1.0
102
RTVSPost2010PropOp57
 70
     1
102
RTVSPropertyOp0
 70
     1
102
RTVSPropertyOp1
 70
     1
102
RTVSPropertyOp2
 70
     1
102
RTVSPropertyOp3
 70
     1
102
RTVSPropertyOp4
 70
     1
102
RTVSPropertyOp5
 70
     1
102
RTVSPropertyOp6
 70
     1
102
RTVSPropertyOp7
 70
     1
102
RTVSPropertyOp8
 70
     1
102
RTVSPropertyOp9
 70
     1
102
RTVSPropertyOp10
 70
     1
102
RTVSPropertyOp11
 70
     1
102
RTVSPropertyOp12
 70
     1
102
RTVSPropertyOp13
 70
     1
102
RTVSPropertyOp14
 70
     1
102
RTVSPropertyOp15
 70
     1
102
RTVSPropertyOp16
 70
     1
102
RTVSPropertyOp17
 70
     1
102
RTVSPropertyOp18
 70
     1
102
RTVSPropertyOp19
 70
     1
102
RTVSPropertyOp20
 70
     1
102
RTVSPropertyOp21
 70
     1
102
RTVSPropertyOp22
 70
     1
102
RTVSPropertyOp23
 70
     1
102
RTVSPropertyOp24
 70
     1
102
RTVSPropertyOp25
 70
     1
102
RTVSPropertyOp26
 70
     1
102
RTVSPropertyOp27
 70
     1
102
RTVSPropertyOp28
 70
     1
102
RTVSPropertyOp29
 70
     1
102
RTVSPropertyOp30
 70
     1
102
RTVSPropertyOp31
 70
     1
102
RTVSPropertyOp32
 70
     1
102
RTVSPropertyOp33
 70
     1
102
RTVSPropertyOp34
 70
     1
102
RTVSPropertyOp35
 70
     1
102
RTVSPropertyOp36
 70
     1
102
RTVSPropertyOp37
 70
     1
102
RTVSPropertyOp38
 70
     1
102
RTVSPropertyOp39
 70
     1
102
RTVSPropertyOp40
 70
     1
102
RTVSPropertyOp41
 70
     1
102
RTVSPropertyOp42
 70
     1
102
RTVSPropertyOp43
 70
     1
102
RTVSPropertyOp44
 70
     1
102
RTVSPropertyOp45
 70
     1
102
RTVSPropertyOp46
 70
     1
102
RTVSPropertyOp47
 70
     1
102
RTVSPropertyOp48
 70
     1
102
RTVSPropertyOp49
 70
     1
102
RTVSPropertyOp50
 70
     1
102
RTVSPropertyOp51
 70
     0
102
RTVSPropertyOp52
 70
     0
102
RTVSPropertyOp53
 70
     1
102
RTVSPropertyOp54
 70
     1
102
RTVSPropertyOp55
 70
     1
102
RTVSPropertyOp56
 70
     1
102
RTVSPropertyOp57
 70
     1
102
RTVSPropertyOp58
 70
     1
102
RTVSPropertyOp59
 70
     1
102
RTVSPropertyOp60
 70
     1
102
RTVSPropertyOp61
 70
     1
102
RTVSPropertyOp62
 70
     1
  0
XRECORD
  5
82C1
102
{ACAD_REACTORS
330
82C0
102
}
330
82C0
100
AcDbXrecord
280
     1
102
RTVSPost2010Prop28
280
     0
102
RTVSPost2010PropOp28
 70
     1
102
RTVSPost2010Prop29
280
     1
102
RTVSPost2010PropOp29
 70
     1
102
RTVSPost2010Prop30
280
     1
102
RTVSPost2010PropOp30
 70
     1
102
RTVSPost2010Prop31
280
     0
102
RTVSPost2010PropOp31
 70
     1
102
RTVSPost2010Prop32
280
     0
102
RTVSPost2010PropOp32
 70
     1
102
RTVSPost2010Prop33
280
     0
102
RTVSPost2010PropOp33
 70
     1
102
RTVSPost2010Prop34
280
     0
102
RTVSPost2010PropOp34
 70
     1
102
RTVSPost2010Prop35
280
     0
102
RTVSPost2010PropOp35
 70
     1
102
RTVSPost2010Prop36
280
     0
102
RTVSPost2010PropOp36
 70
     1
102
RTVSPost2010Prop37
 90
       50
102
RTVSPost2010PropOp37
 70
     0
102
RTVSPost2010Prop38
140
0.0
102
RTVSPost2010PropOp38
 70
     0
102
RTVSPost2010Prop39
140
1.0
102
RTVSPost2010PropOp39
 70
     0
102
RTVSPost2010Prop40
 90
        0
102
RTVSPost2010PropOp40
 70
     0
102
RTVSPost2010Prop41ColorIndex
 90
       18
102
RTVSPost2010Prop41ColorRGB
 90
        0
102
RTVSPost2010PropOp41
 70
     0
102
RTVSPost2010Prop42
 90
       50
102
RTVSPost2010PropOp42
 70
     0
102
RTVSPost2010Prop43
 90
        3
102
RTVSPost2010PropOp43
 70
     0
102
RTVSPost2010Prop44ColorIndex
 90
        5
102
RTVSPost2010Prop44ColorRGB
 90
      255
102
RTVSPost2010PropOp44
 70
     0
102
RTVSPost2010Prop45
280
     0
102
RTVSPost2010PropOp45
 70
     1
102
RTVSPost2010Prop46
 90
       50
102
RTVSPost2010PropOp46
 70
     0
102
RTVSPost2010Prop47
 90
       50
102
RTVSPost2010PropOp47
 70
     0
102
RTVSPost2010Prop48
 90
       50
102
RTVSPost2010PropOp48
 70
     0
102
RTVSPost2010Prop49
280
     0
102
RTVSPost2010PropOp49
 70
     1
102
RTVSPost2010Prop50
 90
       50
102
RTVSPost2010PropOp50
 70
     0
102
RTVSPost2010Prop51ColorIndex
 90
      256
102
RTVSPost2010Prop51ColorRGB
 90
-16777216
102
RTVSPost2010PropOp51
 70
     0
102
RTVSPost2010Prop52
140
1.0
102
RTVSPost2010PropOp52
 70
     0
102
RTVSPost2010Prop53
 90
        2
102
RTVSPost2010PropOp53
 70
     0
102
RTVSPost2010Prop54
  1
strokes_ogs.tif
102
RTVSPost2010PropOp54
 70
     0
102
RTVSPost2010Prop55
280
     0
102
RTVSPost2010PropOp55
 70
     1
102
RTVSPost2010Prop56
140
1.0
102
RTVSPost2010PropOp56
 70
     0
102
RTVSPost2010Prop57
140
1.0
102
RTVSPost2010PropOp57
 70
     0
102
RTVSPropertyOp0
 70
     0
102
RTVSPropertyOp1
 70
     0
102
RTVSPropertyOp2
 70
     0
102
RTVSPropertyOp3
 70
     0
102
RTVSPropertyOp4
 70
     0
102
RTVSPropertyOp5
 70
     0
102
RTVSPropertyOp6
 70
     0
102
RTVSPropertyOp7
 70
     0
102
RTVSPropertyOp8
 70
     0
102
RTVSPropertyOp9
 70
     0
102
RTVSPropertyOp10
 70
     0
102
RTVSPropertyOp11
 70
     0
102
RTVSPropertyOp12
 70
     0
102
RTVSPropertyOp13
 70
     0
102
RTVSPropertyOp14
 70
     2
102
RTVSPropertyOp15
 70
     0
102
RTVSPropertyOp16
 70
     0
102
RTVSPropertyOp17
 70
     0
102
RTVSPropertyOp18
 70
     0
102
RTVSPropertyOp19
 70
     0
102
RTVSPropertyOp20
 70
     0
102
RTVSPropertyOp21
 70
     0
102
RTVSPropertyOp22
 70
     0
102
RTVSPropertyOp23
 70
     0
102
RTVSPropertyOp24
 70
     0
102
RTVSPropertyOp25
 70
     0
102
RTVSPropertyOp26
 70
     0
102
RTVSPropertyOp27
 70
     0
102
RTVSPropertyOp28
 70
     1
102
RTVSPropertyOp29
 70
     1
102
RTVSPropertyOp30
 70
     1
102
RTVSPropertyOp31
 70
     1
102
RTVSPropertyOp32
 70
     1
102
RTVSPropertyOp33
 70
     1
102
RTVSPropertyOp34
 70
     1
102
RTVSPropertyOp35
 70
     1
102
RTVSPropertyOp36
 70
     1
102
RTVSPropertyOp37
 70
     0
102
RTVSPropertyOp38
 70
     0
102
RTVSPropertyOp39
 70
     0
102
RTVSPropertyOp40
 70
     0
102
RTVSPropertyOp41
 70
     0
102
RTVSPropertyOp42
 70
     0
102
RTVSPropertyOp43
 70
     0
102
RTVSPropertyOp44
 70
     0
102
RTVSPropertyOp45
 70
     1
102
RTVSPropertyOp46
 70
     0
102
RTVSPropertyOp47
 70
     0
102
RTVSPropertyOp48
 70
     0
102
RTVSPropertyOp49
 70
     1
102
RTVSPropertyOp50
 70
     0
102
RTVSPropertyOp51
 70
     0
102
RTVSPropertyOp52
 70
     0
102
RTVSPropertyOp53
 70
     0
102
RTVSPropertyOp54
 70
     0
102
RTVSPropertyOp55
 70
     1
102
RTVSPropertyOp56
 70
     0
102
RTVSPropertyOp57
 70
     0
102
RTVSPropertyOp58
 70
     0
102
RTVSPropertyOp59
 70
     0
102
RTVSPropertyOp60
 70
     0
102
RTVSPropertyOp61
 70
     0
102
RTVSPropertyOp62
 70
     0
  0
XRECORD
  5
82B1
102
{ACAD_REACTORS
330
82B0
102
}
330
82B0
100
AcDbXrecord
280
     1
102
RTVSPost2010Prop28
280
     0
102
RTVSPost2010PropOp28
 70
     1
102
RTVSPost2010Prop29
280
     1
102
RTVSPost2010PropOp29
 70
     1
102
RTVSPost2010Prop30
280
     1
102
RTVSPost2010PropOp30
 70
     1
102
RTVSPost2010Prop31
280
     0
102
RTVSPost2010PropOp31
 70
     1
102
RTVSPost2010Prop32
280
     0
102
RTVSPost2010PropOp32
 70
     1
102
RTVSPost2010Prop33
280
     0
102
RTVSPost2010PropOp33
 70
     1
102
RTVSPost2010Prop34
280
     0
102
RTVSPost2010PropOp34
 70
     1
102
RTVSPost2010Prop35
280
     0
102
RTVSPost2010PropOp35
 70
     1
102
RTVSPost2010Prop36
280
     0
102
RTVSPost2010PropOp36
 70
     1
102
RTVSPost2010Prop37
 90
       50
102
RTVSPost2010PropOp37
 70
     1
102
RTVSPost2010Prop38
140
0.0
102
RTVSPost2010PropOp38
 70
     1
102
RTVSPost2010Prop39
140
1.0
102
RTVSPost2010PropOp39
 70
     1
102
RTVSPost2010Prop40
 90
        0
102
RTVSPost2010PropOp40
 70
     1
102
RTVSPost2010Prop41ColorIndex
 90
       18
102
RTVSPost2010Prop41ColorRGB
 90
        0
102
RTVSPost2010PropOp41
 70
     1
102
RTVSPost2010Prop42
 90
       50
102
RTVSPost2010PropOp42
 70
     1
102
RTVSPost2010Prop43
 90
        3
102
RTVSPost2010PropOp43
 70
     1
102
RTVSPost2010Prop44ColorIndex
 90
        5
102
RTVSPost2010Prop44ColorRGB
 90
      255
102
RTVSPost2010PropOp44
 70
     1
102
RTVSPost2010Prop45
280
     0
102
RTVSPost2010PropOp45
 70
     1
102
RTVSPost2010Prop46
 90
       50
102
RTVSPost2010PropOp46
 70
     1
102
RTVSPost2010Prop47
 90
       50
102
RTVSPost2010PropOp47
 70
     1
102
RTVSPost2010Prop48
 90
       50
102
RTVSPost2010PropOp48
 70
     1
102
RTVSPost2010Prop49
280
     0
102
RTVSPost2010PropOp49
 70
     1
102
RTVSPost2010Prop50
 90
       50
102
RTVSPost2010PropOp50
 70
     1
102
RTVSPost2010Prop51ColorIndex
 90
      256
102
RTVSPost2010Prop51ColorRGB
 90
-16777216
102
RTVSPost2010PropOp51
 70
     0
102
RTVSPost2010Prop52
140
1.0
102
RTVSPost2010PropOp52
 70
     0
102
RTVSPost2010Prop53
 90
        2
102
RTVSPost2010PropOp53
 70
     1
102
RTVSPost2010Prop54
  1
strokes_ogs.tif
102
RTVSPost2010PropOp54
 70
     1
102
RTVSPost2010Prop55
280
     0
102
RTVSPost2010PropOp55
 70
     1
102
RTVSPost2010Prop56
140
1.0
102
RTVSPost2010PropOp56
 70
     1
102
RTVSPost2010Prop57
140
1.0
102
RTVSPost2010PropOp57
 70
     1
102
RTVSPropertyOp0
 70
     1
102
RTVSPropertyOp1
 70
     1
102
RTVSPropertyOp2
 70
     1
102
RTVSPropertyOp3
 70
     1
102
RTVSPropertyOp4
 70
     1
102
RTVSPropertyOp5
 70
     1
102
RTVSPropertyOp6
 70
     1
102
RTVSPropertyOp7
 70
     1
102
RTVSPropertyOp8
 70
     1
102
RTVSPropertyOp9
 70
     1
102
RTVSPropertyOp10
 70
     1
102
RTVSPropertyOp11
 70
     1
102
RTVSPropertyOp12
 70
     1
102
RTVSPropertyOp13
 70
     1
102
RTVSPropertyOp14
 70
     1
102
RTVSPropertyOp15
 70
     1
102
RTVSPropertyOp16
 70
     1
102
RTVSPropertyOp17
 70
     1
102
RTVSPropertyOp18
 70
     1
102
RTVSPropertyOp19
 70
     1
102
RTVSPropertyOp20
 70
     1
102
RTVSPropertyOp21
 70
     1
102
RTVSPropertyOp22
 70
     1
102
RTVSPropertyOp23
 70
     1
102
RTVSPropertyOp24
 70
     1
102
RTVSPropertyOp25
 70
     1
102
RTVSPropertyOp26
 70
     1
102
RTVSPropertyOp27
 70
     1
102
RTVSPropertyOp28
 70
     1
102
RTVSPropertyOp29
 70
     1
102
RTVSPropertyOp30
 70
     1
102
RTVSPropertyOp31
 70
     1
102
RTVSPropertyOp32
 70
     1
102
RTVSPropertyOp33
 70
     1
102
RTVSPropertyOp34
 70
     1
102
RTVSPropertyOp35
 70
     1
102
RTVSPropertyOp36
 70
     1
102
RTVSPropertyOp37
 70
     1
102
RTVSPropertyOp38
 70
     1
102
RTVSPropertyOp39
 70
     1
102
RTVSPropertyOp40
 70
     1
102
RTVSPropertyOp41
 70
     1
102
RTVSPropertyOp42
 70
     1
102
RTVSPropertyOp43
 70
     1
102
RTVSPropertyOp44
 70
     1
102
RTVSPropertyOp45
 70
     1
102
RTVSPropertyOp46
 70
     1
102
RTVSPropertyOp47
 70
     1
102
RTVSPropertyOp48
 70
     1
102
RTVSPropertyOp49
 70
     1
102
RTVSPropertyOp50
 70
     1
102
RTVSPropertyOp51
 70
     0
102
RTVSPropertyOp52
 70
     0
102
RTVSPropertyOp53
 70
     1
102
RTVSPropertyOp54
 70
     1
102
RTVSPropertyOp55
 70
     1
102
RTVSPropertyOp56
 70
     1
102
RTVSPropertyOp57
 70
     1
102
RTVSPropertyOp58
 70
     1
102
RTVSPropertyOp59
 70
     1
102
RTVSPropertyOp60
 70
     1
102
RTVSPropertyOp61
 70
     1
102
RTVSPropertyOp62
 70
     1
  0
XRECORD
  5
82C3
102
{ACAD_REACTORS
330
82C2
102
}
330
82C2
100
AcDbXrecord
280
     1
102
RTVSPost2010Prop28
280
     0
102
RTVSPost2010PropOp28
 70
     1
102
RTVSPost2010Prop29
280
     1
102
RTVSPost2010PropOp29
 70
     1
102
RTVSPost2010Prop30
280
     1
102
RTVSPost2010PropOp30
 70
     1
102
RTVSPost2010Prop31
280
     0
102
RTVSPost2010PropOp31
 70
     1
102
RTVSPost2010Prop32
280
     0
102
RTVSPost2010PropOp32
 70
     1
102
RTVSPost2010Prop33
280
     0
102
RTVSPost2010PropOp33
 70
     1
102
RTVSPost2010Prop34
280
     0
102
RTVSPost2010PropOp34
 70
     1
102
RTVSPost2010Prop35
280
     0
102
RTVSPost2010PropOp35
 70
     1
102
RTVSPost2010Prop36
280
     0
102
RTVSPost2010PropOp36
 70
     1
102
RTVSPost2010Prop37
 90
       50
102
RTVSPost2010PropOp37
 70
     0
102
RTVSPost2010Prop38
140
0.0
102
RTVSPost2010PropOp38
 70
     0
102
RTVSPost2010Prop39
140
1.0
102
RTVSPost2010PropOp39
 70
     0
102
RTVSPost2010Prop40
 90
        0
102
RTVSPost2010PropOp40
 70
     0
102
RTVSPost2010Prop41ColorIndex
 90
       18
102
RTVSPost2010Prop41ColorRGB
 90
        0
102
RTVSPost2010PropOp41
 70
     0
102
RTVSPost2010Prop42
 90
       50
102
RTVSPost2010PropOp42
 70
     0
102
RTVSPost2010Prop43
 90
        3
102
RTVSPost2010PropOp43
 70
     0
102
RTVSPost2010Prop44ColorIndex
 90
        5
102
RTVSPost2010Prop44ColorRGB
 90
      255
102
RTVSPost2010PropOp44
 70
     0
102
RTVSPost2010Prop45
280
     0
102
RTVSPost2010PropOp45
 70
     1
102
RTVSPost2010Prop46
 90
       50
102
RTVSPost2010PropOp46
 70
     0
102
RTVSPost2010Prop47
 90
       50
102
RTVSPost2010PropOp47
 70
     0
102
RTVSPost2010Prop48
 90
       50
102
RTVSPost2010PropOp48
 70
     0
102
RTVSPost2010Prop49
280
     0
102
RTVSPost2010PropOp49
 70
     1
102
RTVSPost2010Prop50
 90
       50
102
RTVSPost2010PropOp50
 70
     0
102
RTVSPost2010Prop51ColorIndex
 90
      256
102
RTVSPost2010Prop51ColorRGB
 90
-16777216
102
RTVSPost2010PropOp51
 70
     0
102
RTVSPost2010Prop52
140
1.0
102
RTVSPost2010PropOp52
 70
     0
102
RTVSPost2010Prop53
 90
        2
102
RTVSPost2010PropOp53
 70
     0
102
RTVSPost2010Prop54
  1
strokes_ogs.tif
102
RTVSPost2010PropOp54
 70
     0
102
RTVSPost2010Prop55
280
     0
102
RTVSPost2010PropOp55
 70
     1
102
RTVSPost2010Prop56
140
1.0
102
RTVSPost2010PropOp56
 70
     0
102
RTVSPost2010Prop57
140
1.0
102
RTVSPost2010PropOp57
 70
     0
102
RTVSPropertyOp0
 70
     0
102
RTVSPropertyOp1
 70
     0
102
RTVSPropertyOp2
 70
     0
102
RTVSPropertyOp3
 70
     0
102
RTVSPropertyOp4
 70
     0
102
RTVSPropertyOp5
 70
     0
102
RTVSPropertyOp6
 70
     0
102
RTVSPropertyOp7
 70
     0
102
RTVSPropertyOp8
 70
     0
102
RTVSPropertyOp9
 70
     0
102
RTVSPropertyOp10
 70
     0
102
RTVSPropertyOp11
 70
     0
102
RTVSPropertyOp12
 70
     0
102
RTVSPropertyOp13
 70
     0
102
RTVSPropertyOp14
 70
     2
102
RTVSPropertyOp15
 70
     0
102
RTVSPropertyOp16
 70
     0
102
RTVSPropertyOp17
 70
     0
102
RTVSPropertyOp18
 70
     0
102
RTVSPropertyOp19
 70
     0
102
RTVSPropertyOp20
 70
     0
102
RTVSPropertyOp21
 70
     0
102
RTVSPropertyOp22
 70
     0
102
RTVSPropertyOp23
 70
     0
102
RTVSPropertyOp24
 70
     0
102
RTVSPropertyOp25
 70
     0
102
RTVSPropertyOp26
 70
     0
102
RTVSPropertyOp27
 70
     0
102
RTVSPropertyOp28
 70
     1
102
RTVSPropertyOp29
 70
     1
102
RTVSPropertyOp30
 70
     1
102
RTVSPropertyOp31
 70
     1
102
RTVSPropertyOp32
 70
     1
102
RTVSPropertyOp33
 70
     1
102
RTVSPropertyOp34
 70
     1
102
RTVSPropertyOp35
 70
     1
102
RTVSPropertyOp36
 70
     1
102
RTVSPropertyOp37
 70
     0
102
RTVSPropertyOp38
 70
     0
102
RTVSPropertyOp39
 70
     0
102
RTVSPropertyOp40
 70
     0
102
RTVSPropertyOp41
 70
     0
102
RTVSPropertyOp42
 70
     0
102
RTVSPropertyOp43
 70
     0
102
RTVSPropertyOp44
 70
     0
102
RTVSPropertyOp45
 70
     1
102
RTVSPropertyOp46
 70
     0
102
RTVSPropertyOp47
 70
     0
102
RTVSPropertyOp48
 70
     0
102
RTVSPropertyOp49
 70
     1
102
RTVSPropertyOp50
 70
     0
102
RTVSPropertyOp51
 70
     0
102
RTVSPropertyOp52
 70
     0
102
RTVSPropertyOp53
 70
     0
102
RTVSPropertyOp54
 70
     0
102
RTVSPropertyOp55
 70
     1
102
RTVSPropertyOp56
 70
     0
102
RTVSPropertyOp57
 70
     0
102
RTVSPropertyOp58
 70
     0
102
RTVSPropertyOp59
 70
     0
102
RTVSPropertyOp60
 70
     0
102
RTVSPropertyOp61
 70
     0
102
RTVSPropertyOp62
 70
     0
  0
XRECORD
  5
82A9
102
{ACAD_REACTORS
330
82A8
102
}
330
82A8
100
AcDbXrecord
280
     1
102
RTVSPost2010Prop28
280
     0
102
RTVSPost2010PropOp28
 70
     1
102
RTVSPost2010Prop29
280
     1
102
RTVSPost2010PropOp29
 70
     1
102
RTVSPost2010Prop30
280
     1
102
RTVSPost2010PropOp30
 70
     1
102
RTVSPost2010Prop31
280
     0
102
RTVSPost2010PropOp31
 70
     1
102
RTVSPost2010Prop32
280
     0
102
RTVSPost2010PropOp32
 70
     1
102
RTVSPost2010Prop33
280
     0
102
RTVSPost2010PropOp33
 70
     1
102
RTVSPost2010Prop34
280
     0
102
RTVSPost2010PropOp34
 70
     1
102
RTVSPost2010Prop35
280
     0
102
RTVSPost2010PropOp35
 70
     1
102
RTVSPost2010Prop36
280
     0
102
RTVSPost2010PropOp36
 70
     1
102
RTVSPost2010Prop37
 90
       50
102
RTVSPost2010PropOp37
 70
     1
102
RTVSPost2010Prop38
140
0.0
102
RTVSPost2010PropOp38
 70
     1
102
RTVSPost2010Prop39
140
1.0
102
RTVSPost2010PropOp39
 70
     1
102
RTVSPost2010Prop40
 90
        0
102
RTVSPost2010PropOp40
 70
     1
102
RTVSPost2010Prop41ColorIndex
 90
       18
102
RTVSPost2010Prop41ColorRGB
 90
        0
102
RTVSPost2010PropOp41
 70
     1
102
RTVSPost2010Prop42
 90
       50
102
RTVSPost2010PropOp42
 70
     1
102
RTVSPost2010Prop43
 90
        3
102
RTVSPost2010PropOp43
 70
     1
102
RTVSPost2010Prop44ColorIndex
 90
        5
102
RTVSPost2010Prop44ColorRGB
 90
      255
102
RTVSPost2010PropOp44
 70
     1
102
RTVSPost2010Prop45
280
     0
102
RTVSPost2010PropOp45
 70
     1
102
RTVSPost2010Prop46
 90
       50
102
RTVSPost2010PropOp46
 70
     1
102
RTVSPost2010Prop47
 90
       50
102
RTVSPost2010PropOp47
 70
     1
102
RTVSPost2010Prop48
 90
       50
102
RTVSPost2010PropOp48
 70
     1
102
RTVSPost2010Prop49
280
     0
102
RTVSPost2010PropOp49
 70
     1
102
RTVSPost2010Prop50
 90
       50
102
RTVSPost2010PropOp50
 70
     1
102
RTVSPost2010Prop51ColorIndex
 90
      256
102
RTVSPost2010Prop51ColorRGB
 90
-16777216
102
RTVSPost2010PropOp51
 70
     0
102
RTVSPost2010Prop52
140
1.0
102
RTVSPost2010PropOp52
 70
     0
102
RTVSPost2010Prop53
 90
        2
102
RTVSPost2010PropOp53
 70
     1
102
RTVSPost2010Prop54
  1
strokes_ogs.tif
102
RTVSPost2010PropOp54
 70
     1
102
RTVSPost2010Prop55
280
     0
102
RTVSPost2010PropOp55
 70
     1
102
RTVSPost2010Prop56
140
1.0
102
RTVSPost2010PropOp56
 70
     1
102
RTVSPost2010Prop57
140
1.0
102
RTVSPost2010PropOp57
 70
     1
102
RTVSPropertyOp0
 70
     1
102
RTVSPropertyOp1
 70
     1
102
RTVSPropertyOp2
 70
     1
102
RTVSPropertyOp3
 70
     1
102
RTVSPropertyOp4
 70
     1
102
RTVSPropertyOp5
 70
     1
102
RTVSPropertyOp6
 70
     1
102
RTVSPropertyOp7
 70
     1
102
RTVSPropertyOp8
 70
     1
102
RTVSPropertyOp9
 70
     1
102
RTVSPropertyOp10
 70
     1
102
RTVSPropertyOp11
 70
     1
102
RTVSPropertyOp12
 70
     1
102
RTVSPropertyOp13
 70
     1
102
RTVSPropertyOp14
 70
     1
102
RTVSPropertyOp15
 70
     1
102
RTVSPropertyOp16
 70
     1
102
RTVSPropertyOp17
 70
     1
102
RTVSPropertyOp18
 70
     1
102
RTVSPropertyOp19
 70
     1
102
RTVSPropertyOp20
 70
     1
102
RTVSPropertyOp21
 70
     1
102
RTVSPropertyOp22
 70
     1
102
RTVSPropertyOp23
 70
     1
102
RTVSPropertyOp24
 70
     1
102
RTVSPropertyOp25
 70
     1
102
RTVSPropertyOp26
 70
     1
102
RTVSPropertyOp27
 70
     1
102
RTVSPropertyOp28
 70
     1
102
RTVSPropertyOp29
 70
     1
102
RTVSPropertyOp30
 70
     1
102
RTVSPropertyOp31
 70
     1
102
RTVSPropertyOp32
 70
     1
102
RTVSPropertyOp33
 70
     1
102
RTVSPropertyOp34
 70
     1
102
RTVSPropertyOp35
 70
     1
102
RTVSPropertyOp36
 70
     1
102
RTVSPropertyOp37
 70
     1
102
RTVSPropertyOp38
 70
     1
102
RTVSPropertyOp39
 70
     1
102
RTVSPropertyOp40
 70
     1
102
RTVSPropertyOp41
 70
     1
102
RTVSPropertyOp42
 70
     1
102
RTVSPropertyOp43
 70
     1
102
RTVSPropertyOp44
 70
     1
102
RTVSPropertyOp45
 70
     1
102
RTVSPropertyOp46
 70
     1
102
RTVSPropertyOp47
 70
     1
102
RTVSPropertyOp48
 70
     1
102
RTVSPropertyOp49
 70
     1
102
RTVSPropertyOp50
 70
     1
102
RTVSPropertyOp51
 70
     0
102
RTVSPropertyOp52
 70
     0
102
RTVSPropertyOp53
 70
     1
102
RTVSPropertyOp54
 70
     1
102
RTVSPropertyOp55
 70
     1
102
RTVSPropertyOp56
 70
     1
102
RTVSPropertyOp57
 70
     1
102
RTVSPropertyOp58
 70
     1
102
RTVSPropertyOp59
 70
     1
102
RTVSPropertyOp60
 70
     1
102
RTVSPropertyOp61
 70
     1
102
RTVSPropertyOp62
 70
     1
  0
XRECORD
  5
82BF
102
{ACAD_REACTORS
330
82BE
102
}
330
82BE
100
AcDbXrecord
280
     1
102
RTVSPost2010Prop28
280
     0
102
RTVSPost2010PropOp28
 70
     1
102
RTVSPost2010Prop29
280
     1
102
RTVSPost2010PropOp29
 70
     1
102
RTVSPost2010Prop30
280
     1
102
RTVSPost2010PropOp30
 70
     1
102
RTVSPost2010Prop31
280
     0
102
RTVSPost2010PropOp31
 70
     1
102
RTVSPost2010Prop32
280
     0
102
RTVSPost2010PropOp32
 70
     1
102
RTVSPost2010Prop33
280
     0
102
RTVSPost2010PropOp33
 70
     1
102
RTVSPost2010Prop34
280
     0
102
RTVSPost2010PropOp34
 70
     1
102
RTVSPost2010Prop35
280
     0
102
RTVSPost2010PropOp35
 70
     1
102
RTVSPost2010Prop36
280
     0
102
RTVSPost2010PropOp36
 70
     1
102
RTVSPost2010Prop37
 90
       50
102
RTVSPost2010PropOp37
 70
     1
102
RTVSPost2010Prop38
140
0.0
102
RTVSPost2010PropOp38
 70
     1
102
RTVSPost2010Prop39
140
1.0
102
RTVSPost2010PropOp39
 70
     1
102
RTVSPost2010Prop40
 90
        0
102
RTVSPost2010PropOp40
 70
     1
102
RTVSPost2010Prop41ColorIndex
 90
       18
102
RTVSPost2010Prop41ColorRGB
 90
        0
102
RTVSPost2010PropOp41
 70
     1
102
RTVSPost2010Prop42
 90
       50
102
RTVSPost2010PropOp42
 70
     1
102
RTVSPost2010Prop43
 90
        3
102
RTVSPost2010PropOp43
 70
     1
102
RTVSPost2010Prop44ColorIndex
 90
        5
102
RTVSPost2010Prop44ColorRGB
 90
      255
102
RTVSPost2010PropOp44
 70
     1
102
RTVSPost2010Prop45
280
     0
102
RTVSPost2010PropOp45
 70
     1
102
RTVSPost2010Prop46
 90
       50
102
RTVSPost2010PropOp46
 70
     1
102
RTVSPost2010Prop47
 90
       50
102
RTVSPost2010PropOp47
 70
     1
102
RTVSPost2010Prop48
 90
       50
102
RTVSPost2010PropOp48
 70
     1
102
RTVSPost2010Prop49
280
     0
102
RTVSPost2010PropOp49
 70
     1
102
RTVSPost2010Prop50
 90
       50
102
RTVSPost2010PropOp50
 70
     1
102
RTVSPost2010Prop51ColorIndex
 90
      256
102
RTVSPost2010Prop51ColorRGB
 90
-16777216
102
RTVSPost2010PropOp51
 70
     0
102
RTVSPost2010Prop52
140
1.0
102
RTVSPost2010PropOp52
 70
     0
102
RTVSPost2010Prop53
 90
        2
102
RTVSPost2010PropOp53
 70
     1
102
RTVSPost2010Prop54
  1
strokes_ogs.tif
102
RTVSPost2010PropOp54
 70
     1
102
RTVSPost2010Prop55
280
     0
102
RTVSPost2010PropOp55
 70
     1
102
RTVSPost2010Prop56
140
1.0
102
RTVSPost2010PropOp56
 70
     1
102
RTVSPost2010Prop57
140
1.0
102
RTVSPost2010PropOp57
 70
     1
102
RTVSPropertyOp0
 70
     1
102
RTVSPropertyOp1
 70
     1
102
RTVSPropertyOp2
 70
     1
102
RTVSPropertyOp3
 70
     1
102
RTVSPropertyOp4
 70
     1
102
RTVSPropertyOp5
 70
     1
102
RTVSPropertyOp6
 70
     1
102
RTVSPropertyOp7
 70
     1
102
RTVSPropertyOp8
 70
     1
102
RTVSPropertyOp9
 70
     1
102
RTVSPropertyOp10
 70
     1
102
RTVSPropertyOp11
 70
     1
102
RTVSPropertyOp12
 70
     1
102
RTVSPropertyOp13
 70
     1
102
RTVSPropertyOp14
 70
     1
102
RTVSPropertyOp15
 70
     1
102
RTVSPropertyOp16
 70
     1
102
RTVSPropertyOp17
 70
     1
102
RTVSPropertyOp18
 70
     1
102
RTVSPropertyOp19
 70
     1
102
RTVSPropertyOp20
 70
     1
102
RTVSPropertyOp21
 70
     1
102
RTVSPropertyOp22
 70
     1
102
RTVSPropertyOp23
 70
     1
102
RTVSPropertyOp24
 70
     1
102
RTVSPropertyOp25
 70
     1
102
RTVSPropertyOp26
 70
     1
102
RTVSPropertyOp27
 70
     1
102
RTVSPropertyOp28
 70
     1
102
RTVSPropertyOp29
 70
     1
102
RTVSPropertyOp30
 70
     1
102
RTVSPropertyOp31
 70
     1
102
RTVSPropertyOp32
 70
     1
102
RTVSPropertyOp33
 70
     1
102
RTVSPropertyOp34
 70
     1
102
RTVSPropertyOp35
 70
     1
102
RTVSPropertyOp36
 70
     1
102
RTVSPropertyOp37
 70
     1
102
RTVSPropertyOp38
 70
     1
102
RTVSPropertyOp39
 70
     1
102
RTVSPropertyOp40
 70
     1
102
RTVSPropertyOp41
 70
     1
102
RTVSPropertyOp42
 70
     1
102
RTVSPropertyOp43
 70
     1
102
RTVSPropertyOp44
 70
     1
102
RTVSPropertyOp45
 70
     1
102
RTVSPropertyOp46
 70
     1
102
RTVSPropertyOp47
 70
     1
102
RTVSPropertyOp48
 70
     1
102
RTVSPropertyOp49
 70
     1
102
RTVSPropertyOp50
 70
     1
102
RTVSPropertyOp51
 70
     0
102
RTVSPropertyOp52
 70
     0
102
RTVSPropertyOp53
 70
     1
102
RTVSPropertyOp54
 70
     1
102
RTVSPropertyOp55
 70
     1
102
RTVSPropertyOp56
 70
     1
102
RTVSPropertyOp57
 70
     1
102
RTVSPropertyOp58
 70
     1
102
RTVSPropertyOp59
 70
     1
102
RTVSPropertyOp60
 70
     1
102
RTVSPropertyOp61
 70
     1
102
RTVSPropertyOp62
 70
     1
  0
XRECORD
  5
82BD
102
{ACAD_REACTORS
330
82BC
102
}
330
82BC
100
AcDbXrecord
280
     1
102
RTVSPost2010Prop28
280
     0
102
RTVSPost2010PropOp28
 70
     1
102
RTVSPost2010Prop29
280
     1
102
RTVSPost2010PropOp29
 70
     1
102
RTVSPost2010Prop30
280
     1
102
RTVSPost2010PropOp30
 70
     1
102
RTVSPost2010Prop31
280
     0
102
RTVSPost2010PropOp31
 70
     1
102
RTVSPost2010Prop32
280
     0
102
RTVSPost2010PropOp32
 70
     1
102
RTVSPost2010Prop33
280
     0
102
RTVSPost2010PropOp33
 70
     1
102
RTVSPost2010Prop34
280
     0
102
RTVSPost2010PropOp34
 70
     1
102
RTVSPost2010Prop35
280
     0
102
RTVSPost2010PropOp35
 70
     1
102
RTVSPost2010Prop36
280
     0
102
RTVSPost2010PropOp36
 70
     1
102
RTVSPost2010Prop37
 90
       50
102
RTVSPost2010PropOp37
 70
     1
102
RTVSPost2010Prop38
140
0.0
102
RTVSPost2010PropOp38
 70
     1
102
RTVSPost2010Prop39
140
1.0
102
RTVSPost2010PropOp39
 70
     1
102
RTVSPost2010Prop40
 90
        0
102
RTVSPost2010PropOp40
 70
     1
102
RTVSPost2010Prop41ColorIndex
 90
       18
102
RTVSPost2010Prop41ColorRGB
 90
        0
102
RTVSPost2010PropOp41
 70
     1
102
RTVSPost2010Prop42
 90
       50
102
RTVSPost2010PropOp42
 70
     1
102
RTVSPost2010Prop43
 90
        3
102
RTVSPost2010PropOp43
 70
     1
102
RTVSPost2010Prop44ColorIndex
 90
        5
102
RTVSPost2010Prop44ColorRGB
 90
      255
102
RTVSPost2010PropOp44
 70
     1
102
RTVSPost2010Prop45
280
     0
102
RTVSPost2010PropOp45
 70
     1
102
RTVSPost2010Prop46
 90
       50
102
RTVSPost2010PropOp46
 70
     1
102
RTVSPost2010Prop47
 90
       50
102
RTVSPost2010PropOp47
 70
     1
102
RTVSPost2010Prop48
 90
       50
102
RTVSPost2010PropOp48
 70
     1
102
RTVSPost2010Prop49
280
     0
102
RTVSPost2010PropOp49
 70
     1
102
RTVSPost2010Prop50
 90
       50
102
RTVSPost2010PropOp50
 70
     1
102
RTVSPost2010Prop51ColorIndex
 90
      256
102
RTVSPost2010Prop51ColorRGB
 90
-16777216
102
RTVSPost2010PropOp51
 70
     0
102
RTVSPost2010Prop52
140
1.0
102
RTVSPost2010PropOp52
 70
     0
102
RTVSPost2010Prop53
 90
        2
102
RTVSPost2010PropOp53
 70
     1
102
RTVSPost2010Prop54
  1
strokes_ogs.tif
102
RTVSPost2010PropOp54
 70
     1
102
RTVSPost2010Prop55
280
     0
102
RTVSPost2010PropOp55
 70
     1
102
RTVSPost2010Prop56
140
1.0
102
RTVSPost2010PropOp56
 70
     1
102
RTVSPost2010Prop57
140
1.0
102
RTVSPost2010PropOp57
 70
     1
102
RTVSPropertyOp0
 70
     1
102
RTVSPropertyOp1
 70
     1
102
RTVSPropertyOp2
 70
     1
102
RTVSPropertyOp3
 70
     1
102
RTVSPropertyOp4
 70
     1
102
RTVSPropertyOp5
 70
     1
102
RTVSPropertyOp6
 70
     1
102
RTVSPropertyOp7
 70
     1
102
RTVSPropertyOp8
 70
     1
102
RTVSPropertyOp9
 70
     1
102
RTVSPropertyOp10
 70
     1
102
RTVSPropertyOp11
 70
     1
102
RTVSPropertyOp12
 70
     1
102
RTVSPropertyOp13
 70
     1
102
RTVSPropertyOp14
 70
     1
102
RTVSPropertyOp15
 70
     1
102
RTVSPropertyOp16
 70
     1
102
RTVSPropertyOp17
 70
     1
102
RTVSPropertyOp18
 70
     1
102
RTVSPropertyOp19
 70
     1
102
RTVSPropertyOp20
 70
     1
102
RTVSPropertyOp21
 70
     1
102
RTVSPropertyOp22
 70
     1
102
RTVSPropertyOp23
 70
     1
102
RTVSPropertyOp24
 70
     1
102
RTVSPropertyOp25
 70
     1
102
RTVSPropertyOp26
 70
     1
102
RTVSPropertyOp27
 70
     1
102
RTVSPropertyOp28
 70
     1
102
RTVSPropertyOp29
 70
     1
102
RTVSPropertyOp30
 70
     1
102
RTVSPropertyOp31
 70
     1
102
RTVSPropertyOp32
 70
     1
102
RTVSPropertyOp33
 70
     1
102
RTVSPropertyOp34
 70
     1
102
RTVSPropertyOp35
 70
     1
102
RTVSPropertyOp36
 70
     1
102
RTVSPropertyOp37
 70
     1
102
RTVSPropertyOp38
 70
     1
102
RTVSPropertyOp39
 70
     1
102
RTVSPropertyOp40
 70
     1
102
RTVSPropertyOp41
 70
     1
102
RTVSPropertyOp42
 70
     1
102
RTVSPropertyOp43
 70
     1
102
RTVSPropertyOp44
 70
     1
102
RTVSPropertyOp45
 70
     1
102
RTVSPropertyOp46
 70
     1
102
RTVSPropertyOp47
 70
     1
102
RTVSPropertyOp48
 70
     1
102
RTVSPropertyOp49
 70
     1
102
RTVSPropertyOp50
 70
     1
102
RTVSPropertyOp51
 70
     0
102
RTVSPropertyOp52
 70
     0
102
RTVSPropertyOp53
 70
     1
102
RTVSPropertyOp54
 70
     1
102
RTVSPropertyOp55
 70
     1
102
RTVSPropertyOp56
 70
     1
102
RTVSPropertyOp57
 70
     1
102
RTVSPropertyOp58
 70
     1
102
RTVSPropertyOp59
 70
     1
102
RTVSPropertyOp60
 70
     1
102
RTVSPropertyOp61
 70
     1
102
RTVSPropertyOp62
 70
     1
  0
XRECORD
  5
82B7
102
{ACAD_REACTORS
330
82B6
102
}
330
82B6
100
AcDbXrecord
280
     1
102
RTVSPost2010Prop28
280
     0
102
RTVSPost2010PropOp28
 70
     1
102
RTVSPost2010Prop29
280
     1
102
RTVSPost2010PropOp29
 70
     1
102
RTVSPost2010Prop30
280
     1
102
RTVSPost2010PropOp30
 70
     1
102
RTVSPost2010Prop31
280
     0
102
RTVSPost2010PropOp31
 70
     1
102
RTVSPost2010Prop32
280
     0
102
RTVSPost2010PropOp32
 70
     1
102
RTVSPost2010Prop33
280
     0
102
RTVSPost2010PropOp33
 70
     1
102
RTVSPost2010Prop34
280
     0
102
RTVSPost2010PropOp34
 70
     1
102
RTVSPost2010Prop35
280
     0
102
RTVSPost2010PropOp35
 70
     1
102
RTVSPost2010Prop36
280
     0
102
RTVSPost2010PropOp36
 70
     1
102
RTVSPost2010Prop37
 90
       50
102
RTVSPost2010PropOp37
 70
     1
102
RTVSPost2010Prop38
140
0.0
102
RTVSPost2010PropOp38
 70
     1
102
RTVSPost2010Prop39
140
1.0
102
RTVSPost2010PropOp39
 70
     1
102
RTVSPost2010Prop40
 90
        0
102
RTVSPost2010PropOp40
 70
     1
102
RTVSPost2010Prop41ColorIndex
 90
       18
102
RTVSPost2010Prop41ColorRGB
 90
        0
102
RTVSPost2010PropOp41
 70
     1
102
RTVSPost2010Prop42
 90
       50
102
RTVSPost2010PropOp42
 70
     1
102
RTVSPost2010Prop43
 90
        3
102
RTVSPost2010PropOp43
 70
     1
102
RTVSPost2010Prop44ColorIndex
 90
        5
102
RTVSPost2010Prop44ColorRGB
 90
      255
102
RTVSPost2010PropOp44
 70
     1
102
RTVSPost2010Prop45
280
     0
102
RTVSPost2010PropOp45
 70
     1
102
RTVSPost2010Prop46
 90
       50
102
RTVSPost2010PropOp46
 70
     1
102
RTVSPost2010Prop47
 90
       50
102
RTVSPost2010PropOp47
 70
     1
102
RTVSPost2010Prop48
 90
       50
102
RTVSPost2010PropOp48
 70
     1
102
RTVSPost2010Prop49
280
     0
102
RTVSPost2010PropOp49
 70
     1
102
RTVSPost2010Prop50
 90
       50
102
RTVSPost2010PropOp50
 70
     1
102
RTVSPost2010Prop51ColorIndex
 90
      256
102
RTVSPost2010Prop51ColorRGB
 90
-16777216
102
RTVSPost2010PropOp51
 70
     0
102
RTVSPost2010Prop52
140
1.0
102
RTVSPost2010PropOp52
 70
     0
102
RTVSPost2010Prop53
 90
        2
102
RTVSPost2010PropOp53
 70
     1
102
RTVSPost2010Prop54
  1
strokes_ogs.tif
102
RTVSPost2010PropOp54
 70
     1
102
RTVSPost2010Prop55
280
     0
102
RTVSPost2010PropOp55
 70
     1
102
RTVSPost2010Prop56
140
1.0
102
RTVSPost2010PropOp56
 70
     1
102
RTVSPost2010Prop57
140
1.0
102
RTVSPost2010PropOp57
 70
     1
102
RTVSPropertyOp0
 70
     1
102
RTVSPropertyOp1
 70
     1
102
RTVSPropertyOp2
 70
     1
102
RTVSPropertyOp3
 70
     1
102
RTVSPropertyOp4
 70
     1
102
RTVSPropertyOp5
 70
     1
102
RTVSPropertyOp6
 70
     1
102
RTVSPropertyOp7
 70
     1
102
RTVSPropertyOp8
 70
     1
102
RTVSPropertyOp9
 70
     1
102
RTVSPropertyOp10
 70
     1
102
RTVSPropertyOp11
 70
     1
102
RTVSPropertyOp12
 70
     1
102
RTVSPropertyOp13
 70
     1
102
RTVSPropertyOp14
 70
     1
102
RTVSPropertyOp15
 70
     1
102
RTVSPropertyOp16
 70
     1
102
RTVSPropertyOp17
 70
     1
102
RTVSPropertyOp18
 70
     1
102
RTVSPropertyOp19
 70
     1
102
RTVSPropertyOp20
 70
     1
102
RTVSPropertyOp21
 70
     1
102
RTVSPropertyOp22
 70
     1
102
RTVSPropertyOp23
 70
     1
102
RTVSPropertyOp24
 70
     1
102
RTVSPropertyOp25
 70
     1
102
RTVSPropertyOp26
 70
     1
102
RTVSPropertyOp27
 70
     1
102
RTVSPropertyOp28
 70
     1
102
RTVSPropertyOp29
 70
     1
102
RTVSPropertyOp30
 70
     1
102
RTVSPropertyOp31
 70
     1
102
RTVSPropertyOp32
 70
     1
102
RTVSPropertyOp33
 70
     1
102
RTVSPropertyOp34
 70
     1
102
RTVSPropertyOp35
 70
     1
102
RTVSPropertyOp36
 70
     1
102
RTVSPropertyOp37
 70
     1
102
RTVSPropertyOp38
 70
     1
102
RTVSPropertyOp39
 70
     1
102
RTVSPropertyOp40
 70
     1
102
RTVSPropertyOp41
 70
     1
102
RTVSPropertyOp42
 70
     1
102
RTVSPropertyOp43
 70
     1
102
RTVSPropertyOp44
 70
     1
102
RTVSPropertyOp45
 70
     1
102
RTVSPropertyOp46
 70
     1
102
RTVSPropertyOp47
 70
     1
102
RTVSPropertyOp48
 70
     1
102
RTVSPropertyOp49
 70
     1
102
RTVSPropertyOp50
 70
     1
102
RTVSPropertyOp51
 70
     0
102
RTVSPropertyOp52
 70
     0
102
RTVSPropertyOp53
 70
     1
102
RTVSPropertyOp54
 70
     1
102
RTVSPropertyOp55
 70
     1
102
RTVSPropertyOp56
 70
     1
102
RTVSPropertyOp57
 70
     1
102
RTVSPropertyOp58
 70
     1
102
RTVSPropertyOp59
 70
     1
102
RTVSPropertyOp60
 70
     1
102
RTVSPropertyOp61
 70
     1
102
RTVSPropertyOp62
 70
     1
  0
XRECORD
  5
82B9
102
{ACAD_REACTORS
330
82B8
102
}
330
82B8
100
AcDbXrecord
280
     1
102
RTVSPost2010Prop28
280
     0
102
RTVSPost2010PropOp28
 70
     1
102
RTVSPost2010Prop29
280
     1
102
RTVSPost2010PropOp29
 70
     1
102
RTVSPost2010Prop30
280
     1
102
RTVSPost2010PropOp30
 70
     1
102
RTVSPost2010Prop31
280
     0
102
RTVSPost2010PropOp31
 70
     1
102
RTVSPost2010Prop32
280
     0
102
RTVSPost2010PropOp32
 70
     1
102
RTVSPost2010Prop33
280
     0
102
RTVSPost2010PropOp33
 70
     1
102
RTVSPost2010Prop34
280
     0
102
RTVSPost2010PropOp34
 70
     1
102
RTVSPost2010Prop35
280
     0
102
RTVSPost2010PropOp35
 70
     1
102
RTVSPost2010Prop36
280
     0
102
RTVSPost2010PropOp36
 70
     1
102
RTVSPost2010Prop37
 90
       50
102
RTVSPost2010PropOp37
 70
     1
102
RTVSPost2010Prop38
140
0.0
102
RTVSPost2010PropOp38
 70
     1
102
RTVSPost2010Prop39
140
1.0
102
RTVSPost2010PropOp39
 70
     1
102
RTVSPost2010Prop40
 90
        0
102
RTVSPost2010PropOp40
 70
     1
102
RTVSPost2010Prop41ColorIndex
 90
       18
102
RTVSPost2010Prop41ColorRGB
 90
        0
102
RTVSPost2010PropOp41
 70
     1
102
RTVSPost2010Prop42
 90
       50
102
RTVSPost2010PropOp42
 70
     1
102
RTVSPost2010Prop43
 90
        3
102
RTVSPost2010PropOp43
 70
     1
102
RTVSPost2010Prop44ColorIndex
 90
        5
102
RTVSPost2010Prop44ColorRGB
 90
      255
102
RTVSPost2010PropOp44
 70
     1
102
RTVSPost2010Prop45
280
     0
102
RTVSPost2010PropOp45
 70
     1
102
RTVSPost2010Prop46
 90
       50
102
RTVSPost2010PropOp46
 70
     1
102
RTVSPost2010Prop47
 90
       50
102
RTVSPost2010PropOp47
 70
     1
102
RTVSPost2010Prop48
 90
       50
102
RTVSPost2010PropOp48
 70
     1
102
RTVSPost2010Prop49
280
     0
102
RTVSPost2010PropOp49
 70
     1
102
RTVSPost2010Prop50
 90
       50
102
RTVSPost2010PropOp50
 70
     1
102
RTVSPost2010Prop51ColorIndex
 90
      256
102
RTVSPost2010Prop51ColorRGB
 90
-16777216
102
RTVSPost2010PropOp51
 70
     0
102
RTVSPost2010Prop52
140
1.0
102
RTVSPost2010PropOp52
 70
     0
102
RTVSPost2010Prop53
 90
        2
102
RTVSPost2010PropOp53
 70
     1
102
RTVSPost2010Prop54
  1
strokes_ogs.tif
102
RTVSPost2010PropOp54
 70
     1
102
RTVSPost2010Prop55
280
     0
102
RTVSPost2010PropOp55
 70
     1
102
RTVSPost2010Prop56
140
1.0
102
RTVSPost2010PropOp56
 70
     1
102
RTVSPost2010Prop57
140
1.0
102
RTVSPost2010PropOp57
 70
     1
102
RTVSPropertyOp0
 70
     1
102
RTVSPropertyOp1
 70
     1
102
RTVSPropertyOp2
 70
     1
102
RTVSPropertyOp3
 70
     1
102
RTVSPropertyOp4
 70
     1
102
RTVSPropertyOp5
 70
     1
102
RTVSPropertyOp6
 70
     1
102
RTVSPropertyOp7
 70
     1
102
RTVSPropertyOp8
 70
     1
102
RTVSPropertyOp9
 70
     1
102
RTVSPropertyOp10
 70
     1
102
RTVSPropertyOp11
 70
     1
102
RTVSPropertyOp12
 70
     1
102
RTVSPropertyOp13
 70
     1
102
RTVSPropertyOp14
 70
     1
102
RTVSPropertyOp15
 70
     1
102
RTVSPropertyOp16
 70
     1
102
RTVSPropertyOp17
 70
     1
102
RTVSPropertyOp18
 70
     1
102
RTVSPropertyOp19
 70
     1
102
RTVSPropertyOp20
 70
     1
102
RTVSPropertyOp21
 70
     1
102
RTVSPropertyOp22
 70
     1
102
RTVSPropertyOp23
 70
     1
102
RTVSPropertyOp24
 70
     1
102
RTVSPropertyOp25
 70
     1
102
RTVSPropertyOp26
 70
     1
102
RTVSPropertyOp27
 70
     1
102
RTVSPropertyOp28
 70
     1
102
RTVSPropertyOp29
 70
     1
102
RTVSPropertyOp30
 70
     1
102
RTVSPropertyOp31
 70
     1
102
RTVSPropertyOp32
 70
     1
102
RTVSPropertyOp33
 70
     1
102
RTVSPropertyOp34
 70
     1
102
RTVSPropertyOp35
 70
     1
102
RTVSPropertyOp36
 70
     1
102
RTVSPropertyOp37
 70
     1
102
RTVSPropertyOp38
 70
     1
102
RTVSPropertyOp39
 70
     1
102
RTVSPropertyOp40
 70
     1
102
RTVSPropertyOp41
 70
     1
102
RTVSPropertyOp42
 70
     1
102
RTVSPropertyOp43
 70
     1
102
RTVSPropertyOp44
 70
     1
102
RTVSPropertyOp45
 70
     1
102
RTVSPropertyOp46
 70
     1
102
RTVSPropertyOp47
 70
     1
102
RTVSPropertyOp48
 70
     1
102
RTVSPropertyOp49
 70
     1
102
RTVSPropertyOp50
 70
     1
102
RTVSPropertyOp51
 70
     0
102
RTVSPropertyOp52
 70
     0
102
RTVSPropertyOp53
 70
     1
102
RTVSPropertyOp54
 70
     1
102
RTVSPropertyOp55
 70
     1
102
RTVSPropertyOp56
 70
     1
102
RTVSPropertyOp57
 70
     1
102
RTVSPropertyOp58
 70
     1
102
RTVSPropertyOp59
 70
     1
102
RTVSPropertyOp60
 70
     1
102
RTVSPropertyOp61
 70
     1
102
RTVSPropertyOp62
 70
     1
  0
XRECORD
  5
82AF
102
{ACAD_REACTORS
330
82AE
102
}
330
82AE
100
AcDbXrecord
280
     1
102
RTVSPost2010Prop28
280
     0
102
RTVSPost2010PropOp28
 70
     1
102
RTVSPost2010Prop29
280
     1
102
RTVSPost2010PropOp29
 70
     1
102
RTVSPost2010Prop30
280
     1
102
RTVSPost2010PropOp30
 70
     1
102
RTVSPost2010Prop31
280
     0
102
RTVSPost2010PropOp31
 70
     1
102
RTVSPost2010Prop32
280
     0
102
RTVSPost2010PropOp32
 70
     1
102
RTVSPost2010Prop33
280
     0
102
RTVSPost2010PropOp33
 70
     1
102
RTVSPost2010Prop34
280
     0
102
RTVSPost2010PropOp34
 70
     1
102
RTVSPost2010Prop35
280
     0
102
RTVSPost2010PropOp35
 70
     1
102
RTVSPost2010Prop36
280
     0
102
RTVSPost2010PropOp36
 70
     1
102
RTVSPost2010Prop37
 90
       50
102
RTVSPost2010PropOp37
 70
     1
102
RTVSPost2010Prop38
140
0.0
102
RTVSPost2010PropOp38
 70
     1
102
RTVSPost2010Prop39
140
1.0
102
RTVSPost2010PropOp39
 70
     1
102
RTVSPost2010Prop40
 90
        0
102
RTVSPost2010PropOp40
 70
     1
102
RTVSPost2010Prop41ColorIndex
 90
       18
102
RTVSPost2010Prop41ColorRGB
 90
        0
102
RTVSPost2010PropOp41
 70
     1
102
RTVSPost2010Prop42
 90
       50
102
RTVSPost2010PropOp42
 70
     1
102
RTVSPost2010Prop43
 90
        3
102
RTVSPost2010PropOp43
 70
     1
102
RTVSPost2010Prop44ColorIndex
 90
        5
102
RTVSPost2010Prop44ColorRGB
 90
      255
102
RTVSPost2010PropOp44
 70
     1
102
RTVSPost2010Prop45
280
     0
102
RTVSPost2010PropOp45
 70
     1
102
RTVSPost2010Prop46
 90
       50
102
RTVSPost2010PropOp46
 70
     1
102
RTVSPost2010Prop47
 90
       50
102
RTVSPost2010PropOp47
 70
     1
102
RTVSPost2010Prop48
 90
       50
102
RTVSPost2010PropOp48
 70
     1
102
RTVSPost2010Prop49
280
     0
102
RTVSPost2010PropOp49
 70
     1
102
RTVSPost2010Prop50
 90
       50
102
RTVSPost2010PropOp50
 70
     1
102
RTVSPost2010Prop51ColorIndex
 90
      256
102
RTVSPost2010Prop51ColorRGB
 90
-16777216
102
RTVSPost2010PropOp51
 70
     0
102
RTVSPost2010Prop52
140
1.0
102
RTVSPost2010PropOp52
 70
     0
102
RTVSPost2010Prop53
 90
        2
102
RTVSPost2010PropOp53
 70
     1
102
RTVSPost2010Prop54
  1
strokes_ogs.tif
102
RTVSPost2010PropOp54
 70
     1
102
RTVSPost2010Prop55
280
     0
102
RTVSPost2010PropOp55
 70
     1
102
RTVSPost2010Prop56
140
1.0
102
RTVSPost2010PropOp56
 70
     1
102
RTVSPost2010Prop57
140
1.0
102
RTVSPost2010PropOp57
 70
     1
102
RTVSPropertyOp0
 70
     1
102
RTVSPropertyOp1
 70
     1
102
RTVSPropertyOp2
 70
     1
102
RTVSPropertyOp3
 70
     1
102
RTVSPropertyOp4
 70
     1
102
RTVSPropertyOp5
 70
     1
102
RTVSPropertyOp6
 70
     1
102
RTVSPropertyOp7
 70
     1
102
RTVSPropertyOp8
 70
     1
102
RTVSPropertyOp9
 70
     1
102
RTVSPropertyOp10
 70
     1
102
RTVSPropertyOp11
 70
     1
102
RTVSPropertyOp12
 70
     1
102
RTVSPropertyOp13
 70
     1
102
RTVSPropertyOp14
 70
     1
102
RTVSPropertyOp15
 70
     1
102
RTVSPropertyOp16
 70
     1
102
RTVSPropertyOp17
 70
     1
102
RTVSPropertyOp18
 70
     1
102
RTVSPropertyOp19
 70
     1
102
RTVSPropertyOp20
 70
     1
102
RTVSPropertyOp21
 70
     1
102
RTVSPropertyOp22
 70
     1
102
RTVSPropertyOp23
 70
     1
102
RTVSPropertyOp24
 70
     1
102
RTVSPropertyOp25
 70
     1
102
RTVSPropertyOp26
 70
     1
102
RTVSPropertyOp27
 70
     1
102
RTVSPropertyOp28
 70
     1
102
RTVSPropertyOp29
 70
     1
102
RTVSPropertyOp30
 70
     1
102
RTVSPropertyOp31
 70
     1
102
RTVSPropertyOp32
 70
     1
102
RTVSPropertyOp33
 70
     1
102
RTVSPropertyOp34
 70
     1
102
RTVSPropertyOp35
 70
     1
102
RTVSPropertyOp36
 70
     1
102
RTVSPropertyOp37
 70
     1
102
RTVSPropertyOp38
 70
     1
102
RTVSPropertyOp39
 70
     1
102
RTVSPropertyOp40
 70
     1
102
RTVSPropertyOp41
 70
     1
102
RTVSPropertyOp42
 70
     1
102
RTVSPropertyOp43
 70
     1
102
RTVSPropertyOp44
 70
     1
102
RTVSPropertyOp45
 70
     1
102
RTVSPropertyOp46
 70
     1
102
RTVSPropertyOp47
 70
     1
102
RTVSPropertyOp48
 70
     1
102
RTVSPropertyOp49
 70
     1
102
RTVSPropertyOp50
 70
     1
102
RTVSPropertyOp51
 70
     0
102
RTVSPropertyOp52
 70
     0
102
RTVSPropertyOp53
 70
     1
102
RTVSPropertyOp54
 70
     1
102
RTVSPropertyOp55
 70
     1
102
RTVSPropertyOp56
 70
     1
102
RTVSPropertyOp57
 70
     1
102
RTVSPropertyOp58
 70
     1
102
RTVSPropertyOp59
 70
     1
102
RTVSPropertyOp60
 70
     1
102
RTVSPropertyOp61
 70
     1
102
RTVSPropertyOp62
 70
     1
  0
XRECORD
  5
82A3
102
{ACAD_REACTORS
330
82A2
102
}
330
82A2
100
AcDbXrecord
280
     1
102
RTVSPost2010Prop28
280
     0
102
RTVSPost2010PropOp28
 70
     1
102
RTVSPost2010Prop29
280
     1
102
RTVSPost2010PropOp29
 70
     1
102
RTVSPost2010Prop30
280
     1
102
RTVSPost2010PropOp30
 70
     1
102
RTVSPost2010Prop31
280
     0
102
RTVSPost2010PropOp31
 70
     1
102
RTVSPost2010Prop32
280
     0
102
RTVSPost2010PropOp32
 70
     1
102
RTVSPost2010Prop33
280
     0
102
RTVSPost2010PropOp33
 70
     1
102
RTVSPost2010Prop34
280
     0
102
RTVSPost2010PropOp34
 70
     1
102
RTVSPost2010Prop35
280
     0
102
RTVSPost2010PropOp35
 70
     1
102
RTVSPost2010Prop36
280
     0
102
RTVSPost2010PropOp36
 70
     1
102
RTVSPost2010Prop37
 90
       50
102
RTVSPost2010PropOp37
 70
     1
102
RTVSPost2010Prop38
140
0.0
102
RTVSPost2010PropOp38
 70
     1
102
RTVSPost2010Prop39
140
1.0
102
RTVSPost2010PropOp39
 70
     1
102
RTVSPost2010Prop40
 90
        0
102
RTVSPost2010PropOp40
 70
     1
102
RTVSPost2010Prop41ColorIndex
 90
       18
102
RTVSPost2010Prop41ColorRGB
 90
        0
102
RTVSPost2010PropOp41
 70
     1
102
RTVSPost2010Prop42
 90
       50
102
RTVSPost2010PropOp42
 70
     1
102
RTVSPost2010Prop43
 90
        3
102
RTVSPost2010PropOp43
 70
     1
102
RTVSPost2010Prop44ColorIndex
 90
        5
102
RTVSPost2010Prop44ColorRGB
 90
      255
102
RTVSPost2010PropOp44
 70
     1
102
RTVSPost2010Prop45
280
     0
102
RTVSPost2010PropOp45
 70
     1
102
RTVSPost2010Prop46
 90
       50
102
RTVSPost2010PropOp46
 70
     1
102
RTVSPost2010Prop47
 90
       50
102
RTVSPost2010PropOp47
 70
     1
102
RTVSPost2010Prop48
 90
       50
102
RTVSPost2010PropOp48
 70
     1
102
RTVSPost2010Prop49
280
     0
102
RTVSPost2010PropOp49
 70
     1
102
RTVSPost2010Prop50
 90
       50
102
RTVSPost2010PropOp50
 70
     1
102
RTVSPost2010Prop51ColorIndex
 90
      256
102
RTVSPost2010Prop51ColorRGB
 90
-16777216
102
RTVSPost2010PropOp51
 70
     0
102
RTVSPost2010Prop52
140
1.0
102
RTVSPost2010PropOp52
 70
     0
102
RTVSPost2010Prop53
 90
        2
102
RTVSPost2010PropOp53
 70
     1
102
RTVSPost2010Prop54
  1
strokes_ogs.tif
102
RTVSPost2010PropOp54
 70
     1
102
RTVSPost2010Prop55
280
     0
102
RTVSPost2010PropOp55
 70
     1
102
RTVSPost2010Prop56
140
1.0
102
RTVSPost2010PropOp56
 70
     1
102
RTVSPost2010Prop57
140
1.0
102
RTVSPost2010PropOp57
 70
     1
102
RTVSPropertyOp0
 70
     1
102
RTVSPropertyOp1
 70
     1
102
RTVSPropertyOp2
 70
     1
102
RTVSPropertyOp3
 70
     1
102
RTVSPropertyOp4
 70
     1
102
RTVSPropertyOp5
 70
     1
102
RTVSPropertyOp6
 70
     1
102
RTVSPropertyOp7
 70
     1
102
RTVSPropertyOp8
 70
     1
102
RTVSPropertyOp9
 70
     1
102
RTVSPropertyOp10
 70
     1
102
RTVSPropertyOp11
 70
     1
102
RTVSPropertyOp12
 70
     1
102
RTVSPropertyOp13
 70
     1
102
RTVSPropertyOp14
 70
     1
102
RTVSPropertyOp15
 70
     1
102
RTVSPropertyOp16
 70
     1
102
RTVSPropertyOp17
 70
     1
102
RTVSPropertyOp18
 70
     1
102
RTVSPropertyOp19
 70
     1
102
RTVSPropertyOp20
 70
     1
102
RTVSPropertyOp21
 70
     1
102
RTVSPropertyOp22
 70
     1
102
RTVSPropertyOp23
 70
     1
102
RTVSPropertyOp24
 70
     1
102
RTVSPropertyOp25
 70
     1
102
RTVSPropertyOp26
 70
     1
102
RTVSPropertyOp27
 70
     1
102
RTVSPropertyOp28
 70
     1
102
RTVSPropertyOp29
 70
     1
102
RTVSPropertyOp30
 70
     1
102
RTVSPropertyOp31
 70
     1
102
RTVSPropertyOp32
 70
     1
102
RTVSPropertyOp33
 70
     1
102
RTVSPropertyOp34
 70
     1
102
RTVSPropertyOp35
 70
     1
102
RTVSPropertyOp36
 70
     1
102
RTVSPropertyOp37
 70
     1
102
RTVSPropertyOp38
 70
     1
102
RTVSPropertyOp39
 70
     1
102
RTVSPropertyOp40
 70
     1
102
RTVSPropertyOp41
 70
     1
102
RTVSPropertyOp42
 70
     1
102
RTVSPropertyOp43
 70
     1
102
RTVSPropertyOp44
 70
     1
102
RTVSPropertyOp45
 70
     1
102
RTVSPropertyOp46
 70
     1
102
RTVSPropertyOp47
 70
     1
102
RTVSPropertyOp48
 70
     1
102
RTVSPropertyOp49
 70
     1
102
RTVSPropertyOp50
 70
     1
102
RTVSPropertyOp51
 70
     0
102
RTVSPropertyOp52
 70
     0
102
RTVSPropertyOp53
 70
     1
102
RTVSPropertyOp54
 70
     1
102
RTVSPropertyOp55
 70
     1
102
RTVSPropertyOp56
 70
     1
102
RTVSPropertyOp57
 70
     1
102
RTVSPropertyOp58
 70
     1
102
RTVSPropertyOp59
 70
     1
102
RTVSPropertyOp60
 70
     1
102
RTVSPropertyOp61
 70
     1
102
RTVSPropertyOp62
 70
     1
  0
XRECORD
  5
82BB
102
{ACAD_REACTORS
330
82BA
102
}
330
82BA
100
AcDbXrecord
280
     1
102
RTVSPost2010Prop28
280
     0
102
RTVSPost2010PropOp28
 70
     1
102
RTVSPost2010Prop29
280
     1
102
RTVSPost2010PropOp29
 70
     1
102
RTVSPost2010Prop30
280
     1
102
RTVSPost2010PropOp30
 70
     1
102
RTVSPost2010Prop31
280
     0
102
RTVSPost2010PropOp31
 70
     1
102
RTVSPost2010Prop32
280
     0
102
RTVSPost2010PropOp32
 70
     1
102
RTVSPost2010Prop33
280
     0
102
RTVSPost2010PropOp33
 70
     1
102
RTVSPost2010Prop34
280
     0
102
RTVSPost2010PropOp34
 70
     1
102
RTVSPost2010Prop35
280
     0
102
RTVSPost2010PropOp35
 70
     1
102
RTVSPost2010Prop36
280
     0
102
RTVSPost2010PropOp36
 70
     1
102
RTVSPost2010Prop37
 90
       50
102
RTVSPost2010PropOp37
 70
     1
102
RTVSPost2010Prop38
140
0.0
102
RTVSPost2010PropOp38
 70
     1
102
RTVSPost2010Prop39
140
1.0
102
RTVSPost2010PropOp39
 70
     1
102
RTVSPost2010Prop40
 90
        0
102
RTVSPost2010PropOp40
 70
     1
102
RTVSPost2010Prop41ColorIndex
 90
       18
102
RTVSPost2010Prop41ColorRGB
 90
        0
102
RTVSPost2010PropOp41
 70
     1
102
RTVSPost2010Prop42
 90
       50
102
RTVSPost2010PropOp42
 70
     1
102
RTVSPost2010Prop43
 90
        3
102
RTVSPost2010PropOp43
 70
     1
102
RTVSPost2010Prop44ColorIndex
 90
        5
102
RTVSPost2010Prop44ColorRGB
 90
      255
102
RTVSPost2010PropOp44
 70
     1
102
RTVSPost2010Prop45
280
     0
102
RTVSPost2010PropOp45
 70
     1
102
RTVSPost2010Prop46
 90
       50
102
RTVSPost2010PropOp46
 70
     1
102
RTVSPost2010Prop47
 90
       50
102
RTVSPost2010PropOp47
 70
     1
102
RTVSPost2010Prop48
 90
       50
102
RTVSPost2010PropOp48
 70
     1
102
RTVSPost2010Prop49
280
     0
102
RTVSPost2010PropOp49
 70
     1
102
RTVSPost2010Prop50
 90
       50
102
RTVSPost2010PropOp50
 70
     1
102
RTVSPost2010Prop51ColorIndex
 90
      256
102
RTVSPost2010Prop51ColorRGB
 90
-16777216
102
RTVSPost2010PropOp51
 70
     0
102
RTVSPost2010Prop52
140
1.0
102
RTVSPost2010PropOp52
 70
     0
102
RTVSPost2010Prop53
 90
        2
102
RTVSPost2010PropOp53
 70
     1
102
RTVSPost2010Prop54
  1
strokes_ogs.tif
102
RTVSPost2010PropOp54
 70
     1
102
RTVSPost2010Prop55
280
     0
102
RTVSPost2010PropOp55
 70
     1
102
RTVSPost2010Prop56
140
1.0
102
RTVSPost2010PropOp56
 70
     1
102
RTVSPost2010Prop57
140
1.0
102
RTVSPost2010PropOp57
 70
     1
102
RTVSPropertyOp0
 70
     1
102
RTVSPropertyOp1
 70
     1
102
RTVSPropertyOp2
 70
     1
102
RTVSPropertyOp3
 70
     1
102
RTVSPropertyOp4
 70
     1
102
RTVSPropertyOp5
 70
     1
102
RTVSPropertyOp6
 70
     1
102
RTVSPropertyOp7
 70
     1
102
RTVSPropertyOp8
 70
     1
102
RTVSPropertyOp9
 70
     1
102
RTVSPropertyOp10
 70
     1
102
RTVSPropertyOp11
 70
     1
102
RTVSPropertyOp12
 70
     1
102
RTVSPropertyOp13
 70
     1
102
RTVSPropertyOp14
 70
     1
102
RTVSPropertyOp15
 70
     1
102
RTVSPropertyOp16
 70
     1
102
RTVSPropertyOp17
 70
     1
102
RTVSPropertyOp18
 70
     1
102
RTVSPropertyOp19
 70
     1
102
RTVSPropertyOp20
 70
     1
102
RTVSPropertyOp21
 70
     1
102
RTVSPropertyOp22
 70
     1
102
RTVSPropertyOp23
 70
     1
102
RTVSPropertyOp24
 70
     1
102
RTVSPropertyOp25
 70
     1
102
RTVSPropertyOp26
 70
     1
102
RTVSPropertyOp27
 70
     1
102
RTVSPropertyOp28
 70
     1
102
RTVSPropertyOp29
 70
     1
102
RTVSPropertyOp30
 70
     1
102
RTVSPropertyOp31
 70
     1
102
RTVSPropertyOp32
 70
     1
102
RTVSPropertyOp33
 70
     1
102
RTVSPropertyOp34
 70
     1
102
RTVSPropertyOp35
 70
     1
102
RTVSPropertyOp36
 70
     1
102
RTVSPropertyOp37
 70
     1
102
RTVSPropertyOp38
 70
     1
102
RTVSPropertyOp39
 70
     1
102
RTVSPropertyOp40
 70
     1
102
RTVSPropertyOp41
 70
     1
102
RTVSPropertyOp42
 70
     1
102
RTVSPropertyOp43
 70
     1
102
RTVSPropertyOp44
 70
     1
102
RTVSPropertyOp45
 70
     1
102
RTVSPropertyOp46
 70
     1
102
RTVSPropertyOp47
 70
     1
102
RTVSPropertyOp48
 70
     1
102
RTVSPropertyOp49
 70
     1
102
RTVSPropertyOp50
 70
     1
102
RTVSPropertyOp51
 70
     0
102
RTVSPropertyOp52
 70
     0
102
RTVSPropertyOp53
 70
     1
102
RTVSPropertyOp54
 70
     1
102
RTVSPropertyOp55
 70
     1
102
RTVSPropertyOp56
 70
     1
102
RTVSPropertyOp57
 70
     1
102
RTVSPropertyOp58
 70
     1
102
RTVSPropertyOp59
 70
     1
102
RTVSPropertyOp60
 70
     1
102
RTVSPropertyOp61
 70
     1
102
RTVSPropertyOp62
 70
     1
  0
ENDSEC
  0
EOF
