  0
SECTION
  2
HEADER
  9
$ACADVER
  1
AC1009
  9
$INSBASE
 10
0.0
 20
0.0
 30
0.0
  9
$EXTMIN
 10
750.0
 20
900.0
 30
0.0
  9
$EXTMAX
 10
5550.0
 20
8359.9567849999985
 30
0.0
  9
$LIMMIN
 10
0.0
 20
0.0
  9
$LIMMAX
 10
297.0
 20
210.0
  9
$ORTHOMODE
 70
     0
  9
$REGENMODE
 70
     1
  9
$FILLMODE
 70
     0
  9
$QTEXTMODE
 70
     0
  9
$MIRRTEXT
 70
     1
  9
$DRAGMODE
 70
     2
  9
$LTSCALE
 40
100.0
  9
$OSMODE
 70
    37
  9
$ATTMODE
 70
     1
  9
$TEXTSIZE
 40
180.0
  9
$TRACEWID
 40
0.05
  9
$TEXTSTYLE
  7
STANDARD
  9
$CLAYER
  8
3
  9
$CELTYPE
  6
BYLAYER
  9
$CECOLOR
 62
   256
  9
$DIMSCALE
 40
30.0
  9
$DIMASZ
 40
2.0
  9
$DIMEXO
 40
0.5
  9
$DIMDLI
 40
10.0
  9
$DIMRND
 40
0.0
  9
$DIMDLE
 40
0.0
  9
$DIMEXE
 40
1.0
  9
$DIMTP
 40
1.0
  9
$DIMTM
 40
1.0
  9
$DIMTXT
 40
3.0
  9
$DIMCEN
 40
0.0
  9
$DIMTSZ
 40
0.0
  9
$DIMTOL
 70
     0
  9
$DIMLIM
 70
     0
  9
$DIMTIH
 70
     0
  9
$DIMTOH
 70
     0
  9
$DIMSE1
 70
     0
  9
$DIMSE2
 70
     0
  9
$DIMTAD
 70
     1
  9
$DIMZIN
 70
     8
  9
$DIMBLK
  1
OPEN30
  9
$DIMASO
 70
     1
  9
$DIMSHO
 70
     1
  9
$DIMPOST
  1

  9
$DIMAPOST
  1

  9
$DIMALT
 70
     0
  9
$DIMALTD
 70
     2
  9
$DIMALTF
 40
0.039
  9
$DIMLFAC
 40
1.0
  9
$DIMTOFL
 70
     1
  9
$DIMTVP
 40
0.0
  9
$DIMTIX
 70
     0
  9
$DIMSOXD
 70
     0
  9
$DIMSAH
 70
     0
  9
$DIMBLK1
  1
OPEN30
  9
$DIMBLK2
  1
OPEN
  9
$DIMSTYLE
  2
IGA
  9
$DIMCLRD
 70
     0
  9
$DIMCLRE
 70
     0
  9
$DIMCLRT
 70
     0
  9
$DIMTFAC
 40
10.0
  9
$DIMGAP
 40
1.0
  9
$LUNITS
 70
     2
  9
$LUPREC
 70
     3
  9
$SKETCHINC
 40
0.1
  9
$FILLETRAD
 40
50.0
  9
$AUNITS
 70
     0
  9
$AUPREC
 70
     0
  9
$MENU
  1
acad
  9
$ELEVATION
 40
0.0
  9
$PELEVATION
 40
0.0
  9
$THICKNESS
 40
0.0
  9
$LIMCHECK
 70
     0
  9
$BLIPMODE
 70
     0
  9
$CHAMFERA
 40
0.5
  9
$CHAMFERB
 40
0.5
  9
$SKPOLY
 70
     0
  9
$TDCREATE
 40
2450738.5990788192
  9
$TDUPDATE
 40
2454953.7721140739
  9
$TDINDWG
 40
0.0073644792
  9
$TDUSRTIMER
 40
0.0073644792
  9
$USRTIMER
 70
     1
  9
$ANGBASE
 50
0.0
  9
$ANGDIR
 70
     0
  9
$PDMODE
 70
     0
  9
$PDSIZE
 40
0.0
  9
$PLINEWID
 40
0.0
  9
$COORDS
 70
     1
  9
$SPLFRAME
 70
     0
  9
$SPLINETYPE
 70
     6
  9
$SPLINESEGS
 70
     8
  9
$ATTDIA
 70
     0
  9
$ATTREQ
 70
     1
  9
$HANDLING
 70
 10241
  9
$HANDSEED
  5
7F26
  9
$SURFTAB1
 70
     6
  9
$SURFTAB2
 70
     6
  9
$SURFTYPE
 70
     6
  9
$SURFU
 70
     6
  9
$SURFV
 70
     6
  9
$UCSNAME
  2

  9
$UCSORG
 10
0.0
 20
0.0
 30
0.0
  9
$UCSXDIR
 10
1.0
 20
0.0
 30
0.0
  9
$UCSYDIR
 10
0.0
 20
1.0
 30
0.0
  9
$PUCSNAME
  2

  9
$PUCSORG
 10
0.0
 20
0.0
 30
0.0
  9
$PUCSXDIR
 10
1.0
 20
0.0
 30
0.0
  9
$PUCSYDIR
 10
0.0
 20
1.0
 30
0.0
  9
$USERI1
 70
     0
  9
$USERI2
 70
     0
  9
$USERI3
 70
     0
  9
$USERI4
 70
     0
  9
$USERI5
 70
     0
  9
$USERR1
 40
0.0
  9
$USERR2
 40
0.0
  9
$USERR3
 40
0.0
  9
$USERR4
 40
0.0
  9
$USERR5
 40
0.0
  9
$WORLDVIEW
 70
     1
  9
$SHADEDGE
 70
     3
  9
$SHADEDIF
 70
    70
  9
$TILEMODE
 70
     1
  9
$MAXACTVP
 70
    16
  9
$PLIMCHECK
 70
     0
  9
$PEXTMIN
 10
1.0000000000000000E+020
 20
1.0000000000000000E+020
 30
1.0000000000000000E+020
  9
$PEXTMAX
 10
-1.0000000000000000E+020
 20
-1.0000000000000000E+020
 30
-1.0000000000000000E+020
  9
$PLIMMIN
 10
0.0
 20
0.0
  9
$PLIMMAX
 10
12.0
 20
9.0
  9
$UNITMODE
 70
     0
  9
$VISRETAIN
 70
     0
  9
$PLINEGEN
 70
     0
  9
$PSLTSCALE
 70
     1
  0
ENDSEC
  0
SECTION
  2
TABLES
  0
TABLE
  2
VPORT
 70
     2
  0
VPORT
  2
*ACTIVE
 70
     0
 10
0.0
 20
0.0
 11
1.0
 21
1.0
 12
9438.4567678319436
 22
4630.0975558305709
 13
0.0
 23
0.0
 14
10.0
 24
10.0
 15
10.0
 25
10.0
 16
0.0
 26
0.0
 36
1.0
 17
0.0
 27
0.0
 37
0.0
 40
7517.4747125171307
 41
3.1666666666666661
 42
50.0
 43
0.0
 44
0.0
 50
0.0
 51
0.0
 71
     0
 72
   100
 73
     1
 74
     0
 75
     0
 76
     0
 77
     0
 78
     0
  0
ENDTAB
  0
TABLE
  2
LTYPE
 70
     2
  0
LTYPE
  2
CONTINUOUS
 70
     0
  3
Solid line
 72
    65
 73
     0
 40
0.0
  0
LTYPE
  2
CENTER
 70
     0
  3
____ _ ____ _ ____ _ ____ _ ____ _ ____ _ ____ 
 72
    65
 73
     4
 40
2.0
 49
1.25
 49
-0.25
 49
0.25
 49
-0.25
  0
ENDTAB
  0
TABLE
  2
LAYER
 70
     6
  0
LAYER
  2
0
 70
     0
 62
    -7
  6
CONTINUOUS
  0
LAYER
  2
3
 70
     0
 62
     2
  6
CONTINUOUS
  0
LAYER
  2
2
 70
     0
 62
     3
  6
CENTER
  0
LAYER
  2
1
 70
     0
 62
     4
  6
CONTINUOUS
  0
LAYER
  2
4
 70
     0
 62
     7
  6
CONTINUOUS
  0
LAYER
  2
DEFPOINTS
 70
     0
 62
     7
  6
CONTINUOUS
  0
ENDTAB
  0
TABLE
  2
STYLE
 70
     1
  0
STYLE
  2
STANDARD
 70
     0
 40
0.0
 41
1.0
 50
0.0
 71
     0
 42
180.0
  3
simplex.shx
  4
extfont.shx
  0
ENDTAB
  0
TABLE
  2
VIEW
 70
     0
  0
ENDTAB
  0
TABLE
  2
UCS
 70
     0
  0
ENDTAB
  0
TABLE
  2
APPID
 70
     1
  0
APPID
  2
ACAD
 70
     0
  0
ENDTAB
  0
TABLE
  2
DIMSTYLE
 70
     1
  0
DIMSTYLE
  2
IGA
 70
     0
  3

  4

  5

  6
OPEN
  7
OPEN
 40
2.0
 41
2.0
 42
0.5
 43
10.0
 44
1.0
 45
0.0
 46
0.0
 47
1.0
 48
1.0
140
3.0
141
0.0
142
0.0
143
0.03937
144
1.0
145
0.0
146
10.0
147
1.0
 71
     0
 72
     0
 73
     0
 74
     0
 75
     0
 76
     0
 77
     1
 78
     8
170
     0
171
     2
172
     0
173
     1
174
     0
175
     0
176
     0
177
     0
178
     0
  0
ENDTAB
  0
ENDSEC
  0
SECTION
  2
BLOCKS
  0
BLOCK
  8
0
  2
$MODEL_SPACE
 70
     0
 10
0.0
 20
0.0
 30
0.0
  3
$MODEL_SPACE
  1

  0
ENDBLK
  5
1B
  8
0
  0
BLOCK
 67
     1
  8
0
  2
$PAPER_SPACE
 70
     0
 10
0.0
 20
0.0
 30
0.0
  3
$PAPER_SPACE
  1

  0
ENDBLK
  5
18
 67
     1
  8
0
  0
BLOCK
  8
0
  2
_OPEN
 70
     0
 10
0.0
 20
0.0
 30
0.0
  3
_OPEN
  1

  0
LINE
  5
7AFE
  8
0
  6
BYBLOCK
 62
     0
 10
-1.0
 20
0.166667
 30
0.0
 11
0.0
 21
0.0
 31
0.0
  0
LINE
  5
7AFF
  8
0
  6
BYBLOCK
 62
     0
 10
0.0
 20
0.0
 30
0.0
 11
-1.0
 21
-0.166667
 31
0.0
  0
LINE
  5
7B00
  8
0
  6
BYBLOCK
 62
     0
 10
0.0
 20
0.0
 30
0.0
 11
-1.0
 21
0.0
 31
0.0
  0
ENDBLK
  5
7B01
  8
0
  0
BLOCK
  8
0
  2
*D1
 70
     1
 10
0.0
 20
0.0
 30
0.0
  3
*D1
  1

  0
LINE
  5
7E96
  8
3
  6
CONTINUOUS
 62
     0
 10
1491.8336509999999
 20
3826.0644950000001
 30
0.0
 11
1491.8336509999999
 21
4057.4324879999999
 31
0.0
  0
LINE
  5
7E97
  8
3
  6
CONTINUOUS
 62
     0
 10
2141.8336509999999
 20
3826.0644950000001
 30
0.0
 11
2141.8336509999999
 21
4057.4324879999999
 31
0.0
  0
LINE
  5
7E98
  8
3
  6
CONTINUOUS
 62
     0
 10
1551.833650999999
 20
4027.4324879999999
 30
0.0
 11
2081.8336509999999
 21
4027.4324879999999
 31
0.0
  0
INSERT
  5
7E99
  8
3
  6
CONTINUOUS
 62
     0
  2
_OPEN
 10
1491.8336509999999
 20
4027.4324879999999
 30
0.0
 41
60.0
 42
60.0
 43
60.0
 50
180.0
  0
INSERT
  5
7E9A
  8
3
  6
CONTINUOUS
 62
     0
  2
_OPEN
 10
2141.8336509999999
 20
4027.4324879999999
 30
0.0
 41
60.0
 42
60.0
 43
60.0
  0
TEXT
  8
3
  40
90
  5
7F17
  62
0
  72
0
  71
0
 10
1619.55
 20
3943.13
 30
0.000000
  1
650
  0
POINT
  5
7E9C
  8
DEFPOINTS
  6
CONTINUOUS
 62
     0
 10
1491.8336509999999
 20
3811.0644950000001
 30
0.0
  0
POINT
  5
7E9D
  8
DEFPOINTS
  6
CONTINUOUS
 62
     0
 10
2141.8336509999999
 20
3811.0644950000001
 30
0.0
  0
POINT
  5
7E9E
  8
DEFPOINTS
  6
CONTINUOUS
 62
     0
 10
2141.8336509999999
 20
4027.4324879999999
 30
0.0
  0
ENDBLK
  5
7CA9
  8
0
  0
BLOCK
  8
0
  2
*D2
 70
     1
 10
0.0
 20
0.0
 30
0.0
  3
*D2
  1

  0
LINE
  5
7E9F
  8
3
  6
CONTINUOUS
 62
     0
 10
1491.8336509999999
 20
3826.0644950000001
 30
0.0
 11
1491.8336509999999
 21
4245.409959999999
 31
0.0
  0
LINE
  5
7EA0
  8
3
  6
CONTINUOUS
 62
     0
 10
2111.8336509999999
 20
4085.4665639999989
 30
0.0
 11
2111.8336509999999
 21
4245.409959999999
 31
0.0
  0
LINE
  5
7EA1
  8
3
  6
CONTINUOUS
 62
     0
 10
1551.833650999999
 20
4215.40996
 30
0.0
 11
2051.8336509999999
 21
4215.40996
 31
0.0
  0
INSERT
  5
7EA2
  8
3
  6
CONTINUOUS
 62
     0
  2
_OPEN
 10
1491.8336509999999
 20
4215.40996
 30
0.0
 41
60.0
 42
60.0
 43
60.0
 50
180.0
  0
INSERT
  5
7EA3
  8
3
  6
CONTINUOUS
 62
     0
  2
_OPEN
 10
2111.8336509999999
 20
4215.40996
 30
0.0
 41
60.0
 42
60.0
 43
60.0
  0
TEXT
  8
3
  40
90
  5
7F18
  62
0
  72
0
  71
0
 10
1619.55
 20
4131.11
 30
0.000000
  1
620
  0
POINT
  5
7EA5
  8
DEFPOINTS
  6
CONTINUOUS
 62
     0
 10
1491.8336509999999
 20
3811.0644950000001
 30
0.0
  0
POINT
  5
7EA6
  8
DEFPOINTS
  6
CONTINUOUS
 62
     0
 10
2111.8336509999999
 20
4070.4665639999998
 30
0.0
  0
POINT
  5
7EA7
  8
DEFPOINTS
  6
CONTINUOUS
 62
     0
 10
2111.8336509999999
 20
4215.40996
 30
0.0
  0
ENDBLK
  5
7C9E
  8
0
  0
BLOCK
  8
0
  2
*D3
 70
     1
 10
0.0
 20
0.0
 30
0.0
  3
*D3
  1

  0
LINE
  5
7EA8
  8
3
  6
CONTINUOUS
 62
     0
 10
2196.8336509999999
 20
3811.0644950000001
 30
0.0
 11
2847.7918020000011
 21
3811.0644950000001
 31
0.0
  0
LINE
  5
7EA9
  8
3
  6
CONTINUOUS
 62
     0
 10
2732.6927759999999
 20
3326.0644950000001
 30
0.0
 11
2847.7918020000011
 21
3326.0644950000001
 31
0.0
  0
LINE
  5
7EAA
  8
3
  6
CONTINUOUS
 62
     0
 10
2817.7918020000002
 20
3751.0644950000001
 30
0.0
 11
2817.7918020000002
 21
3386.0644950000001
 31
0.0
  0
INSERT
  5
7EAB
  8
3
  6
CONTINUOUS
 62
     0
  2
_OPEN
 10
2817.7918020000002
 20
3811.0644950000001
 30
0.0
 41
60.0
 42
60.0
 43
60.0
 50
90.0
  0
INSERT
  5
7EAC
  8
3
  6
CONTINUOUS
 62
     0
  2
_OPEN
 10
2817.7918020000002
 20
3326.0644950000001
 30
0.0
 41
60.0
 42
60.0
 43
60.0
 50
270.0
  0
TEXT
  8
3
  40
90
  5
7F19
  62
0
  72
0
  71
0
 10
2562.79
 20
3406.27
 30
0.000000
  1
485
  0
POINT
  5
7EAE
  8
DEFPOINTS
  6
CONTINUOUS
 62
     0
 10
2181.8336509999999
 20
3811.0644950000001
 30
0.0
  0
POINT
  5
7EAF
  8
DEFPOINTS
  6
CONTINUOUS
 62
     0
 10
2717.6927759999999
 20
3326.0644950000001
 30
0.0
  0
POINT
  5
7EB0
  8
DEFPOINTS
  6
CONTINUOUS
 62
     0
 10
2817.7918020000002
 20
3326.0644950000001
 30
0.0
  0
ENDBLK
  5
7B34
  8
0
  0
BLOCK
  8
0
  2
*D4
 70
     1
 10
0.0
 20
0.0
 30
0.0
  3
*D4
  1

  0
LINE
  5
7EB1
  8
3
  6
CONTINUOUS
 62
     0
 10
2556.8336509999999
 20
2756.0644950000001
 30
0.0
 11
2847.7918019999988
 21
2756.0644950000001
 31
0.0
  0
LINE
  5
7EB2
  8
3
  6
CONTINUOUS
 62
     0
 10
2817.7918020000002
 20
3266.0644950000001
 30
0.0
 11
2817.7918019999988
 21
2816.0644950000001
 31
0.0
  0
INSERT
  5
7EB3
  8
3
  6
CONTINUOUS
 62
     0
  2
_OPEN
 10
2817.7918020000002
 20
3326.0644950000001
 30
0.0
 41
60.0
 42
60.0
 43
60.0
 50
90.0
  0
INSERT
  5
7EB4
  8
3
  6
CONTINUOUS
 62
     0
  2
_OPEN
 10
2817.7918019999988
 20
2756.0644950000001
 30
0.0
 41
60.0
 42
60.0
 43
60.0
 50
270.0
  0
TEXT
  8
3
  40
90
  5
7F1A
  62
0
  72
0
  71
0
 10
2562.79
 20
2881.76
 30
0.000000
  1
570
  0
POINT
  5
7EB6
  8
DEFPOINTS
  6
CONTINUOUS
 62
     0
 10
2717.6927759999999
 20
3326.0644950000001
 30
0.0
  0
POINT
  5
7EB7
  8
DEFPOINTS
  6
CONTINUOUS
 62
     0
 10
2541.8336509999999
 20
2756.0644950000001
 30
0.0
  0
POINT
  5
7EB8
  8
DEFPOINTS
  6
CONTINUOUS
 62
     0
 10
2817.7918019999988
 20
2756.0644950000001
 30
0.0
  0
ENDBLK
  5
7B40
  8
0
  0
BLOCK
  8
0
  2
*D5
 70
     1
 10
0.0
 20
0.0
 30
0.0
  3
*D5
  1

  0
LINE
  5
7EB9
  8
3
  6
CONTINUOUS
 62
     0
 10
4941.1932109999998
 20
3826.0644950000001
 30
0.0
 11
4941.1932109999998
 21
3921.7638059999999
 31
0.0
  0
LINE
  5
7EBA
  8
3
  6
CONTINUOUS
 62
     0
 10
4466.1932109999998
 20
3826.0644950000001
 30
0.0
 11
4466.1932109999998
 21
3921.7638059999999
 31
0.0
  0
LINE
  5
7EBB
  8
3
  6
CONTINUOUS
 62
     0
 10
4881.1932109999998
 20
3891.7638059999999
 30
0.0
 11
4526.1932109999989
 21
3891.7638059999999
 31
0.0
  0
INSERT
  5
7EBC
  8
3
  6
CONTINUOUS
 62
     0
  2
_OPEN
 10
4941.1932109999998
 20
3891.7638059999999
 30
0.0
 41
60.0
 42
60.0
 43
60.0
  0
INSERT
  5
7EBD
  8
3
  6
CONTINUOUS
 62
     0
  2
_OPEN
 10
4466.1932109999998
 20
3891.7638059999999
 30
0.0
 41
60.0
 42
60.0
 43
60.0
 50
180.0
  0
TEXT
  8
3
  40
90
  5
7F1B
  62
0
  72
0
  71
0
 10
4491.91
 20
3807.46
 30
0.000000
  1
475
  0
POINT
  5
7EBF
  8
DEFPOINTS
  6
CONTINUOUS
 62
     0
 10
4941.1932109999998
 20
3811.0644950000001
 30
0.0
  0
POINT
  5
7EC0
  8
DEFPOINTS
  6
CONTINUOUS
 62
     0
 10
4466.1932109999998
 20
3811.0644950000001
 30
0.0
  0
POINT
  5
7EC1
  8
DEFPOINTS
  6
CONTINUOUS
 62
     0
 10
4466.1932109999998
 20
3891.7638059999999
 30
0.0
  0
ENDBLK
  5
7B83
  8
0
  0
BLOCK
  8
0
  2
*D6
 70
     1
 10
0.0
 20
0.0
 30
0.0
  3
*D6
  1

  0
LINE
  5
7EC2
  8
3
  6
CONTINUOUS
 62
     0
 10
4959.6932109999998
 20
3661.0644950000001
 30
0.0
 11
5238.1704730000001
 21
3661.0644949999992
 31
0.0
  0
LINE
  5
7EC3
  8
3
  6
CONTINUOUS
 62
     0
 10
4959.6932109999998
 20
2991.0644950000001
 30
0.0
 11
5238.1704730000001
 21
2991.0644949999992
 31
0.0
  0
LINE
  5
7EC4
  8
3
  6
CONTINUOUS
 62
     0
 10
5208.1704730000001
 20
3601.0644950000001
 30
0.0
 11
5208.1704730000001
 21
3051.0644949999992
 31
0.0
  0
INSERT
  5
7EC5
  8
3
  6
CONTINUOUS
 62
     0
  2
_OPEN
 10
5208.1704730000001
 20
3661.0644949999992
 30
0.0
 41
60.0
 42
60.0
 43
60.0
 50
90.0
  0
INSERT
  5
7EC6
  8
3
  6
CONTINUOUS
 62
     0
  2
_OPEN
 10
5208.1704730000001
 20
2991.0644949999992
 30
0.0
 41
60.0
 42
60.0
 43
60.0
 50
270.0
  0
TEXT
  8
3
  40
90
  5
7F1C
  62
0
  72
0
  71
0
 10
4953.17
 20
3168.53
 30
0.000000
  1
φ670
  0
POINT
  5
7EC8
  8
DEFPOINTS
  6
CONTINUOUS
 62
     0
 10
4944.6932109999998
 20
3661.0644950000001
 30
0.0
  0
POINT
  5
7EC9
  8
DEFPOINTS
  6
CONTINUOUS
 62
     0
 10
4944.6932109999998
 20
2991.0644950000001
 30
0.0
  0
POINT
  5
7ECA
  8
DEFPOINTS
  6
CONTINUOUS
 62
     0
 10
5208.1704730000001
 20
2991.0644949999992
 30
0.0
  0
ENDBLK
  5
7CEA
  8
0
  0
BLOCK
  8
0
  2
*D7
 70
     1
 10
0.0
 20
0.0
 30
0.0
  3
*D7
  1

  0
LINE
  5
7ECB
  8
3
  6
CONTINUOUS
 62
     0
 10
4223.6932109999989
 20
3871.0644950000001
 30
0.0
 11
4223.6932109999989
 21
4126.3275400000011
 31
0.0
  0
LINE
  5
7ECC
  8
3
  6
CONTINUOUS
 62
     0
 10
4643.6932109999998
 20
4096.3275399999993
 30
0.0
 11
4283.6932109999998
 21
4096.3275399999993
 31
0.0
  0
INSERT
  5
7ECD
  8
3
  6
CONTINUOUS
 62
     0
  2
_OPEN
 10
4703.6932109999998
 20
4096.3275399999993
 30
0.0
 41
60.0
 42
60.0
 43
60.0
  0
INSERT
  5
7ECE
  8
3
  6
CONTINUOUS
 62
     0
  2
_OPEN
 10
4223.6932109999989
 20
4096.3275399999993
 30
0.0
 41
60.0
 42
60.0
 43
60.0
 50
180.0
  0
TEXT
  8
3
  40
90
  5
7F1D
  62
0
  72
0
  71
0
 10
4283.69
 20
4087.03
 30
0.000000
  1
MAX
  0
TEXT
  8
3
  40
90
  5
7F1E
  62
0
  72
0
  71
0
 10
4283.69
 20
3970.03
 30
0.000000
  1
530
  0
POINT
  5
7ED0
  8
DEFPOINTS
  6
CONTINUOUS
 62
     0
 10
4703.6932109999998
 20
4031.6723379999999
 30
0.0
  0
POINT
  5
7ED1
  8
DEFPOINTS
  6
CONTINUOUS
 62
     0
 10
4223.6932109999989
 20
3856.0644950000001
 30
0.0
  0
POINT
  5
7ED2
  8
DEFPOINTS
  6
CONTINUOUS
 62
     0
 10
4223.6932109999989
 20
4096.3275399999993
 30
0.0
  0
ENDBLK
  5
7D1A
  8
0
  0
BLOCK
  8
0
  2
*D8
 70
     1
 10
0.0
 20
0.0
 30
0.0
  3
*D8
  1

  0
LINE
  5
7ED3
  8
3
  6
CONTINUOUS
 62
     0
 10
1131.833650999999
 20
6295.9051689999997
 30
0.0
 11
1131.833650999999
 21
6430.6971779999994
 31
0.0
  0
LINE
  5
7ED4
  8
3
  6
CONTINUOUS
 62
     0
 10
2541.8336509999999
 20
6295.9051689999997
 30
0.0
 11
2541.8336509999999
 21
6430.6971779999994
 31
0.0
  0
LINE
  5
7ED5
  8
3
  6
CONTINUOUS
 62
     0
 10
1191.8336509999999
 20
6400.6971780000003
 30
0.0
 11
2481.8336509999999
 21
6400.6971780000003
 31
0.0
  0
INSERT
  5
7ED6
  8
3
  6
CONTINUOUS
 62
     0
  2
_OPEN
 10
1131.833650999999
 20
6400.6971780000003
 30
0.0
 41
60.0
 42
60.0
 43
60.0
 50
180.0
  0
INSERT
  5
7ED7
  8
3
  6
CONTINUOUS
 62
     0
  2
_OPEN
 10
2541.8336509999999
 20
6400.6971780000003
 30
0.0
 41
60.0
 42
60.0
 43
60.0
  0
TEXT
  8
3
  40
90
  5
7F1F
  62
0
  72
0
  71
0
 10
1647.22
 20
6316.40
 30
0.000000
  1
1410
  0
POINT
  5
7ED9
  8
DEFPOINTS
  6
CONTINUOUS
 62
     0
 10
1131.833650999999
 20
6280.9051689999997
 30
0.0
  0
POINT
  5
7EDA
  8
DEFPOINTS
  6
CONTINUOUS
 62
     0
 10
2541.8336509999999
 20
6280.9051689999997
 30
0.0
  0
POINT
  5
7EDB
  8
DEFPOINTS
  6
CONTINUOUS
 62
     0
 10
2541.8336509999999
 20
6400.6971780000003
 30
0.0
  0
ENDBLK
  5
7BEB
  8
0
  0
BLOCK
  8
0
  2
*D9
 70
     1
 10
0.0
 20
0.0
 30
0.0
  3
*D9
  1

  0
LINE
  5
7EDC
  8
3
  6
CONTINUOUS
 62
     0
 10
2556.8336509999999
 20
6280.9051689999997
 30
0.0
 11
2797.986648000001
 21
6280.9051689999997
 31
0.0
  0
LINE
  5
7EDD
  8
3
  6
CONTINUOUS
 62
     0
 10
2556.8336509999999
 20
5580.9051689999997
 30
0.0
 11
2797.986648000001
 21
5580.9051689999997
 31
0.0
  0
LINE
  5
7EDE
  8
3
  6
CONTINUOUS
 62
     0
 10
2767.986648000001
 20
6220.9051689999988
 30
0.0
 11
2767.986648000001
 21
5640.9051689999988
 31
0.0
  0
INSERT
  5
7EDF
  8
3
  6
CONTINUOUS
 62
     0
  2
_OPEN
 10
2767.986648000001
 20
6280.9051689999997
 30
0.0
 41
60.0
 42
60.0
 43
60.0
 50
90.0
  0
INSERT
  5
7EE0
  8
3
  6
CONTINUOUS
 62
     0
  2
_OPEN
 10
2767.986648000001
 20
5580.9051689999997
 30
0.0
 41
60.0
 42
60.0
 43
60.0
 50
270.0
  0
TEXT
  8
3
  40
90
  5
7F20
  62
0
  72
0
  71
0
 10
2512.99
 20
5765.92
 30
0.000000
  1
700
  0
POINT
  5
7EE2
  8
DEFPOINTS
  6
CONTINUOUS
 62
     0
 10
2541.8336509999999
 20
6280.9051689999997
 30
0.0
  0
POINT
  5
7EE3
  8
DEFPOINTS
  6
CONTINUOUS
 62
     0
 10
2541.8336509999999
 20
5580.9051689999997
 30
0.0
  0
POINT
  5
7EE4
  8
DEFPOINTS
  6
CONTINUOUS
 62
     0
 10
2767.986648000001
 20
5580.9051689999997
 30
0.0
  0
ENDBLK
  5
7BF8
  8
0
  0
BLOCK
  8
0
  2
*D10
 70
     1
 10
0.0
 20
0.0
 30
0.0
  3
*D10
  1

  0
LINE
  5
7CD6
  8
0
  6
BYBLOCK
 62
     0
 10
4703.6932109999998
 20
4046.6723379999999
 30
0.0
 11
4703.6932109999998
 21
4126.3275400000011
 31
0.0
  0
LINE
  5
7CD7
  8
0
  6
BYBLOCK
 62
     0
 10
4944.6932109999998
 20
3676.0644950000001
 30
0.0
 11
4944.6932109999998
 21
4126.3275400000011
 31
0.0
  0
LINE
  5
7CD8
  8
0
  6
BYBLOCK
 62
     0
 10
4763.6932109999989
 20
4096.3275399999993
 30
0.0
 11
4884.6932109999998
 21
4096.3275399999993
 31
0.0
  0
TEXT
  5
7CD9
  8
3
 62
     0
 10
4723.0796228998233
 20
4145.4668098800403
 30
0.0
 40
90.0
  1
241
  0
INSERT
  5
7CDA
  8
0
  6
BYBLOCK
 62
     0
  2
_OPEN
 10
4703.6932109999998
 20
4096.3275399999993
 30
0.0
 41
60.0
 42
60.0
 43
60.0
 50
180.0
  0
INSERT
  5
7CDB
  8
0
  6
BYBLOCK
 62
     0
  2
_OPEN
 10
4944.6932109999998
 20
4096.3275399999993
 30
0.0
 41
60.0
 42
60.0
 43
60.0
  0
POINT
  5
7CDC
  8
DEFPOINTS
  6
BYBLOCK
 62
     0
 10
4703.6932109999998
 20
4031.6723379999999
 30
0.0
  0
POINT
  5
7CDD
  8
DEFPOINTS
  6
BYBLOCK
 62
     0
 10
4944.6932109999998
 20
3661.0644950000001
 30
0.0
  0
POINT
  5
7CDE
  8
DEFPOINTS
  6
BYBLOCK
 62
     0
 10
4944.6932109999998
 20
4096.3275399999993
 30
0.0
  0
ENDBLK
  5
7CDF
  8
0
  0
BLOCK
  8
0
  2
*D11
 70
     1
 10
0.0
 20
0.0
 30
0.0
  3
*D11
  1

  0
LINE
  5
7EE5
  8
3
 62
     0
 10
1131.833650999999
 20
2546.0644950000001
 30
0.0
 11
1131.833650999999
 21
2320.6836760591068
 31
0.0
  0
LINE
  5
7EE6
  8
3
 62
     0
 10
2111.8336509999999
 20
2546.0644950000001
 30
0.0
 11
2111.8336509999999
 21
2320.6836760591068
 31
0.0
  0
LINE
  5
7EE7
  8
3
 62
     0
 10
1191.8336509999999
 20
2350.6836760591059
 30
0.0
 11
2051.8336509999999
 21
2350.6836760591059
 31
0.0
  0
INSERT
  5
7EE8
  8
3
 62
     0
  2
_OPEN
 10
1131.833650999999
 20
2350.6836760591059
 30
0.0
 41
60.0
 42
60.0
 43
60.0
 50
180.0
  0
INSERT
  5
7EE9
  8
3
 62
     0
  2
_OPEN
 10
2111.8336509999999
 20
2350.6836760591059
 30
0.0
 41
60.0
 42
60.0
 43
60.0
  0
TEXT
  8
3
  40
90
  5
7F21
  62
0
  72
0
  71
0
 10
1441.83
 20
2266.38
 30
0.000000
  1
980
  0
POINT
  5
7EEB
  8
DEFPOINTS
 62
     0
 10
1131.833650999999
 20
2561.0644950000001
 30
0.0
  0
POINT
  5
7EEC
  8
DEFPOINTS
 62
     0
 10
2111.8336509999999
 20
2561.0644950000001
 30
0.0
  0
POINT
  5
7EED
  8
DEFPOINTS
 62
     0
 10
2111.8336509999999
 20
2350.6836760591059
 30
0.0
  0
ENDBLK
  5
7D2E
  8
0
  0
BLOCK
  8
0
  2
*D12
 70
     1
 10
0.0
 20
0.0
 30
0.0
  3
*D12
  1

  0
LINE
  5
7EEE
  8
3
 62
     0
 10
2111.8336509999999
 20
2546.0644950000001
 30
0.0
 11
2111.8336509999999
 21
2320.6836760591068
 31
0.0
  0
LINE
  5
7EEF
  8
3
 62
     0
 10
2541.8336509999999
 20
2546.0644950000001
 30
0.0
 11
2541.8336509999999
 21
2320.6836760591068
 31
0.0
  0
LINE
  5
7EF0
  8
3
 62
     0
 10
2171.8336509999999
 20
2350.6836760591059
 30
0.0
 11
2481.8336509999999
 21
2350.6836760591059
 31
0.0
  0
INSERT
  5
7EF1
  8
3
 62
     0
  2
_OPEN
 10
2111.8336509999999
 20
2350.6836760591059
 30
0.0
 41
60.0
 42
60.0
 43
60.0
 50
180.0
  0
INSERT
  5
7EF2
  8
3
 62
     0
  2
_OPEN
 10
2541.8336509999999
 20
2350.6836760591059
 30
0.0
 41
60.0
 42
60.0
 43
60.0
  0
TEXT
  8
3
  40
90
  5
7F22
  62
0
  72
0
  71
0
 10
2146.83
 20
2266.38
 30
0.000000
  1
430
  0
POINT
  5
7EF4
  8
DEFPOINTS
 62
     0
 10
2111.8336509999999
 20
2561.0644950000001
 30
0.0
  0
POINT
  5
7EF5
  8
DEFPOINTS
 62
     0
 10
2541.8336509999999
 20
2561.0644950000001
 30
0.0
  0
POINT
  5
7EF6
  8
DEFPOINTS
 62
     0
 10
2541.8336509999999
 20
2350.6836760591059
 30
0.0
  0
ENDBLK
  5
7D3B
  8
0
  0
BLOCK
  8
0
  2
*D13
 70
     1
 10
0.0
 20
0.0
 30
0.0
  3
*D13
  1

  0
LINE
  5
7EF7
  8
3
 62
     0
 10
4292.6932109999989
 20
2546.0644950000001
 30
0.0
 11
4292.6932109999989
 21
2320.6836760591068
 31
0.0
  0
LINE
  5
7EF8
  8
3
 62
     0
 10
4703.6932109999998
 20
2546.0644950000001
 30
0.0
 11
4703.6932109999998
 21
2320.6836760591068
 31
0.0
  0
LINE
  5
7EF9
  8
3
 62
     0
 10
4352.6932109999998
 20
2350.6836760591059
 30
0.0
 11
4643.6932109999998
 21
2350.6836760591059
 31
0.0
  0
INSERT
  5
7EFA
  8
3
 62
     0
  2
_OPEN
 10
4292.6932109999989
 20
2350.6836760591059
 30
0.0
 41
60.0
 42
60.0
 43
60.0
 50
180.0
  0
INSERT
  5
7EFB
  8
3
 62
     0
  2
_OPEN
 10
4703.6932109999998
 20
2350.6836760591059
 30
0.0
 41
60.0
 42
60.0
 43
60.0
  0
TEXT
  8
3
  40
90
  5
7F23
  62
0
  72
0
  71
0
 10
4318.19
 20
2266.38
 30
0.000000
  1
411
  0
POINT
  5
7EFD
  8
DEFPOINTS
 62
     0
 10
4292.6932109999989
 20
2561.0644950000001
 30
0.0
  0
POINT
  5
7EFE
  8
DEFPOINTS
 62
     0
 10
4703.6932109999998
 20
2561.0644950000001
 30
0.0
  0
POINT
  5
7EFF
  8
DEFPOINTS
 62
     0
 10
4703.6932109999998
 20
2350.6836760591059
 30
0.0
  0
ENDBLK
  5
7D48
  8
0
  0
BLOCK
  8
0
  2
*D14
 70
     1
 10
0.0
 20
0.0
 30
0.0
  3
*D14
  1

  0
LINE
  5
7F00
  8
3
 62
     0
 10
4703.6932109999998
 20
2546.0644950000001
 30
0.0
 11
4703.6932109999998
 21
2320.6836760591068
 31
0.0
  0
LINE
  5
7F01
  8
3
 62
     0
 10
4992.6932109999989
 20
2546.0644950000001
 30
0.0
 11
4992.6932109999989
 21
2320.6836760591068
 31
0.0
  0
LINE
  5
7F02
  8
3
 62
     0
 10
4763.6932109999989
 20
2350.6836760591059
 30
0.0
 11
4932.6932109999998
 21
2350.6836760591059
 31
0.0
  0
INSERT
  5
7F03
  8
3
 62
     0
  2
_OPEN
 10
4703.6932109999998
 20
2350.6836760591059
 30
0.0
 41
60.0
 42
60.0
 43
60.0
 50
180.0
  0
INSERT
  5
7F04
  8
3
 62
     0
  2
_OPEN
 10
4992.6932109999989
 20
2350.6836760591059
 30
0.0
 41
60.0
 42
60.0
 43
60.0
  0
TEXT
  8
3
  40
90
  5
7F24
  62
0
  72
0
  71
0
 10
4668.19
 20
2266.38
 30
0.000000
  1
289
  0
POINT
  5
7F06
  8
DEFPOINTS
 62
     0
 10
4703.6932109999998
 20
2561.0644950000001
 30
0.0
  0
POINT
  5
7F07
  8
DEFPOINTS
 62
     0
 10
4992.6932109999989
 20
2561.0644950000001
 30
0.0
  0
POINT
  5
7F08
  8
DEFPOINTS
 62
     0
 10
4992.6932109999989
 20
2350.6836760591059
 30
0.0
  0
ENDBLK
  5
7D57
  8
0
  0
BLOCK
  8
0
  2
_DOT
 70
     0
 10
0.0
 20
0.0
 30
0.0
  3
_DOT
  1

  0
POLYLINE
  5
7D5B
  8
0
  6
BYBLOCK
 62
     0
 66
     1
 10
0.0
 20
0.0
 30
0.0
 70
     1
 40
0.5
 41
0.5
  0
VERTEX
  5
7F09
  8
0
  6
BYBLOCK
 62
     0
 10
-0.25
 20
0.0
 30
0.0
 42
1.0
  0
VERTEX
  5
7F0A
  8
0
  6
BYBLOCK
 62
     0
 10
0.25
 20
0.0
 30
0.0
 42
1.0
  0
SEQEND
  5
7F0B
  8
0
  6
BYBLOCK
 62
     0
  0
LINE
  5
7D5F
  8
0
  6
BYBLOCK
 62
     0
 10
-0.5
 20
0.0
 30
0.0
 11
-1.0
 21
0.0
 31
0.0
  0
ENDBLK
  5
7D60
  8
0
  0
BLOCK
  8
0
  2
*D16
 70
     1
 10
0.0
 20
0.0
 30
0.0
  3
*D16
  1

  0
LINE
  5
7F0C
  8
3
 62
     0
 10
2556.8336509999999
 20
2661.0644950000001
 30
0.0
 11
2849.9732573031979
 21
2661.0644950000001
 31
0.0
  0
LINE
  5
7F0D
  8
3
 62
     0
 10
2556.8336509999999
 20
2561.0644950000001
 30
0.0
 11
2849.9732573031979
 21
2561.0644950000001
 31
0.0
  0
LINE
  5
7F0E
  8
3
 62
     0
 10
2819.9732573031979
 20
2721.0644950000001
 30
0.0
 11
2819.9732573031979
 21
2781.0644950000001
 31
0.0
  0
LINE
  5
7F0F
  8
3
 62
     0
 10
2819.9732573031979
 20
2501.0644950000001
 30
0.0
 11
2819.9732573031979
 21
2166.7787807142849
 31
0.0
  0
LINE
  5
7F10
  8
3
 62
     0
 10
2819.9732573031979
 20
2661.0644950000001
 30
0.0
 11
2819.9732573031979
 21
2561.0644950000001
 31
0.0
  0
INSERT
  5
7F11
  8
3
 62
     0
  2
_DOT
 10
2819.9732573031979
 20
2661.0644950000001
 30
0.0
 41
60.0
 42
60.0
 43
60.0
 50
270.0
  0
INSERT
  5
7F12
  8
3
 62
     0
  2
_OPEN
 10
2819.9732573031979
 20
2561.0644950000001
 30
0.0
 41
60.0
 42
60.0
 43
60.0
 50
90.0
  0
TEXT
  8
3
  40
90
  5
7F25
  62
0
  72
0
  71
0
 10
2564.97
 20
2144.62
 30
0.000000
  1
100
  0
POINT
  5
7F14
  8
DEFPOINTS
 62
     0
 10
2541.8336509999999
 20
2661.0644950000001
 30
0.0
  0
POINT
  5
7F15
  8
DEFPOINTS
 62
     0
 10
2541.8336509999999
 20
2561.0644950000001
 30
0.0
  0
POINT
  5
7F16
  8
DEFPOINTS
 62
     0
 10
2819.9732573031979
 20
2561.0644950000001
 30
0.0
  0
ENDBLK
  5
7D6E
  8
0
  0
BLOCK
  8
0
  2
*D17
 70
     1
 10
0.0
 20
0.0
 30
0.0
  3
*D17
  1

  0
LINE
  5
7D72
  8
0
  6
BYBLOCK
 62
     0
 10
2556.8336509999999
 20
2661.0644950000001
 30
0.0
 11
2849.9732573031979
 21
2661.0644950000001
 31
0.0
  0
LINE
  5
7D73
  8
0
  6
BYBLOCK
 62
     0
 10
2556.8336509999999
 20
2756.0644950000001
 30
0.0
 11
2849.9732573031979
 21
2756.0644950000001
 31
0.0
  0
LINE
  5
7D74
  8
0
  6
BYBLOCK
 62
     0
 10
2819.9732573031979
 20
2601.0644950000001
 30
0.0
 11
2819.9732573031979
 21
2541.0644950000001
 31
0.0
  0
LINE
  5
7D75
  8
0
  6
BYBLOCK
 62
     0
 10
2819.9732573031979
 20
2816.0644950000001
 30
0.0
 11
2819.9732573031979
 21
2876.0644949999992
 31
0.0
  0
TEXT
  5
7D76
  8
3
 62
     0
 10
2993.5446858746259
 20
2577.8502092857138
 30
0.0
 40
90.0
  1
(95)
 50
90.0
  0
LINE
  5
7D77
  8
0
  6
BYBLOCK
 62
     0
 10
2819.9732573031979
 20
2661.0644950000001
 30
0.0
 11
2819.9732573031979
 21
2756.0644950000001
 31
0.0
  0
INSERT
  5
7D78
  8
0
  6
BYBLOCK
 62
     0
  2
_DOT
 10
2819.9732573031979
 20
2661.0644950000001
 30
0.0
 41
60.0
 42
60.0
 43
60.0
 50
90.0
  0
INSERT
  5
7D79
  8
0
  6
BYBLOCK
 62
     0
  2
_OPEN
 10
2819.9732573031979
 20
2756.0644950000001
 30
0.0
 41
60.0
 42
60.0
 43
60.0
 50
270.0
  0
POINT
  5
7D7A
  8
DEFPOINTS
  6
BYBLOCK
 62
     0
 10
2541.8336509999999
 20
2661.0644950000001
 30
0.0
  0
POINT
  5
7D7B
  8
DEFPOINTS
  6
BYBLOCK
 62
     0
 10
2541.8336509999999
 20
2756.0644950000001
 30
0.0
  0
POINT
  5
7D7C
  8
DEFPOINTS
  6
BYBLOCK
 62
     0
 10
2819.9732573031979
 20
2756.0644950000001
 30
0.0
  0
ENDBLK
  5
7D7D
  8
0
  0
BLOCK
  8
0
  2
*D18
 70
     1
 10
0.0
 20
0.0
 30
0.0
  3
*D18
  1

  0
LINE
  5
7E7F
  8
3
 62
     0
 10
2111.8336509999999
 20
4085.4665639999989
 30
0.0
 11
2111.8336509999999
 21
4245.409959999999
 31
0.0
  0
LINE
  5
7E80
  8
3
 62
     0
 10
2565.0880980000002
 20
3306.0644950000001
 30
0.0
 11
2565.0880980000002
 21
4245.409959999999
 31
0.0
  0
LINE
  5
7E81
  8
3
 62
     0
 10
2171.8336509999999
 20
4215.40996
 30
0.0
 11
2505.0880980000002
 21
4215.40996
 31
0.0
  0
INSERT
  5
7E82
  8
3
 62
     0
  2
_OPEN30
 10
2111.8336509999999
 20
4215.40996
 30
0.0
 41
60.0
 42
60.0
 43
60.0
 50
180.0
  0
INSERT
  5
7E83
  8
3
 62
     0
  2
_OPEN30
 10
2565.0880980000002
 20
4215.40996
 30
0.0
 41
60.0
 42
60.0
 43
60.0
  0
TEXT
  5
7E84
  8
3
 62
     0
 10
2222.7465887857138
 20
4245.409959999999
 30
0.0
 40
90.0
  1
452
  0
POINT
  5
7E85
  8
DEFPOINTS
 62
     0
 10
2111.8336509999999
 20
4070.4665639999998
 30
0.0
  0
POINT
  5
7E86
  8
DEFPOINTS
 62
     0
 10
2565.0880980000002
 20
3291.0644950000001
 30
0.0
  0
POINT
  5
7E87
  8
DEFPOINTS
 62
     0
 10
2565.0880980000002
 20
4215.40996
 30
0.0
  0
ENDBLK
  5
7DA4
  8
0
  0
BLOCK
  8
0
  2
_OPEN30
 70
     0
 10
0.0
 20
0.0
 30
0.0
  3
_OPEN30
  1

  0
LINE
  5
7DAF
  8
0
  6
BYBLOCK
 62
     0
 10
-1.0
 20
0.26794919
 30
0.0
 11
0.0
 21
0.0
 31
0.0
  0
LINE
  5
7DB0
  8
0
  6
BYBLOCK
 62
     0
 10
0.0
 20
0.0
 30
0.0
 11
-1.0
 21
-0.26794919
 31
0.0
  0
LINE
  5
7DB1
  8
0
  6
BYBLOCK
 62
     0
 10
0.0
 20
0.0
 30
0.0
 11
-1.0
 21
0.0
 31
0.0
  0
ENDBLK
  5
7DB3
  8
0
  0
BLOCK
  8
0
  2
_OPEN90
 70
     0
 10
0.0
 20
0.0
 30
0.0
  3
_OPEN90
  1

  0
LINE
  5
7DB5
  8
0
  6
BYBLOCK
 62
     0
 10
-0.5
 20
0.5
 30
0.0
 11
0.0
 21
0.0
 31
0.0
  0
LINE
  5
7DB6
  8
0
  6
BYBLOCK
 62
     0
 10
0.0
 20
0.0
 30
0.0
 11
-0.5
 21
-0.5
 31
0.0
  0
LINE
  5
7DB7
  8
0
  6
BYBLOCK
 62
     0
 10
0.0
 20
0.0
 30
0.0
 11
-1.0
 21
0.0
 31
0.0
  0
ENDBLK
  5
7DB9
  8
0
  0
ENDSEC
  0
SECTION
  2
ENTITIES
  0
LINE
  5
7A6F
  8
1
  6
CONTINUOUS
 10
1228.9847600000001
 20
5683.6370859999997
 30
0.0
 11
1228.9847600000001
 21
6168.6370859999997
 31
0.0
  0
LINE
  5
7A70
  8
1
  6
CONTINUOUS
 10
1552.9847600000001
 20
5683.6370859999997
 30
0.0
 11
1552.9847600000001
 21
5754.4051689999988
 31
0.0
  0
LINE
  5
7A71
  8
1
  6
CONTINUOUS
 10
1131.833650999999
 20
6280.9051689999997
 30
0.0
 11
1131.833650999999
 21
5580.9051689999997
 31
0.0
  0
LINE
  5
7A72
  8
1
  6
CONTINUOUS
 10
2541.8336509999999
 20
5580.9051689999997
 30
0.0
 11
2541.8336509999999
 21
5754.4051689999988
 31
0.0
  0
LINE
  5
7A73
  8
1
  6
CONTINUOUS
 10
2132.8336509999999
 20
5616.9051689999988
 30
0.0
 11
2132.8336509999999
 21
5754.4051689999988
 31
0.0
  0
LINE
  5
7A74
  8
1
  6
CONTINUOUS
 10
2090.8336509999999
 20
5616.9051689999988
 30
0.0
 11
2090.8336509999999
 21
5754.4051689999988
 31
0.0
  0
LINE
  5
7A77
  8
1
  6
CONTINUOUS
 10
2261.8336509999999
 20
5580.9051689999997
 30
0.0
 11
2541.8336509999999
 21
5580.9051689999997
 31
0.0
  0
LINE
  5
7A78
  8
1
  6
CONTINUOUS
 10
2451.8336509999999
 20
5651.9051689999988
 30
0.0
 11
1181.8336509999999
 21
5651.9051689999988
 31
0.0
  0
LINE
  5
7A79
  8
1
  6
CONTINUOUS
 10
2451.8336509999999
 20
5511.9051689999997
 30
0.0
 11
1181.8336509999999
 21
5511.9051689999997
 31
0.0
  0
LINE
  5
7A7A
  8
1
  6
CONTINUOUS
 10
1131.833650999999
 20
2756.0644950000001
 30
0.0
 11
2541.8336509999999
 21
2756.0644950000001
 31
0.0
  0
LINE
  5
7A7B
  8
1
  6
CONTINUOUS
 10
2541.8336509999999
 20
2856.0644950000001
 30
0.0
 11
1131.833650999999
 21
2856.0644950000001
 31
0.0
  0
LINE
  5
7A7C
  8
1
  6
CONTINUOUS
 10
2451.8336509999999
 20
3856.0644950000001
 30
0.0
 11
2011.8336509999999
 21
3856.0644950000001
 31
0.0
  0
ARC
  5
7A7D
  8
1
  6
CONTINUOUS
 10
2076.8336509999999
 20
3291.0644950000001
 30
0.0
 40
488.25444700000003
 50
274.51398799999993
 51
7.3523789999999991
  0
ARC
  5
7A7E
  8
1
  6
CONTINUOUS
 10
2138.8336509999999
 20
3299.0644950000001
 30
0.0
 40
425.74044800000001
 50
7.3523789999999991
 51
89.596259000000003
  0
LINE
  5
7A7F
  8
1
  6
CONTINUOUS
 10
2541.8336509999999
 20
2661.0644950000001
 30
0.0
 11
1131.833650999999
 21
2661.0644950000001
 31
0.0
  0
LINE
  5
7A80
  8
1
  6
CONTINUOUS
 10
1131.833650999999
 20
2561.0644950000001
 30
0.0
 11
2541.8336509999999
 21
2561.0644950000001
 31
0.0
  0
LINE
  5
7A84
  8
1
  6
CONTINUOUS
 10
1181.8336509999999
 20
3156.0644950000001
 30
0.0
 11
2011.8336509999999
 21
3856.0644950000001
 31
0.0
  0
LINE
  5
7A85
  8
1
  6
CONTINUOUS
 10
1491.8336509999999
 20
3811.0644950000001
 30
0.0
 11
1507.8336509999999
 21
3326.0644950000001
 31
0.0
  0
LINE
  5
7A86
  8
1
  6
CONTINUOUS
 10
1544.9847600000001
 20
2896.0644950000001
 30
0.0
 11
1236.9847600000001
 21
2896.0644950000001
 31
0.0
  0
ARC
  5
7A87
  8
1
  6
CONTINUOUS
 10
1390.9847600000001
 20
3056.0644950000001
 30
0.0
 40
162.0
 50
324.972283
 51
215.02771699999991
  0
LINE
  5
7A88
  8
2
  6
CENTER
 10
1470.9847600000001
 20
3056.0644950000001
 30
0.0
 11
1310.9847600000001
 21
3056.0644950000001
 31
0.0
  0
CIRCLE
  5
7A89
  8
1
  6
CONTINUOUS
 10
1390.9847600000001
 20
3056.0644950000001
 30
0.0
 40
80.0
  0
LINE
  5
7A8A
  8
1
  6
CONTINUOUS
 10
1356.2273399999999
 20
3128.1194860000001
 30
0.0
 11
2046.663489
 21
3461.1676029999999
 31
0.0
  0
LINE
  5
7A8B
  8
1
  6
CONTINUOUS
 10
1181.8336509999999
 20
2856.0644950000001
 30
0.0
 11
1181.8336509999999
 21
3156.0644950000001
 31
0.0
  0
LINE
  5
7A8C
  8
1
  6
CONTINUOUS
 10
1131.833650999999
 20
2856.0644950000001
 30
0.0
 11
1131.833650999999
 21
2756.0644950000001
 31
0.0
  0
LINE
  5
7A8D
  8
1
  6
CONTINUOUS
 10
1236.9847600000001
 20
2856.0644950000001
 30
0.0
 11
1236.9847600000001
 21
2914.0644950000001
 31
0.0
  0
LINE
  5
7A8E
  8
1
  6
CONTINUOUS
 10
1236.9847600000001
 20
2896.0644950000001
 30
0.0
 11
1236.9847600000001
 21
2914.0644950000001
 31
0.0
  0
LINE
  5
7A8F
  8
1
  6
CONTINUOUS
 10
1236.9847600000001
 20
2914.0644950000001
 30
0.0
 11
1258.327094
 21
2963.0809279999999
 31
0.0
  0
LINE
  5
7A90
  8
1
  6
CONTINUOUS
 10
1131.833650999999
 20
2661.0644950000001
 30
0.0
 11
1131.833650999999
 21
2561.0644950000001
 31
0.0
  0
LINE
  5
7A91
  8
2
  6
CENTER
 10
1390.9847600000001
 20
3136.0644950000001
 30
0.0
 11
1390.9847600000001
 21
2976.0644950000001
 31
0.0
  0
ARC
  5
7A92
  8
1
  6
CONTINUOUS
 10
2070.8336509999999
 20
3367.0644950000001
 30
0.0
 40
564.49092099999984
 50
184.16516399999989
 51
274.51398799999993
  0
LINE
  5
7A93
  8
1
  6
CONTINUOUS
 10
1412.116538
 20
2978.9059050000001
 30
0.0
 11
2151.455735999999
 21
3181.392139
 31
0.0
  0
LINE
  5
7A94
  8
1
  6
CONTINUOUS
 10
1544.9847600000001
 20
2856.0644950000001
 30
0.0
 11
1544.9847600000001
 21
2914.0644950000001
 31
0.0
  0
LINE
  5
7A95
  8
1
  6
CONTINUOUS
 10
1544.9847600000001
 20
2914.0644950000001
 30
0.0
 11
1523.642425
 21
2963.0809279999999
 31
0.0
  0
CIRCLE
  5
7A96
  8
1
  6
CONTINUOUS
 10
2111.8336509999999
 20
3326.0644950000001
 30
0.0
 40
150.0
  0
LINE
  5
7A97
  8
2
  6
CENTER
 10
2111.8336509999999
 20
6186.3329960000001
 30
0.0
 11
2111.8336509999999
 21
5405.1331992402338
 31
0.0
  0
LINE
  5
7A98
  8
2
  6
CENTER
 10
5014.4838049999998
 20
3326.0644950000001
 30
0.0
 11
4146.7419699999991
 21
3326.0644950000001
 31
0.0
  0
LINE
  5
7A99
  8
1
  6
CONTINUOUS
 10
1228.9847600000001
 20
5683.6370859999997
 30
0.0
 11
1552.9847600000001
 21
5683.6370859999997
 31
0.0
  0
LINE
  5
7A9A
  8
1
  6
CONTINUOUS
 10
1310.9847600000001
 20
5616.9051689999988
 30
0.0
 11
1470.9847600000001
 21
5616.9051689999988
 31
0.0
  0
LINE
  5
7A9B
  8
1
  6
CONTINUOUS
 10
1310.9847600000001
 20
5546.9051689999997
 30
0.0
 11
1470.9847600000001
 21
5546.9051689999997
 31
0.0
  0
LINE
  5
7A9C
  8
1
  6
CONTINUOUS
 10
1181.8336509999999
 20
5511.9051689999997
 30
0.0
 11
1181.8336509999999
 21
5651.9051689999988
 31
0.0
  0
LINE
  5
7A9D
  8
1
  6
CONTINUOUS
 10
1131.833650999999
 20
5580.9051689999997
 30
0.0
 11
1310.9847600000001
 21
5580.9051689999997
 31
0.0
  0
LINE
  5
7A9E
  8
1
  6
CONTINUOUS
 10
1310.9847600000001
 20
5546.9051689999997
 30
0.0
 11
1310.9847600000001
 21
5616.9051689999988
 31
0.0
  0
LINE
  5
7A9F
  8
1
  6
CONTINUOUS
 10
1369.9847600000001
 20
5616.9051689999988
 30
0.0
 11
1369.9847600000001
 21
5683.6370859999997
 31
0.0
  0
LINE
  5
7AA0
  8
1
  6
CONTINUOUS
 10
2181.8336509999999
 20
3811.0644950000001
 30
0.0
 11
1451.8336509999999
 21
3811.0644950000001
 31
0.0
  0
LINE
  5
7AA1
  8
1
  6
CONTINUOUS
 10
2141.8336509999999
 20
3781.0644950000001
 30
0.0
 11
1492.8233419999999
 21
3781.0644950000001
 31
0.0
  0
LINE
  5
7AA2
  8
1
  6
CONTINUOUS
 10
2141.8336509999999
 20
3724.7943729999988
 30
0.0
 11
2141.8336509999999
 21
3811.0644950000001
 31
0.0
  0
LINE
  5
7AA3
  8
1
  6
CONTINUOUS
 10
1470.9847600000001
 20
5580.9051689999997
 30
0.0
 11
1961.8336509999999
 21
5580.9051689999997
 31
0.0
  0
LINE
  5
7AA4
  8
1
  6
CONTINUOUS
 10
1470.9847600000001
 20
5546.9051689999997
 30
0.0
 11
1470.9847600000001
 21
5616.9051689999988
 31
0.0
  0
LINE
  5
7AA5
  8
1
  6
CONTINUOUS
 10
1411.9847600000001
 20
5616.9051689999988
 30
0.0
 11
1411.9847600000001
 21
5683.6370859999997
 31
0.0
  0
LINE
  5
7AA6
  8
1
  6
CONTINUOUS
 10
1961.8336509999999
 20
5546.9051689999997
 30
0.0
 11
2261.8336509999999
 21
5546.9051689999997
 31
0.0
  0
LINE
  5
7AA7
  8
1
  6
CONTINUOUS
 10
1961.8336509999999
 20
5616.9051689999988
 30
0.0
 11
2261.8336509999999
 21
5616.9051689999988
 31
0.0
  0
LINE
  5
7AA8
  8
1
  6
CONTINUOUS
 10
2261.8336509999999
 20
5546.9051689999997
 30
0.0
 11
2261.8336509999999
 21
5616.9051689999988
 31
0.0
  0
LINE
  5
7AA9
  8
1
  6
CONTINUOUS
 10
1961.8336509999999
 20
5546.9051689999997
 30
0.0
 11
1961.8336509999999
 21
5616.9051689999988
 31
0.0
  0
LINE
  5
7AAC
  8
1
  6
CONTINUOUS
 10
4292.6932109999989
 20
2856.0644950000001
 30
0.0
 11
4992.6932109999989
 21
2856.0644950000001
 31
0.0
  0
LINE
  5
7AAD
  8
1
  6
CONTINUOUS
 10
4292.6932109999989
 20
2756.0644950000001
 30
0.0
 11
4992.6932109999989
 21
2756.0644950000001
 31
0.0
  0
LINE
  5
7AAE
  8
1
  6
CONTINUOUS
 10
4423.6932109999989
 20
3811.0644950000001
 30
0.0
 11
4983.6932109999998
 21
3811.0644950000001
 31
0.0
  0
LINE
  5
7AAF
  8
1
  6
CONTINUOUS
 10
4466.1932109999998
 20
3771.0644950000001
 30
0.0
 11
4941.1932109999998
 21
3771.0644950000001
 31
0.0
  0
LINE
  5
7AB0
  8
1
  6
CONTINUOUS
 10
4292.6932109999989
 20
2561.0644950000001
 30
0.0
 11
4992.6932109999989
 21
2561.0644950000001
 31
0.0
  0
LINE
  5
7AB1
  8
1
  6
CONTINUOUS
 10
4292.6932109999989
 20
2661.0644950000001
 30
0.0
 11
4992.6932109999989
 21
2661.0644950000001
 31
0.0
  0
LINE
  5
7AB3
  8
1
  6
CONTINUOUS
 10
4363.6932109999998
 20
3856.0644950000001
 30
0.0
 11
4363.6932109999998
 21
2856.0644950000001
 31
0.0
  0
LINE
  5
7AB4
  8
1
  6
CONTINUOUS
 10
4223.6932109999989
 20
3856.0644950000001
 30
0.0
 11
4223.6932109999989
 21
2856.0644950000001
 31
0.0
  0
LINE
  5
7AB5
  8
1
  6
CONTINUOUS
 10
4466.1932109999998
 20
3811.0644950000001
 30
0.0
 11
4466.1932109999998
 21
2856.0644950000001
 31
0.0
  0
LINE
  5
7AB6
  8
1
  6
CONTINUOUS
 10
2451.8336509999999
 20
2856.0644950000001
 30
0.0
 11
2451.8336509999999
 21
3856.0644950000001
 31
0.0
  0
LINE
  5
7AB7
  8
1
  6
CONTINUOUS
 10
2541.8336509999999
 20
2756.0644950000001
 30
0.0
 11
2541.8336509999999
 21
2856.0644950000001
 31
0.0
  0
LINE
  5
7AB8
  8
1
  6
CONTINUOUS
 10
2541.8336509999999
 20
2561.0644950000001
 30
0.0
 11
2541.8336509999999
 21
2661.0644950000001
 31
0.0
  0
LINE
  5
7AB9
  8
1
  6
CONTINUOUS
 10
4328.6932109999998
 20
3136.0644950000001
 30
0.0
 11
4328.6932109999998
 21
2976.0644950000001
 31
0.0
  0
LINE
  5
7ABA
  8
1
  6
CONTINUOUS
 10
4258.6932109999989
 20
3136.0644950000001
 30
0.0
 11
4258.6932109999989
 21
2976.0644950000001
 31
0.0
  0
LINE
  5
7ABB
  8
1
  6
CONTINUOUS
 10
4223.6932109999989
 20
2856.0644950000001
 30
0.0
 11
4292.6932109999989
 21
2856.0644950000001
 31
0.0
  0
LINE
  5
7ABC
  8
1
  6
CONTINUOUS
 10
4292.6932109999989
 20
2856.0644950000001
 30
0.0
 11
4292.6932109999989
 21
2756.0644950000001
 31
0.0
  0
LINE
  5
7ABD
  8
1
  6
CONTINUOUS
 10
4258.6932109999989
 20
2976.0644950000001
 30
0.0
 11
4328.6932109999998
 21
2976.0644950000001
 31
0.0
  0
LINE
  5
7ABE
  8
1
  6
CONTINUOUS
 10
4292.6932109999989
 20
2661.0644950000001
 30
0.0
 11
4292.6932109999989
 21
2561.0644950000001
 31
0.0
  0
LINE
  5
7AC1
  8
1
  6
CONTINUOUS
 10
4328.6932109999998
 20
3347.0644950000001
 30
0.0
 11
4466.1932109999998
 21
3347.0644950000001
 31
0.0
  0
LINE
  5
7AC2
  8
1
  6
CONTINUOUS
 10
4328.6932109999998
 20
3305.0644949999992
 30
0.0
 11
4466.1932109999998
 21
3305.0644949999992
 31
0.0
  0
LINE
  5
7AC3
  8
1
  6
CONTINUOUS
 10
4328.6932109999998
 20
3077.0644950000001
 30
0.0
 11
4466.1932109999998
 21
3077.0644950000001
 31
0.0
  0
LINE
  5
7AC4
  8
1
  6
CONTINUOUS
 10
4328.6932109999998
 20
3035.0644950000001
 30
0.0
 11
4466.1932109999998
 21
3035.0644950000001
 31
0.0
  0
LINE
  5
7AC5
  8
1
  6
CONTINUOUS
 10
4258.6932109999989
 20
3476.0644950000001
 30
0.0
 11
4328.6932109999998
 21
3476.0644950000001
 31
0.0
  0
LINE
  5
7AC6
  8
1
  6
CONTINUOUS
 10
4258.6932109999989
 20
3176.0644950000001
 30
0.0
 11
4328.6932109999998
 21
3176.0644950000001
 31
0.0
  0
LINE
  5
7AC7
  8
1
  6
CONTINUOUS
 10
4328.6932109999998
 20
3476.0644950000001
 30
0.0
 11
4328.6932109999998
 21
3176.0644950000001
 31
0.0
  0
LINE
  5
7AC8
  8
1
  6
CONTINUOUS
 10
4258.6932109999989
 20
3476.0644950000001
 30
0.0
 11
4258.6932109999989
 21
3176.0644950000001
 31
0.0
  0
LINE
  5
7AC9
  8
1
  6
CONTINUOUS
 10
4258.6932109999989
 20
3136.0644950000001
 30
0.0
 11
4328.6932109999998
 21
3136.0644950000001
 31
0.0
  0
LINE
  5
7ACA
  8
1
  6
CONTINUOUS
 10
2451.8336509999999
 20
5511.9051689999997
 30
0.0
 11
2451.8336509999999
 21
5651.9051689999988
 31
0.0
  0
LINE
  5
7ACB
  8
1
  6
CONTINUOUS
 10
4363.6932109999998
 20
3856.0644950000001
 30
0.0
 11
4223.6932109999989
 21
3856.0644950000001
 31
0.0
  0
LINE
  5
7ACC
  8
1
  6
CONTINUOUS
 10
4941.1932109999998
 20
3811.0644950000001
 30
0.0
 11
4941.1932109999998
 21
2856.0644950000001
 31
0.0
  0
LINE
  5
7ACD
  8
1
  6
CONTINUOUS
 10
4992.6932109999989
 20
2856.0644950000001
 30
0.0
 11
4992.6932109999989
 21
2756.0644950000001
 31
0.0
  0
LINE
  5
7ACE
  8
1
  6
CONTINUOUS
 10
4992.6932109999989
 20
2661.0644950000001
 30
0.0
 11
4992.6932109999989
 21
2561.0644950000001
 31
0.0
  0
LINE
  5
7ACF
  8
1
  6
CONTINUOUS
 10
2541.8336509999999
 20
6280.9051689999997
 30
0.0
 11
1131.833650999999
 21
6280.9051689999997
 31
0.0
  0
LINE
  5
7AD0
  8
1
  6
CONTINUOUS
 10
1491.8336509999999
 20
6229.4051689999988
 30
0.0
 11
2565.0880980000002
 21
6229.4051689999988
 31
0.0
  0
LINE
  5
7AD1
  8
1
  6
CONTINUOUS
 10
1491.8336509999999
 20
5754.4051689999988
 30
0.0
 11
2565.0880980000002
 21
5754.4051689999988
 31
0.0
  0
LINE
  5
7AD2
  8
1
  6
CONTINUOUS
 10
1228.9847600000001
 20
6168.6370859999997
 30
0.0
 11
1491.8336509999999
 21
6168.6370859999997
 31
0.0
  0
LINE
  5
7AD3
  8
1
  6
CONTINUOUS
 10
1491.8336509999999
 20
5754.4051689999988
 30
0.0
 11
2141.8336509999999
 21
6229.4051689999988
 31
0.0
  0
LINE
  5
7AD4
  8
1
  6
CONTINUOUS
 10
1491.8336509999999
 20
6229.4051689999988
 30
0.0
 11
2141.8336509999999
 21
5754.4051689999988
 31
0.0
  0
LINE
  5
7AD5
  8
1
  6
CONTINUOUS
 10
1491.8336509999999
 20
5754.4051689999988
 30
0.0
 11
1491.8336509999999
 21
6229.4051689999988
 31
0.0
  0
LINE
  5
7AD6
  8
1
  6
CONTINUOUS
 10
2141.8336509999999
 20
5754.4051689999988
 30
0.0
 11
2141.8336509999999
 21
6229.4051689999988
 31
0.0
  0
LINE
  5
7AD7
  8
1
  6
CONTINUOUS
 10
2541.8336509999999
 20
6229.4051689999988
 30
0.0
 11
2541.8336509999999
 21
6280.9051689999997
 31
0.0
  0
LINE
  5
7AD8
  8
1
  6
CONTINUOUS
 10
2565.0880980000002
 20
5754.4051689999988
 30
0.0
 11
2565.0880980000002
 21
6229.4051689999988
 31
0.0
  0
LINE
  5
7AD9
  8
2
  6
CENTER
 10
4703.6932109999998
 20
3910.352449999999
 30
0.0
 11
4703.6932109999998
 21
2561.0644950000001
 31
0.0
  0
LINE
  5
7ADA
  8
2
  6
CENTER
 10
1065.340813
 20
5991.9051689999988
 30
0.0
 11
2624.1051339999999
 21
5991.9051689999988
 31
0.0
  0
LINE
  5
7ADB
  8
2
  6
CENTER
 10
2111.8336509999999
 20
4070.4665639999998
 30
0.0
 11
2111.8336509999999
 21
2561.0644950000001
 31
0.0
  0
LINE
  5
7ADC
  8
2
  6
CENTER
 10
2713.5686169999999
 20
3326.0644950000001
 30
0.0
 11
1133.965523999999
 21
3326.0644950000001
 31
0.0
  0
LINE
  5
7ADD
  8
4
  6
CONTINUOUS
 10
5550.0
 20
1500.0
 30
0.0
 11
5550.0
 21
900.0
 31
0.0
  0
LINE
  5
7ADE
  8
4
  6
CONTINUOUS
 10
3450.0
 20
1500.0
 30
0.0
 11
3450.0
 21
900.0
 31
0.0
  0
LINE
  5
7ADF
  8
4
  6
CONTINUOUS
 10
1950.0
 20
1500.0
 30
0.0
 11
1950.0
 21
900.0
 31
0.0
  0
LINE
  5
7AE2
  8
4
  6
CONTINUOUS
 10
1950.0
 20
900.0
 30
0.0
 11
5550.0
 21
900.0
 31
0.0
  0
LINE
  5
7AE3
  8
4
  6
CONTINUOUS
 10
1950.0
 20
1200.0
 30
0.0
 11
5550.0
 21
1200.0
 31
0.0
  0
TEXT
  5
7AE4
  8
4
  6
CONTINUOUS
 10
2065.5062429999989
 20
1294.6290779999999
 30
0.0
 40
150.0
  1
機器名称
  0
TEXT
  5
7AE5
  8
4
  6
CONTINUOUS
 10
2058.7743179999989
 20
964.9354699999999
 30
0.0
 40
150.0
  1
機器型番
  0
TEXT
  5
7AE6
  8
4
  6
CONTINUOUS
 10
3533.0362359999999
 20
1267.7153069999999
 30
0.0
 40
150.0
  1
ミツヤ多翼送風機
  0
TEXT
  5
7AE7
  8
4
  6
CONTINUOUS
 10
3559.9634869999991
 20
951.47875299999987
 30
0.0
 40
150.0
  1
MF#4-4
  0
TEXT
  5
7AE9
  8
4
  6
CONTINUOUS
 10
2343.819794999999
 20
7150.2865239999992
 30
0.0
 40
162.0
  1
床置防振ベット
  0
TEXT
  5
7AEA
  8
4
  6
CONTINUOUS
 10
948.50278000000014
 20
7601.6429289999996
 30
0.0
 40
216.0
  1
ベルト駆動式片吸込両持多翼ファン
  0
LINE
  5
7AEB
  8
4
  6
CONTINUOUS
 10
750.0
 20
7408.2262629999996
 30
0.0
 11
5550.0
 21
7408.2262629999996
 31
0.0
  0
LINE
  5
7AEC
  8
4
  6
CONTINUOUS
 10
750.0
 20
8008.2262629999996
 30
0.0
 11
5550.0
 21
8008.2262629999996
 31
0.0
  0
LINE
  5
7AED
  8
4
  6
CONTINUOUS
 10
1950.0
 20
1500.0
 30
0.0
 11
5550.0
 21
1500.0
 31
0.0
  0
LINE
  5
7AEE
  8
4
  6
CONTINUOUS
 10
750.0
 20
8008.2262629999996
 30
0.0
 11
750.0
 21
7408.2262629999996
 31
0.0
  0
TEXT
  5
7AEF
  8
4
  6
CONTINUOUS
 10
1036.243299
 20
7146.9584329999998
 30
0.0
 40
162.0
  1
右回転上向
  0
TEXT
  5
7AF0
  8
4
  6
CONTINUOUS
 10
4406.9086779999989
 20
8118.1832439999989
 30
0.0
 40
168.0
  1
No.
  0
TEXT
  5
7AF1
  8
4
  6
CONTINUOUS
 10
3933.8881879999999
 20
7150.2865239999992
 30
0.0
 40
162.0
  1
縮尺：1/30
  0
LINE
  5
7AF2
  8
4
  6
CONTINUOUS
 10
5550.0
 20
8008.2262629999996
 30
0.0
 11
5550.0
 21
7408.2262629999996
 31
0.0
  0
LINE
  5
7AF4
  8
4
  6
CONTINUOUS
 10
4321.8522670000002
 20
8043.7907490000007
 30
0.0
 11
4321.8522670000002
 21
8359.9567849999985
 31
0.0
  0
LINE
  5
7AF5
  8
4
  6
CONTINUOUS
 10
4321.8522670000002
 20
8359.9567849999985
 30
0.0
 11
5550.0
 21
8359.9567849999985
 31
0.0
  0
LINE
  5
7AF6
  8
4
  6
CONTINUOUS
 10
5550.0
 20
8359.9567849999985
 30
0.0
 11
5550.0
 21
8043.7907490000007
 31
0.0
  0
LINE
  5
7AF7
  8
4
  6
CONTINUOUS
 10
5550.0
 20
8043.7907490000007
 30
0.0
 11
4321.8522670000002
 21
8043.7907490000007
 31
0.0
  0
DIMENSION
  5
7B0F
  8
3
  6
CONTINUOUS
  2
*D1
 10
2141.8336509999999
 20
4027.4324879999999
 30
0.0
 11
1799.553271999999
 21
4027.4324879999999
 31
0.0
 70
   128
 13
1491.8336509999999
 23
3811.0644950000001
 33
0.0
 14
2141.8336509999999
 24
3811.0644950000001
 34
0.0
1001
ACAD
1000
DSTYLE
1002
{
1070
   287
1070
     3
1070
   287
1070
     3
1070
    40
1040
30.0
1070
   143
1040
0.039
1070
   172
1070
     1
1070
   271
1070
     0
1070
   279
1070
     0
1070
   288
1070
     1
1002
}
  0
DIMENSION
  5
7B1C
  8
3
  6
CONTINUOUS
  2
*D2
 10
2111.8336509999999
 20
4215.40996
 30
0.0
 11
1799.553271999999
 21
4215.40996
 31
0.0
 70
   128
 13
1491.8336509999999
 23
3811.0644950000001
 33
0.0
 14
2111.8336509999999
 24
4070.4665639999998
 34
0.0
1001
ACAD
1000
DSTYLE
1002
{
1070
   287
1070
     3
1070
   287
1070
     3
1070
    40
1040
30.0
1070
   143
1040
0.039
1070
   172
1070
     1
1070
   271
1070
     0
1070
   279
1070
     0
1070
   288
1070
     1
1002
}
  0
DIMENSION
  5
7B35
  8
3
  6
CONTINUOUS
  2
*D3
 10
2817.7918020000002
 20
3326.0644950000001
 30
0.0
 11
2817.7918019999988
 21
3565.5675689999998
 31
0.0
 70
   128
 13
2181.8336509999999
 23
3811.0644950000001
 33
0.0
 14
2717.6927759999999
 24
3326.0644950000001
 34
0.0
 50
90.0
1001
ACAD
1000
DSTYLE
1002
{
1070
   287
1070
     3
1070
   287
1070
     3
1070
    40
1040
30.0
1070
   143
1040
0.039
1070
   172
1070
     1
1070
   271
1070
     0
1070
   279
1070
     0
1070
   288
1070
     1
1002
}
  0
DIMENSION
  5
7B41
  8
3
  6
CONTINUOUS
  2
*D4
 10
2817.7918019999988
 20
2756.0644950000001
 30
0.0
 11
2742.7918019999988
 21
3041.0644950000001
 31
0.0
 70
     0
 13
2717.6927759999999
 23
3326.0644950000001
 33
0.0
 14
2541.8336509999999
 24
2756.0644950000001
 34
0.0
 50
90.0
1001
ACAD
1000
DSTYLE
1002
{
1070
   287
1070
     4
1070
   287
1070
     4
1070
    40
1040
30.0
1070
    75
1070
     1
1070
   143
1040
0.039
1070
   172
1070
     1
1070
   271
1070
     0
1070
   279
1070
     1
1070
   288
1070
     1
1002
}
  0
DIMENSION
  5
7B84
  8
3
  6
CONTINUOUS
  2
*D5
 10
4466.1932109999998
 20
3891.7638059999999
 30
0.0
 11
4671.9074970000001
 21
3891.7638059999999
 31
0.0
 70
   128
 13
4941.1932109999998
 23
3811.0644950000001
 33
0.0
 14
4466.1932109999998
 24
3811.0644950000001
 34
0.0
1001
ACAD
1000
DSTYLE
1002
{
1070
   287
1070
     3
1070
   287
1070
     3
1070
    40
1040
30.0
1070
   143
1040
0.039
1070
   172
1070
     1
1070
   271
1070
     0
1070
   279
1070
     0
1070
   288
1070
     1
1002
}
  0
LINE
  5
7B87
  8
1
  6
CONTINUOUS
 10
4944.6932109999998
 20
3661.0644950000001
 30
0.0
 11
4944.6932109999998
 21
2991.0644950000001
 31
0.0
  0
DIMENSION
  5
7B94
  8
3
  6
CONTINUOUS
  2
*D6
 10
5208.1704730000001
 20
2991.0644949999992
 30
0.0
 11
5208.1704729999992
 21
3327.8313499999999
 31
0.0
 70
   128
 13
4944.6932109999998
 23
3661.0644950000001
 33
0.0
 14
4944.6932109999998
 24
2991.0644950000001
 34
0.0
 50
90.0
1001
ACAD
1000
DSTYLE
1002
{
1070
   287
1070
     3
1070
   287
1070
     3
1070
     3
1000
φ<>
1070
    40
1040
30.0
1070
   143
1040
0.039
1070
   172
1070
     1
1070
   271
1070
     0
1070
   279
1070
     0
1070
   288
1070
     1
1002
}
  0
DIMENSION
  5
7BAE
  8
3
  6
CONTINUOUS
  2
*D7
 10
4223.6932109999989
 20
4096.3275399999993
 30
0.0
 11
4463.6932109999989
 21
4246.3275400000002
 31
0.0
 70
     0
  1
MAX\P530
 13
4703.6932109999998
 23
4031.6723379999999
 33
0.0
 14
4223.6932109999989
 24
3856.0644950000001
 34
0.0
1001
ACAD
1000
DSTYLE
1002
{
1070
   287
1070
     4
1070
   287
1070
     4
1070
    40
1040
30.0
1070
    75
1070
     1
1070
   143
1040
0.039
1070
   172
1070
     1
1070
   271
1070
     0
1070
   279
1070
     1
1070
   288
1070
     1
1002
}
  0
DIMENSION
  5
7BEC
  8
3
  6
CONTINUOUS
  2
*D8
 10
2541.8336509999999
 20
6400.6971780000003
 30
0.0
 11
1827.222821999999
 21
6400.6971780000003
 31
0.0
 70
   128
 13
1131.833650999999
 23
6280.9051689999997
 33
0.0
 14
2541.8336509999999
 24
6280.9051689999997
 34
0.0
1001
ACAD
1000
DSTYLE
1002
{
1070
   287
1070
     3
1070
   287
1070
     3
1070
    40
1040
30.0
1070
   143
1040
0.039
1070
   172
1070
     1
1070
   271
1070
     0
1070
   279
1070
     0
1070
   288
1070
     1
1002
}
  0
DIMENSION
  5
7BF9
  8
3
  6
CONTINUOUS
  2
*D9
 10
2767.986648000001
 20
5580.9051689999997
 30
0.0
 11
2767.9866480000001
 21
5925.2247210000014
 31
0.0
 70
   128
 13
2541.8336509999999
 23
6280.9051689999997
 33
0.0
 14
2541.8336509999999
 24
5580.9051689999997
 34
0.0
 50
90.0
1001
ACAD
1000
DSTYLE
1002
{
1070
   287
1070
     3
1070
   287
1070
     3
1070
    40
1040
30.0
1070
   143
1040
0.039
1070
   172
1070
     1
1070
   271
1070
     0
1070
   279
1070
     0
1070
   288
1070
     1
1002
}
  0
DIMENSION
  5
7C68
  8
3
  6
CONTINUOUS
  2
*D10
 10
4944.6932109999998
 20
4096.3275399999993
 30
0.0
 11
4819.5081943283949
 21
4190.4668098800394
 31
0.0
 70
   128
 13
4703.6932109999998
 23
4031.6723379999999
 33
0.0
 14
4944.6932109999998
 24
3661.0644950000001
 34
0.0
1001
ACAD
1000
DSTYLE
1002
{
1070
   288
1070
     1
1070
   172
1070
     1
1070
    40
1040
30.0
1070
   271
1070
     0
1070
   143
1040
0.039
1002
}
  0
DIMENSION
  5
7D2F
  8
3
  2
*D11
 10
2111.8336509999999
 20
2350.6836760591059
 30
0.0
 11
1621.8336509999999
 21
2425.6836760591059
 31
0.0
 70
     0
 13
1131.833650999999
 23
2561.0644950000001
 33
0.0
 14
2111.8336509999999
 24
2561.0644950000001
 34
0.0
1001
ACAD
1000
DSTYLE
1002
{
1070
   287
1070
     3
1070
   287
1070
     3
1070
    40
1040
30.0
1070
   143
1040
0.039
1070
   172
1070
     1
1070
   271
1070
     0
1070
   279
1070
     0
1002
}
  0
DIMENSION
  5
7D3C
  8
3
  2
*D12
 10
2541.8336509999999
 20
2350.6836760591059
 30
0.0
 11
2326.8336509999999
 21
2425.6836760591059
 31
0.0
 70
     0
 13
2111.8336509999999
 23
2561.0644950000001
 33
0.0
 14
2541.8336509999999
 24
2561.0644950000001
 34
0.0
1001
ACAD
1000
DSTYLE
1002
{
1070
   287
1070
     3
1070
   287
1070
     3
1070
    40
1040
30.0
1070
   143
1040
0.039
1070
   172
1070
     1
1070
   271
1070
     0
1070
   279
1070
     0
1002
}
  0
DIMENSION
  5
7D49
  8
3
  2
*D13
 10
4703.6932109999998
 20
2350.6836760591059
 30
0.0
 11
4498.1932109999989
 21
2425.6836760591059
 31
0.0
 70
     0
 13
4292.6932109999989
 23
2561.0644950000001
 33
0.0
 14
4703.6932109999998
 24
2561.0644950000001
 34
0.0
1001
ACAD
1000
DSTYLE
1002
{
1070
   287
1070
     3
1070
   287
1070
     3
1070
    40
1040
30.0
1070
   143
1040
0.039
1070
   172
1070
     1
1070
   271
1070
     0
1070
   279
1070
     0
1002
}
  0
DIMENSION
  5
7D58
  8
3
  2
*D14
 10
4992.6932109999989
 20
2350.6836760591059
 30
0.0
 11
4848.1932109999998
 21
2425.6836760591059
 31
0.0
 70
     0
 13
4703.6932109999998
 23
2561.0644950000001
 33
0.0
 14
4992.6932109999989
 24
2561.0644950000001
 34
0.0
1001
ACAD
1000
DSTYLE
1002
{
1070
   287
1070
     3
1070
   287
1070
     3
1070
    40
1040
30.0
1070
   143
1040
0.039
1070
   172
1070
     1
1070
   271
1070
     0
1070
   279
1070
     0
1002
}
  0
DIMENSION
  5
7D6F
  8
3
  2
*D16
 10
2819.9732573031979
 20
2561.0644950000001
 30
0.0
 11
2744.973257303197
 21
2303.9216378571432
 31
0.0
 70
     0
 13
2541.8336509999999
 23
2661.0644950000001
 33
0.0
 14
2541.8336509999999
 24
2561.0644950000001
 34
0.0
 50
90.0
1001
ACAD
1000
DSTYLE
1002
{
1070
   287
1070
     3
1070
   287
1070
     3
1070
    40
1040
30.0
1070
   143
1040
0.039
1070
   172
1070
     1
1070
   271
1070
     0
1070
   279
1070
     0
1070
     6
1000
DOT
1002
}
  0
DIMENSION
  5
7D7E
  8
3
  2
*D17
 10
2819.9732573031979
 20
2756.0644950000001
 30
0.0
 11
2963.5446858746259
 21
2708.5644950000001
 31
0.0
 70
     0
 13
2541.8336509999999
 23
2661.0644950000001
 33
0.0
 14
2541.8336509999999
 24
2756.0644950000001
 34
0.0
 50
90.0
1001
ACAD
1000
DSTYLE
1002
{
1070
   172
1070
     1
1070
    40
1040
30.0
1070
     3
1000
(<>)
1070
   271
1070
     0
1070
     6
1000
_DOT
1070
   143
1040
0.039
1002
}
  0
LINE
  5
7D94
  8
1
  6
CONTINUOUS
 10
1701.8336509999999
 20
3676.0644950000001
 30
0.0
 11
1701.8336509999999
 21
2856.0644950000001
 31
0.0
  0
LINE
  5
7D95
  8
1
  6
CONTINUOUS
 10
2521.8336510000008
 20
3676.0644950000001
 30
0.0
 11
2521.8336509999999
 21
2856.0644950000001
 31
0.0
  0
LINE
  5
7D96
  8
1
  6
CONTINUOUS
 10
2521.8336509999999
 20
3676.0644950000001
 30
0.0
 11
1701.8336509999999
 21
3676.0644950000001
 31
0.0
  0
DIMENSION
  5
7D98
  8
3
  2
*D18
 10
2565.0880980000002
 20
4215.40996
 30
0.0
 11
2338.4608745
 21
4290.40996
 31
0.0
 70
     0
  1
452
 13
2111.8336509999999
 23
4070.4665639999998
 33
0.0
 14
2565.0880980000002
 24
3291.0644950000001
 34
0.0
1001
ACAD
1000
DSTYLE
1002
{
1070
    40
1040
30.0
1070
   143
1040
0.039
1070
   172
1070
     1
1070
   173
1070
     0
1070
   271
1070
     0
1070
   341
1005
7DAE
1070
     5
1000
OPEN30
1070
     6
1000
OPEN30
1002
}
  0
ENDSEC
  0
EOF
