  0
SECTION
  2
HEADER
  9
$ACADVER
  1
AC1009
  9
$INSBASE
 10
0.0
 20
0.0
 30
0.0
  9
$EXTMIN
 10
750.0
 20
900.0
 30
0.0
  9
$EXTMAX
 10
5550.0
 20
8359.9567849999985
 30
0.0
  9
$LIMMIN
 10
0.0
 20
0.0
  9
$LIMMAX
 10
297.0
 20
210.0
  9
$ORTHOMODE
 70
     0
  9
$REGENMODE
 70
     1
  9
$FILLMODE
 70
     0
  9
$QTEXTMODE
 70
     0
  9
$MIRRTEXT
 70
     1
  9
$DRAGMODE
 70
     2
  9
$LTSCALE
 40
100.0
  9
$OSMODE
 70
    37
  9
$ATTMODE
 70
     1
  9
$TEXTSIZE
 40
180.0
  9
$TRACEWID
 40
0.05
  9
$TEXTSTYLE
  7
STANDARD
  9
$CLAYER
  8
3
  9
$CELTYPE
  6
BYLAYER
  9
$CECOLOR
 62
   256
  9
$DIMSCALE
 40
30.0
  9
$DIMASZ
 40
2.0
  9
$DIMEXO
 40
0.5
  9
$DIMDLI
 40
10.0
  9
$DIMRND
 40
0.0
  9
$DIMDLE
 40
0.0
  9
$DIMEXE
 40
1.0
  9
$DIMTP
 40
1.0
  9
$DIMTM
 40
1.0
  9
$DIMTXT
 40
3.0
  9
$DIMCEN
 40
0.0
  9
$DIMTSZ
 40
0.0
  9
$DIMTOL
 70
     0
  9
$DIMLIM
 70
     0
  9
$DIMTIH
 70
     0
  9
$DIMTOH
 70
     0
  9
$DIMSE1
 70
     0
  9
$DIMSE2
 70
     0
  9
$DIMTAD
 70
     1
  9
$DIMZIN
 70
     8
  9
$DIMBLK
  1
OPEN
  9
$DIMASO
 70
     1
  9
$DIMSHO
 70
     1
  9
$DIMPOST
  1

  9
$DIMAPOST
  1

  9
$DIMALT
 70
     0
  9
$DIMALTD
 70
     2
  9
$DIMALTF
 40
0.039
  9
$DIMLFAC
 40
1.0
  9
$DIMTOFL
 70
     1
  9
$DIMTVP
 40
0.0
  9
$DIMTIX
 70
     0
  9
$DIMSOXD
 70
     0
  9
$DIMSAH
 70
     0
  9
$DIMBLK1
  1
DOT
  9
$DIMBLK2
  1
OPEN
  9
$DIMSTYLE
  2
IGA
  9
$DIMCLRD
 70
     0
  9
$DIMCLRE
 70
     0
  9
$DIMCLRT
 70
     0
  9
$DIMTFAC
 40
10.0
  9
$DIMGAP
 40
1.0
  9
$LUNITS
 70
     2
  9
$LUPREC
 70
     3
  9
$SKETCHINC
 40
0.1
  9
$FILLETRAD
 40
50.0
  9
$AUNITS
 70
     0
  9
$AUPREC
 70
     0
  9
$MENU
  1
acad
  9
$ELEVATION
 40
0.0
  9
$PELEVATION
 40
0.0
  9
$THICKNESS
 40
0.0
  9
$LIMCHECK
 70
     0
  9
$BLIPMODE
 70
     0
  9
$CHAMFERA
 40
0.5
  9
$CHAMFERB
 40
0.5
  9
$SKPOLY
 70
     0
  9
$TDCREATE
 40
2450738.6191717591
  9
$TDUPDATE
 40
2454953.7720146058
  9
$TDINDWG
 40
0.0112182523
  9
$TDUSRTIMER
 40
0.0112182523
  9
$USRTIMER
 70
     1
  9
$ANGBASE
 50
0.0
  9
$ANGDIR
 70
     0
  9
$PDMODE
 70
     0
  9
$PDSIZE
 40
0.0
  9
$PLINEWID
 40
0.0
  9
$COORDS
 70
     1
  9
$SPLFRAME
 70
     0
  9
$SPLINETYPE
 70
     6
  9
$SPLINESEGS
 70
     8
  9
$ATTDIA
 70
     0
  9
$ATTREQ
 70
     1
  9
$HANDLING
 70
 10241
  9
$HANDSEED
  5
8129
  9
$SURFTAB1
 70
     6
  9
$SURFTAB2
 70
     6
  9
$SURFTYPE
 70
     6
  9
$SURFU
 70
     6
  9
$SURFV
 70
     6
  9
$UCSNAME
  2

  9
$UCSORG
 10
0.0
 20
0.0
 30
0.0
  9
$UCSXDIR
 10
1.0
 20
0.0
 30
0.0
  9
$UCSYDIR
 10
0.0
 20
1.0
 30
0.0
  9
$PUCSNAME
  2

  9
$PUCSORG
 10
0.0
 20
0.0
 30
0.0
  9
$PUCSXDIR
 10
1.0
 20
0.0
 30
0.0
  9
$PUCSYDIR
 10
0.0
 20
1.0
 30
0.0
  9
$USERI1
 70
     0
  9
$USERI2
 70
     0
  9
$USERI3
 70
     0
  9
$USERI4
 70
     0
  9
$USERI5
 70
     0
  9
$USERR1
 40
0.0
  9
$USERR2
 40
0.0
  9
$USERR3
 40
0.0
  9
$USERR4
 40
0.0
  9
$USERR5
 40
0.0
  9
$WORLDVIEW
 70
     1
  9
$SHADEDGE
 70
     3
  9
$SHADEDIF
 70
    70
  9
$TILEMODE
 70
     1
  9
$MAXACTVP
 70
    16
  9
$PLIMCHECK
 70
     0
  9
$PEXTMIN
 10
1.0000000000000000E+020
 20
1.0000000000000000E+020
 30
1.0000000000000000E+020
  9
$PEXTMAX
 10
-1.0000000000000000E+020
 20
-1.0000000000000000E+020
 30
-1.0000000000000000E+020
  9
$PLIMMIN
 10
0.0
 20
0.0
  9
$PLIMMAX
 10
12.0
 20
9.0
  9
$UNITMODE
 70
     0
  9
$VISRETAIN
 70
     0
  9
$PLINEGEN
 70
     0
  9
$PSLTSCALE
 70
     1
  0
ENDSEC
  0
SECTION
  2
TABLES
  0
TABLE
  2
VPORT
 70
     2
  0
VPORT
  2
*ACTIVE
 70
     0
 10
0.0
 20
0.0
 11
1.0
 21
1.0
 12
9438.4567678319436
 22
4630.0975558305709
 13
0.0
 23
0.0
 14
10.0
 24
10.0
 15
10.0
 25
10.0
 16
0.0
 26
0.0
 36
1.0
 17
0.0
 27
0.0
 37
0.0
 40
7517.4747125171307
 41
3.1666666666666661
 42
50.0
 43
0.0
 44
0.0
 50
0.0
 51
0.0
 71
     0
 72
   100
 73
     1
 74
     0
 75
     0
 76
     0
 77
     0
 78
     0
  0
ENDTAB
  0
TABLE
  2
LTYPE
 70
     2
  0
LTYPE
  2
CONTINUOUS
 70
     0
  3
Solid line
 72
    65
 73
     0
 40
0.0
  0
LTYPE
  2
CENTER
 70
     0
  3
____ _ ____ _ ____ _ ____ _ ____ _ ____ _ ____ 
 72
    65
 73
     4
 40
2.0
 49
1.25
 49
-0.25
 49
0.25
 49
-0.25
  0
ENDTAB
  0
TABLE
  2
LAYER
 70
     6
  0
LAYER
  2
0
 70
     0
 62
     7
  6
CONTINUOUS
  0
LAYER
  2
3
 70
     0
 62
     2
  6
CONTINUOUS
  0
LAYER
  2
2
 70
     0
 62
     3
  6
CENTER
  0
LAYER
  2
1
 70
     0
 62
     4
  6
CONTINUOUS
  0
LAYER
  2
4
 70
     0
 62
     7
  6
CONTINUOUS
  0
LAYER
  2
DEFPOINTS
 70
     0
 62
     7
  6
CONTINUOUS
  0
ENDTAB
  0
TABLE
  2
STYLE
 70
     1
  0
STYLE
  2
STANDARD
 70
     0
 40
0.0
 41
1.0
 50
0.0
 71
     0
 42
180.0
  3
simplex.shx
  4
extfont.shx
  0
ENDTAB
  0
TABLE
  2
VIEW
 70
     0
  0
ENDTAB
  0
TABLE
  2
UCS
 70
     0
  0
ENDTAB
  0
TABLE
  2
APPID
 70
     1
  0
APPID
  2
ACAD
 70
     0
  0
ENDTAB
  0
TABLE
  2
DIMSTYLE
 70
     1
  0
DIMSTYLE
  2
IGA
 70
     0
  3

  4

  5

  6
OPEN
  7
OPEN
 40
2.0
 41
2.0
 42
0.5
 43
10.0
 44
1.0
 45
0.0
 46
0.0
 47
1.0
 48
1.0
140
3.0
141
0.0
142
0.0
143
0.03937
144
1.0
145
0.0
146
10.0
147
1.0
 71
     0
 72
     0
 73
     0
 74
     0
 75
     0
 76
     0
 77
     1
 78
     8
170
     0
171
     2
172
     0
173
     1
174
     0
175
     0
176
     0
177
     0
178
     0
  0
ENDTAB
  0
ENDSEC
  0
SECTION
  2
BLOCKS
  0
BLOCK
  8
0
  2
$MODEL_SPACE
 70
     0
 10
0.0
 20
0.0
 30
0.0
  3
$MODEL_SPACE
  1

  0
ENDBLK
  5
1B
  8
0
  0
BLOCK
 67
     1
  8
0
  2
$PAPER_SPACE
 70
     0
 10
0.0
 20
0.0
 30
0.0
  3
$PAPER_SPACE
  1

  0
ENDBLK
  5
18
 67
     1
  8
0
  0
BLOCK
  8
0
  2
_OPEN
 70
     0
 10
0.0
 20
0.0
 30
0.0
  3
_OPEN
  1

  0
LINE
  5
7B03
  8
0
  6
BYBLOCK
 62
     0
 10
-1.0
 20
0.166667
 30
0.0
 11
0.0
 21
0.0
 31
0.0
  0
LINE
  5
7B04
  8
0
  6
BYBLOCK
 62
     0
 10
0.0
 20
0.0
 30
0.0
 11
-1.0
 21
-0.166667
 31
0.0
  0
LINE
  5
7B05
  8
0
  6
BYBLOCK
 62
     0
 10
0.0
 20
0.0
 30
0.0
 11
-1.0
 21
0.0
 31
0.0
  0
ENDBLK
  5
7B06
  8
0
  0
BLOCK
  8
0
  2
*D1
 70
     1
 10
0.0
 20
0.0
 30
0.0
  3
*D1
  1

  0
LINE
  5
808E
  8
3
  6
CONTINUOUS
 62
     0
 10
2677.8153940000002
 20
3556.3674149999988
 30
0.0
 11
2885.1360640000012
 21
3556.3674149999988
 31
0.0
  0
LINE
  5
808F
  8
3
  6
CONTINUOUS
 62
     0
 10
2677.8153940000002
 20
2906.3674150000002
 30
0.0
 11
2885.1360639999998
 21
2906.3674150000002
 31
0.0
  0
LINE
  5
8090
  8
3
  6
CONTINUOUS
 62
     0
 10
2855.1360640000012
 20
3496.3674149999988
 30
0.0
 11
2855.1360640000012
 21
2966.3674150000002
 31
0.0
  0
INSERT
  5
8091
  8
3
  6
CONTINUOUS
 62
     0
  2
_OPEN
 10
2855.1360640000012
 20
3556.3674149999988
 30
0.0
 41
60.0
 42
60.0
 43
60.0
 50
90.0
  0
INSERT
  5
8092
  8
3
  6
CONTINUOUS
 62
     0
  2
_OPEN
 10
2855.1360640000012
 20
2906.3674150000002
 30
0.0
 41
60.0
 42
60.0
 43
60.0
 50
270.0
  0
TEXT
  8
3
  40
90
  5
8119
  62
0
  72
0
  71
0
 10
2600.14
 20
3061.44
 30
0.000000
  1
650
  0
POINT
  5
8094
  8
DEFPOINTS
  6
CONTINUOUS
 62
     0
 10
2662.8153940000002
 20
3556.3674149999988
 30
0.0
  0
POINT
  5
8095
  8
DEFPOINTS
  6
CONTINUOUS
 62
     0
 10
2662.8153940000002
 20
2906.3674150000002
 30
0.0
  0
POINT
  5
8096
  8
DEFPOINTS
  6
CONTINUOUS
 62
     0
 10
2855.1360640000012
 20
2906.3674150000002
 30
0.0
  0
ENDBLK
  5
7B13
  8
0
  0
BLOCK
  8
0
  2
*D2
 70
     1
 10
0.0
 20
0.0
 30
0.0
  3
*D2
  1

  0
LINE
  5
8097
  8
3
  6
CONTINUOUS
 62
     0
 10
2816.320835
 20
3526.3674150000002
 30
0.0
 11
3077.460563000001
 21
3526.3674149999988
 31
0.0
  0
LINE
  5
8098
  8
3
  6
CONTINUOUS
 62
     0
 10
2677.8153940000002
 20
2906.3674150000002
 30
0.0
 11
3077.4605630000001
 21
2906.3674149999988
 31
0.0
  0
LINE
  5
8099
  8
3
  6
CONTINUOUS
 62
     0
 10
3047.460563000001
 20
3466.3674150000002
 30
0.0
 11
3047.4605630000001
 21
2966.3674150000002
 31
0.0
  0
INSERT
  5
809A
  8
3
  6
CONTINUOUS
 62
     0
  2
_OPEN
 10
3047.460563000001
 20
3526.3674150000002
 30
0.0
 41
60.0
 42
60.0
 43
60.0
 50
90.0
  0
INSERT
  5
809B
  8
3
  6
CONTINUOUS
 62
     0
  2
_OPEN
 10
3047.4605630000001
 20
2906.3674150000002
 30
0.0
 41
60.0
 42
60.0
 43
60.0
 50
270.0
  0
TEXT
  8
3
  40
90
  5
811A
  62
0
  72
0
  71
0
 10
2792.46
 20
3066.77
 30
0.000000
  1
620
  0
POINT
  5
809D
  8
DEFPOINTS
  6
CONTINUOUS
 62
     0
 10
2801.320835
 20
3526.3674150000002
 30
0.0
  0
POINT
  5
809E
  8
DEFPOINTS
  6
CONTINUOUS
 62
     0
 10
2662.8153940000002
 20
2906.3674150000002
 30
0.0
  0
POINT
  5
809F
  8
DEFPOINTS
  6
CONTINUOUS
 62
     0
 10
3047.4605630000001
 20
2906.3674150000002
 30
0.0
  0
ENDBLK
  5
7B20
  8
0
  0
BLOCK
  8
0
  2
*D3
 70
     1
 10
0.0
 20
0.0
 30
0.0
  3
*D3
  1

  0
LINE
  5
80A0
  8
3
  6
CONTINUOUS
 62
     0
 10
2622.8153940000002
 20
2726.3674149999988
 30
0.0
 11
3264.4426989999988
 21
2726.3674149999988
 31
0.0
  0
LINE
  5
80A1
  8
3
  6
CONTINUOUS
 62
     0
 10
3234.4426990000002
 20
3466.3674149999988
 30
0.0
 11
3234.4426989999988
 21
2786.3674149999988
 31
0.0
  0
INSERT
  5
80A2
  8
3
  6
CONTINUOUS
 62
     0
  2
_OPEN
 10
3234.4426990000002
 20
3526.3674149999988
 30
0.0
 41
60.0
 42
60.0
 43
60.0
 50
90.0
  0
INSERT
  5
80A3
  8
3
  6
CONTINUOUS
 62
     0
  2
_OPEN
 10
3234.4426989999988
 20
2726.3674149999988
 30
0.0
 41
60.0
 42
60.0
 43
60.0
 50
270.0
  0
TEXT
  8
3
  40
90
  5
811B
  62
0
  72
0
  71
0
 10
2979.44
 20
2967.07
 30
0.000000
  1
800
  0
POINT
  5
80A5
  8
DEFPOINTS
  6
CONTINUOUS
 62
     0
 10
2801.320835
 20
3526.3674150000002
 30
0.0
  0
POINT
  5
80A6
  8
DEFPOINTS
  6
CONTINUOUS
 62
     0
 10
2607.8153940000002
 20
2726.3674149999988
 30
0.0
  0
POINT
  5
80A7
  8
DEFPOINTS
  6
CONTINUOUS
 62
     0
 10
3234.4426989999988
 20
2726.3674149999988
 30
0.0
  0
ENDBLK
  5
7B39
  8
0
  0
BLOCK
  8
0
  2
*D4
 70
     1
 10
0.0
 20
0.0
 30
0.0
  3
*D4
  1

  0
LINE
  5
80A8
  8
3
  6
CONTINUOUS
 62
     0
 10
2662.8153940000002
 20
3611.3674150000002
 30
0.0
 11
2662.8153940000002
 21
4201.1987909999998
 31
0.0
  0
LINE
  5
80A9
  8
3
  6
CONTINUOUS
 62
     0
 10
2177.8153940000002
 20
4078.0948459999991
 30
0.0
 11
2177.8153940000002
 21
4201.1987909999998
 31
0.0
  0
LINE
  5
80AA
  8
3
  6
CONTINUOUS
 62
     0
 10
2602.8153940000002
 20
4171.1987909999998
 30
0.0
 11
2237.8153940000002
 21
4171.1987909999998
 31
0.0
  0
INSERT
  5
80AB
  8
3
  6
CONTINUOUS
 62
     0
  2
_OPEN
 10
2662.8153940000002
 20
4171.1987909999998
 30
0.0
 41
60.0
 42
60.0
 43
60.0
  0
INSERT
  5
80AC
  8
3
  6
CONTINUOUS
 62
     0
  2
_OPEN
 10
2177.8153940000002
 20
4171.1987909999998
 30
0.0
 41
60.0
 42
60.0
 43
60.0
 50
180.0
  0
TEXT
  8
3
  40
90
  5
811C
  62
0
  72
0
  71
0
 10
2237.06
 20
4086.90
 30
0.000000
  1
485
  0
POINT
  5
80AE
  8
DEFPOINTS
  6
CONTINUOUS
 62
     0
 10
2662.8153940000002
 20
3596.3674149999988
 30
0.0
  0
POINT
  5
80AF
  8
DEFPOINTS
  6
CONTINUOUS
 62
     0
 10
2177.8153940000002
 20
4063.094846
 30
0.0
  0
POINT
  5
80B0
  8
DEFPOINTS
  6
CONTINUOUS
 62
     0
 10
2177.8153940000002
 20
4171.1987909999998
 30
0.0
  0
ENDBLK
  5
7C4A
  8
0
  0
BLOCK
  8
0
  2
*D5
 70
     1
 10
0.0
 20
0.0
 30
0.0
  3
*D5
  1

  0
LINE
  5
80B1
  8
3
  6
CONTINUOUS
 62
     0
 10
4931.295537
 20
3994.6218619999991
 30
0.0
 11
4931.295537
 21
4083.3667059999998
 31
0.0
  0
LINE
  5
80B2
  8
3
  6
CONTINUOUS
 62
     0
 10
4456.2955369999991
 20
3994.6218619999991
 30
0.0
 11
4456.2955369999991
 21
4083.3667059999998
 31
0.0
  0
LINE
  5
80B3
  8
3
  6
CONTINUOUS
 62
     0
 10
4991.295537
 20
4053.3667060000012
 30
0.0
 11
5051.295537
 21
4053.3667060000012
 31
0.0
  0
LINE
  5
80B4
  8
3
  6
CONTINUOUS
 62
     0
 10
4396.295537
 20
4053.3667060000012
 30
0.0
 11
4336.295537
 21
4053.3667060000012
 31
0.0
  0
LINE
  5
80B5
  8
3
  6
CONTINUOUS
 62
     0
 10
4931.295537
 20
4053.3667060000012
 30
0.0
 11
4456.2955369999991
 21
4053.3667060000012
 31
0.0
  0
INSERT
  5
80B6
  8
3
  6
CONTINUOUS
 62
     0
  2
_OPEN
 10
4931.295537
 20
4053.3667060000012
 30
0.0
 41
60.0
 42
60.0
 43
60.0
 50
180.0
  0
INSERT
  5
80B7
  8
3
  6
CONTINUOUS
 62
     0
  2
_OPEN
 10
4456.2955369999991
 20
4053.3667060000012
 30
0.0
 41
60.0
 42
60.0
 43
60.0
  0
TEXT
  8
3
  40
90
  5
811D
  62
0
  72
0
  71
0
 10
4545.58
 20
3969.07
 30
0.000000
  1
475
  0
POINT
  5
80B9
  8
DEFPOINTS
  6
CONTINUOUS
 62
     0
 10
4931.295537
 20
3979.621862
 30
0.0
  0
POINT
  5
80BA
  8
DEFPOINTS
  6
CONTINUOUS
 62
     0
 10
4456.2955369999991
 20
3979.621862
 30
0.0
  0
POINT
  5
80BB
  8
DEFPOINTS
  6
CONTINUOUS
 62
     0
 10
4456.2955369999991
 20
4053.3667060000012
 30
0.0
  0
ENDBLK
  5
7BA5
  8
0
  0
BLOCK
  8
0
  2
*D6
 70
     1
 10
0.0
 20
0.0
 30
0.0
  3
*D6
  1

  0
LINE
  5
80BC
  8
3
  6
CONTINUOUS
 62
     0
 10
4949.7955369999991
 20
3861.3674150000002
 30
0.0
 11
5223.3855040000008
 21
3861.3674149999988
 31
0.0
  0
LINE
  5
80BD
  8
3
  6
CONTINUOUS
 62
     0
 10
4949.7955369999991
 20
3191.3674150000002
 30
0.0
 11
5223.3855040000008
 21
3191.3674149999988
 31
0.0
  0
LINE
  5
80BE
  8
3
  6
CONTINUOUS
 62
     0
 10
5193.3855040000008
 20
3801.3674149999988
 30
0.0
 11
5193.3855040000008
 21
3251.3674149999988
 31
0.0
  0
INSERT
  5
80BF
  8
3
  6
CONTINUOUS
 62
     0
  2
_OPEN
 10
5193.3855040000008
 20
3861.3674149999988
 30
0.0
 41
60.0
 42
60.0
 43
60.0
 50
90.0
  0
INSERT
  5
80C0
  8
3
  6
CONTINUOUS
 62
     0
  2
_OPEN
 10
5193.3855040000008
 20
3191.3674149999988
 30
0.0
 41
60.0
 42
60.0
 43
60.0
 50
270.0
  0
TEXT
  8
3
  40
90
  5
811E
  62
0
  72
0
  71
0
 10
4938.39
 20
3381.68
 30
0.000000
  1
φ670
  0
POINT
  5
80C2
  8
DEFPOINTS
  6
CONTINUOUS
 62
     0
 10
4934.795537
 20
3861.3674150000002
 30
0.0
  0
POINT
  5
80C3
  8
DEFPOINTS
  6
CONTINUOUS
 62
     0
 10
4934.795537
 20
3191.3674150000002
 30
0.0
  0
POINT
  5
80C4
  8
DEFPOINTS
  6
CONTINUOUS
 62
     0
 10
5193.3855040000008
 20
3191.3674149999988
 30
0.0
  0
ENDBLK
  5
7D84
  8
0
  0
BLOCK
  8
0
  2
*D7
 70
     1
 10
0.0
 20
0.0
 30
0.0
  3
*D7
  1

  0
LINE
  5
80C5
  8
3
  6
CONTINUOUS
 62
     0
 10
4213.795537
 20
3841.3674150000002
 30
0.0
 11
4213.795537
 21
4278.3585071591187
 31
0.0
  0
LINE
  5
80C6
  8
3
  6
CONTINUOUS
 62
     0
 10
4633.795537
 20
4248.3585071591197
 30
0.0
 11
4273.795537
 21
4248.3585071591197
 31
0.0
  0
INSERT
  5
80C7
  8
3
  6
CONTINUOUS
 62
     0
  2
_OPEN
 10
4693.7955369999991
 20
4248.3585071591197
 30
0.0
 41
60.0
 42
60.0
 43
60.0
  0
INSERT
  5
80C8
  8
3
  6
CONTINUOUS
 62
     0
  2
_OPEN
 10
4213.795537
 20
4248.3585071591197
 30
0.0
 41
60.0
 42
60.0
 43
60.0
 50
180.0
  0
TEXT
  8
3
  40
90
  5
811F
  62
0
  72
0
  71
0
 10
4273.80
 20
4239.06
 30
0.000000
  1
MAX
  0
TEXT
  8
3
  40
90
  5
8120
  62
0
  72
0
  71
0
 10
4273.80
 20
4122.06
 30
0.000000
  1
530
  0
POINT
  5
80CA
  8
DEFPOINTS
  6
CONTINUOUS
 62
     0
 10
4693.7955369999991
 20
4227.457327159118
 30
0.0
  0
POINT
  5
80CB
  8
DEFPOINTS
  6
CONTINUOUS
 62
     0
 10
4213.795537
 20
3826.3674149999988
 30
0.0
  0
POINT
  5
80CC
  8
DEFPOINTS
  6
CONTINUOUS
 62
     0
 10
4213.795537
 20
4248.3585071591197
 30
0.0
  0
ENDBLK
  5
7D79
  8
0
  0
BLOCK
  8
0
  2
*D8
 70
     1
 10
0.0
 20
0.0
 30
0.0
  3
*D8
  1

  0
LINE
  5
80CD
  8
3
  6
CONTINUOUS
 62
     0
 10
1197.815394
 20
6205.5463280000004
 30
0.0
 11
1197.815394
 21
6360.0915160000004
 31
0.0
  0
LINE
  5
80CE
  8
3
  6
CONTINUOUS
 62
     0
 10
2607.8153940000002
 20
6205.5463280000004
 30
0.0
 11
2607.8153940000002
 21
6360.0915160000004
 31
0.0
  0
LINE
  5
80CF
  8
3
  6
CONTINUOUS
 62
     0
 10
1257.815394
 20
6330.0915159999986
 30
0.0
 11
2547.8153940000002
 21
6330.0915159999986
 31
0.0
  0
INSERT
  5
80D0
  8
3
  6
CONTINUOUS
 62
     0
  2
_OPEN
 10
1197.815394
 20
6330.0915159999986
 30
0.0
 41
60.0
 42
60.0
 43
60.0
 50
180.0
  0
INSERT
  5
80D1
  8
3
  6
CONTINUOUS
 62
     0
  2
_OPEN
 10
2607.8153940000002
 20
6330.0915159999986
 30
0.0
 41
60.0
 42
60.0
 43
60.0
  0
TEXT
  8
3
  40
90
  5
8121
  62
0
  72
0
  71
0
 10
1714.04
 20
6245.79
 30
0.000000
  1
1410
  0
POINT
  5
80D3
  8
DEFPOINTS
  6
CONTINUOUS
 62
     0
 10
1197.815394
 20
6190.5463280000004
 30
0.0
  0
POINT
  5
80D4
  8
DEFPOINTS
  6
CONTINUOUS
 62
     0
 10
2607.8153940000002
 20
6190.5463280000004
 30
0.0
  0
POINT
  5
80D5
  8
DEFPOINTS
  6
CONTINUOUS
 62
     0
 10
2607.8153940000002
 20
6330.0915159999986
 30
0.0
  0
ENDBLK
  5
7C0D
  8
0
  0
BLOCK
  8
0
  2
*D9
 70
     1
 10
0.0
 20
0.0
 30
0.0
  3
*D9
  1

  0
LINE
  5
80D6
  8
3
  6
CONTINUOUS
 62
     0
 10
2622.8153940000002
 20
6190.5463280000004
 30
0.0
 11
2933.7462650000002
 21
6190.5463280000004
 31
0.0
  0
LINE
  5
80D7
  8
3
  6
CONTINUOUS
 62
     0
 10
2622.8153940000002
 20
5490.5463280000004
 30
0.0
 11
2933.7462650000002
 21
5490.5463280000004
 31
0.0
  0
LINE
  5
80D8
  8
3
  6
CONTINUOUS
 62
     0
 10
2903.7462650000002
 20
6130.5463280000013
 30
0.0
 11
2903.7462650000002
 21
5550.5463280000013
 31
0.0
  0
INSERT
  5
80D9
  8
3
  6
CONTINUOUS
 62
     0
  2
_OPEN
 10
2903.7462650000002
 20
6190.5463280000004
 30
0.0
 41
60.0
 42
60.0
 43
60.0
 50
90.0
  0
INSERT
  5
80DA
  8
3
  6
CONTINUOUS
 62
     0
  2
_OPEN
 10
2903.7462650000002
 20
5490.5463280000004
 30
0.0
 41
60.0
 42
60.0
 43
60.0
 50
270.0
  0
TEXT
  8
3
  40
90
  5
8122
  62
0
  72
0
  71
0
 10
2648.75
 20
5711.78
 30
0.000000
  1
700
  0
POINT
  5
80DC
  8
DEFPOINTS
  6
CONTINUOUS
 62
     0
 10
2607.8153940000002
 20
6190.5463280000004
 30
0.0
  0
POINT
  5
80DD
  8
DEFPOINTS
  6
CONTINUOUS
 62
     0
 10
2607.8153940000002
 20
5490.5463280000004
 30
0.0
  0
POINT
  5
80DE
  8
DEFPOINTS
  6
CONTINUOUS
 62
     0
 10
2903.7462650000002
 20
5490.5463280000004
 30
0.0
  0
ENDBLK
  5
7C1A
  8
0
  0
BLOCK
  8
0
  2
*D10
 70
     1
 10
0.0
 20
0.0
 30
0.0
  3
*D10
  1

  0
LINE
  5
80DF
  8
3
  6
CONTINUOUS
 62
     0
 10
1655.815394
 20
3541.3674149999988
 30
0.0
 11
1655.815394
 21
4201.1987909999998
 31
0.0
  0
LINE
  5
80E0
  8
3
  6
CONTINUOUS
 62
     0
 10
2117.8153940000002
 20
4171.1987909999998
 30
0.0
 11
1715.815394
 21
4171.1987909999998
 31
0.0
  0
INSERT
  5
80E1
  8
3
  6
CONTINUOUS
 62
     0
  2
_OPEN
 10
2177.8153940000002
 20
4171.1987909999998
 30
0.0
 41
60.0
 42
60.0
 43
60.0
  0
INSERT
  5
80E2
  8
3
  6
CONTINUOUS
 62
     0
  2
_OPEN
 10
1655.815394
 20
4171.1987909999998
 30
0.0
 41
60.0
 42
60.0
 43
60.0
 50
180.0
  0
TEXT
  8
3
  40
90
  5
8123
  62
0
  72
0
  71
0
 10
1736.82
 20
4086.90
 30
0.000000
  1
522
  0
POINT
  5
80E4
  8
DEFPOINTS
  6
CONTINUOUS
 62
     0
 10
2177.8153940000002
 20
4063.094846
 30
0.0
  0
POINT
  5
80E5
  8
DEFPOINTS
  6
CONTINUOUS
 62
     0
 10
1655.815394
 20
3526.3674150000002
 30
0.0
  0
POINT
  5
80E6
  8
DEFPOINTS
  6
CONTINUOUS
 62
     0
 10
1655.815394
 20
4171.1987909999998
 30
0.0
  0
ENDBLK
  5
7C86
  8
0
  0
BLOCK
  8
0
  2
*D11
 70
     1
 10
0.0
 20
0.0
 30
0.0
  3
*D11
  1

  0
LINE
  5
7D66
  8
0
  6
BYBLOCK
 62
     0
 10
4693.7955369999991
 20
4212.6983655191716
 30
0.0
 11
4693.7955369999991
 21
4278.3585071591187
 31
0.0
  0
LINE
  5
7D67
  8
0
  6
BYBLOCK
 62
     0
 10
4934.795537
 20
3876.3674150000002
 30
0.0
 11
4934.795537
 21
4278.3585071591187
 31
0.0
  0
LINE
  5
7D68
  8
0
  6
BYBLOCK
 62
     0
 10
4753.795537
 20
4248.3585071591197
 30
0.0
 11
4874.795537
 21
4248.3585071591197
 31
0.0
  0
TEXT
  5
7D69
  8
3
 62
     0
 10
4722.7483440701326
 20
4277.6493823874216
 30
0.0
 40
90.0
  1
241
  0
INSERT
  5
7D6A
  8
0
  6
BYBLOCK
 62
     0
  2
_OPEN
 10
4693.7955369999991
 20
4248.3585071591197
 30
0.0
 41
60.0
 42
60.0
 43
60.0
 50
180.0
  0
INSERT
  5
7D6B
  8
0
  6
BYBLOCK
 62
     0
  2
_OPEN
 10
4934.795537
 20
4248.3585071591197
 30
0.0
 41
60.0
 42
60.0
 43
60.0
  0
POINT
  5
7D6C
  8
DEFPOINTS
  6
BYBLOCK
 62
     0
 10
4693.7955369999991
 20
4197.6983655191716
 30
0.0
  0
POINT
  5
7D6D
  8
DEFPOINTS
  6
BYBLOCK
 62
     0
 10
4934.795537
 20
3861.3674150000002
 30
0.0
  0
POINT
  5
7D6E
  8
DEFPOINTS
  6
BYBLOCK
 62
     0
 10
4934.795537
 20
4248.3585071591197
 30
0.0
  0
ENDBLK
  5
7D6F
  8
0
  0
BLOCK
  8
0
  2
*D12
 70
     1
 10
0.0
 20
0.0
 30
0.0
  3
*D12
  1

  0
LINE
  5
80E7
  8
3
 62
     0
 10
1197.815394
 20
2516.3674149999988
 30
0.0
 11
1197.815394
 21
2291.9605523689352
 31
0.0
  0
LINE
  5
80E8
  8
3
 62
     0
 10
2177.8153940000002
 20
2516.3674149999988
 30
0.0
 11
2177.8153940000002
 21
2291.9605523689352
 31
0.0
  0
LINE
  5
80E9
  8
3
 62
     0
 10
1257.815394
 20
2321.9605523689352
 30
0.0
 11
2117.8153940000002
 21
2321.9605523689352
 31
0.0
  0
INSERT
  5
80EA
  8
3
 62
     0
  2
_OPEN
 10
1197.815394
 20
2321.9605523689352
 30
0.0
 41
60.0
 42
60.0
 43
60.0
 50
180.0
  0
INSERT
  5
80EB
  8
3
 62
     0
  2
_OPEN
 10
2177.8153940000002
 20
2321.9605523689352
 30
0.0
 41
60.0
 42
60.0
 43
60.0
  0
TEXT
  8
3
  40
90
  5
8124
  62
0
  72
0
  71
0
 10
1507.82
 20
2237.66
 30
0.000000
  1
980
  0
POINT
  5
80ED
  8
DEFPOINTS
 62
     0
 10
1197.815394
 20
2531.3674150000002
 30
0.0
  0
POINT
  5
80EE
  8
DEFPOINTS
 62
     0
 10
2177.8153940000002
 20
2531.3674150000002
 30
0.0
  0
POINT
  5
80EF
  8
DEFPOINTS
 62
     0
 10
2177.8153940000002
 20
2321.9605523689352
 30
0.0
  0
ENDBLK
  5
7DBC
  8
0
  0
BLOCK
  8
0
  2
*D13
 70
     1
 10
0.0
 20
0.0
 30
0.0
  3
*D13
  1

  0
LINE
  5
80F0
  8
3
 62
     0
 10
2177.8153940000002
 20
2516.3674149999988
 30
0.0
 11
2177.8153940000002
 21
2291.9605523689352
 31
0.0
  0
LINE
  5
80F1
  8
3
 62
     0
 10
2607.8153940000002
 20
2516.3674149999988
 30
0.0
 11
2607.8153940000002
 21
2291.9605523689352
 31
0.0
  0
LINE
  5
80F2
  8
3
 62
     0
 10
2237.8153940000002
 20
2321.9605523689352
 30
0.0
 11
2547.8153940000002
 21
2321.9605523689352
 31
0.0
  0
INSERT
  5
80F3
  8
3
 62
     0
  2
_OPEN
 10
2177.8153940000002
 20
2321.9605523689352
 30
0.0
 41
60.0
 42
60.0
 43
60.0
 50
180.0
  0
INSERT
  5
80F4
  8
3
 62
     0
  2
_OPEN
 10
2607.8153940000002
 20
2321.9605523689352
 30
0.0
 41
60.0
 42
60.0
 43
60.0
  0
TEXT
  8
3
  40
90
  5
8125
  62
0
  72
0
  71
0
 10
2212.82
 20
2237.66
 30
0.000000
  1
430
  0
POINT
  5
80F6
  8
DEFPOINTS
 62
     0
 10
2177.8153940000002
 20
2531.3674150000002
 30
0.0
  0
POINT
  5
80F7
  8
DEFPOINTS
 62
     0
 10
2607.8153940000002
 20
2531.3674150000002
 30
0.0
  0
POINT
  5
80F8
  8
DEFPOINTS
 62
     0
 10
2607.8153940000002
 20
2321.9605523689352
 30
0.0
  0
ENDBLK
  5
7DC9
  8
0
  0
BLOCK
  8
0
  2
*D14
 70
     1
 10
0.0
 20
0.0
 30
0.0
  3
*D14
  1

  0
LINE
  5
80F9
  8
3
 62
     0
 10
4282.795537
 20
2516.3674149999988
 30
0.0
 11
4282.795537
 21
2291.9605523689352
 31
0.0
  0
LINE
  5
80FA
  8
3
 62
     0
 10
4693.7955369999981
 20
2516.3674149999988
 30
0.0
 11
4693.7955369999981
 21
2291.9605523689352
 31
0.0
  0
LINE
  5
80FB
  8
3
 62
     0
 10
4342.7955369999991
 20
2321.9605523689352
 30
0.0
 11
4633.7955369999991
 21
2321.9605523689352
 31
0.0
  0
INSERT
  5
80FC
  8
3
 62
     0
  2
_OPEN
 10
4282.795537
 20
2321.9605523689352
 30
0.0
 41
60.0
 42
60.0
 43
60.0
 50
180.0
  0
INSERT
  5
80FD
  8
3
 62
     0
  2
_OPEN
 10
4693.7955369999981
 20
2321.9605523689352
 30
0.0
 41
60.0
 42
60.0
 43
60.0
  0
TEXT
  8
3
  40
90
  5
8126
  62
0
  72
0
  71
0
 10
4308.30
 20
2237.66
 30
0.000000
  1
411
  0
POINT
  5
80FF
  8
DEFPOINTS
 62
     0
 10
4282.795537
 20
2531.3674150000002
 30
0.0
  0
POINT
  5
8100
  8
DEFPOINTS
 62
     0
 10
4693.7955369999981
 20
2531.3674150000002
 30
0.0
  0
POINT
  5
8101
  8
DEFPOINTS
 62
     0
 10
4693.7955369999981
 20
2321.9605523689352
 30
0.0
  0
ENDBLK
  5
7DD6
  8
0
  0
BLOCK
  8
0
  2
*D15
 70
     1
 10
0.0
 20
0.0
 30
0.0
  3
*D15
  1

  0
LINE
  5
8102
  8
3
 62
     0
 10
4693.7955369999981
 20
2516.3674149999988
 30
0.0
 11
4693.7955369999981
 21
2291.9605523689352
 31
0.0
  0
LINE
  5
8103
  8
3
 62
     0
 10
4982.795537
 20
2516.3674149999988
 30
0.0
 11
4982.795537
 21
2291.9605523689352
 31
0.0
  0
LINE
  5
8104
  8
3
 62
     0
 10
4753.7955369999991
 20
2321.9605523689352
 30
0.0
 11
4922.795537
 21
2321.9605523689352
 31
0.0
  0
INSERT
  5
8105
  8
3
 62
     0
  2
_OPEN
 10
4693.7955369999981
 20
2321.9605523689352
 30
0.0
 41
60.0
 42
60.0
 43
60.0
 50
180.0
  0
INSERT
  5
8106
  8
3
 62
     0
  2
_OPEN
 10
4982.795537
 20
2321.9605523689352
 30
0.0
 41
60.0
 42
60.0
 43
60.0
  0
TEXT
  8
3
  40
90
  5
8127
  62
0
  72
0
  71
0
 10
4658.30
 20
2237.66
 30
0.000000
  1
289
  0
POINT
  5
8108
  8
DEFPOINTS
 62
     0
 10
4693.7955369999981
 20
2531.3674150000002
 30
0.0
  0
POINT
  5
8109
  8
DEFPOINTS
 62
     0
 10
4982.795537
 20
2531.3674150000002
 30
0.0
  0
POINT
  5
810A
  8
DEFPOINTS
 62
     0
 10
4982.795537
 20
2321.9605523689352
 30
0.0
  0
ENDBLK
  5
7DE5
  8
0
  0
BLOCK
  8
0
  2
_DOT
 70
     0
 10
0.0
 20
0.0
 30
0.0
  3
_DOT
  1

  0
POLYLINE
  5
7DE9
  8
0
  6
BYBLOCK
 62
     0
 66
     1
 10
0.0
 20
0.0
 30
0.0
 70
     1
 40
0.5
 41
0.5
  0
VERTEX
  5
810B
  8
0
  6
BYBLOCK
 62
     0
 10
-0.25
 20
0.0
 30
0.0
 42
1.0
  0
VERTEX
  5
810C
  8
0
  6
BYBLOCK
 62
     0
 10
0.25
 20
0.0
 30
0.0
 42
1.0
  0
SEQEND
  5
810D
  8
0
  6
BYBLOCK
 62
     0
  0
LINE
  5
7DED
  8
0
  6
BYBLOCK
 62
     0
 10
-0.5
 20
0.0
 30
0.0
 11
-1.0
 21
0.0
 31
0.0
  0
ENDBLK
  5
7DEE
  8
0
  0
BLOCK
  8
0
  2
*D17
 70
     1
 10
0.0
 20
0.0
 30
0.0
  3
*D17
  1

  0
LINE
  5
810E
  8
3
 62
     0
 10
2622.8153940000002
 20
2631.3674149999988
 30
0.0
 11
3262.1523161975529
 21
2631.3674149999988
 31
0.0
  0
LINE
  5
810F
  8
3
 62
     0
 10
2622.8153940000002
 20
2531.3674150000002
 30
0.0
 11
3262.1523161975529
 21
2531.3674149999988
 31
0.0
  0
LINE
  5
8110
  8
3
 62
     0
 10
3232.152316197552
 20
2691.3674149999988
 30
0.0
 11
3232.152316197552
 21
2751.3674149999988
 31
0.0
  0
LINE
  5
8111
  8
3
 62
     0
 10
3232.152316197552
 20
2471.3674149999988
 30
0.0
 11
3232.152316197552
 21
2137.0817007142841
 31
0.0
  0
LINE
  5
8112
  8
3
 62
     0
 10
3232.152316197552
 20
2631.3674149999988
 30
0.0
 11
3232.152316197552
 21
2531.3674149999988
 31
0.0
  0
INSERT
  5
8113
  8
3
 62
     0
  2
_DOT
 10
3232.152316197552
 20
2631.3674149999988
 30
0.0
 41
60.0
 42
60.0
 43
60.0
 50
270.0
  0
INSERT
  5
8114
  8
3
 62
     0
  2
_OPEN
 10
3232.152316197552
 20
2531.3674149999988
 30
0.0
 41
60.0
 42
60.0
 43
60.0
 50
90.0
  0
TEXT
  8
3
  40
90
  5
8128
  62
0
  72
0
  71
0
 10
2977.15
 20
2114.92
 30
0.000000
  1
100
  0
POINT
  5
8116
  8
DEFPOINTS
 62
     0
 10
2607.8153940000002
 20
2631.3674149999988
 30
0.0
  0
POINT
  5
8117
  8
DEFPOINTS
 62
     0
 10
2607.8153940000002
 20
2531.3674150000002
 30
0.0
  0
POINT
  5
8118
  8
DEFPOINTS
 62
     0
 10
3232.152316197552
 20
2531.3674149999988
 30
0.0
  0
ENDBLK
  5
7DFC
  8
0
  0
BLOCK
  8
0
  2
*D18
 70
     1
 10
0.0
 20
0.0
 30
0.0
  3
*D18
  1

  0
LINE
  5
7E00
  8
0
  6
BYBLOCK
 62
     0
 10
2622.8153940000002
 20
2631.3674149999988
 30
0.0
 11
3262.1523161975529
 21
2631.3674149999988
 31
0.0
  0
LINE
  5
7E01
  8
0
  6
BYBLOCK
 62
     0
 10
2622.8153940000002
 20
2726.3674149999988
 30
0.0
 11
3262.1523161975529
 21
2726.3674149999988
 31
0.0
  0
LINE
  5
7E02
  8
0
  6
BYBLOCK
 62
     0
 10
3232.152316197552
 20
2571.3674150000002
 30
0.0
 11
3232.152316197552
 21
2511.3674150000002
 31
0.0
  0
LINE
  5
7E03
  8
0
  6
BYBLOCK
 62
     0
 10
3232.152316197552
 20
2786.3674149999988
 30
0.0
 11
3232.152316197552
 21
2846.3674149999988
 31
0.0
  0
TEXT
  5
7E04
  8
3
 62
     0
 10
3405.7237447689809
 20
2548.1531292857139
 30
0.0
 40
90.0
  1
(95)
 50
90.0
  0
LINE
  5
7E05
  8
0
  6
BYBLOCK
 62
     0
 10
3232.152316197552
 20
2631.3674149999988
 30
0.0
 11
3232.152316197552
 21
2726.3674149999988
 31
0.0
  0
INSERT
  5
7E06
  8
0
  6
BYBLOCK
 62
     0
  2
_DOT
 10
3232.152316197552
 20
2631.3674149999988
 30
0.0
 41
60.0
 42
60.0
 43
60.0
 50
90.0
  0
INSERT
  5
7E07
  8
0
  6
BYBLOCK
 62
     0
  2
_OPEN
 10
3232.152316197552
 20
2726.3674149999988
 30
0.0
 41
60.0
 42
60.0
 43
60.0
 50
270.0
  0
POINT
  5
7E08
  8
DEFPOINTS
  6
BYBLOCK
 62
     0
 10
2607.8153940000002
 20
2631.3674149999988
 30
0.0
  0
POINT
  5
7E09
  8
DEFPOINTS
  6
BYBLOCK
 62
     0
 10
2607.8153940000002
 20
2726.3674149999988
 30
0.0
  0
POINT
  5
7E0A
  8
DEFPOINTS
  6
BYBLOCK
 62
     0
 10
3232.152316197552
 20
2726.3674149999988
 30
0.0
  0
ENDBLK
  5
7E0B
  8
0
  0
BLOCK
  8
0
  2
*D19
 70
     1
 10
0.0
 20
0.0
 30
0.0
  3
*D19
  1

  0
LINE
  5
8077
  8
3
 62
     0
 10
2816.320835
 20
3526.3674150000002
 30
0.0
 11
3264.4426989999988
 21
3526.3674149999988
 31
0.0
  0
LINE
  5
8078
  8
3
 62
     0
 10
2157.8153940000002
 20
3979.621862
 30
0.0
 11
3264.4426989999988
 21
3979.6218619999991
 31
0.0
  0
LINE
  5
8079
  8
3
 62
     0
 10
3234.4426990000002
 20
3586.3674149999988
 30
0.0
 11
3234.4426990000002
 21
3919.6218619999991
 31
0.0
  0
INSERT
  5
807A
  8
3
 62
     0
  2
_OPEN
 10
3234.4426990000002
 20
3526.3674149999988
 30
0.0
 41
60.0
 42
60.0
 43
60.0
 50
270.0
  0
INSERT
  5
807B
  8
3
 62
     0
  2
_OPEN
 10
3234.4426990000002
 20
3979.6218619999991
 30
0.0
 41
60.0
 42
60.0
 43
60.0
 50
90.0
  0
TEXT
  5
807C
  8
3
 62
     0
 10
3204.4426989999988
 20
3637.2803527857141
 30
0.0
 40
90.0
  1
452
 50
90.0
  0
POINT
  5
807D
  8
DEFPOINTS
 62
     0
 10
2801.320835
 20
3526.3674150000002
 30
0.0
  0
POINT
  5
807E
  8
DEFPOINTS
 62
     0
 10
2142.8153940000002
 20
3979.621862
 30
0.0
  0
POINT
  5
807F
  8
DEFPOINTS
 62
     0
 10
3234.4426990000002
 20
3979.6218619999991
 30
0.0
  0
ENDBLK
  5
7E32
  8
0
  0
ENDSEC
  0
SECTION
  2
ENTITIES
  0
LINE
  5
7A71
  8
1
  6
CONTINUOUS
 10
2607.8153940000002
 20
5490.5463280000004
 30
0.0
 11
2607.8153940000002
 21
5664.0463280000013
 31
0.0
  0
LINE
  5
7A72
  8
1
  6
CONTINUOUS
 10
1197.815394
 20
6190.5463280000004
 30
0.0
 11
1197.815394
 21
5490.5463280000004
 31
0.0
  0
LINE
  5
7A73
  8
1
  6
CONTINUOUS
 10
1618.9665030000001
 20
5593.2782450000004
 30
0.0
 11
1618.9665030000001
 21
6078.2782450000004
 31
0.0
  0
LINE
  5
7A74
  8
1
  6
CONTINUOUS
 10
1294.966502999999
 20
5593.2782450000004
 30
0.0
 11
1294.966502999999
 21
6078.2782450000004
 31
0.0
  0
LINE
  5
7A75
  8
1
  6
CONTINUOUS
 10
2662.8153940000002
 20
5621.5463280000004
 30
0.0
 11
2662.8153940000002
 21
6181.5463280000004
 31
0.0
  0
LINE
  5
7A76
  8
1
  6
CONTINUOUS
 10
2198.8153940000002
 20
5526.5463280000013
 30
0.0
 11
2198.8153940000002
 21
5664.0463280000013
 31
0.0
  0
LINE
  5
7A77
  8
1
  6
CONTINUOUS
 10
2156.8153940000002
 20
5526.5463280000013
 30
0.0
 11
2156.8153940000002
 21
5664.0463280000013
 31
0.0
  0
LINE
  5
7A7C
  8
1
  6
CONTINUOUS
 10
1294.966502999999
 20
5593.2782450000004
 30
0.0
 11
1618.9665030000001
 21
5593.2782450000004
 31
0.0
  0
LINE
  5
7A7D
  8
1
  6
CONTINUOUS
 10
2517.8153940000002
 20
5421.5463280000004
 30
0.0
 11
1247.815394
 21
5421.5463280000004
 31
0.0
  0
LINE
  5
7A7E
  8
1
  6
CONTINUOUS
 10
2517.8153940000002
 20
5561.5463280000013
 30
0.0
 11
1247.815394
 21
5561.5463280000013
 31
0.0
  0
LINE
  5
7A7F
  8
1
  6
CONTINUOUS
 10
1536.966502999999
 20
5490.5463280000004
 30
0.0
 11
2027.815394
 21
5490.5463280000004
 31
0.0
  0
LINE
  5
7A80
  8
1
  6
CONTINUOUS
 10
1197.815394
 20
2726.3674149999988
 30
0.0
 11
2607.8153940000002
 21
2726.3674149999988
 31
0.0
  0
LINE
  5
7A81
  8
1
  6
CONTINUOUS
 10
2607.8153940000002
 20
2826.3674149999988
 30
0.0
 11
1197.815394
 21
2826.3674149999988
 31
0.0
  0
LINE
  5
7A82
  8
1
  6
CONTINUOUS
 10
1610.9665030000001
 20
2866.3674150000002
 30
0.0
 11
1302.966502999999
 21
2866.3674150000002
 31
0.0
  0
LINE
  5
7A83
  8
1
  6
CONTINUOUS
 10
1610.9665030000001
 20
2884.3674149999988
 30
0.0
 11
1589.6241680000001
 21
2933.3838479999999
 31
0.0
  0
ARC
  5
7A84
  8
1
  6
CONTINUOUS
 10
1456.9665030000001
 20
3026.3674149999988
 30
0.0
 40
162.0
 50
324.972283
 51
215.02771699999991
  0
LINE
  5
7A85
  8
1
  6
CONTINUOUS
 10
1247.815394
 20
3126.3674149999988
 30
0.0
 11
2077.8153940000002
 21
3826.3674149999988
 31
0.0
  0
ARC
  5
7A86
  8
1
  6
CONTINUOUS
 10
2218.8153940000002
 20
3485.3674149999988
 30
0.0
 40
564.49092099999984
 50
175.48601199999999
 51
265.834836
  0
ARC
  5
7A87
  8
1
  6
CONTINUOUS
 10
2142.8153940000002
 20
3491.3674150000002
 30
0.0
 40
488.25444700000003
 50
82.647621000000001
 51
175.48601199999999
  0
LINE
  5
7A88
  8
1
  6
CONTINUOUS
 10
1406.271387
 20
3088.2544509999998
 30
0.0
 11
2082.762052
 21
3642.4056070000001
 31
0.0
  0
LINE
  5
7A89
  8
1
  6
CONTINUOUS
 10
1497.171409
 20
2957.2040899999988
 30
0.0
 11
2253.1995940000002
 21
3396.6861809999991
 31
0.0
  0
LINE
  5
7A8A
  8
1
  6
CONTINUOUS
 10
2607.8153940000002
 20
2631.3674149999988
 30
0.0
 11
1197.815394
 21
2631.3674149999988
 31
0.0
  0
LINE
  5
7A8B
  8
1
  6
CONTINUOUS
 10
1197.815394
 20
2531.3674150000002
 30
0.0
 11
2607.8153940000002
 21
2531.3674150000002
 31
0.0
  0
LINE
  5
7A8C
  8
1
  6
CONTINUOUS
 10
1247.815394
 20
2826.3674149999988
 30
0.0
 11
1247.815394
 21
3126.3674149999988
 31
0.0
  0
LINE
  5
7A8D
  8
2
  6
CENTER
 10
1456.9665030000001
 20
3106.3674149999988
 30
0.0
 11
1456.9665030000001
 21
2946.3674150000002
 31
0.0
  0
CIRCLE
  5
7A8E
  8
1
  6
CONTINUOUS
 10
1456.9665030000001
 20
3026.3674149999988
 30
0.0
 40
80.0
  0
LINE
  5
7A8F
  8
1
  6
CONTINUOUS
 10
1197.815394
 20
2826.3674149999988
 30
0.0
 11
1197.815394
 21
2726.3674149999988
 31
0.0
  0
LINE
  5
7A90
  8
1
  6
CONTINUOUS
 10
1302.966502999999
 20
2826.3674149999988
 30
0.0
 11
1302.966502999999
 21
2884.3674149999988
 31
0.0
  0
LINE
  5
7A91
  8
1
  6
CONTINUOUS
 10
1302.966502999999
 20
2866.3674150000002
 30
0.0
 11
1302.966502999999
 21
2884.3674149999988
 31
0.0
  0
LINE
  5
7A92
  8
1
  6
CONTINUOUS
 10
1302.966502999999
 20
2884.3674149999988
 30
0.0
 11
1324.308837
 21
2933.3838479999999
 31
0.0
  0
LINE
  5
7A93
  8
1
  6
CONTINUOUS
 10
1197.815394
 20
2631.3674149999988
 30
0.0
 11
1197.815394
 21
2531.3674150000002
 31
0.0
  0
LINE
  5
7A94
  8
2
  6
CENTER
 10
1536.966502999999
 20
3026.3674149999988
 30
0.0
 11
1376.9665030000001
 21
3026.3674149999988
 31
0.0
  0
LINE
  5
7A95
  8
1
  6
CONTINUOUS
 10
1197.815394
 20
5490.5463280000004
 30
0.0
 11
1376.9665030000001
 21
5490.5463280000004
 31
0.0
  0
LINE
  5
7A96
  8
1
  6
CONTINUOUS
 10
1247.815394
 20
5421.5463280000004
 30
0.0
 11
1247.815394
 21
5561.5463280000013
 31
0.0
  0
LINE
  5
7A97
  8
1
  6
CONTINUOUS
 10
1376.9665030000001
 20
5526.5463280000013
 30
0.0
 11
1536.966502999999
 21
5526.5463280000013
 31
0.0
  0
LINE
  5
7A98
  8
1
  6
CONTINUOUS
 10
1376.9665030000001
 20
5456.5463280000004
 30
0.0
 11
1536.966502999999
 21
5456.5463280000004
 31
0.0
  0
LINE
  5
7A99
  8
1
  6
CONTINUOUS
 10
1536.966502999999
 20
5456.5463280000004
 30
0.0
 11
1536.966502999999
 21
5526.5463280000013
 31
0.0
  0
LINE
  5
7A9A
  8
1
  6
CONTINUOUS
 10
1376.9665030000001
 20
5456.5463280000004
 30
0.0
 11
1376.9665030000001
 21
5526.5463280000013
 31
0.0
  0
LINE
  5
7A9B
  8
1
  6
CONTINUOUS
 10
1435.966502999999
 20
5526.5463280000013
 30
0.0
 11
1435.966502999999
 21
5593.2782450000004
 31
0.0
  0
LINE
  5
7A9C
  8
1
  6
CONTINUOUS
 10
1477.9665030000001
 20
5526.5463280000013
 30
0.0
 11
1477.9665030000001
 21
5593.2782450000004
 31
0.0
  0
LINE
  5
7A9F
  8
1
  6
CONTINUOUS
 10
2517.8153940000002
 20
2826.3674149999988
 30
0.0
 11
2517.8153940000002
 21
3826.3674149999988
 31
0.0
  0
ARC
  5
7AA0
  8
1
  6
CONTINUOUS
 10
2150.8153940000002
 20
3553.3674149999988
 30
0.0
 40
425.74044800000001
 50
0.403741
 51
82.647621000000001
  0
LINE
  5
7AA4
  8
1
  6
CONTINUOUS
 10
2576.5452730000002
 20
3556.3674149999988
 30
0.0
 11
2662.8153940000002
 21
3556.3674149999988
 31
0.0
  0
LINE
  5
7AA5
  8
1
  6
CONTINUOUS
 10
2662.8153940000002
 20
2906.3674150000002
 30
0.0
 11
2177.8153940000002
 21
2922.3674150000002
 31
0.0
  0
LINE
  5
7AA6
  8
1
  6
CONTINUOUS
 10
1610.9665030000001
 20
2826.3674149999988
 30
0.0
 11
1610.9665030000001
 21
2884.3674149999988
 31
0.0
  0
LINE
  5
7AA7
  8
2
  6
CENTER
 10
5022.430417999999
 20
3526.3674150000002
 30
0.0
 11
4012.4330060000011
 21
3526.3674150000002
 31
0.0
  0
CIRCLE
  5
7AA8
  8
1
  6
CONTINUOUS
 10
2177.8153940000002
 20
3526.3674150000002
 30
0.0
 40
150.0
  0
LINE
  5
7AA9
  8
2
  6
CENTER
 10
2177.8153940000002
 20
6310.4807409999994
 30
0.0
 11
2177.8153940000002
 21
5309.7342060000001
 31
0.0
  0
LINE
  5
7AAA
  8
1
  6
CONTINUOUS
 10
2662.8153940000002
 20
3596.3674149999988
 30
0.0
 11
2662.8153940000002
 21
2866.3674150000002
 31
0.0
  0
LINE
  5
7AAB
  8
1
  6
CONTINUOUS
 10
2632.8153940000002
 20
3556.3674149999988
 30
0.0
 11
2632.8153940000002
 21
2907.357105
 31
0.0
  0
LINE
  5
7AAC
  8
1
  6
CONTINUOUS
 10
2607.8153940000002
 20
2726.3674149999988
 30
0.0
 11
2607.8153940000002
 21
2826.3674149999988
 31
0.0
  0
LINE
  5
7AAD
  8
1
  6
CONTINUOUS
 10
2607.8153940000002
 20
2531.3674150000002
 30
0.0
 11
2607.8153940000002
 21
2631.3674149999988
 31
0.0
  0
LINE
  5
7AAF
  8
1
  6
CONTINUOUS
 10
2327.8153940000002
 20
5490.5463280000004
 30
0.0
 11
2607.8153940000002
 21
5490.5463280000004
 31
0.0
  0
LINE
  5
7AB0
  8
1
  6
CONTINUOUS
 10
2517.8153940000002
 20
3826.3674149999988
 30
0.0
 11
2077.8153940000002
 21
3826.3674149999988
 31
0.0
  0
LINE
  5
7AB1
  8
1
  6
CONTINUOUS
 10
2027.815394
 20
5526.5463280000013
 30
0.0
 11
2327.8153940000002
 21
5526.5463280000013
 31
0.0
  0
LINE
  5
7AB2
  8
1
  6
CONTINUOUS
 10
2027.815394
 20
5456.5463280000004
 30
0.0
 11
2327.8153940000002
 21
5456.5463280000004
 31
0.0
  0
LINE
  5
7AB3
  8
1
  6
CONTINUOUS
 10
2027.815394
 20
5456.5463280000004
 30
0.0
 11
2027.815394
 21
5526.5463280000013
 31
0.0
  0
LINE
  5
7AB4
  8
1
  6
CONTINUOUS
 10
2327.8153940000002
 20
5456.5463280000004
 30
0.0
 11
2327.8153940000002
 21
5526.5463280000013
 31
0.0
  0
LINE
  5
7AB5
  8
1
  6
CONTINUOUS
 10
2517.8153940000002
 20
5421.5463280000004
 30
0.0
 11
2517.8153940000002
 21
5561.5463280000013
 31
0.0
  0
LINE
  5
7AB6
  8
1
  6
CONTINUOUS
 10
4456.2955369999991
 20
2826.3674149999988
 30
0.0
 11
4456.2955369999991
 21
3979.621862
 31
0.0
  0
LINE
  5
7AB7
  8
1
  6
CONTINUOUS
 10
4931.295537
 20
2826.3674149999988
 30
0.0
 11
4931.295537
 21
3979.621862
 31
0.0
  0
LINE
  5
7AB8
  8
1
  6
CONTINUOUS
 10
4213.795537
 20
3826.3674149999988
 30
0.0
 11
4213.795537
 21
2826.3674149999988
 31
0.0
  0
LINE
  5
7AB9
  8
1
  6
CONTINUOUS
 10
4353.7955369999991
 20
3826.3674149999988
 30
0.0
 11
4353.7955369999991
 21
2826.3674149999988
 31
0.0
  0
LINE
  5
7ABA
  8
1
  6
CONTINUOUS
 10
4931.295537
 20
2906.3674150000002
 30
0.0
 11
4456.2955369999991
 21
3556.3674149999988
 31
0.0
  0
LINE
  5
7ABB
  8
1
  6
CONTINUOUS
 10
4456.2955369999991
 20
2906.3674150000002
 30
0.0
 11
4931.295537
 21
3556.3674149999988
 31
0.0
  0
LINE
  5
7ABC
  8
1
  6
CONTINUOUS
 10
4318.7955369999991
 20
3106.3674149999988
 30
0.0
 11
4318.7955369999991
 21
2946.3674150000002
 31
0.0
  0
LINE
  5
7ABD
  8
1
  6
CONTINUOUS
 10
4248.795537
 20
3106.3674149999988
 30
0.0
 11
4248.795537
 21
2946.3674150000002
 31
0.0
  0
LINE
  5
7ABE
  8
1
  6
CONTINUOUS
 10
4282.795537
 20
2726.3674149999988
 30
0.0
 11
4982.795537
 21
2726.3674149999988
 31
0.0
  0
LINE
  5
7ABF
  8
1
  6
CONTINUOUS
 10
4456.2955369999991
 20
2906.3674150000002
 30
0.0
 11
4931.295537
 21
2906.3674150000002
 31
0.0
  0
LINE
  5
7AC0
  8
1
  6
CONTINUOUS
 10
4982.795537
 20
2826.3674149999988
 30
0.0
 11
4282.795537
 21
2826.3674149999988
 31
0.0
  0
LINE
  5
7AC1
  8
1
  6
CONTINUOUS
 10
4282.795537
 20
2531.3674150000002
 30
0.0
 11
4982.795537
 21
2531.3674150000002
 31
0.0
  0
LINE
  5
7AC2
  8
1
  6
CONTINUOUS
 10
4282.795537
 20
2631.3674149999988
 30
0.0
 11
4982.795537
 21
2631.3674149999988
 31
0.0
  0
LINE
  5
7AC3
  8
1
  6
CONTINUOUS
 10
4282.795537
 20
2826.3674149999988
 30
0.0
 11
4282.795537
 21
2726.3674149999988
 31
0.0
  0
LINE
  5
7AC4
  8
1
  6
CONTINUOUS
 10
4213.795537
 20
2826.3674149999988
 30
0.0
 11
4282.795537
 21
2826.3674149999988
 31
0.0
  0
LINE
  5
7AC5
  8
1
  6
CONTINUOUS
 10
4248.795537
 20
2946.3674150000002
 30
0.0
 11
4318.7955369999991
 21
2946.3674150000002
 31
0.0
  0
LINE
  5
7AC6
  8
1
  6
CONTINUOUS
 10
4282.795537
 20
2631.3674149999988
 30
0.0
 11
4282.795537
 21
2531.3674150000002
 31
0.0
  0
LINE
  5
7AC7
  8
1
  6
CONTINUOUS
 10
4982.795537
 20
2826.3674149999988
 30
0.0
 11
4982.795537
 21
2726.3674149999988
 31
0.0
  0
LINE
  5
7AC8
  8
1
  6
CONTINUOUS
 10
4982.795537
 20
2631.3674149999988
 30
0.0
 11
4982.795537
 21
2531.3674150000002
 31
0.0
  0
LINE
  5
7AC9
  8
1
  6
CONTINUOUS
 10
4456.2955369999991
 20
3556.3674149999988
 30
0.0
 11
4931.295537
 21
3556.3674149999988
 31
0.0
  0
LINE
  5
7ACA
  8
1
  6
CONTINUOUS
 10
4248.795537
 20
3676.3674150000002
 30
0.0
 11
4318.7955369999991
 21
3676.3674150000002
 31
0.0
  0
LINE
  5
7ACB
  8
1
  6
CONTINUOUS
 10
4248.795537
 20
3376.3674150000002
 30
0.0
 11
4318.7955369999991
 21
3376.3674150000002
 31
0.0
  0
LINE
  5
7ACC
  8
1
  6
CONTINUOUS
 10
4318.7955369999991
 20
3676.3674150000002
 30
0.0
 11
4318.7955369999991
 21
3376.3674150000002
 31
0.0
  0
LINE
  5
7ACD
  8
1
  6
CONTINUOUS
 10
4248.795537
 20
3676.3674150000002
 30
0.0
 11
4248.795537
 21
3376.3674150000002
 31
0.0
  0
LINE
  5
7ACE
  8
1
  6
CONTINUOUS
 10
4318.7955369999991
 20
3547.3674150000002
 30
0.0
 11
4456.2955369999991
 21
3547.3674150000002
 31
0.0
  0
LINE
  5
7ACF
  8
1
  6
CONTINUOUS
 10
4318.7955369999991
 20
3505.3674150000002
 30
0.0
 11
4456.2955369999991
 21
3505.3674150000002
 31
0.0
  0
LINE
  5
7AD0
  8
1
  6
CONTINUOUS
 10
4248.795537
 20
3106.3674149999988
 30
0.0
 11
4318.7955369999991
 21
3106.3674149999988
 31
0.0
  0
LINE
  5
7AD1
  8
1
  6
CONTINUOUS
 10
4318.7955369999991
 20
3047.3674150000002
 30
0.0
 11
4456.2955369999991
 21
3047.3674150000002
 31
0.0
  0
LINE
  5
7AD2
  8
1
  6
CONTINUOUS
 10
4318.7955369999991
 20
3005.3674150000002
 30
0.0
 11
4456.2955369999991
 21
3005.3674150000002
 31
0.0
  0
LINE
  5
7AD3
  8
1
  6
CONTINUOUS
 10
4456.2955369999991
 20
3979.621862
 30
0.0
 11
4931.295537
 21
3979.621862
 31
0.0
  0
LINE
  5
7AD4
  8
1
  6
CONTINUOUS
 10
4353.7955369999991
 20
3826.3674149999988
 30
0.0
 11
4213.795537
 21
3826.3674149999988
 31
0.0
  0
LINE
  5
7AD5
  8
1
  6
CONTINUOUS
 10
1294.966502999999
 20
6078.2782450000004
 30
0.0
 11
1618.9665030000001
 21
6078.2782450000004
 31
0.0
  0
LINE
  5
7AD6
  8
1
  6
CONTINUOUS
 10
2607.8153940000002
 20
6190.5463280000004
 30
0.0
 11
1197.815394
 21
6190.5463280000004
 31
0.0
  0
LINE
  5
7AD7
  8
1
  6
CONTINUOUS
 10
2662.8153940000002
 20
6139.0463280000004
 30
0.0
 11
1654.3244729999999
 21
6139.0463280000004
 31
0.0
  0
LINE
  5
7AD8
  8
1
  6
CONTINUOUS
 10
2662.8153940000002
 20
5664.0463280000013
 30
0.0
 11
1654.3244729999999
 21
5664.0463280000013
 31
0.0
  0
LINE
  5
7AD9
  8
1
  6
CONTINUOUS
 10
1618.9665030000001
 20
5914.9946929999996
 30
0.0
 11
1618.9665030000001
 21
5672.7476530000004
 31
0.0
  0
LINE
  5
7ADA
  8
1
  6
CONTINUOUS
 10
1654.3244729999999
 20
5664.0463280000013
 30
0.0
 11
1654.3244729999999
 21
6139.0463280000004
 31
0.0
  0
LINE
  5
7ADB
  8
1
  6
CONTINUOUS
 10
2607.8153940000002
 20
6139.0463280000004
 30
0.0
 11
2607.8153940000002
 21
6190.5463280000004
 31
0.0
  0
LINE
  5
7ADC
  8
1
  6
CONTINUOUS
 10
2622.8153940000002
 20
5664.0463280000013
 30
0.0
 11
2622.8153940000002
 21
6139.0463280000004
 31
0.0
  0
LINE
  5
7ADD
  8
2
  6
CENTER
 10
4693.7955369999991
 20
4068.489235
 30
0.0
 11
4693.7955369999981
 21
2531.3674150000002
 31
0.0
  0
LINE
  5
7ADE
  8
2
  6
CENTER
 10
1076.971585999999
 20
5901.5463280000013
 30
0.0
 11
2748.8181929999992
 21
5901.5463280000013
 31
0.0
  0
LINE
  5
7ADF
  8
2
  6
CENTER
 10
2177.8153940000002
 20
4063.094846
 30
0.0
 11
2177.8153940000002
 21
2531.3674150000002
 31
0.0
  0
LINE
  5
7AE0
  8
2
  6
CENTER
 10
2833.640613
 20
3526.3674150000002
 30
0.0
 11
1429.2687370000001
 21
3526.3674150000002
 31
0.0
  0
LINE
  5
7AE2
  8
4
  6
CONTINUOUS
 10
5550.0
 20
1500.0
 30
0.0
 11
5550.0
 21
900.0
 31
0.0
  0
LINE
  5
7AE3
  8
4
  6
CONTINUOUS
 10
3450.0
 20
1500.0
 30
0.0
 11
3450.0
 21
900.0
 31
0.0
  0
LINE
  5
7AE4
  8
4
  6
CONTINUOUS
 10
1950.0
 20
1500.0
 30
0.0
 11
1950.0
 21
900.0
 31
0.0
  0
LINE
  5
7AE7
  8
4
  6
CONTINUOUS
 10
1950.0
 20
900.0
 30
0.0
 11
5550.0
 21
900.0
 31
0.0
  0
LINE
  5
7AE8
  8
4
  6
CONTINUOUS
 10
1950.0
 20
1200.0
 30
0.0
 11
5550.0
 21
1200.0
 31
0.0
  0
TEXT
  5
7AE9
  8
4
  6
CONTINUOUS
 10
2065.5062429999989
 20
1294.6290779999999
 30
0.0
 40
150.0
  1
機器名称
  0
TEXT
  5
7AEA
  8
4
  6
CONTINUOUS
 10
2058.7743179999989
 20
964.9354699999999
 30
0.0
 40
150.0
  1
機器型番
  0
TEXT
  5
7AEB
  8
4
  6
CONTINUOUS
 10
3533.0362359999999
 20
1267.7153069999999
 30
0.0
 40
150.0
  1
ミツヤ多翼送風機
  0
TEXT
  5
7AEC
  8
4
  6
CONTINUOUS
 10
3559.9634869999991
 20
951.47875299999987
 30
0.0
 40
150.0
  1
MF#4-4
  0
TEXT
  5
7AEE
  8
4
  6
CONTINUOUS
 10
2326.1751570000001
 20
7150.2865239999992
 30
0.0
 40
162.0
  1
床置防振ベット
  0
TEXT
  5
7AEF
  8
4
  6
CONTINUOUS
 10
948.50278000000014
 20
7601.6429289999996
 30
0.0
 40
216.0
  1
ベルト駆動式片吸込両持多翼ファン
  0
LINE
  5
7AF0
  8
4
  6
CONTINUOUS
 10
750.0
 20
7408.2262629999996
 30
0.0
 11
5550.0
 21
7408.2262629999996
 31
0.0
  0
LINE
  5
7AF1
  8
4
  6
CONTINUOUS
 10
750.0
 20
8008.2262629999996
 30
0.0
 11
5550.0
 21
8008.2262629999996
 31
0.0
  0
LINE
  5
7AF2
  8
4
  6
CONTINUOUS
 10
1950.0
 20
1500.0
 30
0.0
 11
5550.0
 21
1500.0
 31
0.0
  0
LINE
  5
7AF3
  8
4
  6
CONTINUOUS
 10
750.0
 20
8008.2262629999996
 30
0.0
 11
750.0
 21
7408.2262629999996
 31
0.0
  0
TEXT
  5
7AF4
  8
4
  6
CONTINUOUS
 10
1018.598661
 20
7146.9584329999998
 30
0.0
 40
162.0
  1
左回転右横向
  0
TEXT
  5
7AF5
  8
4
  6
CONTINUOUS
 10
4406.9086779999989
 20
8118.1832439999989
 30
0.0
 40
168.0
  1
No.
  0
TEXT
  5
7AF6
  8
4
  6
CONTINUOUS
 10
3933.8881879999999
 20
7150.2865239999992
 30
0.0
 40
162.0
  1
縮尺：1/30
  0
LINE
  5
7AF7
  8
4
  6
CONTINUOUS
 10
5550.0
 20
8008.2262629999996
 30
0.0
 11
5550.0
 21
7408.2262629999996
 31
0.0
  0
LINE
  5
7AF9
  8
4
  6
CONTINUOUS
 10
4321.8522670000002
 20
8043.7907490000007
 30
0.0
 11
4321.8522670000002
 21
8359.9567849999985
 31
0.0
  0
LINE
  5
7AFA
  8
4
  6
CONTINUOUS
 10
4321.8522670000002
 20
8359.9567849999985
 30
0.0
 11
5550.0
 21
8359.9567849999985
 31
0.0
  0
LINE
  5
7AFB
  8
4
  6
CONTINUOUS
 10
5550.0
 20
8359.9567849999985
 30
0.0
 11
5550.0
 21
8043.7907490000007
 31
0.0
  0
LINE
  5
7AFC
  8
4
  6
CONTINUOUS
 10
5550.0
 20
8043.7907490000007
 30
0.0
 11
4321.8522670000002
 21
8043.7907490000007
 31
0.0
  0
DIMENSION
  5
7B14
  8
3
  6
CONTINUOUS
  2
*D1
 10
2855.1360640000012
 20
2906.3674150000002
 30
0.0
 11
2855.1360639999998
 21
3220.7370139999998
 31
0.0
 70
   128
 13
2662.8153940000002
 23
3556.3674149999988
 33
0.0
 14
2662.8153940000002
 24
2906.3674150000002
 34
0.0
 50
90.0
1001
ACAD
1000
DSTYLE
1002
{
1070
   287
1070
     3
1070
   287
1070
     3
1070
    40
1040
30.0
1070
   143
1040
0.039
1070
   172
1070
     1
1070
   271
1070
     0
1070
   279
1070
     0
1070
   288
1070
     1
1002
}
  0
DIMENSION
  5
7B21
  8
3
  6
CONTINUOUS
  2
*D2
 10
3047.4605630000001
 20
2906.3674150000002
 30
0.0
 11
3047.4605630000001
 21
3226.074376999999
 31
0.0
 70
   128
 13
2801.320835
 23
3526.3674150000002
 33
0.0
 14
2662.8153940000002
 24
2906.3674150000002
 34
0.0
 50
90.0
1001
ACAD
1000
DSTYLE
1002
{
1070
   287
1070
     3
1070
   287
1070
     3
1070
    40
1040
30.0
1070
   143
1040
0.039
1070
   172
1070
     1
1070
   271
1070
     0
1070
   279
1070
     0
1070
   288
1070
     1
1002
}
  0
DIMENSION
  5
7B3A
  8
3
  6
CONTINUOUS
  2
*D3
 10
3234.4426989999988
 20
2726.3674149999988
 30
0.0
 11
3159.4426989999988
 21
3126.3674150000002
 31
0.0
 70
     0
 13
2801.320835
 23
3526.3674150000002
 33
0.0
 14
2607.8153940000002
 24
2726.3674149999988
 34
0.0
 50
90.0
1001
ACAD
1000
DSTYLE
1002
{
1070
   287
1070
     4
1070
   287
1070
     4
1070
    40
1040
30.0
1070
    75
1070
     1
1070
   143
1040
0.039
1070
   172
1070
     1
1070
   271
1070
     0
1070
   279
1070
     1
1070
   288
1070
     1
1002
}
  0
DIMENSION
  5
7B64
  8
3
  6
CONTINUOUS
  2
*D4
 10
2177.8153940000002
 20
4171.1987909999998
 30
0.0
 11
2417.0636249999989
 21
4171.1987909999998
 31
0.0
 70
   128
 13
2662.8153940000002
 23
3596.3674149999988
 33
0.0
 14
2177.8153940000002
 24
4063.094846
 34
0.0
1001
ACAD
1000
DSTYLE
1002
{
1070
   287
1070
     3
1070
   287
1070
     3
1070
    40
1040
30.0
1070
   143
1040
0.039
1070
   172
1070
     1
1070
   271
1070
     0
1070
   279
1070
     0
1070
   288
1070
     1
1002
}
  0
DIMENSION
  5
7BA6
  8
3
  6
CONTINUOUS
  2
*D5
 10
4456.2955369999991
 20
4053.3667060000012
 30
0.0
 11
4725.5812519999999
 21
4053.3667060000012
 31
0.0
 70
   128
 13
4931.295537
 23
3979.621862
 33
0.0
 14
4456.2955369999991
 24
3979.621862
 34
0.0
1001
ACAD
1000
DSTYLE
1002
{
1070
   287
1070
     3
1070
   287
1070
     3
1070
    40
1040
30.0
1070
   143
1040
0.039
1070
   172
1070
     1
1070
   271
1070
     0
1070
   279
1070
     0
1070
   288
1070
     1
1002
}
  0
LINE
  5
7BA9
  8
1
  6
CONTINUOUS
 10
4934.795537
 20
3191.3674150000002
 30
0.0
 11
4934.795537
 21
3861.3674150000002
 31
0.0
  0
DIMENSION
  5
7BB6
  8
3
  6
CONTINUOUS
  2
*D6
 10
5193.3855040000008
 20
3191.3674149999988
 30
0.0
 11
5193.3855039999999
 21
3540.9792060000009
 31
0.0
 70
   128
 13
4934.795537
 23
3861.3674150000002
 33
0.0
 14
4934.795537
 24
3191.3674150000002
 34
0.0
 50
90.0
1001
ACAD
1000
DSTYLE
1002
{
1070
   287
1070
     3
1070
   287
1070
     3
1070
     3
1000
φ<>
1070
    40
1040
30.0
1070
   143
1040
0.039
1070
   172
1070
     1
1070
   271
1070
     0
1070
   279
1070
     0
1070
   288
1070
     1
1002
}
  0
DIMENSION
  5
7BD0
  8
3
  6
CONTINUOUS
  2
*D7
 10
4213.795537
 20
4248.3585071591197
 30
0.0
 11
4453.795537
 21
4398.3585071591197
 31
0.0
 70
     0
  1
MAX\P530
 13
4693.7955369999991
 23
4227.457327159118
 33
0.0
 14
4213.795537
 24
3826.3674149999988
 34
0.0
1001
ACAD
1000
DSTYLE
1002
{
1070
   287
1070
     4
1070
   287
1070
     4
1070
    40
1040
30.0
1070
    75
1070
     1
1070
   143
1040
0.039
1070
   172
1070
     1
1070
   271
1070
     0
1070
   279
1070
     1
1070
   288
1070
     1
1002
}
  0
DIMENSION
  5
7C0E
  8
3
  6
CONTINUOUS
  2
*D8
 10
2607.8153940000002
 20
6330.0915159999986
 30
0.0
 11
1894.0427279999999
 21
6330.0915159999986
 31
0.0
 70
   128
 13
1197.815394
 23
6190.5463280000004
 33
0.0
 14
2607.8153940000002
 24
6190.5463280000004
 34
0.0
1001
ACAD
1000
DSTYLE
1002
{
1070
   287
1070
     3
1070
   287
1070
     3
1070
    40
1040
30.0
1070
   143
1040
0.039
1070
   172
1070
     1
1070
   271
1070
     0
1070
   279
1070
     0
1070
   288
1070
     1
1002
}
  0
DIMENSION
  5
7C1B
  8
3
  6
CONTINUOUS
  2
*D9
 10
2903.7462650000002
 20
5490.5463280000004
 30
0.0
 11
2903.7462650000002
 21
5871.0777119999993
 31
0.0
 70
   128
 13
2607.8153940000002
 23
6190.5463280000004
 33
0.0
 14
2607.8153940000002
 24
5490.5463280000004
 34
0.0
 50
90.0
1001
ACAD
1000
DSTYLE
1002
{
1070
   287
1070
     3
1070
   287
1070
     3
1070
    40
1040
30.0
1070
   143
1040
0.039
1070
   172
1070
     1
1070
   271
1070
     0
1070
   279
1070
     0
1070
   288
1070
     1
1002
}
  0
DIMENSION
  5
7C87
  8
3
  6
CONTINUOUS
  2
*D10
 10
1655.815394
 20
4171.1987909999998
 30
0.0
 11
1916.815394
 21
4246.1987909999998
 31
0.0
 70
     0
 13
2177.8153940000002
 23
4063.094846
 33
0.0
 14
1655.815394
 24
3526.3674150000002
 34
0.0
1001
ACAD
1000
DSTYLE
1002
{
1070
   287
1070
     4
1070
   287
1070
     4
1070
    40
1040
30.0
1070
    75
1070
     1
1070
   143
1040
0.039
1070
   172
1070
     1
1070
   271
1070
     0
1070
   279
1070
     1
1070
   288
1070
     1
1002
}
  0
DIMENSION
  5
7CCC
  8
3
  6
CONTINUOUS
  2
*D11
 10
4934.795537
 20
4248.3585071591197
 30
0.0
 11
4819.1769154987041
 21
4322.6493823874234
 31
0.0
 70
   128
 13
4693.7955369999991
 23
4197.6983655191716
 33
0.0
 14
4934.795537
 24
3861.3674150000002
 34
0.0
1001
ACAD
1000
DSTYLE
1002
{
1070
   288
1070
     1
1070
   172
1070
     1
1070
    40
1040
30.0
1070
   271
1070
     0
1070
   143
1040
0.039
1002
}
  0
DIMENSION
  5
7DBD
  8
3
  2
*D12
 10
2177.8153940000002
 20
2321.9605523689352
 30
0.0
 11
1687.815394
 21
2396.9605523689352
 31
0.0
 70
     0
 13
1197.815394
 23
2531.3674150000002
 33
0.0
 14
2177.8153940000002
 24
2531.3674150000002
 34
0.0
1001
ACAD
1000
DSTYLE
1002
{
1070
   287
1070
     3
1070
   287
1070
     3
1070
    40
1040
30.0
1070
   143
1040
0.039
1070
   172
1070
     1
1070
   271
1070
     0
1070
   279
1070
     0
1002
}
  0
DIMENSION
  5
7DCA
  8
3
  2
*D13
 10
2607.8153940000002
 20
2321.9605523689352
 30
0.0
 11
2392.8153940000002
 21
2396.9605523689352
 31
0.0
 70
     0
 13
2177.8153940000002
 23
2531.3674150000002
 33
0.0
 14
2607.8153940000002
 24
2531.3674150000002
 34
0.0
1001
ACAD
1000
DSTYLE
1002
{
1070
   287
1070
     3
1070
   287
1070
     3
1070
    40
1040
30.0
1070
   143
1040
0.039
1070
   172
1070
     1
1070
   271
1070
     0
1070
   279
1070
     0
1002
}
  0
DIMENSION
  5
7DD7
  8
3
  2
*D14
 10
4693.7955369999981
 20
2321.9605523689352
 30
0.0
 11
4488.2955369999991
 21
2396.9605523689352
 31
0.0
 70
     0
 13
4282.795537
 23
2531.3674150000002
 33
0.0
 14
4693.7955369999981
 24
2531.3674150000002
 34
0.0
1001
ACAD
1000
DSTYLE
1002
{
1070
   287
1070
     3
1070
   287
1070
     3
1070
    40
1040
30.0
1070
   143
1040
0.039
1070
   172
1070
     1
1070
   271
1070
     0
1070
   279
1070
     0
1002
}
  0
DIMENSION
  5
7DE6
  8
3
  2
*D15
 10
4982.795537
 20
2321.9605523689352
 30
0.0
 11
4838.295537
 21
2396.9605523689352
 31
0.0
 70
     0
 13
4693.7955369999981
 23
2531.3674150000002
 33
0.0
 14
4982.795537
 24
2531.3674150000002
 34
0.0
1001
ACAD
1000
DSTYLE
1002
{
1070
   287
1070
     3
1070
   287
1070
     3
1070
    40
1040
30.0
1070
   143
1040
0.039
1070
   172
1070
     1
1070
   271
1070
     0
1070
   279
1070
     0
1002
}
  0
DIMENSION
  5
7DFD
  8
3
  2
*D17
 10
3232.152316197552
 20
2531.3674149999988
 30
0.0
 11
3157.152316197552
 21
2274.2245578571419
 31
0.0
 70
     0
 13
2607.8153940000002
 23
2631.3674149999988
 33
0.0
 14
2607.8153940000002
 24
2531.3674150000002
 34
0.0
 50
90.0
1001
ACAD
1000
DSTYLE
1002
{
1070
   287
1070
     3
1070
   287
1070
     3
1070
    40
1040
30.0
1070
   143
1040
0.039
1070
   172
1070
     1
1070
   271
1070
     0
1070
   279
1070
     0
1070
     6
1000
DOT
1002
}
  0
DIMENSION
  5
7E0C
  8
3
  2
*D18
 10
3232.152316197552
 20
2726.3674149999988
 30
0.0
 11
3375.7237447689809
 21
2678.8674150000002
 31
0.0
 70
     0
 13
2607.8153940000002
 23
2631.3674149999988
 33
0.0
 14
2607.8153940000002
 24
2726.3674149999988
 34
0.0
 50
90.0
1001
ACAD
1000
DSTYLE
1002
{
1070
   172
1070
     1
1070
    40
1040
30.0
1070
     3
1000
(<>)
1070
   271
1070
     0
1070
     6
1000
_DOT
1070
   143
1040
0.039
1002
}
  0
LINE
  5
7E22
  8
1
  6
CONTINUOUS
 10
1767.815394
 20
3804.04521244535
 30
0.0
 11
1767.8153940000011
 21
2826.3674149999988
 31
0.0
  0
LINE
  5
7E23
  8
1
  6
CONTINUOUS
 10
2587.8153939999988
 20
3646.3674149999988
 30
0.0
 11
2587.8153940000002
 21
2826.3674149999988
 31
0.0
  0
LINE
  5
7E24
  8
1
  6
CONTINUOUS
 10
2587.8153939999988
 20
3646.3674149999988
 30
0.0
 11
1767.815394
 21
3646.3674150000002
 31
0.0
  0
DIMENSION
  5
7E26
  8
3
  2
*D19
 10
3234.4426990000002
 20
3979.6218619999991
 30
0.0
 11
3159.4426989999988
 21
3752.9946384999998
 31
0.0
 70
     0
  1
452
 13
2801.320835
 23
3526.3674150000002
 33
0.0
 14
2142.8153940000002
 24
3979.621862
 34
0.0
 50
90.0
1001
ACAD
1000
DSTYLE
1002
{
1070
    40
1040
30.0
1070
   143
1040
0.039
1070
   172
1070
     1
1070
   173
1070
     0
1070
   271
1070
     0
1070
     5
1000
OPEN
1070
     6
1000
DOT
1002
}
  0
ENDSEC
  0
EOF
