  0
SECTION
  2
HEADER
  9
$ACADVER
  1
AC1009
  9
$INSBASE
 10
0.0
 20
0.0
 30
0.0
  9
$EXTMIN
 10
750.0
 20
900.0
 30
0.0
  9
$EXTMAX
 10
5550.0
 20
8359.9567849999985
 30
0.0
  9
$LIMMIN
 10
0.0
 20
0.0
  9
$LIMMAX
 10
297.0
 20
210.0
  9
$ORTHOMODE
 70
     0
  9
$REGENMODE
 70
     1
  9
$FILLMODE
 70
     0
  9
$QTEXTMODE
 70
     0
  9
$MIRRTEXT
 70
     1
  9
$DRAGMODE
 70
     2
  9
$LTSCALE
 40
100.0
  9
$OSMODE
 70
    37
  9
$ATTMODE
 70
     1
  9
$TEXTSIZE
 40
180.0
  9
$TRACEWID
 40
0.05
  9
$TEXTSTYLE
  7
STANDARD
  9
$CLAYER
  8
3
  9
$CELTYPE
  6
BYLAYER
  9
$CECOLOR
 62
   256
  9
$DIMSCALE
 40
30.0
  9
$DIMASZ
 40
2.0
  9
$DIMEXO
 40
0.5
  9
$DIMDLI
 40
10.0
  9
$DIMRND
 40
0.0
  9
$DIMDLE
 40
0.0
  9
$DIMEXE
 40
1.0
  9
$DIMTP
 40
1.0
  9
$DIMTM
 40
1.0
  9
$DIMTXT
 40
3.0
  9
$DIMCEN
 40
0.0
  9
$DIMTSZ
 40
0.0
  9
$DIMTOL
 70
     0
  9
$DIMLIM
 70
     0
  9
$DIMTIH
 70
     0
  9
$DIMTOH
 70
     0
  9
$DIMSE1
 70
     0
  9
$DIMSE2
 70
     0
  9
$DIMTAD
 70
     1
  9
$DIMZIN
 70
     8
  9
$DIMBLK
  1

  9
$DIMASO
 70
     1
  9
$DIMSHO
 70
     1
  9
$DIMPOST
  1

  9
$DIMAPOST
  1

  9
$DIMALT
 70
     0
  9
$DIMALTD
 70
     2
  9
$DIMALTF
 40
0.039
  9
$DIMLFAC
 40
1.0
  9
$DIMTOFL
 70
     1
  9
$DIMTVP
 40
0.0
  9
$DIMTIX
 70
     0
  9
$DIMSOXD
 70
     0
  9
$DIMSAH
 70
     1
  9
$DIMBLK1
  1
OPEN
  9
$DIMBLK2
  1
OPEN
  9
$DIMSTYLE
  2
IGA
  9
$DIMCLRD
 70
     0
  9
$DIMCLRE
 70
     0
  9
$DIMCLRT
 70
     0
  9
$DIMTFAC
 40
10.0
  9
$DIMGAP
 40
1.0
  9
$LUNITS
 70
     2
  9
$LUPREC
 70
     3
  9
$SKETCHINC
 40
0.1
  9
$FILLETRAD
 40
50.0
  9
$AUNITS
 70
     0
  9
$AUPREC
 70
     0
  9
$MENU
  1
acad
  9
$ELEVATION
 40
0.0
  9
$PELEVATION
 40
0.0
  9
$THICKNESS
 40
0.0
  9
$LIMCHECK
 70
     0
  9
$BLIPMODE
 70
     0
  9
$CHAMFERA
 40
0.5
  9
$CHAMFERB
 40
0.5
  9
$SKPOLY
 70
     0
  9
$TDCREATE
 40
2450738.587398842
  9
$TDUPDATE
 40
2454953.7716491199
  9
$TDINDWG
 40
0.007531956
  9
$TDUSRTIMER
 40
0.007531956
  9
$USRTIMER
 70
     1
  9
$ANGBASE
 50
0.0
  9
$ANGDIR
 70
     0
  9
$PDMODE
 70
     0
  9
$PDSIZE
 40
0.0
  9
$PLINEWID
 40
0.0
  9
$COORDS
 70
     1
  9
$SPLFRAME
 70
     0
  9
$SPLINETYPE
 70
     6
  9
$SPLINESEGS
 70
     8
  9
$ATTDIA
 70
     0
  9
$ATTREQ
 70
     1
  9
$HANDLING
 70
 10241
  9
$HANDSEED
  5
7F94
  9
$SURFTAB1
 70
     6
  9
$SURFTAB2
 70
     6
  9
$SURFTYPE
 70
     6
  9
$SURFU
 70
     6
  9
$SURFV
 70
     6
  9
$UCSNAME
  2

  9
$UCSORG
 10
0.0
 20
0.0
 30
0.0
  9
$UCSXDIR
 10
1.0
 20
0.0
 30
0.0
  9
$UCSYDIR
 10
0.0
 20
1.0
 30
0.0
  9
$PUCSNAME
  2

  9
$PUCSORG
 10
0.0
 20
0.0
 30
0.0
  9
$PUCSXDIR
 10
1.0
 20
0.0
 30
0.0
  9
$PUCSYDIR
 10
0.0
 20
1.0
 30
0.0
  9
$USERI1
 70
     0
  9
$USERI2
 70
     0
  9
$USERI3
 70
     0
  9
$USERI4
 70
     0
  9
$USERI5
 70
     0
  9
$USERR1
 40
0.0
  9
$USERR2
 40
0.0
  9
$USERR3
 40
0.0
  9
$USERR4
 40
0.0
  9
$USERR5
 40
0.0
  9
$WORLDVIEW
 70
     1
  9
$SHADEDGE
 70
     3
  9
$SHADEDIF
 70
    70
  9
$TILEMODE
 70
     1
  9
$MAXACTVP
 70
    16
  9
$PLIMCHECK
 70
     0
  9
$PEXTMIN
 10
1.0000000000000000E+020
 20
1.0000000000000000E+020
 30
1.0000000000000000E+020
  9
$PEXTMAX
 10
-1.0000000000000000E+020
 20
-1.0000000000000000E+020
 30
-1.0000000000000000E+020
  9
$PLIMMIN
 10
0.0
 20
0.0
  9
$PLIMMAX
 10
12.0
 20
9.0
  9
$UNITMODE
 70
     0
  9
$VISRETAIN
 70
     0
  9
$PLINEGEN
 70
     0
  9
$PSLTSCALE
 70
     1
  0
ENDSEC
  0
SECTION
  2
TABLES
  0
TABLE
  2
VPORT
 70
     2
  0
VPORT
  2
*ACTIVE
 70
     0
 10
0.0
 20
0.0
 11
1.0
 21
1.0
 12
9438.4567678319436
 22
4630.0975558305709
 13
0.0
 23
0.0
 14
10.0
 24
10.0
 15
10.0
 25
10.0
 16
0.0
 26
0.0
 36
1.0
 17
0.0
 27
0.0
 37
0.0
 40
7517.4747125171307
 41
3.1666666666666661
 42
50.0
 43
0.0
 44
0.0
 50
0.0
 51
0.0
 71
     0
 72
   100
 73
     1
 74
     0
 75
     0
 76
     0
 77
     0
 78
     0
  0
ENDTAB
  0
TABLE
  2
LTYPE
 70
     2
  0
LTYPE
  2
CONTINUOUS
 70
     0
  3
Solid line
 72
    65
 73
     0
 40
0.0
  0
LTYPE
  2
CENTER
 70
     0
  3
____ _ ____ _ ____ _ ____ _ ____ _ ____ _ ____ 
 72
    65
 73
     4
 40
2.0
 49
1.25
 49
-0.25
 49
0.25
 49
-0.25
  0
ENDTAB
  0
TABLE
  2
LAYER
 70
     6
  0
LAYER
  2
0
 70
     0
 62
     7
  6
CONTINUOUS
  0
LAYER
  2
3
 70
     0
 62
     2
  6
CONTINUOUS
  0
LAYER
  2
2
 70
     0
 62
     3
  6
CENTER
  0
LAYER
  2
1
 70
     0
 62
     4
  6
CONTINUOUS
  0
LAYER
  2
4
 70
     0
 62
     7
  6
CONTINUOUS
  0
LAYER
  2
DEFPOINTS
 70
     0
 62
     7
  6
CONTINUOUS
  0
ENDTAB
  0
TABLE
  2
STYLE
 70
     1
  0
STYLE
  2
STANDARD
 70
     0
 40
0.0
 41
1.0
 50
0.0
 71
     0
 42
180.0
  3
simplex.shx
  4
extfont.shx
  0
ENDTAB
  0
TABLE
  2
VIEW
 70
     0
  0
ENDTAB
  0
TABLE
  2
UCS
 70
     0
  0
ENDTAB
  0
TABLE
  2
APPID
 70
     1
  0
APPID
  2
ACAD
 70
     0
  0
ENDTAB
  0
TABLE
  2
DIMSTYLE
 70
     1
  0
DIMSTYLE
  2
IGA
 70
     0
  3

  4

  5

  6
OPEN
  7
OPEN
 40
2.0
 41
2.0
 42
0.5
 43
10.0
 44
1.0
 45
0.0
 46
0.0
 47
1.0
 48
1.0
140
3.0
141
0.0
142
0.0
143
0.03937
144
1.0
145
0.0
146
10.0
147
1.0
 71
     0
 72
     0
 73
     0
 74
     0
 75
     0
 76
     0
 77
     1
 78
     8
170
     0
171
     2
172
     0
173
     1
174
     0
175
     0
176
     0
177
     0
178
     0
  0
ENDTAB
  0
ENDSEC
  0
SECTION
  2
BLOCKS
  0
BLOCK
  8
0
  2
$MODEL_SPACE
 70
     0
 10
0.0
 20
0.0
 30
0.0
  3
$MODEL_SPACE
  1

  0
ENDBLK
  5
1B
  8
0
  0
BLOCK
 67
     1
  8
0
  2
$PAPER_SPACE
 70
     0
 10
0.0
 20
0.0
 30
0.0
  3
$PAPER_SPACE
  1

  0
ENDBLK
  5
18
 67
     1
  8
0
  0
BLOCK
  8
0
  2
_OPEN
 70
     0
 10
0.0
 20
0.0
 30
0.0
  3
_OPEN
  1

  0
LINE
  5
7B92
  8
0
  6
BYBLOCK
 62
     0
 10
-1.0
 20
0.166667
 30
0.0
 11
0.0
 21
0.0
 31
0.0
  0
LINE
  5
7B93
  8
0
  6
BYBLOCK
 62
     0
 10
0.0
 20
0.0
 30
0.0
 11
-1.0
 21
-0.166667
 31
0.0
  0
LINE
  5
7B94
  8
0
  6
BYBLOCK
 62
     0
 10
0.0
 20
0.0
 30
0.0
 11
-1.0
 21
0.0
 31
0.0
  0
ENDBLK
  5
7B95
  8
0
  0
BLOCK
  8
0
  2
*D1
 70
     1
 10
0.0
 20
0.0
 30
0.0
  3
*D1
  1

  0
LINE
  5
7EF3
  8
3
  6
CONTINUOUS
 62
     0
 10
2595.7465860000002
 20
3838.2092469999989
 30
0.0
 11
2595.7465860000002
 21
4076.4218969999988
 31
0.0
  0
LINE
  5
7EF4
  8
3
  6
CONTINUOUS
 62
     0
 10
1945.746586
 20
3838.2092469999989
 30
0.0
 11
1945.746586
 21
4076.4218969999988
 31
0.0
  0
LINE
  5
7EF5
  8
3
  6
CONTINUOUS
 62
     0
 10
2535.7465860000002
 20
4046.4218970000002
 30
0.0
 11
2005.746586
 21
4046.4218970000002
 31
0.0
  0
INSERT
  5
7EF6
  8
3
  6
CONTINUOUS
 62
     0
  2
_OPEN
 10
2595.7465860000002
 20
4046.4218970000002
 30
0.0
 41
60.0
 42
60.0
 43
60.0
  0
INSERT
  5
7EF7
  8
3
  6
CONTINUOUS
 62
     0
  2
_OPEN
 10
1945.746586
 20
4046.4218970000002
 30
0.0
 41
60.0
 42
60.0
 43
60.0
 50
180.0
  0
TEXT
  8
3
  40
90
  5
7F83
  62
0
  72
0
  71
0
 10
2071.99
 20
3962.12
 30
0.000000
  1
650
  0
POINT
  5
7EF9
  8
DEFPOINTS
  6
CONTINUOUS
 62
     0
 10
2595.7465860000002
 20
3823.2092469999989
 30
0.0
  0
POINT
  5
7EFA
  8
DEFPOINTS
  6
CONTINUOUS
 62
     0
 10
1945.746586
 20
3823.2092469999989
 30
0.0
  0
POINT
  5
7EFB
  8
DEFPOINTS
  6
CONTINUOUS
 62
     0
 10
1945.746586
 20
4046.4218970000002
 30
0.0
  0
ENDBLK
  5
7CFB
  8
0
  0
BLOCK
  8
0
  2
*D2
 70
     1
 10
0.0
 20
0.0
 30
0.0
  3
*D2
  1

  0
LINE
  5
7EFC
  8
3
  6
CONTINUOUS
 62
     0
 10
2595.7465860000002
 20
3838.2092469999989
 30
0.0
 11
2595.7465860000002
 21
4248.074094999999
 31
0.0
  0
LINE
  5
7EFD
  8
3
  6
CONTINUOUS
 62
     0
 10
1975.7465859999991
 20
4093.4089089999989
 30
0.0
 11
1975.7465859999991
 21
4248.074094999999
 31
0.0
  0
LINE
  5
7EFE
  8
3
  6
CONTINUOUS
 62
     0
 10
2535.7465860000002
 20
4218.0740949999999
 30
0.0
 11
2035.746586
 21
4218.0740949999999
 31
0.0
  0
INSERT
  5
7EFF
  8
3
  6
CONTINUOUS
 62
     0
  2
_OPEN
 10
2595.7465860000002
 20
4218.0740949999999
 30
0.0
 41
60.0
 42
60.0
 43
60.0
  0
INSERT
  5
7F00
  8
3
  6
CONTINUOUS
 62
     0
  2
_OPEN
 10
1975.7465859999991
 20
4218.0740949999999
 30
0.0
 41
60.0
 42
60.0
 43
60.0
 50
180.0
  0
TEXT
  8
3
  40
90
  5
7F84
  62
0
  72
0
  71
0
 10
2071.99
 20
4133.77
 30
0.000000
  1
620
  0
POINT
  5
7F02
  8
DEFPOINTS
  6
CONTINUOUS
 62
     0
 10
2595.7465860000002
 20
3823.2092469999989
 30
0.0
  0
POINT
  5
7F03
  8
DEFPOINTS
  6
CONTINUOUS
 62
     0
 10
1975.7465859999991
 20
4078.4089090000002
 30
0.0
  0
POINT
  5
7F04
  8
DEFPOINTS
  6
CONTINUOUS
 62
     0
 10
1975.7465859999991
 20
4218.0740949999999
 30
0.0
  0
ENDBLK
  5
7CF0
  8
0
  0
BLOCK
  8
0
  2
*D3
 70
     1
 10
0.0
 20
0.0
 30
0.0
  3
*D3
  1

  0
LINE
  5
7F05
  8
3
  6
CONTINUOUS
 62
     0
 10
1890.7465859999991
 20
3823.2092469999989
 30
0.0
 11
1225.473876
 21
3823.2092469999989
 31
0.0
  0
LINE
  5
7F06
  8
3
  6
CONTINUOUS
 62
     0
 10
1365.1644879999999
 20
3338.2092469999989
 30
0.0
 11
1225.473876
 21
3338.2092469999989
 31
0.0
  0
LINE
  5
7F07
  8
3
  6
CONTINUOUS
 62
     0
 10
1255.473876
 20
3763.2092469999989
 30
0.0
 11
1255.473876
 21
3398.2092469999998
 31
0.0
  0
INSERT
  5
7F08
  8
3
  6
CONTINUOUS
 62
     0
  2
_OPEN
 10
1255.473876
 20
3823.2092469999989
 30
0.0
 41
60.0
 42
60.0
 43
60.0
 50
90.0
  0
INSERT
  5
7F09
  8
3
  6
CONTINUOUS
 62
     0
  2
_OPEN
 10
1255.473876
 20
3338.2092469999989
 30
0.0
 41
60.0
 42
60.0
 43
60.0
 50
270.0
  0
TEXT
  8
3
  40
90
  5
7F85
  62
0
  72
0
  71
0
 10
1000.47
 20
3384.62
 30
0.000000
  1
485
  0
POINT
  5
7F0B
  8
DEFPOINTS
  6
CONTINUOUS
 62
     0
 10
1905.746586
 20
3823.2092469999989
 30
0.0
  0
POINT
  5
7F0C
  8
DEFPOINTS
  6
CONTINUOUS
 62
     0
 10
1380.1644879999999
 20
3338.2092469999989
 30
0.0
  0
POINT
  5
7F0D
  8
DEFPOINTS
  6
CONTINUOUS
 62
     0
 10
1255.473876
 20
3338.2092469999989
 30
0.0
  0
ENDBLK
  5
7BC8
  8
0
  0
BLOCK
  8
0
  2
*D4
 70
     1
 10
0.0
 20
0.0
 30
0.0
  3
*D4
  1

  0
LINE
  5
7F0E
  8
3
  6
CONTINUOUS
 62
     0
 10
1530.746586
 20
2768.2092469999989
 30
0.0
 11
1225.473876
 21
2768.2092469999989
 31
0.0
  0
LINE
  5
7F0F
  8
3
  6
CONTINUOUS
 62
     0
 10
1255.473876
 20
3278.2092469999989
 30
0.0
 11
1255.473876
 21
2828.2092469999998
 31
0.0
  0
INSERT
  5
7F10
  8
3
  6
CONTINUOUS
 62
     0
  2
_OPEN
 10
1255.473876
 20
3338.2092469999989
 30
0.0
 41
60.0
 42
60.0
 43
60.0
 50
90.0
  0
INSERT
  5
7F11
  8
3
  6
CONTINUOUS
 62
     0
  2
_OPEN
 10
1255.473876
 20
2768.2092469999989
 30
0.0
 41
60.0
 42
60.0
 43
60.0
 50
270.0
  0
TEXT
  8
3
  40
90
  5
7F86
  62
0
  72
0
  71
0
 10
1000.47
 20
2893.91
 30
0.000000
  1
570
  0
POINT
  5
7F13
  8
DEFPOINTS
  6
CONTINUOUS
 62
     0
 10
1380.1644879999999
 20
3338.2092469999989
 30
0.0
  0
POINT
  5
7F14
  8
DEFPOINTS
  6
CONTINUOUS
 62
     0
 10
1545.746586
 20
2768.2092469999989
 30
0.0
  0
POINT
  5
7F15
  8
DEFPOINTS
  6
CONTINUOUS
 62
     0
 10
1255.473876
 20
2768.2092469999989
 30
0.0
  0
ENDBLK
  5
7BD4
  8
0
  0
BLOCK
  8
0
  2
*D5
 70
     1
 10
0.0
 20
0.0
 30
0.0
  3
*D5
  1

  0
LINE
  5
7F16
  8
3
  6
CONTINUOUS
 62
     0
 10
1530.746586
 20
2768.2092469999989
 30
0.0
 11
1225.473876
 21
2768.2092469999989
 31
0.0
  0
LINE
  5
7F17
  8
3
  6
CONTINUOUS
 62
     0
 10
1530.746586
 20
2642.2092469999998
 30
0.0
 11
1225.473876
 21
2642.2092469999998
 31
0.0
  0
LINE
  5
7F18
  8
3
  6
CONTINUOUS
 62
     0
 10
1255.473876
 20
2828.2092469999998
 30
0.0
 11
1255.473876
 21
2888.2092469999998
 31
0.0
  0
LINE
  5
7F19
  8
3
  6
CONTINUOUS
 62
     0
 10
1255.473876
 20
2582.2092469999989
 30
0.0
 11
1255.473876
 21
2252.2092469999989
 31
0.0
  0
LINE
  5
7F1A
  8
3
  6
CONTINUOUS
 62
     0
 10
1255.473876
 20
2768.2092469999989
 30
0.0
 11
1255.473876
 21
2642.2092469999998
 31
0.0
  0
INSERT
  5
7F1B
  8
3
  6
CONTINUOUS
 62
     0
  2
_OPEN
 10
1255.473876
 20
2768.2092469999989
 30
0.0
 41
60.0
 42
60.0
 43
60.0
 50
270.0
  0
INSERT
  5
7F1C
  8
3
  6
CONTINUOUS
 62
     0
  2
_OPEN
 10
1255.473876
 20
2642.2092469999998
 30
0.0
 41
60.0
 42
60.0
 43
60.0
 50
90.0
  0
TEXT
  8
3
  40
90
  5
7F87
  62
0
  72
0
  71
0
 10
1000.47
 20
2227.91
 30
0.000000
  1
126
  0
POINT
  5
7F1E
  8
DEFPOINTS
  6
CONTINUOUS
 62
     0
 10
1545.746586
 20
2768.2092469999989
 30
0.0
  0
POINT
  5
7F1F
  8
DEFPOINTS
  6
CONTINUOUS
 62
     0
 10
1545.746586
 20
2642.2092469999998
 30
0.0
  0
POINT
  5
7F20
  8
DEFPOINTS
  6
CONTINUOUS
 62
     0
 10
1255.473876
 20
2642.2092469999998
 30
0.0
  0
ENDBLK
  5
7DF6
  8
0
  0
BLOCK
  8
0
  2
*D6
 70
     1
 10
0.0
 20
0.0
 30
0.0
  3
*D6
  1

  0
LINE
  5
7F21
  8
3
  6
CONTINUOUS
 62
     0
 10
1875.7465859999991
 20
3823.2092469999989
 30
0.0
 11
1061.6716100000001
 21
3823.2092469999989
 31
0.0
  0
LINE
  5
7F22
  8
3
  6
CONTINUOUS
 62
     0
 10
1530.746586
 20
2642.2092469999998
 30
0.0
 11
1061.6716100000001
 21
2642.2092469999998
 31
0.0
  0
LINE
  5
7F23
  8
3
  6
CONTINUOUS
 62
     0
 10
1091.6716100000001
 20
3763.2092469999989
 30
0.0
 11
1091.6716100000001
 21
2702.2092469999989
 31
0.0
  0
INSERT
  5
7F24
  8
3
  6
CONTINUOUS
 62
     0
  2
_OPEN
 10
1091.6716100000001
 20
3823.2092469999989
 30
0.0
 41
60.0
 42
60.0
 43
60.0
 50
90.0
  0
INSERT
  5
7F25
  8
3
  6
CONTINUOUS
 62
     0
  2
_OPEN
 10
1091.6716100000001
 20
2642.2092469999998
 30
0.0
 41
60.0
 42
60.0
 43
60.0
 50
270.0
  0
TEXT
  8
3
  40
90
  5
7F88
  62
0
  72
0
  71
0
 10
836.672
 20
3054.98
 30
0.000000
  1
1181
  0
POINT
  5
7F27
  8
DEFPOINTS
  6
CONTINUOUS
 62
     0
 10
1890.7465859999991
 20
3823.2092469999989
 30
0.0
  0
POINT
  5
7F28
  8
DEFPOINTS
  6
CONTINUOUS
 62
     0
 10
1545.746586
 20
2642.2092469999998
 30
0.0
  0
POINT
  5
7F29
  8
DEFPOINTS
  6
CONTINUOUS
 62
     0
 10
1091.6716100000001
 20
2642.2092469999998
 30
0.0
  0
ENDBLK
  5
7CC6
  8
0
  0
BLOCK
  8
0
  2
*D7
 70
     1
 10
0.0
 20
0.0
 30
0.0
  3
*D7
  1

  0
LINE
  5
7F2A
  8
3
  6
CONTINUOUS
 62
     0
 10
1545.746586
 20
2627.2092469999989
 30
0.0
 11
1545.746586
 21
2373.079565999999
 31
0.0
  0
LINE
  5
7F2B
  8
3
  6
CONTINUOUS
 62
     0
 10
1975.7465859999991
 20
2537.2563939999991
 30
0.0
 11
1975.7465859999991
 21
2373.079565999999
 31
0.0
  0
LINE
  5
7F2C
  8
3
  6
CONTINUOUS
 62
     0
 10
1605.746586
 20
2403.0795659999999
 30
0.0
 11
1915.746586
 21
2403.0795659999999
 31
0.0
  0
INSERT
  5
7F2D
  8
3
  6
CONTINUOUS
 62
     0
  2
_OPEN
 10
1545.746586
 20
2403.0795659999999
 30
0.0
 41
60.0
 42
60.0
 43
60.0
 50
180.0
  0
INSERT
  5
7F2E
  8
3
  6
CONTINUOUS
 62
     0
  2
_OPEN
 10
1975.7465859999991
 20
2403.0795659999999
 30
0.0
 41
60.0
 42
60.0
 43
60.0
  0
TEXT
  8
3
  40
90
  5
7F89
  62
0
  72
0
  71
0
 10
1590.03
 20
2318.78
 30
0.000000
  1
430
  0
POINT
  5
7F30
  8
DEFPOINTS
  6
CONTINUOUS
 62
     0
 10
1545.746586
 20
2642.2092469999998
 30
0.0
  0
POINT
  5
7F31
  8
DEFPOINTS
  6
CONTINUOUS
 62
     0
 10
1975.7465859999991
 20
2552.256394
 30
0.0
  0
POINT
  5
7F32
  8
DEFPOINTS
  6
CONTINUOUS
 62
     0
 10
1975.7465859999991
 20
2403.0795659999999
 30
0.0
  0
ENDBLK
  5
7CDB
  8
0
  0
BLOCK
  8
0
  2
*D8
 70
     1
 10
0.0
 20
0.0
 30
0.0
  3
*D8
  1

  0
LINE
  5
7F33
  8
3
  6
CONTINUOUS
 62
     0
 10
2955.7465860000002
 20
2627.2092469999989
 30
0.0
 11
2955.7465860000002
 21
2373.079565999999
 31
0.0
  0
LINE
  5
7F34
  8
3
  6
CONTINUOUS
 62
     0
 10
2035.746586
 20
2403.0795659999999
 30
0.0
 11
2895.7465859999988
 21
2403.0795659999999
 31
0.0
  0
INSERT
  5
7F35
  8
3
  6
CONTINUOUS
 62
     0
  2
_OPEN
 10
1975.7465859999991
 20
2403.0795659999999
 30
0.0
 41
60.0
 42
60.0
 43
60.0
 50
180.0
  0
INSERT
  5
7F36
  8
3
  6
CONTINUOUS
 62
     0
  2
_OPEN
 10
2955.7465860000002
 20
2403.0795659999999
 30
0.0
 41
60.0
 42
60.0
 43
60.0
  0
TEXT
  8
3
  40
90
  5
7F8A
  62
0
  72
0
  71
0
 10
2285.75
 20
2318.78
 30
0.000000
  1
980
  0
POINT
  5
7F38
  8
DEFPOINTS
  6
CONTINUOUS
 62
     0
 10
1975.7465859999991
 20
2552.256394
 30
0.0
  0
POINT
  5
7F39
  8
DEFPOINTS
  6
CONTINUOUS
 62
     0
 10
2955.7465860000002
 20
2642.2092469999998
 30
0.0
  0
POINT
  5
7F3A
  8
DEFPOINTS
  6
CONTINUOUS
 62
     0
 10
2955.7465860000002
 20
2403.0795659999999
 30
0.0
  0
ENDBLK
  5
7CD0
  8
0
  0
BLOCK
  8
0
  2
*D9
 70
     1
 10
0.0
 20
0.0
 30
0.0
  3
*D9
  1

  0
LINE
  5
7F3B
  8
3
  6
CONTINUOUS
 62
     0
 10
4900.9668940000001
 20
3838.2092469999989
 30
0.0
 11
4900.9668940000001
 21
3965.2232009999998
 31
0.0
  0
LINE
  5
7F3C
  8
3
  6
CONTINUOUS
 62
     0
 10
4425.9668940000001
 20
3838.2092469999989
 30
0.0
 11
4425.9668940000001
 21
3965.2232009999998
 31
0.0
  0
LINE
  5
7F3D
  8
3
  6
CONTINUOUS
 62
     0
 10
4840.966894000001
 20
3935.2232009999998
 30
0.0
 11
4485.9668939999992
 21
3935.2232009999998
 31
0.0
  0
INSERT
  5
7F3E
  8
3
  6
CONTINUOUS
 62
     0
  2
_OPEN
 10
4900.9668940000001
 20
3935.2232009999998
 30
0.0
 41
60.0
 42
60.0
 43
60.0
  0
INSERT
  5
7F3F
  8
3
  6
CONTINUOUS
 62
     0
  2
_OPEN
 10
4425.9668940000001
 20
3935.2232009999998
 30
0.0
 41
60.0
 42
60.0
 43
60.0
 50
180.0
  0
TEXT
  8
3
  40
90
  5
7F8B
  62
0
  72
0
  71
0
 10
4451.68
 20
3850.92
 30
0.000000
  1
475
  0
POINT
  5
7F41
  8
DEFPOINTS
  6
CONTINUOUS
 62
     0
 10
4900.9668940000001
 20
3823.2092469999989
 30
0.0
  0
POINT
  5
7F42
  8
DEFPOINTS
  6
CONTINUOUS
 62
     0
 10
4425.9668940000001
 20
3823.2092469999989
 30
0.0
  0
POINT
  5
7F43
  8
DEFPOINTS
  6
CONTINUOUS
 62
     0
 10
4425.9668940000001
 20
3935.2232009999998
 30
0.0
  0
ENDBLK
  5
7C17
  8
0
  0
BLOCK
  8
0
  2
*D10
 70
     1
 10
0.0
 20
0.0
 30
0.0
  3
*D10
  1

  0
LINE
  5
7F44
  8
3
  6
CONTINUOUS
 62
     0
 10
4919.4668940000001
 20
3673.2092469999989
 30
0.0
 11
5192.7565759999998
 21
3673.2092469999989
 31
0.0
  0
LINE
  5
7F45
  8
3
  6
CONTINUOUS
 62
     0
 10
4919.4668940000001
 20
3003.2092469999998
 30
0.0
 11
5192.7565759999998
 21
3003.2092469999989
 31
0.0
  0
LINE
  5
7F46
  8
3
  6
CONTINUOUS
 62
     0
 10
5162.7565760000007
 20
3613.2092469999989
 30
0.0
 11
5162.7565760000007
 21
3063.2092469999989
 31
0.0
  0
INSERT
  5
7F47
  8
3
  6
CONTINUOUS
 62
     0
  2
_OPEN
 10
5162.7565760000007
 20
3673.2092469999989
 30
0.0
 41
60.0
 42
60.0
 43
60.0
 50
90.0
  0
INSERT
  5
7F48
  8
3
  6
CONTINUOUS
 62
     0
  2
_OPEN
 10
5162.7565760000007
 20
3003.2092469999989
 30
0.0
 41
60.0
 42
60.0
 43
60.0
 50
270.0
  0
TEXT
  8
3
  40
90
  5
7F8C
  62
0
  72
0
  71
0
 10
4907.76
 20
3192.31
 30
0.000000
  1
φ670
  0
POINT
  5
7F4A
  8
DEFPOINTS
  6
CONTINUOUS
 62
     0
 10
4904.4668940000001
 20
3673.2092469999989
 30
0.0
  0
POINT
  5
7F4B
  8
DEFPOINTS
  6
CONTINUOUS
 62
     0
 10
4904.4668940000001
 20
3003.2092469999998
 30
0.0
  0
POINT
  5
7F4C
  8
DEFPOINTS
  6
CONTINUOUS
 62
     0
 10
5162.7565760000007
 20
3003.2092469999989
 30
0.0
  0
ENDBLK
  5
7D75
  8
0
  0
BLOCK
  8
0
  2
*D11
 70
     1
 10
0.0
 20
0.0
 30
0.0
  3
*D11
  1

  0
LINE
  5
7F4D
  8
3
  6
CONTINUOUS
 62
     0
 10
4183.4668940000001
 20
3883.2092469999989
 30
0.0
 11
4183.4668940000001
 21
4217.743762012833
 31
0.0
  0
LINE
  5
7F4E
  8
3
  6
CONTINUOUS
 62
     0
 10
4603.4668940000001
 20
4187.7437620128339
 30
0.0
 11
4243.4668939999992
 21
4187.7437620128339
 31
0.0
  0
INSERT
  5
7F4F
  8
3
  6
CONTINUOUS
 62
     0
  2
_OPEN
 10
4663.4668940000001
 20
4187.7437620128339
 30
0.0
 41
60.0
 42
60.0
 43
60.0
  0
INSERT
  5
7F50
  8
3
  6
CONTINUOUS
 62
     0
  2
_OPEN
 10
4183.4668940000001
 20
4187.7437620128339
 30
0.0
 41
60.0
 42
60.0
 43
60.0
 50
180.0
  0
TEXT
  8
3
  40
90
  5
7F8D
  62
0
  72
0
  71
0
 10
4243.47
 20
4178.44
 30
0.000000
  1
MAX
  0
TEXT
  8
3
  40
90
  5
7F8E
  62
0
  72
0
  71
0
 10
4243.47
 20
4061.44
 30
0.000000
  1
530
  0
POINT
  5
7F52
  8
DEFPOINTS
  6
CONTINUOUS
 62
     0
 10
4663.4668940000001
 20
4164.7848120128328
 30
0.0
  0
POINT
  5
7F53
  8
DEFPOINTS
  6
CONTINUOUS
 62
     0
 10
4183.4668940000001
 20
3868.2092469999998
 30
0.0
  0
POINT
  5
7F54
  8
DEFPOINTS
  6
CONTINUOUS
 62
     0
 10
4183.4668940000001
 20
4187.7437620128339
 30
0.0
  0
ENDBLK
  5
7D7F
  8
0
  0
BLOCK
  8
0
  2
*D12
 70
     1
 10
0.0
 20
0.0
 30
0.0
  3
*D12
  1

  0
LINE
  5
7F55
  8
3
  6
CONTINUOUS
 62
     0
 10
4252.4668940000001
 20
2627.2092469999989
 30
0.0
 11
4252.4668940000001
 21
2369.228169999999
 31
0.0
  0
LINE
  5
7F56
  8
3
  6
CONTINUOUS
 62
     0
 10
4663.4668940000001
 20
2485.1853809999989
 30
0.0
 11
4663.4668940000001
 21
2369.228169999999
 31
0.0
  0
LINE
  5
7F57
  8
3
  6
CONTINUOUS
 62
     0
 10
4192.4668940000001
 20
2399.2281699999999
 30
0.0
 11
4132.4668940000001
 21
2399.2281699999999
 31
0.0
  0
LINE
  5
7F58
  8
3
  6
CONTINUOUS
 62
     0
 10
4723.4668940000001
 20
2399.2281699999999
 30
0.0
 11
4783.4668940000001
 21
2399.2281699999999
 31
0.0
  0
LINE
  5
7F59
  8
3
  6
CONTINUOUS
 62
     0
 10
4252.4668940000001
 20
2399.2281699999999
 30
0.0
 11
4663.4668940000001
 21
2399.2281699999999
 31
0.0
  0
INSERT
  5
7F5A
  8
3
  6
CONTINUOUS
 62
     0
  2
_OPEN
 10
4252.4668940000001
 20
2399.2281699999999
 30
0.0
 41
60.0
 42
60.0
 43
60.0
  0
INSERT
  5
7F5B
  8
3
  6
CONTINUOUS
 62
     0
  2
_OPEN
 10
4663.4668940000001
 20
2399.2281699999999
 30
0.0
 41
60.0
 42
60.0
 43
60.0
 50
180.0
  0
TEXT
  8
3
  40
90
  5
7F8F
  62
0
  72
0
  71
0
 10
4250.32
 20
2314.93
 30
0.000000
  1
411
  0
POINT
  5
7F5D
  8
DEFPOINTS
  6
CONTINUOUS
 62
     0
 10
4252.4668940000001
 20
2642.2092469999998
 30
0.0
  0
POINT
  5
7F5E
  8
DEFPOINTS
  6
CONTINUOUS
 62
     0
 10
4663.4668940000001
 20
2500.1853809999998
 30
0.0
  0
POINT
  5
7F5F
  8
DEFPOINTS
  6
CONTINUOUS
 62
     0
 10
4663.4668940000001
 20
2399.2281699999999
 30
0.0
  0
ENDBLK
  5
7D4C
  8
0
  0
BLOCK
  8
0
  2
*D13
 70
     1
 10
0.0
 20
0.0
 30
0.0
  3
*D13
  1

  0
LINE
  5
7F60
  8
3
  6
CONTINUOUS
 62
     0
 10
4952.4668940000001
 20
2627.2092469999989
 30
0.0
 11
4952.4668940000001
 21
2369.228169999999
 31
0.0
  0
LINE
  5
7F61
  8
3
  6
CONTINUOUS
 62
     0
 10
4723.4668940000001
 20
2399.2281699999999
 30
0.0
 11
4892.4668940000001
 21
2399.2281699999999
 31
0.0
  0
TEXT
  8
3
  40
90
  5
7F90
  62
0
  72
0
  71
0
 10
4635.54
 20
2314.90
 30
0.000000
  1
289
  0
INSERT
  5
7F63
  8
3
  6
CONTINUOUS
 62
     0
  2
_OPEN
 10
4663.4668940000001
 20
2399.2281699999999
 30
0.0
 41
60.0
 42
60.0
 43
60.0
 50
180.0
  0
INSERT
  5
7F64
  8
3
  6
CONTINUOUS
 62
     0
  2
_OPEN
 10
4952.4668940000001
 20
2399.2281699999999
 30
0.0
 41
60.0
 42
60.0
 43
60.0
  0
POINT
  5
7F65
  8
DEFPOINTS
  6
CONTINUOUS
 62
     0
 10
4663.4668940000001
 20
2500.1853809999998
 30
0.0
  0
POINT
  5
7F66
  8
DEFPOINTS
  6
CONTINUOUS
 62
     0
 10
4952.4668940000001
 20
2642.2092469999998
 30
0.0
  0
POINT
  5
7F67
  8
DEFPOINTS
  6
CONTINUOUS
 62
     0
 10
4952.4668940000001
 20
2399.2281699999999
 30
0.0
  0
ENDBLK
  5
7D56
  8
0
  0
BLOCK
  8
0
  2
*D14
 70
     1
 10
0.0
 20
0.0
 30
0.0
  3
*D14
  1

  0
LINE
  5
7F68
  8
3
  6
CONTINUOUS
 62
     0
 10
1545.746586
 20
6095.733737999999
 30
0.0
 11
1545.746586
 21
6286.9249019999997
 31
0.0
  0
LINE
  5
7F69
  8
3
  6
CONTINUOUS
 62
     0
 10
2955.7465860000002
 20
6095.733737999999
 30
0.0
 11
2955.7465860000002
 21
6286.9249019999997
 31
0.0
  0
LINE
  5
7F6A
  8
3
  6
CONTINUOUS
 62
     0
 10
1605.746586
 20
6256.9249020000007
 30
0.0
 11
2895.7465859999988
 21
6256.9249020000007
 31
0.0
  0
INSERT
  5
7F6B
  8
3
  6
CONTINUOUS
 62
     0
  2
_OPEN
 10
1545.746586
 20
6256.9249020000007
 30
0.0
 41
60.0
 42
60.0
 43
60.0
 50
180.0
  0
INSERT
  5
7F6C
  8
3
  6
CONTINUOUS
 62
     0
  2
_OPEN
 10
2955.7465860000002
 20
6256.9249020000007
 30
0.0
 41
60.0
 42
60.0
 43
60.0
  0
TEXT
  8
3
  40
90
  5
7F91
  62
0
  72
0
  71
0
 10
2037.62
 20
6172.62
 30
0.000000
  1
1410
  0
POINT
  5
7F6E
  8
DEFPOINTS
  6
CONTINUOUS
 62
     0
 10
1545.746586
 20
6080.7337379999999
 30
0.0
  0
POINT
  5
7F6F
  8
DEFPOINTS
  6
CONTINUOUS
 62
     0
 10
2955.7465860000002
 20
6080.7337379999999
 30
0.0
  0
POINT
  5
7F70
  8
DEFPOINTS
  6
CONTINUOUS
 62
     0
 10
2955.7465860000002
 20
6256.9249020000007
 30
0.0
  0
ENDBLK
  5
7C8E
  8
0
  0
BLOCK
  8
0
  2
*D15
 70
     1
 10
0.0
 20
0.0
 30
0.0
  3
*D15
  1

  0
LINE
  5
7F71
  8
3
  6
CONTINUOUS
 62
     0
 10
2970.7465860000002
 20
6080.7337379999999
 30
0.0
 11
3216.6437760000008
 21
6080.7337379999999
 31
0.0
  0
LINE
  5
7F72
  8
3
  6
CONTINUOUS
 62
     0
 10
2970.7465860000002
 20
5380.733737999999
 30
0.0
 11
3216.6437760000008
 21
5380.733737999999
 31
0.0
  0
LINE
  5
7F73
  8
3
  6
CONTINUOUS
 62
     0
 10
3186.6437760000008
 20
6020.7337379999999
 30
0.0
 11
3186.6437760000008
 21
5440.7337379999999
 31
0.0
  0
INSERT
  5
7F74
  8
3
  6
CONTINUOUS
 62
     0
  2
_OPEN
 10
3186.6437760000008
 20
6080.7337379999999
 30
0.0
 41
60.0
 42
60.0
 43
60.0
 50
90.0
  0
INSERT
  5
7F75
  8
3
  6
CONTINUOUS
 62
     0
  2
_OPEN
 10
3186.6437760000008
 20
5380.733737999999
 30
0.0
 41
60.0
 42
60.0
 43
60.0
 50
270.0
  0
TEXT
  8
3
  40
90
  5
7F92
  62
0
  72
0
  71
0
 10
2931.64
 20
5527.74
 30
0.000000
  1
700
  0
POINT
  5
7F77
  8
DEFPOINTS
  6
CONTINUOUS
 62
     0
 10
2955.7465860000002
 20
6080.7337379999999
 30
0.0
  0
POINT
  5
7F78
  8
DEFPOINTS
  6
CONTINUOUS
 62
     0
 10
2955.7465860000002
 20
5380.733737999999
 30
0.0
  0
POINT
  5
7F79
  8
DEFPOINTS
  6
CONTINUOUS
 62
     0
 10
3186.6437760000008
 20
5380.733737999999
 30
0.0
  0
ENDBLK
  5
7C9B
  8
0
  0
BLOCK
  8
0
  2
*D16
 70
     1
 10
0.0
 20
0.0
 30
0.0
  3
*D16
  1

  0
LINE
  5
7DAD
  8
0
  6
BYBLOCK
 62
     0
 10
4663.4668940000001
 20
4085.282951896399
 30
0.0
 11
4663.4668940000001
 21
4217.743762012833
 31
0.0
  0
LINE
  5
7DAE
  8
0
  6
BYBLOCK
 62
     0
 10
4904.4668940000001
 20
3688.2092469999989
 30
0.0
 11
4904.4668940000001
 21
4217.743762012833
 31
0.0
  0
LINE
  5
7DAF
  8
0
  6
BYBLOCK
 62
     0
 10
4723.4668940000001
 20
4187.7437620128339
 30
0.0
 11
4844.4668939999992
 21
4187.7437620128339
 31
0.0
  0
TEXT
  5
7DB0
  8
3
 62
     0
 10
4685.2503678174953
 20
4217.0948798868412
 30
0.0
 40
90.0
  1
241
  0
INSERT
  5
7DB1
  8
0
  6
BYBLOCK
 62
     0
  2
_OPEN
 10
4663.4668940000001
 20
4187.7437620128339
 30
0.0
 41
60.0
 42
60.0
 43
60.0
 50
180.0
  0
INSERT
  5
7DB2
  8
0
  6
BYBLOCK
 62
     0
  2
_OPEN
 10
4904.4668940000001
 20
4187.7437620128339
 30
0.0
 41
60.0
 42
60.0
 43
60.0
  0
POINT
  5
7DB3
  8
DEFPOINTS
  6
BYBLOCK
 62
     0
 10
4663.4668940000001
 20
4070.2829518963981
 30
0.0
  0
POINT
  5
7DB4
  8
DEFPOINTS
  6
BYBLOCK
 62
     0
 10
4904.4668940000001
 20
3673.2092469999989
 30
0.0
  0
POINT
  5
7DB5
  8
DEFPOINTS
  6
BYBLOCK
 62
     0
 10
4904.4668940000001
 20
4187.7437620128339
 30
0.0
  0
ENDBLK
  5
7DB6
  8
0
  0
BLOCK
  8
0
  2
*D17
 70
     1
 10
0.0
 20
0.0
 30
0.0
  3
*D17
  1

  0
LINE
  5
7F7A
  8
3
 62
     0
 10
1975.7465859999991
 20
4093.4089089999989
 30
0.0
 11
1975.7465859999991
 21
4248.074094999999
 31
0.0
  0
LINE
  5
7F7B
  8
3
 62
     0
 10
1522.5576829969959
 20
3326.2092469999998
 30
0.0
 11
1522.5576829969959
 21
4248.074094999999
 31
0.0
  0
LINE
  5
7F7C
  8
3
 62
     0
 10
1915.746586
 20
4218.0740949999999
 30
0.0
 11
1582.5576829969959
 21
4218.0740949999999
 31
0.0
  0
INSERT
  5
7F7D
  8
3
 62
     0
  2
_OPEN
 10
1975.7465859999991
 20
4218.0740949999999
 30
0.0
 41
60.0
 42
60.0
 43
60.0
  0
INSERT
  5
7F7E
  8
3
 62
     0
  2
_OPEN
 10
1522.5576829969959
 20
4218.0740949999999
 30
0.0
 41
60.0
 42
60.0
 43
60.0
 50
180.0
  0
TEXT
  8
3
  40
90
  5
7F93
  62
0
  72
0
  71
0
 10
1569.15
 20
4133.77
 30
0.000000
  1
452
  0
POINT
  5
7F80
  8
DEFPOINTS
 62
     0
 10
1975.7465859999991
 20
4078.4089090000002
 30
0.0
  0
POINT
  5
7F81
  8
DEFPOINTS
 62
     0
 10
1522.5576829969959
 20
3311.2092469999998
 30
0.0
  0
POINT
  5
7F82
  8
DEFPOINTS
 62
     0
 10
1522.5576829969959
 20
4218.0740949999999
 30
0.0
  0
ENDBLK
  5
7E1F
  8
0
  0
ENDSEC
  0
SECTION
  2
ENTITIES
  0
LINE
  5
7ABF
  8
1
  6
CONTINUOUS
 10
1996.746586
 20
5416.7337379999999
 30
0.0
 11
1996.746586
 21
5554.2337379999999
 31
0.0
  0
LINE
  5
7AC0
  8
1
  6
CONTINUOUS
 10
1954.7465859999991
 20
5416.7337379999999
 30
0.0
 11
1954.7465859999991
 21
5554.2337379999999
 31
0.0
  0
LINE
  5
7AC1
  8
1
  6
CONTINUOUS
 10
1545.746586
 20
5380.733737999999
 30
0.0
 11
1545.746586
 21
5554.2337379999999
 31
0.0
  0
LINE
  5
7AC2
  8
1
  6
CONTINUOUS
 10
2955.7465860000002
 20
6080.7337379999999
 30
0.0
 11
2955.7465860000002
 21
5380.733737999999
 31
0.0
  0
LINE
  5
7AC3
  8
1
  6
CONTINUOUS
 10
2534.5954769999989
 20
5483.4656549999991
 30
0.0
 11
2534.5954769999989
 21
5554.2337379999999
 31
0.0
  0
LINE
  5
7AC4
  8
1
  6
CONTINUOUS
 10
2858.5954769999998
 20
5483.4656549999991
 30
0.0
 11
2858.5954769999998
 21
5968.465655
 31
0.0
  0
ARC
  5
7AD3
  8
1
  6
CONTINUOUS
 10
1948.746586
 20
3311.2092469999998
 30
0.0
 40
425.74044800000001
 50
90.403740999999997
 51
172.6476209999999
  0
LINE
  5
7AD4
  8
1
  6
CONTINUOUS
 10
2595.7465860000002
 20
3823.2092469999989
 30
0.0
 11
2579.7465860000002
 21
3338.2092469999989
 31
0.0
  0
LINE
  5
7AD5
  8
1
  6
CONTINUOUS
 10
1635.746586
 20
2868.2092469999989
 30
0.0
 11
1635.746586
 21
3868.2092469999998
 31
0.0
  0
LINE
  5
7AD6
  8
1
  6
CONTINUOUS
 10
2905.7465859999988
 20
3168.2092469999998
 30
0.0
 11
2075.7465859999988
 21
3868.2092469999998
 31
0.0
  0
LINE
  5
7AD9
  8
1
  6
CONTINUOUS
 10
2955.7465860000002
 20
2642.2092469999998
 30
0.0
 11
1545.746586
 21
2642.2092469999998
 31
0.0
  0
LINE
  5
7ADA
  8
1
  6
CONTINUOUS
 10
1545.746586
 20
2742.2092469999989
 30
0.0
 11
2955.7465860000002
 21
2742.2092469999989
 31
0.0
  0
LINE
  5
7ADB
  8
1
  6
CONTINUOUS
 10
2675.463698999999
 20
2991.0506569999998
 30
0.0
 11
1936.124501
 21
3193.5368910000002
 31
0.0
  0
LINE
  5
7ADC
  8
1
  6
CONTINUOUS
 10
2731.3528969999988
 20
3140.2642380000002
 30
0.0
 11
2040.9167480000001
 21
3473.3123549999991
 31
0.0
  0
ARC
  5
7ADD
  8
1
  6
CONTINUOUS
 10
2016.746586
 20
3379.2092469999998
 30
0.0
 40
564.49092099999984
 50
265.48601200000002
 51
355.834836
  0
LINE
  5
7ADE
  8
1
  6
CONTINUOUS
 10
1545.746586
 20
2868.2092469999998
 30
0.0
 11
2955.7465860000002
 21
2868.2092469999989
 31
0.0
  0
LINE
  5
7ADF
  8
1
  6
CONTINUOUS
 10
2955.7465860000002
 20
2768.2092469999989
 30
0.0
 11
1545.746586
 21
2768.2092469999989
 31
0.0
  0
ARC
  5
7AE3
  8
1
  6
CONTINUOUS
 10
2010.746586
 20
3303.2092469999989
 30
0.0
 40
488.25444700000003
 50
172.6476209999999
 51
265.48601200000002
  0
LINE
  5
7AE4
  8
1
  6
CONTINUOUS
 10
1545.746586
 20
2642.2092469999998
 30
0.0
 11
1545.746586
 21
2742.2092469999989
 31
0.0
  0
LINE
  5
7AE5
  8
1
  6
CONTINUOUS
 10
1545.746586
 20
2768.2092469999989
 30
0.0
 11
1545.746586
 21
2868.2092469999989
 31
0.0
  0
LINE
  5
7AE6
  8
2
  6
CENTER
 10
1380.1644879999999
 20
3338.2092469999989
 30
0.0
 11
2874.2392279999999
 21
3338.2092469999989
 31
0.0
  0
LINE
  5
7AE7
  8
2
  6
CENTER
 10
1975.7465859999991
 20
6199.9748970000001
 30
0.0
 11
1975.7465859999991
 21
5150.652701
 31
0.0
  0
CIRCLE
  5
7AE8
  8
1
  6
CONTINUOUS
 10
1975.7465859999991
 20
3338.2092469999989
 30
0.0
 40
150.0
  0
CIRCLE
  5
7AE9
  8
1
  6
CONTINUOUS
 10
2696.5954769999998
 20
3068.2092469999989
 30
0.0
 40
80.0
  0
LINE
  5
7AEA
  8
2
  6
CENTER
 10
2696.5954769999998
 20
3148.2092469999998
 30
0.0
 11
2696.5954769999998
 21
2988.2092469999998
 31
0.0
  0
ARC
  5
7AEB
  8
1
  6
CONTINUOUS
 10
2696.5954769999998
 20
3068.2092469999989
 30
0.0
 40
162.0
 50
324.972283
 51
215.02771699999991
  0
LINE
  5
7AEC
  8
1
  6
CONTINUOUS
 10
2905.7465859999988
 20
2868.2092469999989
 30
0.0
 11
2905.7465859999988
 21
3168.2092469999998
 31
0.0
  0
LINE
  5
7AED
  8
1
  6
CONTINUOUS
 10
2542.5954769999998
 20
2908.2092469999998
 30
0.0
 11
2850.5954769999998
 21
2908.2092469999998
 31
0.0
  0
LINE
  5
7AEE
  8
1
  6
CONTINUOUS
 10
2542.5954769999998
 20
2926.2092469999998
 30
0.0
 11
2563.9378120000001
 21
2975.22568
 31
0.0
  0
LINE
  5
7AEF
  8
1
  6
CONTINUOUS
 10
2542.5954769999998
 20
2868.2092469999989
 30
0.0
 11
2542.5954769999998
 21
2926.2092469999998
 31
0.0
  0
LINE
  5
7AF0
  8
1
  6
CONTINUOUS
 10
2955.7465860000002
 20
2742.2092469999989
 30
0.0
 11
2955.7465860000002
 21
2642.2092469999998
 31
0.0
  0
LINE
  5
7AF1
  8
1
  6
CONTINUOUS
 10
2850.5954769999998
 20
2926.2092469999998
 30
0.0
 11
2829.2531429999999
 21
2975.22568
 31
0.0
  0
LINE
  5
7AF2
  8
1
  6
CONTINUOUS
 10
2850.5954769999998
 20
2908.2092469999998
 30
0.0
 11
2850.5954769999998
 21
2926.2092469999998
 31
0.0
  0
LINE
  5
7AF3
  8
1
  6
CONTINUOUS
 10
2850.5954769999998
 20
2868.2092469999989
 30
0.0
 11
2850.5954769999998
 21
2926.2092469999998
 31
0.0
  0
LINE
  5
7AF4
  8
1
  6
CONTINUOUS
 10
2955.7465860000002
 20
2868.2092469999989
 30
0.0
 11
2955.7465860000002
 21
2768.2092469999989
 31
0.0
  0
LINE
  5
7AF5
  8
2
  6
CENTER
 10
2616.5954769999998
 20
3068.2092469999989
 30
0.0
 11
2776.5954769999998
 21
3068.2092469999989
 31
0.0
  0
LINE
  5
7AF6
  8
1
  6
CONTINUOUS
 10
1945.746586
 20
3793.2092469999998
 30
0.0
 11
2594.756895
 21
3793.2092469999998
 31
0.0
  0
LINE
  5
7AF7
  8
1
  6
CONTINUOUS
 10
1635.746586
 20
5311.7337379999999
 30
0.0
 11
2905.7465859999988
 21
5311.7337379999999
 31
0.0
  0
LINE
  5
7AF8
  8
1
  6
CONTINUOUS
 10
1635.746586
 20
5451.7337379999999
 30
0.0
 11
2905.7465859999988
 21
5451.7337379999999
 31
0.0
  0
LINE
  5
7AF9
  8
1
  6
CONTINUOUS
 10
2616.5954769999998
 20
5380.733737999999
 30
0.0
 11
2125.7465859999988
 21
5380.733737999999
 31
0.0
  0
LINE
  5
7AFA
  8
1
  6
CONTINUOUS
 10
1905.746586
 20
3823.2092469999989
 30
0.0
 11
2635.7465859999988
 21
3823.2092469999989
 31
0.0
  0
LINE
  5
7AFC
  8
1
  6
CONTINUOUS
 10
1635.746586
 20
3868.2092469999998
 30
0.0
 11
2075.7465859999988
 21
3868.2092469999998
 31
0.0
  0
LINE
  5
7AFD
  8
1
  6
CONTINUOUS
 10
1945.746586
 20
3736.9391249999999
 30
0.0
 11
1945.746586
 21
3823.2092469999989
 31
0.0
  0
LINE
  5
7AFE
  8
1
  6
CONTINUOUS
 10
1825.746586
 20
5380.733737999999
 30
0.0
 11
1545.746586
 21
5380.733737999999
 31
0.0
  0
LINE
  5
7AFF
  8
1
  6
CONTINUOUS
 10
1635.746586
 20
5311.7337379999999
 30
0.0
 11
1635.746586
 21
5451.7337379999999
 31
0.0
  0
LINE
  5
7B00
  8
1
  6
CONTINUOUS
 10
2125.7465859999988
 20
5346.7337380000008
 30
0.0
 11
2125.7465859999988
 21
5416.7337379999999
 31
0.0
  0
LINE
  5
7B01
  8
1
  6
CONTINUOUS
 10
1825.746586
 20
5346.7337380000008
 30
0.0
 11
1825.746586
 21
5416.7337379999999
 31
0.0
  0
LINE
  5
7B02
  8
1
  6
CONTINUOUS
 10
2125.7465859999988
 20
5416.7337379999999
 30
0.0
 11
1825.746586
 21
5416.7337379999999
 31
0.0
  0
LINE
  5
7B03
  8
1
  6
CONTINUOUS
 10
2125.7465859999988
 20
5346.7337380000008
 30
0.0
 11
1825.746586
 21
5346.7337380000008
 31
0.0
  0
LINE
  5
7B04
  8
1
  6
CONTINUOUS
 10
2776.5954769999998
 20
5346.7337380000008
 30
0.0
 11
2616.5954769999998
 21
5346.7337380000008
 31
0.0
  0
LINE
  5
7B05
  8
1
  6
CONTINUOUS
 10
2776.5954769999998
 20
5416.7337379999999
 30
0.0
 11
2616.5954769999998
 21
5416.7337379999999
 31
0.0
  0
LINE
  5
7B06
  8
1
  6
CONTINUOUS
 10
2858.5954769999998
 20
5483.4656549999991
 30
0.0
 11
2534.5954769999989
 21
5483.4656549999991
 31
0.0
  0
LINE
  5
7B07
  8
1
  6
CONTINUOUS
 10
2675.5954769999989
 20
5416.7337379999999
 30
0.0
 11
2675.5954769999989
 21
5483.4656549999991
 31
0.0
  0
LINE
  5
7B08
  8
1
  6
CONTINUOUS
 10
2717.5954769999998
 20
5416.7337379999999
 30
0.0
 11
2717.5954769999998
 21
5483.4656549999991
 31
0.0
  0
LINE
  5
7B09
  8
1
  6
CONTINUOUS
 10
2616.5954769999998
 20
5346.7337380000008
 30
0.0
 11
2616.5954769999998
 21
5416.7337379999999
 31
0.0
  0
LINE
  5
7B0A
  8
1
  6
CONTINUOUS
 10
2776.5954769999998
 20
5346.7337380000008
 30
0.0
 11
2776.5954769999998
 21
5416.7337379999999
 31
0.0
  0
LINE
  5
7B0B
  8
1
  6
CONTINUOUS
 10
2955.7465860000002
 20
5380.733737999999
 30
0.0
 11
2776.5954769999998
 21
5380.733737999999
 31
0.0
  0
LINE
  5
7B0C
  8
1
  6
CONTINUOUS
 10
2905.7465859999988
 20
5311.7337379999999
 30
0.0
 11
2905.7465859999988
 21
5451.7337379999999
 31
0.0
  0
LINE
  5
7B36
  8
1
  6
CONTINUOUS
 10
4252.4668940000001
 20
2868.2092469999989
 30
0.0
 11
4952.4668940000001
 21
2868.2092469999989
 31
0.0
  0
LINE
  5
7B37
  8
1
  6
CONTINUOUS
 10
4252.4668940000001
 20
2768.2092469999989
 30
0.0
 11
4952.4668940000001
 21
2768.2092469999989
 31
0.0
  0
LINE
  5
7B38
  8
1
  6
CONTINUOUS
 10
4383.4668940000001
 20
3823.2092469999989
 30
0.0
 11
4943.4668940000001
 21
3823.2092469999989
 31
0.0
  0
LINE
  5
7B39
  8
1
  6
CONTINUOUS
 10
4425.9668940000001
 20
3783.2092469999998
 30
0.0
 11
4900.9668940000001
 21
3783.2092469999998
 31
0.0
  0
LINE
  5
7B3A
  8
1
  6
CONTINUOUS
 10
4252.4668940000001
 20
2642.2092469999998
 30
0.0
 11
4952.4668940000001
 21
2642.2092469999998
 31
0.0
  0
LINE
  5
7B3B
  8
1
  6
CONTINUOUS
 10
4252.4668940000001
 20
2742.2092469999989
 30
0.0
 11
4952.4668940000001
 21
2742.2092469999989
 31
0.0
  0
LINE
  5
7B3D
  8
1
  6
CONTINUOUS
 10
4323.4668940000001
 20
3868.2092469999998
 30
0.0
 11
4323.4668940000001
 21
2868.2092469999989
 31
0.0
  0
LINE
  5
7B3E
  8
1
  6
CONTINUOUS
 10
4183.4668940000001
 20
3868.2092469999998
 30
0.0
 11
4183.4668940000001
 21
2868.2092469999989
 31
0.0
  0
LINE
  5
7B3F
  8
1
  6
CONTINUOUS
 10
4425.9668940000001
 20
3823.2092469999989
 30
0.0
 11
4425.9668940000001
 21
2868.2092469999989
 31
0.0
  0
LINE
  5
7B43
  8
1
  6
CONTINUOUS
 10
4288.4668940000001
 20
3148.2092469999998
 30
0.0
 11
4288.4668940000001
 21
2988.2092469999998
 31
0.0
  0
LINE
  5
7B44
  8
1
  6
CONTINUOUS
 10
4218.4668940000001
 20
3148.2092469999998
 30
0.0
 11
4218.4668940000001
 21
2988.2092469999998
 31
0.0
  0
LINE
  5
7B45
  8
1
  6
CONTINUOUS
 10
4183.4668940000001
 20
2868.2092469999989
 30
0.0
 11
4252.4668940000001
 21
2868.2092469999989
 31
0.0
  0
LINE
  5
7B46
  8
1
  6
CONTINUOUS
 10
4252.4668940000001
 20
2868.2092469999989
 30
0.0
 11
4252.4668940000001
 21
2768.2092469999989
 31
0.0
  0
LINE
  5
7B47
  8
1
  6
CONTINUOUS
 10
4218.4668940000001
 20
2988.2092469999998
 30
0.0
 11
4288.4668940000001
 21
2988.2092469999998
 31
0.0
  0
LINE
  5
7B48
  8
1
  6
CONTINUOUS
 10
4252.4668940000001
 20
2742.2092469999989
 30
0.0
 11
4252.4668940000001
 21
2642.2092469999998
 31
0.0
  0
LINE
  5
7B4B
  8
1
  6
CONTINUOUS
 10
4288.4668940000001
 20
3359.2092469999989
 30
0.0
 11
4425.9668940000001
 21
3359.2092469999989
 31
0.0
  0
LINE
  5
7B4C
  8
1
  6
CONTINUOUS
 10
4288.4668940000001
 20
3317.2092469999989
 30
0.0
 11
4425.9668940000001
 21
3317.2092469999989
 31
0.0
  0
LINE
  5
7B4D
  8
1
  6
CONTINUOUS
 10
4288.4668940000001
 20
3089.2092469999989
 30
0.0
 11
4425.9668940000001
 21
3089.2092469999989
 31
0.0
  0
LINE
  5
7B4E
  8
1
  6
CONTINUOUS
 10
4288.4668940000001
 20
3047.2092469999998
 30
0.0
 11
4425.9668940000001
 21
3047.2092469999998
 31
0.0
  0
LINE
  5
7B4F
  8
1
  6
CONTINUOUS
 10
4218.4668940000001
 20
3488.2092469999989
 30
0.0
 11
4288.4668940000001
 21
3488.2092469999989
 31
0.0
  0
LINE
  5
7B50
  8
1
  6
CONTINUOUS
 10
4218.4668940000001
 20
3188.2092469999998
 30
0.0
 11
4288.4668940000001
 21
3188.2092469999998
 31
0.0
  0
LINE
  5
7B51
  8
1
  6
CONTINUOUS
 10
4288.4668940000001
 20
3488.2092469999989
 30
0.0
 11
4288.4668940000001
 21
3188.2092469999998
 31
0.0
  0
LINE
  5
7B52
  8
1
  6
CONTINUOUS
 10
4218.4668940000001
 20
3488.2092469999989
 30
0.0
 11
4218.4668940000001
 21
3188.2092469999998
 31
0.0
  0
LINE
  5
7B53
  8
1
  6
CONTINUOUS
 10
4218.4668940000001
 20
3148.2092469999998
 30
0.0
 11
4288.4668940000001
 21
3148.2092469999998
 31
0.0
  0
LINE
  5
7B55
  8
1
  6
CONTINUOUS
 10
4323.4668940000001
 20
3868.2092469999998
 30
0.0
 11
4183.4668940000001
 21
3868.2092469999998
 31
0.0
  0
LINE
  5
7B56
  8
1
  6
CONTINUOUS
 10
4900.9668940000001
 20
3823.2092469999989
 30
0.0
 11
4900.9668940000001
 21
2868.2092469999989
 31
0.0
  0
LINE
  5
7B57
  8
1
  6
CONTINUOUS
 10
4952.4668940000001
 20
2868.2092469999989
 30
0.0
 11
4952.4668940000001
 21
2768.2092469999989
 31
0.0
  0
LINE
  5
7B58
  8
1
  6
CONTINUOUS
 10
4952.4668940000001
 20
2742.2092469999989
 30
0.0
 11
4952.4668940000001
 21
2642.2092469999998
 31
0.0
  0
LINE
  5
7B5C
  8
1
  6
CONTINUOUS
 10
2595.7465860000002
 20
5554.2337379999999
 30
0.0
 11
1522.492139
 21
5554.2337379999999
 31
0.0
  0
LINE
  5
7B5D
  8
1
  6
CONTINUOUS
 10
2595.7465860000002
 20
6029.2337379999999
 30
0.0
 11
1522.492139
 21
6029.2337379999999
 31
0.0
  0
LINE
  5
7B5E
  8
1
  6
CONTINUOUS
 10
2595.7465860000002
 20
6029.2337379999999
 30
0.0
 11
1945.746586
 21
5554.2337379999999
 31
0.0
  0
LINE
  5
7B5F
  8
1
  6
CONTINUOUS
 10
2595.7465860000002
 20
5554.2337379999999
 30
0.0
 11
1945.746586
 21
6029.2337379999999
 31
0.0
  0
LINE
  5
7B60
  8
1
  6
CONTINUOUS
 10
1545.746586
 20
6080.7337379999999
 30
0.0
 11
2955.7465860000002
 21
6080.7337379999999
 31
0.0
  0
LINE
  5
7B61
  8
1
  6
CONTINUOUS
 10
1545.746586
 20
6029.2337379999999
 30
0.0
 11
1545.746586
 21
6080.7337379999999
 31
0.0
  0
LINE
  5
7B62
  8
1
  6
CONTINUOUS
 10
1522.492139
 20
5554.2337379999999
 30
0.0
 11
1522.492139
 21
6029.2337379999999
 31
0.0
  0
LINE
  5
7B63
  8
1
  6
CONTINUOUS
 10
1945.746586
 20
5554.2337379999999
 30
0.0
 11
1945.746586
 21
6029.2337379999999
 31
0.0
  0
LINE
  5
7B64
  8
1
  6
CONTINUOUS
 10
2858.5954769999998
 20
5968.465655
 30
0.0
 11
2595.7465860000002
 21
5968.465655
 31
0.0
  0
LINE
  5
7B65
  8
1
  6
CONTINUOUS
 10
2595.7465860000002
 20
5554.2337379999999
 30
0.0
 11
2595.7465860000002
 21
6029.2337379999999
 31
0.0
  0
LINE
  5
7B6E
  8
2
  6
CENTER
 10
3025.4150420000001
 20
5791.7337379999999
 30
0.0
 11
1378.3564690000001
 21
5791.7337379999999
 31
0.0
  0
LINE
  5
7B6F
  8
2
  6
CENTER
 10
1975.7465859999991
 20
4078.4089090000002
 30
0.0
 11
1975.7465859999991
 21
2552.256394
 31
0.0
  0
LINE
  5
7B70
  8
2
  6
CENTER
 10
4039.3071679999989
 20
3338.2092469999989
 30
0.0
 11
5025.953246
 21
3338.2092469999989
 31
0.0
  0
LINE
  5
7B71
  8
4
  6
CONTINUOUS
 10
5550.0
 20
1500.0
 30
0.0
 11
5550.0
 21
900.0
 31
0.0
  0
LINE
  5
7B72
  8
4
  6
CONTINUOUS
 10
3450.0
 20
1500.0
 30
0.0
 11
3450.0
 21
900.0
 31
0.0
  0
LINE
  5
7B73
  8
4
  6
CONTINUOUS
 10
1950.0
 20
1500.0
 30
0.0
 11
1950.0
 21
900.0
 31
0.0
  0
LINE
  5
7B76
  8
4
  6
CONTINUOUS
 10
1950.0
 20
900.0
 30
0.0
 11
5550.0
 21
900.0
 31
0.0
  0
LINE
  5
7B77
  8
4
  6
CONTINUOUS
 10
1950.0
 20
1200.0
 30
0.0
 11
5550.0
 21
1200.0
 31
0.0
  0
TEXT
  5
7B78
  8
4
  6
CONTINUOUS
 10
2065.5062429999989
 20
1294.6290779999999
 30
0.0
 40
150.0
  1
機器名称
  0
TEXT
  5
7B79
  8
4
  6
CONTINUOUS
 10
2058.7743179999989
 20
964.9354699999999
 30
0.0
 40
150.0
  1
機器型番
  0
TEXT
  5
7B7A
  8
4
  6
CONTINUOUS
 10
3533.0362359999999
 20
1267.7153069999999
 30
0.0
 40
150.0
  1
ミツヤ多翼送風機
  0
TEXT
  5
7B7B
  8
4
  6
CONTINUOUS
 10
3559.9634869999991
 20
951.47875299999987
 30
0.0
 40
150.0
  1
MF#4-4
  0
TEXT
  5
7B7D
  8
4
  6
CONTINUOUS
 10
2326.1751720000002
 20
7150.2865239999992
 30
0.0
 40
162.0
  1
床置防振ベット
  0
TEXT
  5
7B7E
  8
4
  6
CONTINUOUS
 10
948.50278000000014
 20
7601.6429289999996
 30
0.0
 40
216.0
  1
ベルト駆動式片吸込両持多翼ファン
  0
LINE
  5
7B7F
  8
4
  6
CONTINUOUS
 10
750.0
 20
7408.2262629999996
 30
0.0
 11
5550.0
 21
7408.2262629999996
 31
0.0
  0
LINE
  5
7B80
  8
4
  6
CONTINUOUS
 10
750.0
 20
8008.2262629999996
 30
0.0
 11
5550.0
 21
8008.2262629999996
 31
0.0
  0
LINE
  5
7B81
  8
4
  6
CONTINUOUS
 10
1950.0
 20
1500.0
 30
0.0
 11
5550.0
 21
1500.0
 31
0.0
  0
LINE
  5
7B82
  8
4
  6
CONTINUOUS
 10
750.0
 20
8008.2262629999996
 30
0.0
 11
750.0
 21
7408.2262629999996
 31
0.0
  0
TEXT
  5
7B83
  8
4
  6
CONTINUOUS
 10
1018.598675
 20
7146.9584329999998
 30
0.0
 40
162.0
  1
左回転上向
  0
TEXT
  5
7B84
  8
4
  6
CONTINUOUS
 10
4406.9086779999989
 20
8118.1832439999989
 30
0.0
 40
168.0
  1
No.
  0
TEXT
  5
7B85
  8
4
  6
CONTINUOUS
 10
3933.8881879999999
 20
7150.2865239999992
 30
0.0
 40
162.0
  1
縮尺：1/30
  0
LINE
  5
7B86
  8
4
  6
CONTINUOUS
 10
5550.0
 20
8008.2262629999996
 30
0.0
 11
5550.0
 21
7408.2262629999996
 31
0.0
  0
LINE
  5
7B88
  8
4
  6
CONTINUOUS
 10
4321.8522670000002
 20
8043.7907490000007
 30
0.0
 11
4321.8522670000002
 21
8359.9567849999985
 31
0.0
  0
LINE
  5
7B89
  8
4
  6
CONTINUOUS
 10
4321.8522670000002
 20
8359.9567849999985
 30
0.0
 11
5550.0
 21
8359.9567849999985
 31
0.0
  0
LINE
  5
7B8A
  8
4
  6
CONTINUOUS
 10
5550.0
 20
8359.9567849999985
 30
0.0
 11
5550.0
 21
8043.7907490000007
 31
0.0
  0
LINE
  5
7B8B
  8
4
  6
CONTINUOUS
 10
5550.0
 20
8043.7907490000007
 30
0.0
 11
4321.8522670000002
 21
8043.7907490000007
 31
0.0
  0
DIMENSION
  5
7BA3
  8
3
  6
CONTINUOUS
  2
*D1
 10
1945.746586
 20
4046.4218970000002
 30
0.0
 11
2251.9850319999991
 21
4046.4218970000002
 31
0.0
 70
   128
 13
2595.7465860000002
 23
3823.2092469999989
 33
0.0
 14
1945.746586
 24
3823.2092469999989
 34
0.0
1001
ACAD
1000
DSTYLE
1002
{
1070
   287
1070
     3
1070
   287
1070
     3
1070
    40
1040
30.0
1070
   143
1040
0.039
1070
   172
1070
     1
1070
   271
1070
     0
1070
   279
1070
     0
1070
   288
1070
     1
1002
}
  0
DIMENSION
  5
7BB0
  8
3
  6
CONTINUOUS
  2
*D2
 10
1975.7465859999991
 20
4218.0740949999999
 30
0.0
 11
2251.9850319999991
 21
4218.0740949999999
 31
0.0
 70
   128
 13
2595.7465860000002
 23
3823.2092469999989
 33
0.0
 14
1975.7465859999991
 24
4078.4089090000002
 34
0.0
1001
ACAD
1000
DSTYLE
1002
{
1070
   287
1070
     3
1070
   287
1070
     3
1070
    40
1040
30.0
1070
   143
1040
0.039
1070
   172
1070
     1
1070
   271
1070
     0
1070
   279
1070
     0
1070
   288
1070
     1
1002
}
  0
DIMENSION
  5
7BC9
  8
3
  6
CONTINUOUS
  2
*D3
 10
1255.473876
 20
3338.2092469999989
 30
0.0
 11
1255.473876
 21
3543.9235329999992
 31
0.0
 70
   128
 13
1905.746586
 23
3823.2092469999989
 33
0.0
 14
1380.1644879999999
 24
3338.2092469999989
 34
0.0
 50
90.0
1001
ACAD
1000
DSTYLE
1002
{
1070
   287
1070
     3
1070
   287
1070
     3
1070
    40
1040
30.0
1070
   143
1040
0.039
1070
   172
1070
     1
1070
   271
1070
     0
1070
   279
1070
     0
1070
   288
1070
     1
1002
}
  0
DIMENSION
  5
7BD5
  8
3
  6
CONTINUOUS
  2
*D4
 10
1255.473876
 20
2768.2092469999989
 30
0.0
 11
1180.4738759999991
 21
3053.2092469999998
 31
0.0
 70
     0
 13
1380.1644879999999
 23
3338.2092469999989
 33
0.0
 14
1545.746586
 24
2768.2092469999989
 34
0.0
 50
90.0
1001
ACAD
1000
DSTYLE
1002
{
1070
   287
1070
     4
1070
   287
1070
     4
1070
    40
1040
30.0
1070
    75
1070
     1
1070
   143
1040
0.039
1070
   172
1070
     1
1070
   271
1070
     0
1070
   279
1070
     1
1070
   288
1070
     1
1002
}
  0
DIMENSION
  5
7BE5
  8
3
  6
CONTINUOUS
  2
*D5
 10
1255.473876
 20
2642.2092469999998
 30
0.0
 11
1255.473876
 21
2387.2092469999998
 31
0.0
 70
   128
 13
1545.746586
 23
2768.2092469999989
 33
0.0
 14
1545.746586
 24
2642.2092469999998
 34
0.0
 50
90.0
1001
ACAD
1000
DSTYLE
1002
{
1070
   287
1070
     3
1070
   287
1070
     3
1070
    40
1040
30.0
1070
   143
1040
0.039
1070
   172
1070
     1
1070
   271
1070
     0
1070
   279
1070
     0
1070
   288
1070
     1
1002
}
  0
DIMENSION
  5
7BF2
  8
3
  6
CONTINUOUS
  2
*D6
 10
1091.6716100000001
 20
2642.2092469999998
 30
0.0
 11
1091.671609999999
 21
3214.2839359999989
 31
0.0
 70
   128
 13
1890.7465859999991
 23
3823.2092469999989
 33
0.0
 14
1545.746586
 24
2642.2092469999998
 34
0.0
 50
90.0
1001
ACAD
1000
DSTYLE
1002
{
1070
   287
1070
     3
1070
   287
1070
     3
1070
    40
1040
30.0
1070
   143
1040
0.039
1070
   172
1070
     1
1070
   271
1070
     0
1070
   279
1070
     0
1070
   288
1070
     1
1002
}
  0
DIMENSION
  5
7BFF
  8
3
  6
CONTINUOUS
  2
*D7
 10
1975.7465859999991
 20
2403.0795659999999
 30
0.0
 11
1770.0323000000001
 21
2403.0795659999999
 31
0.0
 70
   128
 13
1545.746586
 23
2642.2092469999998
 33
0.0
 14
1975.7465859999991
 24
2552.256394
 34
0.0
1001
ACAD
1000
DSTYLE
1002
{
1070
   287
1070
     3
1070
   287
1070
     3
1070
    40
1040
30.0
1070
   143
1040
0.039
1070
   172
1070
     1
1070
   271
1070
     0
1070
   279
1070
     0
1070
   288
1070
     1
1002
}
  0
DIMENSION
  5
7C0B
  8
3
  6
CONTINUOUS
  2
*D8
 10
2955.7465860000002
 20
2403.0795659999999
 30
0.0
 11
2465.7465859999988
 21
2478.079565999999
 31
0.0
 70
     0
 13
1975.7465859999991
 23
2552.256394
 33
0.0
 14
2955.7465860000002
 24
2642.2092469999998
 34
0.0
1001
ACAD
1000
DSTYLE
1002
{
1070
   287
1070
     4
1070
   287
1070
     4
1070
    40
1040
30.0
1070
    75
1070
     1
1070
   143
1040
0.039
1070
   172
1070
     1
1070
   271
1070
     0
1070
   279
1070
     1
1070
   288
1070
     1
1002
}
  0
DIMENSION
  5
7C18
  8
3
  6
CONTINUOUS
  2
*D9
 10
4425.9668940000001
 20
3935.2232009999998
 30
0.0
 11
4631.6811799999996
 21
3935.2232009999998
 31
0.0
 70
   128
 13
4900.9668940000001
 23
3823.2092469999989
 33
0.0
 14
4425.9668940000001
 24
3823.2092469999989
 34
0.0
1001
ACAD
1000
DSTYLE
1002
{
1070
   287
1070
     3
1070
   287
1070
     3
1070
    40
1040
30.0
1070
   143
1040
0.039
1070
   172
1070
     1
1070
   271
1070
     0
1070
   279
1070
     0
1070
   288
1070
     1
1002
}
  0
LINE
  5
7C1B
  8
1
  6
CONTINUOUS
 10
4904.4668940000001
 20
3673.2092469999989
 30
0.0
 11
4904.4668940000001
 21
3003.2092469999998
 31
0.0
  0
DIMENSION
  5
7C28
  8
3
  6
CONTINUOUS
  2
*D10
 10
5162.7565760000007
 20
3003.2092469999989
 30
0.0
 11
5162.7565759999989
 21
3351.6057019999998
 31
0.0
 70
   128
 13
4904.4668940000001
 23
3673.2092469999989
 33
0.0
 14
4904.4668940000001
 24
3003.2092469999998
 34
0.0
 50
90.0
1001
ACAD
1000
DSTYLE
1002
{
1070
   287
1070
     3
1070
   287
1070
     3
1070
     3
1000
φ<>
1070
    40
1040
30.0
1070
   143
1040
0.039
1070
   172
1070
     1
1070
   271
1070
     0
1070
   279
1070
     0
1070
   288
1070
     1
1002
}
  0
DIMENSION
  5
7C42
  8
3
  6
CONTINUOUS
  2
*D11
 10
4183.4668940000001
 20
4187.7437620128339
 30
0.0
 11
4423.4668939999992
 21
4337.743762012833
 31
0.0
 70
     0
  1
MAX\P530
 13
4663.4668940000001
 23
4164.7848120128328
 33
0.0
 14
4183.4668940000001
 24
3868.2092469999998
 34
0.0
1001
ACAD
1000
DSTYLE
1002
{
1070
   287
1070
     4
1070
   287
1070
     4
1070
    40
1040
30.0
1070
    75
1070
     1
1070
   143
1040
0.039
1070
   172
1070
     1
1070
   271
1070
     0
1070
   279
1070
     1
1070
   288
1070
     1
1002
}
  0
DIMENSION
  5
7C4F
  8
3
  6
CONTINUOUS
  2
*D12
 10
4663.4668940000001
 20
2399.2281699999999
 30
0.0
 11
4430.324036
 21
2399.2281699999999
 31
0.0
 70
   128
 13
4252.4668940000001
 23
2642.2092469999998
 33
0.0
 14
4663.4668940000001
 24
2500.1853809999998
 34
0.0
1001
ACAD
1000
DSTYLE
1002
{
1070
   287
1070
     3
1070
   287
1070
     3
1070
    40
1040
30.0
1070
   143
1040
0.039
1070
   172
1070
     1
1070
   271
1070
     0
1070
   279
1070
     0
1070
   288
1070
     1
1002
}
  0
DIMENSION
  5
7C5D
  8
3
  6
CONTINUOUS
  2
*D13
 10
4952.4668940000001
 20
2399.2281699999999
 30
0.0
 11
4815.5447720000002
 21
2399.1994249999989
 31
0.0
 70
   128
 13
4663.4668940000001
 23
2500.1853809999998
 33
0.0
 14
4952.4668940000001
 24
2642.2092469999998
 34
0.0
1001
ACAD
1000
DSTYLE
1002
{
1070
   287
1070
     4
1070
   287
1070
     4
1070
    40
1040
30.0
1070
    75
1070
     1
1070
   143
1040
0.039
1070
   172
1070
     1
1070
   271
1070
     0
1070
   279
1070
     1
1070
   288
1070
     1
1002
}
  0
LINE
  5
7C82
  8
2
  6
CENTER
 10
4663.4668940000001
 20
3907.2306960000001
 30
0.0
 11
4663.4668940000001
 21
2500.1853809999998
 31
0.0
  0
DIMENSION
  5
7C8F
  8
3
  6
CONTINUOUS
  2
*D14
 10
2955.7465860000002
 20
6256.9249020000007
 30
0.0
 11
2217.6225690000001
 21
6256.9249020000007
 31
0.0
 70
   128
 13
1545.746586
 23
6080.7337379999999
 33
0.0
 14
2955.7465860000002
 24
6080.7337379999999
 34
0.0
1001
ACAD
1000
DSTYLE
1002
{
1070
   287
1070
     3
1070
   287
1070
     3
1070
    40
1040
30.0
1070
   143
1040
0.039
1070
   172
1070
     1
1070
   271
1070
     0
1070
   279
1070
     0
1070
   288
1070
     1
1002
}
  0
DIMENSION
  5
7C9C
  8
3
  6
CONTINUOUS
  2
*D15
 10
3186.6437760000008
 20
5380.733737999999
 30
0.0
 11
3186.6437759999999
 21
5687.0395749999998
 31
0.0
 70
   128
 13
2955.7465860000002
 23
6080.7337379999999
 33
0.0
 14
2955.7465860000002
 24
5380.733737999999
 34
0.0
 50
90.0
1001
ACAD
1000
DSTYLE
1002
{
1070
   287
1070
     3
1070
   287
1070
     3
1070
    40
1040
30.0
1070
   143
1040
0.039
1070
   172
1070
     1
1070
   271
1070
     0
1070
   279
1070
     0
1070
   288
1070
     1
1002
}
  0
DIMENSION
  5
7D2B
  8
3
  6
CONTINUOUS
  2
*D16
 10
4904.4668940000001
 20
4187.7437620128339
 30
0.0
 11
4781.6789392460669
 21
4262.0948798868403
 31
0.0
 70
   128
 13
4663.4668940000001
 23
4070.2829518963981
 33
0.0
 14
4904.4668940000001
 24
3673.2092469999989
 34
0.0
1001
ACAD
1000
DSTYLE
1002
{
1070
   288
1070
     1
1070
   172
1070
     1
1070
    40
1040
30.0
1070
   271
1070
     0
1070
   143
1040
0.039
1002
}
  0
LINE
  5
7E0F
  8
1
  6
CONTINUOUS
 10
1565.7465859999991
 20
3688.2092469999998
 30
0.0
 11
1565.7465859999991
 21
2868.2092469999998
 31
0.0
  0
LINE
  5
7E10
  8
1
  6
CONTINUOUS
 10
2385.7465859999988
 20
3688.2092469999998
 30
0.0
 11
2385.7465860000002
 21
2868.2092469999989
 31
0.0
  0
LINE
  5
7E11
  8
1
  6
CONTINUOUS
 10
1565.7465859999991
 20
3688.2092469999998
 30
0.0
 11
2385.7465860000002
 21
3688.2092470000011
 31
0.0
  0
DIMENSION
  5
7E13
  8
3
  2
*D17
 10
1522.5576829969959
 20
4218.0740949999999
 30
0.0
 11
1749.1521344984981
 21
4293.0740949999999
 31
0.0
 70
     0
  1
452
 13
1975.7465859999991
 23
4078.4089090000002
 33
0.0
 14
1522.5576829969959
 24
3311.2092469999998
 34
0.0
1001
ACAD
1000
DSTYLE
1002
{
1070
   287
1070
     4
1070
   287
1070
     4
1070
    40
1040
30.0
1070
   143
1040
0.039
1070
   172
1070
     1
1070
   271
1070
     0
1070
   279
1070
     1
1070
   288
1070
     1
1002
}
  0
ENDSEC
  0
EOF
