  0
SECTION
  2
HEADER
  9
$ACADVER
  1
AC1009
  9
$INSBASE
 10
0.0
 20
0.0
 30
0.0
  9
$EXTMIN
 10
750.0
 20
900.0
 30
0.0
  9
$EXTMAX
 10
5550.0
 20
8359.9567849999985
 30
0.0
  9
$LIMMIN
 10
0.0
 20
0.0
  9
$LIMMAX
 10
297.0
 20
210.0
  9
$ORTHOMODE
 70
     0
  9
$REGENMODE
 70
     1
  9
$FILLMODE
 70
     0
  9
$QTEXTMODE
 70
     0
  9
$MIRRTEXT
 70
     1
  9
$DRAGMODE
 70
     2
  9
$LTSCALE
 40
100.0
  9
$OSMODE
 70
    37
  9
$ATTMODE
 70
     1
  9
$TEXTSIZE
 40
180.0
  9
$TRACEWID
 40
0.05
  9
$TEXTSTYLE
  7
STANDARD
  9
$CLAYER
  8
3
  9
$CELTYPE
  6
BYLAYER
  9
$CECOLOR
 62
   256
  9
$DIMSCALE
 40
30.0
  9
$DIMASZ
 40
2.0
  9
$DIMEXO
 40
0.5
  9
$DIMDLI
 40
10.0
  9
$DIMRND
 40
0.0
  9
$DIMDLE
 40
0.0
  9
$DIMEXE
 40
1.0
  9
$DIMTP
 40
1.0
  9
$DIMTM
 40
1.0
  9
$DIMTXT
 40
3.0
  9
$DIMCEN
 40
0.0
  9
$DIMTSZ
 40
0.0
  9
$DIMTOL
 70
     0
  9
$DIMLIM
 70
     0
  9
$DIMTIH
 70
     0
  9
$DIMTOH
 70
     0
  9
$DIMSE1
 70
     0
  9
$DIMSE2
 70
     0
  9
$DIMTAD
 70
     1
  9
$DIMZIN
 70
     8
  9
$DIMBLK
  1

  9
$DIMASO
 70
     1
  9
$DIMSHO
 70
     1
  9
$DIMPOST
  1

  9
$DIMAPOST
  1

  9
$DIMALT
 70
     0
  9
$DIMALTD
 70
     2
  9
$DIMALTF
 40
0.039
  9
$DIMLFAC
 40
1.0
  9
$DIMTOFL
 70
     1
  9
$DIMTVP
 40
0.0
  9
$DIMTIX
 70
     0
  9
$DIMSOXD
 70
     0
  9
$DIMSAH
 70
     1
  9
$DIMBLK1
  1
OPEN
  9
$DIMBLK2
  1
OPEN
  9
$DIMSTYLE
  2
IGA
  9
$DIMCLRD
 70
     0
  9
$DIMCLRE
 70
     0
  9
$DIMCLRT
 70
     0
  9
$DIMTFAC
 40
10.0
  9
$DIMGAP
 40
1.0
  9
$LUNITS
 70
     2
  9
$LUPREC
 70
     3
  9
$SKETCHINC
 40
0.1
  9
$FILLETRAD
 40
50.0
  9
$AUNITS
 70
     0
  9
$AUPREC
 70
     0
  9
$MENU
  1
acad
  9
$ELEVATION
 40
0.0
  9
$PELEVATION
 40
0.0
  9
$THICKNESS
 40
0.0
  9
$LIMCHECK
 70
     0
  9
$BLIPMODE
 70
     0
  9
$CHAMFERA
 40
0.5
  9
$CHAMFERB
 40
0.5
  9
$SKPOLY
 70
     0
  9
$TDCREATE
 40
2450738.4977469901
  9
$TDUPDATE
 40
2454953.7715494791
  9
$TDINDWG
 40
0.0105753472
  9
$TDUSRTIMER
 40
0.0105753472
  9
$USRTIMER
 70
     1
  9
$ANGBASE
 50
0.0
  9
$ANGDIR
 70
     0
  9
$PDMODE
 70
     0
  9
$PDSIZE
 40
0.0
  9
$PLINEWID
 40
0.0
  9
$COORDS
 70
     1
  9
$SPLFRAME
 70
     0
  9
$SPLINETYPE
 70
     6
  9
$SPLINESEGS
 70
     8
  9
$ATTDIA
 70
     0
  9
$ATTREQ
 70
     1
  9
$HANDLING
 70
 10241
  9
$HANDSEED
  5
8035
  9
$SURFTAB1
 70
     6
  9
$SURFTAB2
 70
     6
  9
$SURFTYPE
 70
     6
  9
$SURFU
 70
     6
  9
$SURFV
 70
     6
  9
$UCSNAME
  2

  9
$UCSORG
 10
0.0
 20
0.0
 30
0.0
  9
$UCSXDIR
 10
1.0
 20
0.0
 30
0.0
  9
$UCSYDIR
 10
0.0
 20
1.0
 30
0.0
  9
$PUCSNAME
  2

  9
$PUCSORG
 10
0.0
 20
0.0
 30
0.0
  9
$PUCSXDIR
 10
1.0
 20
0.0
 30
0.0
  9
$PUCSYDIR
 10
0.0
 20
1.0
 30
0.0
  9
$USERI1
 70
     0
  9
$USERI2
 70
     0
  9
$USERI3
 70
     0
  9
$USERI4
 70
     0
  9
$USERI5
 70
     0
  9
$USERR1
 40
0.0
  9
$USERR2
 40
0.0
  9
$USERR3
 40
0.0
  9
$USERR4
 40
0.0
  9
$USERR5
 40
0.0
  9
$WORLDVIEW
 70
     1
  9
$SHADEDGE
 70
     3
  9
$SHADEDIF
 70
    70
  9
$TILEMODE
 70
     1
  9
$MAXACTVP
 70
    16
  9
$PLIMCHECK
 70
     0
  9
$PEXTMIN
 10
1.0000000000000000E+020
 20
1.0000000000000000E+020
 30
1.0000000000000000E+020
  9
$PEXTMAX
 10
-1.0000000000000000E+020
 20
-1.0000000000000000E+020
 30
-1.0000000000000000E+020
  9
$PLIMMIN
 10
0.0
 20
0.0
  9
$PLIMMAX
 10
12.0
 20
9.0
  9
$UNITMODE
 70
     0
  9
$VISRETAIN
 70
     0
  9
$PLINEGEN
 70
     0
  9
$PSLTSCALE
 70
     1
  0
ENDSEC
  0
SECTION
  2
TABLES
  0
TABLE
  2
VPORT
 70
     2
  0
VPORT
  2
*ACTIVE
 70
     0
 10
0.0
 20
0.0
 11
1.0
 21
1.0
 12
9437.9954746499006
 22
4629.9199394653269
 13
0.0
 23
0.0
 14
10.0
 24
10.0
 15
10.0
 25
10.0
 16
0.0
 26
0.0
 36
1.0
 17
0.0
 27
0.0
 37
0.0
 40
7517.061441529765
 41
3.1666666666666661
 42
50.0
 43
0.0
 44
0.0
 50
0.0
 51
0.0
 71
     0
 72
   100
 73
     1
 74
     0
 75
     0
 76
     1
 77
     0
 78
     0
  0
ENDTAB
  0
TABLE
  2
LTYPE
 70
     2
  0
LTYPE
  2
CONTINUOUS
 70
     0
  3
Solid line
 72
    65
 73
     0
 40
0.0
  0
LTYPE
  2
CENTER
 70
     0
  3
____ _ ____ _ ____ _ ____ _ ____ _ ____ _ ____ 
 72
    65
 73
     4
 40
2.0
 49
1.25
 49
-0.25
 49
0.25
 49
-0.25
  0
ENDTAB
  0
TABLE
  2
LAYER
 70
     6
  0
LAYER
  2
0
 70
     0
 62
     7
  6
CONTINUOUS
  0
LAYER
  2
3
 70
     0
 62
     2
  6
CONTINUOUS
  0
LAYER
  2
2
 70
     0
 62
     3
  6
CENTER
  0
LAYER
  2
1
 70
     0
 62
     4
  6
CONTINUOUS
  0
LAYER
  2
4
 70
     0
 62
     7
  6
CONTINUOUS
  0
LAYER
  2
DEFPOINTS
 70
     0
 62
     7
  6
CONTINUOUS
  0
ENDTAB
  0
TABLE
  2
STYLE
 70
     1
  0
STYLE
  2
STANDARD
 70
     0
 40
0.0
 41
1.0
 50
0.0
 71
     0
 42
180.0
  3
simplex.shx
  4
extfont.shx
  0
ENDTAB
  0
TABLE
  2
VIEW
 70
     0
  0
ENDTAB
  0
TABLE
  2
UCS
 70
     0
  0
ENDTAB
  0
TABLE
  2
APPID
 70
     1
  0
APPID
  2
ACAD
 70
     0
  0
ENDTAB
  0
TABLE
  2
DIMSTYLE
 70
     1
  0
DIMSTYLE
  2
IGA
 70
     0
  3

  4

  5

  6
OPEN
  7
OPEN
 40
2.0
 41
2.0
 42
0.5
 43
10.0
 44
1.0
 45
0.0
 46
0.0
 47
1.0
 48
1.0
140
3.0
141
0.0
142
0.0
143
0.03937
144
1.0
145
0.0
146
10.0
147
1.0
 71
     0
 72
     0
 73
     0
 74
     0
 75
     0
 76
     0
 77
     1
 78
     8
170
     0
171
     2
172
     0
173
     1
174
     0
175
     0
176
     0
177
     0
178
     0
  0
ENDTAB
  0
ENDSEC
  0
SECTION
  2
BLOCKS
  0
BLOCK
  8
0
  2
$MODEL_SPACE
 70
     0
 10
0.0
 20
0.0
 30
0.0
  3
$MODEL_SPACE
  1

  0
ENDBLK
  5
1B
  8
0
  0
BLOCK
 67
     1
  8
0
  2
$PAPER_SPACE
 70
     0
 10
0.0
 20
0.0
 30
0.0
  3
$PAPER_SPACE
  1

  0
ENDBLK
  5
18
 67
     1
  8
0
  0
BLOCK
  8
0
  2
_OPEN
 70
     0
 10
0.0
 20
0.0
 30
0.0
  3
_OPEN
  1

  0
LINE
  5
7B74
  8
0
  6
BYBLOCK
 62
     0
 10
-1.0
 20
0.166667
 30
0.0
 11
0.0
 21
0.0
 31
0.0
  0
LINE
  5
7B75
  8
0
  6
BYBLOCK
 62
     0
 10
0.0
 20
0.0
 30
0.0
 11
-1.0
 21
-0.166667
 31
0.0
  0
LINE
  5
7B76
  8
0
  6
BYBLOCK
 62
     0
 10
0.0
 20
0.0
 30
0.0
 11
-1.0
 21
0.0
 31
0.0
  0
ENDBLK
  5
7B77
  8
0
  0
BLOCK
  8
0
  2
*D1
 70
     1
 10
0.0
 20
0.0
 30
0.0
  3
*D1
  1

  0
LINE
  5
7F98
  8
3
  6
CONTINUOUS
 62
     0
 10
1779.973283
 20
3392.5178040000001
 30
0.0
 11
1618.974588
 21
3392.5178040000001
 31
0.0
  0
LINE
  5
7F99
  8
3
  6
CONTINUOUS
 62
     0
 10
1779.973283
 20
2742.5178040000001
 30
0.0
 11
1618.974588
 21
2742.5178040000001
 31
0.0
  0
LINE
  5
7F9A
  8
3
  6
CONTINUOUS
 62
     0
 10
1648.974588
 20
3332.5178040000001
 30
0.0
 11
1648.974588
 21
2802.5178040000001
 31
0.0
  0
INSERT
  5
7F9B
  8
3
  6
CONTINUOUS
 62
     0
  2
_OPEN
 10
1648.974588
 20
3392.5178040000001
 30
0.0
 41
60.0
 42
60.0
 43
60.0
 50
90.0
  0
INSERT
  5
7F9C
  8
3
  6
CONTINUOUS
 62
     0
  2
_OPEN
 10
1648.974588
 20
2742.5178040000001
 30
0.0
 41
60.0
 42
60.0
 43
60.0
 50
270.0
  0
TEXT
  8
3
  40
90
  5
8024
  62
0
  72
0
  71
0
 10
1393.97
 20
2867.34
 30
0.000000
  1
650
  0
POINT
  5
7F9E
  8
DEFPOINTS
  6
CONTINUOUS
 62
     0
 10
1794.973283
 20
3392.5178040000001
 30
0.0
  0
POINT
  5
7F9F
  8
DEFPOINTS
  6
CONTINUOUS
 62
     0
 10
1794.973283
 20
2742.5178040000001
 30
0.0
  0
POINT
  5
7FA0
  8
DEFPOINTS
  6
CONTINUOUS
 62
     0
 10
1648.974588
 20
2742.5178040000001
 30
0.0
  0
ENDBLK
  5
7B84
  8
0
  0
BLOCK
  8
0
  2
*D2
 70
     1
 10
0.0
 20
0.0
 30
0.0
  3
*D2
  1

  0
LINE
  5
7FA1
  8
3
  6
CONTINUOUS
 62
     0
 10
1779.973283
 20
2742.5178040000001
 30
0.0
 11
1421.9363149999999
 21
2742.5178040000001
 31
0.0
  0
LINE
  5
7FA2
  8
3
  6
CONTINUOUS
 62
     0
 10
1673.9955649999999
 20
3362.5178040000001
 30
0.0
 11
1421.9363149999999
 21
3362.5178040000001
 31
0.0
  0
LINE
  5
7FA3
  8
3
  6
CONTINUOUS
 62
     0
 10
1451.9363149999999
 20
2802.5178040000001
 30
0.0
 11
1451.9363149999999
 21
3302.5178040000001
 31
0.0
  0
INSERT
  5
7FA4
  8
3
  6
CONTINUOUS
 62
     0
  2
_OPEN
 10
1451.9363149999999
 20
2742.5178040000001
 30
0.0
 41
60.0
 42
60.0
 43
60.0
 50
270.0
  0
INSERT
  5
7FA5
  8
3
  6
CONTINUOUS
 62
     0
  2
_OPEN
 10
1451.9363149999999
 20
3362.5178040000001
 30
0.0
 41
60.0
 42
60.0
 43
60.0
 50
90.0
  0
TEXT
  8
3
  40
90
  5
8025
  62
0
  72
0
  71
0
 10
1196.94
 20
2867.34
 30
0.000000
  1
620
  0
POINT
  5
7FA7
  8
DEFPOINTS
  6
CONTINUOUS
 62
     0
 10
1794.973283
 20
2742.5178040000001
 30
0.0
  0
POINT
  5
7FA8
  8
DEFPOINTS
  6
CONTINUOUS
 62
     0
 10
1688.9955649999999
 20
3362.5178040000001
 30
0.0
  0
POINT
  5
7FA9
  8
DEFPOINTS
  6
CONTINUOUS
 62
     0
 10
1451.9363149999999
 20
3362.5178040000001
 30
0.0
  0
ENDBLK
  5
7B91
  8
0
  0
BLOCK
  8
0
  2
*D3
 70
     1
 10
0.0
 20
0.0
 30
0.0
  3
*D3
  1

  0
LINE
  5
7FAA
  8
3
  6
CONTINUOUS
 62
     0
 10
1673.9955649999999
 20
3362.5178040000001
 30
0.0
 11
1243.9662539999999
 21
3362.5178040000001
 31
0.0
  0
LINE
  5
7FAB
  8
3
  6
CONTINUOUS
 62
     0
 10
1834.9732829999989
 20
2562.5178040000001
 30
0.0
 11
1243.9662539999999
 21
2562.5178040000001
 31
0.0
  0
LINE
  5
7FAC
  8
3
  6
CONTINUOUS
 62
     0
 10
1273.9662539999999
 20
3302.5178040000001
 30
0.0
 11
1273.9662539999999
 21
2622.5178040000001
 31
0.0
  0
INSERT
  5
7FAD
  8
3
  6
CONTINUOUS
 62
     0
  2
_OPEN
 10
1273.9662539999999
 20
3362.5178040000001
 30
0.0
 41
60.0
 42
60.0
 43
60.0
 50
90.0
  0
INSERT
  5
7FAE
  8
3
  6
CONTINUOUS
 62
     0
  2
_OPEN
 10
1273.9662539999999
 20
2562.5178040000001
 30
0.0
 41
60.0
 42
60.0
 43
60.0
 50
270.0
  0
TEXT
  8
3
  40
90
  5
8026
  62
0
  72
0
  71
0
 10
1018.97
 20
2797.49
 30
0.000000
  1
800
  0
POINT
  5
7FB0
  8
DEFPOINTS
  6
CONTINUOUS
 62
     0
 10
1688.9955649999999
 20
3362.5178040000001
 30
0.0
  0
POINT
  5
7FB1
  8
DEFPOINTS
  6
CONTINUOUS
 62
     0
 10
1849.9732829999989
 20
2562.5178040000001
 30
0.0
  0
POINT
  5
7FB2
  8
DEFPOINTS
  6
CONTINUOUS
 62
     0
 10
1273.9662539999999
 20
2562.5178040000001
 30
0.0
  0
ENDBLK
  5
7B9E
  8
0
  0
BLOCK
  8
0
  2
*D4
 70
     1
 10
0.0
 20
0.0
 30
0.0
  3
*D4
  1

  0
LINE
  5
7FB3
  8
3
  6
CONTINUOUS
 62
     0
 10
1794.973283
 20
3447.5178040000001
 30
0.0
 11
1794.973283
 21
3990.1118849999998
 31
0.0
  0
LINE
  5
7FB4
  8
3
  6
CONTINUOUS
 62
     0
 10
2279.9732829999989
 20
3943.838115
 30
0.0
 11
2279.9732829999989
 21
3990.1118849999998
 31
0.0
  0
LINE
  5
7FB5
  8
3
  6
CONTINUOUS
 62
     0
 10
1854.9732829999989
 20
3960.1118849999998
 30
0.0
 11
2219.9732829999989
 21
3960.1118849999998
 31
0.0
  0
INSERT
  5
7FB6
  8
3
  6
CONTINUOUS
 62
     0
  2
_OPEN
 10
1794.973283
 20
3960.1118849999998
 30
0.0
 41
60.0
 42
60.0
 43
60.0
 50
180.0
  0
INSERT
  5
7FB7
  8
3
  6
CONTINUOUS
 62
     0
  2
_OPEN
 10
2279.9732829999989
 20
3960.1118849999998
 30
0.0
 41
60.0
 42
60.0
 43
60.0
  0
TEXT
  8
3
  40
90
  5
8027
  62
0
  72
0
  71
0
 10
1863.05
 20
3875.81
 30
0.000000
  1
485
  0
POINT
  5
7FB9
  8
DEFPOINTS
  6
CONTINUOUS
 62
     0
 10
1794.973283
 20
3432.5178040000001
 30
0.0
  0
POINT
  5
7FBA
  8
DEFPOINTS
  6
CONTINUOUS
 62
     0
 10
2279.9732829999989
 20
3928.8381149999991
 30
0.0
  0
POINT
  5
7FBB
  8
DEFPOINTS
  6
CONTINUOUS
 62
     0
 10
2279.9732829999989
 20
3960.1118849999998
 30
0.0
  0
ENDBLK
  5
7BC3
  8
0
  0
BLOCK
  8
0
  2
*D5
 70
     1
 10
0.0
 20
0.0
 30
0.0
  3
*D5
  1

  0
LINE
  5
7FBC
  8
3
  6
CONTINUOUS
 62
     0
 10
1849.9732829999989
 20
2547.5178040000001
 30
0.0
 11
1849.9732829999989
 21
2276.9795612708922
 31
0.0
  0
LINE
  5
7FBD
  8
3
  6
CONTINUOUS
 62
     0
 10
2279.9732829999989
 20
2419.1817970000002
 30
0.0
 11
2279.9732829999989
 21
2276.9795612708922
 31
0.0
  0
LINE
  5
7FBE
  8
3
  6
CONTINUOUS
 62
     0
 10
1909.9732829999989
 20
2306.9795612708922
 30
0.0
 11
2219.9732829999989
 21
2306.9795612708922
 31
0.0
  0
INSERT
  5
7FBF
  8
3
  6
CONTINUOUS
 62
     0
  2
_OPEN
 10
1849.9732829999989
 20
2306.9795612708922
 30
0.0
 41
60.0
 42
60.0
 43
60.0
 50
180.0
  0
INSERT
  5
7FC0
  8
3
  6
CONTINUOUS
 62
     0
  2
_OPEN
 10
2279.9732829999989
 20
2306.9795612708922
 30
0.0
 41
60.0
 42
60.0
 43
60.0
  0
TEXT
  8
3
  40
90
  5
8028
  62
0
  72
0
  71
0
 10
1894.26
 20
2222.68
 30
0.000000
  1
430
  0
POINT
  5
7FC2
  8
DEFPOINTS
  6
CONTINUOUS
 62
     0
 10
1849.9732829999989
 20
2562.5178040000001
 30
0.0
  0
POINT
  5
7FC3
  8
DEFPOINTS
  6
CONTINUOUS
 62
     0
 10
2279.9732829999989
 20
2434.1817969999988
 30
0.0
  0
POINT
  5
7FC4
  8
DEFPOINTS
  6
CONTINUOUS
 62
     0
 10
2279.9732829999989
 20
2306.9795612708922
 30
0.0
  0
ENDBLK
  5
7DC5
  8
0
  0
BLOCK
  8
0
  2
*D6
 70
     1
 10
0.0
 20
0.0
 30
0.0
  3
*D6
  1

  0
LINE
  5
7FC5
  8
3
  6
CONTINUOUS
 62
     0
 10
3259.9732829999998
 20
2547.5178040000001
 30
0.0
 11
3259.9732829999998
 21
2276.9795612708922
 31
0.0
  0
LINE
  5
7FC6
  8
3
  6
CONTINUOUS
 62
     0
 10
2339.9732829999989
 20
2306.9795612708922
 30
0.0
 11
3199.9732829999998
 21
2306.9795612708922
 31
0.0
  0
INSERT
  5
7FC7
  8
3
  6
CONTINUOUS
 62
     0
  2
_OPEN
 10
2279.9732829999989
 20
2306.9795612708922
 30
0.0
 41
60.0
 42
60.0
 43
60.0
 50
180.0
  0
INSERT
  5
7FC8
  8
3
  6
CONTINUOUS
 62
     0
  2
_OPEN
 10
3259.9732829999998
 20
2306.9795612708922
 30
0.0
 41
60.0
 42
60.0
 43
60.0
  0
TEXT
  8
3
  40
90
  5
8029
  62
0
  72
0
  71
0
 10
2589.97
 20
2222.68
 30
0.000000
  1
980
  0
POINT
  5
7FCA
  8
DEFPOINTS
  6
CONTINUOUS
 62
     0
 10
2279.9732829999989
 20
2434.1817969999988
 30
0.0
  0
POINT
  5
7FCB
  8
DEFPOINTS
  6
CONTINUOUS
 62
     0
 10
3259.9732829999998
 20
2562.5178040000001
 30
0.0
  0
POINT
  5
7FCC
  8
DEFPOINTS
  6
CONTINUOUS
 62
     0
 10
3259.9732829999998
 20
2306.9795612708922
 30
0.0
  0
ENDBLK
  5
7DBA
  8
0
  0
BLOCK
  8
0
  2
*D7
 70
     1
 10
0.0
 20
0.0
 30
0.0
  3
*D7
  1

  0
LINE
  5
7FCD
  8
3
  6
CONTINUOUS
 62
     0
 10
4449.1997000000001
 20
2547.5178040000001
 30
0.0
 11
4449.1997000000001
 21
2281.954725999999
 31
0.0
  0
LINE
  5
7FCE
  8
3
  6
CONTINUOUS
 62
     0
 10
4860.1997000000001
 20
2430.5940219999989
 30
0.0
 11
4860.1997000000001
 21
2281.954725999999
 31
0.0
  0
LINE
  5
7FCF
  8
3
  6
CONTINUOUS
 62
     0
 10
4509.1996999999992
 20
2311.9547259999999
 30
0.0
 11
4800.1997000000001
 21
2311.9547259999999
 31
0.0
  0
INSERT
  5
7FD0
  8
3
  6
CONTINUOUS
 62
     0
  2
_OPEN
 10
4449.1997000000001
 20
2311.9547259999999
 30
0.0
 41
60.0
 42
60.0
 43
60.0
 50
180.0
  0
INSERT
  5
7FD1
  8
3
  6
CONTINUOUS
 62
     0
  2
_OPEN
 10
4860.1997000000001
 20
2311.9547259999999
 30
0.0
 41
60.0
 42
60.0
 43
60.0
  0
TEXT
  8
3
  40
90
  5
802A
  62
0
  72
0
  71
0
 10
4502.34
 20
2227.65
 30
0.000000
  1
411
  0
POINT
  5
7FD3
  8
DEFPOINTS
  6
CONTINUOUS
 62
     0
 10
4449.1997000000001
 20
2562.5178040000001
 30
0.0
  0
POINT
  5
7FD4
  8
DEFPOINTS
  6
CONTINUOUS
 62
     0
 10
4860.1997000000001
 20
2445.5940219999989
 30
0.0
  0
POINT
  5
7FD5
  8
DEFPOINTS
  6
CONTINUOUS
 62
     0
 10
4860.1997000000001
 20
2311.9547259999999
 30
0.0
  0
ENDBLK
  5
7CD7
  8
0
  0
BLOCK
  8
0
  2
*D8
 70
     1
 10
0.0
 20
0.0
 30
0.0
  3
*D8
  1

  0
LINE
  5
7FD6
  8
3
  6
CONTINUOUS
 62
     0
 10
5149.1997000000001
 20
2547.5178040000001
 30
0.0
 11
5149.1997000000001
 21
2281.954725999999
 31
0.0
  0
LINE
  5
7FD7
  8
3
  6
CONTINUOUS
 62
     0
 10
4920.199700000001
 20
2311.9547259999999
 30
0.0
 11
5089.1997000000001
 21
2311.9547259999999
 31
0.0
  0
TEXT
  8
3
  40
90
  5
802B
  62
0
  72
0
  71
0
 10
4833.27
 20
2229.63
 30
0.000000
  1
289
  0
INSERT
  5
7FD9
  8
3
  6
CONTINUOUS
 62
     0
  2
_OPEN
 10
4860.1997000000001
 20
2311.9547259999999
 30
0.0
 41
60.0
 42
60.0
 43
60.0
 50
180.0
  0
INSERT
  5
7FDA
  8
3
  6
CONTINUOUS
 62
     0
  2
_OPEN
 10
5149.1997000000001
 20
2311.9547259999999
 30
0.0
 41
60.0
 42
60.0
 43
60.0
  0
POINT
  5
7FDB
  8
DEFPOINTS
  6
CONTINUOUS
 62
     0
 10
4860.1997000000001
 20
2445.5940219999989
 30
0.0
  0
POINT
  5
7FDC
  8
DEFPOINTS
  6
CONTINUOUS
 62
     0
 10
5149.1997000000001
 20
2562.5178040000001
 30
0.0
  0
POINT
  5
7FDD
  8
DEFPOINTS
  6
CONTINUOUS
 62
     0
 10
5149.1997000000001
 20
2311.9547259999999
 30
0.0
  0
ENDBLK
  5
7D02
  8
0
  0
BLOCK
  8
0
  2
*D9
 70
     1
 10
0.0
 20
0.0
 30
0.0
  3
*D9
  1

  0
LINE
  5
7FDE
  8
3
  6
CONTINUOUS
 62
     0
 10
5097.6997000000001
 20
3830.772250999999
 30
0.0
 11
5097.6997000000001
 21
3939.310586999999
 31
0.0
  0
LINE
  5
7FDF
  8
3
  6
CONTINUOUS
 62
     0
 10
4622.6997000000001
 20
3830.772250999999
 30
0.0
 11
4622.6997000000001
 21
3939.310586999999
 31
0.0
  0
LINE
  5
7FE0
  8
3
  6
CONTINUOUS
 62
     0
 10
5037.699700000001
 20
3909.3105869999999
 30
0.0
 11
4682.6996999999992
 21
3909.3105869999999
 31
0.0
  0
INSERT
  5
7FE1
  8
3
  6
CONTINUOUS
 62
     0
  2
_OPEN
 10
5097.6997000000001
 20
3909.3105869999999
 30
0.0
 41
60.0
 42
60.0
 43
60.0
  0
INSERT
  5
7FE2
  8
3
  6
CONTINUOUS
 62
     0
  2
_OPEN
 10
4622.6997000000001
 20
3909.3105869999999
 30
0.0
 41
60.0
 42
60.0
 43
60.0
 50
180.0
  0
TEXT
  8
3
  40
90
  5
802C
  62
0
  72
0
  71
0
 10
4679.93
 20
3825.01
 30
0.000000
  1
475
  0
POINT
  5
7FE4
  8
DEFPOINTS
  6
CONTINUOUS
 62
     0
 10
5097.6997000000001
 20
3815.7722509999999
 30
0.0
  0
POINT
  5
7FE5
  8
DEFPOINTS
  6
CONTINUOUS
 62
     0
 10
4622.6997000000001
 20
3815.7722509999999
 30
0.0
  0
POINT
  5
7FE6
  8
DEFPOINTS
  6
CONTINUOUS
 62
     0
 10
4622.6997000000001
 20
3909.3105869999999
 30
0.0
  0
ENDBLK
  5
7C1D
  8
0
  0
BLOCK
  8
0
  2
*D10
 70
     1
 10
0.0
 20
0.0
 30
0.0
  3
*D10
  1

  0
LINE
  5
7FE7
  8
3
  6
CONTINUOUS
 62
     0
 10
5116.1997000000001
 20
3697.5178040000001
 30
0.0
 11
5398.4159360000012
 21
3697.5178039999992
 31
0.0
  0
LINE
  5
7FE8
  8
3
  6
CONTINUOUS
 62
     0
 10
5116.1997000000001
 20
3027.5178040000001
 30
0.0
 11
5398.4159360000012
 21
3027.5178039999992
 31
0.0
  0
LINE
  5
7FE9
  8
3
  6
CONTINUOUS
 62
     0
 10
5368.4159360000012
 20
3637.5178039999992
 30
0.0
 11
5368.4159360000012
 21
3087.5178039999992
 31
0.0
  0
INSERT
  5
7FEA
  8
3
  6
CONTINUOUS
 62
     0
  2
_OPEN
 10
5368.4159360000012
 20
3697.5178039999992
 30
0.0
 41
60.0
 42
60.0
 43
60.0
 50
90.0
  0
INSERT
  5
7FEB
  8
3
  6
CONTINUOUS
 62
     0
  2
_OPEN
 10
5368.4159360000012
 20
3027.5178039999992
 30
0.0
 41
60.0
 42
60.0
 43
60.0
 50
270.0
  0
TEXT
  8
3
  40
90
  5
802D
  62
0
  72
0
  71
0
 10
5113.42
 20
3210.25
 30
0.000000
  1
φ670
  0
POINT
  5
7FED
  8
DEFPOINTS
  6
CONTINUOUS
 62
     0
 10
5101.1997000000001
 20
3697.5178040000001
 30
0.0
  0
POINT
  5
7FEE
  8
DEFPOINTS
  6
CONTINUOUS
 62
     0
 10
5101.1997000000001
 20
3027.5178040000001
 30
0.0
  0
POINT
  5
7FEF
  8
DEFPOINTS
  6
CONTINUOUS
 62
     0
 10
5368.4159360000012
 20
3027.5178039999992
 30
0.0
  0
ENDBLK
  5
7D99
  8
0
  0
BLOCK
  8
0
  2
*D11
 70
     1
 10
0.0
 20
0.0
 30
0.0
  3
*D11
  1

  0
LINE
  5
7FF0
  8
3
  6
CONTINUOUS
 62
     0
 10
4380.1997000000001
 20
3677.5178040000001
 30
0.0
 11
4380.1997000000001
 21
4142.5157600000011
 31
0.0
  0
LINE
  5
7FF1
  8
3
  6
CONTINUOUS
 62
     0
 10
4800.1997000000001
 20
4112.5157599999993
 30
0.0
 11
4440.1996999999992
 21
4112.5157599999993
 31
0.0
  0
INSERT
  5
7FF2
  8
3
  6
CONTINUOUS
 62
     0
  2
_OPEN
 10
4860.1997000000001
 20
4112.5157599999993
 30
0.0
 41
60.0
 42
60.0
 43
60.0
  0
INSERT
  5
7FF3
  8
3
  6
CONTINUOUS
 62
     0
  2
_OPEN
 10
4380.1997000000001
 20
4112.5157599999993
 30
0.0
 41
60.0
 42
60.0
 43
60.0
 50
180.0
  0
TEXT
  8
3
  40
90
  5
802E
  62
0
  72
0
  71
0
 10
4440.20
 20
4103.22
 30
0.000000
  1
MAX
  0
TEXT
  8
3
  40
90
  5
802F
  62
0
  72
0
  71
0
 10
4440.20
 20
3986.22
 30
0.000000
  1
530
  0
POINT
  5
7FF5
  8
DEFPOINTS
  6
CONTINUOUS
 62
     0
 10
4860.1997000000001
 20
4057.125692999999
 30
0.0
  0
POINT
  5
7FF6
  8
DEFPOINTS
  6
CONTINUOUS
 62
     0
 10
4380.1997000000001
 20
3662.5178040000001
 30
0.0
  0
POINT
  5
7FF7
  8
DEFPOINTS
  6
CONTINUOUS
 62
     0
 10
4380.1997000000001
 20
4112.5157599999993
 30
0.0
  0
ENDBLK
  5
7D82
  8
0
  0
BLOCK
  8
0
  2
*D12
 70
     1
 10
0.0
 20
0.0
 30
0.0
  3
*D12
  1

  0
LINE
  5
7FF8
  8
3
  6
CONTINUOUS
 62
     0
 10
1849.9732829999989
 20
5950.7040560000014
 30
0.0
 11
1849.9732829999989
 21
6201.4979949999997
 31
0.0
  0
LINE
  5
7FF9
  8
3
  6
CONTINUOUS
 62
     0
 10
3259.9732829999998
 20
5950.7040560000014
 30
0.0
 11
3259.9732829999998
 21
6201.4979949999997
 31
0.0
  0
LINE
  5
7FFA
  8
3
  6
CONTINUOUS
 62
     0
 10
1909.9732829999989
 20
6171.4979950000006
 30
0.0
 11
3199.9732829999998
 21
6171.4979950000006
 31
0.0
  0
INSERT
  5
7FFB
  8
3
  6
CONTINUOUS
 62
     0
  2
_OPEN
 10
1849.9732829999989
 20
6171.4979950000006
 30
0.0
 41
60.0
 42
60.0
 43
60.0
 50
180.0
  0
INSERT
  5
7FFC
  8
3
  6
CONTINUOUS
 62
     0
  2
_OPEN
 10
3259.9732829999998
 20
6171.4979950000006
 30
0.0
 41
60.0
 42
60.0
 43
60.0
  0
TEXT
  8
3
  40
90
  5
8030
  62
0
  72
0
  71
0
 10
2327.04
 20
6087.20
 30
0.000000
  1
1410
  0
POINT
  5
7FFE
  8
DEFPOINTS
  6
CONTINUOUS
 62
     0
 10
1849.9732829999989
 20
5935.7040560000014
 30
0.0
  0
POINT
  5
7FFF
  8
DEFPOINTS
  6
CONTINUOUS
 62
     0
 10
3259.9732829999998
 20
5935.7040560000014
 30
0.0
  0
POINT
  5
8000
  8
DEFPOINTS
  6
CONTINUOUS
 62
     0
 10
3259.9732829999998
 20
6171.4979950000006
 30
0.0
  0
ENDBLK
  5
7CC0
  8
0
  0
BLOCK
  8
0
  2
*D13
 70
     1
 10
0.0
 20
0.0
 30
0.0
  3
*D13
  1

  0
LINE
  5
8001
  8
3
  6
CONTINUOUS
 62
     0
 10
3274.9732829999998
 20
5935.7040560000014
 30
0.0
 11
3534.9481540000002
 21
5935.7040560000014
 31
0.0
  0
LINE
  5
8002
  8
3
  6
CONTINUOUS
 62
     0
 10
3274.9732829999998
 20
5235.7040560000014
 30
0.0
 11
3534.9481540000002
 21
5235.7040560000014
 31
0.0
  0
LINE
  5
8003
  8
3
  6
CONTINUOUS
 62
     0
 10
3504.9481540000002
 20
5875.7040559999996
 30
0.0
 11
3504.9481540000002
 21
5295.7040559999996
 31
0.0
  0
INSERT
  5
8004
  8
3
  6
CONTINUOUS
 62
     0
  2
_OPEN
 10
3504.9481540000002
 20
5935.7040560000014
 30
0.0
 41
60.0
 42
60.0
 43
60.0
 50
90.0
  0
INSERT
  5
8005
  8
3
  6
CONTINUOUS
 62
     0
  2
_OPEN
 10
3504.9481540000002
 20
5235.7040560000014
 30
0.0
 41
60.0
 42
60.0
 43
60.0
 50
270.0
  0
TEXT
  8
3
  40
90
  5
8031
  62
0
  72
0
  71
0
 10
3249.95
 20
5450.69
 30
0.000000
  1
700
  0
POINT
  5
8007
  8
DEFPOINTS
  6
CONTINUOUS
 62
     0
 10
3259.9732829999998
 20
5935.7040560000014
 30
0.0
  0
POINT
  5
8008
  8
DEFPOINTS
  6
CONTINUOUS
 62
     0
 10
3259.9732829999998
 20
5235.7040560000014
 30
0.0
  0
POINT
  5
8009
  8
DEFPOINTS
  6
CONTINUOUS
 62
     0
 10
3504.9481540000002
 20
5235.7040560000014
 30
0.0
  0
ENDBLK
  5
7C77
  8
0
  0
BLOCK
  8
0
  2
*D14
 70
     1
 10
0.0
 20
0.0
 30
0.0
  3
*D14
  1

  0
LINE
  5
800A
  8
3
  6
CONTINUOUS
 62
     0
 10
2801.9732829999998
 20
3377.5178040000001
 30
0.0
 11
2801.9732829999998
 21
3990.1118849999998
 31
0.0
  0
LINE
  5
800B
  8
3
  6
CONTINUOUS
 62
     0
 10
2339.9732829999989
 20
3960.1118849999998
 30
0.0
 11
2741.9732829999998
 21
3960.1118849999998
 31
0.0
  0
INSERT
  5
800C
  8
3
  6
CONTINUOUS
 62
     0
  2
_OPEN
 10
2279.9732829999989
 20
3960.1118849999998
 30
0.0
 41
60.0
 42
60.0
 43
60.0
 50
180.0
  0
INSERT
  5
800D
  8
3
  6
CONTINUOUS
 62
     0
  2
_OPEN
 10
2801.9732829999998
 20
3960.1118849999998
 30
0.0
 41
60.0
 42
60.0
 43
60.0
  0
TEXT
  8
3
  40
90
  5
8032
  62
0
  72
0
  71
0
 10
2360.97
 20
3875.81
 30
0.000000
  1
522
  0
POINT
  5
800F
  8
DEFPOINTS
  6
CONTINUOUS
 62
     0
 10
2279.9732829999989
 20
3928.8381149999991
 30
0.0
  0
POINT
  5
8010
  8
DEFPOINTS
  6
CONTINUOUS
 62
     0
 10
2801.9732829999998
 20
3362.5178040000001
 30
0.0
  0
POINT
  5
8011
  8
DEFPOINTS
  6
CONTINUOUS
 62
     0
 10
2801.9732829999998
 20
3960.1118849999998
 30
0.0
  0
ENDBLK
  5
7CA9
  8
0
  0
BLOCK
  8
0
  2
*D15
 70
     1
 10
0.0
 20
0.0
 30
0.0
  3
*D15
  1

  0
LINE
  5
7DA6
  8
0
  6
BYBLOCK
 62
     0
 10
4860.1997000000001
 20
4072.125693
 30
0.0
 11
4860.1997000000001
 21
4142.5157600000011
 31
0.0
  0
LINE
  5
7DA7
  8
0
  6
BYBLOCK
 62
     0
 10
5101.1997000000001
 20
3712.5178040000001
 30
0.0
 11
5101.1997000000001
 21
4142.5157600000011
 31
0.0
  0
LINE
  5
7DA8
  8
0
  6
BYBLOCK
 62
     0
 10
4920.199700000001
 20
4112.5157599999993
 30
0.0
 11
5041.1996999999992
 21
4112.5157599999993
 31
0.0
  0
TEXT
  5
7DA9
  8
3
 62
     0
 10
4878.5341490817009
 20
4146.066298614136
 30
0.0
 40
90.0
  1
241
  0
INSERT
  5
7DAA
  8
0
  6
BYBLOCK
 62
     0
  2
_OPEN
 10
4860.1997000000001
 20
4112.5157599999993
 30
0.0
 41
60.0
 42
60.0
 43
60.0
 50
180.0
  0
INSERT
  5
7DAB
  8
0
  6
BYBLOCK
 62
     0
  2
_OPEN
 10
5101.1997000000001
 20
4112.5157599999993
 30
0.0
 41
60.0
 42
60.0
 43
60.0
  0
POINT
  5
7DAC
  8
DEFPOINTS
  6
BYBLOCK
 62
     0
 10
4860.1997000000001
 20
4057.125692999999
 30
0.0
  0
POINT
  5
7DAD
  8
DEFPOINTS
  6
BYBLOCK
 62
     0
 10
5101.1997000000001
 20
3697.5178040000001
 30
0.0
  0
POINT
  5
7DAE
  8
DEFPOINTS
  6
BYBLOCK
 62
     0
 10
5101.1997000000001
 20
4112.5157599999993
 30
0.0
  0
ENDBLK
  5
7DAF
  8
0
  0
BLOCK
  8
0
  2
*D16
 70
     1
 10
0.0
 20
0.0
 30
0.0
  3
*D16
  1

  0
LINE
  5
8012
  8
3
 62
     0
 10
1794.973283
 20
3447.5178040000001
 30
0.0
 11
1794.973283
 21
4181.5366788533211
 31
0.0
  0
LINE
  5
8013
  8
3
 62
     0
 10
3259.9732829999998
 20
2677.5178040000001
 30
0.0
 11
3259.9732829999998
 21
4181.5366788533211
 31
0.0
  0
LINE
  5
8014
  8
3
 62
     0
 10
1854.9732829999989
 20
4151.5366788533211
 30
0.0
 11
3199.9732829999998
 21
4151.5366788533211
 31
0.0
  0
INSERT
  5
8015
  8
3
 62
     0
  2
_OPEN
 10
1794.973283
 20
4151.5366788533211
 30
0.0
 41
60.0
 42
60.0
 43
60.0
 50
180.0
  0
INSERT
  5
8016
  8
3
 62
     0
  2
_OPEN
 10
3259.9732829999998
 20
4151.5366788533211
 30
0.0
 41
60.0
 42
60.0
 43
60.0
  0
TEXT
  8
3
  40
90
  5
8033
  62
0
  72
0
  71
0
 10
2363.17
 20
4067.24
 30
0.000000
  1
1465
  0
POINT
  5
8018
  8
DEFPOINTS
 62
     0
 10
1794.973283
 20
3432.5178040000001
 30
0.0
  0
POINT
  5
8019
  8
DEFPOINTS
 62
     0
 10
3259.9732829999998
 20
2662.5178040000001
 30
0.0
  0
POINT
  5
801A
  8
DEFPOINTS
 62
     0
 10
3259.9732829999998
 20
4151.5366788533211
 30
0.0
  0
ENDBLK
  5
7D77
  8
0
  0
BLOCK
  8
0
  2
*D17
 70
     1
 10
0.0
 20
0.0
 30
0.0
  3
*D17
  1

  0
LINE
  5
801B
  8
3
 62
     0
 10
1673.9955649999999
 20
3362.5178040000001
 30
0.0
 11
1243.9662539999999
 21
3362.5178040000001
 31
0.0
  0
LINE
  5
801C
  8
3
 62
     0
 10
2299.9732829999989
 20
3815.7722509999999
 30
0.0
 11
1243.9662539999999
 21
3815.7722509999999
 31
0.0
  0
LINE
  5
801D
  8
3
 62
     0
 10
1273.9662539999999
 20
3422.5178040000001
 30
0.0
 11
1273.9662539999999
 21
3755.772250999999
 31
0.0
  0
INSERT
  5
801E
  8
3
 62
     0
  2
_OPEN
 10
1273.9662539999999
 20
3362.5178040000001
 30
0.0
 41
60.0
 42
60.0
 43
60.0
 50
270.0
  0
INSERT
  5
801F
  8
3
 62
     0
  2
_OPEN
 10
1273.9662539999999
 20
3815.7722509999999
 30
0.0
 41
60.0
 42
60.0
 43
60.0
 50
90.0
  0
TEXT
  8
3
  40
90
  5
8034
  62
0
  72
0
  71
0
 10
1018.97
 20
3429.85
 30
0.000000
  1
452
  0
POINT
  5
8021
  8
DEFPOINTS
 62
     0
 10
1688.9955649999999
 20
3362.5178040000001
 30
0.0
  0
POINT
  5
8022
  8
DEFPOINTS
 62
     0
 10
2314.9732829999998
 20
3815.7722509999999
 30
0.0
  0
POINT
  5
8023
  8
DEFPOINTS
 62
     0
 10
1273.9662539999999
 20
3815.7722509999999
 30
0.0
  0
ENDBLK
  5
7E06
  8
0
  0
ENDSEC
  0
SECTION
  2
ENTITIES
  0
LINE
  5
7AAA
  8
1
  6
CONTINUOUS
 10
3259.9732829999998
 20
5935.7040560000014
 30
0.0
 11
3259.9732829999998
 21
5235.7040560000014
 31
0.0
  0
LINE
  5
7AAB
  8
1
  6
CONTINUOUS
 10
2838.8221739999999
 20
5338.4359729999996
 30
0.0
 11
2838.8221739999999
 21
5823.4359729999987
 31
0.0
  0
LINE
  5
7AAC
  8
1
  6
CONTINUOUS
 10
3162.8221739999999
 20
5338.4359729999996
 30
0.0
 11
3162.8221739999999
 21
5823.4359729999987
 31
0.0
  0
LINE
  5
7AAD
  8
1
  6
CONTINUOUS
 10
1794.973283
 20
5366.7040559999996
 30
0.0
 11
1794.973283
 21
5926.7040560000014
 31
0.0
  0
LINE
  5
7AAE
  8
1
  6
CONTINUOUS
 10
2803.464203999999
 20
5409.2040559999996
 30
0.0
 11
2803.464203999999
 21
5884.2040560000014
 31
0.0
  0
LINE
  5
7AAF
  8
1
  6
CONTINUOUS
 10
1834.9732829999989
 20
5409.2040559999996
 30
0.0
 11
1834.9732829999989
 21
5884.2040560000014
 31
0.0
  0
LINE
  5
7AB6
  8
1
  6
CONTINUOUS
 10
1849.9732829999989
 20
2662.5178040000001
 30
0.0
 11
2721.9732829999998
 21
2662.5178040000001
 31
0.0
  0
LINE
  5
7AB8
  8
1
  6
CONTINUOUS
 10
1939.9732829999989
 20
5166.7040559999996
 30
0.0
 11
3209.9732829999998
 21
5166.7040559999996
 31
0.0
  0
LINE
  5
7AB9
  8
1
  6
CONTINUOUS
 10
1939.9732829999989
 20
5306.7040559999996
 30
0.0
 11
3209.9732829999998
 21
5306.7040559999996
 31
0.0
  0
LINE
  5
7ABA
  8
1
  6
CONTINUOUS
 10
1794.973283
 20
5409.2040559999996
 30
0.0
 11
2803.464203999999
 21
5409.2040559999996
 31
0.0
  0
LINE
  5
7ABB
  8
1
  6
CONTINUOUS
 10
2920.822173999999
 20
5235.7040560000014
 30
0.0
 11
2429.9732829999998
 21
5235.7040560000014
 31
0.0
  0
LINE
  5
7ABC
  8
1
  6
CONTINUOUS
 10
3259.9732829999998
 20
2562.5178040000001
 30
0.0
 11
1849.9732829999989
 21
2562.5178040000001
 31
0.0
  0
LINE
  5
7ABD
  8
1
  6
CONTINUOUS
 10
1849.9732829999989
 20
2662.5178040000001
 30
0.0
 11
3259.9732829999998
 21
2662.5178040000001
 31
0.0
  0
LINE
  5
7ABE
  8
1
  6
CONTINUOUS
 10
3209.9732829999998
 20
2962.5178040000001
 30
0.0
 11
2379.9732829999989
 21
3662.5178040000001
 31
0.0
  0
ARC
  5
7ABF
  8
1
  6
CONTINUOUS
 10
2238.9732829999989
 20
3321.5178039999992
 30
0.0
 40
564.49092099999984
 50
274.165164
 51
4.5139879999999986
  0
ARC
  5
7AC0
  8
1
  6
CONTINUOUS
 10
2314.9732829999998
 20
3327.5178040000001
 30
0.0
 40
488.25444700000003
 50
4.5139879999999986
 51
97.352379000000013
  0
LINE
  5
7AC1
  8
1
  6
CONTINUOUS
 10
3051.5172899999998
 20
2924.4048399999988
 30
0.0
 11
2375.0266249999991
 21
3478.5559960000001
 31
0.0
  0
LINE
  5
7AC2
  8
1
  6
CONTINUOUS
 10
2960.617268
 20
2793.3544790000001
 30
0.0
 11
2204.5890829999989
 21
3232.836569999999
 31
0.0
  0
ARC
  5
7AC3
  8
1
  6
CONTINUOUS
 10
2306.9732829999998
 20
3389.5178040000001
 30
0.0
 40
425.74044800000001
 50
97.352379000000013
 51
179.596259
  0
LINE
  5
7AC5
  8
1
  6
CONTINUOUS
 10
1794.973283
 20
3432.5178040000001
 30
0.0
 11
1794.973283
 21
2702.5178040000001
 31
0.0
  0
LINE
  5
7AC6
  8
1
  6
CONTINUOUS
 10
1939.9732829999989
 20
2662.5178040000001
 30
0.0
 11
1939.9732829999989
 21
3662.5178040000001
 31
0.0
  0
LINE
  5
7AC7
  8
1
  6
CONTINUOUS
 10
1824.973283
 20
3392.5178040000001
 30
0.0
 11
1824.973283
 21
2743.507494
 31
0.0
  0
LINE
  5
7ACA
  8
1
  6
CONTINUOUS
 10
1794.973283
 20
2742.5178040000001
 30
0.0
 11
2279.9732829999989
 21
2758.5178040000001
 31
0.0
  0
LINE
  5
7ACB
  8
1
  6
CONTINUOUS
 10
1849.9732829999989
 20
2562.5178040000001
 30
0.0
 11
1849.9732829999989
 21
2662.5178040000001
 31
0.0
  0
LINE
  5
7ACC
  8
2
  6
CENTER
 10
1688.9955649999999
 20
3362.5178040000001
 30
0.0
 11
2979.5531030000002
 21
3362.5178040000001
 31
0.0
  0
CIRCLE
  5
7ACD
  8
1
  6
CONTINUOUS
 10
2279.9732829999989
 20
3362.5178040000001
 30
0.0
 40
150.0
  0
LINE
  5
7ACE
  8
1
  6
CONTINUOUS
 10
1939.9732829999989
 20
3662.5178040000001
 30
0.0
 11
2379.9732829999989
 21
3662.5178040000001
 31
0.0
  0
LINE
  5
7ACF
  8
1
  6
CONTINUOUS
 10
1881.2434040000001
 20
3392.5178040000001
 30
0.0
 11
1794.973283
 21
3392.5178040000001
 31
0.0
  0
LINE
  5
7AD0
  8
2
  6
CENTER
 10
2279.9732829999989
 20
6009.7933122679424
 30
0.0
 11
2279.9732829999989
 21
5074.9835490000014
 31
0.0
  0
LINE
  5
7AD1
  8
1
  6
CONTINUOUS
 10
2429.9732829999998
 20
5271.7040559999996
 30
0.0
 11
2129.9732829999989
 21
5271.7040559999996
 31
0.0
  0
LINE
  5
7AD2
  8
1
  6
CONTINUOUS
 10
2429.9732829999998
 20
5201.7040559999996
 30
0.0
 11
2129.9732829999989
 21
5201.7040559999996
 31
0.0
  0
LINE
  5
7AD3
  8
1
  6
CONTINUOUS
 10
1849.9732829999989
 20
5235.7040560000014
 30
0.0
 11
1849.9732829999989
 21
5409.2040559999996
 31
0.0
  0
LINE
  5
7AD4
  8
1
  6
CONTINUOUS
 10
2129.9732829999989
 20
5201.7040559999996
 30
0.0
 11
2129.9732829999989
 21
5271.7040559999996
 31
0.0
  0
LINE
  5
7AD5
  8
1
  6
CONTINUOUS
 10
1939.9732829999989
 20
5166.7040559999996
 30
0.0
 11
1939.9732829999989
 21
5306.7040559999996
 31
0.0
  0
LINE
  5
7AD6
  8
1
  6
CONTINUOUS
 10
2129.9732829999989
 20
5235.7040560000014
 30
0.0
 11
1849.9732829999989
 21
5235.7040560000014
 31
0.0
  0
LINE
  5
7AD7
  8
1
  6
CONTINUOUS
 10
2429.9732829999998
 20
5201.7040559999996
 30
0.0
 11
2429.9732829999998
 21
5271.7040559999996
 31
0.0
  0
LINE
  5
7AD8
  8
1
  6
CONTINUOUS
 10
2258.9732829999989
 20
5271.7040559999996
 30
0.0
 11
2258.9732829999989
 21
5409.2040559999996
 31
0.0
  0
LINE
  5
7AD9
  8
1
  6
CONTINUOUS
 10
2300.9732829999989
 20
5271.7040559999996
 30
0.0
 11
2300.9732829999989
 21
5409.2040559999996
 31
0.0
  0
LINE
  5
7AE9
  8
1
  6
CONTINUOUS
 10
2846.8221739999999
 20
2702.5178040000001
 30
0.0
 11
3154.822173999999
 21
2702.5178040000001
 31
0.0
  0
LINE
  5
7AEA
  8
1
  6
CONTINUOUS
 10
3154.822173999999
 20
2662.5178040000001
 30
0.0
 11
3154.822173999999
 21
2720.5178039999992
 31
0.0
  0
LINE
  5
7AEB
  8
1
  6
CONTINUOUS
 10
2846.8221739999999
 20
2662.5178040000001
 30
0.0
 11
2846.8221739999999
 21
2720.5178039999992
 31
0.0
  0
LINE
  5
7AEC
  8
1
  6
CONTINUOUS
 10
3154.822173999999
 20
2702.5178040000001
 30
0.0
 11
3154.822173999999
 21
2720.5178039999992
 31
0.0
  0
LINE
  5
7AED
  8
1
  6
CONTINUOUS
 10
2846.8221739999999
 20
2720.5178039999992
 30
0.0
 11
2868.1645090000002
 21
2769.5342369999998
 31
0.0
  0
LINE
  5
7AEE
  8
1
  6
CONTINUOUS
 10
3154.822173999999
 20
2720.5178039999992
 30
0.0
 11
3133.47984
 21
2769.5342369999998
 31
0.0
  0
ARC
  5
7AEF
  8
1
  6
CONTINUOUS
 10
3000.8221739999999
 20
2862.5178040000001
 30
0.0
 40
162.0
 50
324.972283
 51
215.02771699999991
  0
LINE
  5
7AF0
  8
2
  6
CENTER
 10
2920.822173999999
 20
2862.5178040000001
 30
0.0
 11
3080.8221739999999
 21
2862.5178040000001
 31
0.0
  0
LINE
  5
7AF1
  8
2
  6
CENTER
 10
3000.8221739999999
 20
2942.5178040000001
 30
0.0
 11
3000.8221739999999
 21
2782.5178040000001
 31
0.0
  0
CIRCLE
  5
7AF2
  8
1
  6
CONTINUOUS
 10
3000.8221739999999
 20
2862.5178040000001
 30
0.0
 40
80.0
  0
LINE
  5
7AF3
  8
1
  6
CONTINUOUS
 10
3259.9732829999998
 20
2662.5178040000001
 30
0.0
 11
3259.9732829999998
 21
2562.5178040000001
 31
0.0
  0
LINE
  5
7AF4
  8
1
  6
CONTINUOUS
 10
3209.9732829999998
 20
2662.5178040000001
 30
0.0
 11
3209.9732829999998
 21
2962.5178040000001
 31
0.0
  0
LINE
  5
7AFD
  8
1
  6
CONTINUOUS
 10
3259.9732829999998
 20
5235.7040560000014
 30
0.0
 11
3080.8221739999999
 21
5235.7040560000014
 31
0.0
  0
LINE
  5
7AFE
  8
1
  6
CONTINUOUS
 10
2838.8221739999999
 20
5660.1524209999998
 30
0.0
 11
2838.8221739999999
 21
5417.9053809999996
 31
0.0
  0
LINE
  5
7AFF
  8
1
  6
CONTINUOUS
 10
3162.8221739999999
 20
5338.4359729999996
 30
0.0
 11
2838.8221739999999
 21
5338.4359729999996
 31
0.0
  0
LINE
  5
7B00
  8
1
  6
CONTINUOUS
 10
3080.8221739999999
 20
5271.7040559999996
 30
0.0
 11
2920.822173999999
 21
5271.7040559999996
 31
0.0
  0
LINE
  5
7B01
  8
1
  6
CONTINUOUS
 10
3080.8221739999999
 20
5201.7040559999996
 30
0.0
 11
2920.822173999999
 21
5201.7040559999996
 31
0.0
  0
LINE
  5
7B02
  8
1
  6
CONTINUOUS
 10
2920.822173999999
 20
5201.7040559999996
 30
0.0
 11
2920.822173999999
 21
5271.7040559999996
 31
0.0
  0
LINE
  5
7B03
  8
1
  6
CONTINUOUS
 10
3080.8221739999999
 20
5201.7040559999996
 30
0.0
 11
3080.8221739999999
 21
5271.7040559999996
 31
0.0
  0
LINE
  5
7B04
  8
1
  6
CONTINUOUS
 10
3021.8221739999999
 20
5271.7040559999996
 30
0.0
 11
3021.8221739999999
 21
5338.4359729999996
 31
0.0
  0
LINE
  5
7B05
  8
1
  6
CONTINUOUS
 10
2979.8221739999999
 20
5271.7040559999996
 30
0.0
 11
2979.8221739999999
 21
5338.4359729999996
 31
0.0
  0
LINE
  5
7B06
  8
1
  6
CONTINUOUS
 10
3209.9732829999998
 20
5166.7040559999996
 30
0.0
 11
3209.9732829999998
 21
5306.7040559999996
 31
0.0
  0
LINE
  5
7B2C
  8
1
  6
CONTINUOUS
 10
4520.1997000000001
 20
3662.5178040000001
 30
0.0
 11
4520.1997000000001
 21
2662.5178040000001
 31
0.0
  0
LINE
  5
7B2D
  8
1
  6
CONTINUOUS
 10
4622.6997000000001
 20
2742.5178040000001
 30
0.0
 11
5097.6997000000001
 21
3392.5178040000001
 31
0.0
  0
LINE
  5
7B2E
  8
1
  6
CONTINUOUS
 10
5097.6997000000001
 20
2742.5178040000001
 30
0.0
 11
4622.6997000000001
 21
3392.5178040000001
 31
0.0
  0
LINE
  5
7B2F
  8
1
  6
CONTINUOUS
 10
4380.1997000000001
 20
3662.5178040000001
 30
0.0
 11
4380.1997000000001
 21
2662.5178040000001
 31
0.0
  0
LINE
  5
7B30
  8
1
  6
CONTINUOUS
 10
5097.6997000000001
 20
2662.5178040000001
 30
0.0
 11
5097.6997000000001
 21
3815.7722509999999
 31
0.0
  0
LINE
  5
7B31
  8
1
  6
CONTINUOUS
 10
4622.6997000000001
 20
2662.5178040000001
 30
0.0
 11
4622.6997000000001
 21
3815.7722509999999
 31
0.0
  0
LINE
  5
7B32
  8
1
  6
CONTINUOUS
 10
5149.1997000000001
 20
2662.5178040000001
 30
0.0
 11
4449.1997000000001
 21
2662.5178040000001
 31
0.0
  0
LINE
  5
7B33
  8
1
  6
CONTINUOUS
 10
4622.6997000000001
 20
2742.5178040000001
 30
0.0
 11
5097.6997000000001
 21
2742.5178040000001
 31
0.0
  0
LINE
  5
7B34
  8
1
  6
CONTINUOUS
 10
4449.1997000000001
 20
2562.5178040000001
 30
0.0
 11
5149.1997000000001
 21
2562.5178040000001
 31
0.0
  0
LINE
  5
7B35
  8
1
  6
CONTINUOUS
 10
4485.1997000000001
 20
2841.5178040000001
 30
0.0
 11
4622.6997000000001
 21
2841.5178040000001
 31
0.0
  0
LINE
  5
7B36
  8
1
  6
CONTINUOUS
 10
4485.1997000000001
 20
2883.5178040000001
 30
0.0
 11
4622.6997000000001
 21
2883.5178040000001
 31
0.0
  0
LINE
  5
7B37
  8
1
  6
CONTINUOUS
 10
4415.1997000000001
 20
2782.5178040000001
 30
0.0
 11
4485.1997000000001
 21
2782.5178040000001
 31
0.0
  0
LINE
  5
7B38
  8
1
  6
CONTINUOUS
 10
4415.1997000000001
 20
2942.5178040000001
 30
0.0
 11
4415.1997000000001
 21
2782.5178040000001
 31
0.0
  0
LINE
  5
7B39
  8
1
  6
CONTINUOUS
 10
4485.1997000000001
 20
2942.5178040000001
 30
0.0
 11
4485.1997000000001
 21
2782.5178040000001
 31
0.0
  0
LINE
  5
7B3A
  8
1
  6
CONTINUOUS
 10
4415.1997000000001
 20
2942.5178040000001
 30
0.0
 11
4485.1997000000001
 21
2942.5178040000001
 31
0.0
  0
LINE
  5
7B3B
  8
1
  6
CONTINUOUS
 10
4380.1997000000001
 20
2662.5178040000001
 30
0.0
 11
4449.1997000000001
 21
2662.5178040000001
 31
0.0
  0
LINE
  5
7B3C
  8
1
  6
CONTINUOUS
 10
4449.1997000000001
 20
2662.5178040000001
 30
0.0
 11
4449.1997000000001
 21
2562.5178040000001
 31
0.0
  0
LINE
  5
7B3D
  8
1
  6
CONTINUOUS
 10
5149.1997000000001
 20
2662.5178040000001
 30
0.0
 11
5149.1997000000001
 21
2562.5178040000001
 31
0.0
  0
LINE
  5
7B3E
  8
1
  6
CONTINUOUS
 10
4622.6997000000001
 20
3392.5178040000001
 30
0.0
 11
5097.6997000000001
 21
3392.5178040000001
 31
0.0
  0
LINE
  5
7B3F
  8
1
  6
CONTINUOUS
 10
4622.6997000000001
 20
3815.7722509999999
 30
0.0
 11
5097.6997000000001
 21
3815.7722509999999
 31
0.0
  0
LINE
  5
7B40
  8
1
  6
CONTINUOUS
 10
4485.1997000000001
 20
3341.5178040000001
 30
0.0
 11
4622.6997000000001
 21
3341.5178040000001
 31
0.0
  0
LINE
  5
7B41
  8
1
  6
CONTINUOUS
 10
4485.1997000000001
 20
3383.5178040000001
 30
0.0
 11
4622.6997000000001
 21
3383.5178040000001
 31
0.0
  0
LINE
  5
7B42
  8
1
  6
CONTINUOUS
 10
4415.1997000000001
 20
3512.5178040000001
 30
0.0
 11
4415.1997000000001
 21
3212.5178040000001
 31
0.0
  0
LINE
  5
7B43
  8
1
  6
CONTINUOUS
 10
4485.1997000000001
 20
3512.5178040000001
 30
0.0
 11
4485.1997000000001
 21
3212.5178040000001
 31
0.0
  0
LINE
  5
7B44
  8
1
  6
CONTINUOUS
 10
4415.1997000000001
 20
3212.5178040000001
 30
0.0
 11
4485.1997000000001
 21
3212.5178040000001
 31
0.0
  0
LINE
  5
7B45
  8
1
  6
CONTINUOUS
 10
4415.1997000000001
 20
3512.5178040000001
 30
0.0
 11
4485.1997000000001
 21
3512.5178040000001
 31
0.0
  0
LINE
  5
7B46
  8
1
  6
CONTINUOUS
 10
4520.1997000000001
 20
3662.5178040000001
 30
0.0
 11
4380.1997000000001
 21
3662.5178040000001
 31
0.0
  0
LINE
  5
7B47
  8
1
  6
CONTINUOUS
 10
1794.973283
 20
5884.2040560000014
 30
0.0
 11
2803.464203999999
 21
5884.2040560000014
 31
0.0
  0
LINE
  5
7B48
  8
1
  6
CONTINUOUS
 10
1849.9732829999989
 20
5935.7040560000014
 30
0.0
 11
3259.9732829999998
 21
5935.7040560000014
 31
0.0
  0
LINE
  5
7B49
  8
1
  6
CONTINUOUS
 10
1849.9732829999989
 20
5884.2040560000014
 30
0.0
 11
1849.9732829999989
 21
5935.7040560000014
 31
0.0
  0
LINE
  5
7B4C
  8
1
  6
CONTINUOUS
 10
3162.8221739999999
 20
5823.4359729999987
 30
0.0
 11
2838.8221739999999
 21
5823.4359729999987
 31
0.0
  0
LINE
  5
7B4F
  8
2
  6
CENTER
 10
3304.243959146334
 20
5646.7040559999996
 30
0.0
 11
1729.3802365604779
 21
5646.7040559999996
 31
0.0
  0
LINE
  5
7B50
  8
2
  6
CENTER
 10
4860.1997000000001
 20
3899.0668159999991
 30
0.0
 11
4860.1997000000001
 21
2445.5940219999989
 31
0.0
  0
LINE
  5
7B51
  8
2
  6
CENTER
 10
2279.9732829999989
 20
3919.7725540000001
 30
0.0
 11
2279.9732829999989
 21
2425.1162359999998
 31
0.0
  0
LINE
  5
7B52
  8
2
  6
CENTER
 10
4303.9924020000008
 20
3362.5178040000001
 30
0.0
 11
5162.5108889999992
 21
3362.5178040000001
 31
0.0
  0
LINE
  5
7B53
  8
4
  6
CONTINUOUS
 10
5550.0
 20
1500.0
 30
0.0
 11
5550.0
 21
900.0
 31
0.0
  0
LINE
  5
7B54
  8
4
  6
CONTINUOUS
 10
3450.0
 20
1500.0
 30
0.0
 11
3450.0
 21
900.0
 31
0.0
  0
LINE
  5
7B55
  8
4
  6
CONTINUOUS
 10
1950.0
 20
1500.0
 30
0.0
 11
1950.0
 21
900.0
 31
0.0
  0
LINE
  5
7B58
  8
4
  6
CONTINUOUS
 10
1950.0
 20
900.0
 30
0.0
 11
5550.0
 21
900.0
 31
0.0
  0
LINE
  5
7B59
  8
4
  6
CONTINUOUS
 10
1950.0
 20
1200.0
 30
0.0
 11
5550.0
 21
1200.0
 31
0.0
  0
TEXT
  5
7B5A
  8
4
  6
CONTINUOUS
 10
2065.5062429999989
 20
1294.6290779999999
 30
0.0
 40
150.0
  1
機器名称
  0
TEXT
  5
7B5B
  8
4
  6
CONTINUOUS
 10
2058.7743179999989
 20
964.9354699999999
 30
0.0
 40
150.0
  1
機器型番
  0
TEXT
  5
7B5C
  8
4
  6
CONTINUOUS
 10
3533.0362359999999
 20
1267.7153069999999
 30
0.0
 40
150.0
  1
ミツヤ多翼送風機
  0
TEXT
  5
7B5D
  8
4
  6
CONTINUOUS
 10
3559.9634869999991
 20
951.47875299999987
 30
0.0
 40
150.0
  1
MF#4-4
  0
TEXT
  5
7B5F
  8
4
  6
CONTINUOUS
 10
2714.3572960000001
 20
7150.2865239999992
 30
0.0
 40
162.0
  1
床置ベット
  0
TEXT
  5
7B60
  8
4
  6
CONTINUOUS
 10
948.50278000000014
 20
7601.6429289999996
 30
0.0
 40
216.0
  1
ベルト駆動式片吸込両持多翼ファン
  0
LINE
  5
7B61
  8
4
  6
CONTINUOUS
 10
750.0
 20
7408.2262629999996
 30
0.0
 11
5550.0
 21
7408.2262629999996
 31
0.0
  0
LINE
  5
7B62
  8
4
  6
CONTINUOUS
 10
750.0
 20
8008.2262629999996
 30
0.0
 11
5550.0
 21
8008.2262629999996
 31
0.0
  0
LINE
  5
7B63
  8
4
  6
CONTINUOUS
 10
1950.0
 20
1500.0
 30
0.0
 11
5550.0
 21
1500.0
 31
0.0
  0
LINE
  5
7B64
  8
4
  6
CONTINUOUS
 10
750.0
 20
8008.2262629999996
 30
0.0
 11
750.0
 21
7408.2262629999996
 31
0.0
  0
TEXT
  5
7B65
  8
4
  6
CONTINUOUS
 10
1406.7807999999991
 20
7146.9584329999998
 30
0.0
 40
162.0
  1
右回転左横向
  0
TEXT
  5
7B66
  8
4
  6
CONTINUOUS
 10
4406.9086779999989
 20
8118.1832439999989
 30
0.0
 40
168.0
  1
No.
  0
TEXT
  5
7B67
  8
4
  6
CONTINUOUS
 10
3933.8881879999999
 20
7150.2865239999992
 30
0.0
 40
162.0
  1
縮尺：1/30
  0
LINE
  5
7B68
  8
4
  6
CONTINUOUS
 10
5550.0
 20
8008.2262629999996
 30
0.0
 11
5550.0
 21
7408.2262629999996
 31
0.0
  0
LINE
  5
7B6A
  8
4
  6
CONTINUOUS
 10
4321.8522670000002
 20
8043.7907490000007
 30
0.0
 11
4321.8522670000002
 21
8359.9567849999985
 31
0.0
  0
LINE
  5
7B6B
  8
4
  6
CONTINUOUS
 10
4321.8522670000002
 20
8359.9567849999985
 30
0.0
 11
5550.0
 21
8359.9567849999985
 31
0.0
  0
LINE
  5
7B6C
  8
4
  6
CONTINUOUS
 10
5550.0
 20
8359.9567849999985
 30
0.0
 11
5550.0
 21
8043.7907490000007
 31
0.0
  0
LINE
  5
7B6D
  8
4
  6
CONTINUOUS
 10
5550.0
 20
8043.7907490000007
 30
0.0
 11
4321.8522670000002
 21
8043.7907490000007
 31
0.0
  0
DIMENSION
  5
7B85
  8
3
  6
CONTINUOUS
  2
*D1
 10
1648.974588
 20
2742.5178040000001
 30
0.0
 11
1648.974588
 21
3026.6381120000001
 31
0.0
 70
   128
 13
1794.973283
 23
3392.5178040000001
 33
0.0
 14
1794.973283
 24
2742.5178040000001
 34
0.0
 50
90.0
1001
ACAD
1000
DSTYLE
1002
{
1070
   287
1070
     3
1070
   287
1070
     3
1070
   287
1070
     3
1070
    40
1040
30.0
1070
   143
1040
0.039
1070
   172
1070
     1
1070
   271
1070
     0
1070
   279
1070
     0
1070
   288
1070
     1
1002
}
  0
DIMENSION
  5
7B92
  8
3
  6
CONTINUOUS
  2
*D2
 10
1451.9363149999999
 20
3362.5178040000001
 30
0.0
 11
1451.9363149999999
 21
3026.6381120000001
 31
0.0
 70
   128
 13
1794.973283
 23
2742.5178040000001
 33
0.0
 14
1688.9955649999999
 24
3362.5178040000001
 34
0.0
 50
90.0
1001
ACAD
1000
DSTYLE
1002
{
1070
   287
1070
     3
1070
   287
1070
     3
1070
   287
1070
     3
1070
    40
1040
30.0
1070
   143
1040
0.039
1070
   172
1070
     1
1070
   271
1070
     0
1070
   279
1070
     0
1070
   288
1070
     1
1002
}
  0
DIMENSION
  5
7B9F
  8
3
  6
CONTINUOUS
  2
*D3
 10
1273.9662539999999
 20
2562.5178040000001
 30
0.0
 11
1273.9662539999999
 21
2956.7863309999989
 31
0.0
 70
   128
 13
1688.9955649999999
 23
3362.5178040000001
 33
0.0
 14
1849.9732829999989
 24
2562.5178040000001
 34
0.0
 50
90.0
1001
ACAD
1000
DSTYLE
1002
{
1070
   287
1070
     3
1070
   287
1070
     3
1070
   287
1070
     3
1070
    40
1040
30.0
1070
   143
1040
0.039
1070
   172
1070
     1
1070
   271
1070
     0
1070
   279
1070
     0
1070
   288
1070
     1
1002
}
  0
DIMENSION
  5
7BC4
  8
3
  6
CONTINUOUS
  2
*D4
 10
2279.9732829999989
 20
3960.1118849999998
 30
0.0
 11
2043.05117
 21
3960.1118849999998
 31
0.0
 70
   128
 13
1794.973283
 23
3432.5178040000001
 33
0.0
 14
2279.9732829999989
 24
3928.8381149999991
 34
0.0
1001
ACAD
1000
DSTYLE
1002
{
1070
   287
1070
     3
1070
   287
1070
     3
1070
   287
1070
     3
1070
    40
1040
30.0
1070
   143
1040
0.039
1070
   172
1070
     1
1070
   271
1070
     0
1070
   279
1070
     0
1070
   288
1070
     1
1002
}
  0
DIMENSION
  5
7BEA
  8
3
  6
CONTINUOUS
  2
*D5
 10
2279.9732829999989
 20
2306.9795612708922
 30
0.0
 11
2074.2589972857131
 21
2306.9795612708922
 31
0.0
 70
   128
 13
1849.9732829999989
 23
2562.5178040000001
 33
0.0
 14
2279.9732829999989
 24
2434.1817969999988
 34
0.0
1001
ACAD
1000
DSTYLE
1002
{
1070
   287
1070
     3
1070
   287
1070
     3
1070
   287
1070
     3
1070
    40
1040
30.0
1070
   143
1040
0.039
1070
   172
1070
     1
1070
   271
1070
     0
1070
   279
1070
     0
1070
   288
1070
     1
1002
}
  0
DIMENSION
  5
7BF6
  8
3
  6
CONTINUOUS
  2
*D6
 10
3259.9732829999998
 20
2306.9795612708922
 30
0.0
 11
2769.9732829999998
 21
2381.9795612708922
 31
0.0
 70
     0
 13
2279.9732829999989
 23
2434.1817969999988
 33
0.0
 14
3259.9732829999998
 24
2562.5178040000001
 34
0.0
1001
ACAD
1000
DSTYLE
1002
{
1070
   287
1070
     4
1070
   287
1070
     4
1070
   287
1070
     4
1070
    40
1040
30.0
1070
    75
1070
     1
1070
   143
1040
0.039
1070
   172
1070
     1
1070
   271
1070
     0
1070
   279
1070
     1
1070
   288
1070
     1
1002
}
  0
DIMENSION
  5
7C03
  8
3
  6
CONTINUOUS
  2
*D7
 10
4860.1997000000001
 20
2311.9547259999999
 30
0.0
 11
4682.3425569999999
 21
2311.9547259999999
 31
0.0
 70
   128
 13
4449.1997000000001
 23
2562.5178040000001
 33
0.0
 14
4860.1997000000001
 24
2445.5940219999989
 34
0.0
1001
ACAD
1000
DSTYLE
1002
{
1070
   287
1070
     3
1070
   287
1070
     3
1070
   287
1070
     3
1070
    40
1040
30.0
1070
   143
1040
0.039
1070
   172
1070
     1
1070
   271
1070
     0
1070
   279
1070
     0
1070
   288
1070
     1
1002
}
  0
DIMENSION
  5
7C11
  8
3
  6
CONTINUOUS
  2
*D8
 10
5149.1997000000001
 20
2311.9547259999999
 30
0.0
 11
5013.2670189999999
 21
2313.9330190000001
 31
0.0
 70
   128
 13
4860.1997000000001
 23
2445.5940219999989
 33
0.0
 14
5149.1997000000001
 24
2562.5178040000001
 34
0.0
1001
ACAD
1000
DSTYLE
1002
{
1070
   287
1070
     4
1070
   287
1070
     4
1070
   287
1070
     4
1070
    40
1040
30.0
1070
    75
1070
     1
1070
   143
1040
0.039
1070
   172
1070
     1
1070
   271
1070
     0
1070
   279
1070
     1
1070
   288
1070
     1
1002
}
  0
DIMENSION
  5
7C1E
  8
3
  6
CONTINUOUS
  2
*D9
 10
4622.6997000000001
 20
3909.3105869999999
 30
0.0
 11
4859.9300479999993
 21
3909.3105869999999
 31
0.0
 70
   128
 13
5097.6997000000001
 23
3815.7722509999999
 33
0.0
 14
4622.6997000000001
 24
3815.7722509999999
 34
0.0
1001
ACAD
1000
DSTYLE
1002
{
1070
   287
1070
     3
1070
   287
1070
     3
1070
   287
1070
     3
1070
    40
1040
30.0
1070
   143
1040
0.039
1070
   172
1070
     1
1070
   271
1070
     0
1070
   279
1070
     0
1070
   288
1070
     1
1002
}
  0
LINE
  5
7C21
  8
1
  6
CONTINUOUS
 10
5101.1997000000001
 20
3027.5178040000001
 30
0.0
 11
5101.1997000000001
 21
3697.5178040000001
 31
0.0
  0
DIMENSION
  5
7C2E
  8
3
  6
CONTINUOUS
  2
*D10
 10
5368.4159360000012
 20
3027.5178039999992
 30
0.0
 11
5368.4159360000003
 21
3369.5468460000002
 31
0.0
 70
   128
 13
5101.1997000000001
 23
3697.5178040000001
 33
0.0
 14
5101.1997000000001
 24
3027.5178040000001
 34
0.0
 50
90.0
1001
ACAD
1000
DSTYLE
1002
{
1070
   287
1070
     3
1070
   287
1070
     3
1070
   287
1070
     3
1070
     3
1000
φ<>
1070
    40
1040
30.0
1070
   143
1040
0.039
1070
   172
1070
     1
1070
   271
1070
     0
1070
   279
1070
     0
1070
   288
1070
     1
1002
}
  0
DIMENSION
  5
7C48
  8
3
  6
CONTINUOUS
  2
*D11
 10
4380.1997000000001
 20
4112.5157599999993
 30
0.0
 11
4620.1996999999992
 21
4262.5157600000002
 31
0.0
 70
     0
  1
MAX\P530
 13
4860.1997000000001
 23
4057.125692999999
 33
0.0
 14
4380.1997000000001
 24
3662.5178040000001
 34
0.0
1001
ACAD
1000
DSTYLE
1002
{
1070
   287
1070
     4
1070
   287
1070
     4
1070
   287
1070
     4
1070
    40
1040
30.0
1070
    75
1070
     1
1070
   143
1040
0.039
1070
   172
1070
     1
1070
   271
1070
     0
1070
   279
1070
     1
1070
   288
1070
     1
1002
}
  0
DIMENSION
  5
7C6B
  8
3
  6
CONTINUOUS
  2
*D12
 10
3259.9732829999998
 20
6171.4979950000006
 30
0.0
 11
2507.0445519999989
 21
6171.4979950000006
 31
0.0
 70
   128
 13
1849.9732829999989
 23
5935.7040560000014
 33
0.0
 14
3259.9732829999998
 24
5935.7040560000014
 34
0.0
1001
ACAD
1000
DSTYLE
1002
{
1070
   287
1070
     3
1070
   287
1070
     3
1070
   287
1070
     3
1070
    40
1040
30.0
1070
   143
1040
0.039
1070
   172
1070
     1
1070
   271
1070
     0
1070
   279
1070
     0
1070
   288
1070
     1
1002
}
  0
DIMENSION
  5
7C78
  8
3
  6
CONTINUOUS
  2
*D13
 10
3504.9481540000002
 20
5235.7040560000014
 30
0.0
 11
3504.9481539999988
 21
5609.9875949999996
 31
0.0
 70
   128
 13
3259.9732829999998
 23
5935.7040560000014
 33
0.0
 14
3259.9732829999998
 24
5235.7040560000014
 34
0.0
 50
90.0
1001
ACAD
1000
DSTYLE
1002
{
1070
   287
1070
     3
1070
   287
1070
     3
1070
   287
1070
     3
1070
    40
1040
30.0
1070
   143
1040
0.039
1070
   172
1070
     1
1070
   271
1070
     0
1070
   279
1070
     0
1070
   288
1070
     1
1002
}
  0
DIMENSION
  5
7CAA
  8
3
  6
CONTINUOUS
  2
*D14
 10
2801.9732829999998
 20
3960.1118849999998
 30
0.0
 11
2540.9732829999998
 21
4035.1118849999998
 31
0.0
 70
     0
 13
2279.9732829999989
 23
3928.8381149999991
 33
0.0
 14
2801.9732829999998
 24
3362.5178040000001
 34
0.0
1001
ACAD
1000
DSTYLE
1002
{
1070
   287
1070
     4
1070
   287
1070
     4
1070
   287
1070
     4
1070
    40
1040
30.0
1070
    75
1070
     1
1070
   143
1040
0.039
1070
   172
1070
     1
1070
   271
1070
     0
1070
   279
1070
     1
1070
   288
1070
     1
1002
}
  0
DIMENSION
  5
7D1C
  8
3
  6
CONTINUOUS
  2
*D15
 10
5101.1997000000001
 20
4112.5157599999993
 30
0.0
 11
4974.9627205102734
 21
4191.066298614136
 31
0.0
 70
   128
 13
4860.1997000000001
 23
4057.125692999999
 33
0.0
 14
5101.1997000000001
 24
3697.5178040000001
 34
0.0
1001
ACAD
1000
DSTYLE
1002
{
1070
   288
1070
     1
1070
   172
1070
     1
1070
    40
1040
30.0
1070
   271
1070
     0
1070
   143
1040
0.039
1002
}
  0
DIMENSION
  5
7D78
  8
3
  2
*D16
 10
3259.9732829999998
 20
4151.5366788533211
 30
0.0
 11
2543.17107038826
 21
4151.5366788533211
 31
0.0
 70
   128
 13
1794.973283
 23
3432.5178040000001
 33
0.0
 14
3259.9732829999998
 24
2662.5178040000001
 34
0.0
1001
ACAD
1000
DSTYLE
1002
{
1070
   287
1070
     3
1070
   287
1070
     3
1070
   287
1070
     3
1070
    40
1040
30.0
1070
   143
1040
0.039
1070
   172
1070
     1
1070
   271
1070
     0
1070
   279
1070
     0
1070
   288
1070
     1
1002
}
  0
LINE
  5
7DF8
  8
1
 10
1869.973283
 20
3482.5178040000001
 30
0.0
 11
2689.9732829999998
 21
3482.5178040000001
 31
0.0
  0
DIMENSION
  5
7DFA
  8
3
  2
*D17
 10
1273.9662539999999
 20
3815.7722509999999
 30
0.0
 11
1198.966253999999
 21
3589.1450275000002
 31
0.0
 70
     0
  1
452
 13
1688.9955649999999
 23
3362.5178040000001
 33
0.0
 14
2314.9732829999998
 24
3815.7722509999999
 34
0.0
 50
90.0
1001
ACAD
1000
DSTYLE
1002
{
1070
   287
1070
     4
1070
   287
1070
     4
1070
   287
1070
     4
1070
    40
1040
30.0
1070
   143
1040
0.039
1070
   172
1070
     1
1070
   271
1070
     0
1070
   279
1070
     1
1070
   288
1070
     1
1002
}
  0
LINE
  5
7ED0
  8
1
 10
1869.973283
 20
3482.5178040000001
 30
0.0
 11
1869.9732829999989
 21
2662.5178040000001
 31
0.0
  0
LINE
  5
7ED1
  8
1
 10
2689.9732829999998
 20
3640.1956014453508
 30
0.0
 11
2689.9732829999989
 21
2662.5178040000001
 31
0.0
  0
ENDSEC
  0
EOF
