  0
SECTION
  2
HEADER
  9
$ACADVER
  1
AC1009
  9
$INSBASE
 10
0.0
 20
0.0
 30
0.0
  9
$EXTMIN
 10
750.0
 20
900.0
 30
0.0
  9
$EXTMAX
 10
5550.0
 20
8359.9567849999985
 30
0.0
  9
$LIMMIN
 10
0.0
 20
0.0
  9
$LIMMAX
 10
297.0
 20
210.0
  9
$ORTHOMODE
 70
     0
  9
$REGENMODE
 70
     1
  9
$FILLMODE
 70
     0
  9
$QTEXTMODE
 70
     0
  9
$MIRRTEXT
 70
     1
  9
$DRAGMODE
 70
     2
  9
$LTSCALE
 40
100.0
  9
$OSMODE
 70
    37
  9
$ATTMODE
 70
     1
  9
$TEXTSIZE
 40
180.0
  9
$TRACEWID
 40
0.05
  9
$TEXTSTYLE
  7
STANDARD
  9
$CLAYER
  8
3
  9
$CELTYPE
  6
BYLAYER
  9
$CECOLOR
 62
   256
  9
$DIMSCALE
 40
2.0
  9
$DIMASZ
 40
2.0
  9
$DIMEXO
 40
0.5
  9
$DIMDLI
 40
10.0
  9
$DIMRND
 40
0.0
  9
$DIMDLE
 40
0.0
  9
$DIMEXE
 40
1.0
  9
$DIMTP
 40
1.0
  9
$DIMTM
 40
1.0
  9
$DIMTXT
 40
3.0
  9
$DIMCEN
 40
0.0
  9
$DIMTSZ
 40
0.0
  9
$DIMTOL
 70
     0
  9
$DIMLIM
 70
     0
  9
$DIMTIH
 70
     0
  9
$DIMTOH
 70
     0
  9
$DIMSE1
 70
     0
  9
$DIMSE2
 70
     0
  9
$DIMTAD
 70
     1
  9
$DIMZIN
 70
     8
  9
$DIMBLK
  1

  9
$DIMASO
 70
     1
  9
$DIMSHO
 70
     1
  9
$DIMPOST
  1

  9
$DIMAPOST
  1

  9
$DIMALT
 70
     0
  9
$DIMALTD
 70
     2
  9
$DIMALTF
 40
0.03937
  9
$DIMLFAC
 40
1.0
  9
$DIMTOFL
 70
     0
  9
$DIMTVP
 40
0.0
  9
$DIMTIX
 70
     0
  9
$DIMSOXD
 70
     0
  9
$DIMSAH
 70
     1
  9
$DIMBLK1
  1
OPEN
  9
$DIMBLK2
  1
OPEN
  9
$DIMSTYLE
  2
IGA
  9
$DIMCLRD
 70
     0
  9
$DIMCLRE
 70
     0
  9
$DIMCLRT
 70
     0
  9
$DIMTFAC
 40
10.0
  9
$DIMGAP
 40
1.0
  9
$LUNITS
 70
     2
  9
$LUPREC
 70
     3
  9
$SKETCHINC
 40
0.1
  9
$FILLETRAD
 40
50.0
  9
$AUNITS
 70
     0
  9
$AUPREC
 70
     0
  9
$MENU
  1
acad
  9
$ELEVATION
 40
0.0
  9
$PELEVATION
 40
0.0
  9
$THICKNESS
 40
0.0
  9
$LIMCHECK
 70
     0
  9
$BLIPMODE
 70
     0
  9
$CHAMFERA
 40
0.5
  9
$CHAMFERB
 40
0.5
  9
$SKPOLY
 70
     0
  9
$TDCREATE
 40
2450738.4818528928
  9
$TDUPDATE
 40
2454953.7714950349
  9
$TDINDWG
 40
0.0221952894
  9
$TDUSRTIMER
 40
0.0221952894
  9
$USRTIMER
 70
     1
  9
$ANGBASE
 50
0.0
  9
$ANGDIR
 70
     0
  9
$PDMODE
 70
     0
  9
$PDSIZE
 40
0.0
  9
$PLINEWID
 40
0.0
  9
$COORDS
 70
     1
  9
$SPLFRAME
 70
     0
  9
$SPLINETYPE
 70
     6
  9
$SPLINESEGS
 70
     8
  9
$ATTDIA
 70
     0
  9
$ATTREQ
 70
     1
  9
$HANDLING
 70
 10241
  9
$HANDSEED
  5
7FF2
  9
$SURFTAB1
 70
     6
  9
$SURFTAB2
 70
     6
  9
$SURFTYPE
 70
     6
  9
$SURFU
 70
     6
  9
$SURFV
 70
     6
  9
$UCSNAME
  2

  9
$UCSORG
 10
0.0
 20
0.0
 30
0.0
  9
$UCSXDIR
 10
1.0
 20
0.0
 30
0.0
  9
$UCSYDIR
 10
0.0
 20
1.0
 30
0.0
  9
$PUCSNAME
  2

  9
$PUCSORG
 10
0.0
 20
0.0
 30
0.0
  9
$PUCSXDIR
 10
1.0
 20
0.0
 30
0.0
  9
$PUCSYDIR
 10
0.0
 20
1.0
 30
0.0
  9
$USERI1
 70
     0
  9
$USERI2
 70
     0
  9
$USERI3
 70
     0
  9
$USERI4
 70
     0
  9
$USERI5
 70
     0
  9
$USERR1
 40
0.0
  9
$USERR2
 40
0.0
  9
$USERR3
 40
0.0
  9
$USERR4
 40
0.0
  9
$USERR5
 40
0.0
  9
$WORLDVIEW
 70
     1
  9
$SHADEDGE
 70
     3
  9
$SHADEDIF
 70
    70
  9
$TILEMODE
 70
     1
  9
$MAXACTVP
 70
    16
  9
$PLIMCHECK
 70
     0
  9
$PEXTMIN
 10
1.0000000000000000E+020
 20
1.0000000000000000E+020
 30
1.0000000000000000E+020
  9
$PEXTMAX
 10
-1.0000000000000000E+020
 20
-1.0000000000000000E+020
 30
-1.0000000000000000E+020
  9
$PLIMMIN
 10
0.0
 20
0.0
  9
$PLIMMAX
 10
12.0
 20
9.0
  9
$UNITMODE
 70
     0
  9
$VISRETAIN
 70
     0
  9
$PLINEGEN
 70
     0
  9
$PSLTSCALE
 70
     1
  0
ENDSEC
  0
SECTION
  2
TABLES
  0
TABLE
  2
VPORT
 70
     2
  0
VPORT
  2
*ACTIVE
 70
     0
 10
0.0
 20
0.0
 11
1.0
 21
1.0
 12
9437.9954746499006
 22
4629.9199394653269
 13
0.0
 23
0.0
 14
10.0
 24
10.0
 15
10.0
 25
10.0
 16
0.0
 26
0.0
 36
1.0
 17
0.0
 27
0.0
 37
0.0
 40
7517.061441529765
 41
3.1666666666666661
 42
50.0
 43
0.0
 44
0.0
 50
0.0
 51
0.0
 71
     0
 72
   100
 73
     1
 74
     0
 75
     0
 76
     0
 77
     0
 78
     0
  0
ENDTAB
  0
TABLE
  2
LTYPE
 70
     2
  0
LTYPE
  2
CONTINUOUS
 70
     0
  3
Solid line
 72
    65
 73
     0
 40
0.0
  0
LTYPE
  2
CENTER
 70
     0
  3
____ _ ____ _ ____ _ ____ _ ____ _ ____ _ ____ 
 72
    65
 73
     4
 40
2.0
 49
1.25
 49
-0.25
 49
0.25
 49
-0.25
  0
ENDTAB
  0
TABLE
  2
LAYER
 70
     6
  0
LAYER
  2
0
 70
     0
 62
     7
  6
CONTINUOUS
  0
LAYER
  2
3
 70
     0
 62
     2
  6
CONTINUOUS
  0
LAYER
  2
2
 70
     0
 62
     3
  6
CENTER
  0
LAYER
  2
1
 70
     0
 62
     4
  6
CONTINUOUS
  0
LAYER
  2
4
 70
     0
 62
     7
  6
CONTINUOUS
  0
LAYER
  2
DEFPOINTS
 70
     0
 62
     7
  6
CONTINUOUS
  0
ENDTAB
  0
TABLE
  2
STYLE
 70
     1
  0
STYLE
  2
STANDARD
 70
     0
 40
0.0
 41
1.0
 50
0.0
 71
     0
 42
180.0
  3
simplex.shx
  4
extfont.shx
  0
ENDTAB
  0
TABLE
  2
VIEW
 70
     0
  0
ENDTAB
  0
TABLE
  2
UCS
 70
     0
  0
ENDTAB
  0
TABLE
  2
APPID
 70
     1
  0
APPID
  2
ACAD
 70
     0
  0
ENDTAB
  0
TABLE
  2
DIMSTYLE
 70
     1
  0
DIMSTYLE
  2
IGA
 70
     0
  3

  4

  5

  6
OPEN
  7
OPEN
 40
2.0
 41
2.0
 42
0.5
 43
10.0
 44
1.0
 45
0.0
 46
0.0
 47
1.0
 48
1.0
140
3.0
141
0.0
142
0.0
143
0.03937
144
1.0
145
0.0
146
10.0
147
1.0
 71
     0
 72
     0
 73
     0
 74
     0
 75
     0
 76
     0
 77
     1
 78
     8
170
     0
171
     2
172
     0
173
     1
174
     0
175
     0
176
     0
177
     0
178
     0
  0
ENDTAB
  0
ENDSEC
  0
SECTION
  2
BLOCKS
  0
BLOCK
  8
0
  2
$MODEL_SPACE
 70
     0
 10
0.0
 20
0.0
 30
0.0
  3
$MODEL_SPACE
  1

  0
ENDBLK
  5
1B
  8
0
  0
BLOCK
 67
     1
  8
0
  2
$PAPER_SPACE
 70
     0
 10
0.0
 20
0.0
 30
0.0
  3
$PAPER_SPACE
  1

  0
ENDBLK
  5
18
 67
     1
  8
0
  0
BLOCK
  8
0
  2
_OPEN
 70
     0
 10
0.0
 20
0.0
 30
0.0
  3
_OPEN
  1

  0
LINE
  5
7AC3
  8
0
  6
BYBLOCK
 62
     0
 10
-1.0
 20
0.166667
 30
0.0
 11
0.0
 21
0.0
 31
0.0
  0
LINE
  5
7AC4
  8
0
  6
BYBLOCK
 62
     0
 10
0.0
 20
0.0
 30
0.0
 11
-1.0
 21
-0.166667
 31
0.0
  0
LINE
  5
7AC5
  8
0
  6
BYBLOCK
 62
     0
 10
0.0
 20
0.0
 30
0.0
 11
-1.0
 21
0.0
 31
0.0
  0
ENDBLK
  5
7AC6
  8
0
  0
BLOCK
  8
0
  2
*D1
 70
     1
 10
0.0
 20
0.0
 30
0.0
  3
*D1
  1

  0
LINE
  5
7F60
  8
3
  6
CONTINUOUS
 62
     0
 10
1707.5331049999991
 20
3766.8585429999998
 30
0.0
 11
1707.5331049999991
 21
3953.228752
 31
0.0
  0
LINE
  5
7F61
  8
3
  6
CONTINUOUS
 62
     0
 10
2357.5331049999991
 20
3766.8585429999998
 30
0.0
 11
2357.5331049999991
 21
3953.228752
 31
0.0
  0
LINE
  5
7F62
  8
3
  6
CONTINUOUS
 62
     0
 10
1767.533105
 20
3923.228752
 30
0.0
 11
2297.533105
 21
3923.228752
 31
0.0
  0
INSERT
  5
7F63
  8
3
  6
CONTINUOUS
 62
     0
  2
_OPEN
 10
1707.5331049999991
 20
3923.228752
 30
0.0
 41
60.0
 42
60.0
 43
60.0
 50
180.0
  0
INSERT
  5
7F64
  8
3
  6
CONTINUOUS
 62
     0
  2
_OPEN
 10
2357.5331049999991
 20
3923.228752
 30
0.0
 41
60.0
 42
60.0
 43
60.0
  0
TEXT
  8
3
  40
90
  5
7FE2
  62
0
  72
0
  71
0
 10
1845.79
 20
3838.93
 30
0.000000
  1
650
  0
POINT
  5
7F66
  8
DEFPOINTS
  6
CONTINUOUS
 62
     0
 10
1707.5331049999991
 20
3751.8585429999998
 30
0.0
  0
POINT
  5
7F67
  8
DEFPOINTS
  6
CONTINUOUS
 62
     0
 10
2357.5331049999991
 20
3751.8585429999998
 30
0.0
  0
POINT
  5
7F68
  8
DEFPOINTS
  6
CONTINUOUS
 62
     0
 10
2357.5331049999991
 20
3923.228752
 30
0.0
  0
ENDBLK
  5
7B2B
  8
0
  0
BLOCK
  8
0
  2
*D2
 70
     1
 10
0.0
 20
0.0
 30
0.0
  3
*D2
  1

  0
LINE
  5
7F69
  8
3
  6
CONTINUOUS
 62
     0
 10
2327.533105
 20
3921.2753799999991
 30
0.0
 11
2327.533105
 21
4128.5772489999999
 31
0.0
  0
LINE
  5
7F6A
  8
3
  6
CONTINUOUS
 62
     0
 10
1707.5331049999991
 20
3766.8585429999998
 30
0.0
 11
1707.5331049999991
 21
4128.5772489999999
 31
0.0
  0
LINE
  5
7F6B
  8
3
  6
CONTINUOUS
 62
     0
 10
2267.533105
 20
4098.5772489999999
 30
0.0
 11
1767.533105
 21
4098.5772489999999
 31
0.0
  0
INSERT
  5
7F6C
  8
3
  6
CONTINUOUS
 62
     0
  2
_OPEN
 10
2327.533105
 20
4098.5772489999999
 30
0.0
 41
60.0
 42
60.0
 43
60.0
  0
INSERT
  5
7F6D
  8
3
  6
CONTINUOUS
 62
     0
  2
_OPEN
 10
1707.5331049999991
 20
4098.5772489999999
 30
0.0
 41
60.0
 42
60.0
 43
60.0
 50
180.0
  0
TEXT
  8
3
  40
90
  5
7FE3
  62
0
  72
0
  71
0
 10
1845.79
 20
4014.28
 30
0.000000
  1
620
  0
POINT
  5
7F6F
  8
DEFPOINTS
  6
CONTINUOUS
 62
     0
 10
2327.533105
 20
3906.2753799999991
 30
0.0
  0
POINT
  5
7F70
  8
DEFPOINTS
  6
CONTINUOUS
 62
     0
 10
1707.5331049999991
 20
3751.8585429999998
 30
0.0
  0
POINT
  5
7F71
  8
DEFPOINTS
  6
CONTINUOUS
 62
     0
 10
1707.5331049999991
 20
4098.5772489999999
 30
0.0
  0
ENDBLK
  5
7B38
  8
0
  0
BLOCK
  8
0
  2
*D3
 70
     1
 10
0.0
 20
0.0
 30
0.0
  3
*D3
  1

  0
LINE
  5
7F72
  8
3
  6
CONTINUOUS
 62
     0
 10
2412.533105
 20
3751.8585429999998
 30
0.0
 11
3082.8616970000012
 21
3751.8585429999989
 31
0.0
  0
LINE
  5
7F73
  8
3
  6
CONTINUOUS
 62
     0
 10
2915.0749879999998
 20
3266.8585429999998
 30
0.0
 11
3082.8616970000012
 21
3266.8585429999989
 31
0.0
  0
LINE
  5
7F74
  8
3
  6
CONTINUOUS
 62
     0
 10
3052.8616969999998
 20
3691.8585429999998
 30
0.0
 11
3052.8616969999998
 21
3326.8585429999998
 31
0.0
  0
INSERT
  5
7F75
  8
3
  6
CONTINUOUS
 62
     0
  2
_OPEN
 10
3052.8616969999998
 20
3751.8585429999998
 30
0.0
 41
60.0
 42
60.0
 43
60.0
 50
90.0
  0
INSERT
  5
7F76
  8
3
  6
CONTINUOUS
 62
     0
  2
_OPEN
 10
3052.8616969999998
 20
3266.8585429999998
 30
0.0
 41
60.0
 42
60.0
 43
60.0
 50
270.0
  0
TEXT
  8
3
  40
90
  5
7FE4
  62
0
  72
0
  71
0
 10
2797.86
 20
3348.29
 30
0.000000
  1
485
  0
POINT
  5
7F78
  8
DEFPOINTS
  6
CONTINUOUS
 62
     0
 10
2397.533105
 20
3751.8585429999998
 30
0.0
  0
POINT
  5
7F79
  8
DEFPOINTS
  6
CONTINUOUS
 62
     0
 10
2900.0749879999998
 20
3266.8585429999998
 30
0.0
  0
POINT
  5
7F7A
  8
DEFPOINTS
  6
CONTINUOUS
 62
     0
 10
3052.8616969999998
 20
3266.8585429999998
 30
0.0
  0
ENDBLK
  5
7B69
  8
0
  0
BLOCK
  8
0
  2
*D4
 70
     1
 10
0.0
 20
0.0
 30
0.0
  3
*D4
  1

  0
LINE
  5
7F7B
  8
3
  6
CONTINUOUS
 62
     0
 10
2772.533105
 20
2696.8585429999989
 30
0.0
 11
3082.8616969999998
 21
2696.8585429999989
 31
0.0
  0
LINE
  5
7F7C
  8
3
  6
CONTINUOUS
 62
     0
 10
3052.8616969999998
 20
3206.8585429999998
 30
0.0
 11
3052.8616969999989
 21
2756.8585429999989
 31
0.0
  0
INSERT
  5
7F7D
  8
3
  6
CONTINUOUS
 62
     0
  2
_OPEN
 10
3052.8616969999998
 20
3266.8585429999998
 30
0.0
 41
60.0
 42
60.0
 43
60.0
 50
90.0
  0
INSERT
  5
7F7E
  8
3
  6
CONTINUOUS
 62
     0
  2
_OPEN
 10
3052.8616969999989
 20
2696.8585429999989
 30
0.0
 41
60.0
 42
60.0
 43
60.0
 50
270.0
  0
TEXT
  8
3
  40
90
  5
7FE5
  62
0
  72
0
  71
0
 10
2797.86
 20
2822.56
 30
0.000000
  1
570
  0
POINT
  5
7F80
  8
DEFPOINTS
  6
CONTINUOUS
 62
     0
 10
2900.0749879999998
 20
3266.8585429999998
 30
0.0
  0
POINT
  5
7F81
  8
DEFPOINTS
  6
CONTINUOUS
 62
     0
 10
2757.533105
 20
2696.8585429999989
 30
0.0
  0
POINT
  5
7F82
  8
DEFPOINTS
  6
CONTINUOUS
 62
     0
 10
3052.8616969999989
 20
2696.8585429999989
 30
0.0
  0
ENDBLK
  5
7B75
  8
0
  0
BLOCK
  8
0
  2
*D5
 70
     1
 10
0.0
 20
0.0
 30
0.0
  3
*D5
  1

  0
LINE
  5
7F83
  8
3
  6
CONTINUOUS
 62
     0
 10
1347.533105
 20
2681.8585429999998
 30
0.0
 11
1347.533105
 21
2431.7431792438351
 31
0.0
  0
LINE
  5
7F84
  8
3
  6
CONTINUOUS
 62
     0
 10
2327.533105
 20
2548.7977110000002
 30
0.0
 11
2327.533105
 21
2431.7431792438351
 31
0.0
  0
LINE
  5
7F85
  8
3
  6
CONTINUOUS
 62
     0
 10
1407.533105
 20
2461.7431792438351
 30
0.0
 11
2267.533105
 21
2461.7431792438351
 31
0.0
  0
INSERT
  5
7F86
  8
3
  6
CONTINUOUS
 62
     0
  2
_OPEN
 10
1347.533105
 20
2461.7431792438351
 30
0.0
 41
60.0
 42
60.0
 43
60.0
 50
180.0
  0
INSERT
  5
7F87
  8
3
  6
CONTINUOUS
 62
     0
  2
_OPEN
 10
2327.533105
 20
2461.7431792438351
 30
0.0
 41
60.0
 42
60.0
 43
60.0
  0
TEXT
  8
3
  40
90
  5
7FE6
  62
0
  72
0
  71
0
 10
1680.64
 20
2377.44
 30
0.000000
  1
980
  0
POINT
  5
7F89
  8
DEFPOINTS
  6
CONTINUOUS
 62
     0
 10
1347.533105
 20
2696.8585429999989
 30
0.0
  0
POINT
  5
7F8A
  8
DEFPOINTS
  6
CONTINUOUS
 62
     0
 10
2327.533105
 20
2563.7977110000002
 30
0.0
  0
POINT
  5
7F8B
  8
DEFPOINTS
  6
CONTINUOUS
 62
     0
 10
2327.533105
 20
2461.7431792438351
 30
0.0
  0
ENDBLK
  5
7D7A
  8
0
  0
BLOCK
  8
0
  2
*D6
 70
     1
 10
0.0
 20
0.0
 30
0.0
  3
*D6
  1

  0
LINE
  5
7F8C
  8
3
  6
CONTINUOUS
 62
     0
 10
2757.533105
 20
2681.8585429999998
 30
0.0
 11
2757.533105
 21
2431.7431792438351
 31
0.0
  0
LINE
  5
7F8D
  8
3
  6
CONTINUOUS
 62
     0
 10
2387.533105
 20
2461.7431792438351
 30
0.0
 11
2697.533105
 21
2461.7431792438351
 31
0.0
  0
INSERT
  5
7F8E
  8
3
  6
CONTINUOUS
 62
     0
  2
_OPEN
 10
2327.533105
 20
2461.7431792438351
 30
0.0
 41
60.0
 42
60.0
 43
60.0
 50
180.0
  0
INSERT
  5
7F8F
  8
3
  6
CONTINUOUS
 62
     0
  2
_OPEN
 10
2757.533105
 20
2461.7431792438351
 30
0.0
 41
60.0
 42
60.0
 43
60.0
  0
TEXT
  8
3
  40
90
  5
7FE7
  62
0
  72
0
  71
0
 10
2362.53
 20
2377.44
 30
0.000000
  1
430
  0
POINT
  5
7F91
  8
DEFPOINTS
  6
CONTINUOUS
 62
     0
 10
2327.533105
 20
2563.7977110000002
 30
0.0
  0
POINT
  5
7F92
  8
DEFPOINTS
  6
CONTINUOUS
 62
     0
 10
2757.533105
 20
2696.8585429999989
 30
0.0
  0
POINT
  5
7F93
  8
DEFPOINTS
  6
CONTINUOUS
 62
     0
 10
2757.533105
 20
2461.7431792438351
 30
0.0
  0
ENDBLK
  5
7D84
  8
0
  0
BLOCK
  8
0
  2
*D7
 70
     1
 10
0.0
 20
0.0
 30
0.0
  3
*D7
  1

  0
LINE
  5
7F94
  8
3
  6
CONTINUOUS
 62
     0
 10
4914.0785109999988
 20
3766.8585429999998
 30
0.0
 11
4914.0785109999988
 21
3901.2736500000001
 31
0.0
  0
LINE
  5
7F95
  8
3
  6
CONTINUOUS
 62
     0
 10
4439.0785109999988
 20
3766.8585429999998
 30
0.0
 11
4439.0785109999988
 21
3901.2736500000001
 31
0.0
  0
LINE
  5
7F96
  8
3
  6
CONTINUOUS
 62
     0
 10
4854.0785109999997
 20
3871.2736500000001
 30
0.0
 11
4499.0785109999988
 21
3871.2736500000001
 31
0.0
  0
INSERT
  5
7F97
  8
3
  6
CONTINUOUS
 62
     0
  2
_OPEN
 10
4914.0785109999988
 20
3871.2736500000001
 30
0.0
 41
60.0
 42
60.0
 43
60.0
  0
INSERT
  5
7F98
  8
3
  6
CONTINUOUS
 62
     0
  2
_OPEN
 10
4439.0785109999988
 20
3871.2736500000001
 30
0.0
 41
60.0
 42
60.0
 43
60.0
 50
180.0
  0
TEXT
  8
3
  40
90
  5
7FE8
  62
0
  72
0
  71
0
 10
4495.99
 20
3786.97
 30
0.000000
  1
475
  0
POINT
  5
7F9A
  8
DEFPOINTS
  6
CONTINUOUS
 62
     0
 10
4914.0785109999988
 20
3751.8585429999998
 30
0.0
  0
POINT
  5
7F9B
  8
DEFPOINTS
  6
CONTINUOUS
 62
     0
 10
4439.0785109999988
 20
3751.8585429999998
 30
0.0
  0
POINT
  5
7F9C
  8
DEFPOINTS
  6
CONTINUOUS
 62
     0
 10
4439.0785109999988
 20
3871.2736500000001
 30
0.0
  0
ENDBLK
  5
7B9B
  8
0
  0
BLOCK
  8
0
  2
*D8
 70
     1
 10
0.0
 20
0.0
 30
0.0
  3
*D8
  1

  0
LINE
  5
7F9D
  8
3
  6
CONTINUOUS
 62
     0
 10
4932.5785109999988
 20
3601.8585429999998
 30
0.0
 11
5224.3112190000011
 21
3601.8585429999989
 31
0.0
  0
LINE
  5
7F9E
  8
3
  6
CONTINUOUS
 62
     0
 10
4932.5785109999988
 20
2931.8585429999998
 30
0.0
 11
5224.3112190000011
 21
2931.8585429999989
 31
0.0
  0
LINE
  5
7F9F
  8
3
  6
CONTINUOUS
 62
     0
 10
5194.311219000002
 20
3541.8585429999989
 30
0.0
 11
5194.311219000002
 21
2991.8585429999989
 31
0.0
  0
INSERT
  5
7FA0
  8
3
  6
CONTINUOUS
 62
     0
  2
_OPEN
 10
5194.311219000002
 20
3601.8585429999989
 30
0.0
 41
60.0
 42
60.0
 43
60.0
 50
90.0
  0
INSERT
  5
7FA1
  8
3
  6
CONTINUOUS
 62
     0
  2
_OPEN
 10
5194.311219000002
 20
2931.8585429999989
 30
0.0
 41
60.0
 42
60.0
 43
60.0
 50
270.0
  0
TEXT
  8
3
  40
90
  5
7FE9
  62
0
  72
0
  71
0
 10
4939.31
 20
3113.30
 30
0.000000
  1
φ670
  0
POINT
  5
7FA3
  8
DEFPOINTS
  6
CONTINUOUS
 62
     0
 10
4917.5785109999997
 20
3601.8585429999998
 30
0.0
  0
POINT
  5
7FA4
  8
DEFPOINTS
  6
CONTINUOUS
 62
     0
 10
4917.5785109999997
 20
2931.8585429999998
 30
0.0
  0
POINT
  5
7FA5
  8
DEFPOINTS
  6
CONTINUOUS
 62
     0
 10
5194.311219000002
 20
2931.8585429999989
 30
0.0
  0
ENDBLK
  5
7D65
  8
0
  0
BLOCK
  8
0
  2
*D9
 70
     1
 10
0.0
 20
0.0
 30
0.0
  3
*D9
  1

  0
LINE
  5
7FA6
  8
3
  6
CONTINUOUS
 62
     0
 10
4196.5785109999997
 20
3811.8585429999989
 30
0.0
 11
4196.5785109999997
 21
4094.8147549999999
 31
0.0
  0
LINE
  5
7FA7
  8
3
  6
CONTINUOUS
 62
     0
 10
4616.5785109999988
 20
4064.814754999999
 30
0.0
 11
4256.5785109999988
 21
4064.814754999999
 31
0.0
  0
INSERT
  5
7FA8
  8
3
  6
CONTINUOUS
 62
     0
  2
_OPEN
 10
4676.5785109999988
 20
4064.814754999999
 30
0.0
 41
60.0
 42
60.0
 43
60.0
  0
INSERT
  5
7FA9
  8
3
  6
CONTINUOUS
 62
     0
  2
_OPEN
 10
4196.5785109999997
 20
4064.814754999999
 30
0.0
 41
60.0
 42
60.0
 43
60.0
 50
180.0
  0
TEXT
  8
3
  40
90
  5
7FEA
  62
0
  72
0
  71
0
 10
4256.58
 20
4055.51
 30
0.000000
  1
MAX
  0
TEXT
  8
3
  40
90
  5
7FEB
  62
0
  72
0
  71
0
 10
4256.58
 20
3938.51
 30
0.000000
  1
530
  0
POINT
  5
7FAB
  8
DEFPOINTS
  6
CONTINUOUS
 62
     0
 10
4676.5785109999988
 20
4010.0393349999999
 30
0.0
  0
POINT
  5
7FAC
  8
DEFPOINTS
  6
CONTINUOUS
 62
     0
 10
4196.5785109999997
 20
3796.8585429999989
 30
0.0
  0
POINT
  5
7FAD
  8
DEFPOINTS
  6
CONTINUOUS
 62
     0
 10
4196.5785109999997
 20
4064.814754999999
 30
0.0
  0
ENDBLK
  5
7D6F
  8
0
  0
BLOCK
  8
0
  2
*D10
 70
     1
 10
0.0
 20
0.0
 30
0.0
  3
*D10
  1

  0
LINE
  5
7FAE
  8
3
  6
CONTINUOUS
 62
     0
 10
4265.5785109999997
 20
2681.8585429999998
 30
0.0
 11
4265.5785109999997
 21
2437.5303800000002
 31
0.0
  0
LINE
  5
7FAF
  8
3
  6
CONTINUOUS
 62
     0
 10
4676.5785109999988
 20
2579.3636459999998
 30
0.0
 11
4676.5785109999988
 21
2437.5303800000002
 31
0.0
  0
LINE
  5
7FB0
  8
3
  6
CONTINUOUS
 62
     0
 10
4325.5785109999988
 20
2467.5303800000002
 30
0.0
 11
4616.5785109999988
 21
2467.5303800000002
 31
0.0
  0
INSERT
  5
7FB1
  8
3
  6
CONTINUOUS
 62
     0
  2
_OPEN
 10
4265.5785109999997
 20
2467.5303800000002
 30
0.0
 41
60.0
 42
60.0
 43
60.0
 50
180.0
  0
INSERT
  5
7FB2
  8
3
  6
CONTINUOUS
 62
     0
  2
_OPEN
 10
4676.5785109999988
 20
2467.5303800000002
 30
0.0
 41
60.0
 42
60.0
 43
60.0
  0
TEXT
  8
3
  40
90
  5
7FEC
  62
0
  72
0
  71
0
 10
4263.44
 20
2383.23
 30
0.000000
  1
411
  0
POINT
  5
7FB4
  8
DEFPOINTS
  6
CONTINUOUS
 62
     0
 10
4265.5785109999997
 20
2696.8585429999989
 30
0.0
  0
POINT
  5
7FB5
  8
DEFPOINTS
  6
CONTINUOUS
 62
     0
 10
4676.5785109999988
 20
2594.3636459999998
 30
0.0
  0
POINT
  5
7FB6
  8
DEFPOINTS
  6
CONTINUOUS
 62
     0
 10
4676.5785109999988
 20
2467.5303800000002
 30
0.0
  0
ENDBLK
  5
7C5A
  8
0
  0
BLOCK
  8
0
  2
*D11
 70
     1
 10
0.0
 20
0.0
 30
0.0
  3
*D11
  1

  0
LINE
  5
7FB7
  8
3
  6
CONTINUOUS
 62
     0
 10
4965.5785109999997
 20
2681.8585429999998
 30
0.0
 11
4965.5785109999997
 21
2437.5303800000002
 31
0.0
  0
LINE
  5
7FB8
  8
3
  6
CONTINUOUS
 62
     0
 10
4736.5785109999997
 20
2467.5303800000002
 30
0.0
 11
4905.5785109999988
 21
2467.5303800000002
 31
0.0
  0
TEXT
  8
3
  40
90
  5
7FED
  62
0
  72
0
  71
0
 10
4649.08
 20
2384.47
 30
0.000000
  1
289
  0
INSERT
  5
7FBA
  8
3
  6
CONTINUOUS
 62
     0
  2
_OPEN
 10
4676.5785109999988
 20
2467.5303800000002
 30
0.0
 41
60.0
 42
60.0
 43
60.0
 50
180.0
  0
INSERT
  5
7FBB
  8
3
  6
CONTINUOUS
 62
     0
  2
_OPEN
 10
4965.5785109999997
 20
2467.5303800000002
 30
0.0
 41
60.0
 42
60.0
 43
60.0
  0
POINT
  5
7FBC
  8
DEFPOINTS
  6
CONTINUOUS
 62
     0
 10
4676.5785109999988
 20
2594.3636459999998
 30
0.0
  0
POINT
  5
7FBD
  8
DEFPOINTS
  6
CONTINUOUS
 62
     0
 10
4965.5785109999997
 20
2696.8585429999989
 30
0.0
  0
POINT
  5
7FBE
  8
DEFPOINTS
  6
CONTINUOUS
 62
     0
 10
4965.5785109999997
 20
2467.5303800000002
 30
0.0
  0
ENDBLK
  5
7C64
  8
0
  0
BLOCK
  8
0
  2
*D12
 70
     1
 10
0.0
 20
0.0
 30
0.0
  3
*D12
  1

  0
LINE
  5
7FBF
  8
3
  6
CONTINUOUS
 62
     0
 10
2427.533105
 20
3751.8585429999998
 30
0.0
 11
3305.1447469999998
 21
3751.8585429999989
 31
0.0
  0
LINE
  5
7FC0
  8
3
  6
CONTINUOUS
 62
     0
 10
2772.533105
 20
2696.8585429999989
 30
0.0
 11
3305.1447469999998
 21
2696.8585429999989
 31
0.0
  0
LINE
  5
7FC1
  8
3
  6
CONTINUOUS
 62
     0
 10
3275.1447470000012
 20
3691.8585429999989
 30
0.0
 11
3275.1447469999998
 21
2756.8585429999989
 31
0.0
  0
INSERT
  5
7FC2
  8
3
  6
CONTINUOUS
 62
     0
  2
_OPEN
 10
3275.1447470000012
 20
3751.8585429999989
 30
0.0
 41
60.0
 42
60.0
 43
60.0
 50
90.0
  0
INSERT
  5
7FC3
  8
3
  6
CONTINUOUS
 62
     0
  2
_OPEN
 10
3275.1447469999998
 20
2696.8585429999989
 30
0.0
 41
60.0
 42
60.0
 43
60.0
 50
270.0
  0
TEXT
  8
3
  40
90
  5
7FEE
  62
0
  72
0
  71
0
 10
3020.14
 20
3102.30
 30
0.000000
  1
1055
  0
POINT
  5
7FC5
  8
DEFPOINTS
  6
CONTINUOUS
 62
     0
 10
2412.533105
 20
3751.8585429999998
 30
0.0
  0
POINT
  5
7FC6
  8
DEFPOINTS
  6
CONTINUOUS
 62
     0
 10
2757.533105
 20
2696.8585429999989
 30
0.0
  0
POINT
  5
7FC7
  8
DEFPOINTS
  6
CONTINUOUS
 62
     0
 10
3275.1447469999998
 20
2696.8585429999989
 30
0.0
  0
ENDBLK
  5
7BEE
  8
0
  0
BLOCK
  8
0
  2
*D13
 70
     1
 10
0.0
 20
0.0
 30
0.0
  3
*D13
  1

  0
LINE
  5
7FC8
  8
3
  6
CONTINUOUS
 62
     0
 10
1347.533105
 20
5887.8940720000001
 30
0.0
 11
1347.533105
 21
6152.8787490000004
 31
0.0
  0
LINE
  5
7FC9
  8
3
  6
CONTINUOUS
 62
     0
 10
2757.533105
 20
5887.8940720000001
 30
0.0
 11
2757.533105
 21
6152.8787490000004
 31
0.0
  0
LINE
  5
7FCA
  8
3
  6
CONTINUOUS
 62
     0
 10
1407.533105
 20
6122.8787490000004
 30
0.0
 11
2697.533105
 21
6122.8787490000004
 31
0.0
  0
INSERT
  5
7FCB
  8
3
  6
CONTINUOUS
 62
     0
  2
_OPEN
 10
1347.533105
 20
6122.8787490000004
 30
0.0
 41
60.0
 42
60.0
 43
60.0
 50
180.0
  0
INSERT
  5
7FCC
  8
3
  6
CONTINUOUS
 62
     0
  2
_OPEN
 10
2757.533105
 20
6122.8787490000004
 30
0.0
 41
60.0
 42
60.0
 43
60.0
  0
TEXT
  8
3
  40
90
  5
7FEF
  62
0
  72
0
  71
0
 10
1844.56
 20
6038.58
 30
0.000000
  1
1410
  0
POINT
  5
7FCE
  8
DEFPOINTS
  6
CONTINUOUS
 62
     0
 10
1347.533105
 20
5872.894072000001
 30
0.0
  0
POINT
  5
7FCF
  8
DEFPOINTS
  6
CONTINUOUS
 62
     0
 10
2757.533105
 20
5872.894072000001
 30
0.0
  0
POINT
  5
7FD0
  8
DEFPOINTS
  6
CONTINUOUS
 62
     0
 10
2757.533105
 20
6122.8787490000004
 30
0.0
  0
ENDBLK
  5
7C39
  8
0
  0
BLOCK
  8
0
  2
*D14
 70
     1
 10
0.0
 20
0.0
 30
0.0
  3
*D14
  1

  0
LINE
  5
7FD1
  8
3
  6
CONTINUOUS
 62
     0
 10
2772.533105
 20
5872.894072000001
 30
0.0
 11
3123.3412740000008
 21
5872.894072000001
 31
0.0
  0
LINE
  5
7FD2
  8
3
  6
CONTINUOUS
 62
     0
 10
2772.533105
 20
5172.8940720000001
 30
0.0
 11
3123.3412740000008
 21
5172.8940720000001
 31
0.0
  0
LINE
  5
7FD3
  8
3
  6
CONTINUOUS
 62
     0
 10
3093.3412740000008
 20
5812.8940720000001
 30
0.0
 11
3093.3412740000008
 21
5232.8940720000001
 31
0.0
  0
INSERT
  5
7FD4
  8
3
  6
CONTINUOUS
 62
     0
  2
_OPEN
 10
3093.3412740000008
 20
5872.894072000001
 30
0.0
 41
60.0
 42
60.0
 43
60.0
 50
90.0
  0
INSERT
  5
7FD5
  8
3
  6
CONTINUOUS
 62
     0
  2
_OPEN
 10
3093.3412740000008
 20
5172.8940720000001
 30
0.0
 41
60.0
 42
60.0
 43
60.0
 50
270.0
  0
TEXT
  8
3
  40
90
  5
7FF0
  62
0
  72
0
  71
0
 10
2838.34
 20
5391.13
 30
0.000000
  1
700
  0
POINT
  5
7FD7
  8
DEFPOINTS
  6
CONTINUOUS
 62
     0
 10
2757.533105
 20
5872.894072000001
 30
0.0
  0
POINT
  5
7FD8
  8
DEFPOINTS
  6
CONTINUOUS
 62
     0
 10
2757.533105
 20
5172.8940720000001
 30
0.0
  0
POINT
  5
7FD9
  8
DEFPOINTS
  6
CONTINUOUS
 62
     0
 10
3093.3412740000008
 20
5172.8940720000001
 30
0.0
  0
ENDBLK
  5
7C08
  8
0
  0
BLOCK
  8
0
  2
*D15
 70
     1
 10
0.0
 20
0.0
 30
0.0
  3
*D15
  1

  0
LINE
  5
7D51
  8
0
  6
BYBLOCK
 62
     0
 10
4676.5785109999988
 20
4025.0393349999999
 30
0.0
 11
4676.5785109999988
 21
4094.8147549999999
 31
0.0
  0
LINE
  5
7D52
  8
0
  6
BYBLOCK
 62
     0
 10
4917.5785109999997
 20
3616.8585429999998
 30
0.0
 11
4917.5785109999997
 21
4094.8147549999999
 31
0.0
  0
LINE
  5
7D53
  8
0
  6
BYBLOCK
 62
     0
 10
4736.5785109999997
 20
4064.814754999999
 30
0.0
 11
4857.5785109999988
 21
4064.814754999999
 31
0.0
  0
TEXT
  5
7D54
  8
3
 62
     0
 10
4702.6966346045156
 20
4104.8062603610888
 30
0.0
 40
90.0
  1
241
  0
INSERT
  5
7D55
  8
0
  6
BYBLOCK
 62
     0
  2
_OPEN
 10
4676.5785109999988
 20
4064.814754999999
 30
0.0
 41
60.0
 42
60.0
 43
60.0
 50
180.0
  0
INSERT
  5
7D56
  8
0
  6
BYBLOCK
 62
     0
  2
_OPEN
 10
4917.5785109999997
 20
4064.814754999999
 30
0.0
 41
60.0
 42
60.0
 43
60.0
  0
POINT
  5
7D57
  8
DEFPOINTS
  6
BYBLOCK
 62
     0
 10
4676.5785109999988
 20
4010.0393349999999
 30
0.0
  0
POINT
  5
7D58
  8
DEFPOINTS
  6
BYBLOCK
 62
     0
 10
4917.5785109999997
 20
3601.8585429999998
 30
0.0
  0
POINT
  5
7D59
  8
DEFPOINTS
  6
BYBLOCK
 62
     0
 10
4917.5785109999997
 20
4064.814754999999
 30
0.0
  0
ENDBLK
  5
7D5A
  8
0
  0
BLOCK
  8
0
  2
*D16
 70
     1
 10
0.0
 20
0.0
 30
0.0
  3
*D16
  1

  0
LINE
  5
7FDA
  8
3
  6
CONTINUOUS
 62
     0
 10
2780.7875519999998
 20
3246.8585429999998
 30
0.0
 11
2780.7875519999998
 21
4128.5772489999999
 31
0.0
  0
LINE
  5
7FDB
  8
3
  6
CONTINUOUS
 62
     0
 10
2387.533105
 20
4098.5772489999999
 30
0.0
 11
2720.7875519999989
 21
4098.5772489999999
 31
0.0
  0
INSERT
  5
7FDC
  8
3
  6
CONTINUOUS
 62
     0
  2
_OPEN
 10
2327.533105
 20
4098.5772489999999
 30
0.0
 41
60.0
 42
60.0
 43
60.0
 50
180.0
  0
INSERT
  5
7FDD
  8
3
  6
CONTINUOUS
 62
     0
  2
_OPEN
 10
2780.7875519999998
 20
4098.5772489999999
 30
0.0
 41
60.0
 42
60.0
 43
60.0
  0
TEXT
  8
3
  40
90
  5
7FF1
  62
0
  72
0
  71
0
 10
2374.16
 20
4014.28
 30
0.000000
  1
452
  0
POINT
  5
7FDF
  8
DEFPOINTS
  6
CONTINUOUS
 62
     0
 10
2327.533105
 20
3906.2753799999991
 30
0.0
  0
POINT
  5
7FE0
  8
DEFPOINTS
  6
CONTINUOUS
 62
     0
 10
2780.7875519999998
 20
3231.8585429999989
 30
0.0
  0
POINT
  5
7FE1
  8
DEFPOINTS
  6
CONTINUOUS
 62
     0
 10
2780.7875519999998
 20
4098.5772489999999
 30
0.0
  0
ENDBLK
  5
7DA1
  8
0
  0
ENDSEC
  0
SECTION
  2
ENTITIES
  0
LINE
  5
7A63
  8
1
  6
CONTINUOUS
 10
2780.7875519999998
 20
5346.3940720000001
 30
0.0
 11
2780.7875519999998
 21
5821.3940720000001
 31
0.0
  0
LINE
  5
7A64
  8
1
  6
CONTINUOUS
 10
1707.5331049999991
 20
5346.3940720000001
 30
0.0
 11
1707.5331049999991
 21
5821.3940720000001
 31
0.0
  0
LINE
  5
7A65
  8
1
  6
CONTINUOUS
 10
2357.5331049999991
 20
5346.3940720000001
 30
0.0
 11
2357.5331049999991
 21
5821.3940720000001
 31
0.0
  0
LINE
  5
7A66
  8
1
  6
CONTINUOUS
 10
1707.5331049999991
 20
5821.3940720000001
 30
0.0
 11
2357.5331049999991
 21
5346.3940720000001
 31
0.0
  0
LINE
  5
7A67
  8
1
  6
CONTINUOUS
 10
1707.5331049999991
 20
5346.3940720000001
 30
0.0
 11
2357.5331049999991
 21
5821.3940720000001
 31
0.0
  0
LINE
  5
7A68
  8
1
  6
CONTINUOUS
 10
1347.533105
 20
5872.894072000001
 30
0.0
 11
1347.533105
 21
5172.8940720000001
 31
0.0
  0
LINE
  5
7A69
  8
1
  6
CONTINUOUS
 10
1444.6842140000001
 20
5275.6259890000001
 30
0.0
 11
1444.6842140000001
 21
5760.625989000001
 31
0.0
  0
ARC
  5
7A6A
  8
1
  6
CONTINUOUS
 10
2354.533105
 20
3239.8585429999989
 30
0.0
 40
425.74044800000001
 50
7.3523789999999991
 51
89.596259000000003
  0
ARC
  5
7A6B
  8
1
  6
CONTINUOUS
 10
2292.5331049999991
 20
3231.8585429999989
 30
0.0
 40
488.25444700000003
 50
274.51398799999993
 51
7.3523789999999991
  0
LINE
  5
7A6C
  8
1
  6
CONTINUOUS
 10
1707.5331049999991
 20
5346.3940720000001
 30
0.0
 11
2780.7875519999998
 21
5346.3940720000001
 31
0.0
  0
LINE
  5
7A6D
  8
1
  6
CONTINUOUS
 10
2667.533105
 20
3796.8585429999989
 30
0.0
 11
2227.533105
 21
3796.8585429999989
 31
0.0
  0
LINE
  5
7A6E
  8
1
  6
CONTINUOUS
 10
2757.533105
 20
2796.8585429999989
 30
0.0
 11
1347.533105
 21
2796.8585429999989
 31
0.0
  0
LINE
  5
7A6F
  8
1
  6
CONTINUOUS
 10
1347.533105
 20
2696.8585429999989
 30
0.0
 11
2757.533105
 21
2696.8585429999989
 31
0.0
  0
LINE
  5
7A70
  8
1
  6
CONTINUOUS
 10
2667.533105
 20
5103.8940720000001
 30
0.0
 11
1397.5331049999991
 21
5103.8940720000001
 31
0.0
  0
LINE
  5
7A71
  8
1
  6
CONTINUOUS
 10
2667.533105
 20
5243.8940720000001
 30
0.0
 11
1397.5331049999991
 21
5243.8940720000001
 31
0.0
  0
LINE
  5
7A72
  8
1
  6
CONTINUOUS
 10
2477.533105
 20
5172.8940720000001
 30
0.0
 11
2757.533105
 21
5172.8940720000001
 31
0.0
  0
LINE
  5
7A73
  8
1
  6
CONTINUOUS
 10
2737.533105
 20
3708.8585429999998
 30
0.0
 11
1917.5331049999991
 21
3708.8585429999989
 31
0.0
  0
LINE
  5
7A77
  8
1
  6
CONTINUOUS
 10
1571.926794
 20
3068.9135339999989
 30
0.0
 11
2262.3629430000001
 21
3401.9616510000001
 31
0.0
  0
CIRCLE
  5
7A78
  8
1
  6
CONTINUOUS
 10
1606.6842140000001
 20
2996.8585429999998
 30
0.0
 40
80.0
  0
LINE
  5
7A79
  8
2
  6
CENTER
 10
1686.6842140000001
 20
2996.8585429999998
 30
0.0
 11
1526.6842140000001
 21
2996.8585429999998
 31
0.0
  0
LINE
  5
7A7A
  8
1
  6
CONTINUOUS
 10
1397.5331049999991
 20
3096.8585429999989
 30
0.0
 11
2227.533105
 21
3796.8585429999989
 31
0.0
  0
ARC
  5
7A7B
  8
1
  6
CONTINUOUS
 10
1606.6842140000001
 20
2996.8585429999998
 30
0.0
 40
162.0
 50
324.972283
 51
215.02771699999991
  0
LINE
  5
7A7C
  8
1
  6
CONTINUOUS
 10
1760.6842140000001
 20
2836.8585429999989
 30
0.0
 11
1452.6842140000001
 21
2836.8585429999989
 31
0.0
  0
LINE
  5
7A7D
  8
1
  6
CONTINUOUS
 10
1452.6842140000001
 20
2854.8585429999998
 30
0.0
 11
1474.026548
 21
2903.8749760000001
 31
0.0
  0
LINE
  5
7A7E
  8
1
  6
CONTINUOUS
 10
1397.5331049999991
 20
2796.8585429999989
 30
0.0
 11
1397.5331049999991
 21
3096.8585429999989
 31
0.0
  0
LINE
  5
7A7F
  8
1
  6
CONTINUOUS
 10
1452.6842140000001
 20
2836.8585429999989
 30
0.0
 11
1452.6842140000001
 21
2854.8585429999998
 31
0.0
  0
LINE
  5
7A80
  8
1
  6
CONTINUOUS
 10
1452.6842140000001
 20
2796.8585429999989
 30
0.0
 11
1452.6842140000001
 21
2854.8585429999998
 31
0.0
  0
LINE
  5
7A81
  8
1
  6
CONTINUOUS
 10
1347.533105
 20
2796.8585429999989
 30
0.0
 11
1347.533105
 21
2696.8585429999989
 31
0.0
  0
LINE
  5
7A82
  8
1
  6
CONTINUOUS
 10
1707.5331049999991
 20
3751.8585429999998
 30
0.0
 11
1723.533105
 21
3266.8585429999998
 31
0.0
  0
LINE
  5
7A83
  8
2
  6
CENTER
 10
2327.533105
 20
5930.7725329999994
 30
0.0
 11
2327.533105
 21
5017.5790689999994
 31
0.0
  0
CIRCLE
  5
7A84
  8
1
  6
CONTINUOUS
 10
2327.533105
 20
3266.8585429999998
 30
0.0
 40
150.0
  0
LINE
  5
7A86
  8
1
  6
CONTINUOUS
 10
1627.8159920000001
 20
2919.6999529999998
 30
0.0
 11
2367.1551899999999
 21
3122.1861869999998
 31
0.0
  0
ARC
  5
7A87
  8
1
  6
CONTINUOUS
 10
2286.533105
 20
3307.8585429999998
 30
0.0
 40
564.49092099999984
 50
184.16516399999989
 51
274.51398799999993
  0
LINE
  5
7A88
  8
2
  6
CENTER
 10
1606.6842140000001
 20
3076.8585429999998
 30
0.0
 11
1606.6842140000001
 21
2916.8585429999998
 31
0.0
  0
LINE
  5
7A89
  8
1
  6
CONTINUOUS
 10
1760.6842140000001
 20
2854.8585429999998
 30
0.0
 11
1739.3418789999989
 21
2903.8749760000001
 31
0.0
  0
LINE
  5
7A8A
  8
1
  6
CONTINUOUS
 10
1760.6842140000001
 20
2796.8585429999989
 30
0.0
 11
1760.6842140000001
 21
2854.8585429999998
 31
0.0
  0
LINE
  5
7A8B
  8
2
  6
CENTER
 10
4975.2964013436904
 20
3266.8585429999998
 30
0.0
 11
4126.4715630915707
 21
3266.8585429999998
 31
0.0
  0
LINE
  5
7A8C
  8
1
  6
CONTINUOUS
 10
2357.5331049999991
 20
3721.8585429999989
 30
0.0
 11
1708.522796
 21
3721.8585429999989
 31
0.0
  0
LINE
  5
7A8D
  8
1
  6
CONTINUOUS
 10
2397.533105
 20
3751.8585429999998
 30
0.0
 11
1667.533105
 21
3751.8585429999998
 31
0.0
  0
LINE
  5
7A8E
  8
1
  6
CONTINUOUS
 10
2357.5331049999991
 20
3665.5884209999999
 30
0.0
 11
2357.5331049999991
 21
3751.8585429999998
 31
0.0
  0
LINE
  5
7A8F
  8
1
  6
CONTINUOUS
 10
1526.6842140000001
 20
5138.8940720000001
 30
0.0
 11
1686.6842140000001
 21
5138.8940720000001
 31
0.0
  0
LINE
  5
7A90
  8
1
  6
CONTINUOUS
 10
1526.6842140000001
 20
5208.8940720000001
 30
0.0
 11
1686.6842140000001
 21
5208.8940720000001
 31
0.0
  0
LINE
  5
7A91
  8
1
  6
CONTINUOUS
 10
1444.6842140000001
 20
5275.6259890000001
 30
0.0
 11
1768.6842140000001
 21
5275.6259890000001
 31
0.0
  0
LINE
  5
7A92
  8
1
  6
CONTINUOUS
 10
1585.6842140000001
 20
5208.8940720000001
 30
0.0
 11
1585.6842140000001
 21
5275.6259890000001
 31
0.0
  0
LINE
  5
7A93
  8
1
  6
CONTINUOUS
 10
1526.6842140000001
 20
5138.8940720000001
 30
0.0
 11
1526.6842140000001
 21
5208.8940720000001
 31
0.0
  0
LINE
  5
7A94
  8
1
  6
CONTINUOUS
 10
1347.533105
 20
5172.8940720000001
 30
0.0
 11
1526.6842140000001
 21
5172.8940720000001
 31
0.0
  0
LINE
  5
7A95
  8
1
  6
CONTINUOUS
 10
1397.5331049999991
 20
5103.8940720000001
 30
0.0
 11
1397.5331049999991
 21
5243.8940720000001
 31
0.0
  0
LINE
  5
7A96
  8
1
  6
CONTINUOUS
 10
1686.6842140000001
 20
5172.8940720000001
 30
0.0
 11
2177.533105
 21
5172.8940720000001
 31
0.0
  0
LINE
  5
7A97
  8
1
  6
CONTINUOUS
 10
1627.6842140000001
 20
5208.8940720000001
 30
0.0
 11
1627.6842140000001
 21
5275.6259890000001
 31
0.0
  0
LINE
  5
7A98
  8
1
  6
CONTINUOUS
 10
1686.6842140000001
 20
5138.8940720000001
 30
0.0
 11
1686.6842140000001
 21
5208.8940720000001
 31
0.0
  0
LINE
  5
7A99
  8
1
  6
CONTINUOUS
 10
1768.6842140000001
 20
5275.6259890000001
 30
0.0
 11
1768.6842140000001
 21
5346.3940720000001
 31
0.0
  0
LINE
  5
7A9A
  8
1
  6
CONTINUOUS
 10
2306.533105
 20
5208.8940720000001
 30
0.0
 11
2306.533105
 21
5346.3940720000001
 31
0.0
  0
LINE
  5
7A9B
  8
1
  6
CONTINUOUS
 10
2348.533105
 20
5208.8940720000001
 30
0.0
 11
2348.533105
 21
5346.3940720000001
 31
0.0
  0
LINE
  5
7A9C
  8
1
  6
CONTINUOUS
 10
2177.533105
 20
5138.8940720000001
 30
0.0
 11
2177.533105
 21
5208.8940720000001
 31
0.0
  0
LINE
  5
7A9D
  8
1
  6
CONTINUOUS
 10
2477.533105
 20
5138.8940720000001
 30
0.0
 11
2477.533105
 21
5208.8940720000001
 31
0.0
  0
LINE
  5
7A9E
  8
1
  6
CONTINUOUS
 10
2177.533105
 20
5208.8940720000001
 30
0.0
 11
2477.533105
 21
5208.8940720000001
 31
0.0
  0
LINE
  5
7A9F
  8
1
  6
CONTINUOUS
 10
2177.533105
 20
5138.8940720000001
 30
0.0
 11
2477.533105
 21
5138.8940720000001
 31
0.0
  0
LINE
  5
7AA0
  8
1
  6
CONTINUOUS
 10
4439.0785109999988
 20
3711.8585429999989
 30
0.0
 11
4914.0785109999988
 21
3711.8585429999989
 31
0.0
  0
LINE
  5
7AA1
  8
1
  6
CONTINUOUS
 10
4396.5785109999997
 20
3751.8585429999998
 30
0.0
 11
4956.5785109999997
 21
3751.8585429999998
 31
0.0
  0
LINE
  5
7AA2
  8
1
  6
CONTINUOUS
 10
4265.5785109999997
 20
2696.8585429999989
 30
0.0
 11
4965.5785109999997
 21
2696.8585429999989
 31
0.0
  0
LINE
  5
7AA3
  8
1
  6
CONTINUOUS
 10
4265.5785109999997
 20
2796.8585429999989
 30
0.0
 11
4965.5785109999997
 21
2796.8585429999989
 31
0.0
  0
LINE
  5
7AA4
  8
1
  6
CONTINUOUS
 10
2667.533105
 20
2796.8585429999989
 30
0.0
 11
2667.533105
 21
3796.8585429999989
 31
0.0
  0
LINE
  5
7AA6
  8
1
  6
CONTINUOUS
 10
2757.533105
 20
2696.8585429999989
 30
0.0
 11
2757.533105
 21
2796.8585429999989
 31
0.0
  0
LINE
  5
7AA7
  8
1
  6
CONTINUOUS
 10
4231.5785109999997
 20
3416.8585429999998
 30
0.0
 11
4231.5785109999997
 21
3116.8585429999998
 31
0.0
  0
LINE
  5
7AA8
  8
1
  6
CONTINUOUS
 10
4301.5785109999988
 20
3416.8585429999998
 30
0.0
 11
4301.5785109999988
 21
3116.8585429999998
 31
0.0
  0
LINE
  5
7AA9
  8
1
  6
CONTINUOUS
 10
4439.0785109999988
 20
3751.8585429999998
 30
0.0
 11
4439.0785109999988
 21
2796.8585429999989
 31
0.0
  0
LINE
  5
7AAA
  8
1
  6
CONTINUOUS
 10
4196.5785109999997
 20
3796.8585429999989
 30
0.0
 11
4196.5785109999997
 21
2796.8585429999989
 31
0.0
  0
LINE
  5
7AAB
  8
1
  6
CONTINUOUS
 10
4336.5785109999988
 20
3796.8585429999989
 30
0.0
 11
4336.5785109999988
 21
2796.8585429999989
 31
0.0
  0
LINE
  5
7AAC
  8
1
  6
CONTINUOUS
 10
4301.5785109999988
 20
2975.8585429999998
 30
0.0
 11
4439.0785109999988
 21
2975.8585429999998
 31
0.0
  0
LINE
  5
7AAD
  8
1
  6
CONTINUOUS
 10
4301.5785109999988
 20
3017.8585429999998
 30
0.0
 11
4439.0785109999988
 21
3017.8585429999998
 31
0.0
  0
LINE
  5
7AAE
  8
1
  6
CONTINUOUS
 10
4301.5785109999988
 20
3245.8585429999998
 30
0.0
 11
4439.0785109999988
 21
3245.8585429999998
 31
0.0
  0
LINE
  5
7AAF
  8
1
  6
CONTINUOUS
 10
4231.5785109999997
 20
2916.8585429999998
 30
0.0
 11
4301.5785109999988
 21
2916.8585429999998
 31
0.0
  0
LINE
  5
7AB0
  8
1
  6
CONTINUOUS
 10
4231.5785109999997
 20
3076.8585429999998
 30
0.0
 11
4231.5785109999997
 21
2916.8585429999998
 31
0.0
  0
LINE
  5
7AB1
  8
1
  6
CONTINUOUS
 10
4301.5785109999988
 20
3076.8585429999998
 30
0.0
 11
4301.5785109999988
 21
2916.8585429999998
 31
0.0
  0
LINE
  5
7AB2
  8
1
  6
CONTINUOUS
 10
4231.5785109999997
 20
3076.8585429999998
 30
0.0
 11
4301.5785109999988
 21
3076.8585429999998
 31
0.0
  0
LINE
  5
7AB3
  8
1
  6
CONTINUOUS
 10
4231.5785109999997
 20
3116.8585429999998
 30
0.0
 11
4301.5785109999988
 21
3116.8585429999998
 31
0.0
  0
LINE
  5
7AB4
  8
1
  6
CONTINUOUS
 10
4265.5785109999997
 20
2796.8585429999989
 30
0.0
 11
4265.5785109999997
 21
2696.8585429999989
 31
0.0
  0
LINE
  5
7AB5
  8
1
  6
CONTINUOUS
 10
4196.5785109999997
 20
2796.8585429999989
 30
0.0
 11
4265.5785109999997
 21
2796.8585429999989
 31
0.0
  0
LINE
  5
7AB6
  8
1
  6
CONTINUOUS
 10
4301.5785109999988
 20
3287.8585429999998
 30
0.0
 11
4439.0785109999988
 21
3287.8585429999998
 31
0.0
  0
LINE
  5
7AB7
  8
1
  6
CONTINUOUS
 10
4231.5785109999997
 20
3416.8585429999998
 30
0.0
 11
4301.5785109999988
 21
3416.8585429999998
 31
0.0
  0
LINE
  5
7AB8
  8
1
  6
CONTINUOUS
 10
4336.5785109999988
 20
3796.8585429999989
 30
0.0
 11
4196.5785109999997
 21
3796.8585429999989
 31
0.0
  0
LINE
  5
7AB9
  8
1
  6
CONTINUOUS
 10
2757.533105
 20
5172.8940720000001
 30
0.0
 11
2757.533105
 21
5346.3940720000001
 31
0.0
  0
LINE
  5
7ABA
  8
1
  6
CONTINUOUS
 10
2667.533105
 20
5103.8940720000001
 30
0.0
 11
2667.533105
 21
5243.8940720000001
 31
0.0
  0
LINE
  5
7ABB
  8
1
  6
CONTINUOUS
 10
4914.0785109999988
 20
3751.8585429999998
 30
0.0
 11
4914.0785109999988
 21
2796.8585429999989
 31
0.0
  0
LINE
  5
7ABC
  8
1
  6
CONTINUOUS
 10
4965.5785109999997
 20
2796.8585429999989
 30
0.0
 11
4965.5785109999997
 21
2696.8585429999989
 31
0.0
  0
LINE
  5
7ABD
  8
1
  6
CONTINUOUS
 10
1707.5331049999991
 20
5821.3940720000001
 30
0.0
 11
2780.7875519999998
 21
5821.3940720000001
 31
0.0
  0
LINE
  5
7ABE
  8
1
  6
CONTINUOUS
 10
2757.533105
 20
5872.894072000001
 30
0.0
 11
1347.533105
 21
5872.894072000001
 31
0.0
  0
LINE
  5
7ABF
  8
1
  6
CONTINUOUS
 10
1444.6842140000001
 20
5760.625989000001
 30
0.0
 11
1707.5331049999991
 21
5760.625989000001
 31
0.0
  0
LINE
  5
7AC0
  8
1
  6
CONTINUOUS
 10
2757.533105
 20
5821.3940720000001
 30
0.0
 11
2757.533105
 21
5872.894072000001
 31
0.0
  0
LINE
  5
7AFC
  8
2
  6
CENTER
 10
4676.5785109999988
 20
3805.4855869999992
 30
0.0
 11
4676.5785109999988
 21
2594.3636459999998
 31
0.0
  0
LINE
  5
7AFE
  8
2
  6
CENTER
 10
2883.7783899999999
 20
5583.8940720000001
 30
0.0
 11
1226.4739239999999
 21
5583.8940720000001
 31
0.0
  0
LINE
  5
7AFF
  8
2
  6
CENTER
 10
2900.0749879999998
 20
3266.8585429999998
 30
0.0
 11
1355.2124650000001
 21
3266.8585429999998
 31
0.0
  0
LINE
  5
7B00
  8
2
  6
CENTER
 10
2327.533105
 20
3906.2753799999991
 30
0.0
 11
2327.533105
 21
2563.7977110000002
 31
0.0
  0
LINE
  5
7B01
  8
4
  6
CONTINUOUS
 10
5550.0
 20
1500.0
 30
0.0
 11
5550.0
 21
900.0
 31
0.0
  0
LINE
  5
7B02
  8
4
  6
CONTINUOUS
 10
3450.0
 20
1500.0
 30
0.0
 11
3450.0
 21
900.0
 31
0.0
  0
LINE
  5
7B03
  8
4
  6
CONTINUOUS
 10
1950.0
 20
1500.0
 30
0.0
 11
1950.0
 21
900.0
 31
0.0
  0
LINE
  5
7B06
  8
4
  6
CONTINUOUS
 10
1950.0
 20
900.0
 30
0.0
 11
5550.0
 21
900.0
 31
0.0
  0
LINE
  5
7B07
  8
4
  6
CONTINUOUS
 10
1950.0
 20
1200.0
 30
0.0
 11
5550.0
 21
1200.0
 31
0.0
  0
TEXT
  5
7B08
  8
4
  6
CONTINUOUS
 10
2065.5062429999989
 20
1294.6290779999999
 30
0.0
 40
150.0
  1
機器名称
  0
TEXT
  5
7B09
  8
4
  6
CONTINUOUS
 10
2058.7743179999989
 20
964.9354699999999
 30
0.0
 40
150.0
  1
機器型番
  0
TEXT
  5
7B0A
  8
4
  6
CONTINUOUS
 10
3533.0362359999999
 20
1267.7153069999999
 30
0.0
 40
150.0
  1
ミツヤ多翼送風機
  0
TEXT
  5
7B0B
  8
4
  6
CONTINUOUS
 10
3559.9634869999991
 20
951.47875299999987
 30
0.0
 40
150.0
  1
MF#4-4
  0
TEXT
  5
7B0D
  8
4
  6
CONTINUOUS
 10
2714.3572960000001
 20
7150.2865239999992
 30
0.0
 40
162.0
  1
床置ベット
  0
TEXT
  5
7B0E
  8
4
  6
CONTINUOUS
 10
948.50278000000014
 20
7601.6429289999996
 30
0.0
 40
216.0
  1
ベルト駆動式片吸込両持多翼ファン
  0
LINE
  5
7B0F
  8
4
  6
CONTINUOUS
 10
750.0
 20
7408.2262629999996
 30
0.0
 11
5550.0
 21
7408.2262629999996
 31
0.0
  0
LINE
  5
7B10
  8
4
  6
CONTINUOUS
 10
750.0
 20
8008.2262629999996
 30
0.0
 11
5550.0
 21
8008.2262629999996
 31
0.0
  0
LINE
  5
7B11
  8
4
  6
CONTINUOUS
 10
1950.0
 20
1500.0
 30
0.0
 11
5550.0
 21
1500.0
 31
0.0
  0
LINE
  5
7B12
  8
4
  6
CONTINUOUS
 10
750.0
 20
8008.2262629999996
 30
0.0
 11
750.0
 21
7408.2262629999996
 31
0.0
  0
TEXT
  5
7B13
  8
4
  6
CONTINUOUS
 10
1406.7807999999991
 20
7146.9584329999998
 30
0.0
 40
162.0
  1
右回転上向
  0
TEXT
  5
7B14
  8
4
  6
CONTINUOUS
 10
4406.9086779999989
 20
8118.1832439999989
 30
0.0
 40
168.0
  1
No.
  0
TEXT
  5
7B15
  8
4
  6
CONTINUOUS
 10
3933.8881879999999
 20
7150.2865239999992
 30
0.0
 40
162.0
  1
縮尺：1/30
  0
LINE
  5
7B16
  8
4
  6
CONTINUOUS
 10
5550.0
 20
8008.2262629999996
 30
0.0
 11
5550.0
 21
7408.2262629999996
 31
0.0
  0
LINE
  5
7B18
  8
4
  6
CONTINUOUS
 10
4321.8522670000002
 20
8043.7907490000007
 30
0.0
 11
4321.8522670000002
 21
8359.9567849999985
 31
0.0
  0
LINE
  5
7B19
  8
4
  6
CONTINUOUS
 10
4321.8522670000002
 20
8359.9567849999985
 30
0.0
 11
5550.0
 21
8359.9567849999985
 31
0.0
  0
LINE
  5
7B1A
  8
4
  6
CONTINUOUS
 10
5550.0
 20
8359.9567849999985
 30
0.0
 11
5550.0
 21
8043.7907490000007
 31
0.0
  0
LINE
  5
7B1B
  8
4
  6
CONTINUOUS
 10
5550.0
 20
8043.7907490000007
 30
0.0
 11
4321.8522670000002
 21
8043.7907490000007
 31
0.0
  0
DIMENSION
  5
7B2C
  8
3
  6
CONTINUOUS
  2
*D1
 10
2357.5331049999991
 20
3923.228752
 30
0.0
 11
2025.7929799999999
 21
3923.228752
 31
0.0
 70
   128
 13
1707.5331049999991
 23
3751.8585429999998
 33
0.0
 14
2357.5331049999991
 24
3751.8585429999998
 34
0.0
1001
ACAD
1000
DSTYLE
1002
{
1070
   287
1070
     3
1070
   287
1070
     3
1070
    40
1040
30.0
1070
   143
1040
0.039
1070
   172
1070
     1
1070
   271
1070
     0
1070
   279
1070
     0
1070
   288
1070
     1
1002
}
  0
DIMENSION
  5
7B39
  8
3
  6
CONTINUOUS
  2
*D2
 10
1707.5331049999991
 20
4098.5772489999999
 30
0.0
 11
2025.7929799999999
 21
4098.5772489999999
 31
0.0
 70
   128
 13
2327.533105
 23
3906.2753799999991
 33
0.0
 14
1707.5331049999991
 24
3751.8585429999998
 34
0.0
1001
ACAD
1000
DSTYLE
1002
{
1070
   287
1070
     3
1070
   287
1070
     3
1070
    40
1040
30.0
1070
   143
1040
0.039
1070
   172
1070
     1
1070
   271
1070
     0
1070
   279
1070
     0
1070
   288
1070
     1
1002
}
  0
DIMENSION
  5
7B6A
  8
3
  6
CONTINUOUS
  2
*D3
 10
3052.8616969999998
 20
3266.8585429999998
 30
0.0
 11
3052.8616969999989
 21
3507.5878910000001
 31
0.0
 70
   128
 13
2397.533105
 23
3751.8585429999998
 33
0.0
 14
2900.0749879999998
 24
3266.8585429999998
 34
0.0
 50
90.0
1001
ACAD
1000
DSTYLE
1002
{
1070
   287
1070
     3
1070
   287
1070
     3
1070
    40
1040
30.0
1070
   143
1040
0.039
1070
   172
1070
     1
1070
   271
1070
     0
1070
   279
1070
     0
1070
   288
1070
     1
1002
}
  0
DIMENSION
  5
7B76
  8
3
  6
CONTINUOUS
  2
*D4
 10
3052.8616969999989
 20
2696.8585429999989
 30
0.0
 11
2977.8616969999989
 21
2981.8585429999998
 31
0.0
 70
     0
 13
2900.0749879999998
 23
3266.8585429999998
 33
0.0
 14
2757.533105
 24
2696.8585429999989
 34
0.0
 50
90.0
1001
ACAD
1000
DSTYLE
1002
{
1070
   287
1070
     4
1070
   287
1070
     4
1070
    40
1040
30.0
1070
    75
1070
     1
1070
   143
1040
0.039
1070
   172
1070
     1
1070
   271
1070
     0
1070
   279
1070
     1
1070
   288
1070
     1
1002
}
  0
DIMENSION
  5
7B83
  8
3
  6
CONTINUOUS
  2
*D5
 10
2327.533105
 20
2461.7431792438351
 30
0.0
 11
1860.6395819004449
 21
2461.7431792438351
 31
0.0
 70
   128
 13
1347.533105
 23
2696.8585429999989
 33
0.0
 14
2327.533105
 24
2563.7977110000002
 34
0.0
1001
ACAD
1000
DSTYLE
1002
{
1070
   287
1070
     3
1070
   287
1070
     3
1070
    40
1040
30.0
1070
   143
1040
0.039
1070
   172
1070
     1
1070
   271
1070
     0
1070
   279
1070
     0
1070
   288
1070
     1
1002
}
  0
DIMENSION
  5
7B8F
  8
3
  6
CONTINUOUS
  2
*D6
 10
2757.533105
 20
2461.7431792438351
 30
0.0
 11
2542.533105
 21
2536.7431792438351
 31
0.0
 70
     0
 13
2327.533105
 23
2563.7977110000002
 33
0.0
 14
2757.533105
 24
2696.8585429999989
 34
0.0
1001
ACAD
1000
DSTYLE
1002
{
1070
   287
1070
     4
1070
   287
1070
     4
1070
    40
1040
30.0
1070
    75
1070
     1
1070
   143
1040
0.039
1070
   172
1070
     1
1070
   271
1070
     0
1070
   279
1070
     1
1070
   288
1070
     1
1002
}
  0
DIMENSION
  5
7B9C
  8
3
  6
CONTINUOUS
  2
*D7
 10
4439.0785109999988
 20
3871.2736500000001
 30
0.0
 11
4675.9923759999992
 21
3871.2736500000001
 31
0.0
 70
   128
 13
4914.0785109999988
 23
3751.8585429999998
 33
0.0
 14
4439.0785109999988
 24
3751.8585429999998
 34
0.0
1001
ACAD
1000
DSTYLE
1002
{
1070
   287
1070
     3
1070
   287
1070
     3
1070
    40
1040
30.0
1070
   143
1040
0.039
1070
   172
1070
     1
1070
   271
1070
     0
1070
   279
1070
     0
1070
   288
1070
     1
1002
}
  0
LINE
  5
7B9F
  8
1
  6
CONTINUOUS
 10
4917.5785109999997
 20
3601.8585429999998
 30
0.0
 11
4917.5785109999997
 21
2931.8585429999998
 31
0.0
  0
DIMENSION
  5
7BAC
  8
3
  6
CONTINUOUS
  2
*D8
 10
5194.311219000002
 20
2931.8585429999989
 30
0.0
 11
5194.3112190000002
 21
3272.6048759999999
 31
0.0
 70
   128
 13
4917.5785109999997
 23
3601.8585429999998
 33
0.0
 14
4917.5785109999997
 24
2931.8585429999998
 34
0.0
 50
90.0
1001
ACAD
1000
DSTYLE
1002
{
1070
   287
1070
     3
1070
   287
1070
     3
1070
     3
1000
φ<>
1070
    40
1040
30.0
1070
   143
1040
0.039
1070
   172
1070
     1
1070
   271
1070
     0
1070
   279
1070
     0
1070
   288
1070
     1
1002
}
  0
DIMENSION
  5
7BC7
  8
3
  6
CONTINUOUS
  2
*D9
 10
4196.5785109999997
 20
4064.814754999999
 30
0.0
 11
4436.5785109999988
 21
4214.8147549999994
 31
0.0
 70
     0
  1
MAX\P530
 13
4676.5785109999988
 23
4010.0393349999999
 33
0.0
 14
4196.5785109999997
 24
3796.8585429999989
 34
0.0
1001
ACAD
1000
DSTYLE
1002
{
1070
   287
1070
     4
1070
   287
1070
     4
1070
    40
1040
30.0
1070
    75
1070
     1
1070
   143
1040
0.039
1070
   172
1070
     1
1070
   271
1070
     0
1070
   279
1070
     1
1070
   288
1070
     1
1002
}
  0
DIMENSION
  5
7BD4
  8
3
  6
CONTINUOUS
  2
*D10
 10
4676.5785109999988
 20
2467.5303800000002
 30
0.0
 11
4443.4356539999999
 21
2467.5303800000002
 31
0.0
 70
   128
 13
4265.5785109999997
 23
2696.8585429999989
 33
0.0
 14
4676.5785109999988
 24
2594.3636459999998
 34
0.0
1001
ACAD
1000
DSTYLE
1002
{
1070
   287
1070
     3
1070
   287
1070
     3
1070
    40
1040
30.0
1070
   143
1040
0.039
1070
   172
1070
     1
1070
   271
1070
     0
1070
   279
1070
     0
1070
   288
1070
     1
1002
}
  0
DIMENSION
  5
7BE2
  8
3
  6
CONTINUOUS
  2
*D11
 10
4965.5785109999997
 20
2467.5303800000002
 30
0.0
 11
4829.0843479999994
 21
2468.7740250000002
 31
0.0
 70
   128
 13
4676.5785109999988
 23
2594.3636459999998
 33
0.0
 14
4965.5785109999997
 24
2696.8585429999989
 34
0.0
1001
ACAD
1000
DSTYLE
1002
{
1070
   287
1070
     4
1070
   287
1070
     4
1070
    40
1040
30.0
1070
    75
1070
     1
1070
   143
1040
0.039
1070
   172
1070
     1
1070
   271
1070
     0
1070
   279
1070
     1
1070
   288
1070
     1
1002
}
  0
DIMENSION
  5
7BEF
  8
3
  6
CONTINUOUS
  2
*D12
 10
3275.1447469999998
 20
2696.8585429999989
 30
0.0
 11
3275.1447469999998
 21
3261.5967310000001
 31
0.0
 70
   128
 13
2412.533105
 23
3751.8585429999998
 33
0.0
 14
2757.533105
 24
2696.8585429999989
 34
0.0
 50
90.0
1001
ACAD
1000
DSTYLE
1002
{
1070
   287
1070
     3
1070
   287
1070
     3
1070
    40
1040
30.0
1070
   143
1040
0.039
1070
   172
1070
     1
1070
   271
1070
     0
1070
   279
1070
     0
1070
   288
1070
     1
1002
}
  0
DIMENSION
  5
7BFC
  8
3
  6
CONTINUOUS
  2
*D13
 10
2757.533105
 20
6122.8787490000004
 30
0.0
 11
2024.5571309999989
 21
6122.8787490000004
 31
0.0
 70
   128
 13
1347.533105
 23
5872.894072000001
 33
0.0
 14
2757.533105
 24
5872.894072000001
 34
0.0
1001
ACAD
1000
DSTYLE
1002
{
1070
   287
1070
     3
1070
   287
1070
     3
1070
    40
1040
30.0
1070
   143
1040
0.039
1070
   172
1070
     1
1070
   271
1070
     0
1070
   279
1070
     0
1070
   288
1070
     1
1002
}
  0
DIMENSION
  5
7C09
  8
3
  6
CONTINUOUS
  2
*D14
 10
3093.3412740000008
 20
5172.8940720000001
 30
0.0
 11
3093.3412739999999
 21
5550.4290879999999
 31
0.0
 70
   128
 13
2757.533105
 23
5872.894072000001
 33
0.0
 14
2757.533105
 24
5172.8940720000001
 34
0.0
 50
90.0
1001
ACAD
1000
DSTYLE
1002
{
1070
   287
1070
     3
1070
   287
1070
     3
1070
    40
1040
30.0
1070
   143
1040
0.039
1070
   172
1070
     1
1070
   271
1070
     0
1070
   279
1070
     0
1070
   288
1070
     1
1002
}
  0
DIMENSION
  5
7CC3
  8
3
  6
CONTINUOUS
  2
*D15
 10
4917.5785109999997
 20
4064.814754999999
 30
0.0
 11
4799.125206033088
 21
4149.8062603610888
 31
0.0
 70
   128
 13
4676.5785109999988
 23
4010.0393349999999
 33
0.0
 14
4917.5785109999997
 24
3601.8585429999998
 34
0.0
1001
ACAD
1000
DSTYLE
1002
{
1070
   288
1070
     1
1070
   172
1070
     1
1070
    40
1040
30.0
1070
   271
1070
     0
1070
   143
1040
0.039
1002
}
  0
DIMENSION
  5
7CF1
  8
3
  6
CONTINUOUS
  2
*D16
 10
2780.7875519999998
 20
4098.5772489999999
 30
0.0
 11
2554.1603285000001
 21
4173.5772489999999
 31
0.0
 70
     0
  1
452
 13
2327.533105
 23
3906.2753799999991
 33
0.0
 14
2780.7875519999998
 24
3231.8585429999989
 34
0.0
1001
ACAD
1000
DSTYLE
1002
{
1070
   287
1070
     4
1070
   287
1070
     4
1070
    40
1040
30.0
1070
    75
1070
     1
1070
   143
1040
0.039
1070
   172
1070
     1
1070
   271
1070
     0
1070
   279
1070
     1
1070
   288
1070
     1
1002
}
  0
LINE
  5
7DD7
  8
1
  6
CONTINUOUS
 10
1917.533105
 20
3708.858542999998
 30
0.0
 11
1917.533105
 21
2796.8585429999989
 31
0.0
  0
LINE
  5
7DD8
  8
1
  6
CONTINUOUS
 10
2737.5331049999991
 20
3708.8585429999989
 30
0.0
 11
2737.533105
 21
2796.8585429999989
 31
0.0
  0
ENDSEC
  0
EOF
