  0
SECTION
  2
HEADER
  9
$ACADVER
  1
AC1009
  9
$INSBASE
 10
0.0
 20
0.0
 30
0.0
  9
$EXTMIN
 10
750.0
 20
900.0
 30
0.0
  9
$EXTMAX
 10
5550.0
 20
8359.9567849999985
 30
0.0
  9
$LIMMIN
 10
0.0
 20
0.0
  9
$LIMMAX
 10
297.0
 20
210.0
  9
$ORTHOMODE
 70
     0
  9
$REGENMODE
 70
     1
  9
$FILLMODE
 70
     0
  9
$QTEXTMODE
 70
     0
  9
$MIRRTEXT
 70
     1
  9
$DRAGMODE
 70
     2
  9
$LTSCALE
 40
100.0
  9
$OSMODE
 70
    37
  9
$ATTMODE
 70
     1
  9
$TEXTSIZE
 40
180.0
  9
$TRACEWID
 40
0.05
  9
$TEXTSTYLE
  7
STANDARD
  9
$CLAYER
  8
3
  9
$CELTYPE
  6
BYLAYER
  9
$CECOLOR
 62
   256
  9
$DIMSCALE
 40
30.0
  9
$DIMASZ
 40
2.0
  9
$DIMEXO
 40
0.5
  9
$DIMDLI
 40
10.0
  9
$DIMRND
 40
0.0
  9
$DIMDLE
 40
0.0
  9
$DIMEXE
 40
1.0
  9
$DIMTP
 40
1.0
  9
$DIMTM
 40
1.0
  9
$DIMTXT
 40
3.0
  9
$DIMCEN
 40
0.0
  9
$DIMTSZ
 40
0.0
  9
$DIMTOL
 70
     0
  9
$DIMLIM
 70
     0
  9
$DIMTIH
 70
     0
  9
$DIMTOH
 70
     0
  9
$DIMSE1
 70
     0
  9
$DIMSE2
 70
     0
  9
$DIMTAD
 70
     1
  9
$DIMZIN
 70
     8
  9
$DIMBLK
  1

  9
$DIMASO
 70
     1
  9
$DIMSHO
 70
     1
  9
$DIMPOST
  1

  9
$DIMAPOST
  1

  9
$DIMALT
 70
     0
  9
$DIMALTD
 70
     2
  9
$DIMALTF
 40
0.039
  9
$DIMLFAC
 40
1.0
  9
$DIMTOFL
 70
     1
  9
$DIMTVP
 40
0.0
  9
$DIMTIX
 70
     0
  9
$DIMSOXD
 70
     0
  9
$DIMSAH
 70
     1
  9
$DIMBLK1
  1
OPEN
  9
$DIMBLK2
  1
OPEN
  9
$DIMSTYLE
  2
IGA
  9
$DIMCLRD
 70
     0
  9
$DIMCLRE
 70
     0
  9
$DIMCLRT
 70
     0
  9
$DIMTFAC
 40
10.0
  9
$DIMGAP
 40
1.0
  9
$LUNITS
 70
     2
  9
$LUPREC
 70
     3
  9
$SKETCHINC
 40
0.1
  9
$FILLETRAD
 40
50.0
  9
$AUNITS
 70
     0
  9
$AUPREC
 70
     0
  9
$MENU
  1
acad
  9
$ELEVATION
 40
0.0
  9
$PELEVATION
 40
0.0
  9
$THICKNESS
 40
0.0
  9
$LIMCHECK
 70
     0
  9
$BLIPMODE
 70
     0
  9
$CHAMFERA
 40
0.5
  9
$CHAMFERB
 40
0.5
  9
$SKPOLY
 70
     0
  9
$TDCREATE
 40
2450738.4552019672
  9
$TDUPDATE
 40
2454953.7714460301
  9
$TDINDWG
 40
0.0737009722
  9
$TDUSRTIMER
 40
0.0737009722
  9
$USRTIMER
 70
     1
  9
$ANGBASE
 50
0.0
  9
$ANGDIR
 70
     0
  9
$PDMODE
 70
     0
  9
$PDSIZE
 40
0.0
  9
$PLINEWID
 40
0.0
  9
$COORDS
 70
     1
  9
$SPLFRAME
 70
     0
  9
$SPLINETYPE
 70
     6
  9
$SPLINESEGS
 70
     8
  9
$ATTDIA
 70
     0
  9
$ATTREQ
 70
     1
  9
$HANDLING
 70
 10241
  9
$HANDSEED
  5
7FD8
  9
$SURFTAB1
 70
     6
  9
$SURFTAB2
 70
     6
  9
$SURFTYPE
 70
     6
  9
$SURFU
 70
     6
  9
$SURFV
 70
     6
  9
$UCSNAME
  2

  9
$UCSORG
 10
0.0
 20
0.0
 30
0.0
  9
$UCSXDIR
 10
1.0
 20
0.0
 30
0.0
  9
$UCSYDIR
 10
0.0
 20
1.0
 30
0.0
  9
$PUCSNAME
  2

  9
$PUCSORG
 10
0.0
 20
0.0
 30
0.0
  9
$PUCSXDIR
 10
1.0
 20
0.0
 30
0.0
  9
$PUCSYDIR
 10
0.0
 20
1.0
 30
0.0
  9
$USERI1
 70
     0
  9
$USERI2
 70
     0
  9
$USERI3
 70
     0
  9
$USERI4
 70
     0
  9
$USERI5
 70
     0
  9
$USERR1
 40
0.0
  9
$USERR2
 40
0.0
  9
$USERR3
 40
0.0
  9
$USERR4
 40
0.0
  9
$USERR5
 40
0.0
  9
$WORLDVIEW
 70
     1
  9
$SHADEDGE
 70
     3
  9
$SHADEDIF
 70
    70
  9
$TILEMODE
 70
     1
  9
$MAXACTVP
 70
    16
  9
$PLIMCHECK
 70
     0
  9
$PEXTMIN
 10
1.0000000000000000E+020
 20
1.0000000000000000E+020
 30
1.0000000000000000E+020
  9
$PEXTMAX
 10
-1.0000000000000000E+020
 20
-1.0000000000000000E+020
 30
-1.0000000000000000E+020
  9
$PLIMMIN
 10
0.0
 20
0.0
  9
$PLIMMAX
 10
12.0
 20
9.0
  9
$UNITMODE
 70
     0
  9
$VISRETAIN
 70
     0
  9
$PLINEGEN
 70
     0
  9
$PSLTSCALE
 70
     1
  0
ENDSEC
  0
SECTION
  2
TABLES
  0
TABLE
  2
VPORT
 70
     2
  0
VPORT
  2
*ACTIVE
 70
     0
 10
0.0
 20
0.0
 11
1.0
 21
1.0
 12
9438.4567678319436
 22
4630.0975558305709
 13
0.0
 23
0.0
 14
10.0
 24
10.0
 15
10.0
 25
10.0
 16
0.0
 26
0.0
 36
1.0
 17
0.0
 27
0.0
 37
0.0
 40
7517.4747125171307
 41
3.1666666666666661
 42
50.0
 43
0.0
 44
0.0
 50
0.0
 51
0.0
 71
     0
 72
   100
 73
     1
 74
     0
 75
     0
 76
     0
 77
     0
 78
     0
  0
ENDTAB
  0
TABLE
  2
LTYPE
 70
     2
  0
LTYPE
  2
CONTINUOUS
 70
     0
  3
Solid line
 72
    65
 73
     0
 40
0.0
  0
LTYPE
  2
CENTER
 70
     0
  3
____ _ ____ _ ____ _ ____ _ ____ _ ____ _ ____ 
 72
    65
 73
     4
 40
2.0
 49
1.25
 49
-0.25
 49
0.25
 49
-0.25
  0
ENDTAB
  0
TABLE
  2
LAYER
 70
     6
  0
LAYER
  2
0
 70
     0
 62
     7
  6
CONTINUOUS
  0
LAYER
  2
3
 70
     0
 62
     2
  6
CONTINUOUS
  0
LAYER
  2
2
 70
     0
 62
     3
  6
CENTER
  0
LAYER
  2
1
 70
     0
 62
     4
  6
CONTINUOUS
  0
LAYER
  2
4
 70
     0
 62
     7
  6
CONTINUOUS
  0
LAYER
  2
DEFPOINTS
 70
     0
 62
     7
  6
CONTINUOUS
  0
ENDTAB
  0
TABLE
  2
STYLE
 70
     1
  0
STYLE
  2
STANDARD
 70
     0
 40
0.0
 41
1.0
 50
0.0
 71
     0
 42
180.0
  3
simplex.shx
  4
extfont.shx
  0
ENDTAB
  0
TABLE
  2
VIEW
 70
     0
  0
ENDTAB
  0
TABLE
  2
UCS
 70
     0
  0
ENDTAB
  0
TABLE
  2
APPID
 70
     1
  0
APPID
  2
ACAD
 70
     0
  0
ENDTAB
  0
TABLE
  2
DIMSTYLE
 70
     1
  0
DIMSTYLE
  2
IGA
 70
     0
  3

  4

  5

  6
OPEN
  7
OPEN
 40
2.0
 41
2.0
 42
0.5
 43
10.0
 44
1.0
 45
0.0
 46
0.0
 47
1.0
 48
1.0
140
3.0
141
0.0
142
0.0
143
0.03937
144
1.0
145
0.0
146
10.0
147
1.0
 71
     0
 72
     0
 73
     0
 74
     0
 75
     0
 76
     0
 77
     1
 78
     8
170
     0
171
     2
172
     0
173
     1
174
     0
175
     0
176
     0
177
     0
178
     0
  0
ENDTAB
  0
ENDSEC
  0
SECTION
  2
BLOCKS
  0
BLOCK
  8
0
  2
$MODEL_SPACE
 70
     0
 10
0.0
 20
0.0
 30
0.0
  3
$MODEL_SPACE
  1

  0
ENDBLK
  5
1B
  8
0
  0
BLOCK
 67
     1
  8
0
  2
$PAPER_SPACE
 70
     0
 10
0.0
 20
0.0
 30
0.0
  3
$PAPER_SPACE
  1

  0
ENDBLK
  5
18
 67
     1
  8
0
  0
BLOCK
  8
0
  2
_OPEN
 70
     0
 10
0.0
 20
0.0
 30
0.0
  3
_OPEN
  1

  0
LINE
  5
7AE6
  8
0
  6
BYBLOCK
 62
     0
 10
-1.0
 20
0.166667
 30
0.0
 11
0.0
 21
0.0
 31
0.0
  0
LINE
  5
7AE7
  8
0
  6
BYBLOCK
 62
     0
 10
0.0
 20
0.0
 30
0.0
 11
-1.0
 21
-0.166667
 31
0.0
  0
LINE
  5
7AE8
  8
0
  6
BYBLOCK
 62
     0
 10
0.0
 20
0.0
 30
0.0
 11
-1.0
 21
0.0
 31
0.0
  0
ENDBLK
  5
7AE9
  8
0
  0
BLOCK
  8
0
  2
*D1
 70
     1
 10
0.0
 20
0.0
 30
0.0
  3
*D1
  1

  0
LINE
  5
7F3C
  8
3
  6
CONTINUOUS
 62
     0
 10
2820.7437410000002
 20
3787.7848680000002
 30
0.0
 11
3056.4095120000011
 21
3787.7848680000002
 31
0.0
  0
LINE
  5
7F3D
  8
3
  6
CONTINUOUS
 62
     0
 10
2820.7437410000002
 20
3137.7848680000002
 30
0.0
 11
3056.4095120000011
 21
3137.7848680000002
 31
0.0
  0
LINE
  5
7F3E
  8
3
  6
CONTINUOUS
 62
     0
 10
3026.4095120000011
 20
3727.7848680000002
 30
0.0
 11
3026.4095120000011
 21
3197.7848680000002
 31
0.0
  0
INSERT
  5
7F3F
  8
3
  6
CONTINUOUS
 62
     0
  2
_OPEN
 10
3026.4095120000011
 20
3787.7848680000002
 30
0.0
 41
60.0
 42
60.0
 43
60.0
 50
90.0
  0
INSERT
  5
7F40
  8
3
  6
CONTINUOUS
 62
     0
  2
_OPEN
 10
3026.4095120000011
 20
3137.7848680000002
 30
0.0
 41
60.0
 42
60.0
 43
60.0
 50
270.0
  0
TEXT
  8
3
  40
90
  5
7FC7
  62
0
  72
0
  71
0
 10
2771.41
 20
3285.37
 30
0.000000
  1
650
  0
POINT
  5
7F42
  8
DEFPOINTS
  6
CONTINUOUS
 62
     0
 10
2805.7437410000002
 20
3787.7848680000002
 30
0.0
  0
POINT
  5
7F43
  8
DEFPOINTS
  6
CONTINUOUS
 62
     0
 10
2805.7437410000002
 20
3137.7848680000002
 30
0.0
  0
POINT
  5
7F44
  8
DEFPOINTS
  6
CONTINUOUS
 62
     0
 10
3026.4095120000011
 20
3137.7848680000002
 30
0.0
  0
ENDBLK
  5
7AF6
  8
0
  0
BLOCK
  8
0
  2
*D2
 70
     1
 10
0.0
 20
0.0
 30
0.0
  3
*D2
  1

  0
LINE
  5
7F45
  8
3
  6
CONTINUOUS
 62
     0
 10
2820.7437410000002
 20
3787.7848680000002
 30
0.0
 11
3259.159427000001
 21
3787.7848680000002
 31
0.0
  0
LINE
  5
7F46
  8
3
  6
CONTINUOUS
 62
     0
 10
2943.3813570000002
 20
3167.7848680000002
 30
0.0
 11
3259.159427000001
 21
3167.7848680000002
 31
0.0
  0
LINE
  5
7F47
  8
3
  6
CONTINUOUS
 62
     0
 10
3229.159427000001
 20
3727.7848680000002
 30
0.0
 11
3229.159427000001
 21
3227.7848680000002
 31
0.0
  0
INSERT
  5
7F48
  8
3
  6
CONTINUOUS
 62
     0
  2
_OPEN
 10
3229.159427000001
 20
3787.7848680000002
 30
0.0
 41
60.0
 42
60.0
 43
60.0
 50
90.0
  0
INSERT
  5
7F49
  8
3
  6
CONTINUOUS
 62
     0
  2
_OPEN
 10
3229.159427000001
 20
3167.7848680000002
 30
0.0
 41
60.0
 42
60.0
 43
60.0
 50
270.0
  0
TEXT
  8
3
  40
90
  5
7FC8
  62
0
  72
0
  71
0
 10
2974.16
 20
3285.37
 30
0.000000
  1
620
  0
POINT
  5
7F4B
  8
DEFPOINTS
  6
CONTINUOUS
 62
     0
 10
2805.7437410000002
 20
3787.7848680000002
 30
0.0
  0
POINT
  5
7F4C
  8
DEFPOINTS
  6
CONTINUOUS
 62
     0
 10
2928.3813570000002
 20
3167.7848680000002
 30
0.0
  0
POINT
  5
7F4D
  8
DEFPOINTS
  6
CONTINUOUS
 62
     0
 10
3229.159427000001
 20
3167.7848680000002
 30
0.0
  0
ENDBLK
  5
7B03
  8
0
  0
BLOCK
  8
0
  2
*D3
 70
     1
 10
0.0
 20
0.0
 30
0.0
  3
*D3
  1

  0
LINE
  5
7F4E
  8
3
  6
CONTINUOUS
 62
     0
 10
2765.7437410000002
 20
2597.7848680000002
 30
0.0
 11
3259.1594270000001
 21
2597.7848679999988
 31
0.0
  0
LINE
  5
7F4F
  8
3
  6
CONTINUOUS
 62
     0
 10
3229.1594270000001
 20
3107.7848679999988
 30
0.0
 11
3229.1594270000001
 21
2657.7848680000002
 31
0.0
  0
INSERT
  5
7F50
  8
3
  6
CONTINUOUS
 62
     0
  2
_OPEN
 10
3229.1594270000001
 20
3167.7848680000002
 30
0.0
 41
60.0
 42
60.0
 43
60.0
 50
90.0
  0
INSERT
  5
7F51
  8
3
  6
CONTINUOUS
 62
     0
  2
_OPEN
 10
3229.1594270000001
 20
2597.7848679999988
 30
0.0
 41
60.0
 42
60.0
 43
60.0
 50
270.0
  0
TEXT
  8
3
  40
90
  5
7FC9
  62
0
  72
0
  71
0
 10
2974.16
 20
2723.48
 30
0.000000
  1
570
  0
POINT
  5
7F53
  8
DEFPOINTS
  6
CONTINUOUS
 62
     0
 10
2928.3813570000002
 20
3167.7848680000002
 30
0.0
  0
POINT
  5
7F54
  8
DEFPOINTS
  6
CONTINUOUS
 62
     0
 10
2750.7437410000002
 20
2597.7848680000002
 30
0.0
  0
POINT
  5
7F55
  8
DEFPOINTS
  6
CONTINUOUS
 62
     0
 10
3229.1594270000001
 20
2597.7848679999988
 30
0.0
  0
ENDBLK
  5
7B0F
  8
0
  0
BLOCK
  8
0
  2
*D4
 70
     1
 10
0.0
 20
0.0
 30
0.0
  3
*D4
  1

  0
LINE
  5
7F56
  8
3
  6
CONTINUOUS
 62
     0
 10
2820.7437410000002
 20
3827.7848680000002
 30
0.0
 11
3482.1843079999999
 21
3827.7848680000002
 31
0.0
  0
LINE
  5
7F57
  8
3
  6
CONTINUOUS
 62
     0
 10
2765.7437410000002
 20
2597.7848680000002
 30
0.0
 11
3482.1843079999999
 21
2597.7848679999988
 31
0.0
  0
LINE
  5
7F58
  8
3
  6
CONTINUOUS
 62
     0
 10
3452.1843080000008
 20
3767.7848679999988
 30
0.0
 11
3452.1843079999999
 21
2657.7848680000002
 31
0.0
  0
INSERT
  5
7F59
  8
3
  6
CONTINUOUS
 62
     0
  2
_OPEN
 10
3452.1843080000008
 20
3827.7848680000002
 30
0.0
 41
60.0
 42
60.0
 43
60.0
 50
90.0
  0
INSERT
  5
7F5A
  8
3
  6
CONTINUOUS
 62
     0
  2
_OPEN
 10
3452.1843079999999
 20
2597.7848679999988
 30
0.0
 41
60.0
 42
60.0
 43
60.0
 50
270.0
  0
TEXT
  8
3
  40
90
  5
7FCA
  62
0
  72
0
  71
0
 10
3197.18
 20
3008.53
 30
0.000000
  1
1230
  0
POINT
  5
7F5C
  8
DEFPOINTS
  6
CONTINUOUS
 62
     0
 10
2805.7437410000002
 20
3827.7848680000002
 30
0.0
  0
POINT
  5
7F5D
  8
DEFPOINTS
  6
CONTINUOUS
 62
     0
 10
2750.7437410000002
 20
2597.7848680000002
 30
0.0
  0
POINT
  5
7F5E
  8
DEFPOINTS
  6
CONTINUOUS
 62
     0
 10
3452.1843079999999
 20
2597.7848679999988
 30
0.0
  0
ENDBLK
  5
7B1C
  8
0
  0
BLOCK
  8
0
  2
*D5
 70
     1
 10
0.0
 20
0.0
 30
0.0
  3
*D5
  1

  0
LINE
  5
7F5F
  8
3
  6
CONTINUOUS
 62
     0
 10
1798.743741
 20
3223.7848680000002
 30
0.0
 11
1798.743741
 21
3981.0688319999999
 31
0.0
  0
LINE
  5
7F60
  8
3
  6
CONTINUOUS
 62
     0
 10
2260.7437410000002
 20
3951.0688319999999
 30
0.0
 11
1858.743741
 21
3951.0688319999999
 31
0.0
  0
INSERT
  5
7F61
  8
3
  6
CONTINUOUS
 62
     0
  2
_OPEN
 10
2320.7437410000002
 20
3951.0688319999999
 30
0.0
 41
60.0
 42
60.0
 43
60.0
  0
INSERT
  5
7F62
  8
3
  6
CONTINUOUS
 62
     0
  2
_OPEN
 10
1798.743741
 20
3951.0688319999999
 30
0.0
 41
60.0
 42
60.0
 43
60.0
 50
180.0
  0
TEXT
  8
3
  40
90
  5
7FCB
  62
0
  72
0
  71
0
 10
1879.74
 20
3866.77
 30
0.000000
  1
522
  0
POINT
  5
7F64
  8
DEFPOINTS
  6
CONTINUOUS
 62
     0
 10
2320.7437410000002
 20
3901.8277600000001
 30
0.0
  0
POINT
  5
7F65
  8
DEFPOINTS
  6
CONTINUOUS
 62
     0
 10
1798.743741
 20
3208.7848680000002
 30
0.0
  0
POINT
  5
7F66
  8
DEFPOINTS
  6
CONTINUOUS
 62
     0
 10
1798.743741
 20
3951.0688319999999
 30
0.0
  0
ENDBLK
  5
7E5C
  8
0
  0
BLOCK
  8
0
  2
*D6
 70
     1
 10
0.0
 20
0.0
 30
0.0
  3
*D6
  1

  0
LINE
  5
7F67
  8
3
  6
CONTINUOUS
 62
     0
 10
5043.8720799999992
 20
3802.7848680000002
 30
0.0
 11
5043.8720799999992
 21
3938.750671982807
 31
0.0
  0
LINE
  5
7F68
  8
3
  6
CONTINUOUS
 62
     0
 10
4568.8720800000001
 20
3802.7848680000002
 30
0.0
 11
4568.8720800000001
 21
3938.750671982807
 31
0.0
  0
LINE
  5
7F69
  8
3
  6
CONTINUOUS
 62
     0
 10
4983.872080000001
 20
3908.750671982807
 30
0.0
 11
4628.8720799999992
 21
3908.750671982807
 31
0.0
  0
INSERT
  5
7F6A
  8
3
  6
CONTINUOUS
 62
     0
  2
_OPEN
 10
5043.8720799999992
 20
3908.750671982807
 30
0.0
 41
60.0
 42
60.0
 43
60.0
  0
INSERT
  5
7F6B
  8
3
  6
CONTINUOUS
 62
     0
  2
_OPEN
 10
4568.8720800000001
 20
3908.750671982807
 30
0.0
 41
60.0
 42
60.0
 43
60.0
 50
180.0
  0
TEXT
  8
3
  40
90
  5
7FCC
  62
0
  72
0
  71
0
 10
4594.59
 20
3824.45
 30
0.000000
  1
475
  0
POINT
  5
7F6D
  8
DEFPOINTS
  6
CONTINUOUS
 62
     0
 10
5043.8720799999992
 20
3787.7848680000002
 30
0.0
  0
POINT
  5
7F6E
  8
DEFPOINTS
  6
CONTINUOUS
 62
     0
 10
4568.8720800000001
 20
3787.7848680000002
 30
0.0
  0
POINT
  5
7F6F
  8
DEFPOINTS
  6
CONTINUOUS
 62
     0
 10
4568.8720800000001
 20
3908.750671982807
 30
0.0
  0
ENDBLK
  5
7E35
  8
0
  0
BLOCK
  8
0
  2
*D7
 70
     1
 10
0.0
 20
0.0
 30
0.0
  3
*D7
  1

  0
LINE
  5
7F70
  8
3
  6
CONTINUOUS
 62
     0
 10
5058.8720800000001
 20
3502.7848680000002
 30
0.0
 11
5362.3166480000009
 21
3502.7848679999988
 31
0.0
  0
LINE
  5
7F71
  8
3
  6
CONTINUOUS
 62
     0
 10
5058.8720800000001
 20
2832.7848680000002
 30
0.0
 11
5362.3166480000009
 21
2832.7848680000002
 31
0.0
  0
LINE
  5
7F72
  8
3
  6
CONTINUOUS
 62
     0
 10
5332.3166480000009
 20
3442.7848679999988
 30
0.0
 11
5332.3166480000009
 21
2892.7848679999988
 31
0.0
  0
INSERT
  5
7F73
  8
3
  6
CONTINUOUS
 62
     0
  2
_OPEN
 10
5332.3166480000009
 20
3502.7848679999988
 30
0.0
 41
60.0
 42
60.0
 43
60.0
 50
90.0
  0
INSERT
  5
7F74
  8
3
  6
CONTINUOUS
 62
     0
  2
_OPEN
 10
5332.3166480000009
 20
2832.7848680000002
 30
0.0
 41
60.0
 42
60.0
 43
60.0
 50
270.0
  0
TEXT
  8
3
  40
90
  5
7FCD
  62
0
  72
0
  71
0
 10
5077.32
 20
3020.17
 30
0.000000
  1
φ670
  0
POINT
  5
7F76
  8
DEFPOINTS
  6
CONTINUOUS
 62
     0
 10
5043.8720799999992
 20
3502.7848680000002
 30
0.0
  0
POINT
  5
7F77
  8
DEFPOINTS
  6
CONTINUOUS
 62
     0
 10
5043.8720799999992
 20
2832.7848680000002
 30
0.0
  0
POINT
  5
7F78
  8
DEFPOINTS
  6
CONTINUOUS
 62
     0
 10
5332.3166480000009
 20
2832.7848680000002
 30
0.0
  0
ENDBLK
  5
7DFE
  8
0
  0
BLOCK
  8
0
  2
*D8
 70
     1
 10
0.0
 20
0.0
 30
0.0
  3
*D8
  1

  0
LINE
  5
7F79
  8
3
  6
CONTINUOUS
 62
     0
 10
4326.3720800000001
 20
3712.7848679999988
 30
0.0
 11
4326.3720800000001
 21
4179.4686890000003
 31
0.0
  0
LINE
  5
7F7A
  8
3
  6
CONTINUOUS
 62
     0
 10
4746.3720800000001
 20
4149.4686890000003
 30
0.0
 11
4386.3720800000001
 21
4149.4686890000003
 31
0.0
  0
INSERT
  5
7F7B
  8
3
  6
CONTINUOUS
 62
     0
  2
_OPEN
 10
4806.3720800000001
 20
4149.4686890000003
 30
0.0
 41
60.0
 42
60.0
 43
60.0
  0
INSERT
  5
7F7C
  8
3
  6
CONTINUOUS
 62
     0
  2
_OPEN
 10
4326.3720800000001
 20
4149.4686890000003
 30
0.0
 41
60.0
 42
60.0
 43
60.0
 50
180.0
  0
TEXT
  8
3
  40
90
  5
7FCE
  62
0
  72
0
  71
0
 10
4386.37
 20
4140.17
 30
0.000000
  1
MAX
  0
TEXT
  8
3
  40
90
  5
7FCF
  62
0
  72
0
  71
0
 10
4386.37
 20
4023.17
 30
0.000000
  1
530
  0
POINT
  5
7F7E
  8
DEFPOINTS
  6
CONTINUOUS
 62
     0
 10
4806.3720800000001
 20
4077.4288780000002
 30
0.0
  0
POINT
  5
7F7F
  8
DEFPOINTS
  6
CONTINUOUS
 62
     0
 10
4326.3720800000001
 20
3697.7848680000002
 30
0.0
  0
POINT
  5
7F80
  8
DEFPOINTS
  6
CONTINUOUS
 62
     0
 10
4326.3720800000001
 20
4149.4686890000003
 30
0.0
  0
ENDBLK
  5
7E08
  8
0
  0
BLOCK
  8
0
  2
*D9
 70
     1
 10
0.0
 20
0.0
 30
0.0
  3
*D9
  1

  0
LINE
  5
7F81
  8
3
  6
CONTINUOUS
 62
     0
 10
4395.3720800000001
 20
2582.7848680000002
 30
0.0
 11
4395.3720800000001
 21
2339.7257599999998
 31
0.0
  0
LINE
  5
7F82
  8
3
  6
CONTINUOUS
 62
     0
 10
4806.3720800000001
 20
2484.5264499999998
 30
0.0
 11
4806.3720800000001
 21
2339.7257599999998
 31
0.0
  0
LINE
  5
7F83
  8
3
  6
CONTINUOUS
 62
     0
 10
4455.3720800000001
 20
2369.7257599999998
 30
0.0
 11
4746.3720800000001
 21
2369.7257599999998
 31
0.0
  0
INSERT
  5
7F84
  8
3
  6
CONTINUOUS
 62
     0
  2
_OPEN
 10
4395.3720800000001
 20
2369.7257599999998
 30
0.0
 41
60.0
 42
60.0
 43
60.0
 50
180.0
  0
INSERT
  5
7F85
  8
3
  6
CONTINUOUS
 62
     0
  2
_OPEN
 10
4806.3720800000001
 20
2369.7257599999998
 30
0.0
 41
60.0
 42
60.0
 43
60.0
  0
TEXT
  8
3
  40
90
  5
7FD0
  62
0
  72
0
  71
0
 10
4448.51
 20
2285.43
 30
0.000000
  1
411
  0
POINT
  5
7F87
  8
DEFPOINTS
  6
CONTINUOUS
 62
     0
 10
4395.3720800000001
 20
2597.7848680000002
 30
0.0
  0
POINT
  5
7F88
  8
DEFPOINTS
  6
CONTINUOUS
 62
     0
 10
4806.3720800000001
 20
2499.5264499999989
 30
0.0
  0
POINT
  5
7F89
  8
DEFPOINTS
  6
CONTINUOUS
 62
     0
 10
4806.3720800000001
 20
2369.7257599999998
 30
0.0
  0
ENDBLK
  5
7C3A
  8
0
  0
BLOCK
  8
0
  2
*D10
 70
     1
 10
0.0
 20
0.0
 30
0.0
  3
*D10
  1

  0
LINE
  5
7F8A
  8
3
  6
CONTINUOUS
 62
     0
 10
5095.3720800000001
 20
2582.7848680000002
 30
0.0
 11
5095.3720800000001
 21
2339.7257599999998
 31
0.0
  0
LINE
  5
7F8B
  8
3
  6
CONTINUOUS
 62
     0
 10
4866.3720800000001
 20
2369.7257599999998
 30
0.0
 11
5035.372080000001
 21
2369.7257599999998
 31
0.0
  0
TEXT
  8
3
  40
90
  5
7FD1
  62
0
  72
0
  71
0
 10
4777.41
 20
2287.00
 30
0.000000
  1
289
  0
INSERT
  5
7F8D
  8
3
  6
CONTINUOUS
 62
     0
  2
_OPEN
 10
4806.3720800000001
 20
2369.7257599999998
 30
0.0
 41
60.0
 42
60.0
 43
60.0
 50
180.0
  0
INSERT
  5
7F8E
  8
3
  6
CONTINUOUS
 62
     0
  2
_OPEN
 10
5095.3720800000001
 20
2369.7257599999998
 30
0.0
 41
60.0
 42
60.0
 43
60.0
  0
POINT
  5
7F8F
  8
DEFPOINTS
  6
CONTINUOUS
 62
     0
 10
4806.3720800000001
 20
2499.5264499999989
 30
0.0
  0
POINT
  5
7F90
  8
DEFPOINTS
  6
CONTINUOUS
 62
     0
 10
5095.3720800000001
 20
2597.7848680000002
 30
0.0
  0
POINT
  5
7F91
  8
DEFPOINTS
  6
CONTINUOUS
 62
     0
 10
5095.3720800000001
 20
2369.7257599999998
 30
0.0
  0
ENDBLK
  5
7C2F
  8
0
  0
BLOCK
  8
0
  2
*D11
 70
     1
 10
0.0
 20
0.0
 30
0.0
  3
*D11
  1

  0
LINE
  5
7F92
  8
3
  6
CONTINUOUS
 62
     0
 10
1340.743741
 20
5925.3093589999999
 30
0.0
 11
1340.743741
 21
6140.4301230000001
 31
0.0
  0
LINE
  5
7F93
  8
3
  6
CONTINUOUS
 62
     0
 10
2750.7437410000002
 20
5925.3093589999999
 30
0.0
 11
2750.7437410000002
 21
6140.4301230000001
 31
0.0
  0
LINE
  5
7F94
  8
3
  6
CONTINUOUS
 62
     0
 10
1400.743741
 20
6110.4301230000001
 30
0.0
 11
2690.7437410000002
 21
6110.4301230000001
 31
0.0
  0
INSERT
  5
7F95
  8
3
  6
CONTINUOUS
 62
     0
  2
_OPEN
 10
1340.743741
 20
6110.4301230000001
 30
0.0
 41
60.0
 42
60.0
 43
60.0
 50
180.0
  0
INSERT
  5
7F96
  8
3
  6
CONTINUOUS
 62
     0
  2
_OPEN
 10
2750.7437410000002
 20
6110.4301230000001
 30
0.0
 41
60.0
 42
60.0
 43
60.0
  0
TEXT
  8
3
  40
90
  5
7FD2
  62
0
  72
0
  71
0
 10
1859.29
 20
6026.13
 30
0.000000
  1
1410
  0
POINT
  5
7F98
  8
DEFPOINTS
  6
CONTINUOUS
 62
     0
 10
1340.743741
 20
5910.3093590000008
 30
0.0
  0
POINT
  5
7F99
  8
DEFPOINTS
  6
CONTINUOUS
 62
     0
 10
2750.7437410000002
 20
5910.3093590000008
 30
0.0
  0
POINT
  5
7F9A
  8
DEFPOINTS
  6
CONTINUOUS
 62
     0
 10
2750.7437410000002
 20
6110.4301230000001
 30
0.0
  0
ENDBLK
  5
7C0F
  8
0
  0
BLOCK
  8
0
  2
*D12
 70
     1
 10
0.0
 20
0.0
 30
0.0
  3
*D12
  1

  0
LINE
  5
7F9B
  8
3
  6
CONTINUOUS
 62
     0
 10
2765.7437410000002
 20
5910.3093590000008
 30
0.0
 11
3107.4159200000008
 21
5910.3093590000008
 31
0.0
  0
LINE
  5
7F9C
  8
3
  6
CONTINUOUS
 62
     0
 10
2765.7437410000002
 20
5210.3093589999999
 30
0.0
 11
3107.4159200000008
 21
5210.3093589999999
 31
0.0
  0
LINE
  5
7F9D
  8
3
  6
CONTINUOUS
 62
     0
 10
3077.4159200000008
 20
5850.3093589999999
 30
0.0
 11
3077.4159200000008
 21
5270.3093590000008
 31
0.0
  0
INSERT
  5
7F9E
  8
3
  6
CONTINUOUS
 62
     0
  2
_OPEN
 10
3077.4159200000008
 20
5910.3093590000008
 30
0.0
 41
60.0
 42
60.0
 43
60.0
 50
90.0
  0
INSERT
  5
7F9F
  8
3
  6
CONTINUOUS
 62
     0
  2
_OPEN
 10
3077.4159200000008
 20
5210.3093589999999
 30
0.0
 41
60.0
 42
60.0
 43
60.0
 50
270.0
  0
TEXT
  8
3
  40
90
  5
7FD3
  62
0
  72
0
  71
0
 10
2822.42
 20
5460.52
 30
0.000000
  1
700
  0
POINT
  5
7FA1
  8
DEFPOINTS
  6
CONTINUOUS
 62
     0
 10
2750.7437410000002
 20
5910.3093590000008
 30
0.0
  0
POINT
  5
7FA2
  8
DEFPOINTS
  6
CONTINUOUS
 62
     0
 10
2750.7437410000002
 20
5210.3093589999999
 30
0.0
  0
POINT
  5
7FA3
  8
DEFPOINTS
  6
CONTINUOUS
 62
     0
 10
3077.4159200000008
 20
5210.3093589999999
 30
0.0
  0
ENDBLK
  5
7BB1
  8
0
  0
BLOCK
  8
0
  2
*D13
 70
     1
 10
0.0
 20
0.0
 30
0.0
  3
*D13
  1

  0
LINE
  5
7FA4
  8
3
  6
CONTINUOUS
 62
     0
 10
1340.743741
 20
2582.7848680000002
 30
0.0
 11
1340.743741
 21
2314.695565
 31
0.0
  0
LINE
  5
7FA5
  8
3
  6
CONTINUOUS
 62
     0
 10
2320.7437410000002
 20
2464.4013260000002
 30
0.0
 11
2320.7437410000002
 21
2314.695565
 31
0.0
  0
LINE
  5
7FA6
  8
3
  6
CONTINUOUS
 62
     0
 10
1400.743741
 20
2344.6955649999991
 30
0.0
 11
2260.7437410000002
 21
2344.6955649999991
 31
0.0
  0
INSERT
  5
7FA7
  8
3
  6
CONTINUOUS
 62
     0
  2
_OPEN
 10
1340.743741
 20
2344.6955649999991
 30
0.0
 41
60.0
 42
60.0
 43
60.0
 50
180.0
  0
INSERT
  5
7FA8
  8
3
  6
CONTINUOUS
 62
     0
  2
_OPEN
 10
2320.7437410000002
 20
2344.6955649999991
 30
0.0
 41
60.0
 42
60.0
 43
60.0
  0
TEXT
  8
3
  40
90
  5
7FD4
  62
0
  72
0
  71
0
 10
1668.26
 20
2260.40
 30
0.000000
  1
980
  0
POINT
  5
7FAA
  8
DEFPOINTS
  6
CONTINUOUS
 62
     0
 10
1340.743741
 20
2597.7848680000002
 30
0.0
  0
POINT
  5
7FAB
  8
DEFPOINTS
  6
CONTINUOUS
 62
     0
 10
2320.7437410000002
 20
2479.4013260000002
 30
0.0
  0
POINT
  5
7FAC
  8
DEFPOINTS
  6
CONTINUOUS
 62
     0
 10
2320.7437410000002
 20
2344.6955649999991
 30
0.0
  0
ENDBLK
  5
7BC4
  8
0
  0
BLOCK
  8
0
  2
*D14
 70
     1
 10
0.0
 20
0.0
 30
0.0
  3
*D14
  1

  0
LINE
  5
7FAD
  8
3
  6
CONTINUOUS
 62
     0
 10
2750.7437410000002
 20
2582.7848680000002
 30
0.0
 11
2750.7437410000002
 21
2314.695565
 31
0.0
  0
LINE
  5
7FAE
  8
3
  6
CONTINUOUS
 62
     0
 10
2380.7437410000002
 20
2344.6955649999991
 30
0.0
 11
2690.7437410000002
 21
2344.6955649999991
 31
0.0
  0
INSERT
  5
7FAF
  8
3
  6
CONTINUOUS
 62
     0
  2
_OPEN
 10
2320.7437410000002
 20
2344.6955649999991
 30
0.0
 41
60.0
 42
60.0
 43
60.0
 50
180.0
  0
INSERT
  5
7FB0
  8
3
  6
CONTINUOUS
 62
     0
  2
_OPEN
 10
2750.7437410000002
 20
2344.6955649999991
 30
0.0
 41
60.0
 42
60.0
 43
60.0
  0
TEXT
  8
3
  40
90
  5
7FD5
  62
0
  72
0
  71
0
 10
2355.74
 20
2260.40
 30
0.000000
  1
430
  0
POINT
  5
7FB2
  8
DEFPOINTS
  6
CONTINUOUS
 62
     0
 10
2320.7437410000002
 20
2479.4013260000002
 30
0.0
  0
POINT
  5
7FB3
  8
DEFPOINTS
  6
CONTINUOUS
 62
     0
 10
2750.7437410000002
 20
2597.7848680000002
 30
0.0
  0
POINT
  5
7FB4
  8
DEFPOINTS
  6
CONTINUOUS
 62
     0
 10
2750.7437410000002
 20
2344.6955649999991
 30
0.0
  0
ENDBLK
  5
7BEC
  8
0
  0
BLOCK
  8
0
  2
*D15
 70
     1
 10
0.0
 20
0.0
 30
0.0
  3
*D15
  1

  0
LINE
  5
7FB5
  8
3
  6
CONTINUOUS
 62
     0
 10
2320.7437410000002
 20
3916.8277600000001
 30
0.0
 11
2320.7437410000002
 21
3981.0688319999999
 31
0.0
  0
LINE
  5
7FB6
  8
3
  6
CONTINUOUS
 62
     0
 10
2805.7437410000002
 20
3842.7848680000002
 30
0.0
 11
2805.7437410000002
 21
3981.0688319999999
 31
0.0
  0
LINE
  5
7FB7
  8
3
  6
CONTINUOUS
 62
     0
 10
2380.7437410000002
 20
3951.0688319999999
 30
0.0
 11
2745.7437410000002
 21
3951.0688319999999
 31
0.0
  0
INSERT
  5
7FB8
  8
3
  6
CONTINUOUS
 62
     0
  2
_OPEN
 10
2320.7437410000002
 20
3951.0688319999999
 30
0.0
 41
60.0
 42
60.0
 43
60.0
 50
180.0
  0
INSERT
  5
7FB9
  8
3
  6
CONTINUOUS
 62
     0
  2
_OPEN
 10
2805.7437410000002
 20
3951.0688319999999
 30
0.0
 41
60.0
 42
60.0
 43
60.0
  0
TEXT
  8
3
  40
90
  5
7FD6
  62
0
  72
0
  71
0
 10
2383.24
 20
3866.77
 30
0.000000
  1
485
  0
POINT
  5
7FBB
  8
DEFPOINTS
  6
CONTINUOUS
 62
     0
 10
2320.7437410000002
 20
3901.8277600000001
 30
0.0
  0
POINT
  5
7FBC
  8
DEFPOINTS
  6
CONTINUOUS
 62
     0
 10
2805.7437410000002
 20
3827.7848680000002
 30
0.0
  0
POINT
  5
7FBD
  8
DEFPOINTS
  6
CONTINUOUS
 62
     0
 10
2805.7437410000002
 20
3951.0688319999999
 30
0.0
  0
ENDBLK
  5
7E40
  8
0
  0
BLOCK
  8
0
  2
*D16
 70
     1
 10
0.0
 20
0.0
 30
0.0
  3
*D16
  1

  0
LINE
  5
7E21
  8
0
  6
BYBLOCK
 62
     0
 10
4806.3720800000001
 20
4092.4288780000002
 30
0.0
 11
4806.3720800000001
 21
4179.4686890000003
 31
0.0
  0
LINE
  5
7E22
  8
0
  6
BYBLOCK
 62
     0
 10
5047.3720800000001
 20
3517.7848680000002
 30
0.0
 11
5047.3720800000001
 21
4179.4686890000003
 31
0.0
  0
LINE
  5
7E23
  8
0
  6
BYBLOCK
 62
     0
 10
4866.3720800000001
 20
4149.4686890000003
 30
0.0
 11
4987.3720800000001
 21
4149.4686890000003
 31
0.0
  0
TEXT
  5
7E24
  8
3
 62
     0
 10
4829.9741438562169
 20
4182.9046507922594
 30
0.0
 40
90.0
  1
241
  0
INSERT
  5
7E25
  8
0
  6
BYBLOCK
 62
     0
  2
_OPEN
 10
4806.3720800000001
 20
4149.4686890000003
 30
0.0
 41
60.0
 42
60.0
 43
60.0
 50
180.0
  0
INSERT
  5
7E26
  8
0
  6
BYBLOCK
 62
     0
  2
_OPEN
 10
5047.3720800000001
 20
4149.4686890000003
 30
0.0
 41
60.0
 42
60.0
 43
60.0
  0
POINT
  5
7E27
  8
DEFPOINTS
  6
BYBLOCK
 62
     0
 10
4806.3720800000001
 20
4077.4288780000002
 30
0.0
  0
POINT
  5
7E28
  8
DEFPOINTS
  6
BYBLOCK
 62
     0
 10
5047.3720800000001
 20
3502.7848680000002
 30
0.0
  0
POINT
  5
7E29
  8
DEFPOINTS
  6
BYBLOCK
 62
     0
 10
5047.3720800000001
 20
4149.4686890000003
 30
0.0
  0
ENDBLK
  5
7E2A
  8
0
  0
BLOCK
  8
0
  2
*D17
 70
     1
 10
0.0
 20
0.0
 30
0.0
  3
*D17
  1

  0
LINE
  5
7FBE
  8
3
 62
     0
 10
2805.7437410000002
 20
3842.7848680000002
 30
0.0
 11
2805.7437410000002
 21
4153.2767364502424
 31
0.0
  0
LINE
  5
7FBF
  8
3
 62
     0
 10
1340.743741
 20
2712.7848680000002
 30
0.0
 11
1340.743741
 21
4153.2767364502424
 31
0.0
  0
LINE
  5
7FC0
  8
3
 62
     0
 10
2745.7437410000002
 20
4123.2767364502406
 30
0.0
 11
1400.743741
 21
4123.2767364502406
 31
0.0
  0
INSERT
  5
7FC1
  8
3
 62
     0
  2
_OPEN
 10
2805.7437410000002
 20
4123.2767364502406
 30
0.0
 41
60.0
 42
60.0
 43
60.0
  0
INSERT
  5
7FC2
  8
3
 62
     0
  2
_OPEN
 10
1340.743741
 20
4123.2767364502406
 30
0.0
 41
60.0
 42
60.0
 43
60.0
 50
180.0
  0
TEXT
  8
3
  40
90
  5
7FD7
  62
0
  72
0
  71
0
 10
1873.43
 20
4038.98
 30
0.000000
  1
1465
  0
POINT
  5
7FC4
  8
DEFPOINTS
 62
     0
 10
2805.7437410000002
 20
3827.7848680000002
 30
0.0
  0
POINT
  5
7FC5
  8
DEFPOINTS
 62
     0
 10
1340.743741
 20
2697.7848680000002
 30
0.0
  0
POINT
  5
7FC6
  8
DEFPOINTS
 62
     0
 10
1340.743741
 20
4123.2767364502406
 30
0.0
  0
ENDBLK
  5
7E4C
  8
0
  0
ENDSEC
  0
SECTION
  2
ENTITIES
  0
LINE
  5
7A63
  8
1
  6
CONTINUOUS
 10
2765.7437410000002
 20
5383.8093589999999
 30
0.0
 11
2765.7437410000002
 21
5858.8093590000008
 31
0.0
  0
LINE
  5
7A64
  8
1
  6
CONTINUOUS
 10
1797.252819999999
 20
5383.8093589999999
 30
0.0
 11
1797.252819999999
 21
5858.8093590000008
 31
0.0
  0
LINE
  5
7A65
  8
1
  6
CONTINUOUS
 10
2805.7437410000002
 20
5341.3093590000008
 30
0.0
 11
2805.7437410000002
 21
5901.3093590000008
 31
0.0
  0
LINE
  5
7A66
  8
1
  6
CONTINUOUS
 10
1437.8948499999999
 20
5313.041275999999
 30
0.0
 11
1437.8948499999999
 21
5798.0412759999999
 31
0.0
  0
LINE
  5
7A67
  8
1
  6
CONTINUOUS
 10
1761.8948499999999
 20
5313.041275999999
 30
0.0
 11
1761.8948499999999
 21
5798.0412759999999
 31
0.0
  0
LINE
  5
7A68
  8
1
  6
CONTINUOUS
 10
1340.743741
 20
5910.3093590000008
 30
0.0
 11
1340.743741
 21
5210.3093589999999
 31
0.0
  0
LINE
  5
7A69
  8
1
  6
CONTINUOUS
 10
2660.7437410000002
 20
5281.3093590000008
 30
0.0
 11
1390.743741
 21
5281.3093590000008
 31
0.0
  0
LINE
  5
7A6A
  8
1
  6
CONTINUOUS
 10
2660.7437410000002
 20
5141.3093589999999
 30
0.0
 11
1390.743741
 21
5141.3093589999999
 31
0.0
  0
LINE
  5
7A6B
  8
1
  6
CONTINUOUS
 10
1437.8948499999999
 20
5313.041275999999
 30
0.0
 11
1761.8948499999999
 21
5313.041275999999
 31
0.0
  0
LINE
  5
7A6C
  8
1
  6
CONTINUOUS
 10
1753.8948499999999
 20
2737.7848680000002
 30
0.0
 11
1445.8948499999999
 21
2737.7848680000002
 31
0.0
  0
LINE
  5
7A6D
  8
1
  6
CONTINUOUS
 10
1390.743741
 20
2997.7848680000002
 30
0.0
 11
2220.7437410000002
 21
3697.7848680000002
 31
0.0
  0
LINE
  5
7A6E
  8
1
  6
CONTINUOUS
 10
1445.8948499999999
 20
2755.7848680000002
 30
0.0
 11
1467.2371840000001
 21
2804.801301
 31
0.0
  0
ARC
  5
7A6F
  8
1
  6
CONTINUOUS
 10
1599.8948499999999
 20
2897.7848680000002
 30
0.0
 40
162.0
 50
324.972283
 51
215.02771699999991
  0
LINE
  5
7A70
  8
1
  6
CONTINUOUS
 10
1340.743741
 20
2597.7848680000002
 30
0.0
 11
2750.7437410000002
 21
2597.7848680000002
 31
0.0
  0
LINE
  5
7A71
  8
1
  6
CONTINUOUS
 10
1340.743741
 20
5210.3093589999999
 30
0.0
 11
1519.8948499999999
 21
5210.3093589999999
 31
0.0
  0
LINE
  5
7A72
  8
1
  6
CONTINUOUS
 10
2762.7437410000002
 20
2697.7848680000002
 30
0.0
 11
1340.743741
 21
2697.7848680000002
 31
0.0
  0
LINE
  5
7A73
  8
1
  6
CONTINUOUS
 10
1445.8948499999999
 20
2697.7848680000002
 30
0.0
 11
1445.8948499999999
 21
2755.7848680000002
 31
0.0
  0
LINE
  5
7A74
  8
1
  6
CONTINUOUS
 10
1445.8948499999999
 20
2737.7848680000002
 30
0.0
 11
1445.8948499999999
 21
2755.7848680000002
 31
0.0
  0
LINE
  5
7A75
  8
1
  6
CONTINUOUS
 10
1390.743741
 20
2697.7848680000002
 30
0.0
 11
1390.743741
 21
2997.7848680000002
 31
0.0
  0
LINE
  5
7A76
  8
1
  6
CONTINUOUS
 10
1340.743741
 20
2697.7848680000002
 30
0.0
 11
1340.743741
 21
2597.7848680000002
 31
0.0
  0
LINE
  5
7A77
  8
1
  6
CONTINUOUS
 10
1390.743741
 20
5141.3093589999999
 30
0.0
 11
1390.743741
 21
5281.3093590000008
 31
0.0
  0
ARC
  5
7A78
  8
1
  6
CONTINUOUS
 10
2361.7437410000002
 20
3208.7848680000002
 30
0.0
 40
564.49092099999984
 50
94.165164000000004
 51
184.5139879999999
  0
CIRCLE
  5
7A79
  8
1
  6
CONTINUOUS
 10
2320.7437410000002
 20
3167.7848680000002
 30
0.0
 40
150.0
  0
LINE
  5
7A7A
  8
2
  6
CENTER
 10
5089.5827035887887
 20
3167.7848680000002
 30
0.0
 11
4265.3433916560452
 21
3167.7848680000002
 31
0.0
  0
ARC
  5
7A7B
  8
1
  6
CONTINUOUS
 10
2293.7437410000002
 20
3140.7848680000002
 30
0.0
 40
425.74044800000001
 50
277.35237899999998
 51
359.59625899999992
  0
LINE
  5
7A7C
  8
1
  6
CONTINUOUS
 10
2805.7437410000002
 20
3787.7848680000002
 30
0.0
 11
2320.7437410000002
 21
3771.7848680000002
 31
0.0
  0
LINE
  5
7A7D
  8
1
  6
CONTINUOUS
 10
2660.7437410000002
 20
3697.7848680000002
 30
0.0
 11
2220.7437410000002
 21
3697.7848680000002
 31
0.0
  0
LINE
  5
7A7E
  8
1
  6
CONTINUOUS
 10
2762.7437410000002
 20
3609.7848680000002
 30
0.0
 11
1878.743741
 21
3609.7848680000002
 31
0.0
  0
LINE
  5
7A81
  8
1
  6
CONTINUOUS
 10
1565.13743
 20
2969.8398590000002
 30
0.0
 11
2255.573578999999
 21
3302.887976
 31
0.0
  0
LINE
  5
7A82
  8
2
  6
CENTER
 10
2320.7437410000002
 20
5995.5725755247313
 30
0.0
 11
2320.7437410000002
 21
5072.4555288082611
 31
0.0
  0
LINE
  5
7A83
  8
1
  6
CONTINUOUS
 10
1878.743741
 20
3609.7848680000002
 30
0.0
 11
1878.743741
 21
2697.7848680000002
 31
0.0
  0
LINE
  5
7A84
  8
1
  6
CONTINUOUS
 10
1621.0266280000001
 20
2820.6262780000002
 30
0.0
 11
2360.3658260000002
 21
3023.1125120000002
 31
0.0
  0
ARC
  5
7A85
  8
1
  6
CONTINUOUS
 10
2285.7437410000002
 20
3202.7848680000002
 30
0.0
 40
488.25444700000003
 50
184.5139879999999
 51
277.35237899999998
  0
LINE
  5
7A86
  8
2
  6
CENTER
 10
1679.894849999999
 20
2897.7848680000002
 30
0.0
 11
1519.8948499999999
 21
2897.7848680000002
 31
0.0
  0
LINE
  5
7A87
  8
2
  6
CENTER
 10
1599.8948499999999
 20
2977.7848680000002
 30
0.0
 11
1599.8948499999999
 21
2817.7848680000002
 31
0.0
  0
LINE
  5
7A88
  8
1
  6
CONTINUOUS
 10
1753.8948499999999
 20
2697.7848680000002
 30
0.0
 11
1753.8948499999999
 21
2755.7848680000002
 31
0.0
  0
LINE
  5
7A89
  8
1
  6
CONTINUOUS
 10
1753.8948499999999
 20
2755.7848680000002
 30
0.0
 11
1732.5525150000001
 21
2804.801301
 31
0.0
  0
CIRCLE
  5
7A8A
  8
1
  6
CONTINUOUS
 10
1599.8948499999999
 20
2897.7848680000002
 30
0.0
 40
80.0
  0
LINE
  5
7A8B
  8
1
  6
CONTINUOUS
 10
2775.7437410000002
 20
3137.7848680000002
 30
0.0
 11
2775.7437410000002
 21
3786.4652799999999
 31
0.0
  0
LINE
  5
7A8C
  8
1
  6
CONTINUOUS
 10
2660.7437410000002
 20
2697.7848680000002
 30
0.0
 11
2660.7437410000002
 21
3697.7848680000002
 31
0.0
  0
LINE
  5
7A8D
  8
1
  6
CONTINUOUS
 10
2762.7437410000002
 20
3609.7848680000002
 30
0.0
 11
2762.7437410000002
 21
2697.7848680000002
 31
0.0
  0
LINE
  5
7A8E
  8
1
  6
CONTINUOUS
 10
2805.7437410000002
 20
3097.7848680000002
 30
0.0
 11
2805.7437410000002
 21
3827.7848680000002
 31
0.0
  0
LINE
  5
7A8F
  8
1
  6
CONTINUOUS
 10
2750.7437410000002
 20
2597.7848680000002
 30
0.0
 11
2750.7437410000002
 21
2697.7848680000002
 31
0.0
  0
LINE
  5
7A90
  8
1
  6
CONTINUOUS
 10
2719.4736200000002
 20
3137.7848680000002
 30
0.0
 11
2805.7437410000002
 21
3137.7848680000002
 31
0.0
  0
LINE
  5
7A91
  8
1
  6
CONTINUOUS
 10
2805.7437410000002
 20
5383.8093589999999
 30
0.0
 11
1797.252819999999
 21
5383.8093589999999
 31
0.0
  0
LINE
  5
7A92
  8
1
  6
CONTINUOUS
 10
2170.7437410000002
 20
5176.3093590000008
 30
0.0
 11
2470.7437410000002
 21
5176.3093590000008
 31
0.0
  0
LINE
  5
7A93
  8
1
  6
CONTINUOUS
 10
2170.7437410000002
 20
5246.3093590000008
 30
0.0
 11
2470.7437410000002
 21
5246.3093590000008
 31
0.0
  0
LINE
  5
7A94
  8
1
  6
CONTINUOUS
 10
1679.894849999999
 20
5210.3093589999999
 30
0.0
 11
2170.7437410000002
 21
5210.3093589999999
 31
0.0
  0
LINE
  5
7A95
  8
1
  6
CONTINUOUS
 10
1519.8948499999999
 20
5246.3093590000008
 30
0.0
 11
1679.894849999999
 21
5246.3093590000008
 31
0.0
  0
LINE
  5
7A96
  8
1
  6
CONTINUOUS
 10
1519.8948499999999
 20
5176.3093590000008
 30
0.0
 11
1679.894849999999
 21
5176.3093590000008
 31
0.0
  0
LINE
  5
7A97
  8
1
  6
CONTINUOUS
 10
1679.894849999999
 20
5176.3093590000008
 30
0.0
 11
1679.894849999999
 21
5246.3093590000008
 31
0.0
  0
LINE
  5
7A98
  8
1
  6
CONTINUOUS
 10
1519.8948499999999
 20
5176.3093590000008
 30
0.0
 11
1519.8948499999999
 21
5246.3093590000008
 31
0.0
  0
LINE
  5
7A99
  8
1
  6
CONTINUOUS
 10
1578.8948499999999
 20
5246.3093590000008
 30
0.0
 11
1578.8948499999999
 21
5313.041275999999
 31
0.0
  0
LINE
  5
7A9A
  8
1
  6
CONTINUOUS
 10
1620.894849999999
 20
5246.3093590000008
 30
0.0
 11
1620.894849999999
 21
5313.041275999999
 31
0.0
  0
LINE
  5
7A9B
  8
1
  6
CONTINUOUS
 10
1761.8948499999999
 20
5634.7577239999991
 30
0.0
 11
1761.8948499999999
 21
5392.5106840000008
 31
0.0
  0
LINE
  5
7A9C
  8
1
  6
CONTINUOUS
 10
2341.7437410000002
 20
5246.3093590000008
 30
0.0
 11
2341.7437410000002
 21
5383.8093589999999
 31
0.0
  0
LINE
  5
7A9D
  8
1
  6
CONTINUOUS
 10
2299.7437410000002
 20
5246.3093590000008
 30
0.0
 11
2299.7437410000002
 21
5383.8093589999999
 31
0.0
  0
LINE
  5
7A9E
  8
1
  6
CONTINUOUS
 10
2170.7437410000002
 20
5176.3093590000008
 30
0.0
 11
2170.7437410000002
 21
5246.3093590000008
 31
0.0
  0
LINE
  5
7A9F
  8
1
  6
CONTINUOUS
 10
2470.7437410000002
 20
5210.3093589999999
 30
0.0
 11
2750.7437410000002
 21
5210.3093589999999
 31
0.0
  0
LINE
  5
7AA0
  8
1
  6
CONTINUOUS
 10
2660.7437410000002
 20
5141.3093589999999
 30
0.0
 11
2660.7437410000002
 21
5281.3093590000008
 31
0.0
  0
LINE
  5
7AA1
  8
1
  6
CONTINUOUS
 10
2470.7437410000002
 20
5176.3093590000008
 30
0.0
 11
2470.7437410000002
 21
5246.3093590000008
 31
0.0
  0
LINE
  5
7AA2
  8
1
  6
CONTINUOUS
 10
2750.7437410000002
 20
5210.3093589999999
 30
0.0
 11
2750.7437410000002
 21
5383.8093589999999
 31
0.0
  0
LINE
  5
7AA3
  8
1
  6
CONTINUOUS
 10
4568.8720800000001
 20
3787.7848680000002
 30
0.0
 11
5043.8720799999992
 21
3137.7848680000002
 31
0.0
  0
LINE
  5
7AA4
  8
1
  6
CONTINUOUS
 10
5043.8720799999992
 20
3787.7848680000002
 30
0.0
 11
4568.8720800000001
 21
3137.7848680000002
 31
0.0
  0
LINE
  5
7AA5
  8
1
  6
CONTINUOUS
 10
4568.8720800000001
 20
3137.7848680000002
 30
0.0
 11
5043.8720799999992
 21
3137.7848680000002
 31
0.0
  0
LINE
  5
7AA6
  8
1
  6
CONTINUOUS
 10
4568.8720800000001
 20
3787.7848680000002
 30
0.0
 11
5043.8720799999992
 21
3787.7848680000002
 31
0.0
  0
LINE
  5
7AA7
  8
1
  6
CONTINUOUS
 10
4395.3720800000001
 20
2697.7848680000002
 30
0.0
 11
5095.3720800000001
 21
2697.7848680000002
 31
0.0
  0
LINE
  5
7AA8
  8
1
  6
CONTINUOUS
 10
4395.3720800000001
 20
2597.7848680000002
 30
0.0
 11
5095.3720800000001
 21
2597.7848680000002
 31
0.0
  0
LINE
  5
7AA9
  8
1
  6
CONTINUOUS
 10
4431.3720800000001
 20
3317.7848680000002
 30
0.0
 11
4431.3720800000001
 21
3017.7848680000002
 31
0.0
  0
LINE
  5
7AAA
  8
1
  6
CONTINUOUS
 10
4361.3720800000001
 20
3317.7848680000002
 30
0.0
 11
4361.3720800000001
 21
3017.7848680000002
 31
0.0
  0
LINE
  5
7AAB
  8
1
  6
CONTINUOUS
 10
4466.3720800000001
 20
3697.7848680000002
 30
0.0
 11
4466.3720800000001
 21
2697.7848680000002
 31
0.0
  0
LINE
  5
7AAC
  8
1
  6
CONTINUOUS
 10
4326.3720800000001
 20
3697.7848680000002
 30
0.0
 11
4326.3720800000001
 21
2697.7848680000002
 31
0.0
  0
LINE
  5
7AAD
  8
1
  6
CONTINUOUS
 10
4568.8720800000001
 20
3787.7848680000002
 30
0.0
 11
4568.8720800000001
 21
2697.7848680000002
 31
0.0
  0
LINE
  5
7AAE
  8
1
  6
CONTINUOUS
 10
4361.3720800000001
 20
2977.7848680000002
 30
0.0
 11
4431.3720800000001
 21
2977.7848680000002
 31
0.0
  0
LINE
  5
7AAF
  8
1
  6
CONTINUOUS
 10
4361.3720800000001
 20
2817.7848680000002
 30
0.0
 11
4431.3720800000001
 21
2817.7848680000002
 31
0.0
  0
LINE
  5
7AB0
  8
1
  6
CONTINUOUS
 10
4361.3720800000001
 20
3017.7848680000002
 30
0.0
 11
4431.3720800000001
 21
3017.7848680000002
 31
0.0
  0
LINE
  5
7AB1
  8
1
  6
CONTINUOUS
 10
4361.3720800000001
 20
2977.7848680000002
 30
0.0
 11
4361.3720800000001
 21
2817.7848680000002
 31
0.0
  0
LINE
  5
7AB2
  8
1
  6
CONTINUOUS
 10
4326.3720800000001
 20
2697.7848680000002
 30
0.0
 11
4395.3720800000001
 21
2697.7848680000002
 31
0.0
  0
LINE
  5
7AB3
  8
1
  6
CONTINUOUS
 10
4395.3720800000001
 20
2697.7848680000002
 30
0.0
 11
4395.3720800000001
 21
2597.7848680000002
 31
0.0
  0
LINE
  5
7AB4
  8
1
  6
CONTINUOUS
 10
4431.3720800000001
 20
2977.7848680000002
 30
0.0
 11
4431.3720800000001
 21
2817.7848680000002
 31
0.0
  0
LINE
  5
7AB5
  8
1
  6
CONTINUOUS
 10
4431.3720800000001
 20
2918.7848680000002
 30
0.0
 11
4568.8720800000001
 21
2918.7848680000002
 31
0.0
  0
LINE
  5
7AB6
  8
1
  6
CONTINUOUS
 10
4431.3720800000001
 20
2876.7848680000002
 30
0.0
 11
4568.8720800000001
 21
2876.7848680000002
 31
0.0
  0
LINE
  5
7AB7
  8
1
  6
CONTINUOUS
 10
4431.3720800000001
 20
3146.7848680000002
 30
0.0
 11
4568.8720800000001
 21
3146.7848680000002
 31
0.0
  0
LINE
  5
7AB8
  8
1
  6
CONTINUOUS
 10
4361.3720800000001
 20
3317.7848680000002
 30
0.0
 11
4431.3720800000001
 21
3317.7848680000002
 31
0.0
  0
LINE
  5
7AB9
  8
1
  6
CONTINUOUS
 10
4466.3720800000001
 20
3697.7848680000002
 30
0.0
 11
4326.3720800000001
 21
3697.7848680000002
 31
0.0
  0
LINE
  5
7ABA
  8
1
  6
CONTINUOUS
 10
4431.3720800000001
 20
3188.7848680000002
 30
0.0
 11
4568.8720800000001
 21
3188.7848680000002
 31
0.0
  0
LINE
  5
7ABB
  8
1
  6
CONTINUOUS
 10
5043.8720799999992
 20
3787.7848680000002
 30
0.0
 11
5043.8720799999992
 21
2697.7848680000002
 31
0.0
  0
LINE
  5
7ABC
  8
1
  6
CONTINUOUS
 10
5095.3720800000001
 20
2697.7848680000002
 30
0.0
 11
5095.3720800000001
 21
2597.7848680000002
 31
0.0
  0
LINE
  5
7ABD
  8
1
  6
CONTINUOUS
 10
2750.7437410000002
 20
5910.3093590000008
 30
0.0
 11
1340.743741
 21
5910.3093590000008
 31
0.0
  0
LINE
  5
7ABE
  8
1
  6
CONTINUOUS
 10
1437.8948499999999
 20
5798.0412759999999
 30
0.0
 11
1761.8948499999999
 21
5798.0412759999999
 31
0.0
  0
LINE
  5
7ABF
  8
1
  6
CONTINUOUS
 10
2805.7437410000002
 20
5858.8093590000008
 30
0.0
 11
1797.252819999999
 21
5858.8093590000008
 31
0.0
  0
LINE
  5
7AC0
  8
1
  6
CONTINUOUS
 10
2750.7437410000002
 20
5858.8093590000008
 30
0.0
 11
2750.7437410000002
 21
5910.3093590000008
 31
0.0
  0
LINE
  5
7AC1
  8
2
  6
CENTER
 10
1261.6814183191341
 20
5621.3093590000008
 30
0.0
 11
2857.1632676905679
 21
5621.3093590000008
 31
0.0
  0
LINE
  5
7AC2
  8
2
  6
CENTER
 10
4806.3720800000001
 20
3885.9147939999989
 30
0.0
 11
4806.3720800000001
 21
2499.5264499999989
 31
0.0
  0
LINE
  5
7AC3
  8
2
  6
CENTER
 10
2320.7437410000002
 20
3901.8277600000001
 30
0.0
 11
2320.7437410000002
 21
2479.4013260000002
 31
0.0
  0
LINE
  5
7AC4
  8
2
  6
CENTER
 10
2928.3813570000002
 20
3167.7848680000002
 30
0.0
 11
1386.917997
 21
3167.7848680000002
 31
0.0
  0
LINE
  5
7AC5
  8
4
  6
CONTINUOUS
 10
5550.0
 20
1500.0
 30
0.0
 11
5550.0
 21
900.0
 31
0.0
  0
LINE
  5
7AC6
  8
4
  6
CONTINUOUS
 10
3450.0
 20
1500.0
 30
0.0
 11
3450.0
 21
900.0
 31
0.0
  0
LINE
  5
7AC7
  8
4
  6
CONTINUOUS
 10
1950.0
 20
1500.0
 30
0.0
 11
1950.0
 21
900.0
 31
0.0
  0
LINE
  5
7ACA
  8
4
  6
CONTINUOUS
 10
1950.0
 20
900.0
 30
0.0
 11
5550.0
 21
900.0
 31
0.0
  0
LINE
  5
7ACB
  8
4
  6
CONTINUOUS
 10
1950.0
 20
1200.0
 30
0.0
 11
5550.0
 21
1200.0
 31
0.0
  0
TEXT
  5
7ACC
  8
4
  6
CONTINUOUS
 10
2065.5062429999989
 20
1294.6290779999999
 30
0.0
 40
150.0
  1
機器名称
  0
TEXT
  5
7ACD
  8
4
  6
CONTINUOUS
 10
2058.7743179999989
 20
964.9354699999999
 30
0.0
 40
150.0
  1
機器型番
  0
TEXT
  5
7ACE
  8
4
  6
CONTINUOUS
 10
3533.0362359999999
 20
1267.7153069999999
 30
0.0
 40
150.0
  1
ミツヤ多翼送風機
  0
TEXT
  5
7ACF
  8
4
  6
CONTINUOUS
 10
3559.9634869999991
 20
951.47875299999987
 30
0.0
 40
150.0
  1
MF#4-4
  0
TEXT
  5
7AD1
  8
4
  6
CONTINUOUS
 10
2471.543111
 20
7150.2865239999992
 30
0.0
 40
162.0
  1
床置ベット
  0
TEXT
  5
7AD2
  8
4
  6
CONTINUOUS
 10
948.50278000000014
 20
7601.6429289999996
 30
0.0
 40
216.0
  1
ベルト駆動式片吸込両持多翼ファン
  0
LINE
  5
7AD3
  8
4
  6
CONTINUOUS
 10
750.0
 20
7408.2262629999996
 30
0.0
 11
5550.0
 21
7408.2262629999996
 31
0.0
  0
LINE
  5
7AD4
  8
4
  6
CONTINUOUS
 10
750.0
 20
8008.2262629999996
 30
0.0
 11
5550.0
 21
8008.2262629999996
 31
0.0
  0
LINE
  5
7AD5
  8
4
  6
CONTINUOUS
 10
1950.0
 20
1500.0
 30
0.0
 11
5550.0
 21
1500.0
 31
0.0
  0
LINE
  5
7AD6
  8
4
  6
CONTINUOUS
 10
750.0
 20
8008.2262629999996
 30
0.0
 11
750.0
 21
7408.2262629999996
 31
0.0
  0
TEXT
  5
7AD7
  8
4
  6
CONTINUOUS
 10
1163.966615
 20
7146.9584329999998
 30
0.0
 40
162.0
  1
右回転右横向
  0
TEXT
  5
7AD8
  8
4
  6
CONTINUOUS
 10
4406.9086779999989
 20
8118.1832439999989
 30
0.0
 40
168.0
  1
No.
  0
TEXT
  5
7AD9
  8
4
  6
CONTINUOUS
 10
3933.8881879999999
 20
7150.2865239999992
 30
0.0
 40
162.0
  1
縮尺：1/30
  0
LINE
  5
7ADA
  8
4
  6
CONTINUOUS
 10
5550.0
 20
8008.2262629999996
 30
0.0
 11
5550.0
 21
7408.2262629999996
 31
0.0
  0
LINE
  5
7ADC
  8
4
  6
CONTINUOUS
 10
4321.8522670000002
 20
8043.7907490000007
 30
0.0
 11
4321.8522670000002
 21
8359.9567849999985
 31
0.0
  0
LINE
  5
7ADD
  8
4
  6
CONTINUOUS
 10
4321.8522670000002
 20
8359.9567849999985
 30
0.0
 11
5550.0
 21
8359.9567849999985
 31
0.0
  0
LINE
  5
7ADE
  8
4
  6
CONTINUOUS
 10
5550.0
 20
8359.9567849999985
 30
0.0
 11
5550.0
 21
8043.7907490000007
 31
0.0
  0
LINE
  5
7ADF
  8
4
  6
CONTINUOUS
 10
5550.0
 20
8043.7907490000007
 30
0.0
 11
4321.8522670000002
 21
8043.7907490000007
 31
0.0
  0
DIMENSION
  5
7AF7
  8
3
  6
CONTINUOUS
  2
*D1
 10
3026.4095120000011
 20
3137.7848680000002
 30
0.0
 11
3026.4095120000002
 21
3444.666302000001
 31
0.0
 70
   128
 13
2805.7437410000002
 23
3787.7848680000002
 33
0.0
 14
2805.7437410000002
 24
3137.7848680000002
 34
0.0
 50
90.0
1001
ACAD
1000
DSTYLE
1002
{
1070
   287
1070
     3
1070
   287
1070
     3
1070
    40
1040
30.0
1070
   143
1040
0.039
1070
   172
1070
     1
1070
   271
1070
     0
1070
   279
1070
     0
1070
   288
1070
     1
1002
}
  0
DIMENSION
  5
7B04
  8
3
  6
CONTINUOUS
  2
*D2
 10
3229.159427000001
 20
3167.7848680000002
 30
0.0
 11
3229.1594270000001
 21
3444.666302000001
 31
0.0
 70
   128
 13
2805.7437410000002
 23
3787.7848680000002
 33
0.0
 14
2928.3813570000002
 24
3167.7848680000002
 34
0.0
 50
90.0
1001
ACAD
1000
DSTYLE
1002
{
1070
   287
1070
     3
1070
   287
1070
     3
1070
    40
1040
30.0
1070
   143
1040
0.039
1070
   172
1070
     1
1070
   271
1070
     0
1070
   279
1070
     0
1070
   288
1070
     1
1002
}
  0
DIMENSION
  5
7B10
  8
3
  6
CONTINUOUS
  2
*D3
 10
3229.1594270000001
 20
2597.7848679999988
 30
0.0
 11
3154.1594269999991
 21
2882.7848680000002
 31
0.0
 70
     0
 13
2928.3813570000002
 23
3167.7848680000002
 33
0.0
 14
2750.7437410000002
 24
2597.7848680000002
 34
0.0
 50
90.0
1001
ACAD
1000
DSTYLE
1002
{
1070
   287
1070
     4
1070
   287
1070
     4
1070
    40
1040
30.0
1070
    75
1070
     1
1070
   143
1040
0.039
1070
   172
1070
     1
1070
   271
1070
     0
1070
   279
1070
     1
1070
   288
1070
     1
1002
}
  0
DIMENSION
  5
7B1D
  8
3
  6
CONTINUOUS
  2
*D4
 10
3452.1843079999999
 20
2597.7848679999988
 30
0.0
 11
3452.184307999999
 21
3167.8329229999999
 31
0.0
 70
   128
 13
2805.7437410000002
 23
3827.7848680000002
 33
0.0
 14
2750.7437410000002
 24
2597.7848680000002
 34
0.0
 50
90.0
1001
ACAD
1000
DSTYLE
1002
{
1070
   287
1070
     3
1070
   287
1070
     3
1070
    40
1040
30.0
1070
   143
1040
0.039
1070
   172
1070
     1
1070
   271
1070
     0
1070
   279
1070
     0
1070
   288
1070
     1
1002
}
  0
DIMENSION
  5
7B46
  8
3
  6
CONTINUOUS
  2
*D5
 10
1798.743741
 20
3951.0688319999999
 30
0.0
 11
2059.7437410000002
 21
4026.068831999999
 31
0.0
 70
     0
 13
2320.7437410000002
 23
3901.8277600000001
 33
0.0
 14
1798.743741
 24
3208.7848680000002
 34
0.0
1001
ACAD
1000
DSTYLE
1002
{
1070
   287
1070
     4
1070
   287
1070
     4
1070
    40
1040
30.0
1070
    75
1070
     1
1070
   143
1040
0.039
1070
   172
1070
     1
1070
   271
1070
     0
1070
   279
1070
     1
1070
   288
1070
     1
1002
}
  0
DIMENSION
  5
7B53
  8
3
  6
CONTINUOUS
  2
*D6
 10
4568.8720800000001
 20
3908.750671982807
 30
0.0
 11
4774.5863657142854
 21
3908.750671982807
 31
0.0
 70
   128
 13
5043.8720799999992
 23
3787.7848680000002
 33
0.0
 14
4568.8720800000001
 24
3787.7848680000002
 34
0.0
1001
ACAD
1000
DSTYLE
1002
{
1070
   287
1070
     3
1070
   287
1070
     3
1070
    40
1040
30.0
1070
   143
1040
0.039
1070
   172
1070
     1
1070
   271
1070
     0
1070
   279
1070
     0
1070
   288
1070
     1
1002
}
  0
LINE
  5
7B56
  8
1
  6
CONTINUOUS
 10
5047.3720800000001
 20
3502.7848680000002
 30
0.0
 11
5047.3720800000001
 21
2832.7848680000002
 31
0.0
  0
DIMENSION
  5
7B63
  8
3
  6
CONTINUOUS
  2
*D7
 10
5332.3166480000009
 20
2832.7848680000002
 30
0.0
 11
5332.3166479999991
 21
3179.4686829999991
 31
0.0
 70
   128
 13
5043.8720799999992
 23
3502.7848680000002
 33
0.0
 14
5043.8720799999992
 24
2832.7848680000002
 34
0.0
 50
90.0
1001
ACAD
1000
DSTYLE
1002
{
1070
   287
1070
     3
1070
   287
1070
     3
1070
     3
1000
φ<>
1070
    40
1040
30.0
1070
   143
1040
0.039
1070
   172
1070
     1
1070
   271
1070
     0
1070
   279
1070
     0
1070
   288
1070
     1
1002
}
  0
DIMENSION
  5
7B7D
  8
3
  6
CONTINUOUS
  2
*D8
 10
4326.3720800000001
 20
4149.4686890000003
 30
0.0
 11
4566.3720799999992
 21
4299.4686890000003
 31
0.0
 70
     0
  1
MAX\P530
 13
4806.3720800000001
 23
4077.4288780000002
 33
0.0
 14
4326.3720800000001
 24
3697.7848680000002
 34
0.0
1001
ACAD
1000
DSTYLE
1002
{
1070
   287
1070
     4
1070
   287
1070
     4
1070
    40
1040
30.0
1070
    75
1070
     1
1070
   143
1040
0.039
1070
   172
1070
     1
1070
   271
1070
     0
1070
   279
1070
     1
1070
   288
1070
     1
1002
}
  0
DIMENSION
  5
7B8A
  8
3
  6
CONTINUOUS
  2
*D9
 10
4806.3720800000001
 20
2369.7257599999998
 30
0.0
 11
4628.5149369999999
 21
2369.7257599999998
 31
0.0
 70
   128
 13
4395.3720800000001
 23
2597.7848680000002
 33
0.0
 14
4806.3720800000001
 24
2499.5264499999989
 34
0.0
1001
ACAD
1000
DSTYLE
1002
{
1070
   287
1070
     3
1070
   287
1070
     3
1070
    40
1040
30.0
1070
   143
1040
0.039
1070
   172
1070
     1
1070
   271
1070
     0
1070
   279
1070
     0
1070
   288
1070
     1
1002
}
  0
DIMENSION
  5
7B98
  8
3
  6
CONTINUOUS
  2
*D10
 10
5095.3720800000001
 20
2369.7257599999998
 30
0.0
 11
4957.4063059999999
 21
2371.295302
 31
0.0
 70
   128
 13
4806.3720800000001
 23
2499.5264499999989
 33
0.0
 14
5095.3720800000001
 24
2597.7848680000002
 34
0.0
1001
ACAD
1000
DSTYLE
1002
{
1070
   287
1070
     4
1070
   287
1070
     4
1070
    40
1040
30.0
1070
    75
1070
     1
1070
   143
1040
0.039
1070
   172
1070
     1
1070
   271
1070
     0
1070
   279
1070
     1
1070
   288
1070
     1
1002
}
  0
DIMENSION
  5
7BA5
  8
3
  6
CONTINUOUS
  2
*D11
 10
2750.7437410000002
 20
6110.4301230000001
 30
0.0
 11
2039.29396
 21
6110.4301230000001
 31
0.0
 70
   128
 13
1340.743741
 23
5910.3093590000008
 33
0.0
 14
2750.7437410000002
 24
5910.3093590000008
 34
0.0
1001
ACAD
1000
DSTYLE
1002
{
1070
   287
1070
     3
1070
   287
1070
     3
1070
    40
1040
30.0
1070
   143
1040
0.039
1070
   172
1070
     1
1070
   271
1070
     0
1070
   279
1070
     0
1070
   288
1070
     1
1002
}
  0
DIMENSION
  5
7BB2
  8
3
  6
CONTINUOUS
  2
*D12
 10
3077.4159200000008
 20
5210.3093589999999
 30
0.0
 11
3077.415919999999
 21
5619.8198469999998
 31
0.0
 70
   128
 13
2750.7437410000002
 23
5910.3093590000008
 33
0.0
 14
2750.7437410000002
 24
5210.3093589999999
 34
0.0
 50
90.0
1001
ACAD
1000
DSTYLE
1002
{
1070
   287
1070
     3
1070
   287
1070
     3
1070
    40
1040
30.0
1070
   143
1040
0.039
1070
   172
1070
     1
1070
   271
1070
     0
1070
   279
1070
     0
1070
   288
1070
     1
1002
}
  0
DIMENSION
  5
7BC5
  8
3
  6
CONTINUOUS
  2
*D13
 10
2320.7437410000002
 20
2344.6955649999991
 30
0.0
 11
1848.258194
 21
2344.6955649999991
 31
0.0
 70
   128
 13
1340.743741
 23
2597.7848680000002
 33
0.0
 14
2320.7437410000002
 24
2479.4013260000002
 34
0.0
1001
ACAD
1000
DSTYLE
1002
{
1070
   287
1070
     3
1070
   287
1070
     3
1070
    40
1040
30.0
1070
   143
1040
0.039
1070
   172
1070
     1
1070
   271
1070
     0
1070
   279
1070
     0
1070
   288
1070
     1
1002
}
  0
DIMENSION
  5
7BED
  8
3
  6
CONTINUOUS
  2
*D14
 10
2750.7437410000002
 20
2344.6955649999991
 30
0.0
 11
2535.7437410000002
 21
2419.695565
 31
0.0
 70
     0
 13
2320.7437410000002
 23
2479.4013260000002
 33
0.0
 14
2750.7437410000002
 24
2597.7848680000002
 34
0.0
1001
ACAD
1000
DSTYLE
1002
{
1070
   287
1070
     4
1070
   287
1070
     4
1070
    40
1040
30.0
1070
    75
1070
     1
1070
   143
1040
0.039
1070
   172
1070
     1
1070
   271
1070
     0
1070
   279
1070
     1
1070
   288
1070
     1
1002
}
  0
DIMENSION
  5
7BF9
  8
3
  6
CONTINUOUS
  2
*D15
 10
2805.7437410000002
 20
3951.0688319999999
 30
0.0
 11
2563.2437410000002
 21
4026.068831999999
 31
0.0
 70
     0
 13
2320.7437410000002
 23
3901.8277600000001
 33
0.0
 14
2805.7437410000002
 24
3827.7848680000002
 34
0.0
1001
ACAD
1000
DSTYLE
1002
{
1070
   287
1070
     3
1070
   287
1070
     3
1070
    40
1040
30.0
1070
   143
1040
0.039
1070
   172
1070
     1
1070
   271
1070
     0
1070
   279
1070
     0
1070
   288
1070
     1
1002
}
  0
DIMENSION
  5
7C81
  8
3
  6
CONTINUOUS
  2
*D16
 10
5047.3720800000001
 20
4149.4686890000003
 30
0.0
 11
4926.4027152847893
 21
4227.9046507922594
 31
0.0
 70
   128
 13
4806.3720800000001
 23
4077.4288780000002
 33
0.0
 14
5047.3720800000001
 24
3502.7848680000002
 34
0.0
1001
ACAD
1000
DSTYLE
1002
{
1070
   288
1070
     1
1070
   172
1070
     1
1070
    40
1040
30.0
1070
   271
1070
     0
1070
   143
1040
0.039
1002
}
  0
DIMENSION
  5
7E4D
  8
3
  2
*D17
 10
1340.743741
 20
4123.2767364502406
 30
0.0
 11
2053.4268332246829
 21
4123.2767364502406
 31
0.0
 70
   128
 13
2805.7437410000002
 23
3827.7848680000002
 33
0.0
 14
1340.743741
 24
2697.7848680000002
 34
0.0
1001
ACAD
1000
DSTYLE
1002
{
1070
   287
1070
     3
1070
   287
1070
     3
1070
    40
1040
30.0
1070
   143
1040
0.039
1070
   172
1070
     1
1070
   271
1070
     0
1070
   279
1070
     0
1070
   288
1070
     1
1002
}
  0
ENDSEC
  0
EOF
